  0
SECTION
  2
HEADER
  9
$ACADVER
  1
AC1009
  9
$INSBASE
 10
0.0
 20
0.0
 30
0.0
  9
$EXTMIN
 10
0.0
 20
0.0
 30
0.0
  9
$EXTMAX
 10
3150.0
 20
4425.0
 30
0.0
  9
$LIMMIN
 10
0.0
 20
0.0
  9
$LIMMAX
 10
297.0
 20
210.0
  9
$ORTHOMODE
 70
     0
  9
$REGENMODE
 70
     1
  9
$FILLMODE
 70
     0
  9
$QTEXTMODE
 70
     0
  9
$MIRRTEXT
 70
     1
  9
$DRAGMODE
 70
     2
  9
$LTSCALE
 40
100.0
  9
$OSMODE
 70
    37
  9
$ATTMODE
 70
     1
  9
$TEXTSIZE
 40
180.0
  9
$TRACEWID
 40
0.05
  9
$TEXTSTYLE
  7
STANDARD
  9
$CLAYER
  8
3
  9
$CELTYPE
  6
BYLAYER
  9
$CECOLOR
 62
   256
  9
$DIMSCALE
 40
15.0
  9
$DIMASZ
 40
2.0
  9
$DIMEXO
 40
0.5
  9
$DIMDLI
 40
10.0
  9
$DIMRND
 40
0.0
  9
$DIMDLE
 40
0.0
  9
$DIMEXE
 40
1.0
  9
$DIMTP
 40
1.0
  9
$DIMTM
 40
1.0
  9
$DIMTXT
 40
3.0
  9
$DIMCEN
 40
0.0
  9
$DIMTSZ
 40
0.0
  9
$DIMTOL
 70
     0
  9
$DIMLIM
 70
     0
  9
$DIMTIH
 70
     0
  9
$DIMTOH
 70
     0
  9
$DIMSE1
 70
     0
  9
$DIMSE2
 70
     0
  9
$DIMTAD
 70
     1
  9
$DIMZIN
 70
     8
  9
$DIMBLK
  1

  9
$DIMASO
 70
     1
  9
$DIMSHO
 70
     1
  9
$DIMPOST
  1

  9
$DIMAPOST
  1

  9
$DIMALT
 70
     0
  9
$DIMALTD
 70
     2
  9
$DIMALTF
 40
0.039
  9
$DIMLFAC
 40
1.0
  9
$DIMTOFL
 70
     1
  9
$DIMTVP
 40
0.0
  9
$DIMTIX
 70
     0
  9
$DIMSOXD
 70
     0
  9
$DIMSAH
 70
     1
  9
$DIMBLK1
  1
OPEN
  9
$DIMBLK2
  1
OPEN
  9
$DIMSTYLE
  2
IGA
  9
$DIMCLRD
 70
     0
  9
$DIMCLRE
 70
     0
  9
$DIMCLRT
 70
     0
  9
$DIMTFAC
 40
10.0
  9
$DIMGAP
 40
1.0
  9
$LUNITS
 70
     2
  9
$LUPREC
 70
     3
  9
$SKETCHINC
 40
0.1
  9
$FILLETRAD
 40
50.0
  9
$AUNITS
 70
     0
  9
$AUPREC
 70
     0
  9
$MENU
  1
acad
  9
$ELEVATION
 40
0.0
  9
$PELEVATION
 40
0.0
  9
$THICKNESS
 40
0.0
  9
$LIMCHECK
 70
     0
  9
$BLIPMODE
 70
     0
  9
$CHAMFERA
 40
0.5
  9
$CHAMFERB
 40
0.5
  9
$SKPOLY
 70
     0
  9
$TDCREATE
 40
2452811.6421113419
  9
$TDUPDATE
 40
2454953.8497558101
  9
$TDINDWG
 40
0.0290404514
  9
$TDUSRTIMER
 40
0.0290404514
  9
$USRTIMER
 70
     1
  9
$ANGBASE
 50
0.0
  9
$ANGDIR
 70
     0
  9
$PDMODE
 70
     0
  9
$PDSIZE
 40
0.0
  9
$PLINEWID
 40
0.0
  9
$COORDS
 70
     1
  9
$SPLFRAME
 70
     0
  9
$SPLINETYPE
 70
     6
  9
$SPLINESEGS
 70
     8
  9
$ATTDIA
 70
     0
  9
$ATTREQ
 70
     1
  9
$HANDLING
 70
 10241
  9
$HANDSEED
  5
8235
  9
$SURFTAB1
 70
     6
  9
$SURFTAB2
 70
     6
  9
$SURFTYPE
 70
     6
  9
$SURFU
 70
     6
  9
$SURFV
 70
     6
  9
$UCSNAME
  2

  9
$UCSORG
 10
0.0
 20
0.0
 30
0.0
  9
$UCSXDIR
 10
1.0
 20
0.0
 30
0.0
  9
$UCSYDIR
 10
0.0
 20
1.0
 30
0.0
  9
$PUCSNAME
  2

  9
$PUCSORG
 10
0.0
 20
0.0
 30
0.0
  9
$PUCSXDIR
 10
1.0
 20
0.0
 30
0.0
  9
$PUCSYDIR
 10
0.0
 20
1.0
 30
0.0
  9
$USERI1
 70
     0
  9
$USERI2
 70
     0
  9
$USERI3
 70
     0
  9
$USERI4
 70
     0
  9
$USERI5
 70
     0
  9
$USERR1
 40
0.0
  9
$USERR2
 40
0.0
  9
$USERR3
 40
0.0
  9
$USERR4
 40
0.0
  9
$USERR5
 40
0.0
  9
$WORLDVIEW
 70
     1
  9
$SHADEDGE
 70
     3
  9
$SHADEDIF
 70
    70
  9
$TILEMODE
 70
     1
  9
$MAXACTVP
 70
    16
  9
$PLIMCHECK
 70
     0
  9
$PEXTMIN
 10
1.0000000000000000E+020
 20
1.0000000000000000E+020
 30
1.0000000000000000E+020
  9
$PEXTMAX
 10
-1.0000000000000000E+020
 20
-1.0000000000000000E+020
 30
-1.0000000000000000E+020
  9
$PLIMMIN
 10
0.0
 20
0.0
  9
$PLIMMAX
 10
12.0
 20
9.0
  9
$UNITMODE
 70
     0
  9
$VISRETAIN
 70
     0
  9
$PLINEGEN
 70
     0
  9
$PSLTSCALE
 70
     1
  0
ENDSEC
  0
SECTION
  2
TABLES
  0
TABLE
  2
VPORT
 70
     2
  0
VPORT
  2
*ACTIVE
 70
     0
 10
0.0
 20
0.0
 11
1.0
 21
1.0
 12
4520.9869848156186
 22
3003.7483620440212
 13
0.0
 23
0.0
 14
10.0
 24
10.0
 15
10.0
 25
10.0
 16
0.0
 26
0.0
 36
1.0
 17
0.0
 27
0.0
 37
0.0
 40
6007.4967240880433
 41
1.5051150895140659
 42
50.0
 43
0.0
 44
0.0
 50
0.0
 51
0.0
 71
     0
 72
   100
 73
     1
 74
     0
 75
     0
 76
     0
 77
     0
 78
     0
  0
ENDTAB
  0
TABLE
  2
LTYPE
 70
     2
  0
LTYPE
  2
CONTINUOUS
 70
     0
  3
Solid line
 72
    65
 73
     0
 40
0.0
  0
LTYPE
  2
CENTER
 70
     0
  3
____ _ ____ _ ____ _ ____ _ ____ _ ____ _ ____ 
 72
    65
 73
     4
 40
2.0
 49
1.25
 49
-0.25
 49
0.25
 49
-0.25
  0
ENDTAB
  0
TABLE
  2
LAYER
 70
     6
  0
LAYER
  2
0
 70
     0
 62
     7
  6
CONTINUOUS
  0
LAYER
  2
3
 70
     0
 62
     2
  6
CONTINUOUS
  0
LAYER
  2
2
 70
     0
 62
     3
  6
CENTER
  0
LAYER
  2
1
 70
     0
 62
     4
  6
CONTINUOUS
  0
LAYER
  2
4
 70
     0
 62
     7
  6
CONTINUOUS
  0
LAYER
  2
DEFPOINTS
 70
     0
 62
     7
  6
CONTINUOUS
  0
ENDTAB
  0
TABLE
  2
STYLE
 70
     1
  0
STYLE
  2
STANDARD
 70
     0
 40
0.0
 41
1.0
 50
0.0
 71
     0
 42
180.0
  3
simplex.shx
  4
extfont.shx
  0
ENDTAB
  0
TABLE
  2
VIEW
 70
     0
  0
ENDTAB
  0
TABLE
  2
UCS
 70
     0
  0
ENDTAB
  0
TABLE
  2
APPID
 70
     1
  0
APPID
  2
ACAD
 70
     0
  0
ENDTAB
  0
TABLE
  2
DIMSTYLE
 70
     1
  0
DIMSTYLE
  2
IGA
 70
     0
  3

  4

  5

  6
OPEN
  7
OPEN
 40
2.0
 41
2.0
 42
0.5
 43
10.0
 44
1.0
 45
0.0
 46
0.0
 47
1.0
 48
1.0
140
3.0
141
0.0
142
0.0
143
0.03937
144
1.0
145
0.0
146
10.0
147
1.0
 71
     0
 72
     0
 73
     0
 74
     0
 75
     0
 76
     0
 77
     1
 78
     8
170
     0
171
     2
172
     0
173
     1
174
     0
175
     0
176
     0
177
     0
178
     0
  0
ENDTAB
  0
ENDSEC
  0
SECTION
  2
BLOCKS
  0
BLOCK
  8
0
  2
$MODEL_SPACE
 70
     0
 10
0.0
 20
0.0
 30
0.0
  3
$MODEL_SPACE
  1

  0
ENDBLK
  5
1B
  8
0
  0
BLOCK
 67
     1
  8
0
  2
$PAPER_SPACE
 70
     0
 10
0.0
 20
0.0
 30
0.0
  3
$PAPER_SPACE
  1

  0
ENDBLK
  5
18
 67
     1
  8
0
  0
BLOCK
  8
0
  2
_OPEN
 70
     0
 10
0.0
 20
0.0
 30
0.0
  3
_OPEN
  1

  0
LINE
  5
79FD
  8
0
  6
BYBLOCK
 62
     0
 10
-1.0
 20
0.1666666666666666
 30
0.0
 11
0.0
 21
0.0
 31
0.0
  0
LINE
  5
79FE
  8
0
  6
BYBLOCK
 62
     0
 10
0.0
 20
0.0
 30
0.0
 11
-1.0
 21
-0.1666666666666666
 31
0.0
  0
LINE
  5
79FF
  8
0
  6
BYBLOCK
 62
     0
 10
0.0
 20
0.0
 30
0.0
 11
-1.0
 21
0.0
 31
0.0
  0
ENDBLK
  5
7A01
  8
0
  0
BLOCK
  8
0
  2
*D1
 70
     1
 10
0.0
 20
0.0
 30
0.0
  3
*D1
  1

  0
LINE
  5
8180
  8
3
 62
     0
 10
1023.715602481132
 20
1954.1568537686351
 30
0.0
 11
594.55417449502454
 21
1954.1568537686351
 31
0.0
  0
LINE
  5
8181
  8
3
 62
     0
 10
771.94247362364865
 20
1704.1568537686339
 30
0.0
 11
594.55417449502443
 21
1704.1568537686339
 31
0.0
  0
LINE
  5
8182
  8
3
 62
     0
 10
609.55417449502454
 20
1924.1568537686351
 30
0.0
 11
609.55417449502443
 21
1734.1568537686339
 31
0.0
  0
INSERT
  5
8183
  8
3
 62
     0
  2
_OPEN
 10
609.55417449502454
 20
1954.1568537686351
 30
0.0
 41
30.0
 42
30.0
 43
30.0
 50
90.0
  0
INSERT
  5
8184
  8
3
 62
     0
  2
_OPEN
 10
609.55417449502443
 20
1704.1568537686339
 30
0.0
 41
30.0
 42
30.0
 43
30.0
 50
270.0
  0
TEXT
  8
3
  40
45
  5
8223
  62
0
  72
0
  71
0
 10
482.054
 20
1751.89
 30
0.000000
  1
250
  0
POINT
  5
8186
  8
DEFPOINTS
 62
     0
 10
1031.215602481132
 20
1954.1568537686351
 30
0.0
  0
POINT
  5
8187
  8
DEFPOINTS
 62
     0
 10
779.44247362364877
 20
1704.1568537686339
 30
0.0
  0
POINT
  5
8188
  8
DEFPOINTS
 62
     0
 10
609.55417449502443
 20
1704.1568537686339
 30
0.0
  0
ENDBLK
  5
7EBD
  8
0
  0
BLOCK
  8
0
  2
*D2
 70
     1
 10
0.0
 20
0.0
 30
0.0
  3
*D2
  1

  0
LINE
  5
8189
  8
3
 62
     0
 10
809.71560248112371
 20
1304.1568537686369
 30
0.0
 11
594.5541744950242
 21
1304.1568537686369
 31
0.0
  0
LINE
  5
818A
  8
3
 62
     0
 10
609.55417449502409
 20
1674.1568537686339
 30
0.0
 11
609.55417449502409
 21
1334.1568537686369
 31
0.0
  0
INSERT
  5
818B
  8
3
 62
     0
  2
_OPEN
 10
609.55417449502409
 20
1704.1568537686339
 30
0.0
 41
30.0
 42
30.0
 43
30.0
 50
90.0
  0
INSERT
  5
818C
  8
3
 62
     0
  2
_OPEN
 10
609.55417449502409
 20
1304.1568537686369
 30
0.0
 41
30.0
 42
30.0
 43
30.0
 50
270.0
  0
TEXT
  8
3
  40
45
  5
8224
  62
0
  72
0
  71
0
 10
482.054
 20
1424.51
 30
0.000000
  1
400
  0
POINT
  5
818E
  8
DEFPOINTS
 62
     0
 10
779.44247362364877
 20
1704.1568537686339
 30
0.0
  0
POINT
  5
818F
  8
DEFPOINTS
 62
     0
 10
817.21560248112382
 20
1304.1568537686369
 30
0.0
  0
POINT
  5
8190
  8
DEFPOINTS
 62
     0
 10
609.55417449502409
 20
1304.1568537686369
 30
0.0
  0
ENDBLK
  5
7EB2
  8
0
  0
BLOCK
  8
0
  2
*D3
 70
     1
 10
0.0
 20
0.0
 30
0.0
  3
*D3
  1

  0
LINE
  5
7E9E
  8
0
  6
BYBLOCK
 62
     0
 10
779.71560248112382
 20
1268.1568537686401
 30
0.0
 11
594.5541744950242
 21
1268.1568537686401
 31
0.0
  0
LINE
  5
7E9F
  8
0
  6
BYBLOCK
 62
     0
 10
609.55417449502409
 20
1334.1568537686369
 30
0.0
 11
609.55417449502409
 21
1364.1568537686369
 31
0.0
  0
LINE
  5
7EA0
  8
0
  6
BYBLOCK
 62
     0
 10
609.55417449502409
 20
1238.156853768641
 30
0.0
 11
609.55417449502409
 21
1208.156853768641
 31
0.0
  0
TEXT
  5
7EA1
  8
3
 62
     0
 10
552.76846020930986
 20
1257.087458653137
 30
0.0
 40
45.0
  1
(36)
 50
90.0
  0
LINE
  5
7EA2
  8
0
  6
BYBLOCK
 62
     0
 10
609.55417449502409
 20
1304.1568537686369
 30
0.0
 11
609.55417449502409
 21
1268.1568537686401
 31
0.0
  0
INSERT
  5
7EA3
  8
0
  6
BYBLOCK
 62
     0
  2
_OPEN
 10
609.55417449502409
 20
1304.1568537686369
 30
0.0
 41
30.0
 42
30.0
 43
30.0
 50
270.0
  0
INSERT
  5
7EA4
  8
0
  6
BYBLOCK
 62
     0
  2
_DOT
 10
609.55417449502409
 20
1268.1568537686401
 30
0.0
 41
30.0
 42
30.0
 43
30.0
 50
90.0
  0
POINT
  5
7EA5
  8
DEFPOINTS
  6
BYBLOCK
 62
     0
 10
817.21560248112382
 20
1304.1568537686369
 30
0.0
  0
POINT
  5
7EA6
  8
DEFPOINTS
  6
BYBLOCK
 62
     0
 10
787.21560248112382
 20
1268.1568537686401
 30
0.0
  0
POINT
  5
7EA7
  8
DEFPOINTS
  6
BYBLOCK
 62
     0
 10
609.55417449502409
 20
1268.1568537686401
 30
0.0
  0
ENDBLK
  5
7EA8
  8
0
  0
BLOCK
  8
0
  2
_DOT
 70
     0
 10
0.0
 20
0.0
 30
0.0
  3
_DOT
  1

  0
LINE
  5
7E64
  8
0
  6
BYBLOCK
 62
     0
 10
0.0
 20
0.0
 30
0.0
 11
-1.0
 21
-0.0000000000000284
 31
0.0
  0
POLYLINE
  5
7E65
  8
0
  6
BYBLOCK
 62
     0
 66
     1
 10
0.0
 20
0.0
 30
0.0
 70
     1
 40
0.1666666666666666
 41
0.1666666666666666
  0
VERTEX
  5
81D0
  8
0
  6
BYBLOCK
 62
     0
 10
-0.0833333333333286
 20
-0.0000000000000284
 30
0.0
 42
1.0
  0
VERTEX
  5
81D1
  8
0
  6
BYBLOCK
 62
     0
 10
0.0833333333333286
 20
-0.0000000000000284
 30
0.0
 42
1.0
  0
SEQEND
  5
81D2
  8
0
  6
BYBLOCK
 62
     0
  0
ENDBLK
  5
7D9B
  8
0
  0
BLOCK
  8
0
  2
*D5
 70
     1
 10
0.0
 20
0.0
 30
0.0
  3
*D5
  1

  0
LINE
  5
8191
  8
3
 62
     0
 10
830.12097070166192
 20
1711.6568537686339
 30
0.0
 11
830.12097070166192
 21
2107.9643107207321
 31
0.0
  0
LINE
  5
8192
  8
3
 62
     0
 10
1052.2156024811329
 20
2015.06044792068
 30
0.0
 11
1052.2156024811329
 21
2107.9643107207321
 31
0.0
  0
LINE
  5
8193
  8
3
 62
     0
 10
860.12097070166203
 20
2092.9643107207321
 30
0.0
 11
1022.215602481133
 21
2092.9643107207321
 31
0.0
  0
INSERT
  5
8194
  8
3
 62
     0
  2
_OPEN
 10
830.12097070166192
 20
2092.9643107207321
 30
0.0
 41
30.0
 42
30.0
 43
30.0
 50
180.0
  0
INSERT
  5
8195
  8
3
 62
     0
  2
_OPEN
 10
1052.2156024811329
 20
2092.9643107207321
 30
0.0
 41
30.0
 42
30.0
 43
30.0
  0
TEXT
  8
3
  40
45
  5
8225
  62
0
  72
0
  71
0
 10
859.358
 20
2050.81
 30
0.000000
  1
222
  0
POINT
  5
8197
  8
DEFPOINTS
 62
     0
 10
830.12097070166192
 20
1704.1568537686339
 30
0.0
  0
POINT
  5
8198
  8
DEFPOINTS
 62
     0
 10
1052.2156024811329
 20
2007.5604479206791
 30
0.0
  0
POINT
  5
8199
  8
DEFPOINTS
 62
     0
 10
1052.2156024811329
 20
2092.9643107207321
 30
0.0
  0
ENDBLK
  5
7EF2
  8
0
  0
BLOCK
  8
0
  2
*D6
 70
     1
 10
0.0
 20
0.0
 30
0.0
  3
*D6
  1

  0
LINE
  5
819A
  8
3
 62
     0
 10
1367.2156024811329
 20
1961.656853768646
 30
0.0
 11
1367.2156024811329
 21
2107.9643107207321
 31
0.0
  0
LINE
  5
819B
  8
3
 62
     0
 10
1082.2156024811329
 20
2092.9643107207321
 30
0.0
 11
1337.2156024811329
 21
2092.9643107207321
 31
0.0
  0
INSERT
  5
819C
  8
3
 62
     0
  2
_OPEN
 10
1052.2156024811329
 20
2092.9643107207321
 30
0.0
 41
30.0
 42
30.0
 43
30.0
 50
180.0
  0
INSERT
  5
819D
  8
3
 62
     0
  2
_OPEN
 10
1367.2156024811329
 20
2092.9643107207321
 30
0.0
 41
30.0
 42
30.0
 43
30.0
  0
TEXT
  8
3
  40
45
  5
8226
  62
0
  72
0
  71
0
 10
1119.72
 20
2050.81
 30
0.000000
  1
315
  0
POINT
  5
819F
  8
DEFPOINTS
 62
     0
 10
1052.2156024811329
 20
2007.5604479206791
 30
0.0
  0
POINT
  5
81A0
  8
DEFPOINTS
 62
     0
 10
1367.2156024811329
 20
1954.156853768646
 30
0.0
  0
POINT
  5
81A1
  8
DEFPOINTS
 62
     0
 10
1367.2156024811329
 20
2092.9643107207321
 30
0.0
  0
ENDBLK
  5
7EDD
  8
0
  0
BLOCK
  8
0
  2
*D7
 70
     1
 10
0.0
 20
0.0
 30
0.0
  3
*D7
  1

  0
LINE
  5
81A2
  8
3
 62
     0
 10
787.21560248112291
 20
1245.656853768641
 30
0.0
 11
787.21560248112303
 21
2256.5645498185759
 31
0.0
  0
LINE
  5
81A3
  8
3
 62
     0
 10
1697.2156024811241
 20
1275.6568537686151
 30
0.0
 11
1697.2156024811241
 21
2256.5645498185759
 31
0.0
  0
LINE
  5
81A4
  8
3
 62
     0
 10
817.21560248112291
 20
2241.5645498185759
 30
0.0
 11
1667.2156024811241
 21
2241.5645498185759
 31
0.0
  0
INSERT
  5
81A5
  8
3
 62
     0
  2
_OPEN
 10
787.21560248112303
 20
2241.5645498185759
 30
0.0
 41
30.0
 42
30.0
 43
30.0
 50
180.0
  0
INSERT
  5
81A6
  8
3
 62
     0
  2
_OPEN
 10
1697.2156024811241
 20
2241.5645498185759
 30
0.0
 41
30.0
 42
30.0
 43
30.0
  0
TEXT
  8
3
  40
45
  5
8227
  62
0
  72
0
  71
0
 10
1180.48
 20
2199.41
 30
0.000000
  1
910
  0
POINT
  5
81A8
  8
DEFPOINTS
 62
     0
 10
787.21560248112291
 20
1238.156853768641
 30
0.0
  0
POINT
  5
81A9
  8
DEFPOINTS
 62
     0
 10
1697.2156024811241
 20
1268.1568537686151
 30
0.0
  0
POINT
  5
81AA
  8
DEFPOINTS
 62
     0
 10
1697.2156024811241
 20
2241.5645498185759
 30
0.0
  0
ENDBLK
  5
7F4F
  8
0
  0
BLOCK
  8
0
  2
*D8
 70
     1
 10
0.0
 20
0.0
 30
0.0
  3
*D8
  1

  0
LINE
  5
81AB
  8
3
 62
     0
 10
2343.6884352772499
 20
1960.4568537686359
 30
0.0
 11
2343.6884352772499
 21
2026.4413659339491
 31
0.0
  0
LINE
  5
81AC
  8
3
 62
     0
 10
2567.6884352772499
 20
1961.6568537686351
 30
0.0
 11
2567.6884352772499
 21
2026.4413659339491
 31
0.0
  0
LINE
  5
81AD
  8
3
 62
     0
 10
2373.6884352772499
 20
2011.4413659339491
 30
0.0
 11
2537.6884352772499
 21
2011.4413659339491
 31
0.0
  0
INSERT
  5
81AE
  8
3
 62
     0
  2
_OPEN
 10
2343.6884352772499
 20
2011.4413659339491
 30
0.0
 41
30.0
 42
30.0
 43
30.0
 50
180.0
  0
INSERT
  5
81AF
  8
3
 62
     0
  2
_OPEN
 10
2567.6884352772499
 20
2011.4413659339491
 30
0.0
 41
30.0
 42
30.0
 43
30.0
  0
TEXT
  8
3
  40
45
  5
8228
  62
0
  72
0
  71
0
 10
2373.76
 20
1969.29
 30
0.000000
  1
224
  0
POINT
  5
81B1
  8
DEFPOINTS
 62
     0
 10
2343.6884352772499
 20
1952.9568537686359
 30
0.0
  0
POINT
  5
81B2
  8
DEFPOINTS
 62
     0
 10
2567.6884352772499
 20
1954.1568537686351
 30
0.0
  0
POINT
  5
81B3
  8
DEFPOINTS
 62
     0
 10
2567.6884352772499
 20
2011.4413659339491
 30
0.0
  0
ENDBLK
  5
7F67
  8
0
  0
BLOCK
  8
0
  2
*D9
 70
     1
 10
0.0
 20
0.0
 30
0.0
  3
*D9
  1

  0
LINE
  5
81B4
  8
3
 62
     0
 10
2576.688435277249
 20
1893.156853768633
 30
0.0
 11
2576.688435277249
 21
2138.433480394252
 31
0.0
  0
LINE
  5
81B5
  8
3
 62
     0
 10
2455.688435277249
 20
2090.868464288224
 30
0.0
 11
2455.688435277249
 21
2138.433480394252
 31
0.0
  0
LINE
  5
81B6
  8
3
 62
     0
 10
2606.688435277249
 20
2123.4334803942529
 30
0.0
 11
2636.688435277249
 21
2123.4334803942529
 31
0.0
  0
LINE
  5
81B7
  8
3
 62
     0
 10
2425.688435277249
 20
2123.4334803942529
 30
0.0
 11
2395.688435277249
 21
2123.4334803942529
 31
0.0
  0
LINE
  5
81B8
  8
3
 62
     0
 10
2576.688435277249
 20
2123.4334803942529
 30
0.0
 11
2455.688435277249
 21
2123.4334803942529
 31
0.0
  0
INSERT
  5
81B9
  8
3
 62
     0
  2
_OPEN
 10
2576.688435277249
 20
2123.4334803942529
 30
0.0
 41
30.0
 42
30.0
 43
30.0
 50
180.0
  0
INSERT
  5
81BA
  8
3
 62
     0
  2
_OPEN
 10
2455.688435277249
 20
2123.4334803942529
 30
0.0
 41
30.0
 42
30.0
 43
30.0
  0
TEXT
  8
3
  40
45
  5
8229
  62
0
  72
0
  71
0
 10
2426.19
 20
2081.28
 30
0.000000
  1
121
  0
POINT
  5
81BC
  8
DEFPOINTS
 62
     0
 10
2576.688435277249
 20
1885.656853768633
 30
0.0
  0
POINT
  5
81BD
  8
DEFPOINTS
 62
     0
 10
2455.688435277249
 20
2083.368464288224
 30
0.0
  0
POINT
  5
81BE
  8
DEFPOINTS
 62
     0
 10
2455.688435277249
 20
2123.4334803942529
 30
0.0
  0
ENDBLK
  5
7E47
  8
0
  0
BLOCK
  8
0
  2
*D10
 70
     1
 10
0.0
 20
0.0
 30
0.0
  3
*D10
  1

  0
LINE
  5
81BF
  8
3
 62
     0
 10
2035.6884352772479
 20
1941.656853768633
 30
0.0
 11
2035.6884352772479
 21
2138.433480394252
 31
0.0
  0
LINE
  5
81C0
  8
3
 62
     0
 10
2425.688435277249
 20
2123.4334803942529
 30
0.0
 11
2065.6884352772481
 21
2123.4334803942529
 31
0.0
  0
INSERT
  5
81C1
  8
3
 62
     0
  2
_OPEN
 10
2455.688435277249
 20
2123.4334803942529
 30
0.0
 41
30.0
 42
30.0
 43
30.0
  0
INSERT
  5
81C2
  8
3
 62
     0
  2
_OPEN
 10
2035.6884352772479
 20
2123.4334803942529
 30
0.0
 41
30.0
 42
30.0
 43
30.0
 50
180.0
  0
TEXT
  8
3
  40
45
  5
822A
  62
0
  72
0
  71
0
 10
2155.69
 20
2118.78
 30
0.000000
  1
MAX
  0
TEXT
  8
3
  40
45
  5
822B
  62
0
  72
0
  71
0
 10
2155.69
 20
2060.28
 30
0.000000
  1
420
  0
POINT
  5
81C4
  8
DEFPOINTS
 62
     0
 10
2455.688435277249
 20
2083.368464288224
 30
0.0
  0
POINT
  5
81C5
  8
DEFPOINTS
 62
     0
 10
2035.6884352772479
 20
1934.156853768633
 30
0.0
  0
POINT
  5
81C6
  8
DEFPOINTS
 62
     0
 10
2035.6884352772479
 20
2123.4334803942529
 30
0.0
  0
ENDBLK
  5
7E3A
  8
0
  0
BLOCK
  8
0
  2
*D11
 70
     1
 10
0.0
 20
0.0
 30
0.0
  3
*D11
  1

  0
LINE
  5
81C7
  8
3
 62
     0
 10
2584.188435277249
 20
1861.656853768633
 30
0.0
 11
2714.81729498912
 21
1861.656853768633
 31
0.0
  0
LINE
  5
81C8
  8
3
 62
     0
 10
2584.188435277249
 20
1546.656853768633
 30
0.0
 11
2714.81729498912
 21
1546.656853768633
 31
0.0
  0
LINE
  5
81C9
  8
3
 62
     0
 10
2699.81729498912
 20
1831.656853768633
 30
0.0
 11
2699.81729498912
 21
1576.656853768633
 31
0.0
  0
INSERT
  5
81CA
  8
3
 62
     0
  2
_OPEN
 10
2699.81729498912
 20
1861.656853768633
 30
0.0
 41
30.0
 42
30.0
 43
30.0
 50
90.0
  0
INSERT
  5
81CB
  8
3
 62
     0
  2
_OPEN
 10
2699.81729498912
 20
1546.656853768633
 30
0.0
 41
30.0
 42
30.0
 43
30.0
 50
270.0
  0
TEXT
  8
3
  40
45
  5
822C
  62
0
  72
0
  71
0
 10
2572.32
 20
1627.80
 30
0.000000
  1
φ315
  0
POINT
  5
81CD
  8
DEFPOINTS
 62
     0
 10
2576.688435277249
 20
1861.656853768633
 30
0.0
  0
POINT
  5
81CE
  8
DEFPOINTS
 62
     0
 10
2576.688435277249
 20
1546.656853768633
 30
0.0
  0
POINT
  5
81CF
  8
DEFPOINTS
 62
     0
 10
2699.81729498912
 20
1546.656853768633
 30
0.0
  0
ENDBLK
  5
7E63
  8
0
  0
BLOCK
  8
0
  2
L-30-3
 70
     0
 10
0.0
 20
0.0
 30
0.0
  3
L-30-3
  1

  0
LINE
  5
7F71
  8
0
 10
115.2488417492448
 20
98.116970357453638
 30
0.0
 11
145.2488417492448
 21
98.116970357453638
 31
0.0
  0
LINE
  5
7F72
  8
0
 10
115.2488417492448
 20
98.116970357453638
 30
0.0
 11
115.2488417492448
 21
128.1169703574536
 31
0.0
  0
LINE
  5
7F73
  8
0
 10
145.2488417492448
 20
98.116970357453638
 30
0.0
 11
145.2488417492448
 21
99.116970357453638
 31
0.0
  0
LINE
  5
7F74
  8
0
 10
115.2488417492448
 20
128.1169703574536
 30
0.0
 11
116.2488417492448
 21
128.1169703574536
 31
0.0
  0
LINE
  5
7F75
  8
0
 10
122.2488417492448
 20
101.1169703574536
 30
0.0
 11
143.2488417492448
 21
101.1169703574536
 31
0.0
  0
LINE
  5
7F76
  8
0
 10
118.2488417492448
 20
105.1169703574536
 30
0.0
 11
118.2488417492448
 21
126.1169703574536
 31
0.0
  0
ARC
  5
7F77
  8
0
 10
143.2488417492448
 20
99.116970357453638
 30
0.0
 40
2.0
 50
0.0
 51
90.0
  0
ARC
  5
7F78
  8
0
 10
116.2488417492448
 20
126.1169703574536
 30
0.0
 40
2.0
 50
0.0
 51
90.0
  0
ARC
  5
7F79
  8
0
 10
122.2488417492448
 20
105.1169703574536
 30
0.0
 40
4.0
 50
180.0
 51
270.0
  0
ENDBLK
  5
7F7B
  8
0
  0
BLOCK
  8
0
  2
*D13
 70
     1
 10
0.0
 20
0.0
 30
0.0
  3
*D13
  1

  0
LINE
  5
81D9
  8
3
 62
     0
 10
2035.6884352772479
 20
1200.656853768633
 30
0.0
 11
2035.6884352772479
 21
1095.8855066398439
 31
0.0
  0
LINE
  5
81DA
  8
3
 62
     0
 10
2455.688435277249
 20
1200.656853768633
 30
0.0
 11
2455.688435277249
 21
1095.8855066398439
 31
0.0
  0
LINE
  5
81DB
  8
3
 62
     0
 10
2065.688435277249
 20
1110.8855066398439
 30
0.0
 11
2425.688435277249
 21
1110.8855066398439
 31
0.0
  0
INSERT
  5
81DC
  8
3
 62
     0
  2
_OPEN
 10
2035.6884352772479
 20
1110.8855066398439
 30
0.0
 41
30.0
 42
30.0
 43
30.0
 50
180.0
  0
INSERT
  5
81DD
  8
3
 62
     0
  2
_OPEN
 10
2455.688435277249
 20
1110.8855066398439
 30
0.0
 41
30.0
 42
30.0
 43
30.0
  0
TEXT
  8
3
  40
45
  5
822D
  62
0
  72
0
  71
0
 10
2155.69
 20
1068.74
 30
0.000000
  1
420
  0
POINT
  5
81DF
  8
DEFPOINTS
 62
     0
 10
2035.6884352772479
 20
1208.156853768633
 30
0.0
  0
POINT
  5
81E0
  8
DEFPOINTS
 62
     0
 10
2455.688435277249
 20
1208.1568537686319
 30
0.0
  0
POINT
  5
81E1
  8
DEFPOINTS
 62
     0
 10
2455.688435277249
 20
1110.8855066398439
 30
0.0
  0
ENDBLK
  5
7F9B
  8
0
  0
BLOCK
  8
0
  2
*D14
 70
     1
 10
0.0
 20
0.0
 30
0.0
  3
*D14
  1

  0
LINE
  5
81E2
  8
3
 62
     0
 10
2455.688435277249
 20
1200.656853768633
 30
0.0
 11
2455.688435277249
 21
1095.8855066398439
 31
0.0
  0
LINE
  5
81E3
  8
3
 62
     0
 10
2635.6884352772481
 20
1200.656853768633
 30
0.0
 11
2635.6884352772481
 21
1095.8855066398439
 31
0.0
  0
LINE
  5
81E4
  8
3
 62
     0
 10
2485.688435277249
 20
1110.8855066398439
 30
0.0
 11
2605.688435277249
 21
1110.8855066398439
 31
0.0
  0
INSERT
  5
81E5
  8
3
 62
     0
  2
_OPEN
 10
2455.688435277249
 20
1110.8855066398439
 30
0.0
 41
30.0
 42
30.0
 43
30.0
 50
180.0
  0
INSERT
  5
81E6
  8
3
 62
     0
  2
_OPEN
 10
2635.6884352772481
 20
1110.8855066398439
 30
0.0
 41
30.0
 42
30.0
 43
30.0
  0
TEXT
  8
3
  40
45
  5
822E
  62
0
  72
0
  71
0
 10
2455.69
 20
1068.74
 30
0.000000
  1
180
  0
POINT
  5
81E8
  8
DEFPOINTS
 62
     0
 10
2455.688435277249
 20
1208.1568537686319
 30
0.0
  0
POINT
  5
81E9
  8
DEFPOINTS
 62
     0
 10
2635.6884352772481
 20
1208.1568537686319
 30
0.0
  0
POINT
  5
81EA
  8
DEFPOINTS
 62
     0
 10
2635.6884352772481
 20
1110.8855066398439
 30
0.0
  0
ENDBLK
  5
7FAA
  8
0
  0
BLOCK
  8
0
  2
*D15
 70
     1
 10
0.0
 20
0.0
 30
0.0
  3
*D15
  1

  0
LINE
  5
81EB
  8
3
 62
     0
 10
1052.2156024811229
 20
1230.656853768633
 30
0.0
 11
1052.2156024811229
 21
1095.8855066398439
 31
0.0
  0
LINE
  5
81EC
  8
3
 62
     0
 10
1697.2156024811229
 20
1230.6568537686151
 30
0.0
 11
1697.2156024811229
 21
1095.8855066398439
 31
0.0
  0
LINE
  5
81ED
  8
3
 62
     0
 10
1082.2156024811229
 20
1110.8855066398439
 30
0.0
 11
1667.2156024811229
 21
1110.8855066398439
 31
0.0
  0
INSERT
  5
81EE
  8
3
 62
     0
  2
_OPEN
 10
1052.2156024811229
 20
1110.8855066398439
 30
0.0
 41
30.0
 42
30.0
 43
30.0
 50
180.0
  0
INSERT
  5
81EF
  8
3
 62
     0
  2
_OPEN
 10
1697.2156024811229
 20
1110.8855066398439
 30
0.0
 41
30.0
 42
30.0
 43
30.0
  0
TEXT
  8
3
  40
45
  5
822F
  62
0
  72
0
  71
0
 10
1284.72
 20
1068.74
 30
0.000000
  1
645
  0
POINT
  5
81F1
  8
DEFPOINTS
 62
     0
 10
1052.2156024811229
 20
1238.156853768633
 30
0.0
  0
POINT
  5
81F2
  8
DEFPOINTS
 62
     0
 10
1697.2156024811229
 20
1238.1568537686151
 30
0.0
  0
POINT
  5
81F3
  8
DEFPOINTS
 62
     0
 10
1697.2156024811229
 20
1110.8855066398439
 30
0.0
  0
ENDBLK
  5
7FB7
  8
0
  0
BLOCK
  8
0
  2
*D16
 70
     1
 10
0.0
 20
0.0
 30
0.0
  3
*D16
  1

  0
LINE
  5
81F4
  8
3
 62
     0
 10
1052.2156024811229
 20
1230.656853768633
 30
0.0
 11
1052.2156024811229
 21
1095.8855066398439
 31
0.0
  0
LINE
  5
81F5
  8
3
 62
     0
 10
787.21560248112291
 20
1238.156853768641
 30
0.0
 11
787.21560248112291
 21
1095.8855066398439
 31
0.0
  0
LINE
  5
81F6
  8
3
 62
     0
 10
1022.215602481123
 20
1110.8855066398439
 30
0.0
 11
817.21560248112291
 21
1110.8855066398439
 31
0.0
  0
INSERT
  5
81F7
  8
3
 62
     0
  2
_OPEN
 10
1052.2156024811229
 20
1110.8855066398439
 30
0.0
 41
30.0
 42
30.0
 43
30.0
  0
INSERT
  5
81F8
  8
3
 62
     0
  2
_OPEN
 10
787.21560248112291
 20
1110.8855066398439
 30
0.0
 41
30.0
 42
30.0
 43
30.0
 50
180.0
  0
TEXT
  8
3
  40
45
  5
8230
  62
0
  72
0
  71
0
 10
829.716
 20
1068.74
 30
0.000000
  1
265
  0
POINT
  5
81FA
  8
DEFPOINTS
 62
     0
 10
1052.2156024811229
 20
1238.156853768633
 30
0.0
  0
POINT
  5
81FB
  8
DEFPOINTS
 62
     0
 10
787.21560248112291
 20
1245.656853768641
 30
0.0
  0
POINT
  5
81FC
  8
DEFPOINTS
 62
     0
 10
787.21560248112291
 20
1110.8855066398439
 30
0.0
  0
ENDBLK
  5
7FC4
  8
0
  0
BLOCK
  8
0
  2
*D17
 70
     1
 10
0.0
 20
0.0
 30
0.0
  3
*D17
  1

  0
LINE
  5
81FD
  8
3
 62
     0
 10
779.71560248112382
 20
1268.1568537686401
 30
0.0
 11
595.23093762991994
 21
1268.1568537686401
 31
0.0
  0
LINE
  5
81FE
  8
3
 62
     0
 10
809.71560248112257
 20
1208.1568537686151
 30
0.0
 11
595.23093762991994
 21
1208.1568537686151
 31
0.0
  0
LINE
  5
81FF
  8
3
 62
     0
 10
610.23093762992005
 20
1298.156853768641
 30
0.0
 11
610.23093762992005
 21
1328.156853768641
 31
0.0
  0
LINE
  5
8200
  8
3
 62
     0
 10
610.23093762991994
 20
1178.1568537686151
 30
0.0
 11
610.23093762991994
 21
1045.2997109114719
 31
0.0
  0
LINE
  5
8201
  8
3
 62
     0
 10
610.23093762991994
 20
1268.1568537686401
 30
0.0
 11
610.23093762991994
 21
1208.1568537686151
 31
0.0
  0
INSERT
  5
8202
  8
3
 62
     0
  2
_DOT
 10
610.23093762991994
 20
1268.1568537686401
 30
0.0
 41
30.0
 42
30.0
 43
30.0
 50
270.0
  0
INSERT
  5
8203
  8
3
 62
     0
  2
_OPEN
 10
610.23093762991994
 20
1208.1568537686151
 30
0.0
 41
30.0
 42
30.0
 43
30.0
 50
90.0
  0
TEXT
  8
3
  40
45
  5
8231
  62
0
  72
0
  71
0
 10
482.731
 20
1017.08
 30
0.000000
  1
60
  0
POINT
  5
8205
  8
DEFPOINTS
 62
     0
 10
787.21560248112382
 20
1268.1568537686401
 30
0.0
  0
POINT
  5
8206
  8
DEFPOINTS
 62
     0
 10
817.21560248112257
 20
1208.1568537686151
 30
0.0
  0
POINT
  5
8207
  8
DEFPOINTS
 62
     0
 10
610.23093762991994
 20
1208.1568537686151
 30
0.0
  0
ENDBLK
  5
7FD3
  8
0
  0
BLOCK
  8
0
  2
*D18
 70
     1
 10
0.0
 20
0.0
 30
0.0
  3
*D18
  1

  0
LINE
  5
8208
  8
3
 62
     0
 10
1023.715602481132
 20
1954.1568537686351
 30
0.0
 11
454.23654789321182
 21
1954.1568537686351
 31
0.0
  0
LINE
  5
8209
  8
3
 62
     0
 10
809.71560248112257
 20
1208.1568537686151
 30
0.0
 11
454.23654789321148
 21
1208.1568537686151
 31
0.0
  0
LINE
  5
820A
  8
3
 62
     0
 10
469.23654789321159
 20
1924.1568537686351
 30
0.0
 11
469.23654789321148
 21
1238.1568537686151
 31
0.0
  0
INSERT
  5
820B
  8
3
 62
     0
  2
_OPEN
 10
469.23654789321159
 20
1954.1568537686351
 30
0.0
 41
30.0
 42
30.0
 43
30.0
 50
90.0
  0
INSERT
  5
820C
  8
3
 62
     0
  2
_OPEN
 10
469.23654789321148
 20
1208.1568537686151
 30
0.0
 41
30.0
 42
30.0
 43
30.0
 50
270.0
  0
TEXT
  8
3
  40
45
  5
8232
  62
0
  72
0
  71
0
 10
329.951
 20
1501.51
 30
0.000000
  1
(746)
  0
POINT
  5
820E
  8
DEFPOINTS
 62
     0
 10
1031.215602481132
 20
1954.1568537686351
 30
0.0
  0
POINT
  5
820F
  8
DEFPOINTS
 62
     0
 10
817.21560248112257
 20
1208.1568537686151
 30
0.0
  0
POINT
  5
8210
  8
DEFPOINTS
 62
     0
 10
469.23654789321148
 20
1208.1568537686151
 30
0.0
  0
ENDBLK
  5
7FE0
  8
0
  0
BLOCK
  8
0
  2
*D19
 70
     1
 10
0.0
 20
0.0
 30
0.0
  3
*D19
  1

  0
LINE
  5
8211
  8
3
 62
     0
 10
787.21555809765891
 20
3108.2727624560539
 30
0.0
 11
787.21555809765891
 21
3210.187287685872
 31
0.0
  0
LINE
  5
8212
  8
3
 62
     0
 10
1697.2155580976601
 20
3108.2727624560539
 30
0.0
 11
1697.2155580976601
 21
3210.187287685872
 31
0.0
  0
LINE
  5
8213
  8
3
 62
     0
 10
817.21555809765891
 20
3195.187287685872
 30
0.0
 11
1667.2155580976601
 21
3195.187287685872
 31
0.0
  0
INSERT
  5
8214
  8
3
 62
     0
  2
_OPEN
 10
787.21555809765891
 20
3195.187287685872
 30
0.0
 41
30.0
 42
30.0
 43
30.0
 50
180.0
  0
INSERT
  5
8215
  8
3
 62
     0
  2
_OPEN
 10
1697.2155580976601
 20
3195.187287685872
 30
0.0
 41
30.0
 42
30.0
 43
30.0
  0
TEXT
  8
3
  40
45
  5
8233
  62
0
  72
0
  71
0
 10
1152.22
 20
3153.04
 30
0.000000
  1
910
  0
POINT
  5
8217
  8
DEFPOINTS
 62
     0
 10
787.21555809765891
 20
3100.7727624560539
 30
0.0
  0
POINT
  5
8218
  8
DEFPOINTS
 62
     0
 10
1697.2155580976601
 20
3100.7727624560539
 30
0.0
  0
POINT
  5
8219
  8
DEFPOINTS
 62
     0
 10
1697.2155580976601
 20
3195.187287685872
 30
0.0
  0
ENDBLK
  5
7FF6
  8
0
  0
BLOCK
  8
0
  2
*D20
 70
     1
 10
0.0
 20
0.0
 30
0.0
  3
*D20
  1

  0
LINE
  5
821A
  8
3
 62
     0
 10
779.71555809765869
 20
3100.7727624560539
 30
0.0
 11
671.75678406861516
 21
3100.7727624560539
 31
0.0
  0
LINE
  5
821B
  8
3
 62
     0
 10
779.71555809766073
 20
2500.7727624560539
 30
0.0
 11
671.75678406861505
 21
2500.7727624560539
 31
0.0
  0
LINE
  5
821C
  8
3
 62
     0
 10
686.75678406861516
 20
3070.7727624560539
 30
0.0
 11
686.75678406861516
 21
2530.7727624560539
 31
0.0
  0
INSERT
  5
821D
  8
3
 62
     0
  2
_OPEN
 10
686.75678406861516
 20
3100.7727624560539
 30
0.0
 41
30.0
 42
30.0
 43
30.0
 50
90.0
  0
INSERT
  5
821E
  8
3
 62
     0
  2
_OPEN
 10
686.75678406861516
 20
2500.7727624560539
 30
0.0
 41
30.0
 42
30.0
 43
30.0
 50
270.0
  0
TEXT
  8
3
  40
45
  5
8234
  62
0
  72
0
  71
0
 10
559.257
 20
2721.12
 30
0.000000
  1
600
  0
POINT
  5
8220
  8
DEFPOINTS
 62
     0
 10
787.21555809765869
 20
3100.7727624560539
 30
0.0
  0
POINT
  5
8221
  8
DEFPOINTS
 62
     0
 10
787.21555809766073
 20
2500.7727624560539
 30
0.0
  0
POINT
  5
8222
  8
DEFPOINTS
 62
     0
 10
686.75678406861516
 20
2500.7727624560539
 30
0.0
  0
ENDBLK
  5
8003
  8
0
  0
ENDSEC
  0
SECTION
  2
ENTITIES
  0
LINE
  5
7B4E
  8
2
 10
2455.688435277249
 20
2001.5909561062961
 30
0.0
 11
2455.688435277249
 21
1208.1568537686319
 31
0.0
1001
ACAD
1000
ASC_BOUNDS
1002
{
1070
    19
1005
0
1005
0
1002
}
  0
LINE
  5
7B4F
  8
1
 10
1666.0060312546309
 20
1396.0261840950559
 30
0.0
 11
1509.4415073267789
 21
1374.1568537686269
 31
0.0
  0
LINE
  5
7B50
  8
1
 10
1351.00603125463
 20
1406.0261840950591
 30
0.0
 11
1351.00603125463
 21
1374.1568537686301
 31
0.0
  0
LINE
  5
7B51
  8
1
 10
1667.2156024811241
 20
1374.1568537686251
 30
0.0
 11
1667.2156024811229
 21
1304.1568537686251
 31
0.0
  0
LINE
  5
7B52
  8
1
 10
817.21560248112473
 20
1374.1568537686369
 30
0.0
 11
817.21560248112382
 21
1304.1568537686369
 31
0.0
  0
LINE
  5
7B53
  8
2
 10
1052.2156024811329
 20
2007.5604479206791
 30
0.0
 11
1052.2156024811229
 21
1238.156853768633
 31
0.0
  0
LINE
  5
7B54
  8
1
 10
1697.2156024811229
 20
1268.1568537686151
 30
0.0
 11
787.21560248112382
 21
1268.1568537686401
 31
0.0
1001
ACAD
1000
ASC_BOUNDS
1002
{
1070
    19
1005
0
1005
0
1005
0
1005
0
1002
}
  0
POINT
  5
7B55
  8
1
 10
816.21560248111655
 20
1268.1568537686389
 30
0.0
 50
0.0000000000008142
  0
LINE
  5
7B56
  8
1
 10
2140.688435277249
 20
1268.156853768633
 30
0.0
 11
2455.6884352772499
 21
1268.1568537686319
 31
0.0
1001
ACAD
1000
ASC_BOUNDS
1002
{
1070
    19
1005
0
1005
0
1005
0
1005
0
1005
0
1002
}
  0
LINE
  5
7B57
  8
1
 10
2140.688435277249
 20
1304.156853768633
 30
0.0
 11
2455.688435277249
 21
1304.156853768633
 31
0.0
  0
POLYLINE
  5
7B58
  8
1
 66
     1
 10
0.0
 20
0.0
 30
0.0
  0
VERTEX
  5
813B
  8
1
 10
847.21560248113735
 20
1567.225839799127
 30
0.0
 42
-0.1566019730686763
  0
VERTEX
  5
813C
  8
1
 10
821.96962019756029
 20
1720.4590840821061
 30
0.0
 42
-0.3154517505481823
  0
VERTEX
  5
813D
  8
1
 10
993.97428001587377
 20
1897.3573177033691
 30
0.0
 42
-0.3154517505481823
  0
SEQEND
  5
813E
  8
1
  0
POLYLINE
  5
7B5D
  8
1
 66
     1
 10
0.0
 20
0.0
 30
0.0
  0
VERTEX
  5
813F
  8
1
 10
847.21560248113644
 20
1591.1785954681111
 30
0.0
 42
-0.134207355085151
  0
VERTEX
  5
8140
  8
1
 10
831.85175827193143
 20
1718.9268790489291
 30
0.0
 42
-0.3153658436290411
  0
VERTEX
  5
8141
  8
1
 10
995.84596943286397
 20
1887.5340403110561
 30
0.0
 42
-0.3153658436290411
  0
SEQEND
  5
8142
  8
1
  0
POLYLINE
  5
7B62
  8
1
 66
     1
 10
0.0
 20
0.0
 30
0.0
  0
VERTEX
  5
8143
  8
1
 10
1367.2156024811329
 20
1954.156853768646
 30
0.0
  0
VERTEX
  5
8144
  8
1
 10
1367.2156024811379
 20
1729.6568537686451
 30
0.0
 42
-0.2294041480982971
  0
VERTEX
  5
8145
  8
1
 10
1257.2156024811361
 20
1502.522532275824
 30
0.0
 42
-0.1293935334669464
  0
SEQEND
  5
8146
  8
1
  0
POLYLINE
  5
7B67
  8
1
 66
     1
 10
0.0
 20
0.0
 30
0.0
  0
VERTEX
  5
8147
  8
1
 10
1378.215602481132
 20
1934.156853768646
 30
0.0
  0
VERTEX
  5
8148
  8
1
 10
1378.2156024811379
 20
1729.6568537686469
 30
0.0
 42
-0.2369453676414515
  0
VERTEX
  5
8149
  8
1
 10
1257.2156024811379
 20
1488.6589284663639
 30
0.0
 42
-0.1407141398147078
  0
SEQEND
  5
814A
  8
1
  0
LINE
  5
7B6C
  8
1
 10
1254.9156024811371
 20
1789.556853768634
 30
0.0
 11
1254.915602481138
 21
1657.6568537686339
 31
0.0
  0
LINE
  5
7B6D
  8
1
 10
849.51560248113753
 20
1789.5568537686349
 30
0.0
 11
849.51560248113856
 21
1657.6568537686339
 31
0.0
  0
LINE
  5
7B6E
  8
1
 10
1257.215602481137
 20
1789.556853768634
 30
0.0
 11
1257.215602481137
 21
1374.1568537686339
 31
0.0
  0
LINE
  5
7B6F
  8
1
 10
847.21560248113735
 20
1789.5568537686349
 30
0.0
 11
847.21560248113735
 21
1374.1568537686339
 31
0.0
  0
CIRCLE
  5
7B70
  8
1
 10
1052.2156024811311
 20
1704.1568537686339
 30
0.0
 40
117.3182567295291
  0
LINE
  5
7B71
  8
1
 10
851.91560248113092
 20
1774.1568537686389
 30
0.0
 11
1052.215602481135
 21
1934.1568537686339
 31
0.0
  0
LINE
  5
7B72
  8
1
 10
1052.215602481135
 20
1934.1568537686339
 30
0.0
 11
1581.915602481125
 21
1584.1568537686189
 31
0.0
  0
LINE
  5
7B73
  8
2
 10
779.44247362364877
 20
1704.1568537686339
 30
0.0
 11
1408.838555429664
 21
1704.1568537686339
 31
0.0
  0
LINE
  5
7B74
  8
1
 10
849.51560248113856
 20
1657.6568537686339
 30
0.0
 11
887.21560248113735
 21
1625.988853768634
 31
0.0
  0
LINE
  5
7B75
  8
1
 10
1254.9156024811371
 20
1667.6568537686339
 30
0.0
 11
849.51560248113753
 21
1667.6568537686339
 31
0.0
  0
LINE
  5
7B76
  8
1
 10
891.64252985543862
 20
1665.356853768634
 30
0.0
 11
849.51560248113753
 21
1665.356853768634
 31
0.0
  0
LINE
  5
7B77
  8
1
 10
899.40275331912665
 20
1657.6568537686339
 30
0.0
 11
849.51560248113856
 21
1657.6568537686339
 31
0.0
  0
LINE
  5
7B78
  8
1
 10
885.22988819542286
 20
1627.6568537686339
 30
0.0
 11
929.63739019063541
 21
1627.6568537686339
 31
0.0
  0
LINE
  5
7B79
  8
1
 10
1667.2156024811229
 20
1374.1568537686251
 30
0.0
 11
817.21560248112473
 21
1374.1568537686369
 31
0.0
  0
LINE
  5
7B7A
  8
1
 10
1581.915602481125
 20
1584.1568537686189
 30
0.0
 11
1581.91560248112
 21
1374.156853768618
 31
0.0
  0
LINE
  5
7B7B
  8
1
 10
1666.0060312546309
 20
1406.0261840950559
 30
0.0
 11
1351.00603125463
 21
1406.0261840950591
 31
0.0
  0
LINE
  5
7B7C
  8
1
 10
1666.0060312546309
 20
1406.0261840950559
 30
0.0
 11
1666.0060312546309
 21
1396.0261840950559
 31
0.0
  0
LINE
  5
7B7D
  8
1
 10
1214.9156024811371
 20
1491.1353437760911
 30
0.0
 11
1064.1331384070791
 21
1617.6568537686339
 31
0.0
  0
LINE
  5
7B7E
  8
1
 10
889.51560248113765
 20
1491.1353437760911
 30
0.0
 11
1040.298066555195
 21
1617.6568537686339
 31
0.0
  0
LINE
  5
7B7F
  8
1
 10
1217.215602481137
 20
1625.988853768634
 30
0.0
 11
1217.215602481137
 21
1374.1568537686339
 31
0.0
  0
LINE
  5
7B80
  8
1
 10
887.21560248113735
 20
1625.988853768634
 30
0.0
 11
887.21560248113735
 21
1374.1568537686339
 31
0.0
  0
LINE
  5
7B81
  8
1
 10
851.91560248113092
 20
1774.1568537686389
 30
0.0
 11
851.91560248112
 21
1374.1568537686389
 31
0.0
  0
LINE
  5
7B82
  8
1
 10
1215.1066639336509
 20
1667.6568537686339
 30
0.0
 11
1164.715602481137
 21
1617.6568537686339
 31
0.0
  0
LINE
  5
7B83
  8
1
 10
1219.2013167668511
 20
1627.6568537686339
 30
0.0
 11
1174.79381477164
 21
1627.6568537686339
 31
0.0
  0
LINE
  5
7B84
  8
1
 10
1164.715602481137
 20
1617.6568537686339
 30
0.0
 11
939.71560248113747
 21
1617.6568537686339
 31
0.0
  0
LINE
  5
7B85
  8
1
 10
939.71560248113747
 20
1617.6568537686339
 30
0.0
 11
889.32454102862346
 21
1667.6568537686339
 31
0.0
  0
LINE
  5
7B86
  8
1
 10
1254.915602481138
 20
1657.6568537686339
 30
0.0
 11
1205.02845164315
 21
1657.6568537686339
 31
0.0
  0
LINE
  5
7B87
  8
1
 10
1254.915602481138
 20
1657.6568537686339
 30
0.0
 11
1217.215602481137
 21
1625.988853768634
 31
0.0
  0
LINE
  5
7B88
  8
1
 10
962.21560248113735
 20
1884.1568537686339
 30
0.0
 11
849.51560248113753
 21
1789.556853768634
 31
0.0
  0
LINE
  5
7B89
  8
1
 10
1388.2156024811329
 20
1954.156853768646
 30
0.0
 11
1031.215602481132
 21
1954.1568537686351
 31
0.0
  0
LINE
  5
7B8A
  8
1
 10
1142.215602481137
 20
1884.1568537686339
 30
0.0
 11
1254.915602481138
 21
1789.5568537686349
 31
0.0
  0
LINE
  5
7B8B
  8
1
 10
1350.815602481131
 20
1934.1568537686439
 30
0.0
 11
1068.615602481131
 21
1934.156853768636
 31
0.0
  0
LINE
  5
7B8C
  8
1
 10
1388.2156024811329
 20
1952.956853768645
 30
0.0
 11
1031.215602481132
 21
1952.956853768635
 31
0.0
  0
POLYLINE
  5
7B8D
  8
1
 66
     1
 10
0.0
 20
0.0
 30
0.0
  0
VERTEX
  5
814B
  8
1
 10
1035.3605108275599
 20
1909.1568537686369
 30
0.0
 42
-0.1315967463597435
  0
VERTEX
  5
814C
  8
1
 10
995.82117247312078
 20
1887.5293140117369
 30
0.0
 42
-0.2200089805681688
  0
SEQEND
  5
814D
  8
1
  0
LINE
  5
7B91
  8
1
 10
1142.215602481137
 20
1884.1568537686339
 30
0.0
 11
962.21560248113735
 21
1884.1568537686339
 31
0.0
  0
POLYLINE
  5
7B92
  8
1
 66
     1
 10
0.0
 20
0.0
 30
0.0
  0
VERTEX
  5
814E
  8
1
 10
1039.55133886714
 20
1929.6677607720819
 30
0.0
 42
-0.0934525219043797
  0
VERTEX
  5
814F
  8
1
 10
1019.66118718873
 20
1909.156853768636
 30
0.0
 42
-0.1987366729981355
  0
SEQEND
  5
8150
  8
1
  0
POLYLINE
  5
7B96
  8
1
 66
     1
 10
0.0
 20
0.0
 30
0.0
  0
VERTEX
  5
8151
  8
1
 10
1019.66118718873
 20
1909.156853768636
 30
0.0
 42
-0.0941668855597806
  0
VERTEX
  5
8152
  8
1
 10
993.45543539022844
 20
1897.245449460291
 30
0.0
 42
-0.1987366729981355
  0
SEQEND
  5
8153
  8
1
  0
LINE
  5
7B9A
  8
1
 10
1031.215602481132
 20
1954.1568537686351
 30
0.0
 11
1031.215602481132
 21
1952.956853768635
 31
0.0
  0
LINE
  5
7B9B
  8
1
 10
1052.215602481132
 20
1954.156853768636
 30
0.0
 11
1052.215602481132
 21
1933.156853768636
 31
0.0
  0
LINE
  5
7B9C
  8
1
 10
1051.215602481132
 20
1954.156853768636
 30
0.0
 11
1051.215602481132
 21
1933.156853768636
 31
0.0
  0
LINE
  5
7B9D
  8
1
 10
1052.91560248113
 20
1949.856853768636
 30
0.0
 11
1068.6156024811289
 21
1934.1568537686369
 31
0.0
  0
ARC
  5
7B9E
  8
1
 10
1047.8957923543021
 20
1924.1568537686369
 30
0.0
 40
10.0
 50
90.000000000001577
 51
146.55812821051649
  0
LINE
  5
7B9F
  8
1
 10
1051.2156024811261
 20
1934.156853768636
 30
0.0
 11
1047.8957923542951
 21
1934.1568537686339
 31
0.0
  0
POLYLINE
  5
7BA0
  8
1
 66
     1
 10
0.0
 20
0.0
 30
0.0
  0
VERTEX
  5
8154
  8
1
 10
1051.215602481132
 20
1933.1568537686369
 30
0.0
 42
-0.101266720201501
  0
VERTEX
  5
8155
  8
1
 10
1050.090247497523
 20
1927.6574432818729
 30
0.0
 42
-0.0681921917069782
  0
VERTEX
  5
8156
  8
1
 10
1035.3605108275599
 20
1909.1568537686369
 30
0.0
 42
-0.2200089805681688
  0
SEQEND
  5
8157
  8
1
  0
POINT
  5
7BA5
  8
1
 10
1052.215602481132
 20
1954.1568537686351
 30
0.0
 50
0.0000000000008142
  0
ARC
  5
7BA6
  8
1
 10
1052.215602481132
 20
1949.1568537686369
 30
0.0
 40
1.0
 50
36.869897645806532
 51
180.00000000000151
  0
POINT
  5
7BA7
  8
1
 10
1209.71560248113
 20
1954.1568537686451
 30
0.0
 50
0.0000000000008142
  0
POINT
  5
7BA8
  8
1
 10
1209.71560248113
 20
1954.1568537686451
 30
0.0
 50
0.0000000000008142
  0
LINE
  5
7BA9
  8
1
 10
1366.515602481132
 20
1949.8568537686449
 30
0.0
 11
1350.815602481131
 21
1934.1568537686439
 31
0.0
  0
LINE
  5
7BAA
  8
1
 10
1378.215602481132
 20
1934.1568537686451
 30
0.0
 11
1367.2156024811329
 21
1934.1568537686451
 31
0.0
  0
ARC
  5
7BAB
  8
1
 10
1367.2156024811329
 20
1949.156853768646
 30
0.0
 40
1.0
 50
90.0
 51
143.13010235419659
  0
POLYLINE
  5
7BAC
  8
1
 66
     1
 10
0.0
 20
0.0
 30
0.0
  0
VERTEX
  5
8158
  8
1
 10
1388.2156024811329
 20
1954.1568537686469
 30
0.0
  0
VERTEX
  5
8159
  8
1
 10
1388.2156024811329
 20
1952.956853768648
 30
0.0
 42
-0.4696216166052111
  0
SEQEND
  5
815A
  8
1
  0
LINE
  5
7BB0
  8
2
 10
2077.776880616897
 20
1832.4865233235489
 30
0.0
 11
2077.7768806168979
 21
1390.9995679926569
 31
0.0
  0
LINE
  5
7BB1
  8
1
 10
2334.6884352772499
 20
1829.5568537686329
 30
0.0
 11
2170.688435277249
 21
1657.656853768633
 31
0.0
  0
LINE
  5
7BB2
  8
1
 10
2094.6968586428989
 20
1821.4751104981619
 30
0.0
 11
2094.6968586429011
 21
1586.8385970391021
 31
0.0
  0
LINE
  5
7BB3
  8
1
 10
2060.8569025908919
 20
1821.4751104981619
 30
0.0
 11
2060.8569025908942
 21
1586.8385970391039
 31
0.0
  0
LINE
  5
7BB4
  8
1
 10
2120.6884352772481
 20
1934.156853768633
 30
0.0
 11
2120.6884352772481
 21
1379.4405990493631
 31
0.0
  0
LINE
  5
7BB5
  8
1
 10
2035.6884352772479
 20
1934.156853768633
 30
0.0
 11
2035.6884352772479
 21
1379.4405990493631
 31
0.0
  0
POLYLINE
  5
7BB6
  8
1
 66
     1
 10
0.0
 20
0.0
 30
0.0
  0
VERTEX
  5
815B
  8
1
 10
2334.688435277249
 20
1885.6568537686319
 30
0.0
  0
VERTEX
  5
815C
  8
1
 10
2334.6884352772481
 20
1704.1568537686319
 30
0.0
  0
VERTEX
  5
815D
  8
1
 10
2334.6884352772481
 20
1683.826550988809
 30
0.0
  0
SEQEND
  5
815E
  8
1
  0
POLYLINE
  5
7BBB
  8
1
 66
     1
 10
0.0
 20
0.0
 30
0.0
  0
VERTEX
  5
815F
  8
1
 10
2576.688435277249
 20
1885.656853768633
 30
0.0
  0
VERTEX
  5
8160
  8
1
 10
2576.6884352772499
 20
1704.156853768633
 30
0.0
  0
VERTEX
  5
8161
  8
1
 10
2576.6884352772499
 20
1683.826550988809
 30
0.0
  0
SEQEND
  5
8162
  8
1
  0
LINE
  5
7BC0
  8
1
 10
2568.6884352772499
 20
1954.1568537686351
 30
0.0
 11
2568.6884352772499
 21
1704.156853768633
 31
0.0
  0
LINE
  5
7BC1
  8
1
 10
2342.6884352772499
 20
1954.156853768636
 30
0.0
 11
2342.6884352772499
 21
1717.1568537686319
 31
0.0
  0
LINE
  5
7BC2
  8
1
 10
2140.688435277249
 20
1374.1568537686319
 30
0.0
 11
2455.688435277249
 21
1374.156853768633
 31
0.0
  0
LINE
  5
7BC3
  8
2
 10
2010.577649706818
 20
1704.156853768633
 30
0.0
 11
2604.9811472347442
 21
1704.156853768633
 31
0.0
  0
LINE
  5
7BC4
  8
1
 10
2094.6968586429002
 20
1560.0894801951331
 30
0.0
 11
2094.6968586428989
 21
1450.640867781377
 31
0.0
  0
LINE
  5
7BC5
  8
1
 10
2060.8569025908928
 20
1560.0894801951331
 30
0.0
 11
2060.8569025908919
 21
1450.640867781377
 31
0.0
  0
LINE
  5
7BC6
  8
1
 10
2120.6884352772481
 20
1379.4405990493631
 30
0.0
 11
2035.6884352772479
 21
1379.4405990493631
 31
0.0
  0
LINE
  5
7BC7
  8
1
 10
2060.8569025908942
 20
1586.8385970391039
 30
0.0
 11
2094.6968586429011
 21
1586.8385970391021
 31
0.0
  0
LINE
  5
7BC8
  8
1
 10
2077.776880616897
 20
1691.6568537686319
 30
0.0
 11
2203.1258989189
 21
1691.6568537686319
 31
0.0
  0
LINE
  5
7BC9
  8
1
 10
2077.776880616897
 20
1716.656853768633
 30
0.0
 11
2226.9769751259978
 21
1716.6568537686319
 31
0.0
  0
LINE
  5
7BCA
  8
1
 10
2077.776880616897
 20
1716.656853768633
 30
0.0
 11
2077.776880616897
 21
1691.6568537686319
 31
0.0
  0
POLYLINE
  5
7BCF
  8
1
 66
     1
 10
0.0
 20
0.0
 30
0.0
  0
VERTEX
  5
8163
  8
1
 10
2576.6884352772499
 20
1683.826550988809
 30
0.0
  0
VERTEX
  5
8164
  8
1
 10
2576.688435277249
 20
1522.6568537686339
 30
0.0
  0
SEQEND
  5
8165
  8
1
  0
LINE
  5
7BD3
  8
1
 10
2568.6884352772458
 20
1704.156853768633
 30
0.0
 11
2568.688435277249
 21
1496.1568537686339
 31
0.0
  0
LINE
  5
7BD4
  8
1
 10
2342.6884352772499
 20
1682.1568537686319
 30
0.0
 11
2342.6884352772499
 21
1606.365173988255
 31
0.0
  0
LINE
  5
7BD5
  8
1
 10
2437.6983265196318
 20
1481.156853768633
 30
0.0
 11
2553.688435277249
 21
1481.156853768633
 31
0.0
  0
ARC
  5
7BD9
  8
1
 10
2553.688435277249
 20
1496.156853768633
 30
0.0
 40
15.0
 50
270.0
 51
0.0
  0
LINE
  5
7BDA
  8
1
 10
2569.688435277249
 20
1521.6568537686339
 30
0.0
 11
2575.6884352772508
 21
1521.6568537686339
 31
0.0
  0
ARC
  5
7BDB
  8
1
 10
2575.688435277249
 20
1522.6568537686339
 30
0.0
 40
1.0
 50
270.0
 51
0.0000000000000799
  0
LINE
  5
7BDC
  8
1
 10
2568.688435277249
 20
1516.0697817418891
 30
0.0
 11
2568.688435277249
 21
1520.6568537686339
 31
0.0
  0
ARC
  5
7BDD
  8
1
 10
2569.688435277249
 20
1520.6568537686339
 30
0.0
 40
1.0
 50
90.0
 51
180.0
  0
LINE
  5
7BDE
  8
1
 10
2342.6884352772499
 20
1717.1568537686319
 30
0.0
 11
2342.6884352772499
 21
1682.1568537686319
 31
0.0
  0
LINE
  5
7BDF
  8
1
 10
2060.8569025908919
 20
1821.4751104981619
 30
0.0
 11
2094.6968586428989
 21
1821.4751104981619
 31
0.0
  0
LINE
  5
7BE0
  8
1
 10
2035.6884352772479
 20
1934.156853768633
 30
0.0
 11
2120.6884352772481
 21
1934.156853768633
 31
0.0
  0
POINT
  5
7BE1
  8
1
 10
2035.6884352772479
 20
1934.156853768633
 30
0.0
  0
LINE
  5
7BE2
  8
1
 10
2322.688435277249
 20
1952.9568537686359
 30
0.0
 11
2588.6884352772499
 21
1952.9568537686359
 31
0.0
  0
LINE
  5
7BE3
  8
1
 10
2361.4884352772492
 20
1934.156853768636
 30
0.0
 11
2549.8884352772488
 21
1934.156853768636
 31
0.0
  0
LINE
  5
7BE4
  8
1
 10
2322.6884352772508
 20
1954.1568537686351
 30
0.0
 11
2588.688435277249
 21
1954.156853768636
 31
0.0
  0
ARC
  5
7BE5
  8
1
 10
2335.688435277249
 20
1885.6568537686319
 30
0.0
 40
1.0
 50
90.0
 51
180.0
  0
ARC
  5
7BE6
  8
1
 10
2341.6884352772508
 20
1887.6568537686319
 30
0.0
 40
1.0
 50
270.0
 51
0.0
  0
LINE
  5
7BE7
  8
1
 10
2341.6884352772508
 20
1886.6568537686319
 30
0.0
 11
2335.688435277249
 21
1886.6568537686319
 31
0.0
  0
LINE
  5
7BE8
  8
1
 10
2342.6884352772499
 20
1952.9568537686359
 30
0.0
 11
2361.4884352772492
 21
1934.156853768636
 31
0.0
  0
LINE
  5
7BE9
  8
1
 10
2322.6884352772499
 20
1954.1568537686351
 30
0.0
 11
2322.6884352772499
 21
1952.9568537686359
 31
0.0
1001
ACAD
1000
ASC_BOUNDS
1002
{
1070
    19
1002
}
  0
LINE
  5
7BEA
  8
1
 10
2568.688435277249
 20
1892.2439257953761
 30
0.0
 11
2568.688435277249
 21
1887.6568537686319
 31
0.0
  0
ARC
  5
7BEB
  8
1
 10
2569.688435277249
 20
1887.6568537686319
 30
0.0
 40
1.0
 50
180.0
 51
270.0
  0
ARC
  5
7BEC
  8
1
 10
2575.688435277249
 20
1885.656853768633
 30
0.0
 40
1.0
 50
359.99999999999989
 51
90.0
  0
LINE
  5
7BED
  8
1
 10
2569.688435277249
 20
1886.6568537686319
 30
0.0
 11
2575.688435277249
 21
1886.656853768633
 31
0.0
  0
LINE
  5
7BEE
  8
1
 10
2568.6884352772499
 20
1952.9568537686359
 30
0.0
 11
2549.8884352772488
 21
1934.1568537686351
 31
0.0
  0
LINE
  5
7BEF
  8
1
 10
2588.688435277249
 20
1954.1568537686351
 30
0.0
 11
2588.688435277249
 21
1952.9568537686359
 31
0.0
1001
ACAD
1000
ASC_BOUNDS
1002
{
1070
    19
1002
}
  0
LINE
  5
7BF0
  8
2
 10
1052.2156024811329
 20
3108.2126207320398
 30
0.0
 11
1052.2156024811329
 21
2466.485857263126
 31
0.0
  0
LINE
  5
7BF1
  8
1
 10
1697.2155580976589
 20
2920.7727624560548
 30
0.0
 11
1697.2155580976589
 21
2890.772762456053
 31
0.0
  0
LINE
  5
7BF2
  8
1
 10
1697.2155580976589
 20
2605.7727624560539
 30
0.0
 11
1064.7156024811329
 21
2605.7727624560539
 31
0.0
  0
LINE
  5
7BF3
  8
1
 10
1697.2155580976589
 20
2890.772762456053
 30
0.0
 11
1583.25694719444
 21
2890.772762456053
 31
0.0
  0
LINE
  5
7BF4
  8
1
 10
1697.2155580976589
 20
2635.7727624560539
 30
0.0
 11
1593.0830574325121
 21
2635.7727624560539
 31
0.0
  0
LINE
  5
7BF5
  8
1
 10
1697.2155580976589
 20
2920.7727624560548
 30
0.0
 11
1387.2156024811329
 21
2920.7727624560548
 31
0.0
  0
POINT
  5
7BF6
  8
1
 10
1685.2155580976589
 20
2920.7727624560539
 30
0.0
 50
180.0
  0
POINT
  5
7BF7
  8
1
 10
1697.2155580976589
 20
2920.7727624560548
 30
0.0
 50
180.0
  0
LINE
  5
7BF8
  8
1
 10
1697.2155580976589
 20
2635.7727624560539
 30
0.0
 11
1697.2155580976589
 21
2605.7727624560548
 31
0.0
  0
LINE
  5
7BF9
  8
1
 10
1667.2156024811229
 20
1304.1568537686251
 30
0.0
 11
817.21560248112382
 21
1304.1568537686369
 31
0.0
1001
ACAD
1000
ASC_BOUNDS
1002
{
1070
    19
1002
}
  0
LINE
  5
7BFA
  8
1
 10
1580.006031254632
 20
1394.061948375117
 30
0.0
 11
1580.006031254632
 21
1426.728730367251
 31
0.0
  0
LINE
  5
7BFB
  8
2
 10
1500.0060312546309
 20
1348.9876285177379
 30
0.0
 11
1500.006031254632
 21
1630.304960702372
 31
0.0
  0
LINE
  5
7BFC
  8
2
 10
1666.006031254632
 20
1506.026184095055
 30
0.0
 11
1351.006031254632
 21
1506.0261840950591
 31
0.0
  0
ARC
  5
7BFD
  8
1
 10
1500.0060312546329
 20
1506.026184095057
 30
0.0
 40
106.0
 50
289.3700382455396
 51
250.6299617544594
  0
LINE
  5
7BFE
  8
1
 10
1600.00603125463
 20
1406.026184095057
 30
0.0
 11
1600.00603125463
 21
1418.026184095057
 31
0.0
  0
LINE
  5
7BFF
  8
1
 10
1400.006031254632
 20
1406.0261840950591
 30
0.0
 11
1400.0060312546309
 21
1418.0261840950579
 31
0.0
  0
LINE
  5
7C00
  8
1
 10
1600.00603125463
 20
1418.026184095057
 30
0.0
 11
1560.0060312546309
 21
1418.026184095057
 31
0.0
  0
LINE
  5
7C01
  8
1
 10
1560.0060312546309
 20
1406.0261840950591
 30
0.0
 11
1560.0060312546309
 21
1418.0261840950579
 31
0.0
  0
LINE
  5
7C02
  8
1
 10
1440.0060312546309
 20
1406.02618409506
 30
0.0
 11
1440.00603125463
 21
1418.02618409506
 31
0.0
  0
LINE
  5
7C03
  8
1
 10
1420.006031254635
 20
1394.0619483751129
 30
0.0
 11
1420.006031254632
 21
1426.728730367247
 31
0.0
  0
LINE
  5
7C04
  8
1
 10
1440.00603125463
 20
1418.0261840950579
 30
0.0
 11
1400.0060312546309
 21
1418.0261840950579
 31
0.0
  0
CIRCLE
  5
7C05
  8
1
 10
1500.0060312546309
 20
1506.026184095057
 30
0.0
 40
55.0
  0
LINE
  5
7C06
  8
2
 10
1998.259607356807
 20
1505.365173988255
 30
0.0
 11
2419.0171304606042
 21
1505.365173988255
 31
0.0
  0
LINE
  5
7C07
  8
1
 10
2060.8569025908928
 20
1560.0894801951331
 30
0.0
 11
2094.6968586429002
 21
1560.0894801951331
 31
0.0
  0
LINE
  5
7C08
  8
1
 10
2060.8569025908919
 20
1450.640867781377
 30
0.0
 11
2094.6968586429002
 21
1450.640867781377
 31
0.0
  0
LINE
  5
7C09
  8
1
 10
2060.8569025908928
 20
1560.0894801951331
 30
0.0
 11
2060.8569025908942
 21
1586.8385970391039
 31
0.0
  0
LINE
  5
7C0A
  8
1
 10
2094.6968586429002
 20
1560.0894801951331
 30
0.0
 11
2094.6968586429011
 21
1586.8385970391021
 31
0.0
  0
LINE
  5
7C0B
  8
1
 10
1526.7466147001221
 20
1554.0880317186641
 30
0.0
 11
1114.5104016895491
 21
1803.5697873016429
 31
0.0
  0
LINE
  5
7C0C
  8
1
 10
1487.140998445296
 20
1452.5519760054119
 30
0.0
 11
1017.744269118415
 21
1592.0172062827769
 31
0.0
  0
LINE
  5
7C0D
  8
1
 10
1697.2156024811229
 20
1238.1568537686151
 30
0.0
 11
787.21560248112291
 21
1238.156853768641
 31
0.0
1001
ACAD
1000
ASC_BOUNDS
1002
{
1070
    19
1002
}
  0
LINE
  5
7C0E
  8
1
 10
787.21560248112382
 20
1268.1568537686401
 30
0.0
 11
787.21560248112291
 21
1238.156853768641
 31
0.0
  0
LINE
  5
7C0F
  8
1
 10
1697.2156024811241
 20
1268.1568537686139
 30
0.0
 11
1697.2156024811229
 21
1238.1568537686151
 31
0.0
  0
POLYLINE
  5
7C10
  8
1
 66
     1
 10
0.0
 20
0.0
 30
0.0
  0
VERTEX
  5
8166
  8
1
 10
912.96579748906424
 20
1499.1568537686339
 30
0.0
 42
-0.0092363979074611
  0
VERTEX
  5
8167
  8
1
 10
906.27889818240965
 20
1505.2014190163441
 30
0.0
 42
-0.3153658436290411
  0
SEQEND
  5
8168
  8
1
  0
POLYLINE
  5
7C14
  8
1
 66
     1
 10
0.0
 20
0.0
 30
0.0
  0
VERTEX
  5
8169
  8
1
 10
1217.2156024811361
 20
1463.4990058663061
 30
0.0
 42
-0.168545916699159
  0
VERTEX
  5
816A
  8
1
 10
1022.396710180704
 20
1434.2925530235179
 30
0.0
 42
-0.1407141398147078
  0
VERTEX
  5
816B
  8
1
 10
898.11563103625758
 20
1499.1568537686319
 30
0.0
 42
-0.3154517505481823
  0
SEQEND
  5
816C
  8
1
  0
POLYLINE
  5
7C19
  8
1
 66
     1
 10
0.0
 20
0.0
 30
0.0
  0
VERTEX
  5
816D
  8
1
 10
1217.2156024811361
 20
1475.9838358893189
 30
0.0
 42
-0.1736179904918226
  0
VERTEX
  5
816E
  8
1
 10
1024.509907971858
 20
1445.088050011469
 30
0.0
 42
-0.1293935334669464
  0
VERTEX
  5
816F
  8
1
 10
913.62255898493277
 20
1499.9109521292889
 30
0.0
 42
-0.1293935334669464
  0
SEQEND
  5
8170
  8
1
  0
LINE
  5
7C1E
  8
1
 10
1254.9156024811371
 20
1789.5568537686349
 30
0.0
 11
1257.215602481137
 21
1789.5568537686349
 31
0.0
  0
LINE
  5
7C1F
  8
1
 10
849.51560248113753
 20
1789.556853768634
 30
0.0
 11
847.21560248113735
 21
1789.556853768634
 31
0.0
  0
LINE
  5
7C20
  8
1
 10
2140.688435277249
 20
1268.1568537686319
 30
0.0
 11
2140.688435277249
 21
1238.156853768633
 31
0.0
1001
ACAD
1000
ASC_BOUNDS
1002
{
1070
    19
1002
}
  0
LINE
  5
7C21
  8
1
 10
2035.6884352772479
 20
1238.156853768633
 30
0.0
 11
2635.688435277249
 21
1238.156853768633
 31
0.0
1001
ACAD
1000
ASC_BOUNDS
1002
{
1070
    19
1002
}
  0
LINE
  5
7C22
  8
1
 10
2455.688435277249
 20
1268.1568537686319
 30
0.0
 11
2455.688435277249
 21
1238.156853768633
 31
0.0
1001
ACAD
1000
ASC_BOUNDS
1002
{
1070
    19
1002
}
  0
LINE
  5
7C23
  8
1
 10
2140.688435277249
 20
1374.1568537686319
 30
0.0
 11
2140.6884352772481
 21
1304.156853768633
 31
0.0
1001
ACAD
1000
ASC_BOUNDS
1002
{
1070
    19
1002
}
  0
POLYLINE
  5
7C24
  8
1
 66
     1
 10
0.0
 20
0.0
 30
0.0
  0
VERTEX
  5
8171
  8
1
 10
2170.6884352772481
 20
1657.656853768631
 30
0.0
  0
VERTEX
  5
8172
  8
1
 10
2170.6884352772481
 20
1374.1568537686319
 30
0.0
  0
SEQEND
  5
8173
  8
1
  0
LINE
  5
7C28
  8
2
 10
765.48577898464373
 20
2920.7727624560539
 30
0.0
 11
1557.6564842115729
 21
2920.7727624560539
 31
0.0
1001
ACAD
1000
ASC_BOUNDS
1002
{
1070
    19
1005
0
1005
0
1002
}
  0
LINE
  5
7C29
  8
1
 10
1631.214351474254
 20
2605.7727624560539
 30
0.0
 11
1452.2156024811329
 21
2605.772762456053
 31
0.0
1001
ACAD
1000
ASC_BOUNDS
1002
{
1070
    19
1002
}
  0
LINE
  5
7C2A
  8
1
 10
1697.215558097658
 20
2500.7727624560539
 30
0.0
 11
1697.2155580976601
 21
3100.7727624560539
 31
0.0
1001
ACAD
1000
ASC_BOUNDS
1002
{
1070
    19
1002
}
  0
LINE
  5
7C2B
  8
1
 10
1667.2155580976589
 20
2500.7727624560539
 30
0.0
 11
1667.2155580976589
 21
2605.7727624560539
 31
0.0
1001
ACAD
1000
ASC_BOUNDS
1002
{
1070
    19
1005
0
1005
0
1005
0
1005
0
1005
0
1002
}
  0
LINE
  5
7C2C
  8
1
 10
1667.2155580976589
 20
2605.7727624560548
 30
0.0
 11
1697.215558097658
 21
2605.7727624560548
 31
0.0
1001
ACAD
1000
ASC_BOUNDS
1002
{
1070
    19
1002
}
  0
LINE
  5
7C2D
  8
1
 10
1667.2155580976589
 20
2920.7727624560548
 30
0.0
 11
1697.215558097658
 21
2920.7727624560548
 31
0.0
1001
ACAD
1000
ASC_BOUNDS
1002
{
1070
    19
1002
}
  0
LINE
  5
7C2E
  8
1
 10
830.21560248113383
 20
3033.7727624560548
 30
0.0
 11
1032.2156024811329
 21
3033.7727624560548
 31
0.0
  0
LINE
  5
7C2F
  8
1
 10
830.21560248113383
 20
2807.7727624560548
 30
0.0
 11
1032.2156024811329
 21
2807.7727624560548
 31
0.0
  0
LINE
  5
7C30
  8
1
 10
822.21560248113383
 20
2500.772762456053
 30
0.0
 11
1625.930606193524
 21
2500.772762456053
 31
0.0
  0
LINE
  5
7C31
  8
1
 10
822.21560248113383
 20
2585.772762456053
 30
0.0
 11
1625.930606193524
 21
2585.772762456053
 31
0.0
  0
LINE
  5
7C32
  8
1
 10
934.89734575160401
 20
2525.9412297696972
 30
0.0
 11
1169.5338592106609
 21
2525.941229769699
 31
0.0
  0
LINE
  5
7C33
  8
1
 10
934.89734575160401
 20
2559.7811858217042
 30
0.0
 11
1169.533859210663
 21
2559.781185821706
 31
0.0
  0
LINE
  5
7C34
  8
2
 10
923.88593292621783
 20
2542.8612077957018
 30
0.0
 11
1614.371637250229
 21
2542.8612077957018
 31
0.0
  0
LINE
  5
7C35
  8
1
 10
1445.281725047754
 20
2525.9412297696981
 30
0.0
 11
1554.7303374615101
 21
2525.9412297696972
 31
0.0
  0
LINE
  5
7C36
  8
1
 10
1445.281725047754
 20
2559.7811858217051
 30
0.0
 11
1554.7303374615101
 21
2559.7811858217042
 31
0.0
  0
LINE
  5
7C37
  8
1
 10
1625.930606193524
 20
2585.772762456053
 30
0.0
 11
1625.930606193524
 21
2500.772762456053
 31
0.0
  0
LINE
  5
7C38
  8
1
 10
1554.7303374615101
 20
2525.9412297696972
 30
0.0
 11
1554.7303374615101
 21
2559.7811858217051
 31
0.0
  0
LINE
  5
7C39
  8
1
 10
1445.281725047754
 20
2559.7811858217051
 30
0.0
 11
1169.533859210663
 21
2559.781185821706
 31
0.0
  0
LINE
  5
7C3A
  8
1
 10
1445.281725047754
 20
2525.9412297696981
 30
0.0
 11
1169.5338592106609
 21
2525.941229769699
 31
0.0
  0
LINE
  5
7C3B
  8
1
 10
1445.281725047754
 20
2525.9412297696981
 30
0.0
 11
1445.281725047754
 21
2559.7811858217051
 31
0.0
  0
LINE
  5
7C3C
  8
1
 10
1169.5338592106609
 20
2525.941229769699
 30
0.0
 11
1169.533859210663
 21
2559.781185821706
 31
0.0
  0
LINE
  5
7C3D
  8
1
 10
1064.7156024811329
 20
2542.8612077957018
 30
0.0
 11
1064.7156024811329
 21
2787.7727624560548
 31
0.0
  0
LINE
  5
7C3E
  8
1
 10
1039.715602481132
 20
2542.8612077957018
 30
0.0
 11
1039.7156024811341
 21
2787.7727624560548
 31
0.0
  0
LINE
  5
7C3F
  8
1
 10
1039.715602481132
 20
2542.8612077957018
 30
0.0
 11
1064.7156024811329
 21
2542.8612077957018
 31
0.0
  0
LINE
  5
7C40
  8
1
 10
1052.215602481132
 20
3033.7727624560512
 30
0.0
 11
1367.2156024811329
 21
3033.7727624560548
 31
0.0
  0
LINE
  5
7C41
  8
1
 10
1074.2156024811329
 20
2807.7727624560548
 30
0.0
 11
1367.2156024811329
 21
2807.772762456053
 31
0.0
  0
LINE
  5
7C42
  8
1
 10
1052.2156024811329
 20
2807.7727624560548
 30
0.0
 11
1074.2156024811329
 21
2807.7727624560548
 31
0.0
  0
LINE
  5
7C43
  8
1
 10
934.89734575160401
 20
2525.9412297696972
 30
0.0
 11
934.89734575160401
 21
2559.7811858217042
 31
0.0
  0
LINE
  5
7C44
  8
1
 10
822.21560248113383
 20
2500.772762456053
 30
0.0
 11
822.21560248113383
 21
2585.772762456053
 31
0.0
  0
POINT
  5
7C45
  8
1
 10
822.21560248113383
 20
2500.772762456053
 30
0.0
  0
ARC
  5
7C46
  8
1
 10
870.71560248113383
 20
2800.7727624560539
 30
0.0
 40
1.0
 50
180.0
 51
270.0
  0
LINE
  5
7C47
  8
1
 10
869.71560248113474
 20
2806.7727624560562
 30
0.0
 11
869.71560248113383
 21
2800.7727624560539
 31
0.0
  0
ARC
  5
7C48
  8
1
 10
868.71560248113474
 20
2806.7727624560562
 30
0.0
 40
1.0
 50
0.0
 51
90.0
  0
LINE
  5
7C49
  8
1
 10
869.71560248113474
 20
3034.7727624560539
 30
0.0
 11
869.71560248113383
 21
3040.7727624560539
 31
0.0
  0
ARC
  5
7C4A
  8
1
 10
870.71560248113383
 20
3040.7727624560539
 30
0.0
 40
1.0
 50
89.999999999999915
 51
180.0
  0
ARC
  5
7C4B
  8
1
 10
868.71560248113474
 20
3034.7727624560539
 30
0.0
 40
1.0
 50
270.0
 51
0.0
  0
LINE
  5
7C4C
  8
1
 10
864.12853045438987
 20
3033.7727624560539
 30
0.0
 11
868.71560248113474
 21
3033.7727624560539
 31
0.0
  0
LINE
  5
7C4D
  8
1
 10
1257.215602481137
 20
2635.772762456053
 30
0.0
 11
1257.2156024811361
 21
2787.7727624560539
 31
0.0
  0
LINE
  5
7C4E
  8
1
 10
847.21560248113008
 20
2635.772762456053
 30
0.0
 11
847.21560248113008
 21
2799.7727624560539
 31
0.0
  0
LINE
  5
7C4F
  8
1
 10
1039.7156024811329
 20
2635.7727624560539
 30
0.0
 11
787.21555809765948
 21
2635.7727624560539
 31
0.0
  0
LINE
  5
7C50
  8
1
 10
1039.7156024811341
 20
2605.7727624560539
 30
0.0
 11
787.21555809766039
 21
2605.772762456053
 31
0.0
  0
LINE
  5
7C51
  8
1
 10
817.21555809765675
 20
2500.7727624560539
 30
0.0
 11
817.21555809765755
 21
2605.772762456053
 31
0.0
1001
ACAD
1000
ASC_BOUNDS
1002
{
1070
    19
1002
}
  0
LINE
  5
7C52
  8
1
 10
787.21555809766073
 20
2500.7727624560539
 30
0.0
 11
787.21555809765891
 21
3100.7727624560539
 31
0.0
1001
ACAD
1000
ASC_BOUNDS
1002
{
1070
    19
1005
0
1005
0
1005
0
1005
0
1005
0
1002
}
  0
LINE
  5
7C53
  8
1
 10
830.21560248113383
 20
3033.7727624560548
 30
0.0
 11
830.21560248113383
 21
2807.7727624560548
 31
0.0
  0
LINE
  5
7C54
  8
1
 10
1367.2156024811329
 20
3033.7727624560548
 30
0.0
 11
1367.2156024811329
 21
2807.772762456053
 31
0.0
  0
LINE
  5
7C55
  8
1
 10
1387.2156024811329
 20
3053.7727624560562
 30
0.0
 11
1387.2156024811329
 21
2787.772762456053
 31
0.0
  0
LINE
  5
7C56
  8
1
 10
1032.2156024811329
 20
3053.7727624560512
 30
0.0
 11
1387.2156024811329
 21
3053.7727624560562
 31
0.0
  0
LINE
  5
7C57
  8
1
 10
1032.2156024811329
 20
2787.7727624560548
 30
0.0
 11
1387.2156024811329
 21
2787.772762456053
 31
0.0
  0
LINE
  5
7C58
  8
1
 10
1032.2156024811329
 20
3053.7727624560512
 30
0.0
 11
1032.2156024811329
 21
2787.7727624560548
 31
0.0
  0
LINE
  5
7C59
  8
1
 10
1052.2156024811329
 20
3033.7727624560548
 30
0.0
 11
1052.2156024811329
 21
2807.772762456053
 31
0.0
  0
POLYLINE
  5
7C5A
  8
1
 66
     1
 10
0.0
 20
0.0
 30
0.0
  0
VERTEX
  5
8174
  8
1
 10
870.71560248113383
 20
3041.7727624560539
 30
0.0
  0
VERTEX
  5
8175
  8
1
 10
1032.2156024811329
 20
3041.7727624560548
 30
0.0
  0
SEQEND
  5
8176
  8
1
  0
LINE
  5
7C5E
  8
1
 10
830.21560248113383
 20
2890.772762456053
 30
0.0
 11
787.21555809765869
 21
2890.772762456053
 31
0.0
  0
LINE
  5
7C5F
  8
1
 10
830.21560248113383
 20
2920.7727624560539
 30
0.0
 11
787.21555809765869
 21
2920.7727624560539
 31
0.0
  0
POLYLINE
  5
7C60
  8
1
 66
     1
 10
0.0
 20
0.0
 30
0.0
  0
VERTEX
  5
8177
  8
1
 10
847.21560248113008
 20
2799.7727624560539
 30
0.0
  0
VERTEX
  5
8178
  8
1
 10
1032.2156024811329
 20
2799.772762456053
 30
0.0
  0
SEQEND
  5
8179
  8
1
  0
LINE
  5
7C64
  8
1
 10
1399.006031254632
 20
2640.468241374128
 30
0.0
 11
1412.030419573339
 21
2632.7494552031362
 31
0.0
  0
LINE
  5
7C65
  8
1
 10
1399.006031254632
 20
2806.235285286587
 30
0.0
 11
1420.5522561491971
 21
2813.4179466146679
 31
0.0
  0
LINE
  5
7C66
  8
1
 10
1399.006031254632
 20
2813.4179466146679
 30
0.0
 11
1500.006031254632
 21
2813.4179466146679
 31
0.0
  0
LINE
  5
7C67
  8
1
 10
1399.006031254632
 20
2841.4938624902461
 30
0.0
 11
1601.0060312546309
 21
2841.493862490247
 31
0.0
  0
LINE
  5
7C68
  8
1
 10
1399.006031254632
 20
2841.4938624902461
 30
0.0
 11
1420.006031254632
 21
2899.7986682916298
 31
0.0
  0
LINE
  5
7C69
  8
2
 10
1500.006031254632
 20
2913.1085315551222
 30
0.0
 11
1500.006031254632
 21
2499.868845983543
 31
0.0
  0
LINE
  5
7C6A
  8
1
 10
1420.006031254632
 20
2899.7986682916298
 30
0.0
 11
1580.006031254632
 21
2899.7986682916298
 31
0.0
  0
LINE
  5
7C6B
  8
1
 10
1407.0859948228519
 20
2632.7494552031362
 30
0.0
 11
1588.3963026342301
 21
2632.7494552031362
 31
0.0
  0
LINE
  5
7C6C
  8
1
 10
1407.085994822851
 20
2608.937696579671
 30
0.0
 11
1588.3963026342301
 21
2608.937696579671
 31
0.0
  0
LINE
  5
7C6D
  8
1
 10
1588.3963026342301
 20
2608.937696579671
 30
0.0
 11
1588.3963026342301
 21
2632.7494552031362
 31
0.0
  0
LINE
  5
7C6E
  8
1
 10
1457.7345058608789
 20
2608.937696579671
 30
0.0
 11
1457.7345058608789
 21
2598.7986682916298
 31
0.0
  0
LINE
  5
7C6F
  8
1
 10
1542.277556648384
 20
2608.937696579671
 30
0.0
 11
1542.2775566483849
 21
2598.7986682916298
 31
0.0
  0
LINE
  5
7C70
  8
1
 10
1407.0859948228519
 20
2608.937696579671
 30
0.0
 11
1407.0859948228519
 21
2632.7494552031362
 31
0.0
  0
LINE
  5
7C71
  8
1
 10
1457.7345058608789
 20
2598.7986682916298
 30
0.0
 11
1542.2775566483849
 21
2598.7986682916298
 31
0.0
  0
LINE
  5
7C72
  8
1
 10
1514.006031254632
 20
2533.7986682916298
 30
0.0
 11
1514.006031254632
 21
2593.7986682916298
 31
0.0
  0
LINE
  5
7C73
  8
1
 10
1486.006031254632
 20
2533.7986682916298
 30
0.0
 11
1486.006031254632
 21
2593.7986682916298
 31
0.0
  0
LINE
  5
7C74
  8
1
 10
1515.8101023682721
 20
2598.7986682916298
 30
0.0
 11
1515.8101023682721
 21
2593.7986682916298
 31
0.0
  0
LINE
  5
7C75
  8
1
 10
1484.2019601409911
 20
2598.7986682916298
 30
0.0
 11
1484.2019601409911
 21
2593.7986682916298
 31
0.0
  0
LINE
  5
7C76
  8
1
 10
1484.2019601409911
 20
2593.7986682916298
 30
0.0
 11
1515.8101023682721
 21
2593.7986682916298
 31
0.0
  0
LINE
  5
7C77
  8
1
 10
1486.006031254632
 20
2533.7986682916298
 30
0.0
 11
1514.006031254632
 21
2533.7986682916298
 31
0.0
  0
LINE
  5
7C78
  8
1
 10
1399.006031254632
 20
2640.4682413741261
 30
0.0
 11
1399.006031254632
 21
2806.235285286587
 31
0.0
  0
LINE
  5
7C79
  8
1
 10
1399.006031254632
 20
2813.4179466146679
 30
0.0
 11
1399.006031254632
 21
2841.4938624902461
 31
0.0
  0
LINE
  5
7C7A
  8
1
 10
1601.006031254632
 20
2813.4179466146679
 30
0.0
 11
1500.006031254632
 21
2813.4179466146679
 31
0.0
  0
LINE
  5
7C7B
  8
1
 10
1601.006031254632
 20
2806.235285286587
 30
0.0
 11
1579.459806360067
 21
2813.4179466146679
 31
0.0
  0
LINE
  5
7C7C
  8
1
 10
1601.006031254632
 20
2640.4682413741261
 30
0.0
 11
1601.006031254632
 21
2806.235285286587
 31
0.0
  0
LINE
  5
7C7D
  8
1
 10
1601.006031254632
 20
2640.468241374128
 30
0.0
 11
1587.9816429359239
 21
2632.7494552031362
 31
0.0
  0
LINE
  5
7C7E
  8
1
 10
1601.006031254632
 20
2813.4179466146679
 30
0.0
 11
1601.006031254632
 21
2841.4938624902461
 31
0.0
  0
LINE
  5
7C7F
  8
1
 10
1601.006031254632
 20
2841.4938624902461
 30
0.0
 11
1580.006031254632
 21
2899.7986682916298
 31
0.0
  0
LINE
  5
7C80
  8
1
 10
1416.7551153148249
 20
2890.772762456053
 30
0.0
 11
1387.2156024811329
 21
2890.772762456053
 31
0.0
  0
LINE
  5
7C81
  8
1
 10
1406.9290050767511
 20
2635.7727624560539
 30
0.0
 11
1064.715602481132
 21
2635.7727624560539
 31
0.0
  0
POLYLINE
  5
7C82
  8
1
 66
     1
 10
0.0
 20
0.0
 30
0.0
  0
VERTEX
  5
817A
  8
1
 10
1593.0830574325121
 20
2635.772762456053
 30
0.0
  0
VERTEX
  5
817B
  8
1
 10
1631.214351474254
 20
2635.772762456053
 30
0.0
  0
SEQEND
  5
817C
  8
1
  0
POLYLINE
  5
7C86
  8
1
 66
     1
 10
0.0
 20
0.0
 30
0.0
  0
VERTEX
  5
817D
  8
1
 10
1098.7156024811341
 20
2635.772762456053
 30
0.0
  0
VERTEX
  5
817E
  8
1
 10
1406.929005076752
 20
2635.772762456053
 30
0.0
  0
SEQEND
  5
817F
  8
1
  0
LINE
  5
7D01
  8
4
 10
2775.0
 20
750.0
 30
0.0
 11
2775.0
 21
450.0
 31
0.0
  0
LINE
  5
7D02
  8
4
 10
1725.0
 20
750.0
 30
0.0
 11
1725.0
 21
450.0
 31
0.0
  0
LINE
  5
7D03
  8
4
 10
975.0
 20
750.0
 30
0.0
 11
975.0
 21
450.0
 31
0.0
  0
LINE
  5
7D06
  8
4
 10
975.0
 20
450.0
 30
0.0
 11
2775.0
 21
450.0
 31
0.0
  0
LINE
  5
7D07
  8
4
 10
975.0
 20
600.0
 30
0.0
 11
2775.0
 21
600.0
 31
0.0
  0
TEXT
  5
7D08
  8
4
 10
1032.753121270352
 20
647.31453879991932
 30
0.0
 40
75.0
  1
機器名称
  0
TEXT
  5
7D09
  8
4
 10
1029.3871590371959
 20
482.46773509801642
 30
0.0
 40
75.0
  1
機器型番
  0
TEXT
  5
7D0A
  8
4
 10
1766.5181182314971
 20
633.85765343635285
 30
0.0
 40
75.0
  1
ミツヤ厨房用ファン
  0
TEXT
  5
7D0B
  8
4
 10
1779.9817433782209
 20
475.739376419915
 30
0.0
 40
75.0
  1
MFK#2-1
  0
TEXT
  5
7D0D
  8
4
 10
1183.3606647423139
 20
3575.1432619987731
 30
0.0
 40
80.999999999999986
  1
天吊防振ベット
  0
TEXT
  5
7D0E
  8
4
 10
474.25138999416959
 20
3800.8214642989469
 30
0.0
 40
108.0
  1
ベルト駆動式片吸込片持多翼ファン
  0
LINE
  5
7D0F
  8
4
 10
375.0
 20
3704.1131313972069
 30
0.0
 11
2775.0
 21
3704.1131313972069
 31
0.0
  0
LINE
  5
7D10
  8
4
 10
375.0
 20
4004.1131313972069
 30
0.0
 11
2775.0
 21
4004.1131313972069
 31
0.0
  0
LINE
  5
7D11
  8
4
 10
975.0
 20
750.0
 30
0.0
 11
2775.0
 21
750.0
 31
0.0
  0
LINE
  5
7D12
  8
4
 10
375.0
 20
4004.1131313972069
 30
0.0
 11
375.0
 21
3704.1131313972069
 31
0.0
  0
TEXT
  5
7D13
  8
4
 10
529.57241637826155
 20
3573.4792163195152
 30
0.0
 40
80.999999999999986
  1
左回転上向
  0
TEXT
  5
7D14
  8
4
 10
2203.4543388739339
 20
4059.0916222429628
 30
0.0
 40
84.000000000000014
  1
No.
  0
TEXT
  5
7D15
  8
4
 10
1966.944093900019
 20
3575.1432619987731
 30
0.0
 40
80.999999999999986
  1
縮尺：1/15
  0
LINE
  5
7D16
  8
4
 10
2775.0
 20
4004.1131313972069
 30
0.0
 11
2775.0
 21
3704.1131313972069
 31
0.0
  0
LINE
  5
7D17
  8
4
 10
3150.0
 20
4425.0
 30
0.0
 11
3150.0
 21
4425.0
 31
0.0
  0
LINE
  5
7D18
  8
4
 10
2160.9261335397969
 20
4021.895374688102
 30
0.0
 11
2160.9261335397969
 21
4179.9783923246277
 31
0.0
  0
LINE
  5
7D19
  8
4
 10
2160.9261335397969
 20
4179.9783923246277
 30
0.0
 11
2775.0
 21
4179.9783923246277
 31
0.0
  0
LINE
  5
7D1A
  8
4
 10
2775.0
 20
4179.9783923246277
 30
0.0
 11
2775.0
 21
4021.895374688102
 31
0.0
  0
LINE
  5
7D1B
  8
4
 10
2775.0
 20
4021.895374688102
 30
0.0
 11
2160.9261335397969
 21
4021.895374688102
 31
0.0
  0
LINE
  5
7D1C
  8
4
 10
0.0
 20
0.0
 30
0.0
 11
0.0
 21
4425.0
 31
0.0
  0
LINE
  5
7D1D
  8
4
 10
0.0
 20
4425.0
 30
0.0
 11
3150.0
 21
4425.0
 31
0.0
  0
LINE
  5
7D1E
  8
4
 10
3150.0
 20
4425.0
 30
0.0
 11
3150.0
 21
0.0
 31
0.0
  0
LINE
  5
7D1F
  8
4
 10
3150.0
 20
0.0
 30
0.0
 11
0.0
 21
0.0
 31
0.0
  0
DIMENSION
  5
7D2E
  8
3
  2
*D1
 10
609.55417449502443
 20
1704.1568537686339
 30
0.0
 11
609.55417449502409
 21
1831.537986347724
 31
0.0
 70
   128
 13
1031.215602481132
 23
1954.1568537686351
 33
0.0
 14
779.44247362364877
 24
1704.1568537686339
 34
0.0
 50
270.0
1001
ACAD
1000
DSTYLE
1002
{
1070
   287
1070
     3
1070
   287
1070
     3
1070
    40
1040
15.0
1070
   143
1040
0.039
1070
   172
1070
     1
1070
   271
1070
     0
1070
   279
1070
     0
1070
   288
1070
     1
1002
}
  0
DIMENSION
  5
7D3A
  8
3
  2
*D2
 10
609.55417449502409
 20
1304.1568537686369
 30
0.0
 11
572.05417449502397
 21
1504.156853768636
 31
0.0
 70
     0
 13
779.44247362364877
 23
1704.1568537686339
 33
0.0
 14
817.21560248112382
 24
1304.1568537686369
 34
0.0
 50
270.0
1001
ACAD
1000
DSTYLE
1002
{
1070
   287
1070
     4
1070
   287
1070
     4
1070
    40
1040
15.0
1070
    75
1070
     1
1070
   143
1040
0.039
1070
   172
1070
     1
1070
   271
1070
     0
1070
   279
1070
     1
1070
   288
1070
     1
1002
}
  0
DIMENSION
  5
7D4A
  8
3
  2
*D3
 10
609.55417449502409
 20
1268.1568537686401
 30
0.0
 11
537.76846020930998
 21
1322.4446015102801
 31
0.0
 70
   128
  1
(<>)
 13
817.21560248112382
 23
1304.1568537686369
 33
0.0
 14
787.21560248112382
 24
1268.1568537686401
 34
0.0
 50
270.0
1001
ACAD
1000
DSTYLE
1002
{
1070
   288
1070
     1
1070
   172
1070
     1
1070
    75
1070
     1
1070
    40
1040
15.0
1070
   271
1070
     0
1070
     7
1000
_DOT
1070
   143
1040
0.039
1002
}
  0
DIMENSION
  5
7DC1
  8
3
  2
*D5
 10
1052.2156024811329
 20
2092.9643107207321
 30
0.0
 11
949.35845962399094
 21
2092.9643107207321
 31
0.0
 70
   128
 13
830.12097070166192
 23
1704.1568537686339
 33
0.0
 14
1052.2156024811329
 24
2007.5604479206791
 34
0.0
1001
ACAD
1000
DSTYLE
1002
{
1070
   287
1070
     3
1070
   287
1070
     3
1070
    40
1040
15.0
1070
   143
1040
0.039
1070
   172
1070
     1
1070
   271
1070
     0
1070
   279
1070
     0
1070
   288
1070
     1
1002
}
  0
DIMENSION
  5
7DCD
  8
3
  2
*D6
 10
1367.2156024811329
 20
2092.9643107207321
 30
0.0
 11
1209.7156024811329
 21
2130.4643107207321
 31
0.0
 70
     0
 13
1052.2156024811329
 23
2007.5604479206791
 33
0.0
 14
1367.2156024811329
 24
1954.156853768646
 34
0.0
1001
ACAD
1000
DSTYLE
1002
{
1070
   287
1070
     4
1070
   287
1070
     4
1070
    40
1040
15.0
1070
    75
1070
     1
1070
   143
1040
0.039
1070
   172
1070
     1
1070
   271
1070
     0
1070
   279
1070
     1
1070
   288
1070
     1
1002
}
  0
DIMENSION
  5
7DE4
  8
3
  2
*D7
 10
1697.2156024811241
 20
2241.5645498185759
 30
0.0
 11
1270.4802185059671
 21
2241.5645498185759
 31
0.0
 70
   128
 13
787.21560248112291
 23
1238.156853768641
 33
0.0
 14
1697.2156024811241
 24
1268.1568537686151
 34
0.0
1001
ACAD
1000
DSTYLE
1002
{
1070
   287
1070
     3
1070
   287
1070
     3
1070
    40
1040
15.0
1070
   143
1040
0.039
1070
   172
1070
     1
1070
   271
1070
     0
1070
   279
1070
     0
1070
   288
1070
     1
1002
}
  0
DIMENSION
  5
7E0A
  8
3
  2
*D8
 10
2567.6884352772499
 20
2011.4413659339491
 30
0.0
 11
2463.7598638486788
 21
2011.4413659339491
 31
0.0
 70
   128
 13
2343.6884352772499
 23
1952.9568537686359
 33
0.0
 14
2567.6884352772499
 24
1954.1568537686351
 34
0.0
1001
ACAD
1000
DSTYLE
1002
{
1070
   287
1070
     3
1070
   287
1070
     3
1070
    40
1040
15.0
1070
   143
1040
0.039
1070
   172
1070
     1
1070
   271
1070
     0
1070
   279
1070
     0
1070
   288
1070
     1
1002
}
  0
DIMENSION
  5
7E1A
  8
3
  2
*D9
 10
2455.688435277249
 20
2123.4334803942529
 30
0.0
 11
2516.188435277249
 21
2123.4334803942529
 31
0.0
 70
   128
 13
2576.688435277249
 23
1885.656853768633
 33
0.0
 14
2455.688435277249
 24
2083.368464288224
 34
0.0
1001
ACAD
1000
DSTYLE
1002
{
1070
   287
1070
     3
1070
   287
1070
     3
1070
    40
1040
15.0
1070
   143
1040
0.039
1070
   172
1070
     1
1070
   271
1070
     0
1070
   279
1070
     0
1070
   288
1070
     1
1002
}
  0
DIMENSION
  5
7E26
  8
3
  2
*D10
 10
2035.6884352772479
 20
2123.4334803942529
 30
0.0
 11
2245.688435277249
 21
2198.4334803942529
 31
0.0
 70
     0
  1
MAX\P<>
 13
2455.688435277249
 23
2083.368464288224
 33
0.0
 14
2035.6884352772479
 24
1934.156853768633
 34
0.0
1001
ACAD
1000
DSTYLE
1002
{
1070
   287
1070
     4
1070
   287
1070
     4
1070
    40
1040
15.0
1070
    75
1070
     1
1070
   143
1040
0.039
1070
   172
1070
     1
1070
   271
1070
     0
1070
   279
1070
     1
1070
   288
1070
     1
1002
}
  0
DIMENSION
  5
7E58
  8
3
  2
*D11
 10
2699.81729498912
 20
1546.656853768633
 30
0.0
 11
2699.8172949891191
 21
1707.4475016502211
 31
0.0
 70
   128
 13
2576.688435277249
 23
1861.656853768633
 33
0.0
 14
2576.688435277249
 24
1546.656853768633
 34
0.0
 50
90.0
1001
ACAD
1000
DSTYLE
1002
{
1070
   287
1070
     3
1070
   287
1070
     3
1070
     3
1000
φ<>
1070
    40
1040
15.0
1070
   143
1040
0.039
1070
   172
1070
     1
1070
   271
1070
     0
1070
   279
1070
     0
1070
   288
1070
     1
1002
}
  0
LINE
  5
7EF4
  8
1
 10
2437.6983265196318
 20
1585.365173988255
 30
0.0
 11
2437.6983265196318
 21
1425.365173988255
 31
0.0
  0
LINE
  5
7EF5
  8
1
 10
2170.6491134311382
 20
1598.285210420034
 30
0.0
 11
2170.6491134311382
 21
1593.3407856695469
 31
0.0
  0
LINE
  5
7EF6
  8
1
 10
2146.837354807672
 20
1598.2852104200349
 30
0.0
 11
2146.837354807672
 21
1416.974902608657
 31
0.0
  0
LINE
  5
7EF7
  8
1
 10
2351.317604842669
 20
1404.365173988255
 30
0.0
 11
2351.317604842669
 21
1505.365173988255
 31
0.0
  0
LINE
  5
7EF8
  8
1
 10
2379.3935207182471
 20
1606.365173988255
 30
0.0
 11
2379.3935207182481
 21
1404.3651739882559
 31
0.0
  0
LINE
  5
7EFE
  8
1
 10
2071.6983265196318
 20
1491.365173988255
 30
0.0
 11
2131.6983265196318
 21
1491.365173988255
 31
0.0
  0
LINE
  5
7EFF
  8
1
 10
2071.6983265196318
 20
1519.365173988255
 30
0.0
 11
2131.6983265196318
 21
1519.365173988255
 31
0.0
  0
LINE
  5
7F01
  8
1
 10
2071.6983265196318
 20
1519.365173988255
 30
0.0
 11
2071.6983265196318
 21
1491.365173988255
 31
0.0
  0
LINE
  5
7F03
  8
1
 10
2351.317604842669
 20
1606.365173988255
 30
0.0
 11
2351.317604842669
 21
1505.365173988255
 31
0.0
  0
LINE
  5
7F04
  8
1
 10
2178.3678996021281
 20
1606.365173988255
 30
0.0
 11
2344.134943514588
 21
1606.365173988255
 31
0.0
  0
LINE
  5
7F05
  8
1
 10
2146.837354807672
 20
1598.285210420034
 30
0.0
 11
2170.6491134311382
 21
1598.285210420034
 31
0.0
  0
LINE
  5
7F06
  8
1
 10
2178.3678996021281
 20
1606.365173988255
 30
0.0
 11
2170.6491134311382
 21
1593.3407856695469
 31
0.0
  0
LINE
  5
7F08
  8
1
 10
2351.317604842669
 20
1606.365173988255
 30
0.0
 11
2379.3935207182471
 21
1606.365173988255
 31
0.0
  0
LINE
  5
7F09
  8
1
 10
2344.134943514588
 20
1606.365173988255
 30
0.0
 11
2351.317604842669
 21
1584.81894909369
 31
0.0
  0
LINE
  5
7F0A
  8
1
 10
2379.3935207182471
 20
1606.365173988255
 30
0.0
 11
2437.6983265196318
 21
1585.365173988255
 31
0.0
  0
LINE
  5
7F0B
  8
1
 10
2131.6983265196318
 20
1521.169245101896
 30
0.0
 11
2131.6983265196318
 21
1489.561102874615
 31
0.0
  0
LINE
  5
7F0C
  8
1
 10
2136.6983265196318
 20
1547.6366993820079
 30
0.0
 11
2136.6983265196318
 21
1463.0936485945019
 31
0.0
  0
LINE
  5
7F0D
  8
1
 10
2146.837354807672
 20
1547.636699382007
 30
0.0
 11
2136.6983265196318
 21
1547.6366993820079
 31
0.0
  0
LINE
  5
7F0E
  8
1
 10
2136.6983265196318
 20
1521.169245101896
 30
0.0
 11
2131.6983265196318
 21
1521.169245101896
 31
0.0
  0
LINE
  5
7F0F
  8
1
 10
2136.6983265196318
 20
1489.561102874615
 30
0.0
 11
2131.6983265196318
 21
1489.561102874615
 31
0.0
  0
LINE
  5
7F10
  8
1
 10
2146.837354807672
 20
1463.0936485945031
 30
0.0
 11
2136.6983265196318
 21
1463.0936485945019
 31
0.0
  0
LINE
  5
7F14
  8
1
 10
2178.3678996021281
 20
1404.365173988255
 30
0.0
 11
2344.134943514588
 21
1404.365173988255
 31
0.0
  0
LINE
  5
7F1B
  8
1
 10
2146.837354807672
 20
1416.9749026086561
 30
0.0
 11
2170.6491134311382
 21
1416.9749026086561
 31
0.0
  0
LINE
  5
7F1C
  8
1
 10
2178.3678996021281
 20
1404.365173988255
 30
0.0
 11
2170.6491134311382
 21
1417.389562306962
 31
0.0
  0
LINE
  5
7F20
  8
1
 10
2351.317604842669
 20
1404.365173988255
 30
0.0
 11
2379.3935207182471
 21
1404.365173988255
 31
0.0
  0
LINE
  5
7F21
  8
1
 10
2344.134943514588
 20
1404.365173988255
 30
0.0
 11
2351.317604842669
 21
1425.9113988828201
 31
0.0
  0
LINE
  5
7F22
  8
1
 10
2379.3935207182471
 20
1404.365173988255
 30
0.0
 11
2437.6983265196318
 21
1425.365173988255
 31
0.0
  0
LINE
  5
7F26
  8
1
 10
2170.6491134311382
 20
1417.3895623069629
 30
0.0
 11
2170.6491134311382
 21
1416.9749026086561
 31
0.0
  0
POLYLINE
  5
7F27
  8
1
 66
     1
 10
0.0
 20
0.0
 30
0.0
  0
VERTEX
  5
81D3
  8
1
 10
2334.6884352772481
 20
1683.826550988809
 30
0.0
  0
VERTEX
  5
81D4
  8
1
 10
2334.6884352772481
 20
1606.365173988255
 30
0.0
  0
SEQEND
  5
81D5
  8
1
  0
POLYLINE
  5
7F2B
  8
1
 66
     1
 10
0.0
 20
0.0
 30
0.0
  0
VERTEX
  5
81D6
  8
1
 10
2334.688435277249
 20
1404.365173988255
 30
0.0
  0
VERTEX
  5
81D7
  8
1
 10
2334.688435277249
 20
1374.1568537686319
 30
0.0
  0
SEQEND
  5
81D8
  8
1
  0
LINE
  5
7F2F
  8
1
 10
2183.4693983275388
 20
1404.365173988255
 30
0.0
 11
2183.4693983275388
 21
1374.1568537686319
 31
0.0
  0
LINE
  5
7F30
  8
1
 10
2322.1060744142551
 20
1404.365173988255
 30
0.0
 11
2322.1060744142551
 21
1374.156853768633
 31
0.0
  0
LINE
  5
7F50
  8
1
 10
2343.6884352772499
 20
1954.156853768636
 30
0.0
 11
2343.6884352772499
 21
1606.365173988255
 31
0.0
  0
LINE
  5
7F51
  8
1
 10
2567.6884352772499
 20
1954.1568537686351
 30
0.0
 11
2567.6884352772508
 21
1490.7716889615019
 31
0.0
  0
LINE
  5
7F6C
  8
1
 10
2035.6884352772479
 20
1208.156853768633
 30
0.0
 11
2635.688435277249
 21
1208.156853768633
 31
0.0
1001
ACAD
1000
ASC_BOUNDS
1002
{
1070
    19
1002
}
  0
LINE
  5
7F6D
  8
1
 10
2455.688435277249
 20
1374.156853768633
 30
0.0
 11
2455.688435277249
 21
1304.156853768633
 31
0.0
  0
LINE
  5
7F6E
  8
1
 10
2035.688435277249
 20
1238.156853768633
 30
0.0
 11
2035.6884352772479
 21
1208.156853768633
 31
0.0
1001
ACAD
1000
ASC_BOUNDS
1002
{
1070
    19
1002
}
  0
LINE
  5
7F6F
  8
1
 10
2635.6884352772481
 20
1238.156853768633
 30
0.0
 11
2635.6884352772481
 21
1208.1568537686319
 31
0.0
1001
ACAD
1000
ASC_BOUNDS
1002
{
1070
    19
1002
}
  0
LINE
  5
7F7D
  8
1
 10
1667.2156024811229
 20
1238.1568537686151
 30
0.0
 11
1667.2156024811229
 21
1208.1568537686151
 31
0.0
  0
LINE
  5
7F7E
  8
1
 10
1667.2156024811229
 20
1238.1568537686151
 30
0.0
 11
1697.2156024811229
 21
1238.1568537686151
 31
0.0
  0
LINE
  5
7F7F
  8
1
 10
1667.2156024811229
 20
1208.1568537686151
 30
0.0
 11
1668.2156024811229
 21
1208.1568537686151
 31
0.0
  0
LINE
  5
7F80
  8
1
 10
1697.2156024811229
 20
1238.1568537686151
 30
0.0
 11
1697.2156024811229
 21
1237.1568537686151
 31
0.0
  0
LINE
  5
7F81
  8
1
 10
1670.2156024811229
 20
1231.1568537686151
 30
0.0
 11
1670.2156024811229
 21
1210.1568537686151
 31
0.0
  0
LINE
  5
7F82
  8
1
 10
1674.215602481122
 20
1235.1568537686151
 30
0.0
 11
1695.2156024811229
 21
1235.1568537686151
 31
0.0
  0
ARC
  5
7F83
  8
1
 10
1668.2156024811229
 20
1210.1568537686151
 30
0.0
 40
2.0
 50
270.0
 51
0.0
  0
ARC
  5
7F84
  8
1
 10
1695.2156024811229
 20
1237.1568537686151
 30
0.0
 40
2.0
 50
270.0
 51
0.0
  0
ARC
  5
7F85
  8
1
 10
1674.215602481122
 20
1231.1568537686151
 30
0.0
 40
4.0
 50
90.0
 51
180.0
  0
LINE
  5
7F87
  8
1
 10
817.21560248112257
 20
1208.1568537686151
 30
0.0
 11
816.21560248112257
 21
1208.1568537686151
 31
0.0
  0
LINE
  5
7F88
  8
1
 10
817.21560248112257
 20
1238.1568537686151
 30
0.0
 11
787.21560248112291
 21
1238.1568537686151
 31
0.0
  0
LINE
  5
7F89
  8
1
 10
817.21560248112257
 20
1238.1568537686151
 30
0.0
 11
817.21560248112257
 21
1208.1568537686151
 31
0.0
  0
ARC
  5
7F8A
  8
1
 10
789.21560248112291
 20
1237.1568537686151
 30
0.0
 40
2.0
 50
180.0
 51
270.0
  0
LINE
  5
7F8B
  8
1
 10
810.21560248112269
 20
1235.1568537686151
 30
0.0
 11
789.21560248112291
 21
1235.1568537686151
 31
0.0
  0
LINE
  5
7F8C
  8
1
 10
787.21560248112291
 20
1238.1568537686151
 30
0.0
 11
787.21560248112291
 21
1237.1568537686151
 31
0.0
  0
ARC
  5
7F8D
  8
1
 10
816.21560248112257
 20
1210.1568537686151
 30
0.0
 40
2.0
 50
180.0
 51
270.0
  0
LINE
  5
7F8E
  8
1
 10
814.21560248112257
 20
1231.1568537686151
 30
0.0
 11
814.21560248112257
 21
1210.1568537686151
 31
0.0
  0
ARC
  5
7F8F
  8
1
 10
810.21560248112269
 20
1231.1568537686151
 30
0.0
 40
4.0
 50
0.0
 51
90.0
  0
DIMENSION
  5
7F9C
  8
3
  2
*D13
 10
2455.688435277249
 20
1110.8855066398439
 30
0.0
 11
2245.688435277249
 21
1148.3855066398439
 31
0.0
 70
     0
 13
2035.6884352772479
 23
1208.156853768633
 33
0.0
 14
2455.688435277249
 24
1208.1568537686319
 34
0.0
1001
ACAD
1000
DSTYLE
1002
{
1070
   287
1070
     3
1070
   287
1070
     3
1070
    40
1040
15.0
1070
   143
1040
0.039
1070
   172
1070
     1
1070
   271
1070
     0
1070
   279
1070
     0
1002
}
  0
DIMENSION
  5
7FAB
  8
3
  2
*D14
 10
2635.6884352772481
 20
1110.8855066398439
 30
0.0
 11
2545.688435277249
 21
1148.3855066398439
 31
0.0
 70
     0
 13
2455.688435277249
 23
1208.1568537686319
 33
0.0
 14
2635.6884352772481
 24
1208.1568537686319
 34
0.0
1001
ACAD
1000
DSTYLE
1002
{
1070
   287
1070
     3
1070
   287
1070
     3
1070
    40
1040
15.0
1070
   143
1040
0.039
1070
   172
1070
     1
1070
   271
1070
     0
1070
   279
1070
     0
1002
}
  0
DIMENSION
  5
7FB8
  8
3
  2
*D15
 10
1697.2156024811229
 20
1110.8855066398439
 30
0.0
 11
1374.715602481122
 21
1148.3855066398439
 31
0.0
 70
     0
 13
1052.2156024811229
 23
1238.156853768633
 33
0.0
 14
1697.2156024811229
 24
1238.1568537686151
 34
0.0
1001
ACAD
1000
DSTYLE
1002
{
1070
   287
1070
     3
1070
   287
1070
     3
1070
    40
1040
15.0
1070
   143
1040
0.039
1070
   172
1070
     1
1070
   271
1070
     0
1070
   279
1070
     0
1002
}
  0
DIMENSION
  5
7FC5
  8
3
  2
*D16
 10
787.21560248112291
 20
1110.8855066398439
 30
0.0
 11
919.71560248112303
 21
1148.3855066398439
 31
0.0
 70
     0
 13
1052.2156024811229
 23
1238.156853768633
 33
0.0
 14
787.21560248112291
 24
1245.656853768641
 34
0.0
1001
ACAD
1000
DSTYLE
1002
{
1070
   287
1070
     3
1070
   287
1070
     3
1070
    40
1040
15.0
1070
   143
1040
0.039
1070
   172
1070
     1
1070
   271
1070
     0
1070
   279
1070
     0
1002
}
  0
DIMENSION
  5
7FD4
  8
3
  2
*D17
 10
610.23093762991994
 20
1208.1568537686151
 30
0.0
 11
572.73093762991982
 21
1096.728282340044
 31
0.0
 70
     0
 13
787.21560248112382
 23
1268.1568537686401
 33
0.0
 14
817.21560248112257
 24
1208.1568537686151
 34
0.0
 50
90.0
1001
ACAD
1000
DSTYLE
1002
{
1070
   287
1070
     3
1070
   287
1070
     3
1070
    40
1040
15.0
1070
   143
1040
0.039
1070
   172
1070
     1
1070
   271
1070
     0
1070
   279
1070
     0
1070
     6
1000
DOT
1002
}
  0
DIMENSION
  5
7FE1
  8
3
  2
*D18
 10
469.23654789321148
 20
1208.1568537686151
 30
0.0
 11
419.95083360749709
 21
1581.1568537686251
 31
0.0
 70
     0
 13
1031.215602481132
 23
1954.1568537686351
 33
0.0
 14
817.21560248112257
 24
1208.1568537686151
 34
0.0
 50
90.0
1001
ACAD
1000
DSTYLE
1002
{
1070
   287
1070
     3
1070
   287
1070
     3
1070
     3
1000
(<>)
1070
    40
1040
15.0
1070
   143
1040
0.039
1070
   172
1070
     1
1070
   271
1070
     0
1070
   279
1070
     0
1002
}
  0
LINE
  5
7FE2
  8
1
 10
787.21555809765869
 20
3100.7727624560539
 30
0.0
 11
817.21555809766096
 21
3100.7727624560539
 31
0.0
1001
ACAD
1000
ASC_BOUNDS
1002
{
1070
    19
1002
}
  0
LINE
  5
7FE4
  8
1
 10
787.21555809766073
 20
2500.7727624560539
 30
0.0
 11
817.21555809765675
 21
2500.7727624560539
 31
0.0
1001
ACAD
1000
ASC_BOUNDS
1002
{
1070
    19
1002
}
  0
LINE
  5
7FE5
  8
1
 10
1667.2155580976601
 20
3100.7727624560539
 30
0.0
 11
1697.2155580976601
 21
3100.7727624560539
 31
0.0
1001
ACAD
1000
ASC_BOUNDS
1002
{
1070
    19
1002
}
  0
LINE
  5
7FE6
  8
1
 10
1667.2155580976589
 20
2500.772762456053
 30
0.0
 11
1697.215558097658
 21
2500.7727624560539
 31
0.0
1001
ACAD
1000
ASC_BOUNDS
1002
{
1070
    19
1002
}
  0
LINE
  5
7FE7
  8
1
 10
1667.2155580976589
 20
2635.7727624560539
 30
0.0
 11
1667.2155580976589
 21
2890.7727624560539
 31
0.0
1001
ACAD
1000
ASC_BOUNDS
1002
{
1070
    19
1002
}
  0
LINE
  5
7FE8
  8
1
 10
1667.2155580976601
 20
2920.7727624560548
 30
0.0
 11
1667.2155580976601
 21
3100.7727624560539
 31
0.0
1001
ACAD
1000
ASC_BOUNDS
1002
{
1070
    19
1002
}
  0
LINE
  5
7FE9
  8
1
 10
817.21555809765766
 20
2635.7727624560539
 30
0.0
 11
817.2155580976596
 21
2890.772762456053
 31
0.0
1001
ACAD
1000
ASC_BOUNDS
1002
{
1070
    19
1002
}
  0
LINE
  5
7FEA
  8
1
 10
817.21555809765982
 20
2920.7727624560548
 30
0.0
 11
817.21555809766096
 21
3100.7727624560539
 31
0.0
1001
ACAD
1000
ASC_BOUNDS
1002
{
1070
    19
1002
}
  0
DIMENSION
  5
7FF7
  8
3
  2
*D19
 10
1697.2155580976601
 20
3195.187287685872
 30
0.0
 11
1242.2155580976589
 21
3232.687287685872
 31
0.0
 70
     0
 13
787.21555809765891
 23
3100.7727624560539
 33
0.0
 14
1697.2155580976601
 24
3100.7727624560539
 34
0.0
1001
ACAD
1000
DSTYLE
1002
{
1070
   287
1070
     3
1070
   287
1070
     3
1070
    40
1040
15.0
1070
   143
1040
0.039
1070
   172
1070
     1
1070
   271
1070
     0
1070
   279
1070
     0
1002
}
  0
DIMENSION
  5
8004
  8
3
  2
*D20
 10
686.75678406861516
 20
2500.7727624560539
 30
0.0
 11
649.25678406861482
 21
2800.7727624560539
 31
0.0
 70
     0
 13
787.21555809765869
 23
3100.7727624560539
 33
0.0
 14
787.21555809766073
 24
2500.7727624560539
 34
0.0
 50
90.0
1001
ACAD
1000
DSTYLE
1002
{
1070
   287
1070
     3
1070
   287
1070
     3
1070
    40
1040
15.0
1070
   143
1040
0.039
1070
   172
1070
     1
1070
   271
1070
     0
1070
   279
1070
     0
1002
}
  0
ENDSEC
  0
EOF
