  0
SECTION
  2
HEADER
  9
$ACADVER
  1
AC1009
  9
$INSBASE
 10
0.0
 20
0.0
 30
0.0
  9
$EXTMIN
 10
0.0
 20
0.0
 30
0.0
  9
$EXTMAX
 10
3150.0
 20
4425.0
 30
0.0
  9
$LIMMIN
 10
0.0
 20
0.0
  9
$LIMMAX
 10
297.0
 20
210.0
  9
$ORTHOMODE
 70
     0
  9
$REGENMODE
 70
     1
  9
$FILLMODE
 70
     0
  9
$QTEXTMODE
 70
     0
  9
$MIRRTEXT
 70
     1
  9
$DRAGMODE
 70
     2
  9
$LTSCALE
 40
100.0
  9
$OSMODE
 70
    37
  9
$ATTMODE
 70
     1
  9
$TEXTSIZE
 40
180.0
  9
$TRACEWID
 40
0.05
  9
$TEXTSTYLE
  7
STANDARD
  9
$CLAYER
  8
3
  9
$CELTYPE
  6
BYLAYER
  9
$CECOLOR
 62
   256
  9
$DIMSCALE
 40
15.0
  9
$DIMASZ
 40
2.0
  9
$DIMEXO
 40
0.5
  9
$DIMDLI
 40
10.0
  9
$DIMRND
 40
0.0
  9
$DIMDLE
 40
0.0
  9
$DIMEXE
 40
1.0
  9
$DIMTP
 40
1.0
  9
$DIMTM
 40
1.0
  9
$DIMTXT
 40
3.0
  9
$DIMCEN
 40
0.0
  9
$DIMTSZ
 40
0.0
  9
$DIMTOL
 70
     0
  9
$DIMLIM
 70
     0
  9
$DIMTIH
 70
     0
  9
$DIMTOH
 70
     0
  9
$DIMSE1
 70
     0
  9
$DIMSE2
 70
     0
  9
$DIMTAD
 70
     1
  9
$DIMZIN
 70
     8
  9
$DIMBLK
  1

  9
$DIMASO
 70
     1
  9
$DIMSHO
 70
     1
  9
$DIMPOST
  1

  9
$DIMAPOST
  1

  9
$DIMALT
 70
     0
  9
$DIMALTD
 70
     2
  9
$DIMALTF
 40
0.039
  9
$DIMLFAC
 40
1.0
  9
$DIMTOFL
 70
     1
  9
$DIMTVP
 40
0.0
  9
$DIMTIX
 70
     0
  9
$DIMSOXD
 70
     0
  9
$DIMSAH
 70
     1
  9
$DIMBLK1
  1
OPEN
  9
$DIMBLK2
  1
OPEN
  9
$DIMSTYLE
  2
IGA
  9
$DIMCLRD
 70
     0
  9
$DIMCLRE
 70
     0
  9
$DIMCLRT
 70
     0
  9
$DIMTFAC
 40
10.0
  9
$DIMGAP
 40
1.0
  9
$LUNITS
 70
     2
  9
$LUPREC
 70
     3
  9
$SKETCHINC
 40
0.1
  9
$FILLETRAD
 40
10.0
  9
$AUNITS
 70
     0
  9
$AUPREC
 70
     0
  9
$MENU
  1
acad
  9
$ELEVATION
 40
0.0
  9
$PELEVATION
 40
0.0
  9
$THICKNESS
 40
0.0
  9
$LIMCHECK
 70
     0
  9
$BLIPMODE
 70
     0
  9
$CHAMFERA
 40
0.5
  9
$CHAMFERB
 40
0.5
  9
$SKPOLY
 70
     0
  9
$TDCREATE
 40
2452811.6421113419
  9
$TDUPDATE
 40
2454953.8496855441
  9
$TDINDWG
 40
0.0990979051
  9
$TDUSRTIMER
 40
0.0990979051
  9
$USRTIMER
 70
     1
  9
$ANGBASE
 50
0.0
  9
$ANGDIR
 70
     0
  9
$PDMODE
 70
     0
  9
$PDSIZE
 40
0.0
  9
$PLINEWID
 40
0.0
  9
$COORDS
 70
     1
  9
$SPLFRAME
 70
     0
  9
$SPLINETYPE
 70
     6
  9
$SPLINESEGS
 70
     8
  9
$ATTDIA
 70
     0
  9
$ATTREQ
 70
     1
  9
$HANDLING
 70
 10241
  9
$HANDSEED
  5
831B
  9
$SURFTAB1
 70
     6
  9
$SURFTAB2
 70
     6
  9
$SURFTYPE
 70
     6
  9
$SURFU
 70
     6
  9
$SURFV
 70
     6
  9
$UCSNAME
  2

  9
$UCSORG
 10
0.0
 20
0.0
 30
0.0
  9
$UCSXDIR
 10
1.0
 20
0.0
 30
0.0
  9
$UCSYDIR
 10
0.0
 20
1.0
 30
0.0
  9
$PUCSNAME
  2

  9
$PUCSORG
 10
0.0
 20
0.0
 30
0.0
  9
$PUCSXDIR
 10
1.0
 20
0.0
 30
0.0
  9
$PUCSYDIR
 10
0.0
 20
1.0
 30
0.0
  9
$USERI1
 70
     0
  9
$USERI2
 70
     0
  9
$USERI3
 70
     0
  9
$USERI4
 70
     0
  9
$USERI5
 70
     0
  9
$USERR1
 40
0.0
  9
$USERR2
 40
0.0
  9
$USERR3
 40
0.0
  9
$USERR4
 40
0.0
  9
$USERR5
 40
0.0
  9
$WORLDVIEW
 70
     1
  9
$SHADEDGE
 70
     3
  9
$SHADEDIF
 70
    70
  9
$TILEMODE
 70
     1
  9
$MAXACTVP
 70
    16
  9
$PLIMCHECK
 70
     0
  9
$PEXTMIN
 10
1.0000000000000000E+020
 20
1.0000000000000000E+020
 30
1.0000000000000000E+020
  9
$PEXTMAX
 10
-1.0000000000000000E+020
 20
-1.0000000000000000E+020
 30
-1.0000000000000000E+020
  9
$PLIMMIN
 10
0.0
 20
0.0
  9
$PLIMMAX
 10
12.0
 20
9.0
  9
$UNITMODE
 70
     0
  9
$VISRETAIN
 70
     0
  9
$PLINEGEN
 70
     0
  9
$PSLTSCALE
 70
     1
  0
ENDSEC
  0
SECTION
  2
TABLES
  0
TABLE
  2
VPORT
 70
     2
  0
VPORT
  2
*ACTIVE
 70
     0
 10
0.0
 20
0.0
 11
1.0
 21
1.0
 12
4520.9869848156186
 22
3003.7483620440212
 13
0.0
 23
0.0
 14
10.0
 24
10.0
 15
10.0
 25
10.0
 16
0.0
 26
0.0
 36
1.0
 17
0.0
 27
0.0
 37
0.0
 40
6007.4967240880433
 41
1.5051150895140659
 42
50.0
 43
0.0
 44
0.0
 50
0.0
 51
0.0
 71
     0
 72
   100
 73
     1
 74
     0
 75
     0
 76
     0
 77
     0
 78
     0
  0
ENDTAB
  0
TABLE
  2
LTYPE
 70
     2
  0
LTYPE
  2
CONTINUOUS
 70
     0
  3
Solid line
 72
    65
 73
     0
 40
0.0
  0
LTYPE
  2
CENTER
 70
     0
  3
____ _ ____ _ ____ _ ____ _ ____ _ ____ _ ____ 
 72
    65
 73
     4
 40
2.0
 49
1.25
 49
-0.25
 49
0.25
 49
-0.25
  0
ENDTAB
  0
TABLE
  2
LAYER
 70
     6
  0
LAYER
  2
0
 70
     0
 62
     7
  6
CONTINUOUS
  0
LAYER
  2
3
 70
     0
 62
     2
  6
CONTINUOUS
  0
LAYER
  2
2
 70
     0
 62
     3
  6
CENTER
  0
LAYER
  2
1
 70
     0
 62
     4
  6
CONTINUOUS
  0
LAYER
  2
4
 70
     0
 62
     7
  6
CONTINUOUS
  0
LAYER
  2
DEFPOINTS
 70
     0
 62
     7
  6
CONTINUOUS
  0
ENDTAB
  0
TABLE
  2
STYLE
 70
     1
  0
STYLE
  2
STANDARD
 70
     0
 40
0.0
 41
1.0
 50
0.0
 71
     0
 42
180.0
  3
simplex.shx
  4
extfont.shx
  0
ENDTAB
  0
TABLE
  2
VIEW
 70
     0
  0
ENDTAB
  0
TABLE
  2
UCS
 70
     0
  0
ENDTAB
  0
TABLE
  2
APPID
 70
     1
  0
APPID
  2
ACAD
 70
     0
  0
ENDTAB
  0
TABLE
  2
DIMSTYLE
 70
     1
  0
DIMSTYLE
  2
IGA
 70
     0
  3

  4

  5

  6
OPEN
  7
OPEN
 40
2.0
 41
2.0
 42
0.5
 43
10.0
 44
1.0
 45
0.0
 46
0.0
 47
1.0
 48
1.0
140
3.0
141
0.0
142
0.0
143
0.03937
144
1.0
145
0.0
146
10.0
147
1.0
 71
     0
 72
     0
 73
     0
 74
     0
 75
     0
 76
     0
 77
     1
 78
     8
170
     0
171
     2
172
     0
173
     1
174
     0
175
     0
176
     0
177
     0
178
     0
  0
ENDTAB
  0
ENDSEC
  0
SECTION
  2
BLOCKS
  0
BLOCK
  8
0
  2
$MODEL_SPACE
 70
     0
 10
0.0
 20
0.0
 30
0.0
  3
$MODEL_SPACE
  1

  0
ENDBLK
  5
1B
  8
0
  0
BLOCK
 67
     1
  8
0
  2
$PAPER_SPACE
 70
     0
 10
0.0
 20
0.0
 30
0.0
  3
$PAPER_SPACE
  1

  0
ENDBLK
  5
18
 67
     1
  8
0
  0
BLOCK
  8
0
  2
_OPEN
 70
     0
 10
0.0
 20
0.0
 30
0.0
  3
_OPEN
  1

  0
LINE
  5
79FD
  8
0
  6
BYBLOCK
 62
     0
 10
-1.0
 20
0.1666666666666666
 30
0.0
 11
0.0
 21
0.0
 31
0.0
  0
LINE
  5
79FE
  8
0
  6
BYBLOCK
 62
     0
 10
0.0
 20
0.0
 30
0.0
 11
-1.0
 21
-0.1666666666666666
 31
0.0
  0
LINE
  5
79FF
  8
0
  6
BYBLOCK
 62
     0
 10
0.0
 20
0.0
 30
0.0
 11
-1.0
 21
0.0
 31
0.0
  0
ENDBLK
  5
7A01
  8
0
  0
BLOCK
  8
0
  2
*D1
 70
     1
 10
0.0
 20
0.0
 30
0.0
  3
*D1
  1

  0
LINE
  5
824C
  8
3
 62
     0
 10
1671.6073654805709
 20
3100.7727624560539
 30
0.0
 11
1782.1494295454611
 21
3100.7727624560539
 31
0.0
  0
LINE
  5
824D
  8
3
 62
     0
 10
1671.6073654805709
 20
2500.7727624560539
 30
0.0
 11
1782.1494295454611
 21
2500.7727624560539
 31
0.0
  0
LINE
  5
824E
  8
3
 62
     0
 10
1767.1494295454611
 20
3070.7727624560548
 30
0.0
 11
1767.1494295454611
 21
2530.7727624560539
 31
0.0
  0
INSERT
  5
824F
  8
3
 62
     0
  2
_OPEN
 10
1767.1494295454611
 20
3100.7727624560539
 30
0.0
 41
30.0
 42
30.0
 43
30.0
 50
90.0
  0
INSERT
  5
8250
  8
3
 62
     0
  2
_OPEN
 10
1767.1494295454611
 20
2500.7727624560539
 30
0.0
 41
30.0
 42
30.0
 43
30.0
 50
270.0
  0
TEXT
  8
3
  40
45
  5
830A
  62
0
  72
0
  71
0
 10
1639.65
 20
2678.74
 30
0.000000
  1
600
  0
POINT
  5
8252
  8
DEFPOINTS
 62
     0
 10
1664.1073654805709
 20
3100.7727624560539
 30
0.0
  0
POINT
  5
8253
  8
DEFPOINTS
 62
     0
 10
1664.1073654805709
 20
2500.7727624560539
 30
0.0
  0
POINT
  5
8254
  8
DEFPOINTS
 62
     0
 10
1767.1494295454611
 20
2500.7727624560539
 30
0.0
  0
ENDBLK
  5
8083
  8
0
  0
BLOCK
  8
0
  2
*D2
 70
     1
 10
0.0
 20
0.0
 30
0.0
  3
*D2
  1

  0
LINE
  5
8255
  8
3
 62
     0
 10
1664.1073654805709
 20
3108.2727624560548
 30
0.0
 11
1664.1073654805709
 21
3199.9564685086261
 31
0.0
  0
LINE
  5
8256
  8
3
 62
     0
 10
754.10736548057139
 20
3108.2727624560539
 30
0.0
 11
754.10736548057139
 21
3199.9564685086261
 31
0.0
  0
LINE
  5
8257
  8
3
 62
     0
 10
1634.1073654805709
 20
3184.9564685086261
 30
0.0
 11
784.10736548057139
 21
3184.9564685086261
 31
0.0
  0
INSERT
  5
8258
  8
3
 62
     0
  2
_OPEN
 10
1664.1073654805709
 20
3184.9564685086261
 30
0.0
 41
30.0
 42
30.0
 43
30.0
  0
INSERT
  5
8259
  8
3
 62
     0
  2
_OPEN
 10
754.10736548057139
 20
3184.9564685086261
 30
0.0
 41
30.0
 42
30.0
 43
30.0
 50
180.0
  0
TEXT
  8
3
  40
45
  5
830B
  62
0
  72
0
  71
0
 10
1106.48
 20
3142.81
 30
0.000000
  1
910
  0
POINT
  5
825B
  8
DEFPOINTS
 62
     0
 10
1664.1073654805709
 20
3100.7727624560539
 30
0.0
  0
POINT
  5
825C
  8
DEFPOINTS
 62
     0
 10
754.10736548057139
 20
3100.7727624560539
 30
0.0
  0
POINT
  5
825D
  8
DEFPOINTS
 62
     0
 10
754.10736548057139
 20
3184.9564685086261
 30
0.0
  0
ENDBLK
  5
808F
  8
0
  0
BLOCK
  8
0
  2
*D3
 70
     1
 10
0.0
 20
0.0
 30
0.0
  3
*D3
  1

  0
LINE
  5
825E
  8
3
 62
     0
 10
1664.107409864034
 20
1230.6568537686151
 30
0.0
 11
1664.107409864034
 21
1110.6327892684831
 31
0.0
  0
LINE
  5
825F
  8
3
 62
     0
 10
1019.107409864034
 20
1221.1686824296589
 30
0.0
 11
1019.107409864034
 21
1110.6327892684831
 31
0.0
  0
LINE
  5
8260
  8
3
 62
     0
 10
1634.107409864034
 20
1125.632789268484
 30
0.0
 11
1049.107409864034
 21
1125.632789268484
 31
0.0
  0
INSERT
  5
8261
  8
3
 62
     0
  2
_OPEN
 10
1664.107409864034
 20
1125.632789268484
 30
0.0
 41
30.0
 42
30.0
 43
30.0
  0
INSERT
  5
8262
  8
3
 62
     0
  2
_OPEN
 10
1019.107409864034
 20
1125.632789268484
 30
0.0
 41
30.0
 42
30.0
 43
30.0
 50
180.0
  0
TEXT
  8
3
  40
45
  5
830C
  62
0
  72
0
  71
0
 10
1275.74
 20
1083.48
 30
0.000000
  1
645
  0
POINT
  5
8264
  8
DEFPOINTS
 62
     0
 10
1664.107409864034
 20
1238.1568537686151
 30
0.0
  0
POINT
  5
8265
  8
DEFPOINTS
 62
     0
 10
1019.107409864034
 20
1228.6686824296589
 30
0.0
  0
POINT
  5
8266
  8
DEFPOINTS
 62
     0
 10
1019.107409864034
 20
1125.632789268484
 30
0.0
  0
ENDBLK
  5
7FB0
  8
0
  0
BLOCK
  8
0
  2
*D4
 70
     1
 10
0.0
 20
0.0
 30
0.0
  3
*D4
  1

  0
LINE
  5
8267
  8
3
 62
     0
 10
754.10740986403471
 20
1230.656853768641
 30
0.0
 11
754.10740986403471
 21
1110.6327892684831
 31
0.0
  0
LINE
  5
8268
  8
3
 62
     0
 10
989.10740986403471
 20
1125.632789268484
 30
0.0
 11
784.10740986403471
 21
1125.632789268484
 31
0.0
  0
INSERT
  5
8269
  8
3
 62
     0
  2
_OPEN
 10
1019.107409864034
 20
1125.632789268484
 30
0.0
 41
30.0
 42
30.0
 43
30.0
  0
INSERT
  5
826A
  8
3
 62
     0
  2
_OPEN
 10
754.10740986403471
 20
1125.632789268484
 30
0.0
 41
30.0
 42
30.0
 43
30.0
 50
180.0
  0
TEXT
  8
3
  40
45
  5
830D
  62
0
  72
0
  71
0
 10
796.607
 20
1083.48
 30
0.000000
  1
265
  0
POINT
  5
826C
  8
DEFPOINTS
 62
     0
 10
1019.107409864034
 20
1228.6686824296589
 30
0.0
  0
POINT
  5
826D
  8
DEFPOINTS
 62
     0
 10
754.10740986403471
 20
1238.156853768641
 30
0.0
  0
POINT
  5
826E
  8
DEFPOINTS
 62
     0
 10
754.10740986403471
 20
1125.632789268484
 30
0.0
  0
ENDBLK
  5
7FC4
  8
0
  0
BLOCK
  8
0
  2
*D5
 70
     1
 10
0.0
 20
0.0
 30
0.0
  3
*D5
  1

  0
LINE
  5
826F
  8
3
 62
     0
 10
2455.688435277249
 20
1161.2159720381931
 30
0.0
 11
2455.688435277249
 21
1103.9617287279741
 31
0.0
  0
LINE
  5
8270
  8
3
 62
     0
 10
2035.688435277249
 20
1200.656853768633
 30
0.0
 11
2035.688435277249
 21
1103.9617287279741
 31
0.0
  0
LINE
  5
8271
  8
3
 62
     0
 10
2425.688435277249
 20
1118.9617287279741
 30
0.0
 11
2065.688435277249
 21
1118.9617287279741
 31
0.0
  0
INSERT
  5
8272
  8
3
 62
     0
  2
_OPEN
 10
2455.688435277249
 20
1118.9617287279741
 30
0.0
 41
30.0
 42
30.0
 43
30.0
  0
INSERT
  5
8273
  8
3
 62
     0
  2
_OPEN
 10
2035.688435277249
 20
1118.9617287279741
 30
0.0
 41
30.0
 42
30.0
 43
30.0
 50
180.0
  0
TEXT
  8
3
  40
45
  5
830E
  62
0
  72
0
  71
0
 10
2212.60
 20
1076.81
 30
0.000000
  1
420
  0
POINT
  5
8275
  8
DEFPOINTS
 62
     0
 10
2455.688435277249
 20
1168.7159720381931
 30
0.0
  0
POINT
  5
8276
  8
DEFPOINTS
 62
     0
 10
2035.688435277249
 20
1208.156853768633
 30
0.0
  0
POINT
  5
8277
  8
DEFPOINTS
 62
     0
 10
2035.688435277249
 20
1118.9617287279741
 30
0.0
  0
ENDBLK
  5
8053
  8
0
  0
BLOCK
  8
0
  2
*D6
 70
     1
 10
0.0
 20
0.0
 30
0.0
  3
*D6
  1

  0
LINE
  5
8278
  8
3
 62
     0
 10
2455.688435277249
 20
1161.2159720381931
 30
0.0
 11
2455.688435277249
 21
1103.9617287279741
 31
0.0
  0
LINE
  5
8279
  8
3
 62
     0
 10
2635.4825357846712
 20
1201.05165386728
 30
0.0
 11
2635.4825357846712
 21
1103.9617287279741
 31
0.0
  0
LINE
  5
827A
  8
3
 62
     0
 10
2425.688435277249
 20
1118.9617287279741
 30
0.0
 11
2395.688435277249
 21
1118.9617287279741
 31
0.0
  0
LINE
  5
827B
  8
3
 62
     0
 10
2665.4825357846712
 20
1118.9617287279741
 30
0.0
 11
2695.4825357846712
 21
1118.9617287279741
 31
0.0
  0
LINE
  5
827C
  8
3
 62
     0
 10
2455.688435277249
 20
1118.9617287279741
 30
0.0
 11
2635.4825357846712
 21
1118.9617287279741
 31
0.0
  0
INSERT
  5
827D
  8
3
 62
     0
  2
_OPEN
 10
2455.688435277249
 20
1118.9617287279741
 30
0.0
 41
30.0
 42
30.0
 43
30.0
  0
INSERT
  5
827E
  8
3
 62
     0
  2
_OPEN
 10
2635.4825357846712
 20
1118.9617287279741
 30
0.0
 41
30.0
 42
30.0
 43
30.0
 50
180.0
  0
TEXT
  8
3
  40
45
  5
830F
  62
0
  72
0
  71
0
 10
2455.59
 20
1076.81
 30
0.000000
  1
180
  0
POINT
  5
8280
  8
DEFPOINTS
 62
     0
 10
2455.688435277249
 20
1168.7159720381931
 30
0.0
  0
POINT
  5
8281
  8
DEFPOINTS
 62
     0
 10
2635.4825357846712
 20
1208.55165386728
 30
0.0
  0
POINT
  5
8282
  8
DEFPOINTS
 62
     0
 10
2635.4825357846712
 20
1118.9617287279741
 30
0.0
  0
ENDBLK
  5
8060
  8
0
  0
BLOCK
  8
0
  2
*D7
 70
     1
 10
0.0
 20
0.0
 30
0.0
  3
*D7
  1

  0
LINE
  5
8283
  8
3
 62
     0
 10
738.83428100656045
 20
1704.1568537686339
 30
0.0
 11
561.44598187793588
 21
1704.1568537686339
 31
0.0
  0
LINE
  5
8284
  8
3
 62
     0
 10
776.60740986403562
 20
1304.1568537686369
 30
0.0
 11
561.44598187793588
 21
1304.1568537686369
 31
0.0
  0
LINE
  5
8285
  8
3
 62
     0
 10
576.44598187793599
 20
1674.1568537686339
 30
0.0
 11
576.44598187793599
 21
1334.1568537686369
 31
0.0
  0
INSERT
  5
8286
  8
3
 62
     0
  2
_OPEN
 10
576.44598187793599
 20
1704.1568537686339
 30
0.0
 41
30.0
 42
30.0
 43
30.0
 50
90.0
  0
INSERT
  5
8287
  8
3
 62
     0
  2
_OPEN
 10
576.44598187793599
 20
1304.1568537686369
 30
0.0
 41
30.0
 42
30.0
 43
30.0
 50
270.0
  0
TEXT
  8
3
  40
45
  5
8310
  62
0
  72
0
  71
0
 10
448.946
 20
1424.51
 30
0.000000
  1
400
  0
POINT
  5
8289
  8
DEFPOINTS
 62
     0
 10
746.33428100656045
 20
1704.1568537686339
 30
0.0
  0
POINT
  5
828A
  8
DEFPOINTS
 62
     0
 10
784.10740986403562
 20
1304.1568537686369
 30
0.0
  0
POINT
  5
828B
  8
DEFPOINTS
 62
     0
 10
576.44598187793599
 20
1304.1568537686369
 30
0.0
  0
ENDBLK
  5
7F81
  8
0
  0
BLOCK
  8
0
  2
*D8
 70
     1
 10
0.0
 20
0.0
 30
0.0
  3
*D8
  1

  0
LINE
  5
7F90
  8
0
  6
BYBLOCK
 62
     0
 10
746.60740986403562
 20
1268.1568537686401
 30
0.0
 11
561.44598187793588
 21
1268.1568537686401
 31
0.0
  0
LINE
  5
7F91
  8
0
  6
BYBLOCK
 62
     0
 10
576.44598187793599
 20
1334.1568537686369
 30
0.0
 11
576.44598187793599
 21
1364.1568537686369
 31
0.0
  0
LINE
  5
7F92
  8
0
  6
BYBLOCK
 62
     0
 10
576.44598187793599
 20
1238.156853768641
 30
0.0
 11
576.44598187793599
 21
1208.156853768641
 31
0.0
  0
TEXT
  5
7F93
  8
3
 62
     0
 10
519.66026759222177
 20
1257.087458653137
 30
0.0
 40
45.0
  1
(36)
 50
90.0
  0
LINE
  5
7F94
  8
0
  6
BYBLOCK
 62
     0
 10
576.44598187793599
 20
1304.1568537686369
 30
0.0
 11
576.44598187793599
 21
1268.1568537686401
 31
0.0
  0
INSERT
  5
7F95
  8
0
  6
BYBLOCK
 62
     0
  2
_OPEN
 10
576.44598187793599
 20
1304.1568537686369
 30
0.0
 41
30.0
 42
30.0
 43
30.0
 50
270.0
  0
INSERT
  5
7F96
  8
0
  6
BYBLOCK
 62
     0
  2
_DOT
 10
576.44598187793599
 20
1268.1568537686401
 30
0.0
 41
30.0
 42
30.0
 43
30.0
 50
90.0
  0
POINT
  5
7F97
  8
DEFPOINTS
  6
BYBLOCK
 62
     0
 10
784.10740986403562
 20
1304.1568537686369
 30
0.0
  0
POINT
  5
7F98
  8
DEFPOINTS
  6
BYBLOCK
 62
     0
 10
754.10740986403562
 20
1268.1568537686401
 30
0.0
  0
POINT
  5
7F99
  8
DEFPOINTS
  6
BYBLOCK
 62
     0
 10
576.44598187793599
 20
1268.1568537686401
 30
0.0
  0
ENDBLK
  5
7F9A
  8
0
  0
BLOCK
  8
0
  2
*D9
 70
     1
 10
0.0
 20
0.0
 30
0.0
  3
*D9
  1

  0
LINE
  5
828C
  8
3
 62
     0
 10
776.82176495187014
 20
1268.1568537686401
 30
0.0
 11
561.44598187793588
 21
1268.1568537686401
 31
0.0
  0
LINE
  5
828D
  8
3
 62
     0
 10
776.60740986403471
 20
1208.156853768616
 30
0.0
 11
561.44598187793588
 21
1208.156853768616
 31
0.0
  0
LINE
  5
828E
  8
3
 62
     0
 10
576.44598187793611
 20
1298.156853768641
 30
0.0
 11
576.44598187793611
 21
1328.156853768641
 31
0.0
  0
LINE
  5
828F
  8
3
 62
     0
 10
576.44598187793599
 20
1178.156853768616
 30
0.0
 11
576.44598187793599
 21
1045.2997109114731
 31
0.0
  0
LINE
  5
8290
  8
3
 62
     0
 10
576.44598187793599
 20
1268.1568537686401
 30
0.0
 11
576.44598187793599
 21
1208.156853768616
 31
0.0
  0
INSERT
  5
8291
  8
3
 62
     0
  2
_DOT
 10
576.44598187793599
 20
1268.1568537686401
 30
0.0
 41
30.0
 42
30.0
 43
30.0
 50
270.0
  0
INSERT
  5
8292
  8
3
 62
     0
  2
_OPEN
 10
576.44598187793599
 20
1208.156853768616
 30
0.0
 41
30.0
 42
30.0
 43
30.0
 50
90.0
  0
TEXT
  8
3
  40
45
  5
8311
  62
0
  72
0
  71
0
 10
448.946
 20
1017.08
 30
0.000000
  1
60
  0
POINT
  5
8294
  8
DEFPOINTS
 62
     0
 10
784.32176495187014
 20
1268.1568537686401
 30
0.0
  0
POINT
  5
8295
  8
DEFPOINTS
 62
     0
 10
784.10740986403471
 20
1208.156853768616
 30
0.0
  0
POINT
  5
8296
  8
DEFPOINTS
 62
     0
 10
576.44598187793599
 20
1208.156853768616
 30
0.0
  0
ENDBLK
  5
80E3
  8
0
  0
BLOCK
  8
0
  2
_DOT
 70
     0
 10
0.0
 20
0.0
 30
0.0
  3
_DOT
  1

  0
LINE
  5
7E64
  8
0
  6
BYBLOCK
 62
     0
 10
0.0
 20
0.0
 30
0.0
 11
-1.0
 21
-0.0000000000000284
 31
0.0
  0
POLYLINE
  5
7E65
  8
0
  6
BYBLOCK
 62
     0
 66
     1
 10
0.0
 20
0.0
 30
0.0
 70
     1
 40
0.1666666666666666
 41
0.1666666666666666
  0
VERTEX
  5
82C4
  8
0
  6
BYBLOCK
 62
     0
 10
-0.0833333333333286
 20
-0.0000000000000284
 30
0.0
 42
1.0
  0
VERTEX
  5
82C5
  8
0
  6
BYBLOCK
 62
     0
 10
0.0833333333333286
 20
-0.0000000000000284
 30
0.0
 42
1.0
  0
SEQEND
  5
82C6
  8
0
  6
BYBLOCK
 62
     0
  0
ENDBLK
  5
7D9B
  8
0
  0
BLOCK
  8
0
  2
*D11
 70
     1
 10
0.0
 20
0.0
 30
0.0
  3
*D11
  1

  0
LINE
  5
8297
  8
3
 62
     0
 10
761.60740986403107
 20
2019.156853768636
 30
0.0
 11
561.44598187793588
 21
2019.156853768636
 31
0.0
  0
LINE
  5
8298
  8
3
 62
     0
 10
576.44598187793576
 20
1734.1568537686369
 30
0.0
 11
576.44598187793599
 21
1989.156853768636
 31
0.0
  0
INSERT
  5
8299
  8
3
 62
     0
  2
_OPEN
 10
576.44598187793576
 20
1704.1568537686369
 30
0.0
 41
30.0
 42
30.0
 43
30.0
 50
270.0
  0
INSERT
  5
829A
  8
3
 62
     0
  2
_OPEN
 10
576.44598187793599
 20
2019.156853768636
 30
0.0
 41
30.0
 42
30.0
 43
30.0
 50
90.0
  0
TEXT
  8
3
  40
45
  5
8312
  62
0
  72
0
  71
0
 10
448.946
 20
1782.01
 30
0.000000
  1
315
  0
POINT
  5
829C
  8
DEFPOINTS
 62
     0
 10
715.70381571199732
 20
1704.1568537686369
 30
0.0
  0
POINT
  5
829D
  8
DEFPOINTS
 62
     0
 10
769.10740986403096
 20
2019.156853768636
 30
0.0
  0
POINT
  5
829E
  8
DEFPOINTS
 62
     0
 10
576.44598187793599
 20
2019.156853768636
 30
0.0
  0
ENDBLK
  5
7F76
  8
0
  0
BLOCK
  8
0
  2
*D12
 70
     1
 10
0.0
 20
0.0
 30
0.0
  3
*D12
  1

  0
LINE
  5
829F
  8
3
 62
     0
 10
2343.6884352772499
 20
2025.4568537686339
 30
0.0
 11
2343.6884352772499
 21
2091.4413659339471
 31
0.0
  0
LINE
  5
82A0
  8
3
 62
     0
 10
2567.6884352772499
 20
2026.656853768633
 30
0.0
 11
2567.6884352772499
 21
2091.4413659339471
 31
0.0
  0
LINE
  5
82A1
  8
3
 62
     0
 10
2373.6884352772499
 20
2076.4413659339471
 30
0.0
 11
2537.6884352772499
 21
2076.4413659339471
 31
0.0
  0
INSERT
  5
82A2
  8
3
 62
     0
  2
_OPEN
 10
2343.6884352772499
 20
2076.4413659339471
 30
0.0
 41
30.0
 42
30.0
 43
30.0
 50
180.0
  0
INSERT
  5
82A3
  8
3
 62
     0
  2
_OPEN
 10
2567.6884352772499
 20
2076.4413659339471
 30
0.0
 41
30.0
 42
30.0
 43
30.0
  0
TEXT
  8
3
  40
45
  5
8313
  62
0
  72
0
  71
0
 10
2373.76
 20
2034.29
 30
0.000000
  1
224
  0
POINT
  5
82A5
  8
DEFPOINTS
 62
     0
 10
2343.6884352772499
 20
2017.956853768633
 30
0.0
  0
POINT
  5
82A6
  8
DEFPOINTS
 62
     0
 10
2567.6884352772499
 20
2019.156853768633
 30
0.0
  0
POINT
  5
82A7
  8
DEFPOINTS
 62
     0
 10
2567.6884352772499
 20
2076.4413659339471
 30
0.0
  0
ENDBLK
  5
8037
  8
0
  0
BLOCK
  8
0
  2
*D13
 70
     1
 10
0.0
 20
0.0
 30
0.0
  3
*D13
  1

  0
LINE
  5
82A8
  8
3
 62
     0
 10
2576.688435277249
 20
1893.156853768633
 30
0.0
 11
2576.688435277249
 21
2203.4334803942502
 31
0.0
  0
LINE
  5
82A9
  8
3
 62
     0
 10
2455.688435277249
 20
2155.8684642882208
 30
0.0
 11
2455.688435277249
 21
2203.4334803942502
 31
0.0
  0
LINE
  5
82AA
  8
3
 62
     0
 10
2606.688435277249
 20
2188.4334803942502
 30
0.0
 11
2636.688435277249
 21
2188.4334803942502
 31
0.0
  0
LINE
  5
82AB
  8
3
 62
     0
 10
2425.688435277249
 20
2188.4334803942502
 30
0.0
 11
2395.688435277249
 21
2188.4334803942502
 31
0.0
  0
LINE
  5
82AC
  8
3
 62
     0
 10
2576.688435277249
 20
2188.4334803942502
 30
0.0
 11
2455.688435277249
 21
2188.4334803942502
 31
0.0
  0
INSERT
  5
82AD
  8
3
 62
     0
  2
_OPEN
 10
2576.688435277249
 20
2188.4334803942502
 30
0.0
 41
30.0
 42
30.0
 43
30.0
 50
180.0
  0
INSERT
  5
82AE
  8
3
 62
     0
  2
_OPEN
 10
2455.688435277249
 20
2188.4334803942502
 30
0.0
 41
30.0
 42
30.0
 43
30.0
  0
TEXT
  8
3
  40
45
  5
8314
  62
0
  72
0
  71
0
 10
2426.19
 20
2146.28
 30
0.000000
  1
121
  0
POINT
  5
82B0
  8
DEFPOINTS
 62
     0
 10
2576.688435277249
 20
1885.656853768633
 30
0.0
  0
POINT
  5
82B1
  8
DEFPOINTS
 62
     0
 10
2455.688435277249
 20
2148.3684642882208
 30
0.0
  0
POINT
  5
82B2
  8
DEFPOINTS
 62
     0
 10
2455.688435277249
 20
2188.4334803942502
 30
0.0
  0
ENDBLK
  5
7EE0
  8
0
  0
BLOCK
  8
0
  2
*D14
 70
     1
 10
0.0
 20
0.0
 30
0.0
  3
*D14
  1

  0
LINE
  5
82B3
  8
3
 62
     0
 10
2035.6884352772479
 20
1941.656853768633
 30
0.0
 11
2035.6884352772479
 21
2203.4334803942502
 31
0.0
  0
LINE
  5
82B4
  8
3
 62
     0
 10
2425.688435277249
 20
2188.4334803942502
 30
0.0
 11
2065.6884352772481
 21
2188.4334803942502
 31
0.0
  0
INSERT
  5
82B5
  8
3
 62
     0
  2
_OPEN
 10
2455.688435277249
 20
2188.4334803942502
 30
0.0
 41
30.0
 42
30.0
 43
30.0
  0
INSERT
  5
82B6
  8
3
 62
     0
  2
_OPEN
 10
2035.6884352772479
 20
2188.4334803942502
 30
0.0
 41
30.0
 42
30.0
 43
30.0
 50
180.0
  0
TEXT
  8
3
  40
45
  5
8315
  62
0
  72
0
  71
0
 10
2155.69
 20
2183.78
 30
0.000000
  1
MAX
  0
TEXT
  8
3
  40
45
  5
8316
  62
0
  72
0
  71
0
 10
2155.69
 20
2125.28
 30
0.000000
  1
420
  0
POINT
  5
82B8
  8
DEFPOINTS
 62
     0
 10
2455.688435277249
 20
2148.3684642882208
 30
0.0
  0
POINT
  5
82B9
  8
DEFPOINTS
 62
     0
 10
2035.6884352772479
 20
1934.156853768633
 30
0.0
  0
POINT
  5
82BA
  8
DEFPOINTS
 62
     0
 10
2035.6884352772479
 20
2188.4334803942502
 30
0.0
  0
ENDBLK
  5
7ED3
  8
0
  0
BLOCK
  8
0
  2
*D15
 70
     1
 10
0.0
 20
0.0
 30
0.0
  3
*D15
  1

  0
LINE
  5
82BB
  8
3
 62
     0
 10
2584.188435277249
 20
1861.656853768633
 30
0.0
 11
2714.81729498912
 21
1861.656853768633
 31
0.0
  0
LINE
  5
82BC
  8
3
 62
     0
 10
2584.188435277249
 20
1546.656853768633
 30
0.0
 11
2714.81729498912
 21
1546.656853768633
 31
0.0
  0
LINE
  5
82BD
  8
3
 62
     0
 10
2699.81729498912
 20
1831.656853768633
 30
0.0
 11
2699.81729498912
 21
1576.656853768633
 31
0.0
  0
INSERT
  5
82BE
  8
3
 62
     0
  2
_OPEN
 10
2699.81729498912
 20
1861.656853768633
 30
0.0
 41
30.0
 42
30.0
 43
30.0
 50
90.0
  0
INSERT
  5
82BF
  8
3
 62
     0
  2
_OPEN
 10
2699.81729498912
 20
1546.656853768633
 30
0.0
 41
30.0
 42
30.0
 43
30.0
 50
270.0
  0
TEXT
  8
3
  40
45
  5
8317
  62
0
  72
0
  71
0
 10
2572.32
 20
1627.80
 30
0.000000
  1
φ315
  0
POINT
  5
82C1
  8
DEFPOINTS
 62
     0
 10
2576.688435277249
 20
1861.656853768633
 30
0.0
  0
POINT
  5
82C2
  8
DEFPOINTS
 62
     0
 10
2576.688435277249
 20
1546.656853768633
 30
0.0
  0
POINT
  5
82C3
  8
DEFPOINTS
 62
     0
 10
2699.81729498912
 20
1546.656853768633
 30
0.0
  0
ENDBLK
  5
7E63
  8
0
  0
BLOCK
  8
0
  2
*D16
 70
     1
 10
0.0
 20
0.0
 30
0.0
  3
*D16
  1

  0
LINE
  5
82DB
  8
3
 62
     0
 10
769.10740986403141
 20
2047.656853768636
 30
0.0
 11
769.10740986403141
 21
2163.1482906424421
 31
0.0
  0
LINE
  5
82DC
  8
3
 62
     0
 10
1019.107409864046
 20
2062.9664183051459
 30
0.0
 11
1019.107409864046
 21
2163.1482906424421
 31
0.0
  0
LINE
  5
82DD
  8
3
 62
     0
 10
799.10740986403152
 20
2148.1482906424421
 30
0.0
 11
989.10740986404619
 21
2148.1482906424421
 31
0.0
  0
INSERT
  5
82DE
  8
3
 62
     0
  2
_OPEN
 10
769.10740986403141
 20
2148.1482906424421
 30
0.0
 41
30.0
 42
30.0
 43
30.0
 50
180.0
  0
INSERT
  5
82DF
  8
3
 62
     0
  2
_OPEN
 10
1019.107409864046
 20
2148.1482906424421
 30
0.0
 41
30.0
 42
30.0
 43
30.0
  0
TEXT
  8
3
  40
45
  5
8318
  62
0
  72
0
  71
0
 10
806.783
 20
2106.00
 30
0.000000
  1
250
  0
POINT
  5
82E1
  8
DEFPOINTS
 62
     0
 10
769.10740986403141
 20
2040.156853768636
 30
0.0
  0
POINT
  5
82E2
  8
DEFPOINTS
 62
     0
 10
1019.107409864046
 20
2055.4664183051459
 30
0.0
  0
POINT
  5
82E3
  8
DEFPOINTS
 62
     0
 10
1019.107409864046
 20
2148.1482906424421
 30
0.0
  0
ENDBLK
  5
7FCF
  8
0
  0
BLOCK
  8
0
  2
*D17
 70
     1
 10
0.0
 20
0.0
 30
0.0
  3
*D17
  1

  0
LINE
  5
82E4
  8
3
 62
     0
 10
1283.1074098640411
 20
1737.1568537686419
 30
0.0
 11
1283.1074098640411
 21
2163.1482906424421
 31
0.0
  0
LINE
  5
82E5
  8
3
 62
     0
 10
1049.1074098640461
 20
2148.1482906424421
 30
0.0
 11
1253.1074098640411
 21
2148.1482906424421
 31
0.0
  0
INSERT
  5
82E6
  8
3
 62
     0
  2
_OPEN
 10
1019.107409864046
 20
2148.1482906424421
 30
0.0
 41
30.0
 42
30.0
 43
30.0
 50
180.0
  0
INSERT
  5
82E7
  8
3
 62
     0
  2
_OPEN
 10
1283.1074098640411
 20
2148.1482906424421
 30
0.0
 41
30.0
 42
30.0
 43
30.0
  0
TEXT
  8
3
  40
45
  5
8319
  62
0
  72
0
  71
0
 10
1061.11
 20
2106.00
 30
0.000000
  1
264
  0
POINT
  5
82E9
  8
DEFPOINTS
 62
     0
 10
1019.107409864046
 20
2055.4664183051459
 30
0.0
  0
POINT
  5
82EA
  8
DEFPOINTS
 62
     0
 10
1283.1074098640411
 20
1729.6568537686419
 30
0.0
  0
POINT
  5
82EB
  8
DEFPOINTS
 62
     0
 10
1283.1074098640411
 20
2148.1482906424421
 30
0.0
  0
ENDBLK
  5
7FBA
  8
0
  0
BLOCK
  8
0
  2
*D18
 70
     1
 10
0.0
 20
0.0
 30
0.0
  3
*D18
  1

  0
LINE
  5
82EC
  8
3
 62
     0
 10
761.60740986403152
 20
2040.156853768636
 30
0.0
 11
435.0234168170158
 21
2040.156853768636
 31
0.0
  0
LINE
  5
82ED
  8
3
 62
     0
 10
775.60740986403471
 20
1208.156853768616
 30
0.0
 11
435.02341681701557
 21
1208.156853768616
 31
0.0
  0
LINE
  5
82EE
  8
3
 62
     0
 10
450.0234168170158
 20
2010.156853768636
 30
0.0
 11
450.02341681701557
 21
1238.156853768616
 31
0.0
  0
INSERT
  5
82EF
  8
3
 62
     0
  2
_OPEN
 10
450.0234168170158
 20
2040.156853768636
 30
0.0
 41
30.0
 42
30.0
 43
30.0
 50
90.0
  0
INSERT
  5
82F0
  8
3
 62
     0
  2
_OPEN
 10
450.02341681701557
 20
1208.156853768616
 30
0.0
 41
30.0
 42
30.0
 43
30.0
 50
270.0
  0
TEXT
  8
3
  40
45
  5
831A
  62
0
  72
0
  71
0
 10
310.738
 20
1526.68
 30
0.000000
  1
(832)
  0
POINT
  5
82F2
  8
DEFPOINTS
 62
     0
 10
769.10740986403141
 20
2040.156853768636
 30
0.0
  0
POINT
  5
82F3
  8
DEFPOINTS
 62
     0
 10
783.10740986403471
 20
1208.156853768616
 30
0.0
  0
POINT
  5
82F4
  8
DEFPOINTS
 62
     0
 10
450.02341681701557
 20
1208.156853768616
 30
0.0
  0
ENDBLK
  5
80BE
  8
0
  0
BLOCK
  8
0
  2
L-30-3
 70
     0
 10
0.0
 20
0.0
 30
0.0
  3
L-30-3
  1

  0
LINE
  5
809A
  8
0
 10
115.2488417492448
 20
98.116970357453638
 30
0.0
 11
145.2488417492448
 21
98.116970357453638
 31
0.0
  0
LINE
  5
809B
  8
0
 10
115.2488417492448
 20
98.116970357453638
 30
0.0
 11
115.2488417492448
 21
128.1169703574536
 31
0.0
  0
LINE
  5
809C
  8
0
 10
145.2488417492448
 20
98.116970357453638
 30
0.0
 11
145.2488417492448
 21
99.116970357453638
 31
0.0
  0
LINE
  5
809D
  8
0
 10
115.2488417492448
 20
128.1169703574536
 30
0.0
 11
116.2488417492448
 21
128.1169703574536
 31
0.0
  0
LINE
  5
809E
  8
0
 10
122.2488417492448
 20
101.1169703574536
 30
0.0
 11
143.2488417492448
 21
101.1169703574536
 31
0.0
  0
LINE
  5
809F
  8
0
 10
118.2488417492448
 20
105.1169703574536
 30
0.0
 11
118.2488417492448
 21
126.1169703574536
 31
0.0
  0
ARC
  5
80A0
  8
0
 10
143.2488417492448
 20
99.116970357453638
 30
0.0
 40
2.0
 50
0.0
 51
90.0
  0
ARC
  5
80A1
  8
0
 10
116.2488417492448
 20
126.1169703574536
 30
0.0
 40
2.0
 50
0.0
 51
90.0
  0
ARC
  5
80A2
  8
0
 10
122.2488417492448
 20
105.1169703574536
 30
0.0
 40
4.0
 50
180.0
 51
270.0
  0
ENDBLK
  5
80A4
  8
0
  0
ENDSEC
  0
SECTION
  2
ENTITIES
  0
LINE
  5
7B4E
  8
2
 10
2455.688435277249
 20
2066.5909561062931
 30
0.0
 11
2455.6884352772499
 21
1168.800739187325
 31
0.0
1001
ACAD
1000
ASC_BOUNDS
1002
{
1070
    19
1005
0
1005
0
1002
}
  0
LINE
  5
7B4F
  8
1
 10
1632.8978386375429
 20
1396.0261840950559
 30
0.0
 11
1476.333314709691
 21
1374.1568537686269
 31
0.0
  0
LINE
  5
7B50
  8
1
 10
1317.8978386375411
 20
1406.0261840950591
 30
0.0
 11
1317.8978386375411
 21
1374.1568537686301
 31
0.0
  0
LINE
  5
7B51
  8
1
 10
1634.1074098640361
 20
1374.1568537686251
 30
0.0
 11
1634.107409864034
 21
1304.1568537686251
 31
0.0
  0
LINE
  5
7B52
  8
1
 10
784.10740986403653
 20
1374.1568537686369
 30
0.0
 11
784.10740986403562
 21
1304.1568537686369
 31
0.0
  0
LINE
  5
7B53
  8
2
 10
1019.107409864046
 20
2055.4664183051459
 30
0.0
 11
1019.107409864034
 21
1228.6686824296589
 31
0.0
  0
LINE
  5
7B54
  8
1
 10
1634.107409864034
 20
1268.1568537686151
 30
0.0
 11
784.10740986403562
 21
1268.1568537686401
 31
0.0
1001
ACAD
1000
ASC_BOUNDS
1002
{
1070
    19
1005
0
1005
0
1005
0
1005
0
1002
}
  0
POINT
  5
7B55
  8
1
 10
783.10740986402834
 20
1268.1568537686389
 30
0.0
 50
0.0000000000008142
  0
LINE
  5
7B56
  8
1
 10
2035.688435277249
 20
1238.156853768633
 30
0.0
 11
2635.6884352772499
 21
1238.1568537686319
 31
0.0
1001
ACAD
1000
ASC_BOUNDS
1002
{
1070
    19
1005
0
1005
0
1005
0
1005
0
1005
0
1002
}
  0
LINE
  5
7B57
  8
1
 10
2140.688435277249
 20
1304.156853768633
 30
0.0
 11
2455.688435277249
 21
1304.156853768633
 31
0.0
  0
LINE
  5
7B6C
  8
1
 10
1221.8074098640491
 20
1789.556853768634
 30
0.0
 11
1221.80740986405
 21
1657.6568537686339
 31
0.0
  0
LINE
  5
7B6D
  8
1
 10
816.40740986404944
 20
1789.5568537686349
 30
0.0
 11
816.40740986405035
 21
1657.6568537686339
 31
0.0
  0
LINE
  5
7B6E
  8
1
 10
1224.107409864049
 20
1789.556853768634
 30
0.0
 11
1224.107409864049
 21
1374.1568537686339
 31
0.0
  0
LINE
  5
7B6F
  8
1
 10
814.10740986404915
 20
1789.5568537686349
 30
0.0
 11
814.10740986404915
 21
1374.1568537686339
 31
0.0
  0
CIRCLE
  5
7B70
  8
1
 10
1019.107409864042
 20
1704.1568537686339
 30
0.0
 40
117.3182567295291
  0
LINE
  5
7B71
  8
1
 10
818.80740986404271
 20
1774.1568537686389
 30
0.0
 11
1019.107409864047
 21
1934.1568537686339
 31
0.0
  0
LINE
  5
7B72
  8
1
 10
1019.107409864047
 20
1934.1568537686339
 30
0.0
 11
1548.807409864037
 21
1584.1568537686189
 31
0.0
  0
LINE
  5
7B73
  8
2
 10
746.33428100656045
 20
1704.1568537686339
 30
0.0
 11
1375.730362812576
 21
1704.1568537686339
 31
0.0
  0
LINE
  5
7B74
  8
1
 10
816.40740986405035
 20
1657.6568537686339
 30
0.0
 11
854.10740986404926
 21
1625.988853768634
 31
0.0
  0
LINE
  5
7B75
  8
1
 10
1221.8074098640491
 20
1667.6568537686339
 30
0.0
 11
816.40740986404944
 21
1667.6568537686339
 31
0.0
  0
LINE
  5
7B76
  8
1
 10
858.5343372383503
 20
1665.356853768634
 30
0.0
 11
816.40740986404944
 21
1665.356853768634
 31
0.0
  0
LINE
  5
7B77
  8
1
 10
866.29456070203821
 20
1657.6568537686339
 30
0.0
 11
816.40740986405035
 21
1657.6568537686339
 31
0.0
  0
LINE
  5
7B78
  8
1
 10
852.12169557833477
 20
1627.6568537686339
 30
0.0
 11
896.52919757354709
 21
1627.6568537686339
 31
0.0
  0
LINE
  5
7B79
  8
1
 10
1634.1074098640349
 20
1374.1568537686251
 30
0.0
 11
784.10740986403653
 21
1374.1568537686369
 31
0.0
  0
LINE
  5
7B7A
  8
1
 10
1548.807409864037
 20
1584.1568537686189
 30
0.0
 11
1548.8074098640309
 21
1374.156853768618
 31
0.0
  0
LINE
  5
7B7B
  8
1
 10
1632.8978386375429
 20
1406.0261840950559
 30
0.0
 11
1317.8978386375411
 21
1406.0261840950591
 31
0.0
  0
LINE
  5
7B7C
  8
1
 10
1632.8978386375429
 20
1406.0261840950559
 30
0.0
 11
1632.8978386375429
 21
1396.0261840950559
 31
0.0
  0
LINE
  5
7B7D
  8
1
 10
1181.8074098640491
 20
1491.1353437760911
 30
0.0
 11
1031.0249457899899
 21
1617.6568537686339
 31
0.0
  0
LINE
  5
7B7E
  8
1
 10
856.40740986404944
 20
1491.1353437760911
 30
0.0
 11
1007.189873938107
 21
1617.6568537686339
 31
0.0
  0
LINE
  5
7B7F
  8
1
 10
1184.107409864049
 20
1625.988853768634
 30
0.0
 11
1184.107409864049
 21
1374.1568537686339
 31
0.0
  0
LINE
  5
7B80
  8
1
 10
854.10740986404926
 20
1625.988853768634
 30
0.0
 11
854.10740986404926
 21
1374.1568537686339
 31
0.0
  0
LINE
  5
7B81
  8
1
 10
818.80740986404271
 20
1774.1568537686389
 30
0.0
 11
818.80740986403168
 21
1374.1568537686389
 31
0.0
  0
LINE
  5
7B82
  8
1
 10
1181.9984713165629
 20
1667.6568537686339
 30
0.0
 11
1131.607409864049
 21
1617.6568537686339
 31
0.0
  0
LINE
  5
7B83
  8
1
 10
1186.0931241497619
 20
1627.6568537686339
 30
0.0
 11
1141.685622154552
 21
1627.6568537686339
 31
0.0
  0
LINE
  5
7B84
  8
1
 10
1131.607409864049
 20
1617.6568537686339
 30
0.0
 11
906.60740986404926
 21
1617.6568537686339
 31
0.0
  0
LINE
  5
7B85
  8
1
 10
906.60740986404926
 20
1617.6568537686339
 30
0.0
 11
856.21634841153525
 21
1667.6568537686339
 31
0.0
  0
LINE
  5
7B86
  8
1
 10
1221.80740986405
 20
1657.6568537686339
 30
0.0
 11
1171.920259026062
 21
1657.6568537686339
 31
0.0
  0
LINE
  5
7B87
  8
1
 10
1221.80740986405
 20
1657.6568537686339
 30
0.0
 11
1184.107409864049
 21
1625.988853768634
 31
0.0
  0
LINE
  5
7B88
  8
1
 10
929.10740986404926
 20
1884.1568537686339
 30
0.0
 11
816.40740986404944
 21
1789.556853768634
 31
0.0
  0
LINE
  5
7B89
  8
1
 10
769.10740986403141
 20
2040.156853768636
 30
0.0
 11
769.10740986404187
 21
1683.156853768636
 31
0.0
  0
LINE
  5
7B8A
  8
1
 10
1109.107409864049
 20
1884.1568537686339
 30
0.0
 11
1221.80740986405
 21
1789.5568537686349
 31
0.0
  0
LINE
  5
7B8B
  8
1
 10
789.10740986403289
 20
2002.756853768635
 30
0.0
 11
789.10740986404062
 21
1720.5568537686349
 31
0.0
  0
LINE
  5
7B8C
  8
1
 10
770.30740986403134
 20
2040.156853768636
 30
0.0
 11
770.3074098640418
 21
1683.156853768636
 31
0.0
  0
LINE
  5
7B91
  8
1
 10
1109.107409864049
 20
1884.1568537686339
 30
0.0
 11
929.10740986404926
 21
1884.1568537686339
 31
0.0
  0
POLYLINE
  5
7B92
  8
1
 66
     1
 10
0.0
 20
0.0
 30
0.0
  0
VERTEX
  5
8226
  8
1
 10
793.59650286059468
 20
1691.4925901546439
 30
0.0
 42
-0.0934525219043797
  0
VERTEX
  5
8227
  8
1
 10
814.10740986404107
 20
1671.6024384762329
 30
0.0
 42
-0.1987366729981355
  0
SEQEND
  5
8228
  8
1
  0
LINE
  5
7B9A
  8
1
 10
769.10740986404187
 20
1683.156853768636
 30
0.0
 11
770.3074098640418
 21
1683.156853768636
 31
0.0
  0
LINE
  5
7B9B
  8
1
 10
769.10740986404062
 20
1704.156853768636
 30
0.0
 11
790.10740986404062
 21
1704.156853768636
 31
0.0
  0
LINE
  5
7B9C
  8
1
 10
769.10740986404062
 20
1703.156853768636
 30
0.0
 11
790.10740986404062
 21
1703.156853768636
 31
0.0
  0
LINE
  5
7B9D
  8
1
 10
773.4074098640408
 20
1704.8568537686331
 30
0.0
 11
789.10740986404016
 21
1720.5568537686329
 31
0.0
  0
ARC
  5
7B9E
  8
1
 10
799.10740986403971
 20
1699.8370436418049
 30
0.0
 40
10.0
 50
180.00000000000151
 51
236.5581282105166
  0
LINE
  5
7B9F
  8
1
 10
789.10740986404107
 20
1703.1568537686289
 30
0.0
 11
789.10740986404335
 21
1699.837043641799
 31
0.0
  0
POLYLINE
  5
7BA0
  8
1
 66
     1
 10
0.0
 20
0.0
 30
0.0
  0
VERTEX
  5
8229
  8
1
 10
790.10740986403971
 20
1703.156853768636
 30
0.0
 42
-0.101266720201501
  0
VERTEX
  5
822A
  8
1
 10
795.60682035080345
 20
1702.031498785027
 30
0.0
 42
-0.0681921917069782
  0
VERTEX
  5
822B
  8
1
 10
814.10740986404016
 20
1687.301762115063
 30
0.0
 42
-0.2200089805681688
  0
SEQEND
  5
822C
  8
1
  0
POINT
  5
7BA5
  8
1
 10
769.10740986404153
 20
1704.156853768636
 30
0.0
 50
0.0000000000008142
  0
ARC
  5
7BA6
  8
1
 10
774.10740986403971
 20
1704.156853768636
 30
0.0
 40
1.0
 50
126.8698976458065
 51
270.00000000000159
  0
POINT
  5
7BA7
  8
1
 10
1176.6074098640411
 20
1954.1568537686451
 30
0.0
 50
0.0000000000008142
  0
POINT
  5
7BA8
  8
1
 10
1176.6074098640411
 20
1954.1568537686451
 30
0.0
 50
0.0000000000008142
  0
LINE
  5
7BA9
  8
1
 10
773.40740986403159
 20
2018.456853768635
 30
0.0
 11
789.10740986403289
 21
2002.756853768635
 31
0.0
  0
LINE
  5
7BAA
  8
1
 10
789.10740986403152
 20
2030.1568537686351
 30
0.0
 11
789.10740986403152
 21
2019.1568537686369
 31
0.0
  0
ARC
  5
7BAB
  8
1
 10
774.10740986403107
 20
2019.156853768636
 30
0.0
 40
1.0
 50
180.0
 51
233.13010235419659
  0
POLYLINE
  5
7BAC
  8
1
 66
     1
 10
0.0
 20
0.0
 30
0.0
  0
VERTEX
  5
822D
  8
1
 10
769.10740986402971
 20
2040.156853768636
 30
0.0
  0
VERTEX
  5
822E
  8
1
 10
770.30740986402861
 20
2040.156853768636
 30
0.0
 42
-0.4696216166052111
  0
SEQEND
  5
822F
  8
1
  0
LINE
  5
7BB0
  8
2
 10
2077.776880616897
 20
1832.4865233235489
 30
0.0
 11
2077.7768806168979
 21
1390.9995679926569
 31
0.0
  0
LINE
  5
7BB1
  8
1
 10
2334.688435277249
 20
1829.556853768632
 30
0.0
 11
2170.688435277249
 21
1657.656853768633
 31
0.0
  0
LINE
  5
7BB2
  8
1
 10
2094.6968586428989
 20
1821.4751104981619
 30
0.0
 11
2094.6968586429011
 21
1586.8385970391021
 31
0.0
  0
LINE
  5
7BB3
  8
1
 10
2060.8569025908919
 20
1821.4751104981619
 30
0.0
 11
2060.8569025908942
 21
1586.8385970391039
 31
0.0
  0
LINE
  5
7BB4
  8
1
 10
2120.6884352772481
 20
1934.156853768633
 30
0.0
 11
2120.6884352772481
 21
1379.4405990493631
 31
0.0
  0
LINE
  5
7BB5
  8
1
 10
2035.6884352772479
 20
1934.156853768633
 30
0.0
 11
2035.6884352772479
 21
1379.4405990493631
 31
0.0
  0
POLYLINE
  5
7BB6
  8
1
 66
     1
 10
0.0
 20
0.0
 30
0.0
  0
VERTEX
  5
8230
  8
1
 10
2334.688435277249
 20
1885.6568537686319
 30
0.0
  0
VERTEX
  5
8231
  8
1
 10
2334.6884352772481
 20
1704.1568537686319
 30
0.0
  0
VERTEX
  5
8232
  8
1
 10
2334.6884352772481
 20
1683.826550988809
 30
0.0
  0
SEQEND
  5
8233
  8
1
  0
POLYLINE
  5
7BBB
  8
1
 66
     1
 10
0.0
 20
0.0
 30
0.0
  0
VERTEX
  5
8234
  8
1
 10
2576.688435277249
 20
1885.656853768633
 30
0.0
  0
VERTEX
  5
8235
  8
1
 10
2576.6884352772499
 20
1704.156853768633
 30
0.0
  0
VERTEX
  5
8236
  8
1
 10
2576.6884352772499
 20
1683.826550988809
 30
0.0
  0
SEQEND
  5
8237
  8
1
  0
LINE
  5
7BC0
  8
1
 10
2568.6884352772499
 20
2009.156853768633
 30
0.0
 11
2568.6884352772499
 21
1704.156853768633
 31
0.0
  0
LINE
  5
7BC1
  8
1
 10
2342.6884352772499
 20
2009.156853768633
 30
0.0
 11
2342.6884352772499
 21
1704.156853768633
 31
0.0
  0
LINE
  5
7BC2
  8
1
 10
2140.688435277249
 20
1374.1568537686319
 30
0.0
 11
2455.688435277249
 21
1374.156853768633
 31
0.0
  0
LINE
  5
7BC3
  8
2
 10
2010.577649706818
 20
1704.156853768633
 30
0.0
 11
2604.9811472347442
 21
1704.156853768633
 31
0.0
  0
LINE
  5
7BC4
  8
1
 10
2094.6968586429002
 20
1560.0894801951331
 30
0.0
 11
2094.6968586428989
 21
1450.640867781377
 31
0.0
  0
LINE
  5
7BC5
  8
1
 10
2060.8569025908928
 20
1560.0894801951331
 30
0.0
 11
2060.8569025908919
 21
1450.640867781377
 31
0.0
  0
LINE
  5
7BC6
  8
1
 10
2120.6884352772481
 20
1379.4405990493631
 30
0.0
 11
2035.6884352772479
 21
1379.4405990493631
 31
0.0
  0
LINE
  5
7BC7
  8
1
 10
2060.8569025908942
 20
1586.8385970391039
 30
0.0
 11
2094.6968586429011
 21
1586.8385970391021
 31
0.0
  0
LINE
  5
7BC8
  8
1
 10
2077.776880616897
 20
1691.6568537686319
 30
0.0
 11
2203.1258989189
 21
1691.6568537686319
 31
0.0
  0
LINE
  5
7BC9
  8
1
 10
2077.776880616897
 20
1716.656853768633
 30
0.0
 11
2226.9769751259978
 21
1716.6568537686319
 31
0.0
  0
LINE
  5
7BCA
  8
1
 10
2077.776880616897
 20
1716.656853768633
 30
0.0
 11
2077.776880616897
 21
1691.6568537686319
 31
0.0
  0
POLYLINE
  5
7BCF
  8
1
 66
     1
 10
0.0
 20
0.0
 30
0.0
  0
VERTEX
  5
8238
  8
1
 10
2576.6884352772499
 20
1683.826550988809
 30
0.0
  0
VERTEX
  5
8239
  8
1
 10
2576.688435277249
 20
1522.6568537686339
 30
0.0
  0
SEQEND
  5
823A
  8
1
  0
LINE
  5
7BD3
  8
1
 10
2568.6884352772458
 20
1704.156853768633
 30
0.0
 11
2568.688435277249
 21
1496.1568537686339
 31
0.0
  0
LINE
  5
7BD4
  8
1
 10
2342.6884352772499
 20
1704.156853768633
 30
0.0
 11
2342.6884352772499
 21
1604.515749404206
 31
0.0
  0
LINE
  5
7BD5
  8
1
 10
2435.6352930903372
 20
1481.1568537686319
 30
0.0
 11
2553.688435277249
 21
1481.156853768633
 31
0.0
  0
ARC
  5
7BD9
  8
1
 10
2553.688435277249
 20
1496.156853768633
 30
0.0
 40
15.0
 50
270.0
 51
0.0
  0
LINE
  5
7BDA
  8
1
 10
2569.688435277249
 20
1521.6568537686339
 30
0.0
 11
2575.6884352772508
 21
1521.6568537686339
 31
0.0
  0
ARC
  5
7BDB
  8
1
 10
2575.688435277249
 20
1522.6568537686339
 30
0.0
 40
1.0
 50
270.0
 51
0.0000000000000799
  0
LINE
  5
7BDC
  8
1
 10
2568.688435277249
 20
1516.0697817418891
 30
0.0
 11
2568.688435277249
 21
1520.6568537686339
 31
0.0
  0
ARC
  5
7BDD
  8
1
 10
2569.688435277249
 20
1520.6568537686339
 30
0.0
 40
1.0
 50
90.0
 51
180.0
  0
LINE
  5
7BDF
  8
1
 10
2060.8569025908919
 20
1821.4751104981619
 30
0.0
 11
2094.6968586428989
 21
1821.4751104981619
 31
0.0
  0
LINE
  5
7BE0
  8
1
 10
2035.6884352772479
 20
1934.156853768633
 30
0.0
 11
2120.6884352772481
 21
1934.156853768633
 31
0.0
  0
POINT
  5
7BE1
  8
1
 10
2035.6884352772479
 20
1934.156853768633
 30
0.0
  0
LINE
  5
7BE4
  8
1
 10
2352.6884352772499
 20
2019.156853768633
 30
0.0
 11
2558.6884352772499
 21
2019.156853768633
 31
0.0
  0
ARC
  5
7BE5
  8
1
 10
2335.688435277249
 20
1885.6568537686319
 30
0.0
 40
1.0
 50
90.0
 51
180.0
  0
ARC
  5
7BE6
  8
1
 10
2341.6884352772508
 20
1887.6568537686319
 30
0.0
 40
1.0
 50
270.0
 51
0.0
  0
LINE
  5
7BE7
  8
1
 10
2341.6884352772508
 20
1886.6568537686319
 30
0.0
 11
2335.688435277249
 21
1886.6568537686319
 31
0.0
  0
LINE
  5
7BEA
  8
1
 10
2568.688435277249
 20
1892.2439257953761
 30
0.0
 11
2568.688435277249
 21
1887.6568537686319
 31
0.0
  0
ARC
  5
7BEB
  8
1
 10
2569.688435277249
 20
1887.6568537686319
 30
0.0
 40
1.0
 50
180.0
 51
270.0
  0
ARC
  5
7BEC
  8
1
 10
2575.688435277249
 20
1885.656853768633
 30
0.0
 40
1.0
 50
359.99999999999989
 51
90.0
  0
LINE
  5
7BED
  8
1
 10
2569.688435277249
 20
1886.6568537686319
 30
0.0
 11
2575.688435277249
 21
1886.656853768633
 31
0.0
  0
LINE
  5
7BF0
  8
2
 10
1019.1074098640451
 20
3108.2126207320398
 30
0.0
 11
1019.1074098640451
 21
2466.485857263126
 31
0.0
  0
LINE
  5
7BF1
  8
1
 10
1664.1073654805709
 20
3100.7727624560539
 30
0.0
 11
1664.1073654805709
 21
2890.772762456053
 31
0.0
  0
LINE
  5
7BF2
  8
1
 10
1664.1073654805709
 20
2500.7727624560539
 30
0.0
 11
1634.2652182112181
 21
2500.7727624560539
 31
0.0
  0
LINE
  5
7BF3
  8
1
 10
1634.1073654805721
 20
2890.7727624560539
 30
0.0
 11
1550.1487545773521
 21
2890.772762456053
 31
0.0
  0
LINE
  5
7BF4
  8
1
 10
1634.1073654805709
 20
2635.7727624560539
 30
0.0
 11
1559.974864815423
 21
2635.7727624560539
 31
0.0
  0
LINE
  5
7BF5
  8
1
 10
1634.1073654805709
 20
2920.7727624560548
 30
0.0
 11
1283.1074098640449
 21
2920.7727624560548
 31
0.0
  0
POINT
  5
7BF6
  8
1
 10
1652.1073654805709
 20
3100.7727624560539
 30
0.0
 50
180.0
  0
POINT
  5
7BF7
  8
1
 10
1664.1073654805709
 20
3100.7727624560539
 30
0.0
 50
180.0
  0
LINE
  5
7BF8
  8
1
 10
1664.1073654805709
 20
2635.7727624560539
 30
0.0
 11
1664.1073654805709
 21
2500.7727624560548
 31
0.0
  0
LINE
  5
7BF9
  8
1
 10
1634.107409864034
 20
1304.1568537686251
 30
0.0
 11
784.10740986403562
 21
1304.1568537686369
 31
0.0
1001
ACAD
1000
ASC_BOUNDS
1002
{
1070
    19
1002
}
  0
LINE
  5
7BFA
  8
1
 10
1546.8978386375429
 20
1394.061948375117
 30
0.0
 11
1546.8978386375429
 21
1426.728730367251
 31
0.0
  0
LINE
  5
7BFB
  8
2
 10
1466.897838637542
 20
1348.9876285177379
 30
0.0
 11
1466.8978386375429
 21
1630.304960702372
 31
0.0
  0
LINE
  5
7BFC
  8
2
 10
1632.8978386375441
 20
1506.026184095055
 30
0.0
 11
1317.8978386375429
 21
1506.0261840950591
 31
0.0
  0
ARC
  5
7BFD
  8
1
 10
1466.8978386375441
 20
1506.026184095057
 30
0.0
 40
106.0
 50
289.3700382455396
 51
250.6299617544594
  0
LINE
  5
7BFE
  8
1
 10
1566.897838637542
 20
1406.026184095057
 30
0.0
 11
1566.897838637542
 21
1418.026184095057
 31
0.0
  0
LINE
  5
7BFF
  8
1
 10
1366.8978386375441
 20
1406.0261840950591
 30
0.0
 11
1366.897838637542
 21
1418.0261840950579
 31
0.0
  0
LINE
  5
7C00
  8
1
 10
1566.897838637542
 20
1418.026184095057
 30
0.0
 11
1526.8978386375429
 21
1418.026184095057
 31
0.0
  0
LINE
  5
7C01
  8
1
 10
1526.8978386375429
 20
1406.0261840950591
 30
0.0
 11
1526.8978386375429
 21
1418.0261840950579
 31
0.0
  0
LINE
  5
7C02
  8
1
 10
1406.8978386375429
 20
1406.02618409506
 30
0.0
 11
1406.897838637542
 21
1418.02618409506
 31
0.0
  0
LINE
  5
7C03
  8
1
 10
1386.8978386375461
 20
1394.0619483751129
 30
0.0
 11
1386.8978386375429
 21
1426.728730367247
 31
0.0
  0
LINE
  5
7C04
  8
1
 10
1406.897838637542
 20
1418.0261840950579
 30
0.0
 11
1366.897838637542
 21
1418.0261840950579
 31
0.0
  0
CIRCLE
  5
7C05
  8
1
 10
1466.897838637542
 20
1506.026184095057
 30
0.0
 40
55.0
  0
LINE
  5
7C06
  8
2
 10
1998.259607356807
 20
1505.365173988255
 30
0.0
 11
2463.1497296313819
 21
1505.365173988255
 31
0.0
  0
LINE
  5
7C07
  8
1
 10
2060.8569025908928
 20
1560.0894801951331
 30
0.0
 11
2094.6968586429002
 21
1560.0894801951331
 31
0.0
  0
LINE
  5
7C08
  8
1
 10
2060.8569025908919
 20
1450.640867781377
 30
0.0
 11
2094.6968586429002
 21
1450.640867781377
 31
0.0
  0
LINE
  5
7C09
  8
1
 10
2060.8569025908928
 20
1560.0894801951331
 30
0.0
 11
2060.8569025908942
 21
1586.8385970391039
 31
0.0
  0
LINE
  5
7C0A
  8
1
 10
2094.6968586429002
 20
1560.0894801951331
 30
0.0
 11
2094.6968586429011
 21
1586.8385970391021
 31
0.0
  0
LINE
  5
7C0B
  8
1
 10
1493.6384220830339
 20
1554.0880317186641
 30
0.0
 11
1081.4022090724609
 21
1803.5697873016429
 31
0.0
  0
LINE
  5
7C0C
  8
1
 10
1454.032805828208
 20
1452.5519760054119
 30
0.0
 11
984.63607650132781
 21
1592.0172062827769
 31
0.0
  0
LINE
  5
7C0D
  8
1
 10
1634.107409864034
 20
1238.1568537686151
 30
0.0
 11
784.10740986403562
 21
1238.1568537686401
 31
0.0
1001
ACAD
1000
ASC_BOUNDS
1002
{
1070
    19
1002
}
  0
POLYLINE
  5
7C14
  8
1
 66
     1
 10
0.0
 20
0.0
 30
0.0
  0
VERTEX
  5
823B
  8
1
 10
993.60740986402993
 20
2030.156853768641
 30
0.0
 42
-0.4695416999606029
  0
VERTEX
  5
823C
  8
1
 10
1288.971710609158
 20
1674.3379614682081
 30
0.0
 42
-0.1407141398147078
  0
VERTEX
  5
823D
  8
1
 10
1224.107409864044
 20
1550.0568823237611
 30
0.0
 42
-0.3154517505481823
  0
SEQEND
  5
823E
  8
1
  0
POLYLINE
  5
7C19
  8
1
 66
     1
 10
0.0
 20
0.0
 30
0.0
  0
VERTEX
  5
823F
  8
1
 10
993.60740986403448
 20
2019.156853768641
 30
0.0
 42
-0.4694471174416981
  0
VERTEX
  5
8240
  8
1
 10
1278.176213621208
 20
1676.451159259361
 30
0.0
 42
-0.1293935334669464
  0
VERTEX
  5
8241
  8
1
 10
1223.353311503387
 20
1565.5638102724361
 30
0.0
 42
-0.1293935334669464
  0
SEQEND
  5
8242
  8
1
  0
LINE
  5
7C1E
  8
1
 10
1221.8074098640491
 20
1789.5568537686349
 30
0.0
 11
1224.107409864049
 21
1789.5568537686349
 31
0.0
  0
LINE
  5
7C1F
  8
1
 10
816.40740986404944
 20
1789.556853768634
 30
0.0
 11
814.10740986404915
 21
1789.556853768634
 31
0.0
  0
LINE
  5
7C20
  8
1
 10
2035.688435277249
 20
1238.1568537686319
 30
0.0
 11
2035.688435277249
 21
1208.156853768633
 31
0.0
1001
ACAD
1000
ASC_BOUNDS
1002
{
1070
    19
1002
}
  0
LINE
  5
7C21
  8
1
 10
2035.688435277249
 20
1208.156853768633
 30
0.0
 11
2635.6884352772499
 21
1208.156853768633
 31
0.0
1001
ACAD
1000
ASC_BOUNDS
1002
{
1070
    19
1002
}
  0
LINE
  5
7C22
  8
1
 10
2635.688435277249
 20
1238.1568537686319
 30
0.0
 11
2635.688435277249
 21
1208.156853768633
 31
0.0
1001
ACAD
1000
ASC_BOUNDS
1002
{
1070
    19
1002
}
  0
LINE
  5
7C23
  8
1
 10
2140.688435277249
 20
1374.1568537686319
 30
0.0
 11
2140.6884352772481
 21
1304.156853768633
 31
0.0
1001
ACAD
1000
ASC_BOUNDS
1002
{
1070
    19
1002
}
  0
LINE
  5
7C28
  8
2
 10
732.37758636755552
 20
2920.7727624560539
 30
0.0
 11
1524.548291594484
 21
2920.7727624560539
 31
0.0
1001
ACAD
1000
ASC_BOUNDS
1002
{
1070
    19
1005
0
1005
0
1002
}
  0
LINE
  5
7C29
  8
1
 10
1598.1061588571661
 20
2605.7727624560539
 30
0.0
 11
1419.107409864044
 21
2605.772762456053
 31
0.0
1001
ACAD
1000
ASC_BOUNDS
1002
{
1070
    19
1002
}
  0
LINE
  5
7C2A
  8
1
 10
1664.10736548057
 20
2500.7727624560548
 30
0.0
 11
1664.1073654805709
 21
3100.7727624560562
 31
0.0
1001
ACAD
1000
ASC_BOUNDS
1002
{
1070
    19
1002
}
  0
LINE
  5
7C2B
  8
1
 10
1634.1073654805709
 20
2500.7727624560539
 30
0.0
 11
1634.1073654805709
 21
3100.7727624560548
 31
0.0
1001
ACAD
1000
ASC_BOUNDS
1002
{
1070
    19
1005
0
1005
0
1005
0
1005
0
1005
0
1002
}
  0
LINE
  5
7C2C
  8
1
 10
1634.1073654805709
 20
2500.7727624560548
 30
0.0
 11
1664.10736548057
 21
2500.7727624560548
 31
0.0
1001
ACAD
1000
ASC_BOUNDS
1002
{
1070
    19
1002
}
  0
LINE
  5
7C2D
  8
1
 10
1634.1073654805709
 20
3100.7727624560539
 30
0.0
 11
1664.10736548057
 21
3100.7727624560539
 31
0.0
1001
ACAD
1000
ASC_BOUNDS
1002
{
1070
    19
1002
}
  0
LINE
  5
7C2E
  8
1
 10
770.10740986404539
 20
3033.7727624560548
 30
0.0
 11
1019.1074098640451
 21
3033.7727624560548
 31
0.0
  0
LINE
  5
7C2F
  8
1
 10
770.10740986404539
 20
2807.7727624560548
 30
0.0
 11
1019.1074098640451
 21
2807.7727624560548
 31
0.0
  0
LINE
  5
7C30
  8
1
 10
789.10740986404562
 20
2500.772762456053
 30
0.0
 11
1592.8224135764351
 21
2500.772762456053
 31
0.0
  0
LINE
  5
7C31
  8
1
 10
789.10740986404562
 20
2585.772762456053
 30
0.0
 11
1592.8224135764351
 21
2585.772762456053
 31
0.0
  0
LINE
  5
7C32
  8
1
 10
901.7891531345158
 20
2525.9412297696972
 30
0.0
 11
1136.4256665935729
 21
2525.941229769699
 31
0.0
  0
LINE
  5
7C33
  8
1
 10
901.7891531345158
 20
2559.7811858217042
 30
0.0
 11
1136.425666593575
 21
2559.781185821706
 31
0.0
  0
LINE
  5
7C34
  8
2
 10
890.7777403091294
 20
2542.8612077957018
 30
0.0
 11
1581.263444633141
 21
2542.8612077957018
 31
0.0
  0
LINE
  5
7C35
  8
1
 10
1412.173532430666
 20
2525.9412297696981
 30
0.0
 11
1521.6221448444221
 21
2525.9412297696972
 31
0.0
  0
LINE
  5
7C36
  8
1
 10
1412.173532430666
 20
2559.7811858217051
 30
0.0
 11
1521.6221448444221
 21
2559.7811858217042
 31
0.0
  0
LINE
  5
7C37
  8
1
 10
1592.8224135764351
 20
2585.772762456053
 30
0.0
 11
1592.8224135764351
 21
2500.772762456053
 31
0.0
  0
LINE
  5
7C38
  8
1
 10
1521.6221448444221
 20
2525.9412297696972
 30
0.0
 11
1521.6221448444221
 21
2559.7811858217051
 31
0.0
  0
LINE
  5
7C39
  8
1
 10
1412.173532430666
 20
2559.7811858217051
 30
0.0
 11
1136.425666593575
 21
2559.781185821706
 31
0.0
  0
LINE
  5
7C3A
  8
1
 10
1412.173532430666
 20
2525.9412297696981
 30
0.0
 11
1136.4256665935729
 21
2525.941229769699
 31
0.0
  0
LINE
  5
7C3B
  8
1
 10
1412.173532430666
 20
2525.9412297696981
 30
0.0
 11
1412.173532430666
 21
2559.7811858217051
 31
0.0
  0
LINE
  5
7C3C
  8
1
 10
1136.4256665935729
 20
2525.941229769699
 30
0.0
 11
1136.425666593575
 21
2559.781185821706
 31
0.0
  0
LINE
  5
7C3D
  8
1
 10
1031.6074098640449
 20
2542.8612077957018
 30
0.0
 11
1031.6074098640449
 21
2807.7727624560548
 31
0.0
  0
LINE
  5
7C3E
  8
1
 10
1006.607409864044
 20
2542.8612077957018
 30
0.0
 11
1006.607409864046
 21
2807.7727624560548
 31
0.0
  0
LINE
  5
7C3F
  8
1
 10
1006.607409864044
 20
2542.8612077957018
 30
0.0
 11
1031.6074098640449
 21
2542.8612077957018
 31
0.0
  0
LINE
  5
7C40
  8
1
 10
1019.107409864044
 20
3033.7727624560512
 30
0.0
 11
1283.1074098640449
 21
3033.7727624560548
 31
0.0
  0
LINE
  5
7C41
  8
1
 10
1041.1074098640449
 20
2807.7727624560548
 30
0.0
 11
1283.1074098640449
 21
2807.7727624560539
 31
0.0
  0
LINE
  5
7C42
  8
1
 10
1019.1074098640451
 20
2807.7727624560548
 30
0.0
 11
1041.1074098640449
 21
2807.7727624560548
 31
0.0
  0
LINE
  5
7C43
  8
1
 10
901.7891531345158
 20
2525.9412297696972
 30
0.0
 11
901.7891531345158
 21
2559.7811858217042
 31
0.0
  0
LINE
  5
7C44
  8
1
 10
789.10740986404562
 20
2500.772762456053
 30
0.0
 11
789.10740986404562
 21
2585.772762456053
 31
0.0
  0
POINT
  5
7C45
  8
1
 10
789.10740986404562
 20
2500.772762456053
 30
0.0
  0
ARC
  5
7C46
  8
1
 10
837.60740986404562
 20
2800.7727624560539
 30
0.0
 40
1.0
 50
180.0
 51
270.0
  0
LINE
  5
7C47
  8
1
 10
836.60740986404653
 20
2806.7727624560562
 30
0.0
 11
836.60740986404562
 21
2800.7727624560539
 31
0.0
  0
ARC
  5
7C48
  8
1
 10
835.60740986404664
 20
2806.7727624560562
 30
0.0
 40
1.0
 50
0.0
 51
90.0
  0
LINE
  5
7C49
  8
1
 10
836.60740986404653
 20
3034.7727624560539
 30
0.0
 11
836.60740986404562
 21
3040.7727624560539
 31
0.0
  0
ARC
  5
7C4A
  8
1
 10
837.60740986404562
 20
3040.7727624560539
 30
0.0
 40
1.0
 50
89.999999999999915
 51
180.0
  0
ARC
  5
7C4B
  8
1
 10
835.60740986404664
 20
3034.7727624560539
 30
0.0
 40
1.0
 50
270.0
 51
0.0
  0
LINE
  5
7C4C
  8
1
 10
831.02033783730155
 20
3033.7727624560539
 30
0.0
 11
835.60740986404664
 21
3033.7727624560539
 31
0.0
  0
LINE
  5
7C4D
  8
1
 10
1224.107409864049
 20
2635.772762456053
 30
0.0
 11
1224.1074098640479
 21
2799.7727624560539
 31
0.0
  0
LINE
  5
7C4E
  8
1
 10
814.10740986404187
 20
2635.772762456053
 30
0.0
 11
814.10740986404187
 21
2799.7727624560539
 31
0.0
  0
LINE
  5
7C4F
  8
1
 10
1006.6074098640451
 20
2635.7727624560539
 30
0.0
 11
784.10736548056946
 21
2635.7727624560539
 31
0.0
  0
LINE
  5
7C50
  8
1
 10
1006.607409864046
 20
2605.7727624560539
 30
0.0
 11
784.02765567871018
 21
2605.772762456053
 31
0.0
  0
LINE
  5
7C51
  8
1
 10
784.10736548056923
 20
2500.7727624560539
 30
0.0
 11
784.10736548057082
 21
2807.7727624560548
 31
0.0
1001
ACAD
1000
ASC_BOUNDS
1002
{
1070
    19
1002
}
  0
LINE
  5
7C52
  8
1
 10
754.1073654805723
 20
2500.7727624560539
 30
0.0
 11
754.10736548057139
 21
3100.7727624560539
 31
0.0
1001
ACAD
1000
ASC_BOUNDS
1002
{
1070
    19
1005
0
1005
0
1005
0
1005
0
1005
0
1002
}
  0
POLYLINE
  5
7C5A
  8
1
 66
     1
 10
0.0
 20
0.0
 30
0.0
  0
VERTEX
  5
8243
  8
1
 10
837.60740986404562
 20
3041.7727624560539
 30
0.0
  0
VERTEX
  5
8244
  8
1
 10
1019.1074098640451
 20
3041.7727624560548
 30
0.0
  0
SEQEND
  5
8245
  8
1
  0
LINE
  5
7C5E
  8
1
 10
784.10736548057275
 20
3100.772762456053
 30
0.0
 11
754.10736548057139
 21
3100.7727624560539
 31
0.0
  0
LINE
  5
7C64
  8
1
 10
1365.8978386375429
 20
2640.468241374128
 30
0.0
 11
1378.9222269562511
 21
2632.7494552031362
 31
0.0
  0
LINE
  5
7C65
  8
1
 10
1365.8978386375429
 20
2806.235285286587
 30
0.0
 11
1387.4440635321091
 21
2813.4179466146679
 31
0.0
  0
LINE
  5
7C66
  8
1
 10
1365.8978386375429
 20
2813.4179466146679
 30
0.0
 11
1466.8978386375429
 21
2813.4179466146679
 31
0.0
  0
LINE
  5
7C67
  8
1
 10
1365.8978386375429
 20
2841.4938624902461
 30
0.0
 11
1567.8978386375429
 21
2841.493862490247
 31
0.0
  0
LINE
  5
7C68
  8
1
 10
1365.8978386375429
 20
2841.4938624902461
 30
0.0
 11
1386.8978386375429
 21
2899.7986682916298
 31
0.0
  0
LINE
  5
7C69
  8
2
 10
1466.8978386375429
 20
2913.1085315551222
 30
0.0
 11
1466.8978386375429
 21
2499.868845983543
 31
0.0
  0
LINE
  5
7C6A
  8
1
 10
1386.8978386375429
 20
2899.7986682916298
 30
0.0
 11
1546.8978386375429
 21
2899.7986682916298
 31
0.0
  0
LINE
  5
7C6B
  8
1
 10
1373.977802205764
 20
2632.7494552031362
 30
0.0
 11
1555.2881100171419
 21
2632.7494552031362
 31
0.0
  0
LINE
  5
7C6C
  8
1
 10
1373.9778022057631
 20
2608.937696579671
 30
0.0
 11
1555.288110017141
 21
2608.937696579671
 31
0.0
  0
LINE
  5
7C6D
  8
1
 10
1555.2881100171419
 20
2608.937696579671
 30
0.0
 11
1555.2881100171419
 21
2632.7494552031362
 31
0.0
  0
LINE
  5
7C6E
  8
1
 10
1424.6263132437909
 20
2608.937696579671
 30
0.0
 11
1424.62631324379
 21
2598.7986682916298
 31
0.0
  0
LINE
  5
7C6F
  8
1
 10
1509.169364031296
 20
2608.937696579671
 30
0.0
 11
1509.1693640312969
 21
2598.7986682916298
 31
0.0
  0
LINE
  5
7C70
  8
1
 10
1373.977802205764
 20
2608.937696579671
 30
0.0
 11
1373.977802205764
 21
2632.7494552031362
 31
0.0
  0
LINE
  5
7C71
  8
1
 10
1424.62631324379
 20
2598.7986682916298
 30
0.0
 11
1509.1693640312969
 21
2598.7986682916298
 31
0.0
  0
LINE
  5
7C72
  8
1
 10
1480.8978386375429
 20
2533.7986682916298
 30
0.0
 11
1480.8978386375429
 21
2593.7986682916298
 31
0.0
  0
LINE
  5
7C73
  8
1
 10
1452.8978386375429
 20
2533.7986682916298
 30
0.0
 11
1452.8978386375429
 21
2593.7986682916298
 31
0.0
  0
LINE
  5
7C74
  8
1
 10
1482.7019097511841
 20
2598.7986682916298
 30
0.0
 11
1482.7019097511841
 21
2593.7986682916298
 31
0.0
  0
LINE
  5
7C75
  8
1
 10
1451.0937675239029
 20
2598.7986682916298
 30
0.0
 11
1451.0937675239029
 21
2593.7986682916298
 31
0.0
  0
LINE
  5
7C76
  8
1
 10
1451.0937675239029
 20
2593.7986682916298
 30
0.0
 11
1482.7019097511841
 21
2593.7986682916298
 31
0.0
  0
LINE
  5
7C77
  8
1
 10
1452.8978386375429
 20
2533.7986682916298
 30
0.0
 11
1480.8978386375429
 21
2533.7986682916298
 31
0.0
  0
LINE
  5
7C78
  8
1
 10
1365.8978386375429
 20
2640.4682413741261
 30
0.0
 11
1365.8978386375429
 21
2806.235285286587
 31
0.0
  0
LINE
  5
7C79
  8
1
 10
1365.8978386375429
 20
2813.4179466146679
 30
0.0
 11
1365.8978386375429
 21
2841.4938624902461
 31
0.0
  0
LINE
  5
7C7A
  8
1
 10
1567.8978386375429
 20
2813.4179466146679
 30
0.0
 11
1466.8978386375429
 21
2813.4179466146679
 31
0.0
  0
LINE
  5
7C7B
  8
1
 10
1567.8978386375429
 20
2806.235285286587
 30
0.0
 11
1546.3516137429781
 21
2813.4179466146679
 31
0.0
  0
LINE
  5
7C7C
  8
1
 10
1567.8978386375429
 20
2640.4682413741261
 30
0.0
 11
1567.8978386375429
 21
2806.235285286587
 31
0.0
  0
LINE
  5
7C7D
  8
1
 10
1567.8978386375429
 20
2640.468241374128
 30
0.0
 11
1554.8734503188359
 21
2632.7494552031362
 31
0.0
  0
LINE
  5
7C7E
  8
1
 10
1567.8978386375429
 20
2813.4179466146679
 30
0.0
 11
1567.8978386375429
 21
2841.4938624902461
 31
0.0
  0
LINE
  5
7C7F
  8
1
 10
1567.8978386375429
 20
2841.4938624902461
 30
0.0
 11
1546.8978386375429
 21
2899.7986682916298
 31
0.0
  0
LINE
  5
7C80
  8
1
 10
1383.646922697737
 20
2890.772762456053
 30
0.0
 11
1283.1074098640449
 21
2890.7727624560521
 31
0.0
  0
LINE
  5
7C81
  8
1
 10
1373.8208124596631
 20
2635.7727624560539
 30
0.0
 11
1031.607409864044
 21
2635.7727624560539
 31
0.0
  0
POLYLINE
  5
7C82
  8
1
 66
     1
 10
0.0
 20
0.0
 30
0.0
  0
VERTEX
  5
8246
  8
1
 10
1559.974864815423
 20
2635.772762456053
 30
0.0
  0
VERTEX
  5
8247
  8
1
 10
1598.1061588571661
 20
2635.772762456053
 30
0.0
  0
SEQEND
  5
8248
  8
1
  0
POLYLINE
  5
7C86
  8
1
 66
     1
 10
0.0
 20
0.0
 30
0.0
  0
VERTEX
  5
8249
  8
1
 10
1065.6074098640461
 20
2635.772762456053
 30
0.0
  0
VERTEX
  5
824A
  8
1
 10
1373.820812459664
 20
2635.772762456053
 30
0.0
  0
SEQEND
  5
824B
  8
1
  0
DIMENSION
  5
7C96
  8
3
  2
*D1
 10
1767.1494295454611
 20
2500.7727624560539
 30
0.0
 11
1767.1494295454611
 21
2758.3878534487299
 31
0.0
 70
   128
 13
1664.1073654805709
 23
3100.7727624560539
 33
0.0
 14
1664.1073654805709
 24
2500.7727624560539
 34
0.0
 50
270.0
1001
ACAD
1000
DSTYLE
1002
{
1070
   287
1070
     3
1070
   287
1070
     3
1070
    40
1040
15.0
1070
   143
1040
0.039
1070
   172
1070
     1
1070
   271
1070
     0
1070
   279
1070
     0
1070
   288
1070
     1
1002
}
  0
DIMENSION
  5
7CA3
  8
3
  2
*D2
 10
754.10736548057139
 20
3184.9564685086261
 30
0.0
 11
1196.48188327549
 21
3184.9564685086261
 31
0.0
 70
   128
 13
1664.1073654805709
 23
3100.7727624560539
 33
0.0
 14
754.10736548057139
 24
3100.7727624560539
 34
0.0
1001
ACAD
1000
DSTYLE
1002
{
1070
   287
1070
     3
1070
   287
1070
     3
1070
    40
1040
15.0
1070
   143
1040
0.039
1070
   172
1070
     1
1070
   271
1070
     0
1070
   279
1070
     0
1070
   288
1070
     1
1002
}
  0
DIMENSION
  5
7CB0
  8
3
  2
*D3
 10
1019.107409864034
 20
1125.632789268484
 30
0.0
 11
1365.743605570045
 21
1125.632789268484
 31
0.0
 70
   128
 13
1664.107409864034
 23
1238.1568537686151
 33
0.0
 14
1019.107409864034
 24
1228.6686824296589
 34
0.0
1001
ACAD
1000
DSTYLE
1002
{
1070
   287
1070
     3
1070
   287
1070
     3
1070
    40
1040
15.0
1070
   143
1040
0.039
1070
   172
1070
     1
1070
   271
1070
     0
1070
   279
1070
     0
1070
   288
1070
     1
1002
}
  0
DIMENSION
  5
7CBC
  8
3
  2
*D4
 10
754.10740986403471
 20
1125.632789268484
 30
0.0
 11
886.60740986403459
 21
1163.132789268484
 31
0.0
 70
     0
 13
1019.107409864034
 23
1228.6686824296589
 33
0.0
 14
754.10740986403471
 24
1238.156853768641
 34
0.0
1001
ACAD
1000
DSTYLE
1002
{
1070
   287
1070
     4
1070
   287
1070
     4
1070
    40
1040
15.0
1070
    75
1070
     1
1070
   143
1040
0.039
1070
   172
1070
     1
1070
   271
1070
     0
1070
   279
1070
     1
1070
   288
1070
     1
1002
}
  0
DIMENSION
  5
7CC9
  8
3
  2
*D5
 10
2035.688435277249
 20
1118.9617287279741
 30
0.0
 11
2302.5969836980648
 21
1118.9617287279741
 31
0.0
 70
   128
 13
2455.688435277249
 23
1168.7159720381931
 33
0.0
 14
2035.688435277249
 24
1208.156853768633
 34
0.0
1001
ACAD
1000
DSTYLE
1002
{
1070
   287
1070
     3
1070
   287
1070
     3
1070
    40
1040
15.0
1070
   143
1040
0.039
1070
   172
1070
     1
1070
   271
1070
     0
1070
   279
1070
     0
1070
   288
1070
     1
1002
}
  0
DIMENSION
  5
7CD9
  8
3
  2
*D6
 10
2635.4825357846712
 20
1118.9617287279741
 30
0.0
 11
2545.5854855309599
 21
1118.9617287279741
 31
0.0
 70
   128
 13
2455.688435277249
 23
1168.7159720381931
 33
0.0
 14
2635.4825357846712
 24
1208.55165386728
 34
0.0
1001
ACAD
1000
DSTYLE
1002
{
1070
   287
1070
     3
1070
   287
1070
     3
1070
    40
1040
15.0
1070
   143
1040
0.039
1070
   172
1070
     1
1070
   271
1070
     0
1070
   279
1070
     0
1070
   288
1070
     1
1002
}
  0
LINE
  5
7D01
  8
4
 10
2775.0
 20
750.0
 30
0.0
 11
2775.0
 21
450.0
 31
0.0
  0
LINE
  5
7D02
  8
4
 10
1725.0
 20
750.0
 30
0.0
 11
1725.0
 21
450.0
 31
0.0
  0
LINE
  5
7D03
  8
4
 10
975.0
 20
750.0
 30
0.0
 11
975.0
 21
450.0
 31
0.0
  0
LINE
  5
7D06
  8
4
 10
975.0
 20
450.0
 30
0.0
 11
2775.0
 21
450.0
 31
0.0
  0
LINE
  5
7D07
  8
4
 10
975.0
 20
600.0
 30
0.0
 11
2775.0
 21
600.0
 31
0.0
  0
TEXT
  5
7D08
  8
4
 10
1032.753121270352
 20
647.31453879991932
 30
0.0
 40
75.0
  1
機器名称
  0
TEXT
  5
7D09
  8
4
 10
1029.3871590371959
 20
482.46773509801642
 30
0.0
 40
75.0
  1
機器型番
  0
TEXT
  5
7D0A
  8
4
 10
1766.5181182314971
 20
633.85765343635285
 30
0.0
 40
75.0
  1
ミツヤ厨房用ファン
  0
TEXT
  5
7D0B
  8
4
 10
1779.9817433782209
 20
475.739376419915
 30
0.0
 40
75.0
  1
MFK#2-1
  0
TEXT
  5
7D0D
  8
4
 10
1183.3606647423139
 20
3575.1432619987731
 30
0.0
 40
80.999999999999986
  1
天吊防振ベット
  0
TEXT
  5
7D0E
  8
4
 10
474.25138999416959
 20
3800.8214642989469
 30
0.0
 40
108.0
  1
ベルト駆動式片吸込片持多翼ファン
  0
LINE
  5
7D0F
  8
4
 10
375.0
 20
3704.1131313972069
 30
0.0
 11
2775.0
 21
3704.1131313972069
 31
0.0
  0
LINE
  5
7D10
  8
4
 10
375.0
 20
4004.1131313972069
 30
0.0
 11
2775.0
 21
4004.1131313972069
 31
0.0
  0
LINE
  5
7D11
  8
4
 10
975.0
 20
750.0
 30
0.0
 11
2775.0
 21
750.0
 31
0.0
  0
LINE
  5
7D12
  8
4
 10
375.0
 20
4004.1131313972069
 30
0.0
 11
375.0
 21
3704.1131313972069
 31
0.0
  0
TEXT
  5
7D13
  8
4
 10
529.57241637826155
 20
3573.4792163195152
 30
0.0
 40
80.999999999999986
  1
左回転左横向
  0
TEXT
  5
7D14
  8
4
 10
2203.4543388739339
 20
4059.0916222429628
 30
0.0
 40
84.000000000000014
  1
No.
  0
TEXT
  5
7D15
  8
4
 10
1966.944093900019
 20
3575.1432619987731
 30
0.0
 40
80.999999999999986
  1
縮尺：1/15
  0
LINE
  5
7D16
  8
4
 10
2775.0
 20
4004.1131313972069
 30
0.0
 11
2775.0
 21
3704.1131313972069
 31
0.0
  0
LINE
  5
7D17
  8
4
 10
3150.0
 20
4425.0
 30
0.0
 11
3150.0
 21
4425.0
 31
0.0
  0
LINE
  5
7D18
  8
4
 10
2160.9261335397969
 20
4021.895374688102
 30
0.0
 11
2160.9261335397969
 21
4179.9783923246277
 31
0.0
  0
LINE
  5
7D19
  8
4
 10
2160.9261335397969
 20
4179.9783923246277
 30
0.0
 11
2775.0
 21
4179.9783923246277
 31
0.0
  0
LINE
  5
7D1A
  8
4
 10
2775.0
 20
4179.9783923246277
 30
0.0
 11
2775.0
 21
4021.895374688102
 31
0.0
  0
LINE
  5
7D1B
  8
4
 10
2775.0
 20
4021.895374688102
 30
0.0
 11
2160.9261335397969
 21
4021.895374688102
 31
0.0
  0
LINE
  5
7D1C
  8
4
 10
0.0
 20
0.0
 30
0.0
 11
0.0
 21
4425.0
 31
0.0
  0
LINE
  5
7D1D
  8
4
 10
0.0
 20
4425.0
 30
0.0
 11
3150.0
 21
4425.0
 31
0.0
  0
LINE
  5
7D1E
  8
4
 10
3150.0
 20
4425.0
 30
0.0
 11
3150.0
 21
0.0
 31
0.0
  0
LINE
  5
7D1F
  8
4
 10
3150.0
 20
0.0
 30
0.0
 11
0.0
 21
0.0
 31
0.0
  0
DIMENSION
  5
7D3A
  8
3
  2
*D7
 10
576.44598187793599
 20
1304.1568537686369
 30
0.0
 11
538.94598187793565
 21
1504.156853768636
 31
0.0
 70
     0
 13
746.33428100656045
 23
1704.1568537686339
 33
0.0
 14
784.10740986403562
 24
1304.1568537686369
 34
0.0
 50
270.0
1001
ACAD
1000
DSTYLE
1002
{
1070
   287
1070
     3
1070
   287
1070
     3
1070
    40
1040
15.0
1070
   143
1040
0.039
1070
   172
1070
     1
1070
   271
1070
     0
1070
   279
1070
     0
1070
   288
1070
     1
1002
}
  0
DIMENSION
  5
7D4A
  8
3
  2
*D8
 10
576.44598187793599
 20
1268.1568537686401
 30
0.0
 11
504.66026759222171
 21
1322.4446015102801
 31
0.0
 70
   128
  1
(<>)
 13
784.10740986403562
 23
1304.1568537686369
 33
0.0
 14
754.10740986403562
 24
1268.1568537686401
 34
0.0
 50
270.0
1001
ACAD
1000
DSTYLE
1002
{
1070
   288
1070
     1
1070
   172
1070
     1
1070
    75
1070
     1
1070
    40
1040
15.0
1070
   271
1070
     0
1070
     7
1000
_DOT
1070
   143
1040
0.039
1002
}
  0
DIMENSION
  5
7D5A
  8
3
  2
*D9
 10
576.44598187793599
 20
1208.156853768616
 30
0.0
 11
538.94598187793576
 21
1096.7282823400451
 31
0.0
 70
     0
 13
784.32176495187014
 23
1268.1568537686401
 33
0.0
 14
784.10740986403471
 24
1208.156853768616
 34
0.0
 50
270.0
1001
ACAD
1000
DSTYLE
1002
{
1070
   287
1070
     3
1070
   287
1070
     3
1070
    40
1040
15.0
1070
   143
1040
0.039
1070
   172
1070
     1
1070
   271
1070
     0
1070
   279
1070
     0
1070
   288
1070
     1
1070
     6
1000
DOT
1002
}
  0
DIMENSION
  5
7DCD
  8
3
  2
*D11
 10
576.44598187793599
 20
2019.156853768636
 30
0.0
 11
538.94598187793565
 21
1861.6568537686369
 31
0.0
 70
     0
 13
715.70381571199732
 23
1704.1568537686369
 33
0.0
 14
769.10740986403096
 24
2019.156853768636
 34
0.0
 50
90.0
1001
ACAD
1000
DSTYLE
1002
{
1070
   287
1070
     4
1070
   287
1070
     4
1070
    40
1040
15.0
1070
    75
1070
     1
1070
   143
1040
0.039
1070
   172
1070
     1
1070
   271
1070
     0
1070
   279
1070
     1
1070
   288
1070
     1
1002
}
  0
DIMENSION
  5
7E0A
  8
3
  2
*D12
 10
2567.6884352772499
 20
2076.4413659339471
 30
0.0
 11
2463.7598638486788
 21
2076.4413659339471
 31
0.0
 70
   128
 13
2343.6884352772499
 23
2017.956853768633
 33
0.0
 14
2567.6884352772499
 24
2019.156853768633
 34
0.0
1001
ACAD
1000
DSTYLE
1002
{
1070
   287
1070
     3
1070
   287
1070
     3
1070
    40
1040
15.0
1070
   143
1040
0.039
1070
   172
1070
     1
1070
   271
1070
     0
1070
   279
1070
     0
1070
   288
1070
     1
1002
}
  0
DIMENSION
  5
7E1A
  8
3
  2
*D13
 10
2455.688435277249
 20
2188.4334803942502
 30
0.0
 11
2516.188435277249
 21
2188.4334803942502
 31
0.0
 70
   128
 13
2576.688435277249
 23
1885.656853768633
 33
0.0
 14
2455.688435277249
 24
2148.3684642882208
 34
0.0
1001
ACAD
1000
DSTYLE
1002
{
1070
   287
1070
     3
1070
   287
1070
     3
1070
    40
1040
15.0
1070
   143
1040
0.039
1070
   172
1070
     1
1070
   271
1070
     0
1070
   279
1070
     0
1070
   288
1070
     1
1002
}
  0
DIMENSION
  5
7E26
  8
3
  2
*D14
 10
2035.6884352772479
 20
2188.4334803942502
 30
0.0
 11
2245.688435277249
 21
2263.4334803942502
 31
0.0
 70
     0
  1
MAX\P<>
 13
2455.688435277249
 23
2148.3684642882208
 33
0.0
 14
2035.6884352772479
 24
1934.156853768633
 34
0.0
1001
ACAD
1000
DSTYLE
1002
{
1070
   287
1070
     4
1070
   287
1070
     4
1070
    40
1040
15.0
1070
    75
1070
     1
1070
   143
1040
0.039
1070
   172
1070
     1
1070
   271
1070
     0
1070
   279
1070
     1
1070
   288
1070
     1
1002
}
  0
DIMENSION
  5
7E58
  8
3
  2
*D15
 10
2699.81729498912
 20
1546.656853768633
 30
0.0
 11
2699.8172949891191
 21
1707.4475016502211
 31
0.0
 70
   128
 13
2576.688435277249
 23
1861.656853768633
 33
0.0
 14
2576.688435277249
 24
1546.656853768633
 34
0.0
 50
90.0
1001
ACAD
1000
DSTYLE
1002
{
1070
   287
1070
     3
1070
   287
1070
     3
1070
     3
1000
φ<>
1070
    40
1040
15.0
1070
   143
1040
0.039
1070
   172
1070
     1
1070
   271
1070
     0
1070
   279
1070
     0
1070
   288
1070
     1
1002
}
  0
POLYLINE
  5
7E8E
  8
1
 66
     1
 10
0.0
 20
0.0
 30
0.0
  0
VERTEX
  5
82C7
  8
1
 10
769.10740986403096
 20
2019.156853768636
 30
0.0
  0
VERTEX
  5
82C8
  8
1
 10
993.60740986403266
 20
2019.156853768641
 30
0.0
 42
-0.2294041480982971
  0
SEQEND
  5
82C9
  8
1
  0
POLYLINE
  5
7E92
  8
1
 66
     1
 10
0.0
 20
0.0
 30
0.0
  0
VERTEX
  5
82CA
  8
1
 10
789.10740986403061
 20
2030.1568537686351
 30
0.0
  0
VERTEX
  5
82CB
  8
1
 10
993.60740986403039
 20
2030.156853768641
 30
0.0
 42
-0.2369453676414515
  0
SEQEND
  5
82CC
  8
1
  0
POLYLINE
  5
7E96
  8
1
 66
     1
 10
0.0
 20
0.0
 30
0.0
  0
VERTEX
  5
82CD
  8
1
 10
1165.8925758846401
 20
1504.4894750984599
 30
0.0
 42
-0.1679214192521515
  0
VERTEX
  5
82CE
  8
1
 10
1002.80517955057
 20
1473.9108714850629
 30
0.0
 42
-0.1402058305592064
  0
VERTEX
  5
82CF
  8
1
 10
895.75700398215611
 20
1524.153573687569
 30
0.0
 42
-0.3154517505481823
  0
SEQEND
  5
82D0
  8
1
  0
POLYLINE
  5
7E9F
  8
1
 66
     1
 10
0.0
 20
0.0
 30
0.0
  0
VERTEX
  5
82D1
  8
1
 10
1157.7009085082129
 20
1511.363100172746
 30
0.0
 42
-0.1639447918540961
  0
VERTEX
  5
82D2
  8
1
 10
1004.3373845837471
 20
1483.793009559434
 30
0.0
 42
-0.1381794525024617
  0
VERTEX
  5
82D3
  8
1
 10
903.51533247919951
 20
1530.6635842679909
 30
0.0
 42
-0.3153658436290411
  0
SEQEND
  5
82D4
  8
1
  0
POLYLINE
  5
7EA8
  8
1
 66
     1
 10
0.0
 20
0.0
 30
0.0
  0
VERTEX
  5
82D5
  8
1
 10
814.10740986404016
 20
1687.301762115063
 30
0.0
 42
-0.0697634348982244
  0
VERTEX
  5
82D6
  8
1
 10
828.21875792643914
 20
1667.6568537686339
 30
0.0
 42
-0.2200089805681688
  0
SEQEND
  5
82D7
  8
1
  0
POLYLINE
  5
7EAC
  8
1
 66
     1
 10
0.0
 20
0.0
 30
0.0
  0
VERTEX
  5
82D8
  8
1
 10
814.10740986404107
 20
1671.6024384762329
 30
0.0
 42
-0.0153361963151358
  0
VERTEX
  5
82D9
  8
1
 10
816.71350714165908
 20
1667.6568537686339
 30
0.0
 42
-0.1987366729981355
  0
SEQEND
  5
82DA
  8
1
  0
DIMENSION
  5
7EBC
  8
3
  2
*D16
 10
1019.107409864046
 20
2148.1482906424421
 30
0.0
 11
896.78318402030516
 21
2148.1482906424421
 31
0.0
 70
   128
 13
769.10740986403141
 23
2040.156853768636
 33
0.0
 14
1019.107409864046
 24
2055.4664183051459
 34
0.0
1001
ACAD
1000
DSTYLE
1002
{
1070
   287
1070
     3
1070
   287
1070
     3
1070
    40
1040
15.0
1070
   143
1040
0.039
1070
   172
1070
     1
1070
   271
1070
     0
1070
   279
1070
     0
1070
   288
1070
     1
1002
}
  0
DIMENSION
  5
7EC8
  8
3
  2
*D17
 10
1283.1074098640411
 20
2148.1482906424421
 30
0.0
 11
1151.1074098640429
 21
2185.6482906424421
 31
0.0
 70
     0
 13
1019.107409864046
 23
2055.4664183051459
 33
0.0
 14
1283.1074098640411
 24
1729.6568537686419
 34
0.0
1001
ACAD
1000
DSTYLE
1002
{
1070
   287
1070
     4
1070
   287
1070
     4
1070
    40
1040
15.0
1070
    75
1070
     1
1070
   143
1040
0.039
1070
   172
1070
     1
1070
   271
1070
     0
1070
   279
1070
     1
1070
   288
1070
     1
1002
}
  0
LINE
  5
7EE1
  8
1
 10
2337.6884352772499
 20
2039.156853768633
 30
0.0
 11
2573.6884352772499
 21
2039.156853768633
 31
0.0
  0
LINE
  5
7EE2
  8
1
 10
2322.6884352772499
 20
2024.156853768633
 30
0.0
 11
2322.6884352772499
 21
1816.9788049881449
 31
0.0
  0
LINE
  5
7EE3
  8
1
 10
2588.6884352772499
 20
2024.156853768633
 30
0.0
 11
2588.6884352772499
 21
1699.156853768633
 31
0.0
  0
ARC
  5
7EFD
  8
1
 10
2337.6884352772499
 20
2024.156853768633
 30
0.0
 40
15.0
 50
90.000000000000099
 51
180.0
  0
ARC
  5
7EFE
  8
1
 10
2573.6884352772499
 20
2024.156853768633
 30
0.0
 40
15.0
 50
0.0
 51
90.000000000000156
  0
ARC
  5
7F00
  8
1
 10
2573.6884352772499
 20
1699.156853768633
 30
0.0
 40
15.0
 50
270.0
 51
0.0
  0
ARC
  5
7F01
  8
1
 10
2352.6884352772499
 20
2009.156853768633
 30
0.0
 40
10.0
 50
90.000000000000057
 51
180.0
  0
ARC
  5
7F02
  8
1
 10
2558.6884352772499
 20
2009.156853768633
 30
0.0
 40
10.0
 50
0.0
 51
90.000000000000057
  0
DIMENSION
  5
7F20
  8
3
  2
*D18
 10
450.02341681701557
 20
1208.156853768616
 30
0.0
 11
450.0234168170154
 21
1606.330834759937
 31
0.0
 70
   128
  1
(<>)
 13
769.10740986403141
 23
2040.156853768636
 33
0.0
 14
783.10740986403471
 24
1208.156853768616
 34
0.0
 50
270.0
1001
ACAD
1000
DSTYLE
1002
{
1070
   287
1070
     3
1070
   287
1070
     3
1070
    40
1040
15.0
1070
   143
1040
0.039
1070
   172
1070
     1
1070
   271
1070
     0
1070
   279
1070
     0
1070
   288
1070
     1
1002
}
  0
LINE
  5
7F2C
  8
1
 10
769.10740986404562
 20
3053.7727624560562
 30
0.0
 11
769.10740986404562
 21
2787.7727624560548
 31
0.0
  0
LINE
  5
7F2D
  8
1
 10
1283.1074098640449
 20
3033.7727624560548
 30
0.0
 11
1283.1074098640449
 21
2807.7727624560539
 31
0.0
  0
POLYLINE
  5
7F32
  8
1
 66
     1
 10
0.0
 20
0.0
 30
0.0
  0
VERTEX
  5
82F5
  8
1
 10
814.10740986404187
 20
2799.7727624560539
 30
0.0
  0
VERTEX
  5
82F6
  8
1
 10
1006.607409864046
 20
2799.7727624560539
 30
0.0
  0
SEQEND
  5
82F7
  8
1
  0
POLYLINE
  5
7F36
  8
1
 66
     1
 10
0.0
 20
0.0
 30
0.0
  0
VERTEX
  5
82F8
  8
1
 10
1031.6074098640449
 20
2799.7727624560539
 30
0.0
  0
VERTEX
  5
82F9
  8
1
 10
1224.1074098640479
 20
2799.772762456053
 30
0.0
  0
SEQEND
  5
82FA
  8
1
  0
ARC
  5
7F3A
  8
1
 10
1202.607409864044
 20
2806.7727624560562
 30
0.0
 40
1.0
 50
90.0
 51
180.0
  0
LINE
  5
7F3B
  8
1
 10
1201.607409864044
 20
2806.7727624560562
 30
0.0
 11
1201.6074098640449
 21
2800.7727624560539
 31
0.0
  0
ARC
  5
7F3C
  8
1
 10
1200.6074098640449
 20
2800.7727624560539
 30
0.0
 40
1.0
 50
269.99999999999989
 51
0.0
  0
POLYLINE
  5
7F3D
  8
1
 66
     1
 10
0.0
 20
0.0
 30
0.0
  0
VERTEX
  5
82FB
  8
1
 10
1200.6074098640449
 20
3041.7727624560539
 30
0.0
  0
VERTEX
  5
82FC
  8
1
 10
1019.1074098640451
 20
3041.7727624560548
 30
0.0
  0
SEQEND
  5
82FD
  8
1
  0
LINE
  5
7F41
  8
1
 10
1207.1944818907889
 20
3033.7727624560539
 30
0.0
 11
1202.607409864044
 21
3033.7727624560539
 31
0.0
  0
ARC
  5
7F42
  8
1
 10
1202.607409864044
 20
3034.7727624560539
 30
0.0
 40
1.0
 50
180.0
 51
270.0
  0
ARC
  5
7F43
  8
1
 10
1200.6074098640449
 20
3040.7727624560539
 30
0.0
 40
1.0
 50
0.0
 51
90.000000000000071
  0
LINE
  5
7F44
  8
1
 10
1201.607409864044
 20
3034.7727624560539
 30
0.0
 11
1201.6074098640449
 21
3040.7727624560539
 31
0.0
  0
LINE
  5
7F45
  8
1
 10
769.10740986404562
 20
3053.7727624560562
 30
0.0
 11
770.10740986404539
 21
3053.7727624560562
 31
0.0
  0
LINE
  5
7F46
  8
1
 10
769.10740986404562
 20
2787.7727624560548
 30
0.0
 11
770.10740986404562
 21
2787.7727624560548
 31
0.0
  0
LINE
  5
7F47
  8
1
 10
770.10740986404539
 20
3053.7727624560562
 30
0.0
 11
770.10740986404562
 21
2787.7727624560548
 31
0.0
  0
LINE
  5
7FDA
  8
1
 10
2069.6352930903372
 20
1491.365173988255
 30
0.0
 11
2129.6352930903372
 21
1491.365173988255
 31
0.0
  0
LINE
  5
7FDB
  8
1
 10
2069.6352930903372
 20
1519.365173988255
 30
0.0
 11
2129.6352930903372
 21
1519.365173988255
 31
0.0
  0
LINE
  5
7FDD
  8
1
 10
2069.6352930903372
 20
1519.365173988255
 30
0.0
 11
2069.6352930903372
 21
1491.365173988255
 31
0.0
  0
LINE
  5
7FDE
  8
1
 10
2129.6352930903372
 20
1521.169245101896
 30
0.0
 11
2129.6352930903372
 21
1489.561102874615
 31
0.0
  0
LINE
  5
7FE0
  8
1
 10
2435.6352930903372
 20
1585.365173988255
 30
0.0
 11
2435.6352930903372
 21
1425.365173988255
 31
0.0
  0
LINE
  5
7FE1
  8
1
 10
2168.5860800018431
 20
1598.285210420034
 30
0.0
 11
2168.5860800018431
 21
1416.9749026086561
 31
0.0
  0
LINE
  5
7FE2
  8
1
 10
2144.774321378377
 20
1598.2852104200349
 30
0.0
 11
2144.774321378377
 21
1416.974902608657
 31
0.0
  0
LINE
  5
7FE3
  8
1
 10
2134.6352930903372
 20
1547.6366993820079
 30
0.0
 11
2134.6352930903372
 21
1463.0936485945019
 31
0.0
  0
LINE
  5
7FE4
  8
1
 10
2349.2545714133748
 20
1606.365173988255
 30
0.0
 11
2349.2545714133748
 21
1505.365173988255
 31
0.0
  0
LINE
  5
7FE5
  8
1
 10
2377.3304872889521
 20
1606.365173988255
 30
0.0
 11
2377.3304872889539
 21
1404.3651739882559
 31
0.0
  0
LINE
  5
7FE6
  8
1
 10
2176.304866172833
 20
1606.365173988255
 30
0.0
 11
2342.0719100852939
 21
1606.365173988255
 31
0.0
  0
LINE
  5
7FE7
  8
1
 10
2144.774321378377
 20
1598.285210420034
 30
0.0
 11
2168.5860800018431
 21
1598.285210420034
 31
0.0
  0
LINE
  5
7FE8
  8
1
 10
2176.304866172834
 20
1606.365173988255
 30
0.0
 11
2168.5860800018431
 21
1593.3407856695469
 31
0.0
  0
LINE
  5
7FE9
  8
1
 10
2144.774321378377
 20
1547.636699382007
 30
0.0
 11
2134.6352930903372
 21
1547.6366993820079
 31
0.0
  0
LINE
  5
7FEA
  8
1
 10
2134.6352930903372
 20
1521.169245101896
 30
0.0
 11
2129.6352930903372
 21
1521.169245101896
 31
0.0
  0
LINE
  5
7FEB
  8
1
 10
2349.2545714133748
 20
1606.365173988255
 30
0.0
 11
2377.3304872889521
 21
1606.365173988255
 31
0.0
  0
LINE
  5
7FEC
  8
1
 10
2342.0719100852939
 20
1606.365173988255
 30
0.0
 11
2349.2545714133748
 21
1584.81894909369
 31
0.0
  0
LINE
  5
7FEE
  8
1
 10
2377.3304872889521
 20
1606.365173988255
 30
0.0
 11
2435.6352930903372
 21
1585.365173988255
 31
0.0
  0
LINE
  5
7FEF
  8
1
 10
2176.304866172833
 20
1404.365173988255
 30
0.0
 11
2342.0719100852939
 21
1404.365173988255
 31
0.0
  0
LINE
  5
7FF0
  8
1
 10
2134.6352930903372
 20
1489.561102874615
 30
0.0
 11
2129.6352930903372
 21
1489.561102874615
 31
0.0
  0
LINE
  5
7FF1
  8
1
 10
2144.774321378377
 20
1463.0936485945031
 30
0.0
 11
2134.6352930903372
 21
1463.0936485945019
 31
0.0
  0
LINE
  5
7FF2
  8
1
 10
2144.774321378377
 20
1416.9749026086561
 30
0.0
 11
2168.5860800018431
 21
1416.9749026086561
 31
0.0
  0
LINE
  5
7FF3
  8
1
 10
2176.304866172834
 20
1404.365173988255
 30
0.0
 11
2168.5860800018431
 21
1417.389562306962
 31
0.0
  0
LINE
  5
7FF4
  8
1
 10
2349.2545714133748
 20
1404.365173988255
 30
0.0
 11
2349.2545714133748
 21
1505.365173988255
 31
0.0
  0
LINE
  5
7FF5
  8
1
 10
2349.2545714133748
 20
1404.365173988255
 30
0.0
 11
2377.3304872889521
 21
1404.365173988255
 31
0.0
  0
LINE
  5
7FF6
  8
1
 10
2342.0719100852939
 20
1404.365173988255
 30
0.0
 11
2349.2545714133748
 21
1425.9113988828201
 31
0.0
  0
LINE
  5
7FF7
  8
1
 10
2377.3304872889521
 20
1404.365173988255
 30
0.0
 11
2435.6352930903372
 21
1425.365173988255
 31
0.0
  0
POLYLINE
  5
8001
  8
1
 66
     1
 10
0.0
 20
0.0
 30
0.0
  0
VERTEX
  5
82FE
  8
1
 10
2334.6884352772481
 20
1683.826550988809
 30
0.0
  0
VERTEX
  5
82FF
  8
1
 10
2334.6884352772481
 20
1606.365173988255
 30
0.0
  0
SEQEND
  5
8300
  8
1
  0
POLYLINE
  5
8005
  8
1
 66
     1
 10
0.0
 20
0.0
 30
0.0
  0
VERTEX
  5
8301
  8
1
 10
2334.688435277249
 20
1404.365173988255
 30
0.0
  0
VERTEX
  5
8302
  8
1
 10
2334.688435277249
 20
1374.1568537686319
 30
0.0
  0
SEQEND
  5
8303
  8
1
  0
POLYLINE
  5
8009
  8
1
 66
     1
 10
0.0
 20
0.0
 30
0.0
  0
VERTEX
  5
8304
  8
1
 10
2170.6884352772481
 20
1657.656853768631
 30
0.0
  0
VERTEX
  5
8305
  8
1
 10
2170.6884352772481
 20
1596.8882205750081
 30
0.0
  0
SEQEND
  5
8306
  8
1
  0
POLYLINE
  5
800D
  8
1
 66
     1
 10
0.0
 20
0.0
 30
0.0
  0
VERTEX
  5
8307
  8
1
 10
2170.6884352772481
 20
1413.8421274015011
 30
0.0
  0
VERTEX
  5
8308
  8
1
 10
2170.6884352772481
 20
1374.1568537686319
 30
0.0
  0
SEQEND
  5
8309
  8
1
  0
LINE
  5
8011
  8
1
 10
2187.6896257389089
 20
1404.365173988255
 30
0.0
 11
2187.689625738908
 21
1371.9272285030911
 31
0.0
  0
LINE
  5
8012
  8
1
 10
2326.4034649147211
 20
1404.365173988255
 30
0.0
 11
2326.4034649147211
 21
1374.156853768633
 31
0.0
  0
LINE
  5
8078
  8
1
 10
1634.2652182112181
 20
2605.7727624560539
 30
0.0
 11
1031.6074098640449
 21
2605.7727624560539
 31
0.0
  0
LINE
  5
8084
  8
1
 10
784.02765567871018
 20
2500.7727624560539
 30
0.0
 11
754.1073654805723
 21
2500.7727624560539
 31
0.0
  0
LINE
  5
8090
  8
1
 10
784.10736548057184
 20
3033.7727624560548
 30
0.0
 11
784.10736548057218
 21
3100.772762456053
 31
0.0
1001
ACAD
1000
ASC_BOUNDS
1002
{
1070
    19
1002
}
  0
INSERT
  5
80A5
  8
1
  2
L-30-3
 10
1518.858568114789
 20
1140.039883411162
 30
0.0
  0
INSERT
  5
80A6
  8
1
  2
L-30-3
 10
1518.858568114789
 20
1336.273824126069
 30
0.0
 41
-1.0
 50
180.0
  0
INSERT
  5
80A7
  8
1
  2
L-30-3
 10
899.35625161327948
 20
1336.273824126069
 30
0.0
 50
180.0
  0
INSERT
  5
80A8
  8
1
  2
L-30-3
 10
899.35625161327948
 20
1140.039883411162
 30
0.0
 41
-1.0
  0
LINE
  5
80EF
  8
1
 10
2455.688435277249
 20
1374.156853768633
 30
0.0
 11
2455.688435277249
 21
1304.156853768633
 31
0.0
1001
ACAD
1000
ASC_BOUNDS
1002
{
1070
    19
1002
}
  0
LINE
  5
80F0
  8
1
 10
2140.6884352772472
 20
1268.156853768633
 30
0.0
 11
2455.6884352772481
 21
1268.1568537686319
 31
0.0
1001
ACAD
1000
ASC_BOUNDS
1002
{
1070
    19
1002
}
  0
LINE
  5
80F3
  8
1
 10
2455.6884352772481
 20
1268.1568537686319
 30
0.0
 11
2455.6884352772481
 21
1238.1568537686319
 31
0.0
1001
ACAD
1000
ASC_BOUNDS
1002
{
1070
    19
1002
}
  0
LINE
  5
80F4
  8
1
 10
2140.6884352772481
 20
1268.1568537686319
 30
0.0
 11
2140.6884352772472
 21
1238.156853768633
 31
0.0
1001
ACAD
1000
ASC_BOUNDS
1002
{
1070
    19
1002
}
  0
ENDSEC
  0
EOF
