  0
SECTION
  2
HEADER
  9
$ACADVER
  1
AC1009
  9
$INSBASE
 10
0.0
 20
0.0
 30
0.0
  9
$EXTMIN
 10
7786.1666978340372
 20
-14237.419212031229
 30
0.0
  9
$EXTMAX
 10
19336.166697834029
 20
1987.580787968772
 30
0.0
  9
$LIMMIN
 10
0.0
 20
0.0
  9
$LIMMAX
 10
297.0
 20
210.0
  9
$ORTHOMODE
 70
     0
  9
$REGENMODE
 70
     1
  9
$FILLMODE
 70
     1
  9
$QTEXTMODE
 70
     0
  9
$MIRRTEXT
 70
     0
  9
$DRAGMODE
 70
     2
  9
$LTSCALE
 40
275.0
  9
$OSMODE
 70
    37
  9
$ATTMODE
 70
     1
  9
$TEXTSIZE
 40
137.5
  9
$TRACEWID
 40
0.05
  9
$TEXTSTYLE
  7
STANDARD
  9
$CLAYER
  8
SP
  9
$CELTYPE
  6
BYLAYER
  9
$CECOLOR
 62
   256
  9
$DIMSCALE
 40
55.0
  9
$DIMASZ
 40
2.0
  9
$DIMEXO
 40
1.0
  9
$DIMDLI
 40
10.0
  9
$DIMRND
 40
0.0
  9
$DIMDLE
 40
0.0
  9
$DIMEXE
 40
1.0
  9
$DIMTP
 40
0.0
  9
$DIMTM
 40
0.0
  9
$DIMTXT
 40
2.5
  9
$DIMCEN
 40
0.0
  9
$DIMTSZ
 40
0.0
  9
$DIMTOL
 70
     0
  9
$DIMLIM
 70
     0
  9
$DIMTIH
 70
     0
  9
$DIMTOH
 70
     0
  9
$DIMSE1
 70
     1
  9
$DIMSE2
 70
     1
  9
$DIMTAD
 70
     1
  9
$DIMZIN
 70
     8
  9
$DIMBLK
  1

  9
$DIMASO
 70
     1
  9
$DIMSHO
 70
     1
  9
$DIMPOST
  1
(<>)
  9
$DIMAPOST
  1

  9
$DIMALT
 70
     0
  9
$DIMALTD
 70
     2
  9
$DIMALTF
 40
0.03937
  9
$DIMLFAC
 40
1.0
  9
$DIMTOFL
 70
     1
  9
$DIMTVP
 40
0.0
  9
$DIMTIX
 70
     0
  9
$DIMSOXD
 70
     0
  9
$DIMSAH
 70
     1
  9
$DIMBLK1
  1
NONE
  9
$DIMBLK2
  1
NONE
  9
$DIMSTYLE
  2
MATSU
  9
$DIMCLRD
 70
   256
  9
$DIMCLRE
 70
   256
  9
$DIMCLRT
 70
   256
  9
$DIMTFAC
 40
1.0
  9
$DIMGAP
 40
1.0
  9
$LUNITS
 70
     2
  9
$LUPREC
 70
     4
  9
$SKETCHINC
 40
0.1
  9
$FILLETRAD
 40
0.0
  9
$AUNITS
 70
     0
  9
$AUPREC
 70
     2
  9
$MENU
  1
acad
  9
$ELEVATION
 40
0.0
  9
$PELEVATION
 40
0.0
  9
$THICKNESS
 40
0.0
  9
$LIMCHECK
 70
     0
  9
$BLIPMODE
 70
     0
  9
$CHAMFERA
 40
20.0
  9
$CHAMFERB
 40
20.0
  9
$SKPOLY
 70
     0
  9
$TDCREATE
 40
2453950.639283854
  9
$TDUPDATE
 40
2454953.8143514232
  9
$TDINDWG
 40
0.3647326852
  9
$TDUSRTIMER
 40
0.3647326852
  9
$USRTIMER
 70
     1
  9
$ANGBASE
 50
0.0
  9
$ANGDIR
 70
     0
  9
$PDMODE
 70
     0
  9
$PDSIZE
 40
1.0
  9
$PLINEWID
 40
0.0
  9
$COORDS
 70
     1
  9
$SPLFRAME
 70
     0
  9
$SPLINETYPE
 70
     6
  9
$SPLINESEGS
 70
     8
  9
$ATTDIA
 70
     0
  9
$ATTREQ
 70
     1
  9
$HANDLING
 70
 10241
  9
$HANDSEED
  5
C445
  9
$SURFTAB1
 70
     6
  9
$SURFTAB2
 70
     6
  9
$SURFTYPE
 70
     6
  9
$SURFU
 70
     6
  9
$SURFV
 70
     6
  9
$UCSNAME
  2

  9
$UCSORG
 10
0.0
 20
-0.0000000000000568
 30
0.0
  9
$UCSXDIR
 10
1.0
 20
0.0
 30
0.0
  9
$UCSYDIR
 10
0.0
 20
1.0
 30
0.0
  9
$PUCSNAME
  2

  9
$PUCSORG
 10
0.0
 20
0.0
 30
0.0
  9
$PUCSXDIR
 10
1.0
 20
0.0
 30
0.0
  9
$PUCSYDIR
 10
0.0
 20
1.0
 30
0.0
  9
$USERI1
 70
     0
  9
$USERI2
 70
     0
  9
$USERI3
 70
     0
  9
$USERI4
 70
     0
  9
$USERI5
 70
     0
  9
$USERR1
 40
0.0
  9
$USERR2
 40
0.0
  9
$USERR3
 40
0.0
  9
$USERR4
 40
0.0
  9
$USERR5
 40
0.0
  9
$WORLDVIEW
 70
     1
  9
$SHADEDGE
 70
     3
  9
$SHADEDIF
 70
    70
  9
$TILEMODE
 70
     1
  9
$MAXACTVP
 70
    16
  9
$PLIMCHECK
 70
     0
  9
$PEXTMIN
 10
1.0000000000000000E+020
 20
1.0000000000000000E+020
 30
1.0000000000000000E+020
  9
$PEXTMAX
 10
-1.0000000000000000E+020
 20
-1.0000000000000000E+020
 30
-1.0000000000000000E+020
  9
$PLIMMIN
 10
0.0
 20
0.0
  9
$PLIMMAX
 10
12.0
 20
9.0
  9
$UNITMODE
 70
     0
  9
$VISRETAIN
 70
     0
  9
$PLINEGEN
 70
     0
  9
$PSLTSCALE
 70
     0
  0
ENDSEC
  0
SECTION
  2
TABLES
  0
TABLE
  2
VPORT
 70
     2
  0
VPORT
  2
*ACTIVE
 70
     0
 10
0.0
 20
0.0
 11
1.0
 21
1.0
 12
24363.118975491299
 22
-3223.6752178698162
 13
0.0
 23
0.0
 14
5.0
 24
5.0
 15
0.0
 25
0.0
 16
0.0
 26
0.0
 36
1.0
 17
0.0
 27
0.0
 37
0.0
 40
22027.48798832282
 41
1.5051150895140659
 42
50.0
 43
0.0
 44
0.0
 50
0.0
 51
0.0
 71
     0
 72
   100
 73
     1
 74
     0
 75
     0
 76
     0
 77
     0
 78
     0
  0
ENDTAB
  0
TABLE
  2
LTYPE
 70
     3
  0
LTYPE
  2
CONTINUOUS
 70
     0
  3
Solid line
 72
    65
 73
     0
 40
0.0
  0
LTYPE
  2
CENTER
 70
     0
  3
____ _ ____ _ ____ _ ____ _ ____ _ ____ _ ____ 
 72
    65
 73
     4
 40
2.0
 49
1.25
 49
-0.25
 49
0.25
 49
-0.25
  0
LTYPE
  2
PHANTOM
 70
     0
  3
______  __  __  ______  __  __  ______  __  __ 
 72
    65
 73
     6
 40
2.5
 49
1.25
 49
-0.25
 49
0.25
 49
-0.25
 49
0.25
 49
-0.25
  0
ENDTAB
  0
TABLE
  2
LAYER
 70
     7
  0
LAYER
  2
0
 70
     0
 62
     7
  6
CONTINUOUS
  0
LAYER
  2
CT
 70
     0
 62
     3
  6
CENTER
  0
LAYER
  2
FUTO
 70
     0
 62
     4
  6
CONTINUOUS
  0
LAYER
  2
SL
 70
     0
 62
     1
  6
PHANTOM
  0
LAYER
  2
SP
 70
     0
 62
     2
  6
CONTINUOUS
  0
LAYER
  2
DEFPOINTS
 70
     0
 62
     7
  6
CONTINUOUS
  0
LAYER
  2
4
 70
     0
 62
     7
  6
CONTINUOUS
  0
ENDTAB
  0
TABLE
  2
STYLE
 70
     1
  0
STYLE
  2
STANDARD
 70
     0
 40
0.0
 41
1.0
 50
15.0
 71
     0
 42
137.5
  3
C:\Program Files\AutoCAD LT\simplex.shx
  4
C:\Program Files\AutoCAD LT\extfont.shx
  0
ENDTAB
  0
TABLE
  2
VIEW
 70
     0
  0
ENDTAB
  0
TABLE
  2
UCS
 70
     0
  0
ENDTAB
  0
TABLE
  2
APPID
 70
     2
  0
APPID
  2
ACAD
 70
     0
  0
APPID
  2
CONTENTBLOCKICON
 70
     0
  0
ENDTAB
  0
TABLE
  2
DIMSTYLE
 70
     2
  0
DIMSTYLE
  2
STANDARD
 70
     0
  3

  4

  5

  6

  7

 40
1.0
 41
0.18
 42
0.0625
 43
0.38
 44
0.18
 45
0.0
 46
0.0
 47
0.0
 48
0.0
140
0.18
141
0.09
142
0.0
143
25.399999999999999
144
1.0
145
0.0
146
1.0
147
0.09
 71
     0
 72
     0
 73
     1
 74
     1
 75
     0
 76
     0
 77
     0
 78
     0
170
     0
171
     2
172
     0
173
     0
174
     0
175
     0
176
     0
177
     0
178
     0
  0
DIMSTYLE
  2
MATSU
 70
     0
  3

  4

  5

  6
OPEN
  7
OPEN
 40
1.0
 41
2.0
 42
1.0
 43
10.0
 44
1.0
 45
0.0
 46
0.0
 47
0.0
 48
0.0
140
3.0
141
0.0
142
0.0
143
0.03937
144
1.0
145
0.0
146
1.0
147
0.5
 71
     0
 72
     0
 73
     0
 74
     0
 75
     0
 76
     0
 77
     1
 78
     8
170
     0
171
     2
172
     1
173
     1
174
     0
175
     0
176
   256
177
   256
178
   256
  0
ENDTAB
  0
ENDSEC
  0
SECTION
  2
BLOCKS
  0
BLOCK
  8
0
  2
$MODEL_SPACE
 70
     0
 10
0.0
 20
0.0
 30
0.0
  3
$MODEL_SPACE
  1

  0
ENDBLK
  5
1B
  8
0
  0
BLOCK
 67
     1
  8
0
  2
$PAPER_SPACE
 70
     0
 10
0.0
 20
0.0
 30
0.0
  3
$PAPER_SPACE
  1

  0
ENDBLK
  5
18
 67
     1
  8
0
  0
BLOCK
  8
0
  2
_OPEN
 70
     0
 10
0.0
 20
0.0
 30
0.0
  3
_OPEN
  1

  0
LINE
  5
28
  8
0
  6
BYBLOCK
 62
     0
 10
-1.0
 20
0.1666666666666666
 30
0.0
 11
0.0
 21
0.0
 31
0.0
  0
LINE
  5
29
  8
0
  6
BYBLOCK
 62
     0
 10
0.0
 20
0.0
 30
0.0
 11
-1.0
 21
-0.1666666666666666
 31
0.0
  0
LINE
  5
2A
  8
0
  6
BYBLOCK
 62
     0
 10
0.0
 20
0.0
 30
0.0
 11
-1.0
 21
0.0
 31
0.0
  0
ENDBLK
  5
2B
  8
0
  0
BLOCK
  8
0
  2
*D1
 70
     1
 10
0.0
 20
0.0
 30
0.0
  3
*D1
  1

  0
LINE
  5
C2AA
  8
0
  6
BYBLOCK
 10
13128.942884499629
 20
-2318.2442893058501
 30
0.0
 11
13128.942884499629
 21
-1988.5722968588891
 31
0.0
  0
LINE
  5
C2AB
  8
0
  6
BYBLOCK
 10
10768.942884499629
 20
-2318.2442893058501
 30
0.0
 11
10768.942884499629
 21
-1988.5722968588891
 31
0.0
  0
LINE
  5
C2AC
  8
0
  6
BYBLOCK
 10
13018.942884499629
 20
-2043.572296858888
 30
0.0
 11
10878.942884499629
 21
-2043.572296858888
 31
0.0
  0
INSERT
  5
C2AD
  8
0
  6
BYBLOCK
  2
_OPEN
 10
13128.942884499629
 20
-2043.572296858888
 30
0.0
 41
110.0
 42
110.0
 43
110.0
  0
INSERT
  5
C2AE
  8
0
  6
BYBLOCK
  2
_OPEN
 10
10768.942884499629
 20
-2043.572296858888
 30
0.0
 41
110.0
 42
110.0
 43
110.0
 50
180.0
  0
TEXT
  5
C2AF
  8
SP
 10
11695.042140754211
 20
-1988.5722968588891
 30
0.0
 40
137.5
  1
2360
 51
15.0
  0
POINT
  5
C2B0
  8
DEFPOINTS
  6
BYBLOCK
 62
     0
 10
13128.942884499629
 20
-2373.2442893058501
 30
0.0
  0
POINT
  5
C2B1
  8
DEFPOINTS
  6
BYBLOCK
 62
     0
 10
10768.942884499629
 20
-2373.2442893058501
 30
0.0
  0
POINT
  5
C2B2
  8
DEFPOINTS
  6
BYBLOCK
 62
     0
 10
10768.942884499629
 20
-2043.572296858888
 30
0.0
  0
ENDBLK
  5
C2B3
  8
0
  0
BLOCK
  8
0
  2
*D2
 70
     1
 10
0.0
 20
0.0
 30
0.0
  3
*D2
  1

  0
LINE
  5
C2B7
  8
0
  6
BYBLOCK
 10
10768.942884499629
 20
-2318.2442893058501
 30
0.0
 11
10768.942884499629
 21
-1988.5722968588891
 31
0.0
  0
LINE
  5
C2B8
  8
0
  6
BYBLOCK
 10
8928.942884499631
 20
-4268.244289305846
 30
0.0
 11
8928.942884499631
 21
-1988.5722968588891
 31
0.0
  0
LINE
  5
C2B9
  8
0
  6
BYBLOCK
 10
10658.942884499629
 20
-2043.572296858888
 30
0.0
 11
9038.9428844996328
 21
-2043.572296858888
 31
0.0
  0
INSERT
  5
C2BA
  8
0
  6
BYBLOCK
  2
_OPEN
 10
10768.942884499629
 20
-2043.572296858888
 30
0.0
 41
110.0
 42
110.0
 43
110.0
  0
INSERT
  5
C2BB
  8
0
  6
BYBLOCK
  2
_OPEN
 10
8928.942884499631
 20
-2043.572296858888
 30
0.0
 41
110.0
 42
110.0
 43
110.0
 50
180.0
  0
TEXT
  5
C2BC
  8
SP
 10
9593.2247303421227
 20
-1988.5722968588891
 30
0.0
 40
137.5
  1
1840
 51
15.0
  0
POINT
  5
C2BD
  8
DEFPOINTS
  6
BYBLOCK
 62
     0
 10
10768.942884499629
 20
-2373.2442893058501
 30
0.0
  0
POINT
  5
C2BE
  8
DEFPOINTS
  6
BYBLOCK
 62
     0
 10
8928.942884499631
 20
-4323.244289305846
 30
0.0
  0
POINT
  5
C2BF
  8
DEFPOINTS
  6
BYBLOCK
 62
     0
 10
8928.942884499631
 20
-2043.572296858888
 30
0.0
  0
ENDBLK
  5
C2C0
  8
0
  0
BLOCK
  8
0
  2
*D3
 70
     1
 10
0.0
 20
0.0
 30
0.0
  3
*D3
  1

  0
LINE
  5
C2C4
  8
0
  6
BYBLOCK
 10
13183.942884499629
 20
-2373.2442893058501
 30
0.0
 11
13689.816922956939
 21
-2373.2442893058501
 31
0.0
  0
LINE
  5
C2C5
  8
0
  6
BYBLOCK
 10
13183.942884499629
 20
-5623.2442893058496
 30
0.0
 11
13689.816922956939
 21
-5623.2442893058496
 31
0.0
  0
LINE
  5
C2C6
  8
0
  6
BYBLOCK
 10
13634.816922956939
 20
-2483.2442893058501
 30
0.0
 11
13634.816922956939
 21
-5513.2442893058515
 31
0.0
  0
INSERT
  5
C2C7
  8
0
  6
BYBLOCK
  2
_OPEN
 10
13634.816922956939
 20
-2373.2442893058501
 30
0.0
 41
110.0
 42
110.0
 43
110.0
 50
90.0
  0
INSERT
  5
C2C8
  8
0
  6
BYBLOCK
  2
_OPEN
 10
13634.816922956939
 20
-5623.2442893058496
 30
0.0
 41
110.0
 42
110.0
 43
110.0
 50
270.0
  0
TEXT
  5
C2C9
  8
SP
 10
13579.81692295693
 20
-4255.6538915235851
 30
0.0
 40
137.5
  1
3250
 50
90.0
 51
15.0
  0
POINT
  5
C2CA
  8
DEFPOINTS
  6
BYBLOCK
 62
     0
 10
13128.942884499629
 20
-2373.2442893058501
 30
0.0
  0
POINT
  5
C2CB
  8
DEFPOINTS
  6
BYBLOCK
 62
     0
 10
13128.942884499629
 20
-5623.2442893058496
 30
0.0
  0
POINT
  5
C2CC
  8
DEFPOINTS
  6
BYBLOCK
 62
     0
 10
13634.816922956939
 20
-5623.2442893058496
 30
0.0
  0
ENDBLK
  5
C2CD
  8
0
  0
BLOCK
  8
0
  2
*D4
 70
     1
 10
0.0
 20
0.0
 30
0.0
  3
*D4
  1

  0
LINE
  5
C2D1
  8
0
  6
BYBLOCK
 10
13128.942884499629
 20
-5678.2442893058515
 30
0.0
 11
13128.942884499629
 21
-6125.7176001882617
 31
0.0
  0
LINE
  5
C2D2
  8
0
  6
BYBLOCK
 10
8928.942884499631
 20
-5678.2442893058478
 30
0.0
 11
8928.942884499631
 21
-6125.7176001882617
 31
0.0
  0
LINE
  5
C2D3
  8
0
  6
BYBLOCK
 10
13018.942884499629
 20
-6070.7176001882608
 30
0.0
 11
9038.9428844996328
 21
-6070.7176001882608
 31
0.0
  0
INSERT
  5
C2D4
  8
0
  6
BYBLOCK
  2
_OPEN
 10
13128.942884499629
 20
-6070.7176001882608
 30
0.0
 41
110.0
 42
110.0
 43
110.0
  0
INSERT
  5
C2D5
  8
0
  6
BYBLOCK
  2
_OPEN
 10
8928.942884499631
 20
-6070.7176001882608
 30
0.0
 41
110.0
 42
110.0
 43
110.0
 50
180.0
  0
TEXT
  5
C2D6
  8
SP
 10
10768.90163842766
 20
-6015.7176001882617
 30
0.0
 40
137.5
  1
4200
 51
15.0
  0
POINT
  5
C2D7
  8
DEFPOINTS
  6
BYBLOCK
 62
     0
 10
13128.942884499629
 20
-5623.2442893058496
 30
0.0
  0
POINT
  5
C2D8
  8
DEFPOINTS
  6
BYBLOCK
 62
     0
 10
8928.942884499631
 20
-5623.2442893058469
 30
0.0
  0
POINT
  5
C2D9
  8
DEFPOINTS
  6
BYBLOCK
 62
     0
 10
8928.942884499631
 20
-6070.7176001882608
 30
0.0
  0
ENDBLK
  5
C2DA
  8
0
  0
BLOCK
  8
0
  2
*D5
 70
     1
 10
0.0
 20
0.0
 30
0.0
  3
*D5
  1

  0
LINE
  5
C2DE
  8
0
  6
BYBLOCK
 10
8873.9428844996328
 20
-4323.244289305846
 30
0.0
 11
8484.7793036998482
 21
-4323.244289305846
 31
0.0
  0
LINE
  5
C2DF
  8
0
  6
BYBLOCK
 10
8873.9428844996328
 20
-5623.2442893058469
 30
0.0
 11
8484.7793036998482
 21
-5623.2442893058469
 31
0.0
  0
LINE
  5
C2E0
  8
0
  6
BYBLOCK
 10
8539.7793036998482
 20
-4433.2442893058469
 30
0.0
 11
8539.7793036998482
 21
-5513.2442893058469
 31
0.0
  0
INSERT
  5
C2E1
  8
0
  6
BYBLOCK
  2
_OPEN
 10
8539.7793036998482
 20
-4323.244289305846
 30
0.0
 41
110.0
 42
110.0
 43
110.0
 50
90.0
  0
INSERT
  5
C2E2
  8
0
  6
BYBLOCK
  2
_OPEN
 10
8539.7793036998482
 20
-5623.2442893058469
 30
0.0
 41
110.0
 42
110.0
 43
110.0
 50
270.0
  0
TEXT
  5
C2E3
  8
SP
 10
8484.7793036998482
 20
-5228.9624434633588
 30
0.0
 40
137.5
  1
1300
 50
90.0
 51
15.0
  0
POINT
  5
C2E4
  8
DEFPOINTS
  6
BYBLOCK
 62
     0
 10
8928.942884499631
 20
-4323.244289305846
 30
0.0
  0
POINT
  5
C2E5
  8
DEFPOINTS
  6
BYBLOCK
 62
     0
 10
8928.942884499631
 20
-5623.2442893058469
 30
0.0
  0
POINT
  5
C2E6
  8
DEFPOINTS
  6
BYBLOCK
 62
     0
 10
8539.7793036998482
 20
-5623.2442893058469
 30
0.0
  0
ENDBLK
  5
C2E7
  8
0
  0
BLOCK
  8
0
  2
*D6
 70
     1
 10
0.0
 20
0.0
 30
0.0
  3
*D6
  1

  0
LINE
  5
C2EB
  8
0
  6
BYBLOCK
 10
15724.627944492229
 20
-7115.1348837428723
 30
0.0
 11
15724.627944492229
 21
-6726.1240615310662
 31
0.0
  0
LINE
  5
C2EC
  8
0
  6
BYBLOCK
 10
18374.627944492229
 20
-7115.1348837428723
 30
0.0
 11
18374.627944492229
 21
-6726.1240615310662
 31
0.0
  0
LINE
  5
C2ED
  8
0
  6
BYBLOCK
 10
15834.627944492229
 20
-6781.1240615310662
 30
0.0
 11
18264.627944492229
 21
-6781.1240615310662
 31
0.0
  0
INSERT
  5
C2EE
  8
0
  6
BYBLOCK
  2
_OPEN
 10
15724.627944492229
 20
-6781.1240615310662
 30
0.0
 41
110.0
 42
110.0
 43
110.0
 50
180.0
  0
INSERT
  5
C2EF
  8
0
  6
BYBLOCK
  2
_OPEN
 10
18374.627944492229
 20
-6781.1240615310662
 30
0.0
 41
110.0
 42
110.0
 43
110.0
  0
TEXT
  5
C2F0
  8
SP
 10
16795.727200746809
 20
-6726.1240615310662
 30
0.0
 40
137.5
  1
2650
 51
15.0
  0
POINT
  5
C2F1
  8
DEFPOINTS
  6
BYBLOCK
 62
     0
 10
15724.627944492229
 20
-7170.1348837428723
 30
0.0
  0
POINT
  5
C2F2
  8
DEFPOINTS
  6
BYBLOCK
 62
     0
 10
18374.627944492229
 20
-7170.1348837428723
 30
0.0
  0
POINT
  5
C2F3
  8
DEFPOINTS
  6
BYBLOCK
 62
     0
 10
18374.627944492229
 20
-6781.1240615310662
 30
0.0
  0
ENDBLK
  5
C2F4
  8
0
  0
BLOCK
  8
0
  2
*D7
 70
     1
 10
0.0
 20
0.0
 30
0.0
  3
*D7
  1

  0
LINE
  5
C2F8
  8
0
  6
BYBLOCK
 10
13223.942884499629
 20
-7040.1348837428704
 30
0.0
 11
13223.942884499629
 21
-6726.1240615310662
 31
0.0
  0
LINE
  5
C2F9
  8
0
  6
BYBLOCK
 10
11948.942884499629
 20
-6952.2486237122494
 30
0.0
 11
11948.942884499629
 21
-6726.1240615310662
 31
0.0
  0
LINE
  5
C2FA
  8
0
  6
BYBLOCK
 10
13113.94288449964
 20
-6781.1240615310662
 30
0.0
 11
12058.942884499629
 21
-6781.1240615310662
 31
0.0
  0
INSERT
  5
C2FB
  8
0
  6
BYBLOCK
  2
_OPEN
 10
13223.942884499629
 20
-6781.1240615310662
 30
0.0
 41
110.0
 42
110.0
 43
110.0
  0
INSERT
  5
C2FC
  8
0
  6
BYBLOCK
  2
_OPEN
 10
11948.942884499629
 20
-6781.1240615310662
 30
0.0
 41
110.0
 42
110.0
 43
110.0
 50
180.0
  0
TEXT
  5
C2FD
  8
SP
 10
12330.489681393619
 20
-6726.1240615310662
 30
0.0
 40
137.5
  1
1275
 51
15.0
  0
POINT
  5
C2FE
  8
DEFPOINTS
  6
BYBLOCK
 62
     0
 10
13223.942884499629
 20
-7095.1348837428714
 30
0.0
  0
POINT
  5
C2FF
  8
DEFPOINTS
  6
BYBLOCK
 62
     0
 10
11948.942884499629
 20
-7007.2486237122494
 30
0.0
  0
POINT
  5
C300
  8
DEFPOINTS
  6
BYBLOCK
 62
     0
 10
11948.942884499629
 20
-6781.1240615310662
 30
0.0
  0
ENDBLK
  5
C301
  8
0
  0
BLOCK
  8
0
  2
*D8
 70
     1
 10
0.0
 20
0.0
 30
0.0
  3
*D8
  1

  0
LINE
  5
C312
  8
0
  6
BYBLOCK
 10
11948.942884499629
 20
-6952.2486237122494
 30
0.0
 11
11948.942884499629
 21
-6726.1240615310662
 31
0.0
  0
LINE
  5
C313
  8
0
  6
BYBLOCK
 10
10212.942884499629
 20
-9120.1348837428704
 30
0.0
 11
10212.942884499629
 21
-6726.1240615310662
 31
0.0
  0
LINE
  5
C314
  8
0
  6
BYBLOCK
 10
11838.942884499629
 20
-6781.1240615310662
 30
0.0
 11
10322.942884499629
 21
-6781.1240615310662
 31
0.0
  0
INSERT
  5
C315
  8
0
  6
BYBLOCK
  2
_OPEN
 10
11948.942884499629
 20
-6781.1240615310662
 30
0.0
 41
110.0
 42
110.0
 43
110.0
  0
INSERT
  5
C316
  8
0
  6
BYBLOCK
  2
_OPEN
 10
10212.942884499629
 20
-6781.1240615310662
 30
0.0
 41
110.0
 42
110.0
 43
110.0
 50
180.0
  0
TEXT
  5
C317
  8
SP
 10
10827.62132524785
 20
-6726.1240615310662
 30
0.0
 40
137.5
  1
1736
 51
15.0
  0
POINT
  5
C318
  8
DEFPOINTS
  6
BYBLOCK
 62
     0
 10
11948.942884499629
 20
-7007.2486237122494
 30
0.0
  0
POINT
  5
C319
  8
DEFPOINTS
  6
BYBLOCK
 62
     0
 10
10212.942884499629
 20
-9175.1348837428704
 30
0.0
  0
POINT
  5
C31A
  8
DEFPOINTS
  6
BYBLOCK
 62
     0
 10
10212.942884499629
 20
-6781.1240615310662
 30
0.0
  0
ENDBLK
  5
C31B
  8
0
  0
BLOCK
  8
0
  2
*D9
 70
     1
 10
0.0
 20
0.0
 30
0.0
  3
*D9
  1

  0
LINE
  5
C31F
  8
0
  6
BYBLOCK
 10
13278.942884499629
 20
-7174.1348837428704
 30
0.0
 11
13679.62184577542
 21
-7174.1348837428704
 31
0.0
  0
LINE
  5
C320
  8
0
  6
BYBLOCK
 10
13278.942884499629
 20
-9234.1348837428704
 30
0.0
 11
13679.62184577542
 21
-9234.1348837428704
 31
0.0
  0
LINE
  5
C321
  8
0
  6
BYBLOCK
 10
13624.62184577542
 20
-7284.1348837428714
 30
0.0
 11
13624.62184577542
 21
-9124.1348837428704
 31
0.0
  0
INSERT
  5
C322
  8
0
  6
BYBLOCK
  2
_OPEN
 10
13624.62184577542
 20
-7174.1348837428704
 30
0.0
 41
110.0
 42
110.0
 43
110.0
 50
90.0
  0
INSERT
  5
C323
  8
0
  6
BYBLOCK
  2
_OPEN
 10
13624.62184577542
 20
-9234.1348837428704
 30
0.0
 41
110.0
 42
110.0
 43
110.0
 50
270.0
  0
TEXT
  5
C324
  8
SP
 10
13569.62184577542
 20
-8458.0356274882924
 30
0.0
 40
137.5
  1
2060
 50
90.0
 51
15.0
  0
POINT
  5
C325
  8
DEFPOINTS
  6
BYBLOCK
 62
     0
 10
13223.942884499629
 20
-7174.1348837428704
 30
0.0
  0
POINT
  5
C326
  8
DEFPOINTS
  6
BYBLOCK
 62
     0
 10
13223.942884499629
 20
-9234.1348837428704
 30
0.0
  0
POINT
  5
C327
  8
DEFPOINTS
  6
BYBLOCK
 62
     0
 10
13624.62184577542
 20
-9234.1348837428704
 30
0.0
  0
ENDBLK
  5
C328
  8
0
  0
BLOCK
  8
0
  2
*D10
 70
     1
 10
0.0
 20
0.0
 30
0.0
  3
*D10
  1

  0
LINE
  5
C32C
  8
0
  6
BYBLOCK
 10
13278.942884499629
 20
-7174.1348837428704
 30
0.0
 11
14053.257931004169
 21
-7174.1348837428704
 31
0.0
  0
LINE
  5
C32D
  8
0
  6
BYBLOCK
 10
13382.495882613581
 20
-9322.1348837428704
 30
0.0
 11
14053.257931004169
 21
-9322.1348837428704
 31
0.0
  0
LINE
  5
C32E
  8
0
  6
BYBLOCK
 10
13998.257931004169
 20
-7284.1348837428714
 30
0.0
 11
13998.257931004169
 21
-9212.1348837428704
 31
0.0
  0
INSERT
  5
C32F
  8
0
  6
BYBLOCK
  2
_OPEN
 10
13998.257931004169
 20
-7174.1348837428704
 30
0.0
 41
110.0
 42
110.0
 43
110.0
 50
90.0
  0
INSERT
  5
C330
  8
0
  6
BYBLOCK
  2
_OPEN
 10
13998.257931004169
 20
-9322.1348837428704
 30
0.0
 41
110.0
 42
110.0
 43
110.0
 50
270.0
  0
TEXT
  5
C331
  8
SP
 10
13943.25793100416
 20
-8489.8176040111339
 30
0.0
 40
137.5
  1
2148
 50
90.0
 51
15.0
  0
POINT
  5
C332
  8
DEFPOINTS
  6
BYBLOCK
 62
     0
 10
13223.942884499629
 20
-7174.1348837428704
 30
0.0
  0
POINT
  5
C333
  8
DEFPOINTS
  6
BYBLOCK
 62
     0
 10
13327.495882613581
 20
-9322.1348837428704
 30
0.0
  0
POINT
  5
C334
  8
DEFPOINTS
  6
BYBLOCK
 62
     0
 10
13998.257931004169
 20
-9322.1348837428704
 30
0.0
  0
ENDBLK
  5
C335
  8
0
  0
BLOCK
  8
0
  2
*D11
 70
     1
 10
0.0
 20
0.0
 30
0.0
  3
*D11
  1

  0
LINE
  5
C339
  8
0
  6
BYBLOCK
 10
13382.495882613581
 20
-9322.1348837428704
 30
0.0
 11
14053.257931004169
 21
-9322.1348837428704
 31
0.0
  0
LINE
  5
C33A
  8
0
  6
BYBLOCK
 10
13183.942884499629
 20
-10802.13488374287
 30
0.0
 11
14053.257931004169
 21
-10802.13488374287
 31
0.0
  0
LINE
  5
C33B
  8
0
  6
BYBLOCK
 10
13998.257931004169
 20
-9432.1348837428704
 30
0.0
 11
13998.257931004169
 21
-10692.13488374287
 31
0.0
  0
INSERT
  5
C33C
  8
0
  6
BYBLOCK
  2
_OPEN
 10
13998.257931004169
 20
-9322.1348837428704
 30
0.0
 41
110.0
 42
110.0
 43
110.0
 50
90.0
  0
INSERT
  5
C33D
  8
0
  6
BYBLOCK
  2
_OPEN
 10
13998.257931004169
 20
-10802.13488374287
 30
0.0
 41
110.0
 42
110.0
 43
110.0
 50
270.0
  0
TEXT
  5
C33E
  8
SP
 10
13943.25793100416
 20
-10317.853037900381
 30
0.0
 40
137.5
  1
1480
 50
90.0
 51
15.0
  0
POINT
  5
C33F
  8
DEFPOINTS
  6
BYBLOCK
 62
     0
 10
13327.495882613581
 20
-9322.1348837428704
 30
0.0
  0
POINT
  5
C340
  8
DEFPOINTS
  6
BYBLOCK
 62
     0
 10
13128.942884499629
 20
-10802.13488374287
 30
0.0
  0
POINT
  5
C341
  8
DEFPOINTS
  6
BYBLOCK
 62
     0
 10
13998.257931004169
 20
-10802.13488374287
 30
0.0
  0
ENDBLK
  5
C342
  8
0
  0
BLOCK
  8
0
  2
*D12
 70
     1
 10
0.0
 20
0.0
 30
0.0
  3
*D12
  1

  0
LINE
  5
C346
  8
0
  6
BYBLOCK
 10
15203.627944492229
 20
-10857.13488374287
 30
0.0
 11
15203.627944492229
 21
-11202.63562283916
 31
0.0
  0
LINE
  5
C347
  8
0
  6
BYBLOCK
 10
17049.627944492229
 20
-10857.13488374287
 30
0.0
 11
17049.627944492229
 21
-11202.63562283916
 31
0.0
  0
LINE
  5
C348
  8
0
  6
BYBLOCK
 10
15313.627944492229
 20
-11147.63562283916
 30
0.0
 11
16939.627944492229
 21
-11147.63562283916
 31
0.0
  0
INSERT
  5
C349
  8
0
  6
BYBLOCK
  2
_OPEN
 10
15203.627944492229
 20
-11147.63562283916
 30
0.0
 41
110.0
 42
110.0
 43
110.0
 50
180.0
  0
INSERT
  5
C34A
  8
0
  6
BYBLOCK
  2
_OPEN
 10
17049.627944492229
 20
-11147.63562283916
 30
0.0
 41
110.0
 42
110.0
 43
110.0
  0
TEXT
  5
C34B
  8
SP
 10
15873.30638524045
 20
-11092.635622839151
 30
0.0
 40
137.5
  1
1846
 51
15.0
  0
POINT
  5
C34C
  8
DEFPOINTS
  6
BYBLOCK
 62
     0
 10
15203.627944492229
 20
-10802.13488374287
 30
0.0
  0
POINT
  5
C34D
  8
DEFPOINTS
  6
BYBLOCK
 62
     0
 10
17049.627944492229
 20
-10802.13488374287
 30
0.0
  0
POINT
  5
C34E
  8
DEFPOINTS
  6
BYBLOCK
 62
     0
 10
17049.627944492229
 20
-11147.63562283916
 30
0.0
  0
ENDBLK
  5
C34F
  8
0
  0
BLOCK
  8
0
  2
*D13
 70
     1
 10
0.0
 20
0.0
 30
0.0
  3
*D13
  1

  0
LINE
  5
C353
  8
0
  6
BYBLOCK
 10
17049.627944492229
 20
-10857.13488374287
 30
0.0
 11
17049.627944492229
 21
-11202.63562283916
 31
0.0
  0
LINE
  5
C354
  8
0
  6
BYBLOCK
 10
18453.627944492229
 20
-10857.13488374287
 30
0.0
 11
18453.627944492229
 21
-11202.63562283916
 31
0.0
  0
LINE
  5
C355
  8
0
  6
BYBLOCK
 10
17159.627944492229
 20
-11147.63562283916
 30
0.0
 11
18343.627944492229
 21
-11147.63562283916
 31
0.0
  0
INSERT
  5
C356
  8
0
  6
BYBLOCK
  2
_OPEN
 10
17049.627944492229
 20
-11147.63562283916
 30
0.0
 41
110.0
 42
110.0
 43
110.0
 50
180.0
  0
INSERT
  5
C357
  8
0
  6
BYBLOCK
  2
_OPEN
 10
18453.627944492229
 20
-11147.63562283916
 30
0.0
 41
110.0
 42
110.0
 43
110.0
  0
TEXT
  5
C358
  8
SP
 10
17498.13431746788
 20
-11092.635622839151
 30
0.0
 40
137.5
  1
1404
 51
15.0
  0
POINT
  5
C359
  8
DEFPOINTS
  6
BYBLOCK
 62
     0
 10
17049.627944492229
 20
-10802.13488374287
 30
0.0
  0
POINT
  5
C35A
  8
DEFPOINTS
  6
BYBLOCK
 62
     0
 10
18453.627944492229
 20
-10802.13488374287
 30
0.0
  0
POINT
  5
C35B
  8
DEFPOINTS
  6
BYBLOCK
 62
     0
 10
18453.627944492229
 20
-11147.63562283916
 30
0.0
  0
ENDBLK
  5
C35C
  8
0
  0
BLOCK
  8
0
  2
*D14
 70
     1
 10
0.0
 20
0.0
 30
0.0
  3
*D14
  1

  0
LINE
  5
C360
  8
0
  6
BYBLOCK
 10
15203.627944492229
 20
-10857.13488374286
 30
0.0
 11
15203.627944492229
 21
-11532.38305444039
 31
0.0
  0
LINE
  5
C361
  8
0
  6
BYBLOCK
 10
18453.627944492229
 20
-10857.13488374286
 30
0.0
 11
18453.627944492229
 21
-11532.38305444039
 31
0.0
  0
LINE
  5
C362
  8
0
  6
BYBLOCK
 10
15313.627944492229
 20
-11477.38305444039
 30
0.0
 11
18343.627944492229
 21
-11477.38305444039
 31
0.0
  0
INSERT
  5
C363
  8
0
  6
BYBLOCK
  2
_OPEN
 10
15203.627944492229
 20
-11477.38305444039
 30
0.0
 41
110.0
 42
110.0
 43
110.0
 50
180.0
  0
INSERT
  5
C364
  8
0
  6
BYBLOCK
  2
_OPEN
 10
18453.627944492229
 20
-11477.38305444039
 30
0.0
 41
110.0
 42
110.0
 43
110.0
  0
TEXT
  5
C365
  8
SP
 10
16571.218342274489
 20
-11422.38305444039
 30
0.0
 40
137.5
  1
3250
 51
15.0
  0
POINT
  5
C366
  8
DEFPOINTS
  6
BYBLOCK
 62
     0
 10
15203.627944492229
 20
-10802.13488374286
 30
0.0
  0
POINT
  5
C367
  8
DEFPOINTS
  6
BYBLOCK
 62
     0
 10
18453.627944492229
 20
-10802.13488374286
 30
0.0
  0
POINT
  5
C368
  8
DEFPOINTS
  6
BYBLOCK
 62
     0
 10
18453.627944492229
 20
-11477.38305444039
 30
0.0
  0
ENDBLK
  5
C369
  8
0
  0
BLOCK
  8
0
  2
*D15
 70
     1
 10
0.0
 20
0.0
 30
0.0
  3
*D15
  1

  0
LINE
  5
C36D
  8
0
  6
BYBLOCK
 10
11948.942884499629
 20
-10857.13488374287
 30
0.0
 11
11948.942884499629
 21
-11203.854903828869
 31
0.0
  0
LINE
  5
C36E
  8
0
  6
BYBLOCK
 10
13128.942884499629
 20
-10857.13488374287
 30
0.0
 11
13128.942884499629
 21
-11203.854903828869
 31
0.0
  0
LINE
  5
C36F
  8
0
  6
BYBLOCK
 10
12058.942884499629
 20
-11148.854903828869
 30
0.0
 11
13018.942884499629
 21
-11148.854903828869
 31
0.0
  0
INSERT
  5
C370
  8
0
  6
BYBLOCK
  2
_OPEN
 10
11948.942884499629
 20
-11148.854903828869
 30
0.0
 41
110.0
 42
110.0
 43
110.0
 50
180.0
  0
INSERT
  5
C371
  8
0
  6
BYBLOCK
  2
_OPEN
 10
13128.942884499629
 20
-11148.854903828869
 30
0.0
 41
110.0
 42
110.0
 43
110.0
  0
TEXT
  5
C372
  8
SP
 10
12296.319968437359
 20
-11093.854903828869
 30
0.0
 40
137.5
  1
1180
 51
15.0
  0
POINT
  5
C373
  8
DEFPOINTS
  6
BYBLOCK
 62
     0
 10
11948.942884499629
 20
-10802.13488374287
 30
0.0
  0
POINT
  5
C374
  8
DEFPOINTS
  6
BYBLOCK
 62
     0
 10
13128.942884499629
 20
-10802.13488374287
 30
0.0
  0
POINT
  5
C375
  8
DEFPOINTS
  6
BYBLOCK
 62
     0
 10
13128.942884499629
 20
-11148.854903828869
 30
0.0
  0
ENDBLK
  5
C376
  8
0
  0
BLOCK
  8
0
  2
*D16
 70
     1
 10
0.0
 20
0.0
 30
0.0
  3
*D16
  1

  0
LINE
  5
C37A
  8
0
  6
BYBLOCK
 10
8928.942884499631
 20
-10857.13488374286
 30
0.0
 11
8928.942884499631
 21
-11203.854903828869
 31
0.0
  0
LINE
  5
C37B
  8
0
  6
BYBLOCK
 10
11948.942884499629
 20
-10857.13488374287
 30
0.0
 11
11948.942884499629
 21
-11203.854903828869
 31
0.0
  0
LINE
  5
C37C
  8
0
  6
BYBLOCK
 10
9038.9428844996328
 20
-11148.854903828869
 30
0.0
 11
11838.942884499629
 21
-11148.854903828869
 31
0.0
  0
INSERT
  5
C37D
  8
0
  6
BYBLOCK
  2
_OPEN
 10
8928.942884499631
 20
-11148.854903828869
 30
0.0
 41
110.0
 42
110.0
 43
110.0
 50
180.0
  0
INSERT
  5
C37E
  8
0
  6
BYBLOCK
  2
_OPEN
 10
11948.942884499629
 20
-11148.854903828869
 30
0.0
 41
110.0
 42
110.0
 43
110.0
  0
TEXT
  5
C37F
  8
SP
 10
10181.5332822819
 20
-11093.854903828869
 30
0.0
 40
137.5
  1
3020
 51
15.0
  0
POINT
  5
C380
  8
DEFPOINTS
  6
BYBLOCK
 62
     0
 10
8928.942884499631
 20
-10802.13488374286
 30
0.0
  0
POINT
  5
C381
  8
DEFPOINTS
  6
BYBLOCK
 62
     0
 10
11948.942884499629
 20
-10802.13488374287
 30
0.0
  0
POINT
  5
C382
  8
DEFPOINTS
  6
BYBLOCK
 62
     0
 10
11948.942884499629
 20
-11148.854903828869
 30
0.0
  0
ENDBLK
  5
C383
  8
0
  0
BLOCK
  8
0
  2
*D17
 70
     1
 10
0.0
 20
0.0
 30
0.0
  3
*D17
  1

  0
LINE
  5
C387
  8
0
  6
BYBLOCK
 10
8928.942884499631
 20
-10857.13488374286
 30
0.0
 11
8928.942884499631
 21
-11532.38305444039
 31
0.0
  0
LINE
  5
C388
  8
0
  6
BYBLOCK
 10
13128.942884499629
 20
-10857.13488374287
 30
0.0
 11
13128.942884499629
 21
-11532.38305444039
 31
0.0
  0
LINE
  5
C389
  8
0
  6
BYBLOCK
 10
9038.9428844996328
 20
-11477.38305444039
 30
0.0
 11
13018.942884499629
 21
-11477.38305444039
 31
0.0
  0
INSERT
  5
C38A
  8
0
  6
BYBLOCK
  2
_OPEN
 10
8928.942884499631
 20
-11477.38305444039
 30
0.0
 41
110.0
 42
110.0
 43
110.0
 50
180.0
  0
INSERT
  5
C38B
  8
0
  6
BYBLOCK
  2
_OPEN
 10
13128.942884499629
 20
-11477.38305444039
 30
0.0
 41
110.0
 42
110.0
 43
110.0
  0
TEXT
  5
C38C
  8
SP
 10
10768.90163842766
 20
-11422.38305444039
 30
0.0
 40
137.5
  1
4200
 51
15.0
  0
POINT
  5
C38D
  8
DEFPOINTS
  6
BYBLOCK
 62
     0
 10
8928.942884499631
 20
-10802.13488374286
 30
0.0
  0
POINT
  5
C38E
  8
DEFPOINTS
  6
BYBLOCK
 62
     0
 10
13128.942884499629
 20
-10802.13488374287
 30
0.0
  0
POINT
  5
C38F
  8
DEFPOINTS
  6
BYBLOCK
 62
     0
 10
13128.942884499629
 20
-11477.38305444039
 30
0.0
  0
ENDBLK
  5
C390
  8
0
  0
BLOCK
  8
0
  2
*D18
 70
     1
 10
0.0
 20
0.0
 30
0.0
  3
*D18
  1

  0
LINE
  5
C394
  8
0
  6
BYBLOCK
 10
17049.627944492229
 20
-6455.5233385909278
 30
0.0
 11
17049.627944492229
 21
-6423.4830211002563
 31
0.0
  0
LINE
  5
C395
  8
0
  6
BYBLOCK
 10
15149.627944492229
 20
-8787.1348837428741
 30
0.0
 11
15149.627944492229
 21
-6423.4830211002563
 31
0.0
  0
LINE
  5
C396
  8
0
  6
BYBLOCK
 10
16939.627944492229
 20
-6478.4830211002563
 30
0.0
 11
15259.627944492229
 21
-6478.4830211002563
 31
0.0
  0
INSERT
  5
C397
  8
0
  6
BYBLOCK
  2
_OPEN
 10
17049.627944492229
 20
-6478.4830211002563
 30
0.0
 41
110.0
 42
110.0
 43
110.0
  0
INSERT
  5
C398
  8
0
  6
BYBLOCK
  2
_OPEN
 10
15149.627944492229
 20
-6478.4830211002563
 30
0.0
 41
110.0
 42
110.0
 43
110.0
 50
180.0
  0
TEXT
  5
C399
  8
SP
 10
15772.41905988385
 20
-6364.554449671683
 30
0.0
 40
137.5
  1
(1900)
 51
15.0
  0
POINT
  5
C39A
  8
DEFPOINTS
  6
BYBLOCK
 62
     0
 10
17049.627944492229
 20
-6510.5233385909269
 30
0.0
  0
POINT
  5
C39B
  8
DEFPOINTS
  6
BYBLOCK
 62
     0
 10
15149.627944492229
 20
-8842.1348837428741
 30
0.0
  0
POINT
  5
C39C
  8
DEFPOINTS
  6
BYBLOCK
 62
     0
 10
15149.627944492229
 20
-6478.4830211002563
 30
0.0
  0
ENDBLK
  5
C39D
  8
0
  0
BLOCK
  8
0
  2
*D19
 70
     1
 10
0.0
 20
0.0
 30
0.0
  3
*D19
  1

  0
LINE
  5
C3A1
  8
0
  6
BYBLOCK
 10
17049.627944492229
 20
-6455.5233385909278
 30
0.0
 11
17049.627944492229
 21
-6423.4830211002563
 31
0.0
  0
LINE
  5
C3A2
  8
0
  6
BYBLOCK
 10
18619.82794449223
 20
-9357.1348837428686
 30
0.0
 11
18619.82794449223
 21
-6423.4830211002563
 31
0.0
  0
LINE
  5
C3A3
  8
0
  6
BYBLOCK
 10
17159.627944492229
 20
-6478.4830211002563
 30
0.0
 11
18509.82794449223
 21
-6478.4830211002563
 31
0.0
  0
INSERT
  5
C3A4
  8
0
  6
BYBLOCK
  2
_OPEN
 10
17049.627944492229
 20
-6478.4830211002563
 30
0.0
 41
110.0
 42
110.0
 43
110.0
 50
180.0
  0
INSERT
  5
C3A5
  8
0
  6
BYBLOCK
  2
_OPEN
 10
18619.82794449223
 20
-6478.4830211002563
 30
0.0
 41
110.0
 42
110.0
 43
110.0
  0
TEXT
  5
C3A6
  8
SP
 10
17507.519059883849
 20
-6364.554449671683
 30
0.0
 40
137.5
  1
(1570)
 51
15.0
  0
POINT
  5
C3A7
  8
DEFPOINTS
  6
BYBLOCK
 62
     0
 10
17049.627944492229
 20
-6510.5233385909269
 30
0.0
  0
POINT
  5
C3A8
  8
DEFPOINTS
  6
BYBLOCK
 62
     0
 10
18619.82794449223
 20
-9412.1348837428686
 30
0.0
  0
POINT
  5
C3A9
  8
DEFPOINTS
  6
BYBLOCK
 62
     0
 10
18619.82794449223
 20
-6478.4830211002563
 30
0.0
  0
ENDBLK
  5
C3AA
  8
0
  0
BLOCK
  8
0
  2
_DOT
 70
     0
 10
0.0
 20
0.0
 30
0.0
  3
_DOT
  1

  0
POLYLINE
  5
C3BC
  8
0
  6
BYBLOCK
 62
     0
 66
     1
 10
0.0
 20
0.0
 30
0.0
 70
     1
 40
0.5
 41
0.5
  0
VERTEX
  5
C43C
  8
0
  6
BYBLOCK
 62
     0
 10
-0.25
 20
0.0
 30
0.0
 42
1.0
  0
VERTEX
  5
C43D
  8
0
  6
BYBLOCK
 62
     0
 10
0.25
 20
0.0
 30
0.0
 42
1.0
  0
SEQEND
  5
C43E
  8
0
  6
BYBLOCK
 62
     0
  0
LINE
  5
C3C0
  8
0
  6
BYBLOCK
 62
     0
 10
-0.5
 20
0.0
 30
0.0
 11
-1.0
 21
0.0
 31
0.0
  0
ENDBLK
  5
C3C1
  8
0
  0
BLOCK
  8
0
  2
*D21
 70
     1
 10
0.0
 20
0.0
 30
0.0
  3
*D21
  1

  0
LINE
  5
C3C4
  8
0
  6
BYBLOCK
 10
13183.942884499629
 20
-10822.13488374287
 30
0.0
 11
14057.787490608791
 21
-10822.13488374287
 31
0.0
  0
LINE
  5
C3C5
  8
0
  6
BYBLOCK
 10
13183.942884499629
 20
-11002.13488374287
 30
0.0
 11
14057.787490608791
 21
-11002.13488374287
 31
0.0
  0
LINE
  5
C3C6
  8
0
  6
BYBLOCK
 10
14002.787490608791
 20
-10712.13488374287
 30
0.0
 11
14002.787490608791
 21
-10602.13488374287
 31
0.0
  0
LINE
  5
C3C7
  8
0
  6
BYBLOCK
 10
14002.787490608791
 20
-11112.13488374287
 30
0.0
 11
14002.787490608791
 21
-11669.22817809861
 31
0.0
  0
LINE
  5
C3C8
  8
0
  6
BYBLOCK
 10
14002.787490608791
 20
-10822.13488374287
 30
0.0
 11
14002.787490608791
 21
-11002.13488374287
 31
0.0
  0
INSERT
  5
C3C9
  8
0
  6
BYBLOCK
  2
_DOT
 10
14002.787490608791
 20
-10822.13488374287
 30
0.0
 41
110.0
 42
110.0
 43
110.0
 50
270.0
  0
INSERT
  5
C3CA
  8
0
  6
BYBLOCK
  2
_OPEN
 10
14002.787490608791
 20
-11002.13488374287
 30
0.0
 41
110.0
 42
110.0
 43
110.0
 50
90.0
  0
TEXT
  5
C3CB
  8
SP
 10
13947.78749060878
 20
-11635.923494602061
 30
0.0
 40
137.5
  1
180
 50
90.0
 51
15.0
  0
POINT
  5
C3CC
  8
DEFPOINTS
  6
BYBLOCK
 62
     0
 10
13128.942884499629
 20
-10822.13488374287
 30
0.0
  0
POINT
  5
C3CD
  8
DEFPOINTS
  6
BYBLOCK
 62
     0
 10
13128.942884499629
 20
-11002.13488374287
 30
0.0
  0
POINT
  5
C3CE
  8
DEFPOINTS
  6
BYBLOCK
 62
     0
 10
14002.787490608791
 20
-11002.13488374287
 30
0.0
  0
ENDBLK
  5
C3CF
  8
0
  0
BLOCK
  8
0
  2
_NONE
 70
     0
 10
0.0
 20
0.0
 30
0.0
  3
_NONE
  1

  0
CIRCLE
  5
C3D3
  8
0
  6
BYBLOCK
 62
     0
 10
0.0
 20
0.0
 30
0.0
 40
0.25
  0
ENDBLK
  5
C3D4
  8
0
  0
BLOCK
  8
0
  2
*D23
 70
     1
 10
0.0
 20
0.0
 30
0.0
  3
*D23
  1

  0
LINE
  5
C43F
  8
SP
 10
14006.996024885089
 20
-10942.13488374287
 30
0.0
 11
14006.996024885089
 21
-10802.13488374287
 31
0.0
  0
TEXT
  8
0
  40
137.5
  5
C444
  72
0
  71
0
 10
14183.8
 20
-11115.5
 30
0.000000
  1
(140)
  0
POINT
  5
C441
  8
DEFPOINTS
 62
     0
 10
13128.942884499629
 20
-10942.13488374287
 30
0.0
  0
POINT
  5
C442
  8
DEFPOINTS
 62
     0
 10
13128.942884499629
 20
-10802.13488374287
 30
0.0
  0
POINT
  5
C443
  8
DEFPOINTS
 62
     0
 10
14006.996024885089
 20
-10802.13488374287
 30
0.0
  0
ENDBLK
  5
C3EB
  8
0
  0
ENDSEC
  0
SECTION
  2
ENTITIES
  0
LINE
  5
7AB6
  8
FUTO
 10
9898.9428844996364
 20
-10552.13488374287
 30
0.0
 11
9828.9428844996364
 21
-10552.13488374286
 31
0.0
  0
LINE
  5
7AB7
  8
FUTO
 10
9198.9428844996364
 20
-10552.13488374287
 30
0.0
 11
9198.9428844996364
 21
-10622.13488374287
 31
0.0
  0
LINE
  5
7AB8
  8
FUTO
 10
9898.9428844996364
 20
-10552.13488374287
 30
0.0
 11
9898.9428844996364
 21
-10622.13488374287
 31
0.0
  0
LINE
  5
7AC0
  8
FUTO
 10
9278.9428844996364
 20
-4198.2900275283591
 30
0.0
 11
9818.9428844996364
 21
-4198.2900275283591
 31
0.0
  0
LINE
  5
7AC6
  8
FUTO
 10
9818.9428844996364
 20
-5101.7900275283591
 30
0.0
 11
9278.9428844996364
 21
-5101.7900275283591
 31
0.0
  0
LINE
  5
7AFE
  8
FUTO
 10
9506.4428844996364
 20
-5168.2900275283591
 30
0.0
 11
9506.4428844996364
 21
-5101.7900275283591
 31
0.0
  0
LINE
  5
7AFF
  8
FUTO
 10
9591.4428844996364
 20
-5101.7900275283591
 30
0.0
 11
9591.4428844996364
 21
-5168.2900275283591
 31
0.0
  0
ARC
  5
7B35
  8
FUTO
 10
9548.9428844996364
 20
-10272.13488374287
 30
0.0
 40
287.5
 50
329.65273451599268
 51
210.3472655873382
  0
LINE
  5
7B36
  8
CT
 10
9548.9428844996382
 20
-11122.13488374286
 30
0.0
 11
9548.9428844996364
 21
-9888.972563742871
 31
0.0
  0
LINE
  5
7B38
  8
CT
 10
9228.9428844996364
 20
-10272.13488374287
 30
0.0
 11
9868.9428844996382
 21
-10272.13488374287
 31
0.0
  0
LINE
  5
7B3B
  8
FUTO
 10
9278.5741644996378
 20
-10430.88834674287
 30
0.0
 11
9300.8364074996352
 21
-10417.39129774287
 31
0.0
  0
LINE
  5
7B3C
  8
FUTO
 10
9268.9428844996364
 20
-10552.13488374287
 30
0.0
 11
9268.9428844996364
 21
-10447.990675742871
 31
0.0
  0
ARC
  5
7B3E
  8
FUTO
 10
9288.9428844996364
 20
-10447.990675742871
 30
0.0
 40
20.0
 50
121.227401
 51
180.0
  0
LINE
  5
7B4A
  8
FUTO
 10
9828.9428844996364
 20
-10552.13488374287
 30
0.0
 11
9828.9428844996364
 21
-10447.990675742871
 31
0.0
  0
LINE
  5
7B57
  8
FUTO
 10
9819.3116054996353
 20
-10430.88834674287
 30
0.0
 11
9797.0493621520436
 21
-10417.391297532129
 31
0.0
  0
ARC
  5
7B5A
  8
FUTO
 10
9808.9428844996364
 20
-10447.990675742871
 30
0.0
 40
20.0
 50
0.0
 51
58.772598999999992
  0
CIRCLE
  5
7B75
  8
SL
 10
9548.9428844996364
 20
-10272.13488374287
 30
0.0
 40
140.0
  0
LINE
  5
7B82
  8
FUTO
 10
9268.9428844996364
 20
-10552.13488374286
 30
0.0
 11
9198.9428844996364
 21
-10552.13488374287
 31
0.0
  0
LINE
  5
98B6
  8
SL
 10
15199.627944492229
 20
-9072.1348837428741
 30
0.0
 11
15339.627944492229
 21
-9072.1348837428759
 31
0.0
  0
LINE
  5
98B7
  8
SL
 10
15199.627944492229
 20
-9872.1348837428777
 30
0.0
 11
15339.627944492229
 21
-9872.1348837428777
 31
0.0
  0
LINE
  5
98B8
  8
SL
 10
15339.627944492229
 20
-10132.13488374287
 30
0.0
 11
15199.627944492229
 21
-10132.13488374287
 31
0.0
  0
LINE
  5
98B9
  8
SL
 10
15339.627944492229
 20
-10412.13488374286
 30
0.0
 11
15199.627944492229
 21
-10412.13488374286
 31
0.0
  0
LINE
  5
98BA
  8
SL
 10
15199.627944492229
 20
-9072.1348837428741
 30
0.0
 11
15199.627944492229
 21
-10412.13488374286
 31
0.0
  0
LINE
  5
98BC
  8
SL
 10
15339.627944492229
 20
-9072.1348837428741
 30
0.0
 11
15339.627944492229
 21
-10412.13488374286
 31
0.0
  0
LINE
  5
98C4
  8
FUTO
 10
9818.9428844996364
 20
-5101.7900275283591
 30
0.0
 11
9818.9428844996364
 21
-4198.2900275283591
 31
0.0
  0
LINE
  5
98C5
  8
FUTO
 10
9278.9428844996364
 20
-5101.7900275283591
 30
0.0
 11
9278.9428844996364
 21
-4198.2900275283591
 31
0.0
  0
LINE
  5
98C6
  8
FUTO
 10
15406.127944492229
 20
-10542.13488374286
 30
0.0
 11
15719.627944492229
 21
-10542.13488374287
 31
0.0
  0
LINE
  5
98C7
  8
FUTO
 10
15406.127944492229
 20
-10002.13488374286
 30
0.0
 11
15719.627944492229
 21
-10002.13488374286
 31
0.0
  0
LINE
  5
98CA
  8
FUTO
 10
15406.127944492229
 20
-10542.13488374286
 30
0.0
 11
15406.127944492229
 21
-10002.13488374286
 31
0.0
  0
LINE
  5
98CC
  8
FUTO
 10
15339.627944492229
 20
-10229.63488374286
 30
0.0
 11
15406.127944492229
 21
-10229.63488374286
 31
0.0
  0
LINE
  5
98CD
  8
FUTO
 10
15406.127944492229
 20
-10314.63488374286
 30
0.0
 11
15339.627944492229
 21
-10314.63488374286
 31
0.0
  0
LINE
  5
98E8
  8
SL
 10
9378.9428844996364
 20
-5118.29002752836
 30
0.0
 11
9328.9428844996364
 21
-5118.29002752836
 31
0.0
  0
LINE
  5
A0E7
  8
4
 10
17961.166697834029
 20
-12040.48813421171
 30
0.0
 11
17961.166697834029
 21
-13140.488134211701
 31
0.0
  0
LINE
  5
A0E8
  8
4
 10
14111.166697834031
 20
-12040.48813421171
 30
0.0
 11
14111.166697834031
 21
-13140.488134211701
 31
0.0
  0
LINE
  5
A0E9
  8
4
 10
11361.166697834031
 20
-12040.48813421171
 30
0.0
 11
11361.166697834031
 21
-13140.488134211701
 31
0.0
  0
LINE
  5
A0EC
  8
4
 10
11361.166697834031
 20
-13140.48813421171
 30
0.0
 11
17961.166697834029
 21
-13140.48813421171
 31
0.0
  0
LINE
  5
A0ED
  8
4
 10
11361.166697834031
 20
-12590.48813421171
 30
0.0
 11
17961.166697834029
 21
-12590.48813421171
 31
0.0
  0
TEXT
  5
A0EE
  8
4
 10
11572.92814249199
 20
-12417.001491945341
 30
0.0
 40
275.0
  1
機器名称
  0
TEXT
  5
A0EF
  8
4
 10
11560.586280970419
 20
-13021.439772185649
 30
0.0
 40
275.0
  1
機器型番
  0
TEXT
  5
A0F0
  8
4
 10
14274.28609399308
 20
-12457.343074152201
 30
0.0
 40
233.75
  1
ミツヤ多翼送風機
  0
TEXT
  5
A0F1
  8
4
 10
14312.76642355418
 20
-13046.110420672019
 30
0.0
 40
275.0
  1
MF#12-5
  0
TEXT
  5
A0F3
  8
4
 10
12185.977151365751
 20
-1128.5605847023901
 30
0.0
 40
297.0
  1
床置防振ベット
  0
TEXT
  5
A0F4
  8
4
 10
9429.0032408987445
 20
-301.07384293508937
 30
0.0
 40
396.0
  1
遠心式両吸込両持多翼ファン
  0
LINE
  5
A0F5
  8
4
 10
9161.1666978340363
 20
-655.67106357480043
 30
0.0
 11
17961.166697834029
 21
-655.67106357480043
 31
0.0
  0
LINE
  5
A0F6
  8
4
 10
9161.1666978340363
 20
444.32893642519952
 30
0.0
 11
17961.166697834029
 21
444.32893642519952
 31
0.0
  0
LINE
  5
A0F7
  8
4
 10
11361.166697834031
 20
-12040.48813421171
 30
0.0
 11
17961.166697834029
 21
-12040.48813421171
 31
0.0
  0
LINE
  5
A0F8
  8
4
 10
9161.1666978340363
 20
444.32893642519952
 30
0.0
 11
9161.1666978340363
 21
-655.67106357480043
 31
0.0
  0
TEXT
  5
A0F9
  8
4
 10
9788.7535740308977
 20
-1134.6620855263391
 30
0.0
 40
297.0
  1
右回転右横向
  0
TEXT
  5
A0FA
  8
4
 10
15865.499273705131
 20
645.91673619297035
 30
0.0
 40
308.0
  1
No.
  0
TEXT
  5
A0FB
  8
4
 10
14998.295042134099
 20
-1128.5605847023901
 30
0.0
 40
297.0
  1
縮尺：1/55
  0
LINE
  5
A0FC
  8
4
 10
17961.166697834029
 20
444.32893642519952
 30
0.0
 11
17961.166697834029
 21
-655.67106357480043
 31
0.0
  0
LINE
  5
A0FD
  8
4
 10
19336.166697834029
 20
1987.580787968772
 30
0.0
 11
19336.166697834029
 21
1987.580787968772
 31
0.0
  0
LINE
  5
A0FE
  8
4
 10
15709.56252081329
 20
509.53049515847852
 30
0.0
 11
15709.56252081329
 21
1089.1682264924109
 31
0.0
  0
LINE
  5
A0FF
  8
4
 10
15709.56252081329
 20
1089.1682264924109
 30
0.0
 11
17961.166697834029
 21
1089.1682264924109
 31
0.0
  0
LINE
  5
A100
  8
4
 10
17961.166697834029
 20
1089.1682264924109
 30
0.0
 11
17961.166697834029
 21
509.53049515847852
 31
0.0
  0
LINE
  5
A101
  8
4
 10
17961.166697834029
 20
509.53049515847852
 30
0.0
 11
15709.56252081329
 21
509.53049515847852
 31
0.0
  0
LINE
  5
A102
  8
4
 10
7786.1666978340372
 20
-14237.419212031229
 30
0.0
 11
7786.1666978340372
 21
1987.580787968772
 31
0.0
  0
LINE
  5
A103
  8
4
 10
7786.1666978340372
 20
1987.580787968772
 30
0.0
 11
19336.166697834029
 21
1987.580787968772
 31
0.0
  0
LINE
  5
A104
  8
4
 10
19336.166697834029
 20
1987.580787968772
 30
0.0
 11
19336.166697834029
 21
-14237.419212031229
 31
0.0
  0
LINE
  5
A105
  8
4
 10
19336.166697834029
 20
-14237.419212031229
 30
0.0
 11
7786.1666978340372
 21
-14237.419212031229
 31
0.0
  0
LINE
  5
B009
  8
FUTO
 10
13128.942884499629
 20
-10622.13488374287
 30
0.0
 11
8928.942884499631
 21
-10622.13488374287
 31
0.0
  0
LINE
  5
B00A
  8
FUTO
 10
13128.942884499629
 20
-10802.13488374287
 30
0.0
 11
8928.942884499631
 21
-10802.13488374286
 31
0.0
  0
LINE
  5
B00B
  8
FUTO
 10
11948.942884499629
 20
-7297.8815710543568
 30
0.0
 11
13223.942884499629
 21
-7174.1348837428704
 31
0.0
  0
LINE
  5
B00D
  8
CT
 10
10076.94977588761
 20
-9322.1348837428704
 30
0.0
 11
13327.495882613581
 21
-9322.1348837428704
 31
0.0
  0
ARC
  5
B00E
  8
FUTO
 10
12095.942884499629
 20
-9175.1348837428704
 30
0.0
 40
1883.0
 50
94.477460536348545
 51
180.0
  0
LINE
  5
B00F
  8
CT
 10
11948.942884499629
 20
-7007.2486237122494
 30
0.0
 11
11948.942884499629
 21
-11122.13488374287
 31
0.0
  0
LINE
  5
B013
  8
FUTO
 10
13148.942884499629
 20
-7181.4141006435466
 30
0.0
 11
13148.942884499629
 21
-9234.1348837428704
 31
0.0
  0
LINE
  5
B014
  8
FUTO
 10
13223.942884499629
 20
-7095.1348837428714
 30
0.0
 11
13223.942884499629
 21
-9313.1348837428686
 31
0.0
  0
LINE
  5
B019
  8
FUTO
 10
13125.122152588359
 20
-9234.1348837428704
 30
0.0
 11
13223.942884499629
 21
-9234.1348837428704
 31
0.0
  0
LINE
  5
B029
  8
CT
 10
17049.627944492229
 20
-6874.1664440670711
 30
0.0
 11
17049.627944492229
 21
-11122.13488374287
 31
0.0
  0
LINE
  5
B02A
  8
CT
 10
15149.627944492229
 20
-9322.1348837428704
 30
0.0
 11
18678.179166859431
 21
-9322.1348837428704
 31
0.0
  0
LINE
  5
B02B
  8
FUTO
 10
18453.627944492218
 20
-10622.13488374286
 30
0.0
 11
15203.627944492229
 21
-10622.13488374286
 31
0.0
  0
LINE
  5
B02C
  8
FUTO
 10
18453.627944492229
 20
-10802.13488374286
 30
0.0
 11
15203.627944492229
 21
-10802.13488374286
 31
0.0
  0
LINE
  5
B02D
  8
FUTO
 10
15645.627944492229
 20
-7095.1348837428714
 30
0.0
 11
18453.627944492229
 21
-7095.1348837428714
 31
0.0
  0
LINE
  5
B02E
  8
FUTO
 10
15645.627944492229
 20
-9313.1348837428686
 30
0.0
 11
18453.627944492229
 21
-9313.1348837428704
 31
0.0
  0
LINE
  5
B02F
  8
FUTO
 10
15724.627944492229
 20
-7170.1348837428714
 30
0.0
 11
15724.627944492229
 21
-9238.1348837428704
 31
0.0
  0
LINE
  5
B030
  8
FUTO
 10
18374.627944492229
 20
-7170.1348837428714
 30
0.0
 11
18374.627944492229
 21
-9238.1348837428704
 31
0.0
  0
LINE
  5
B031
  8
FUTO
 10
15645.627944492229
 20
-7095.1348837428714
 30
0.0
 11
15645.627944492229
 21
-9313.1348837428704
 31
0.0
  0
LINE
  5
B032
  8
FUTO
 10
18453.627944492229
 20
-7095.1348837428714
 30
0.0
 11
18453.627944492229
 21
-9313.1348837428704
 31
0.0
  0
LINE
  5
B033
  8
FUTO
 10
15724.627944492229
 20
-7170.1348837428723
 30
0.0
 11
18374.627944492229
 21
-7170.1348837428723
 31
0.0
  0
LINE
  5
B034
  8
FUTO
 10
15724.627944492229
 20
-9238.1348837428704
 30
0.0
 11
18374.627944492229
 21
-9238.1348837428704
 31
0.0
  0
LINE
  5
B03F
  8
FUTO
 10
18453.627944492229
 20
-10622.13488374286
 30
0.0
 11
18453.627944492229
 21
-10802.13488374287
 31
0.0
  0
LINE
  5
B044
  8
FUTO
 10
10778.942884499629
 20
-7832.1348837428704
 30
0.0
 11
10787.942884499629
 21
-7832.1348837428704
 31
0.0
  0
LINE
  5
B168
  8
FUTO
 10
18374.627944492229
 20
-9412.1348837428686
 30
0.0
 11
18619.82794449223
 21
-9412.1348837428686
 31
0.0
  0
LINE
  5
B169
  8
FUTO
 10
18374.627944492229
 20
-9662.1348837428723
 30
0.0
 11
18619.82794449223
 21
-9662.1348837428686
 31
0.0
  0
LINE
  5
B16A
  8
FUTO
 10
18619.82794449223
 20
-9412.1348837428686
 30
0.0
 11
18619.82794449223
 21
-9662.1348837428723
 31
0.0
  0
LINE
  5
B171
  8
FUTO
 10
18374.627944492229
 20
-9313.1348837428723
 30
0.0
 11
18374.627944492229
 21
-10622.13488374287
 31
0.0
  0
LINE
  5
B175
  8
FUTO
 10
15724.627944492229
 20
-9313.1348837428686
 30
0.0
 11
15724.627944492229
 21
-10622.13488374287
 31
0.0
  0
LINE
  5
B189
  8
FUTO
 10
15481.42794449223
 20
-9662.1348837428723
 30
0.0
 11
15724.627944492229
 21
-9662.1348837428723
 31
0.0
  0
LINE
  5
B18A
  8
FUTO
 10
15481.42794449223
 20
-9412.1348837428686
 30
0.0
 11
15481.42794449223
 21
-9662.1348837428723
 31
0.0
  0
CIRCLE
  5
B18C
  8
SL
 10
11948.942884499629
 20
-9322.1348837428704
 30
0.0
 40
400.0
  0
LINE
  5
B196
  8
FUTO
 10
15203.627944492229
 20
-10622.13488374286
 30
0.0
 11
15203.627944492229
 21
-10802.13488374287
 31
0.0
  0
LINE
  5
B1DD
  8
FUTO
 10
15339.62794449222
 20
-9264.6348837428704
 30
0.0
 11
15645.627944492229
 21
-9264.6348837428704
 31
0.0
  0
LINE
  5
B1DE
  8
FUTO
 10
15339.62794449222
 20
-9379.6348837428723
 30
0.0
 11
15724.627944492229
 21
-9379.6348837428723
 31
0.0
  0
LINE
  5
B1EA
  8
SP
 10
17049.627944492229
 20
-6510.5233385909269
 30
0.0
 11
17049.627944492229
 21
-6450.523338590926
 31
0.0
  0
ARC
  5
B1F2
  8
FUTO
 10
11801.942884499629
 20
-9175.1348837428704
 30
0.0
 40
1589.0
 50
179.9999999999998
 51
245.59333778822341
  0
ARC
  5
B1FA
  8
FUTO
 10
12071.442884499629
 20
-9444.6348837428686
 30
0.0
 40
1074.5
 50
0.0
 51
11.297600230598039
  0
ARC
  5
B32D
  8
FUTO
 10
11826.442884499629
 20
-9444.6348837428686
 30
0.0
 40
1319.5
 50
296.8257011588347
 51
0.0
  0
LINE
  5
C236
  8
FUTO
 10
15481.42794449223
 20
-9412.1348837428686
 30
0.0
 11
15724.627944492229
 21
-9412.1348837428704
 31
0.0
  0
LINE
  5
C237
  8
FUTO
 10
15724.627944492229
 20
-9238.1348837428704
 30
0.0
 11
18374.627944492229
 21
-7170.1348837428723
 31
0.0
  0
LINE
  5
C238
  8
FUTO
 10
15724.627944492229
 20
-7170.1348837428723
 30
0.0
 11
18374.627944492229
 21
-9238.1348837428704
 31
0.0
  0
LINE
  5
C239
  8
SL
 10
15149.627944492229
 20
-8842.1348837428741
 30
0.0
 11
15149.627944492229
 21
-10492.13488374287
 31
0.0
  0
CIRCLE
  5
C26F
  8
FUTO
 10
11948.942884499629
 20
-9322.1348837428704
 30
0.0
 40
1075.0
  0
CIRCLE
  5
C270
  8
FUTO
 10
11948.942884499629
 20
-9322.1348837428704
 30
0.0
 40
1000.0
  0
LINE
  5
C271
  8
FUTO
 10
13128.942884499629
 20
-10802.13488374287
 30
0.0
 11
13128.942884499629
 21
-10622.13488374287
 31
0.0
  0
LINE
  5
C272
  8
FUTO
 10
8928.9428844996364
 20
-10802.13488374287
 30
0.0
 11
8928.9428844996364
 21
-10622.13488374287
 31
0.0
  0
ARC
  5
C275
  8
SL
 10
11948.942884499629
 20
-9322.1348837428704
 30
0.0
 40
480.0
 50
285.8141565113641
 51
117.3764643865713
  0
ARC
  5
C276
  8
SL
 10
9548.9428844996364
 20
-10272.13488374287
 30
0.0
 40
220.0
 50
117.3764643865712
 51
285.81415651136427
  0
LINE
  5
C277
  8
SL
 10
9447.7791725010047
 20
-10076.77392711474
 30
0.0
 11
11728.2220583208
 21
-8895.8927965542262
 31
0.0
  0
LINE
  5
C278
  8
SL
 10
9484.5659768641435
 20
-10147.81427497951
 30
0.0
 11
11765.00886268393
 21
-8966.9331444189993
 31
0.0
  0
LINE
  5
C279
  8
SL
 10
9587.0954018912271
 20
-10406.8359803111
 30
0.0
 11
12057.95007704704
 21
-9706.9951596521078
 31
0.0
  0
LINE
  5
C27A
  8
SL
 10
9608.8968404007101
 20
-10483.808035492941
 30
0.0
 11
12079.75151555652
 21
-9783.9672148339541
 31
0.0
  0
LINE
  5
C27B
  8
CT
 10
15724.627944492229
 20
-10272.13488374287
 30
0.0
 11
15149.627944492229
 21
-10272.13488374286
 31
0.0
  0
LINE
  5
C27C
  8
SL
 10
15149.627944492229
 20
-8842.1348837428704
 30
0.0
 11
15389.627944492229
 21
-8842.1348837428704
 31
0.0
  0
LINE
  5
C27D
  8
SL
 10
15389.627944492229
 20
-10492.13488374286
 30
0.0
 11
15149.627944492229
 21
-10492.13488374287
 31
0.0
  0
LINE
  5
C27E
  8
SL
 10
15389.627944492229
 20
-8842.1348837428741
 30
0.0
 11
15389.627944492229
 21
-8892.1348837428668
 31
0.0
  0
LINE
  5
C282
  8
SL
 10
15389.627944492229
 20
-10442.13488374286
 30
0.0
 11
15389.627944492229
 21
-10492.13488374287
 31
0.0
  0
LINE
  5
C283
  8
FUTO
 10
13128.942884499629
 20
-5304.2900275283573
 30
0.0
 11
8928.942884499631
 21
-5304.2900275283528
 31
0.0
  0
LINE
  5
C284
  8
FUTO
 10
13128.942884499629
 20
-5304.2900275283573
 30
0.0
 11
13128.94288449964
 21
-4783.2900275283582
 31
0.0
  0
LINE
  5
C285
  8
FUTO
 10
13128.942884499629
 20
-2054.2900275283569
 30
0.0
 11
10768.942884499629
 21
-2054.2900275283569
 31
0.0
  0
LINE
  5
C286
  8
FUTO
 10
10768.942884499629
 20
-2054.2900275283569
 30
0.0
 11
10768.942884499629
 21
-2133.2900275283569
 31
0.0
  0
LINE
  5
C287
  8
FUTO
 10
8928.942884499631
 20
-5304.2900275283528
 30
0.0
 11
8928.942884499631
 21
-4004.2900275283532
 31
0.0
  0
LINE
  5
C288
  8
FUTO
 10
8928.942884499631
 20
-4004.2900275283532
 30
0.0
 11
10212.942884499629
 21
-4004.2900275283541
 31
0.0
  0
LINE
  5
C28B
  8
CT
 10
11948.942884499629
 20
-1951.2556092883101
 30
0.0
 11
11948.942884499629
 21
-5358.2900275283582
 31
0.0
  0
LINE
  5
C28C
  8
CT
 10
9548.9428844996364
 20
-5358.2900275283591
 30
0.0
 11
9548.9428844996328
 21
-4163.4583753300858
 31
0.0
  0
LINE
  5
C28D
  8
CT
 10
13312.12048167865
 20
-3458.2900275283569
 30
0.0
 11
10090.838458026319
 21
-3458.2900275283569
 31
0.0
  0
LINE
  5
C28E
  8
SL
 10
12428.942884499629
 20
-5358.2900275283582
 30
0.0
 11
9328.9428844996364
 21
-5358.2900275283591
 31
0.0
  0
LINE
  5
C290
  8
SL
 10
9328.9428844996419
 20
-5358.2900275283591
 30
0.0
 11
9328.9428844996419
 21
-5118.29002752836
 31
0.0
  0
LINE
  5
C291
  8
SL
 10
12428.942884499629
 20
-5118.2900275283573
 30
0.0
 11
12428.942884499629
 21
-5358.2900275283582
 31
0.0
  0
LINE
  5
C292
  8
SL
 10
12428.942884499629
 20
-5118.2900275283573
 30
0.0
 11
12378.942884499629
 21
-5118.29002752836
 31
0.0
  0
LINE
  5
C295
  8
SL
 10
9378.9428844996419
 20
-5118.29002752836
 30
0.0
 11
9328.9428844996364
 21
-5118.29002752836
 31
0.0
  0
LINE
  5
C297
  8
SL
 10
12348.942884499629
 20
-5308.2900275283573
 30
0.0
 11
9408.9428844996346
 21
-5308.2900275283591
 31
0.0
  0
LINE
  5
C298
  8
SL
 10
12348.942884499629
 20
-5168.2900275283573
 30
0.0
 11
9408.9428844996346
 21
-5168.2900275283591
 31
0.0
  0
LINE
  5
C299
  8
SL
 10
12348.94288449964
 20
-5168.2900275283573
 30
0.0
 11
12348.942884499629
 21
-5308.2900275283591
 31
0.0
  0
LINE
  5
C29A
  8
SL
 10
11548.942884499629
 20
-5168.2900275283573
 30
0.0
 11
11548.942884499629
 21
-5308.2900275283573
 31
0.0
  0
LINE
  5
C29B
  8
SL
 10
9408.9428844996419
 20
-5308.2900275283591
 30
0.0
 11
9408.9428844996419
 21
-5168.2900275283591
 31
0.0
  0
LINE
  5
C29C
  8
SL
 10
9688.9428844996364
 20
-5308.2900275283591
 30
0.0
 11
9688.9428844996364
 21
-5168.2900275283573
 31
0.0
  0
LINE
  5
C29E
  8
FUTO
 10
13223.942884499629
 20
-4862.2900275283582
 30
0.0
 11
13223.942884499629
 21
-2054.2900275283569
 31
0.0
  0
LINE
  5
C29F
  8
FUTO
 10
10212.942884499629
 20
-4783.2900275283582
 30
0.0
 11
10212.942884499629
 21
-2133.2900275283582
 31
0.0
  0
LINE
  5
C2A0
  8
FUTO
 10
13223.942884499629
 20
-2133.2900275283569
 30
0.0
 11
10212.942884499629
 21
-2133.2900275283569
 31
0.0
  0
LINE
  5
C2A1
  8
FUTO
 10
13223.942884499629
 20
-4783.2900275283582
 30
0.0
 11
10212.942884499629
 21
-4783.2900275283582
 31
0.0
  0
LINE
  5
C2A2
  8
FUTO
 10
13128.94288449964
 20
-2133.2900275283582
 30
0.0
 11
13128.942884499629
 21
-2054.2900275283569
 31
0.0
  0
LINE
  5
C2A6
  8
FUTO
 10
13148.94288449964
 20
-4783.2900275283582
 30
0.0
 11
13148.94288449964
 21
-2133.2900275283569
 31
0.0
  0
DIMENSION
  5
C2B4
  8
SP
  2
*D1
 10
10768.942884499629
 20
-1724.618035081395
 30
0.0
 11
11948.942884499629
 21
-1600.868035081395
 31
0.0
 12
0.0
 22
318.95426177749317
 32
0.0
 70
     0
 13
13128.942884499629
 23
-2054.2900275283569
 33
0.0
 14
10768.942884499629
 24
-2054.2900275283569
 34
0.0
1001
ACAD
1000
DSTYLE
1002
{
1070
   140
1040
2.5
1070
    40
1040
55.0
1070
   147
1040
1.0
1070
   271
1070
     0
1002
}
  0
DIMENSION
  5
C2C1
  8
SP
  2
*D2
 10
8928.942884499631
 20
-1724.618035081395
 30
0.0
 11
9848.9428844996346
 21
-1600.868035081395
 31
0.0
 12
0.0
 22
318.95426177749317
 32
0.0
 70
     0
 13
10768.942884499629
 23
-2054.2900275283569
 33
0.0
 14
8928.942884499631
 24
-4004.2900275283532
 34
0.0
1001
ACAD
1000
DSTYLE
1002
{
1070
   140
1040
2.5
1070
    40
1040
55.0
1070
   147
1040
1.0
1070
   271
1070
     0
1002
}
  0
DIMENSION
  5
C2CE
  8
SP
  2
*D3
 10
13634.816922956939
 20
-5304.2900275283573
 30
0.0
 11
13511.066922956939
 21
-3679.2900275283569
 31
0.0
 12
0.0
 22
318.95426177749317
 32
0.0
 70
     0
 13
13128.942884499629
 23
-2054.2900275283569
 33
0.0
 14
13128.942884499629
 24
-5304.2900275283573
 34
0.0
 50
90.0
1001
ACAD
1000
DSTYLE
1002
{
1070
   140
1040
2.5
1070
    40
1040
55.0
1070
   147
1040
1.0
1070
   271
1070
     0
1002
}
  0
DIMENSION
  5
C2DB
  8
SP
  2
*D4
 10
8928.942884499631
 20
-5751.7633384107676
 30
0.0
 11
11028.942884499629
 21
-5628.0133384107676
 31
0.0
 12
0.0
 22
318.95426177749317
 32
0.0
 70
     0
 13
13128.942884499629
 23
-5304.2900275283573
 33
0.0
 14
8928.942884499631
 24
-5304.2900275283528
 34
0.0
1001
ACAD
1000
DSTYLE
1002
{
1070
   140
1040
2.5
1070
    40
1040
55.0
1070
   147
1040
1.0
1070
   271
1070
     0
1002
}
  0
DIMENSION
  5
C2E8
  8
SP
  2
*D5
 10
8539.7793036998482
 20
-5304.2900275283528
 30
0.0
 11
8416.0293036998482
 21
-4654.2900275283528
 31
0.0
 12
0.0
 22
318.95426177749317
 32
0.0
 70
     0
 13
8928.942884499631
 23
-4004.2900275283532
 33
0.0
 14
8928.942884499631
 24
-5304.2900275283528
 34
0.0
 50
90.0
1001
ACAD
1000
DSTYLE
1002
{
1070
   140
1040
2.5
1070
    40
1040
55.0
1070
   147
1040
1.0
1070
   271
1070
     0
1002
}
  0
DIMENSION
  5
C2F5
  8
SP
  2
*D6
 10
18374.627944492229
 20
-6781.1240615310662
 30
0.0
 11
17049.627944492229
 21
-6657.3740615310671
 31
0.0
 70
     0
 13
15724.627944492229
 23
-7170.1348837428723
 33
0.0
 14
18374.627944492229
 24
-7170.1348837428723
 34
0.0
1001
ACAD
1000
DSTYLE
1002
{
1070
   140
1040
2.5
1070
    40
1040
55.0
1070
   147
1040
1.0
1070
   271
1070
     0
1002
}
  0
DIMENSION
  5
C302
  8
SP
  2
*D7
 10
11948.942884499629
 20
-6781.1240615310662
 30
0.0
 11
12586.442884499629
 21
-6657.3740615310671
 31
0.0
 70
     0
 13
13223.942884499629
 23
-7095.1348837428714
 33
0.0
 14
11948.942884499629
 24
-7007.2486237122494
 34
0.0
1001
ACAD
1000
DSTYLE
1002
{
1070
   140
1040
2.5
1070
    40
1040
55.0
1070
   147
1040
1.0
1070
   271
1070
     0
1002
}
  0
DIMENSION
  5
C31C
  8
SP
  2
*D8
 10
10212.942884499629
 20
-6781.1240615310662
 30
0.0
 11
11080.942884499629
 21
-6657.3740615310671
 31
0.0
 70
     0
 13
11948.942884499629
 23
-7007.2486237122494
 33
0.0
 14
10212.942884499629
 24
-9175.1348837428704
 34
0.0
1001
ACAD
1000
DSTYLE
1002
{
1070
   140
1040
2.5
1070
    40
1040
55.0
1070
   147
1040
1.0
1070
   271
1070
     0
1002
}
  0
DIMENSION
  5
C329
  8
SP
  2
*D9
 10
13624.62184577542
 20
-9234.1348837428704
 30
0.0
 11
13500.87184577542
 21
-8204.1348837428704
 31
0.0
 70
     0
 13
13223.942884499629
 23
-7174.1348837428704
 33
0.0
 14
13223.942884499629
 24
-9234.1348837428704
 34
0.0
 50
90.0
1001
ACAD
1000
DSTYLE
1002
{
1070
   140
1040
2.5
1070
    40
1040
55.0
1070
   147
1040
1.0
1070
   271
1070
     0
1002
}
  0
DIMENSION
  5
C336
  8
SP
  2
*D10
 10
13998.257931004169
 20
-9322.1348837428704
 30
0.0
 11
13874.50793100416
 21
-8248.1348837428704
 31
0.0
 70
     0
 13
13223.942884499629
 23
-7174.1348837428704
 33
0.0
 14
13327.495882613581
 24
-9322.1348837428704
 34
0.0
 50
90.0
1001
ACAD
1000
DSTYLE
1002
{
1070
   140
1040
2.5
1070
    40
1040
55.0
1070
   147
1040
1.0
1070
   271
1070
     0
1002
}
  0
DIMENSION
  5
C343
  8
SP
  2
*D11
 10
13998.257931004169
 20
-10802.13488374287
 30
0.0
 11
13874.50793100416
 21
-10062.13488374287
 31
0.0
 70
     0
 13
13327.495882613581
 23
-9322.1348837428704
 33
0.0
 14
13128.942884499629
 24
-10802.13488374287
 34
0.0
 50
90.0
1001
ACAD
1000
DSTYLE
1002
{
1070
   140
1040
2.5
1070
    40
1040
55.0
1070
   147
1040
1.0
1070
   271
1070
     0
1002
}
  0
DIMENSION
  5
C350
  8
SP
  2
*D12
 10
17049.627944492229
 20
-11467.63562283916
 30
0.0
 11
16126.627944492229
 21
-11343.88562283916
 31
0.0
 12
0.0
 22
-320.0
 32
0.0
 70
     0
 13
15203.627944492229
 23
-11122.13488374287
 33
0.0
 14
17049.627944492229
 24
-11122.13488374287
 34
0.0
1001
ACAD
1000
DSTYLE
1002
{
1070
   140
1040
2.5
1070
    40
1040
55.0
1070
   147
1040
1.0
1070
   271
1070
     0
1002
}
  0
DIMENSION
  5
C35D
  8
SP
  2
*D13
 10
18453.627944492229
 20
-11467.63562283916
 30
0.0
 11
17751.627944492229
 21
-11343.88562283916
 31
0.0
 12
0.0
 22
-320.0
 32
0.0
 70
     0
 13
17049.627944492229
 23
-11122.13488374287
 33
0.0
 14
18453.627944492229
 24
-11122.13488374287
 34
0.0
1001
ACAD
1000
DSTYLE
1002
{
1070
   140
1040
2.5
1070
    40
1040
55.0
1070
   147
1040
1.0
1070
   271
1070
     0
1002
}
  0
DIMENSION
  5
C36A
  8
SP
  2
*D14
 10
18453.627944492229
 20
-11797.38305444039
 30
0.0
 11
16828.627944492229
 21
-11673.63305444039
 31
0.0
 12
0.0
 22
-320.0
 32
0.0
 70
     0
 13
15203.627944492229
 23
-11122.13488374286
 33
0.0
 14
18453.627944492229
 24
-11122.13488374286
 34
0.0
1001
ACAD
1000
DSTYLE
1002
{
1070
   140
1040
2.5
1070
    40
1040
55.0
1070
   147
1040
1.0
1070
   271
1070
     0
1002
}
  0
DIMENSION
  5
C377
  8
SP
  2
*D15
 10
13128.942884499629
 20
-11468.854903828869
 30
0.0
 11
12538.942884499629
 21
-11345.104903828869
 31
0.0
 12
0.0
 22
-320.0
 32
0.0
 70
     0
 13
11948.942884499629
 23
-11122.13488374287
 33
0.0
 14
13128.942884499629
 24
-11122.13488374287
 34
0.0
1001
ACAD
1000
DSTYLE
1002
{
1070
   140
1040
2.5
1070
    40
1040
55.0
1070
   147
1040
1.0
1070
   271
1070
     0
1002
}
  0
DIMENSION
  5
C384
  8
SP
  2
*D16
 10
11948.942884499629
 20
-11468.854903828869
 30
0.0
 11
10438.942884499629
 21
-11345.104903828869
 31
0.0
 12
0.0
 22
-320.0
 32
0.0
 70
     0
 13
8928.942884499631
 23
-11122.13488374286
 33
0.0
 14
11948.942884499629
 24
-11122.13488374287
 34
0.0
1001
ACAD
1000
DSTYLE
1002
{
1070
   140
1040
2.5
1070
    40
1040
55.0
1070
   147
1040
1.0
1070
   271
1070
     0
1002
}
  0
DIMENSION
  5
C391
  8
SP
  2
*D17
 10
13128.942884499629
 20
-11797.38305444039
 30
0.0
 11
11028.942884499629
 21
-11673.63305444039
 31
0.0
 12
0.0
 22
-320.0
 32
0.0
 70
     0
 13
8928.942884499631
 23
-11122.13488374286
 33
0.0
 14
13128.942884499629
 24
-11122.13488374287
 34
0.0
1001
ACAD
1000
DSTYLE
1002
{
1070
   140
1040
2.5
1070
    40
1040
55.0
1070
   147
1040
1.0
1070
   271
1070
     0
1002
}
  0
DIMENSION
  5
C39E
  8
SP
  2
*D18
 10
15149.627944492229
 20
-6478.4830211002563
 30
0.0
 11
16099.627944492229
 21
-6318.7211163383508
 31
0.0
 70
     0
 13
17049.627944492229
 23
-6510.5233385909269
 33
0.0
 14
15149.627944492229
 24
-8842.1348837428741
 34
0.0
1001
ACAD
1000
DSTYLE
1002
{
1070
   140
1040
2.5
1070
    40
1040
55.0
1070
     3
1000
(<>)
1070
   147
1040
1.0
1070
   271
1070
     0
1002
}
  0
DIMENSION
  5
C3AB
  8
SP
  2
*D19
 10
18619.82794449223
 20
-6478.4830211002563
 30
0.0
 11
17834.727944492231
 21
-6318.7211163383508
 31
0.0
 70
     0
 13
17049.627944492229
 23
-6510.5233385909269
 33
0.0
 14
18619.82794449223
 24
-9412.1348837428686
 34
0.0
1001
ACAD
1000
DSTYLE
1002
{
1070
   140
1040
2.5
1070
    40
1040
55.0
1070
     3
1000
(<>)
1070
   147
1040
1.0
1070
   271
1070
     0
1002
}
  0
LINE
  5
C3B2
  8
FUTO
 10
18453.627944492229
 20
-11122.13488374286
 30
0.0
 11
15203.627944492229
 21
-11122.13488374286
 31
0.0
  0
LINE
  5
C3B3
  8
FUTO
 10
18453.627944492218
 20
-10942.13488374286
 30
0.0
 11
15203.627944492229
 21
-10942.13488374286
 31
0.0
  0
LINE
  5
C3B4
  8
FUTO
 10
18453.627944492229
 20
-10942.13488374286
 30
0.0
 11
18453.627944492229
 21
-11122.13488374287
 31
0.0
  0
LINE
  5
C3B5
  8
FUTO
 10
15203.627944492229
 20
-10942.13488374286
 30
0.0
 11
15203.627944492229
 21
-11122.13488374287
 31
0.0
  0
LINE
  5
C3B6
  8
FUTO
 10
13128.942884499629
 20
-10942.13488374287
 30
0.0
 11
8928.942884499631
 21
-10942.13488374287
 31
0.0
  0
LINE
  5
C3B7
  8
FUTO
 10
13128.942884499629
 20
-11122.13488374287
 30
0.0
 11
13128.942884499629
 21
-10942.13488374287
 31
0.0
  0
LINE
  5
C3B8
  8
FUTO
 10
13128.942884499629
 20
-11122.13488374287
 30
0.0
 11
8928.942884499631
 21
-11122.13488374286
 31
0.0
  0
LINE
  5
C3B9
  8
FUTO
 10
8928.9428844996364
 20
-11122.13488374287
 30
0.0
 11
8928.9428844996364
 21
-10942.13488374287
 31
0.0
  0
DIMENSION
  5
C3D0
  8
SP
  2
*D21
 10
14002.787490608791
 20
-11122.13488374287
 30
0.0
 11
13879.03749060878
 21
-11565.68153092074
 31
0.0
 12
0.0
 22
-120.0
 32
0.0
 70
     0
 13
13128.942884499629
 23
-10942.13488374287
 33
0.0
 14
13128.942884499629
 24
-11122.13488374287
 34
0.0
 50
90.0
1001
ACAD
1000
DSTYLE
1002
{
1070
   140
1040
2.5
1070
    40
1040
55.0
1070
   147
1040
1.0
1070
   271
1070
     0
1070
     6
1000
_DOT
1002
}
  0
DIMENSION
  5
C3EC
  8
SP
  2
*D23
 10
14006.996024885089
 20
-10802.13488374287
 30
0.0
 11
14458.78173917081
 21
-10872.13488374286
 31
0.0
 70
     0
 13
13128.942884499629
 23
-10942.13488374287
 33
0.0
 14
13128.942884499629
 24
-10802.13488374287
 34
0.0
 50
90.0
1001
ACAD
1000
DSTYLE
1002
{
1070
   287
1070
     5
1070
   287
1070
     5
1070
     3
1000
(<>)
1070
    40
1040
55.0
1070
    75
1070
     1
1070
    76
1070
     1
1070
   140
1040
2.5
1070
   147
1040
1.0
1070
   271
1070
     0
1070
   279
1070
     2
1070
   289
1070
     3
1070
     6
1000
NONE
1070
     7
1000
NONE
1002
}
  0
ENDSEC
  0
EOF
