  0
SECTION
  2
HEADER
  9
$ACADVER
  1
AC1009
  9
$INSBASE
 10
0.0
 20
0.0
 30
0.0
  9
$EXTMIN
 10
7786.1666978340372
 20
-14237.419212031229
 30
0.0
  9
$EXTMAX
 10
19336.166697834029
 20
1987.580787968772
 30
0.0
  9
$LIMMIN
 10
0.0
 20
0.0
  9
$LIMMAX
 10
297.0
 20
210.0
  9
$ORTHOMODE
 70
     0
  9
$REGENMODE
 70
     1
  9
$FILLMODE
 70
     1
  9
$QTEXTMODE
 70
     0
  9
$MIRRTEXT
 70
     0
  9
$DRAGMODE
 70
     2
  9
$LTSCALE
 40
275.0
  9
$OSMODE
 70
    37
  9
$ATTMODE
 70
     1
  9
$TEXTSIZE
 40
137.5
  9
$TRACEWID
 40
0.05
  9
$TEXTSTYLE
  7
STANDARD
  9
$CLAYER
  8
SP
  9
$CELTYPE
  6
BYLAYER
  9
$CECOLOR
 62
   256
  9
$DIMSCALE
 40
55.0
  9
$DIMASZ
 40
2.0
  9
$DIMEXO
 40
1.0
  9
$DIMDLI
 40
10.0
  9
$DIMRND
 40
0.0
  9
$DIMDLE
 40
0.0
  9
$DIMEXE
 40
1.0
  9
$DIMTP
 40
0.0
  9
$DIMTM
 40
0.0
  9
$DIMTXT
 40
2.5
  9
$DIMCEN
 40
0.0
  9
$DIMTSZ
 40
0.0
  9
$DIMTOL
 70
     0
  9
$DIMLIM
 70
     0
  9
$DIMTIH
 70
     0
  9
$DIMTOH
 70
     0
  9
$DIMSE1
 70
     1
  9
$DIMSE2
 70
     1
  9
$DIMTAD
 70
     1
  9
$DIMZIN
 70
     8
  9
$DIMBLK
  1

  9
$DIMASO
 70
     1
  9
$DIMSHO
 70
     1
  9
$DIMPOST
  1
(<>)
  9
$DIMAPOST
  1

  9
$DIMALT
 70
     0
  9
$DIMALTD
 70
     2
  9
$DIMALTF
 40
0.03937
  9
$DIMLFAC
 40
1.0
  9
$DIMTOFL
 70
     1
  9
$DIMTVP
 40
0.0
  9
$DIMTIX
 70
     0
  9
$DIMSOXD
 70
     0
  9
$DIMSAH
 70
     1
  9
$DIMBLK1
  1
NONE
  9
$DIMBLK2
  1
NONE
  9
$DIMSTYLE
  2
MATSU
  9
$DIMCLRD
 70
   256
  9
$DIMCLRE
 70
   256
  9
$DIMCLRT
 70
   256
  9
$DIMTFAC
 40
1.0
  9
$DIMGAP
 40
1.0
  9
$LUNITS
 70
     2
  9
$LUPREC
 70
     4
  9
$SKETCHINC
 40
0.1
  9
$FILLETRAD
 40
0.0
  9
$AUNITS
 70
     0
  9
$AUPREC
 70
     2
  9
$MENU
  1
acad
  9
$ELEVATION
 40
0.0
  9
$PELEVATION
 40
0.0
  9
$THICKNESS
 40
0.0
  9
$LIMCHECK
 70
     0
  9
$BLIPMODE
 70
     0
  9
$CHAMFERA
 40
20.0
  9
$CHAMFERB
 40
20.0
  9
$SKPOLY
 70
     0
  9
$TDCREATE
 40
2453950.639283854
  9
$TDUPDATE
 40
2454953.8142012842
  9
$TDINDWG
 40
0.3742149074
  9
$TDUSRTIMER
 40
0.3742149074
  9
$USRTIMER
 70
     1
  9
$ANGBASE
 50
0.0
  9
$ANGDIR
 70
     0
  9
$PDMODE
 70
     0
  9
$PDSIZE
 40
1.0
  9
$PLINEWID
 40
0.0
  9
$COORDS
 70
     1
  9
$SPLFRAME
 70
     0
  9
$SPLINETYPE
 70
     6
  9
$SPLINESEGS
 70
     8
  9
$ATTDIA
 70
     0
  9
$ATTREQ
 70
     1
  9
$HANDLING
 70
 10241
  9
$HANDSEED
  5
C597
  9
$SURFTAB1
 70
     6
  9
$SURFTAB2
 70
     6
  9
$SURFTYPE
 70
     6
  9
$SURFU
 70
     6
  9
$SURFV
 70
     6
  9
$UCSNAME
  2

  9
$UCSORG
 10
0.0
 20
-0.0000000000000568
 30
0.0
  9
$UCSXDIR
 10
1.0
 20
0.0
 30
0.0
  9
$UCSYDIR
 10
0.0
 20
1.0
 30
0.0
  9
$PUCSNAME
  2

  9
$PUCSORG
 10
0.0
 20
0.0
 30
0.0
  9
$PUCSXDIR
 10
1.0
 20
0.0
 30
0.0
  9
$PUCSYDIR
 10
0.0
 20
1.0
 30
0.0
  9
$USERI1
 70
     0
  9
$USERI2
 70
     0
  9
$USERI3
 70
     0
  9
$USERI4
 70
     0
  9
$USERI5
 70
     0
  9
$USERR1
 40
0.0
  9
$USERR2
 40
0.0
  9
$USERR3
 40
0.0
  9
$USERR4
 40
0.0
  9
$USERR5
 40
0.0
  9
$WORLDVIEW
 70
     1
  9
$SHADEDGE
 70
     3
  9
$SHADEDIF
 70
    70
  9
$TILEMODE
 70
     1
  9
$MAXACTVP
 70
    16
  9
$PLIMCHECK
 70
     0
  9
$PEXTMIN
 10
1.0000000000000000E+020
 20
1.0000000000000000E+020
 30
1.0000000000000000E+020
  9
$PEXTMAX
 10
-1.0000000000000000E+020
 20
-1.0000000000000000E+020
 30
-1.0000000000000000E+020
  9
$PLIMMIN
 10
0.0
 20
0.0
  9
$PLIMMAX
 10
12.0
 20
9.0
  9
$UNITMODE
 70
     0
  9
$VISRETAIN
 70
     0
  9
$PLINEGEN
 70
     0
  9
$PSLTSCALE
 70
     0
  0
ENDSEC
  0
SECTION
  2
TABLES
  0
TABLE
  2
VPORT
 70
     2
  0
VPORT
  2
*ACTIVE
 70
     0
 10
0.0
 20
0.0
 11
1.0
 21
1.0
 12
24363.118975491299
 22
-3223.6752178698162
 13
0.0
 23
0.0
 14
5.0
 24
5.0
 15
0.0
 25
0.0
 16
0.0
 26
0.0
 36
1.0
 17
0.0
 27
0.0
 37
0.0
 40
22027.48798832282
 41
1.5051150895140659
 42
50.0
 43
0.0
 44
0.0
 50
0.0
 51
0.0
 71
     0
 72
   100
 73
     1
 74
     0
 75
     0
 76
     0
 77
     0
 78
     0
  0
ENDTAB
  0
TABLE
  2
LTYPE
 70
     3
  0
LTYPE
  2
CONTINUOUS
 70
     0
  3
Solid line
 72
    65
 73
     0
 40
0.0
  0
LTYPE
  2
CENTER
 70
     0
  3
____ _ ____ _ ____ _ ____ _ ____ _ ____ _ ____ 
 72
    65
 73
     4
 40
2.0
 49
1.25
 49
-0.25
 49
0.25
 49
-0.25
  0
LTYPE
  2
PHANTOM
 70
     0
  3
______  __  __  ______  __  __  ______  __  __ 
 72
    65
 73
     6
 40
2.5
 49
1.25
 49
-0.25
 49
0.25
 49
-0.25
 49
0.25
 49
-0.25
  0
ENDTAB
  0
TABLE
  2
LAYER
 70
     7
  0
LAYER
  2
0
 70
     0
 62
     7
  6
CONTINUOUS
  0
LAYER
  2
CT
 70
     0
 62
     3
  6
CENTER
  0
LAYER
  2
FUTO
 70
     0
 62
     4
  6
CONTINUOUS
  0
LAYER
  2
SL
 70
     0
 62
     1
  6
PHANTOM
  0
LAYER
  2
SP
 70
     0
 62
     2
  6
CONTINUOUS
  0
LAYER
  2
DEFPOINTS
 70
     0
 62
     7
  6
CONTINUOUS
  0
LAYER
  2
4
 70
     0
 62
     7
  6
CONTINUOUS
  0
ENDTAB
  0
TABLE
  2
STYLE
 70
     1
  0
STYLE
  2
STANDARD
 70
     0
 40
0.0
 41
1.0
 50
15.0
 71
     0
 42
137.5
  3
C:\Program Files\AutoCAD LT\simplex.shx
  4
C:\Program Files\AutoCAD LT\extfont.shx
  0
ENDTAB
  0
TABLE
  2
VIEW
 70
     0
  0
ENDTAB
  0
TABLE
  2
UCS
 70
     0
  0
ENDTAB
  0
TABLE
  2
APPID
 70
     2
  0
APPID
  2
ACAD
 70
     0
  0
APPID
  2
CONTENTBLOCKICON
 70
     0
  0
ENDTAB
  0
TABLE
  2
DIMSTYLE
 70
     2
  0
DIMSTYLE
  2
STANDARD
 70
     0
  3

  4

  5

  6

  7

 40
1.0
 41
0.18
 42
0.0625
 43
0.38
 44
0.18
 45
0.0
 46
0.0
 47
0.0
 48
0.0
140
0.18
141
0.09
142
0.0
143
25.399999999999999
144
1.0
145
0.0
146
1.0
147
0.09
 71
     0
 72
     0
 73
     1
 74
     1
 75
     0
 76
     0
 77
     0
 78
     0
170
     0
171
     2
172
     0
173
     0
174
     0
175
     0
176
     0
177
     0
178
     0
  0
DIMSTYLE
  2
MATSU
 70
     0
  3

  4

  5

  6
OPEN
  7
OPEN
 40
1.0
 41
2.0
 42
1.0
 43
10.0
 44
1.0
 45
0.0
 46
0.0
 47
0.0
 48
0.0
140
3.0
141
0.0
142
0.0
143
0.03937
144
1.0
145
0.0
146
1.0
147
0.5
 71
     0
 72
     0
 73
     0
 74
     0
 75
     0
 76
     0
 77
     1
 78
     8
170
     0
171
     2
172
     1
173
     1
174
     0
175
     0
176
   256
177
   256
178
   256
  0
ENDTAB
  0
ENDSEC
  0
SECTION
  2
BLOCKS
  0
BLOCK
  8
0
  2
$MODEL_SPACE
 70
     0
 10
0.0
 20
0.0
 30
0.0
  3
$MODEL_SPACE
  1

  0
ENDBLK
  5
1B
  8
0
  0
BLOCK
 67
     1
  8
0
  2
$PAPER_SPACE
 70
     0
 10
0.0
 20
0.0
 30
0.0
  3
$PAPER_SPACE
  1

  0
ENDBLK
  5
18
 67
     1
  8
0
  0
BLOCK
  8
0
  2
_OPEN
 70
     0
 10
0.0
 20
0.0
 30
0.0
  3
_OPEN
  1

  0
LINE
  5
28
  8
0
  6
BYBLOCK
 62
     0
 10
-1.0
 20
0.1666666666666666
 30
0.0
 11
0.0
 21
0.0
 31
0.0
  0
LINE
  5
29
  8
0
  6
BYBLOCK
 62
     0
 10
0.0
 20
0.0
 30
0.0
 11
-1.0
 21
-0.1666666666666666
 31
0.0
  0
LINE
  5
2A
  8
0
  6
BYBLOCK
 62
     0
 10
0.0
 20
0.0
 30
0.0
 11
-1.0
 21
0.0
 31
0.0
  0
ENDBLK
  5
2B
  8
0
  0
BLOCK
  8
0
  2
*D1
 70
     1
 10
0.0
 20
0.0
 30
0.0
  3
*D1
  1

  0
LINE
  5
C4E9
  8
0
  6
BYBLOCK
 10
10379.97317813102
 20
-1999.2900275283571
 30
0.0
 11
10379.97317813102
 21
-1669.618035081395
 31
0.0
  0
LINE
  5
C4EA
  8
0
  6
BYBLOCK
 10
12739.97317813102
 20
-1999.2900275283571
 30
0.0
 11
12739.97317813102
 21
-1669.618035081395
 31
0.0
  0
LINE
  5
C4EB
  8
0
  6
BYBLOCK
 10
10489.97317813102
 20
-1724.618035081395
 30
0.0
 11
12629.97317813102
 21
-1724.618035081395
 31
0.0
  0
INSERT
  5
C4EC
  8
0
  6
BYBLOCK
  2
_OPEN
 10
10379.97317813102
 20
-1724.618035081395
 30
0.0
 41
110.0
 42
110.0
 43
110.0
 50
180.0
  0
INSERT
  5
C4ED
  8
0
  6
BYBLOCK
  2
_OPEN
 10
12739.97317813102
 20
-1724.618035081395
 30
0.0
 41
110.0
 42
110.0
 43
110.0
  0
TEXT
  5
C4EE
  8
SP
 10
11306.0724343856
 20
-1669.618035081395
 30
0.0
 40
137.5
  1
2360
 51
15.0
  0
POINT
  5
C4EF
  8
DEFPOINTS
  6
BYBLOCK
 62
     0
 10
10379.97317813102
 20
-2054.2900275283569
 30
0.0
  0
POINT
  5
C4F0
  8
DEFPOINTS
  6
BYBLOCK
 62
     0
 10
12739.97317813102
 20
-2054.2900275283569
 30
0.0
  0
POINT
  5
C4F1
  8
DEFPOINTS
  6
BYBLOCK
 62
     0
 10
12739.97317813102
 20
-1724.618035081395
 30
0.0
  0
ENDBLK
  5
C4F2
  8
0
  0
BLOCK
  8
0
  2
*D2
 70
     1
 10
0.0
 20
0.0
 30
0.0
  3
*D2
  1

  0
LINE
  5
C486
  8
0
  6
BYBLOCK
 10
12739.97317813102
 20
-1999.2900275283571
 30
0.0
 11
12739.97317813102
 21
-1669.618035081395
 31
0.0
  0
LINE
  5
C487
  8
0
  6
BYBLOCK
 10
14579.97317813102
 20
-3949.2900275283541
 30
0.0
 11
14579.97317813102
 21
-1669.618035081395
 31
0.0
  0
LINE
  5
C488
  8
0
  6
BYBLOCK
 10
12849.97317813102
 20
-1724.618035081395
 30
0.0
 11
14469.973178131029
 21
-1724.618035081395
 31
0.0
  0
INSERT
  5
C489
  8
0
  6
BYBLOCK
  2
_OPEN
 10
12739.97317813102
 20
-1724.618035081395
 30
0.0
 41
110.0
 42
110.0
 43
110.0
 50
180.0
  0
INSERT
  5
C48A
  8
0
  6
BYBLOCK
  2
_OPEN
 10
14579.97317813102
 20
-1724.618035081395
 30
0.0
 41
110.0
 42
110.0
 43
110.0
  0
TEXT
  5
C48B
  8
SP
 10
13404.25502397351
 20
-1669.618035081395
 30
0.0
 40
137.5
  1
1840
 51
15.0
  0
POINT
  5
C48C
  8
DEFPOINTS
  6
BYBLOCK
 62
     0
 10
12739.97317813102
 20
-2054.2900275283569
 30
0.0
  0
POINT
  5
C48D
  8
DEFPOINTS
  6
BYBLOCK
 62
     0
 10
14579.97317813102
 20
-4004.2900275283532
 30
0.0
  0
POINT
  5
C48E
  8
DEFPOINTS
  6
BYBLOCK
 62
     0
 10
14579.97317813102
 20
-1724.618035081395
 30
0.0
  0
ENDBLK
  5
C48F
  8
0
  0
BLOCK
  8
0
  2
*D3
 70
     1
 10
0.0
 20
0.0
 30
0.0
  3
*D3
  1

  0
LINE
  5
C491
  8
0
  6
BYBLOCK
 10
10379.97317813102
 20
-5359.2900275283573
 30
0.0
 11
10379.97317813102
 21
-5806.7633384107676
 31
0.0
  0
LINE
  5
C492
  8
0
  6
BYBLOCK
 10
14579.97317813102
 20
-5359.2900275283537
 30
0.0
 11
14579.97317813102
 21
-5806.7633384107676
 31
0.0
  0
LINE
  5
C493
  8
0
  6
BYBLOCK
 10
10489.97317813102
 20
-5751.7633384107676
 30
0.0
 11
14469.973178131029
 21
-5751.7633384107676
 31
0.0
  0
INSERT
  5
C494
  8
0
  6
BYBLOCK
  2
_OPEN
 10
10379.97317813102
 20
-5751.7633384107676
 30
0.0
 41
110.0
 42
110.0
 43
110.0
 50
180.0
  0
INSERT
  5
C495
  8
0
  6
BYBLOCK
  2
_OPEN
 10
14579.97317813102
 20
-5751.7633384107676
 30
0.0
 41
110.0
 42
110.0
 43
110.0
  0
TEXT
  5
C496
  8
SP
 10
12219.931932059049
 20
-5696.7633384107676
 30
0.0
 40
137.5
  1
4200
 51
15.0
  0
POINT
  5
C497
  8
DEFPOINTS
  6
BYBLOCK
 62
     0
 10
10379.97317813102
 20
-5304.2900275283573
 30
0.0
  0
POINT
  5
C498
  8
DEFPOINTS
  6
BYBLOCK
 62
     0
 10
14579.97317813102
 20
-5304.2900275283528
 30
0.0
  0
POINT
  5
C499
  8
DEFPOINTS
  6
BYBLOCK
 62
     0
 10
14579.97317813102
 20
-5751.7633384107676
 30
0.0
  0
ENDBLK
  5
C49A
  8
0
  0
BLOCK
  8
0
  2
*D4
 70
     1
 10
0.0
 20
0.0
 30
0.0
  3
*D4
  1

  0
LINE
  5
C4B2
  8
0
  6
BYBLOCK
 10
14634.973178131029
 20
-4004.2900275283532
 30
0.0
 11
15024.13675893081
 21
-4004.2900275283532
 31
0.0
  0
LINE
  5
C4B3
  8
0
  6
BYBLOCK
 10
14634.973178131029
 20
-5304.2900275283528
 30
0.0
 11
15024.13675893081
 21
-5304.2900275283528
 31
0.0
  0
LINE
  5
C4B4
  8
0
  6
BYBLOCK
 10
14969.13675893081
 20
-4114.2900275283537
 30
0.0
 11
14969.13675893081
 21
-5194.2900275283528
 31
0.0
  0
INSERT
  5
C4B5
  8
0
  6
BYBLOCK
  2
_OPEN
 10
14969.13675893081
 20
-4004.2900275283532
 30
0.0
 41
110.0
 42
110.0
 43
110.0
 50
90.0
  0
INSERT
  5
C4B6
  8
0
  6
BYBLOCK
  2
_OPEN
 10
14969.13675893081
 20
-5304.2900275283528
 30
0.0
 41
110.0
 42
110.0
 43
110.0
 50
270.0
  0
TEXT
  5
C4B7
  8
SP
 10
14914.13675893081
 20
-4910.0081816858647
 30
0.0
 40
137.5
  1
1300
 50
90.0
 51
15.0
  0
POINT
  5
C4B8
  8
DEFPOINTS
  6
BYBLOCK
 62
     0
 10
14579.97317813102
 20
-4004.2900275283532
 30
0.0
  0
POINT
  5
C4B9
  8
DEFPOINTS
  6
BYBLOCK
 62
     0
 10
14579.97317813102
 20
-5304.2900275283528
 30
0.0
  0
POINT
  5
C4BA
  8
DEFPOINTS
  6
BYBLOCK
 62
     0
 10
14969.13675893081
 20
-5304.2900275283528
 30
0.0
  0
ENDBLK
  5
C4BB
  8
0
  0
BLOCK
  8
0
  2
*D5
 70
     1
 10
0.0
 20
0.0
 30
0.0
  3
*D5
  1

  0
LINE
  5
C346
  8
0
  6
BYBLOCK
 10
15203.627944492229
 20
-10857.13488374287
 30
0.0
 11
15203.627944492229
 21
-11202.63562283916
 31
0.0
  0
LINE
  5
C347
  8
0
  6
BYBLOCK
 10
17049.627944492229
 20
-10857.13488374287
 30
0.0
 11
17049.627944492229
 21
-11202.63562283916
 31
0.0
  0
LINE
  5
C348
  8
0
  6
BYBLOCK
 10
15313.627944492229
 20
-11147.63562283916
 30
0.0
 11
16939.627944492229
 21
-11147.63562283916
 31
0.0
  0
INSERT
  5
C349
  8
0
  6
BYBLOCK
  2
_OPEN
 10
15203.627944492229
 20
-11147.63562283916
 30
0.0
 41
110.0
 42
110.0
 43
110.0
 50
180.0
  0
INSERT
  5
C34A
  8
0
  6
BYBLOCK
  2
_OPEN
 10
17049.627944492229
 20
-11147.63562283916
 30
0.0
 41
110.0
 42
110.0
 43
110.0
  0
TEXT
  5
C34B
  8
SP
 10
15873.30638524045
 20
-11092.635622839151
 30
0.0
 40
137.5
  1
1846
 51
15.0
  0
POINT
  5
C34C
  8
DEFPOINTS
  6
BYBLOCK
 62
     0
 10
15203.627944492229
 20
-10802.13488374287
 30
0.0
  0
POINT
  5
C34D
  8
DEFPOINTS
  6
BYBLOCK
 62
     0
 10
17049.627944492229
 20
-10802.13488374287
 30
0.0
  0
POINT
  5
C34E
  8
DEFPOINTS
  6
BYBLOCK
 62
     0
 10
17049.627944492229
 20
-11147.63562283916
 30
0.0
  0
ENDBLK
  5
C34F
  8
0
  0
BLOCK
  8
0
  2
*D6
 70
     1
 10
0.0
 20
0.0
 30
0.0
  3
*D6
  1

  0
LINE
  5
C353
  8
0
  6
BYBLOCK
 10
17049.627944492229
 20
-10857.13488374287
 30
0.0
 11
17049.627944492229
 21
-11202.63562283916
 31
0.0
  0
LINE
  5
C354
  8
0
  6
BYBLOCK
 10
18453.627944492229
 20
-10857.13488374287
 30
0.0
 11
18453.627944492229
 21
-11202.63562283916
 31
0.0
  0
LINE
  5
C355
  8
0
  6
BYBLOCK
 10
17159.627944492229
 20
-11147.63562283916
 30
0.0
 11
18343.627944492229
 21
-11147.63562283916
 31
0.0
  0
INSERT
  5
C356
  8
0
  6
BYBLOCK
  2
_OPEN
 10
17049.627944492229
 20
-11147.63562283916
 30
0.0
 41
110.0
 42
110.0
 43
110.0
 50
180.0
  0
INSERT
  5
C357
  8
0
  6
BYBLOCK
  2
_OPEN
 10
18453.627944492229
 20
-11147.63562283916
 30
0.0
 41
110.0
 42
110.0
 43
110.0
  0
TEXT
  5
C358
  8
SP
 10
17498.13431746788
 20
-11092.635622839151
 30
0.0
 40
137.5
  1
1404
 51
15.0
  0
POINT
  5
C359
  8
DEFPOINTS
  6
BYBLOCK
 62
     0
 10
17049.627944492229
 20
-10802.13488374287
 30
0.0
  0
POINT
  5
C35A
  8
DEFPOINTS
  6
BYBLOCK
 62
     0
 10
18453.627944492229
 20
-10802.13488374287
 30
0.0
  0
POINT
  5
C35B
  8
DEFPOINTS
  6
BYBLOCK
 62
     0
 10
18453.627944492229
 20
-11147.63562283916
 30
0.0
  0
ENDBLK
  5
C35C
  8
0
  0
BLOCK
  8
0
  2
*D7
 70
     1
 10
0.0
 20
0.0
 30
0.0
  3
*D7
  1

  0
LINE
  5
C360
  8
0
  6
BYBLOCK
 10
15203.627944492229
 20
-10857.13488374286
 30
0.0
 11
15203.627944492229
 21
-11532.38305444039
 31
0.0
  0
LINE
  5
C361
  8
0
  6
BYBLOCK
 10
18453.627944492229
 20
-10857.13488374286
 30
0.0
 11
18453.627944492229
 21
-11532.38305444039
 31
0.0
  0
LINE
  5
C362
  8
0
  6
BYBLOCK
 10
15313.627944492229
 20
-11477.38305444039
 30
0.0
 11
18343.627944492229
 21
-11477.38305444039
 31
0.0
  0
INSERT
  5
C363
  8
0
  6
BYBLOCK
  2
_OPEN
 10
15203.627944492229
 20
-11477.38305444039
 30
0.0
 41
110.0
 42
110.0
 43
110.0
 50
180.0
  0
INSERT
  5
C364
  8
0
  6
BYBLOCK
  2
_OPEN
 10
18453.627944492229
 20
-11477.38305444039
 30
0.0
 41
110.0
 42
110.0
 43
110.0
  0
TEXT
  5
C365
  8
SP
 10
16571.218342274489
 20
-11422.38305444039
 30
0.0
 40
137.5
  1
3250
 51
15.0
  0
POINT
  5
C366
  8
DEFPOINTS
  6
BYBLOCK
 62
     0
 10
15203.627944492229
 20
-10802.13488374286
 30
0.0
  0
POINT
  5
C367
  8
DEFPOINTS
  6
BYBLOCK
 62
     0
 10
18453.627944492229
 20
-10802.13488374286
 30
0.0
  0
POINT
  5
C368
  8
DEFPOINTS
  6
BYBLOCK
 62
     0
 10
18453.627944492229
 20
-11477.38305444039
 30
0.0
  0
ENDBLK
  5
C369
  8
0
  0
BLOCK
  8
0
  2
*D8
 70
     1
 10
0.0
 20
0.0
 30
0.0
  3
*D8
  1

  0
LINE
  5
C4BD
  8
0
  6
BYBLOCK
 10
11559.97317813102
 20
-10547.13488374287
 30
0.0
 11
11559.97317813102
 21
-10893.854903828869
 31
0.0
  0
LINE
  5
C4BE
  8
0
  6
BYBLOCK
 10
10379.97317813102
 20
-10547.13488374287
 30
0.0
 11
10379.97317813102
 21
-10893.854903828869
 31
0.0
  0
LINE
  5
C4BF
  8
0
  6
BYBLOCK
 10
11449.97317813102
 20
-10838.854903828869
 30
0.0
 11
10489.97317813102
 21
-10838.854903828869
 31
0.0
  0
INSERT
  5
C4C0
  8
0
  6
BYBLOCK
  2
_OPEN
 10
11559.97317813102
 20
-10838.854903828869
 30
0.0
 41
110.0
 42
110.0
 43
110.0
  0
INSERT
  5
C4C1
  8
0
  6
BYBLOCK
  2
_OPEN
 10
10379.97317813102
 20
-10838.854903828869
 30
0.0
 41
110.0
 42
110.0
 43
110.0
 50
180.0
  0
TEXT
  5
C4C2
  8
SP
 10
10727.35026206875
 20
-10783.854903828869
 30
0.0
 40
137.5
  1
1180
 51
15.0
  0
POINT
  5
C4C3
  8
DEFPOINTS
  6
BYBLOCK
 62
     0
 10
11559.97317813102
 20
-10492.13488374287
 30
0.0
  0
POINT
  5
C4C4
  8
DEFPOINTS
  6
BYBLOCK
 62
     0
 10
10379.97317813102
 20
-10492.13488374287
 30
0.0
  0
POINT
  5
C4C5
  8
DEFPOINTS
  6
BYBLOCK
 62
     0
 10
10379.97317813102
 20
-10838.854903828869
 30
0.0
  0
ENDBLK
  5
C4C6
  8
0
  0
BLOCK
  8
0
  2
*D9
 70
     1
 10
0.0
 20
0.0
 30
0.0
  3
*D9
  1

  0
LINE
  5
C49C
  8
0
  6
BYBLOCK
 10
14579.97317813102
 20
-10547.13488374286
 30
0.0
 11
14579.97317813102
 21
-10893.854903828869
 31
0.0
  0
LINE
  5
C49D
  8
0
  6
BYBLOCK
 10
11559.97317813102
 20
-10547.13488374287
 30
0.0
 11
11559.97317813102
 21
-10893.854903828869
 31
0.0
  0
LINE
  5
C49E
  8
0
  6
BYBLOCK
 10
14469.973178131029
 20
-10838.854903828869
 30
0.0
 11
11669.97317813102
 21
-10838.854903828869
 31
0.0
  0
INSERT
  5
C49F
  8
0
  6
BYBLOCK
  2
_OPEN
 10
14579.97317813102
 20
-10838.854903828869
 30
0.0
 41
110.0
 42
110.0
 43
110.0
  0
INSERT
  5
C4A0
  8
0
  6
BYBLOCK
  2
_OPEN
 10
11559.97317813102
 20
-10838.854903828869
 30
0.0
 41
110.0
 42
110.0
 43
110.0
 50
180.0
  0
TEXT
  5
C4A1
  8
SP
 10
12812.563575913289
 20
-10783.854903828869
 30
0.0
 40
137.5
  1
3020
 51
15.0
  0
POINT
  5
C4A2
  8
DEFPOINTS
  6
BYBLOCK
 62
     0
 10
14579.97317813102
 20
-10492.13488374286
 30
0.0
  0
POINT
  5
C4A3
  8
DEFPOINTS
  6
BYBLOCK
 62
     0
 10
11559.97317813102
 20
-10492.13488374287
 30
0.0
  0
POINT
  5
C4A4
  8
DEFPOINTS
  6
BYBLOCK
 62
     0
 10
11559.97317813102
 20
-10838.854903828869
 30
0.0
  0
ENDBLK
  5
C4A5
  8
0
  0
BLOCK
  8
0
  2
*D10
 70
     1
 10
0.0
 20
0.0
 30
0.0
  3
*D10
  1

  0
LINE
  5
C4A7
  8
0
  6
BYBLOCK
 10
14579.97317813102
 20
-10547.13488374286
 30
0.0
 11
14579.97317813102
 21
-11222.38305444039
 31
0.0
  0
LINE
  5
C4A8
  8
0
  6
BYBLOCK
 10
10379.97317813102
 20
-10547.13488374287
 30
0.0
 11
10379.97317813102
 21
-11222.38305444039
 31
0.0
  0
LINE
  5
C4A9
  8
0
  6
BYBLOCK
 10
14469.973178131029
 20
-11167.383054440381
 30
0.0
 11
10489.97317813102
 21
-11167.383054440381
 31
0.0
  0
INSERT
  5
C4AA
  8
0
  6
BYBLOCK
  2
_OPEN
 10
14579.97317813102
 20
-11167.383054440381
 30
0.0
 41
110.0
 42
110.0
 43
110.0
  0
INSERT
  5
C4AB
  8
0
  6
BYBLOCK
  2
_OPEN
 10
10379.97317813102
 20
-11167.383054440381
 30
0.0
 41
110.0
 42
110.0
 43
110.0
 50
180.0
  0
TEXT
  5
C4AC
  8
SP
 10
12219.931932059049
 20
-11112.38305444039
 30
0.0
 40
137.5
  1
4200
 51
15.0
  0
POINT
  5
C4AD
  8
DEFPOINTS
  6
BYBLOCK
 62
     0
 10
14579.97317813102
 20
-10492.13488374286
 30
0.0
  0
POINT
  5
C4AE
  8
DEFPOINTS
  6
BYBLOCK
 62
     0
 10
10379.97317813102
 20
-10492.13488374287
 30
0.0
  0
POINT
  5
C4AF
  8
DEFPOINTS
  6
BYBLOCK
 62
     0
 10
10379.97317813102
 20
-11167.383054440381
 30
0.0
  0
ENDBLK
  5
C4B0
  8
0
  0
BLOCK
  8
0
  2
*D11
 70
     1
 10
0.0
 20
0.0
 30
0.0
  3
*D11
  1

  0
LINE
  5
C3D8
  8
0
  6
BYBLOCK
 10
15724.627944492229
 20
-7992.1348837428704
 30
0.0
 11
15724.627944492229
 21
-7717.7322399808327
 31
0.0
  0
LINE
  5
C3D9
  8
0
  6
BYBLOCK
 10
18374.627944492229
 20
-7992.1348837428704
 30
0.0
 11
18374.627944492229
 21
-7717.7322399808327
 31
0.0
  0
LINE
  5
C3DA
  8
0
  6
BYBLOCK
 10
15834.627944492229
 20
-7772.7322399808318
 30
0.0
 11
18264.627944492229
 21
-7772.7322399808318
 31
0.0
  0
INSERT
  5
C3DB
  8
0
  6
BYBLOCK
  2
_OPEN
 10
15724.627944492229
 20
-7772.7322399808318
 30
0.0
 41
110.0
 42
110.0
 43
110.0
 50
180.0
  0
INSERT
  5
C3DC
  8
0
  6
BYBLOCK
  2
_OPEN
 10
18374.627944492229
 20
-7772.7322399808318
 30
0.0
 41
110.0
 42
110.0
 43
110.0
  0
TEXT
  5
C3DD
  8
SP
 10
16795.727200746809
 20
-7717.7322399808327
 30
0.0
 40
137.5
  1
2650
 51
15.0
  0
POINT
  5
C3DE
  8
DEFPOINTS
  6
BYBLOCK
 62
     0
 10
15724.627944492229
 20
-8047.1348837428704
 30
0.0
  0
POINT
  5
C3DF
  8
DEFPOINTS
  6
BYBLOCK
 62
     0
 10
18374.627944492229
 20
-8047.1348837428723
 30
0.0
  0
POINT
  5
C3E0
  8
DEFPOINTS
  6
BYBLOCK
 62
     0
 10
18374.627944492229
 20
-7772.7322399808318
 30
0.0
  0
ENDBLK
  5
C3E1
  8
0
  0
BLOCK
  8
0
  2
*D12
 70
     1
 10
0.0
 20
0.0
 30
0.0
  3
*D12
  1

  0
LINE
  5
C470
  8
0
  6
BYBLOCK
 10
13707.97317813102
 20
-7392.1348837428714
 30
0.0
 11
13707.97317813102
 21
-7121.3878604274068
 31
0.0
  0
LINE
  5
C471
  8
0
  6
BYBLOCK
 10
11647.97317813102
 20
-7392.1348837428714
 30
0.0
 11
11647.97317813102
 21
-7121.3878604274068
 31
0.0
  0
LINE
  5
C472
  8
0
  6
BYBLOCK
 10
13597.97317813102
 20
-7176.3878604274068
 30
0.0
 11
11757.97317813102
 21
-7176.3878604274068
 31
0.0
  0
INSERT
  5
C473
  8
0
  6
BYBLOCK
  2
_OPEN
 10
13707.97317813102
 20
-7176.3878604274068
 30
0.0
 41
110.0
 42
110.0
 43
110.0
  0
INSERT
  5
C474
  8
0
  6
BYBLOCK
  2
_OPEN
 10
11647.97317813102
 20
-7176.3878604274068
 30
0.0
 41
110.0
 42
110.0
 43
110.0
 50
180.0
  0
TEXT
  5
C475
  8
SP
 10
12424.0724343856
 20
-7121.3878604274068
 30
0.0
 40
137.5
  1
2060
 51
15.0
  0
POINT
  5
C476
  8
DEFPOINTS
  6
BYBLOCK
 62
     0
 10
13707.97317813102
 20
-7447.1348837428714
 30
0.0
  0
POINT
  5
C477
  8
DEFPOINTS
  6
BYBLOCK
 62
     0
 10
11647.97317813102
 20
-7447.1348837428714
 30
0.0
  0
POINT
  5
C478
  8
DEFPOINTS
  6
BYBLOCK
 62
     0
 10
11647.97317813102
 20
-7176.3878604274068
 30
0.0
  0
ENDBLK
  5
C479
  8
0
  0
BLOCK
  8
0
  2
*D13
 70
     1
 10
0.0
 20
0.0
 30
0.0
  3
*D13
  1

  0
LINE
  5
C47B
  8
0
  6
BYBLOCK
 10
13707.97317813102
 20
-7392.1348837428714
 30
0.0
 11
13707.97317813102
 21
-6763.4292977711384
 31
0.0
  0
LINE
  5
C47C
  8
0
  6
BYBLOCK
 10
11559.97317813102
 20
-7288.5818856289261
 30
0.0
 11
11559.97317813102
 21
-6763.4292977711384
 31
0.0
  0
LINE
  5
C47D
  8
0
  6
BYBLOCK
 10
13597.97317813102
 20
-6818.4292977711384
 30
0.0
 11
11669.97317813102
 21
-6818.4292977711384
 31
0.0
  0
INSERT
  5
C47E
  8
0
  6
BYBLOCK
  2
_OPEN
 10
13707.97317813102
 20
-6818.4292977711384
 30
0.0
 41
110.0
 42
110.0
 43
110.0
  0
INSERT
  5
C47F
  8
0
  6
BYBLOCK
  2
_OPEN
 10
11559.97317813102
 20
-6818.4292977711384
 30
0.0
 41
110.0
 42
110.0
 43
110.0
 50
180.0
  0
TEXT
  5
C480
  8
SP
 10
12392.29045786276
 20
-6763.4292977711384
 30
0.0
 40
137.5
  1
2148
 51
15.0
  0
POINT
  5
C481
  8
DEFPOINTS
  6
BYBLOCK
 62
     0
 10
13707.97317813102
 20
-7447.1348837428714
 30
0.0
  0
POINT
  5
C482
  8
DEFPOINTS
  6
BYBLOCK
 62
     0
 10
11559.97317813102
 20
-7343.5818856289261
 30
0.0
  0
POINT
  5
C483
  8
DEFPOINTS
  6
BYBLOCK
 62
     0
 10
11559.97317813102
 20
-6818.4292977711384
 30
0.0
  0
ENDBLK
  5
C484
  8
0
  0
BLOCK
  8
0
  2
*D14
 70
     1
 10
0.0
 20
0.0
 30
0.0
  3
*D14
  1

  0
LINE
  5
C4C8
  8
0
  6
BYBLOCK
 10
11559.97317813102
 20
-7288.5818856289261
 30
0.0
 11
11559.97317813102
 21
-6763.4292977711384
 31
0.0
  0
LINE
  5
C4C9
  8
0
  6
BYBLOCK
 10
10117.97317813102
 20
-8789.6348837428686
 30
0.0
 11
10117.97317813102
 21
-6763.4292977711384
 31
0.0
  0
LINE
  5
C4CA
  8
0
  6
BYBLOCK
 10
11449.97317813102
 20
-6818.4292977711384
 30
0.0
 11
10227.97317813102
 21
-6818.4292977711384
 31
0.0
  0
INSERT
  5
C4CB
  8
0
  6
BYBLOCK
  2
_OPEN
 10
11559.97317813102
 20
-6818.4292977711384
 30
0.0
 41
110.0
 42
110.0
 43
110.0
  0
INSERT
  5
C4CC
  8
0
  6
BYBLOCK
  2
_OPEN
 10
10117.97317813102
 20
-6818.4292977711384
 30
0.0
 41
110.0
 42
110.0
 43
110.0
 50
180.0
  0
TEXT
  5
C4CD
  8
SP
 10
10583.25502397351
 20
-6763.4292977711384
 30
0.0
 40
137.5
  1
1442
 51
15.0
  0
POINT
  5
C4CE
  8
DEFPOINTS
  6
BYBLOCK
 62
     0
 10
11559.97317813102
 20
-7343.5818856289261
 30
0.0
  0
POINT
  5
C4CF
  8
DEFPOINTS
  6
BYBLOCK
 62
     0
 10
10117.97317813102
 20
-8844.6348837428686
 30
0.0
  0
POINT
  5
C4D0
  8
DEFPOINTS
  6
BYBLOCK
 62
     0
 10
10117.97317813102
 20
-6818.4292977711384
 30
0.0
  0
ENDBLK
  5
C4D1
  8
0
  0
BLOCK
  8
0
  2
*D15
 70
     1
 10
0.0
 20
0.0
 30
0.0
  3
*D15
  1

  0
LINE
  5
C4D3
  8
0
  6
BYBLOCK
 10
11513.97317813102
 20
-7447.1348837428714
 30
0.0
 11
9709.5497746287874
 21
-7447.1348837428714
 31
0.0
  0
LINE
  5
C4D4
  8
0
  6
BYBLOCK
 10
9981.2626272614816
 20
-8722.1348837428704
 30
0.0
 11
9709.5497746287874
 21
-8722.1348837428704
 31
0.0
  0
LINE
  5
C4D5
  8
0
  6
BYBLOCK
 10
9764.5497746287874
 20
-7557.1348837428704
 30
0.0
 11
9764.5497746287874
 21
-8612.1348837428704
 31
0.0
  0
INSERT
  5
C4D6
  8
0
  6
BYBLOCK
  2
_OPEN
 10
9764.5497746287874
 20
-7447.1348837428714
 30
0.0
 41
110.0
 42
110.0
 43
110.0
 50
90.0
  0
INSERT
  5
C4D7
  8
0
  6
BYBLOCK
  2
_OPEN
 10
9764.5497746287874
 20
-8722.1348837428704
 30
0.0
 41
110.0
 42
110.0
 43
110.0
 50
270.0
  0
TEXT
  5
C4D8
  8
SP
 10
9709.5497746287874
 20
-8340.5880868488875
 30
0.0
 40
137.5
  1
1275
 50
90.0
 51
15.0
  0
POINT
  5
C4D9
  8
DEFPOINTS
  6
BYBLOCK
 62
     0
 10
11568.97317813102
 20
-7447.1348837428714
 30
0.0
  0
POINT
  5
C4DA
  8
DEFPOINTS
  6
BYBLOCK
 62
     0
 10
10036.26262726148
 20
-8722.1348837428704
 30
0.0
  0
POINT
  5
C4DB
  8
DEFPOINTS
  6
BYBLOCK
 62
     0
 10
9764.5497746287874
 20
-8722.1348837428704
 30
0.0
  0
ENDBLK
  5
C4DC
  8
0
  0
BLOCK
  8
0
  2
*D16
 70
     1
 10
0.0
 20
0.0
 30
0.0
  3
*D16
  1

  0
LINE
  5
C4DE
  8
0
  6
BYBLOCK
 10
9981.2626272614816
 20
-8722.1348837428704
 30
0.0
 11
9709.5497746287874
 21
-8722.1348837428704
 31
0.0
  0
LINE
  5
C4DF
  8
0
  6
BYBLOCK
 10
10324.97317813102
 20
-10492.13488374287
 30
0.0
 11
9709.5497746287874
 21
-10492.13488374287
 31
0.0
  0
LINE
  5
C4E0
  8
0
  6
BYBLOCK
 10
9764.5497746287874
 20
-8832.1348837428704
 30
0.0
 11
9764.5497746287874
 21
-10382.13488374287
 31
0.0
  0
INSERT
  5
C4E1
  8
0
  6
BYBLOCK
  2
_OPEN
 10
9764.5497746287874
 20
-8722.1348837428704
 30
0.0
 41
110.0
 42
110.0
 43
110.0
 50
90.0
  0
INSERT
  5
C4E2
  8
0
  6
BYBLOCK
  2
_OPEN
 10
9764.5497746287874
 20
-10492.13488374287
 30
0.0
 41
110.0
 42
110.0
 43
110.0
 50
270.0
  0
TEXT
  5
C4E3
  8
SP
 10
9709.5497746287874
 20
-9862.8530379003823
 30
0.0
 40
137.5
  1
1770
 50
90.0
 51
15.0
  0
POINT
  5
C4E4
  8
DEFPOINTS
  6
BYBLOCK
 62
     0
 10
10036.26262726148
 20
-8722.1348837428704
 30
0.0
  0
POINT
  5
C4E5
  8
DEFPOINTS
  6
BYBLOCK
 62
     0
 10
10379.97317813102
 20
-10492.13488374287
 30
0.0
  0
POINT
  5
C4E6
  8
DEFPOINTS
  6
BYBLOCK
 62
     0
 10
9764.5497746287874
 20
-10492.13488374287
 30
0.0
  0
ENDBLK
  5
C4E7
  8
0
  0
BLOCK
  8
0
  2
*D17
 70
     1
 10
0.0
 20
0.0
 30
0.0
  3
*D17
  1

  0
LINE
  5
C439
  8
0
  6
BYBLOCK
 10
17049.627944492229
 20
-7444.3118720124376
 30
0.0
 11
17049.627944492229
 21
-7363.4292977711384
 31
0.0
  0
LINE
  5
C43A
  8
0
  6
BYBLOCK
 10
15149.627944492229
 20
-8787.1348837428704
 30
0.0
 11
15149.627944492229
 21
-7363.4292977711384
 31
0.0
  0
LINE
  5
C43B
  8
0
  6
BYBLOCK
 10
16939.627944492229
 20
-7418.4292977711384
 30
0.0
 11
15259.627944492229
 21
-7418.4292977711384
 31
0.0
  0
INSERT
  5
C43C
  8
0
  6
BYBLOCK
  2
_OPEN
 10
17049.627944492229
 20
-7418.4292977711384
 30
0.0
 41
110.0
 42
110.0
 43
110.0
  0
INSERT
  5
C43D
  8
0
  6
BYBLOCK
  2
_OPEN
 10
15149.627944492229
 20
-7418.4292977711384
 30
0.0
 41
110.0
 42
110.0
 43
110.0
 50
180.0
  0
TEXT
  5
C43E
  8
SP
 10
15772.41905988385
 20
-7304.5007263425659
 30
0.0
 40
137.5
  1
(1900)
 51
15.0
  0
POINT
  5
C43F
  8
DEFPOINTS
  6
BYBLOCK
 62
     0
 10
17049.627944492229
 20
-7499.3118720124367
 30
0.0
  0
POINT
  5
C440
  8
DEFPOINTS
  6
BYBLOCK
 62
     0
 10
15149.627944492229
 20
-8842.1348837428704
 30
0.0
  0
POINT
  5
C441
  8
DEFPOINTS
  6
BYBLOCK
 62
     0
 10
15149.627944492229
 20
-7418.4292977711384
 30
0.0
  0
ENDBLK
  5
C442
  8
0
  0
BLOCK
  8
0
  2
*D18
 70
     1
 10
0.0
 20
0.0
 30
0.0
  3
*D18
  1

  0
LINE
  5
C446
  8
0
  6
BYBLOCK
 10
17049.627944492229
 20
-7444.3118720124376
 30
0.0
 11
17049.627944492229
 21
-7363.4292977711384
 31
0.0
  0
LINE
  5
C447
  8
0
  6
BYBLOCK
 10
18619.82794449223
 20
-9357.1348837428686
 30
0.0
 11
18619.82794449223
 21
-7363.4292977711384
 31
0.0
  0
LINE
  5
C448
  8
0
  6
BYBLOCK
 10
17159.627944492229
 20
-7418.4292977711384
 30
0.0
 11
18509.82794449223
 21
-7418.4292977711384
 31
0.0
  0
INSERT
  5
C449
  8
0
  6
BYBLOCK
  2
_OPEN
 10
17049.627944492229
 20
-7418.4292977711384
 30
0.0
 41
110.0
 42
110.0
 43
110.0
 50
180.0
  0
INSERT
  5
C44A
  8
0
  6
BYBLOCK
  2
_OPEN
 10
18619.82794449223
 20
-7418.4292977711384
 30
0.0
 41
110.0
 42
110.0
 43
110.0
  0
TEXT
  5
C44B
  8
SP
 10
17507.519059883849
 20
-7304.5007263425659
 30
0.0
 40
137.5
  1
(1570)
 51
15.0
  0
POINT
  5
C44C
  8
DEFPOINTS
  6
BYBLOCK
 62
     0
 10
17049.627944492229
 20
-7499.3118720124367
 30
0.0
  0
POINT
  5
C44D
  8
DEFPOINTS
  6
BYBLOCK
 62
     0
 10
18619.82794449223
 20
-9412.1348837428686
 30
0.0
  0
POINT
  5
C44E
  8
DEFPOINTS
  6
BYBLOCK
 62
     0
 10
18619.82794449223
 20
-7418.4292977711384
 30
0.0
  0
ENDBLK
  5
C44F
  8
0
  0
BLOCK
  8
0
  2
*D19
 70
     1
 10
0.0
 20
0.0
 30
0.0
  3
*D19
  1

  0
LINE
  5
C4F4
  8
0
  6
BYBLOCK
 10
10324.97317813102
 20
-2054.2900275283569
 30
0.0
 11
9689.753585615108
 21
-2054.2900275283569
 31
0.0
  0
LINE
  5
C4F5
  8
0
  6
BYBLOCK
 10
10324.97317813102
 20
-5304.2900275283573
 30
0.0
 11
9689.753585615108
 21
-5304.2900275283573
 31
0.0
  0
LINE
  5
C4F6
  8
0
  6
BYBLOCK
 10
9744.7535856151062
 20
-2164.2900275283569
 30
0.0
 11
9744.7535856151062
 21
-5194.2900275283573
 31
0.0
  0
INSERT
  5
C4F7
  8
0
  6
BYBLOCK
  2
_OPEN
 10
9744.7535856151062
 20
-2054.2900275283569
 30
0.0
 41
110.0
 42
110.0
 43
110.0
 50
90.0
  0
INSERT
  5
C4F8
  8
0
  6
BYBLOCK
  2
_OPEN
 10
9744.7535856151062
 20
-5304.2900275283573
 30
0.0
 41
110.0
 42
110.0
 43
110.0
 50
270.0
  0
TEXT
  5
C4F9
  8
SP
 10
9689.753585615108
 20
-3936.6996297460919
 30
0.0
 40
137.5
  1
3250
 50
90.0
 51
15.0
  0
POINT
  5
C4FA
  8
DEFPOINTS
  6
BYBLOCK
 62
     0
 10
10379.97317813102
 20
-2054.2900275283569
 30
0.0
  0
POINT
  5
C4FB
  8
DEFPOINTS
  6
BYBLOCK
 62
     0
 10
10379.97317813102
 20
-5304.2900275283573
 30
0.0
  0
POINT
  5
C4FC
  8
DEFPOINTS
  6
BYBLOCK
 62
     0
 10
9744.7535856151062
 20
-5304.2900275283573
 30
0.0
  0
ENDBLK
  5
C4FD
  8
0
  0
BLOCK
  8
0
  2
_DOT
 70
     0
 10
0.0
 20
0.0
 30
0.0
  3
_DOT
  1

  0
POLYLINE
  5
C50E
  8
0
  6
BYBLOCK
 62
     0
 66
     1
 10
0.0
 20
0.0
 30
0.0
 70
     1
 40
0.5
 41
0.5
  0
VERTEX
  5
C58E
  8
0
  6
BYBLOCK
 62
     0
 10
-0.25
 20
0.0
 30
0.0
 42
1.0
  0
VERTEX
  5
C58F
  8
0
  6
BYBLOCK
 62
     0
 10
0.25
 20
0.0
 30
0.0
 42
1.0
  0
SEQEND
  5
C590
  8
0
  6
BYBLOCK
 62
     0
  0
LINE
  5
C512
  8
0
  6
BYBLOCK
 62
     0
 10
-0.5
 20
0.0
 30
0.0
 11
-1.0
 21
0.0
 31
0.0
  0
ENDBLK
  5
C513
  8
0
  0
BLOCK
  8
0
  2
*D21
 70
     1
 10
0.0
 20
0.0
 30
0.0
  3
*D21
  1

  0
LINE
  5
C516
  8
0
  6
BYBLOCK
 10
10033.24583005416
 20
-10512.13488374287
 30
0.0
 11
9417.3109970271325
 21
-10512.13488374287
 31
0.0
  0
LINE
  5
C517
  8
0
  6
BYBLOCK
 10
10033.24583005416
 20
-10692.13488374287
 30
0.0
 11
9417.3109970271325
 21
-10692.13488374287
 31
0.0
  0
LINE
  5
C518
  8
0
  6
BYBLOCK
 10
9472.3109970271325
 20
-10402.13488374287
 30
0.0
 11
9472.3109970271325
 21
-10292.13488374287
 31
0.0
  0
LINE
  5
C519
  8
0
  6
BYBLOCK
 10
9472.3109970271325
 20
-10802.13488374287
 30
0.0
 11
9472.3109970271325
 21
-11359.22817809861
 31
0.0
  0
LINE
  5
C51A
  8
0
  6
BYBLOCK
 10
9472.3109970271325
 20
-10512.13488374287
 30
0.0
 11
9472.3109970271325
 21
-10692.13488374287
 31
0.0
  0
INSERT
  5
C51B
  8
0
  6
BYBLOCK
  2
_DOT
 10
9472.3109970271325
 20
-10512.13488374287
 30
0.0
 41
110.0
 42
110.0
 43
110.0
 50
270.0
  0
INSERT
  5
C51C
  8
0
  6
BYBLOCK
  2
_OPEN
 10
9472.3109970271325
 20
-10692.13488374287
 30
0.0
 41
110.0
 42
110.0
 43
110.0
 50
90.0
  0
TEXT
  5
C51D
  8
SP
 10
9417.3109970271325
 20
-11325.923494602061
 30
0.0
 40
137.5
  1
180
 50
90.0
 51
15.0
  0
POINT
  5
C51E
  8
DEFPOINTS
  6
BYBLOCK
 62
     0
 10
10088.24583005416
 20
-10512.13488374287
 30
0.0
  0
POINT
  5
C51F
  8
DEFPOINTS
  6
BYBLOCK
 62
     0
 10
10088.24583005416
 20
-10692.13488374287
 30
0.0
  0
POINT
  5
C520
  8
DEFPOINTS
  6
BYBLOCK
 62
     0
 10
9472.3109970271325
 20
-10692.13488374287
 30
0.0
  0
ENDBLK
  5
C521
  8
0
  0
BLOCK
  8
0
  2
_NONE
 70
     0
 10
0.0
 20
0.0
 30
0.0
  3
_NONE
  1

  0
CIRCLE
  5
C525
  8
0
  6
BYBLOCK
 62
     0
 10
0.0
 20
0.0
 30
0.0
 40
0.25
  0
ENDBLK
  5
C526
  8
0
  0
BLOCK
  8
0
  2
*D23
 70
     1
 10
0.0
 20
0.0
 30
0.0
  3
*D23
  1

  0
LINE
  5
C591
  8
SP
 10
9474.3883538062146
 20
-10492.13488374287
 30
0.0
 11
9474.3883538062146
 21
-10632.13488374287
 31
0.0
  0
TEXT
  8
0
  40
137.5
  5
C596
  72
0
  71
0
 10
8957.13
 20
-10805.5
 30
0.000000
  1
(140)
  0
POINT
  5
C593
  8
DEFPOINTS
 62
     0
 10
10088.24583005416
 20
-10492.13488374287
 30
0.0
  0
POINT
  5
C594
  8
DEFPOINTS
 62
     0
 10
10088.24583005416
 20
-10632.13488374287
 30
0.0
  0
POINT
  5
C595
  8
DEFPOINTS
 62
     0
 10
9474.3883538062146
 20
-10632.13488374287
 30
0.0
  0
ENDBLK
  5
C53B
  8
0
  0
ENDSEC
  0
SECTION
  2
ENTITIES
  0
LINE
  5
7AB6
  8
FUTO
 10
13318.24583005416
 20
-10242.13488374287
 30
0.0
 11
13388.245830054169
 21
-10242.13488374286
 31
0.0
  0
LINE
  5
7AB7
  8
FUTO
 10
14018.24583005416
 20
-10242.13488374287
 30
0.0
 11
14018.24583005416
 21
-10312.13488374287
 31
0.0
  0
LINE
  5
7AB8
  8
FUTO
 10
13318.24583005416
 20
-10242.13488374287
 30
0.0
 11
13318.24583005416
 21
-10312.13488374287
 31
0.0
  0
LINE
  5
7AC0
  8
FUTO
 10
13938.24583005416
 20
-4198.2900275283591
 30
0.0
 11
13495.245830054169
 21
-4198.2900275283591
 31
0.0
  0
LINE
  5
7AC6
  8
FUTO
 10
13398.24583005416
 20
-5101.7900275283591
 30
0.0
 11
13938.24583005416
 21
-5101.7900275283591
 31
0.0
  0
LINE
  5
7AFE
  8
FUTO
 10
13710.74583005416
 20
-5168.2900275283591
 30
0.0
 11
13710.74583005416
 21
-5101.7900275283591
 31
0.0
  0
LINE
  5
7AFF
  8
FUTO
 10
13625.745830054169
 20
-5101.7900275283591
 30
0.0
 11
13625.745830054169
 21
-5168.2900275283591
 31
0.0
  0
ARC
  5
7B35
  8
FUTO
 10
13668.245830054169
 20
-9962.1348837428704
 30
0.0
 40
287.5
 50
329.6527344126618
 51
210.34726548400729
  0
LINE
  5
7B36
  8
CT
 10
13668.24583005416
 20
-10812.13488374286
 30
0.0
 11
13668.245830054169
 21
-9578.972563742871
 31
0.0
  0
LINE
  5
7B38
  8
CT
 10
13988.24583005416
 20
-9962.1348837428704
 30
0.0
 11
13348.245830054169
 21
-9962.1348837428704
 31
0.0
  0
LINE
  5
7B3B
  8
FUTO
 10
13938.614550054161
 20
-10120.88834674287
 30
0.0
 11
13916.352307054171
 21
-10107.39129774287
 31
0.0
  0
LINE
  5
7B3C
  8
FUTO
 10
13948.24583005416
 20
-10242.13488374287
 30
0.0
 11
13948.24583005416
 21
-10137.990675742871
 31
0.0
  0
ARC
  5
7B3E
  8
FUTO
 10
13928.24583005416
 20
-10137.990675742871
 30
0.0
 40
20.0
 50
0.0
 51
58.772599000000007
  0
LINE
  5
7B4A
  8
FUTO
 10
13388.245830054169
 20
-10242.13488374287
 30
0.0
 11
13388.245830054169
 21
-10137.990675742871
 31
0.0
  0
LINE
  5
7B57
  8
FUTO
 10
13397.87710905417
 20
-10120.88834674287
 30
0.0
 11
13420.13935240176
 21
-10107.391297532129
 31
0.0
  0
ARC
  5
7B5A
  8
FUTO
 10
13408.245830054169
 20
-10137.990675742871
 30
0.0
 40
20.0
 50
121.227401
 51
180.0
  0
CIRCLE
  5
7B75
  8
SL
 10
13668.245830054169
 20
-9962.1348837428704
 30
0.0
 40
140.0
  0
LINE
  5
7B82
  8
FUTO
 10
13948.24583005416
 20
-10242.13488374286
 30
0.0
 11
14018.24583005416
 21
-10242.13488374287
 31
0.0
  0
LINE
  5
98B6
  8
SL
 10
15199.627944492229
 20
-8472.1348837428741
 30
0.0
 11
15339.627944492229
 21
-8472.1348837428759
 31
0.0
  0
LINE
  5
98B7
  8
SL
 10
15199.627944492229
 20
-9272.1348837428777
 30
0.0
 11
15339.627944492229
 21
-9272.1348837428777
 31
0.0
  0
LINE
  5
98B8
  8
SL
 10
15339.627944492229
 20
-9822.1348837428723
 30
0.0
 11
15199.627944492229
 21
-9822.1348837428704
 31
0.0
  0
LINE
  5
98B9
  8
SL
 10
15339.627944492229
 20
-10102.13488374286
 30
0.0
 11
15199.627944492229
 21
-10102.13488374286
 31
0.0
  0
LINE
  5
98BA
  8
SL
 10
15199.627944492229
 20
-8472.1348837428741
 30
0.0
 11
15199.627944492229
 21
-10102.13488374286
 31
0.0
  0
LINE
  5
98BC
  8
SL
 10
15339.627944492229
 20
-8472.1348837428741
 30
0.0
 11
15339.627944492229
 21
-10102.13488374286
 31
0.0
  0
LINE
  5
98C4
  8
FUTO
 10
13398.24583005416
 20
-5101.7900275283591
 30
0.0
 11
13398.24583005416
 21
-4862.2900275283564
 31
0.0
  0
LINE
  5
98C5
  8
FUTO
 10
13938.24583005416
 20
-5101.7900275283591
 30
0.0
 11
13938.24583005416
 21
-4198.2900275283591
 31
0.0
  0
LINE
  5
98C6
  8
FUTO
 10
15406.127944492229
 20
-10232.13488374286
 30
0.0
 11
16309.627944492229
 21
-10232.13488374287
 31
0.0
  0
LINE
  5
98C7
  8
FUTO
 10
15406.127944492229
 20
-9692.1348837428704
 30
0.0
 11
16309.627944492229
 21
-9692.1348837428704
 31
0.0
  0
LINE
  5
98CA
  8
FUTO
 10
15406.127944492229
 20
-10232.13488374286
 30
0.0
 11
15406.127944492229
 21
-9692.1348837428704
 31
0.0
  0
LINE
  5
98CC
  8
FUTO
 10
15339.627944492229
 20
-9919.6348837428668
 30
0.0
 11
15406.127944492229
 21
-9919.6348837428686
 31
0.0
  0
LINE
  5
98CD
  8
FUTO
 10
15406.127944492229
 20
-10004.63488374286
 30
0.0
 11
15339.627944492229
 21
-10004.63488374286
 31
0.0
  0
LINE
  5
98E8
  8
SL
 10
13838.24583005416
 20
-5118.29002752836
 30
0.0
 11
13888.24583005416
 21
-5118.29002752836
 31
0.0
  0
LINE
  5
A0E7
  8
4
 10
17961.166697834029
 20
-12040.48813421171
 30
0.0
 11
17961.166697834029
 21
-13140.488134211701
 31
0.0
  0
LINE
  5
A0E8
  8
4
 10
14111.166697834031
 20
-12040.48813421171
 30
0.0
 11
14111.166697834031
 21
-13140.488134211701
 31
0.0
  0
LINE
  5
A0E9
  8
4
 10
11361.166697834031
 20
-12040.48813421171
 30
0.0
 11
11361.166697834031
 21
-13140.488134211701
 31
0.0
  0
LINE
  5
A0EC
  8
4
 10
11361.166697834031
 20
-13140.48813421171
 30
0.0
 11
17961.166697834029
 21
-13140.48813421171
 31
0.0
  0
LINE
  5
A0ED
  8
4
 10
11361.166697834031
 20
-12590.48813421171
 30
0.0
 11
17961.166697834029
 21
-12590.48813421171
 31
0.0
  0
TEXT
  5
A0EE
  8
4
 10
11572.92814249199
 20
-12417.001491945341
 30
0.0
 40
275.0
  1
機器名称
  0
TEXT
  5
A0EF
  8
4
 10
11560.586280970419
 20
-13021.439772185649
 30
0.0
 40
275.0
  1
機器型番
  0
TEXT
  5
A0F0
  8
4
 10
14274.28609399308
 20
-12457.343074152201
 30
0.0
 40
233.75
  1
ミツヤ多翼送風機
  0
TEXT
  5
A0F1
  8
4
 10
14312.76642355418
 20
-13046.110420672019
 30
0.0
 40
275.0
  1
MF#12-5
  0
TEXT
  5
A0F3
  8
4
 10
12185.977151365751
 20
-1128.5605847023901
 30
0.0
 40
297.0
  1
床置防振ベット
  0
TEXT
  5
A0F4
  8
4
 10
9429.0032408987445
 20
-301.07384293508937
 30
0.0
 40
396.0
  1
遠心式両吸込両持多翼ファン
  0
LINE
  5
A0F5
  8
4
 10
9161.1666978340363
 20
-655.67106357480043
 30
0.0
 11
17961.166697834029
 21
-655.67106357480043
 31
0.0
  0
LINE
  5
A0F6
  8
4
 10
9161.1666978340363
 20
444.32893642519952
 30
0.0
 11
17961.166697834029
 21
444.32893642519952
 31
0.0
  0
LINE
  5
A0F7
  8
4
 10
11361.166697834031
 20
-12040.48813421171
 30
0.0
 11
17961.166697834029
 21
-12040.48813421171
 31
0.0
  0
LINE
  5
A0F8
  8
4
 10
9161.1666978340363
 20
444.32893642519952
 30
0.0
 11
9161.1666978340363
 21
-655.67106357480043
 31
0.0
  0
TEXT
  5
A0F9
  8
4
 10
9788.7535740308977
 20
-1134.6620855263391
 30
0.0
 40
297.0
  1
左回転上向
  0
TEXT
  5
A0FA
  8
4
 10
15865.499273705131
 20
645.91673619297035
 30
0.0
 40
308.0
  1
No.
  0
TEXT
  5
A0FB
  8
4
 10
14998.295042134099
 20
-1128.5605847023901
 30
0.0
 40
297.0
  1
縮尺：1/55
  0
LINE
  5
A0FC
  8
4
 10
17961.166697834029
 20
444.32893642519952
 30
0.0
 11
17961.166697834029
 21
-655.67106357480043
 31
0.0
  0
LINE
  5
A0FD
  8
4
 10
19336.166697834029
 20
1987.580787968772
 30
0.0
 11
19336.166697834029
 21
1987.580787968772
 31
0.0
  0
LINE
  5
A0FE
  8
4
 10
15709.56252081329
 20
509.53049515847852
 30
0.0
 11
15709.56252081329
 21
1089.1682264924109
 31
0.0
  0
LINE
  5
A0FF
  8
4
 10
15709.56252081329
 20
1089.1682264924109
 30
0.0
 11
17961.166697834029
 21
1089.1682264924109
 31
0.0
  0
LINE
  5
A100
  8
4
 10
17961.166697834029
 20
1089.1682264924109
 30
0.0
 11
17961.166697834029
 21
509.53049515847852
 31
0.0
  0
LINE
  5
A101
  8
4
 10
17961.166697834029
 20
509.53049515847852
 30
0.0
 11
15709.56252081329
 21
509.53049515847852
 31
0.0
  0
LINE
  5
A102
  8
4
 10
7786.1666978340372
 20
-14237.419212031229
 30
0.0
 11
7786.1666978340372
 21
1987.580787968772
 31
0.0
  0
LINE
  5
A103
  8
4
 10
7786.1666978340372
 20
1987.580787968772
 30
0.0
 11
19336.166697834029
 21
1987.580787968772
 31
0.0
  0
LINE
  5
A104
  8
4
 10
19336.166697834029
 20
1987.580787968772
 30
0.0
 11
19336.166697834029
 21
-14237.419212031229
 31
0.0
  0
LINE
  5
A105
  8
4
 10
19336.166697834029
 20
-14237.419212031229
 30
0.0
 11
7786.1666978340372
 21
-14237.419212031229
 31
0.0
  0
LINE
  5
B009
  8
FUTO
 10
10088.24583005416
 20
-10312.13488374287
 30
0.0
 11
14288.245830054169
 21
-10312.13488374287
 31
0.0
  0
LINE
  5
B00A
  8
FUTO
 10
10088.24583005416
 20
-10492.13488374287
 30
0.0
 11
14288.245830054169
 21
-10492.13488374286
 31
0.0
  0
LINE
  5
B00B
  8
FUTO
 10
13292.499142742679
 20
-8722.1348837428704
 30
0.0
 11
13416.24583005416
 21
-7447.1348837428714
 31
0.0
  0
LINE
  5
B00D
  8
CT
 10
11268.245830054169
 20
-10812.13488374287
 30
0.0
 11
11268.24583005416
 21
-7343.5818856289261
 31
0.0
  0
ARC
  5
B00E
  8
FUTO
 10
11415.245830054169
 20
-8575.1348837428704
 30
0.0
 40
1883.0
 50
292.71097490005081
 51
355.52253946365141
  0
LINE
  5
B00F
  8
CT
 10
13539.42153921524
 20
-8722.1348837428704
 30
0.0
 11
9744.5352791846235
 21
-8722.1348837428704
 31
0.0
  0
LINE
  5
B013
  8
FUTO
 10
13408.96661315349
 20
-7522.1348837428714
 30
0.0
 11
11356.245830054169
 21
-7522.1348837428714
 31
0.0
  0
LINE
  5
B014
  8
FUTO
 10
13495.24583005416
 20
-7447.1348837428659
 30
0.0
 11
11277.245830054169
 21
-7447.1348837428714
 31
0.0
  0
LINE
  5
B019
  8
FUTO
 10
11356.245830054169
 20
-7545.9556156541412
 30
0.0
 11
11356.245830054169
 21
-7447.1348837428714
 31
0.0
  0
LINE
  5
B029
  8
CT
 10
17049.627944492229
 20
-7184.7123121215027
 30
0.0
 11
17049.627944492229
 21
-10812.13488374286
 31
0.0
  0
LINE
  5
B02A
  8
CT
 10
15149.627944492229
 20
-8722.1348837428704
 30
0.0
 11
18678.179166859431
 21
-8722.1348837428704
 31
0.0
  0
LINE
  5
B02B
  8
FUTO
 10
18453.627944492218
 20
-10312.13488374286
 30
0.0
 11
15203.627944492229
 21
-10312.13488374286
 31
0.0
  0
LINE
  5
B02C
  8
FUTO
 10
18453.627944492229
 20
-10492.13488374286
 30
0.0
 11
15203.627944492229
 21
-10492.13488374286
 31
0.0
  0
LINE
  5
B031
  8
FUTO
 10
15645.627944492229
 20
-7447.1348837428714
 30
0.0
 11
15645.627944492229
 21
-7522.1348837428723
 31
0.0
  0
LINE
  5
B032
  8
FUTO
 10
18453.627944492229
 20
-7447.1348837428714
 30
0.0
 11
18453.627944492229
 21
-7522.1348837428723
 31
0.0
  0
LINE
  5
B03F
  8
FUTO
 10
18453.627944492229
 20
-10312.13488374286
 30
0.0
 11
18453.627944492229
 21
-10492.13488374287
 31
0.0
  0
LINE
  5
B044
  8
FUTO
 10
12758.24583005416
 20
-9892.1348837428704
 30
0.0
 11
12758.24583005416
 21
-9883.1348837428704
 31
0.0
  0
LINE
  5
B168
  8
FUTO
 10
18374.627944492229
 20
-8812.1348837428686
 30
0.0
 11
18619.82794449223
 21
-8812.1348837428686
 31
0.0
  0
LINE
  5
B169
  8
FUTO
 10
18374.627944492229
 20
-9062.1348837428723
 30
0.0
 11
18619.82794449223
 21
-9062.1348837428686
 31
0.0
  0
LINE
  5
B16A
  8
FUTO
 10
18619.82794449223
 20
-8812.1348837428686
 30
0.0
 11
18619.82794449223
 21
-9062.1348837428704
 31
0.0
  0
LINE
  5
B171
  8
FUTO
 10
18374.627944492229
 20
-7447.1348837428723
 30
0.0
 11
18374.627944492229
 21
-10312.13488374286
 31
0.0
  0
LINE
  5
B175
  8
FUTO
 10
15724.627944492229
 20
-7447.1348837428714
 30
0.0
 11
15724.627944492229
 21
-9692.1348837428704
 31
0.0
  0
LINE
  5
B189
  8
FUTO
 10
15481.42794449223
 20
-9062.1348837428704
 30
0.0
 11
15724.627944492229
 21
-9062.1348837428704
 31
0.0
  0
LINE
  5
B18A
  8
FUTO
 10
15481.42794449223
 20
-8812.1348837428686
 30
0.0
 11
15481.42794449223
 21
-9062.1348837428704
 31
0.0
  0
CIRCLE
  5
B18C
  8
SL
 10
11268.24583005416
 20
-8722.1348837428704
 30
0.0
 40
400.0
  0
LINE
  5
B196
  8
FUTO
 10
15203.627944492229
 20
-10312.13488374286
 30
0.0
 11
15203.627944492229
 21
-10492.13488374287
 31
0.0
  0
LINE
  5
B1DD
  8
FUTO
 10
15339.62794449222
 20
-8664.6348837428686
 30
0.0
 11
15724.627944492229
 21
-8664.6348837428704
 31
0.0
  0
LINE
  5
B1DE
  8
FUTO
 10
15339.62794449222
 20
-8779.6348837428723
 30
0.0
 11
15724.627944492229
 21
-8779.6348837428741
 31
0.0
  0
LINE
  5
B1EA
  8
SP
 10
17049.627944492229
 20
-6899.3118720124367
 30
0.0
 11
17049.627944492229
 21
-6839.3118720124357
 31
0.0
  0
ARC
  5
B1F2
  8
FUTO
 10
11415.245830054169
 20
-8869.1348837428704
 30
0.0
 40
1589.0
 50
180.0000000000002
 51
245.2465979402464
  0
ARC
  5
B1FA
  8
FUTO
 10
11145.745830054169
 20
-8599.6348837428704
 30
0.0
 40
1074.5
 50
78.702399769401964
 51
90.0
  0
ARC
  5
B32D
  8
FUTO
 10
11145.745830054169
 20
-8844.6348837428704
 30
0.0
 40
1319.5
 50
90.0
 51
179.99999999999989
  0
LINE
  5
C236
  8
FUTO
 10
15481.42794449223
 20
-8812.1348837428686
 30
0.0
 11
15724.627944492229
 21
-8812.1348837428704
 31
0.0
  0
LINE
  5
C239
  8
SL
 10
15149.627944492229
 20
-8242.1348837428741
 30
0.0
 11
15149.627944492229
 21
-10182.13488374287
 31
0.0
  0
CIRCLE
  5
C26F
  8
FUTO
 10
11268.24583005416
 20
-8722.1348837428704
 30
0.0
 40
1075.0
  0
CIRCLE
  5
C270
  8
FUTO
 10
11268.24583005416
 20
-8722.1348837428704
 30
0.0
 40
1000.0
  0
LINE
  5
C271
  8
FUTO
 10
10088.24583005416
 20
-10492.13488374287
 30
0.0
 11
10088.24583005416
 21
-10312.13488374287
 31
0.0
  0
LINE
  5
C272
  8
FUTO
 10
14288.24583005416
 20
-10492.13488374287
 30
0.0
 11
14288.24583005416
 21
-10312.13488374287
 31
0.0
  0
LINE
  5
C27B
  8
CT
 10
16352.849613836721
 20
-9962.1348837428723
 30
0.0
 11
15149.627944492229
 21
-9962.1348837428686
 31
0.0
  0
LINE
  5
C27C
  8
SL
 10
15149.627944492229
 20
-8242.1348837428704
 30
0.0
 11
15389.627944492229
 21
-8242.1348837428704
 31
0.0
  0
LINE
  5
C27D
  8
SL
 10
15389.627944492229
 20
-10182.13488374286
 30
0.0
 11
15149.627944492229
 21
-10182.13488374287
 31
0.0
  0
LINE
  5
C27E
  8
SL
 10
15389.627944492229
 20
-8242.1348837428741
 30
0.0
 11
15389.627944492229
 21
-8292.1348837428686
 31
0.0
  0
LINE
  5
C282
  8
SL
 10
15389.627944492229
 20
-10132.13488374286
 30
0.0
 11
15389.627944492229
 21
-10182.13488374287
 31
0.0
  0
LINE
  5
C283
  8
FUTO
 10
10088.24583005416
 20
-5304.2900275283573
 30
0.0
 11
14288.245830054169
 21
-5304.2900275283528
 31
0.0
  0
LINE
  5
C284
  8
FUTO
 10
10088.24583005416
 20
-5304.2900275283573
 30
0.0
 11
10088.24583005416
 21
-4783.2900275283582
 31
0.0
  0
LINE
  5
C285
  8
FUTO
 10
10088.24583005416
 20
-2054.2900275283569
 30
0.0
 11
12448.24583005416
 21
-2054.2900275283569
 31
0.0
  0
LINE
  5
C286
  8
FUTO
 10
12448.24583005416
 20
-2054.2900275283569
 30
0.0
 11
12448.245830054169
 21
-2133.2900275283569
 31
0.0
  0
LINE
  5
C287
  8
FUTO
 10
14288.245830054169
 20
-5304.2900275283528
 30
0.0
 11
14288.245830054169
 21
-4004.2900275283532
 31
0.0
  0
LINE
  5
C288
  8
FUTO
 10
14288.245830054169
 20
-4004.2900275283532
 30
0.0
 11
13495.245830054169
 21
-4004.2900275283532
 31
0.0
  0
LINE
  5
C28B
  8
CT
 10
11268.24583005416
 20
-1951.2556092883101
 30
0.0
 11
11268.245830054169
 21
-5358.2900275283582
 31
0.0
  0
LINE
  5
C28C
  8
CT
 10
13668.245830054169
 20
-5358.2900275283591
 30
0.0
 11
13668.245830054169
 21
-4163.4583753300858
 31
0.0
  0
LINE
  5
C28D
  8
CT
 10
9768.9660104328068
 20
-3458.2900275283569
 30
0.0
 11
13607.78231743361
 21
-3458.2900275283569
 31
0.0
  0
LINE
  5
C28E
  8
SL
 10
10788.245830054169
 20
-5358.2900275283582
 30
0.0
 11
13888.24583005416
 21
-5358.2900275283591
 31
0.0
  0
LINE
  5
C290
  8
SL
 10
13888.24583005416
 20
-5358.2900275283591
 30
0.0
 11
13888.24583005416
 21
-5118.29002752836
 31
0.0
  0
LINE
  5
C291
  8
SL
 10
10788.245830054169
 20
-5118.2900275283573
 30
0.0
 11
10788.245830054169
 21
-5358.2900275283582
 31
0.0
  0
LINE
  5
C292
  8
SL
 10
10788.245830054169
 20
-5118.2900275283573
 30
0.0
 11
10838.245830054169
 21
-5118.29002752836
 31
0.0
  0
LINE
  5
C295
  8
SL
 10
13838.24583005416
 20
-5118.29002752836
 30
0.0
 11
13888.24583005416
 21
-5118.29002752836
 31
0.0
  0
LINE
  5
C297
  8
SL
 10
10868.245830054169
 20
-5308.2900275283573
 30
0.0
 11
13808.245830054169
 21
-5308.2900275283591
 31
0.0
  0
LINE
  5
C298
  8
SL
 10
10868.245830054169
 20
-5168.2900275283573
 30
0.0
 11
13808.245830054169
 21
-5168.2900275283591
 31
0.0
  0
LINE
  5
C299
  8
SL
 10
10868.24583005416
 20
-5168.2900275283573
 30
0.0
 11
10868.245830054169
 21
-5308.2900275283591
 31
0.0
  0
LINE
  5
C29A
  8
SL
 10
11668.245830054169
 20
-5168.2900275283573
 30
0.0
 11
11668.24583005416
 21
-5308.2900275283573
 31
0.0
  0
LINE
  5
C29B
  8
SL
 10
13808.24583005416
 20
-5308.2900275283591
 30
0.0
 11
13808.24583005416
 21
-5168.2900275283591
 31
0.0
  0
LINE
  5
C29C
  8
SL
 10
13528.245830054169
 20
-5308.2900275283591
 30
0.0
 11
13528.245830054169
 21
-5168.2900275283573
 31
0.0
  0
LINE
  5
C2A0
  8
FUTO
 10
9826.2458300541693
 20
-2133.2900275283569
 30
0.0
 11
11277.245830054169
 21
-2133.2900275283569
 31
0.0
  0
LINE
  5
C2A1
  8
FUTO
 10
9826.2458300541693
 20
-4783.2900275283582
 30
0.0
 11
11277.24583005416
 21
-4783.2900275283582
 31
0.0
  0
LINE
  5
C2A2
  8
FUTO
 10
10088.24583005416
 20
-2133.2900275283569
 30
0.0
 11
10088.24583005416
 21
-2054.2900275283569
 31
0.0
  0
DIMENSION
  5
C2B4
  8
SP
  2
*D1
 10
12448.24583005416
 20
-1724.618035081395
 30
0.0
 11
11268.24583005416
 21
-1600.868035081395
 31
0.0
 12
-291.72734807685617
 22
0.0
 32
0.0
 70
     0
 13
10088.24583005416
 23
-2054.2900275283569
 33
0.0
 14
12448.24583005416
 24
-2054.2900275283569
 34
0.0
1001
ACAD
1000
DSTYLE
1002
{
1070
   140
1040
2.5
1070
    40
1040
55.0
1070
   147
1040
1.0
1070
   271
1070
     0
1002
}
  0
DIMENSION
  5
C2C1
  8
SP
  2
*D2
 10
14288.245830054169
 20
-1724.618035081395
 30
0.0
 11
13368.245830054169
 21
-1600.868035081395
 31
0.0
 12
-291.72734807685617
 22
0.0
 32
0.0
 70
     0
 13
12448.24583005416
 23
-2054.2900275283569
 33
0.0
 14
14288.245830054169
 24
-4004.2900275283532
 34
0.0
1001
ACAD
1000
DSTYLE
1002
{
1070
   140
1040
2.5
1070
    40
1040
55.0
1070
   147
1040
1.0
1070
   271
1070
     0
1002
}
  0
DIMENSION
  5
C2DB
  8
SP
  2
*D3
 10
14288.245830054169
 20
-5751.7633384107676
 30
0.0
 11
12188.245830054169
 21
-5628.0133384107676
 31
0.0
 12
-291.72734807685617
 22
0.0
 32
0.0
 70
     0
 13
10088.24583005416
 23
-5304.2900275283573
 33
0.0
 14
14288.245830054169
 24
-5304.2900275283528
 34
0.0
1001
ACAD
1000
DSTYLE
1002
{
1070
   140
1040
2.5
1070
    40
1040
55.0
1070
   147
1040
1.0
1070
   271
1070
     0
1002
}
  0
DIMENSION
  5
C2E8
  8
SP
  2
*D4
 10
14677.40941085395
 20
-5304.2900275283528
 30
0.0
 11
14553.65941085395
 21
-4654.2900275283528
 31
0.0
 12
-291.72734807685617
 22
0.0
 32
0.0
 70
     0
 13
14288.245830054169
 23
-4004.2900275283532
 33
0.0
 14
14288.245830054169
 24
-5304.2900275283528
 34
0.0
 50
270.0
1001
ACAD
1000
DSTYLE
1002
{
1070
   140
1040
2.5
1070
    40
1040
55.0
1070
   147
1040
1.0
1070
   271
1070
     0
1002
}
  0
DIMENSION
  5
C350
  8
SP
  2
*D5
 10
17049.627944492229
 20
-11157.635622839151
 30
0.0
 11
16126.627944492229
 21
-11033.885622839151
 31
0.0
 12
0.0
 22
-10.0
 32
0.0
 70
     0
 13
15203.627944492229
 23
-10812.13488374286
 33
0.0
 14
17049.627944492229
 24
-10812.13488374286
 34
0.0
1001
ACAD
1000
DSTYLE
1002
{
1070
   140
1040
2.5
1070
    40
1040
55.0
1070
   147
1040
1.0
1070
   271
1070
     0
1002
}
  0
DIMENSION
  5
C35D
  8
SP
  2
*D6
 10
18453.627944492229
 20
-11157.635622839151
 30
0.0
 11
17751.627944492229
 21
-11033.885622839151
 31
0.0
 12
0.0
 22
-10.0
 32
0.0
 70
     0
 13
17049.627944492229
 23
-10812.13488374286
 33
0.0
 14
18453.627944492229
 24
-10812.13488374286
 34
0.0
1001
ACAD
1000
DSTYLE
1002
{
1070
   140
1040
2.5
1070
    40
1040
55.0
1070
   147
1040
1.0
1070
   271
1070
     0
1002
}
  0
DIMENSION
  5
C36A
  8
SP
  2
*D7
 10
18453.627944492229
 20
-11487.383054440381
 30
0.0
 11
16828.627944492229
 21
-11363.633054440381
 31
0.0
 12
0.0
 22
-10.0
 32
0.0
 70
     0
 13
15203.627944492229
 23
-10812.13488374286
 33
0.0
 14
18453.627944492229
 24
-10812.13488374286
 34
0.0
1001
ACAD
1000
DSTYLE
1002
{
1070
   140
1040
2.5
1070
    40
1040
55.0
1070
   147
1040
1.0
1070
   271
1070
     0
1002
}
  0
DIMENSION
  5
C377
  8
SP
  2
*D8
 10
10088.24583005416
 20
-11158.854903828869
 30
0.0
 11
10678.24583005416
 21
-11035.104903828869
 31
0.0
 12
-291.72734807685617
 22
-320.0
 32
0.0
 70
     0
 13
11268.24583005416
 23
-10812.13488374286
 33
0.0
 14
10088.24583005416
 24
-10812.13488374286
 34
0.0
1001
ACAD
1000
DSTYLE
1002
{
1070
   140
1040
2.5
1070
    40
1040
55.0
1070
   147
1040
1.0
1070
   271
1070
     0
1002
}
  0
DIMENSION
  5
C384
  8
SP
  2
*D9
 10
11268.24583005416
 20
-11158.854903828869
 30
0.0
 11
12778.245830054169
 21
-11035.104903828869
 31
0.0
 12
-291.72734807685617
 22
-320.0
 32
0.0
 70
     0
 13
14288.245830054169
 23
-10812.13488374286
 33
0.0
 14
11268.24583005416
 24
-10812.13488374286
 34
0.0
1001
ACAD
1000
DSTYLE
1002
{
1070
   140
1040
2.5
1070
    40
1040
55.0
1070
   147
1040
1.0
1070
   271
1070
     0
1002
}
  0
DIMENSION
  5
C391
  8
SP
  2
*D10
 10
10088.24583005416
 20
-11487.383054440381
 30
0.0
 11
12188.245830054169
 21
-11363.633054440381
 31
0.0
 12
-291.72734807685617
 22
-320.0
 32
0.0
 70
     0
 13
14288.245830054169
 23
-10812.13488374286
 33
0.0
 14
10088.24583005416
 24
-10812.13488374286
 34
0.0
1001
ACAD
1000
DSTYLE
1002
{
1070
   140
1040
2.5
1070
    40
1040
55.0
1070
   147
1040
1.0
1070
   271
1070
     0
1002
}
  0
LINE
  5
C3C5
  8
FUTO
 10
9826.2458300541693
 20
-8869.1348837428777
 30
0.0
 11
9826.2458300541693
 21
-8844.6348837428686
 31
0.0
  0
LINE
  5
C3C6
  8
FUTO
 10
15645.627944492229
 20
-7447.1348837428714
 30
0.0
 11
18453.627944492229
 21
-7447.1348837428714
 31
0.0
  0
LINE
  5
C3C7
  8
FUTO
 10
15645.627944492229
 20
-7522.1348837428723
 30
0.0
 11
18453.627944492218
 21
-7522.1348837428723
 31
0.0
  0
DIMENSION
  5
C3E2
  8
SP
  2
*D11
 10
18374.627944492229
 20
-7172.7322399808327
 30
0.0
 11
17049.627944492229
 21
-7048.9822399808327
 31
0.0
 12
0.0
 22
600.0
 32
0.0
 70
     0
 13
15724.627944492229
 23
-7447.1348837428714
 33
0.0
 14
18374.627944492229
 24
-7447.1348837428723
 34
0.0
1001
ACAD
1000
DSTYLE
1002
{
1070
   140
1040
2.5
1070
    40
1040
55.0
1070
   147
1040
1.0
1070
   271
1070
     0
1002
}
  0
ARC
  5
C3E3
  8
SL
 10
11268.24583005416
 20
-8722.1348837428704
 30
0.0
 40
480.0
 50
57.153061642105008
 51
248.19915575520179
  0
ARC
  5
C3E4
  8
SL
 10
13668.245830054169
 20
-9962.1348837428704
 30
0.0
 40
220.0
 50
248.1991557552017
 51
57.153061642104859
  0
LINE
  5
C3E5
  8
SL
 10
13787.573091926
 20
-9777.3079252812568
 30
0.0
 11
11528.59621959271
 21
-8318.8760652811707
 31
0.0
  0
LINE
  5
C3E6
  8
SL
 10
13744.181360336241
 20
-9844.517728358207
 30
0.0
 11
11485.20448800295
 21
-8386.0858683581191
 31
0.0
  0
LINE
  5
C3E7
  8
SL
 10
13616.25241772868
 20
-10092.122133405101
 30
0.0
 11
11119.69322340992
 21
-9093.5270256349668
 31
0.0
  0
LINE
  5
C3E8
  8
SL
 10
13586.541896399831
 20
-10166.400561783519
 30
0.0
 11
11089.98270208107
 21
-9167.8054540133853
 31
0.0
  0
DIMENSION
  5
C3F5
  8
SP
  2
*D12
 10
11356.245830054169
 20
-7176.3878604274068
 30
0.0
 11
12386.245830054169
 21
-7052.6378604274068
 31
0.0
 12
-291.72734807685617
 22
0.0
 32
0.0
 70
     0
 13
13416.24583005416
 23
-7447.1348837428714
 33
0.0
 14
11356.245830054169
 24
-7447.1348837428714
 34
0.0
1001
ACAD
1000
DSTYLE
1002
{
1070
   140
1040
2.5
1070
    40
1040
55.0
1070
   147
1040
1.0
1070
   271
1070
     0
1002
}
  0
DIMENSION
  5
C402
  8
SP
  2
*D13
 10
11268.24583005416
 20
-6818.4292977711384
 30
0.0
 11
12342.245830054169
 21
-6694.6792977711384
 31
0.0
 12
-291.72734807685617
 22
0.0
 32
0.0
 70
     0
 13
13416.24583005416
 23
-7447.1348837428714
 33
0.0
 14
11268.24583005416
 24
-7343.5818856289261
 34
0.0
1001
ACAD
1000
DSTYLE
1002
{
1070
   140
1040
2.5
1070
    40
1040
55.0
1070
   147
1040
1.0
1070
   271
1070
     0
1002
}
  0
DIMENSION
  5
C41C
  8
SP
  2
*D14
 10
9826.2458300541693
 20
-6818.4292977711384
 30
0.0
 11
10547.245830054169
 21
-6694.6792977711384
 31
0.0
 12
-291.72734807685617
 22
0.0
 32
0.0
 70
     0
 13
11268.24583005416
 23
-7343.5818856289261
 33
0.0
 14
9826.2458300541693
 24
-8844.6348837428686
 34
0.0
1001
ACAD
1000
DSTYLE
1002
{
1070
   140
1040
2.5
1070
    40
1040
55.0
1070
   147
1040
1.0
1070
   271
1070
     0
1002
}
  0
DIMENSION
  5
C429
  8
SP
  2
*D15
 10
9472.8224265519311
 20
-8722.1348837428704
 30
0.0
 11
9349.0724265519311
 21
-8084.6348837428704
 31
0.0
 12
-291.72734807685617
 22
0.0
 32
0.0
 70
     0
 13
11277.245830054169
 23
-7447.1348837428714
 33
0.0
 14
9744.5352791846235
 24
-8722.1348837428704
 34
0.0
 50
270.0
1001
ACAD
1000
DSTYLE
1002
{
1070
   140
1040
2.5
1070
    40
1040
55.0
1070
   147
1040
1.0
1070
   271
1070
     0
1002
}
  0
DIMENSION
  5
C436
  8
SP
  2
*D16
 10
9472.8224265519311
 20
-10492.13488374287
 30
0.0
 11
9349.0724265519311
 21
-9607.1348837428704
 31
0.0
 12
-291.72734807685617
 22
0.0
 32
0.0
 70
     0
 13
9744.5352791846235
 23
-8722.1348837428704
 33
0.0
 14
10088.24583005416
 24
-10492.13488374287
 34
0.0
 50
270.0
1001
ACAD
1000
DSTYLE
1002
{
1070
   140
1040
2.5
1070
    40
1040
55.0
1070
   147
1040
1.0
1070
   271
1070
     0
1002
}
  0
DIMENSION
  5
C443
  8
SP
  2
*D17
 10
15149.627944492229
 20
-6818.4292977711384
 30
0.0
 11
16099.627944492229
 21
-6658.6673930092329
 31
0.0
 12
0.0
 22
600.0
 32
0.0
 70
     0
 13
17049.627944492229
 23
-6899.3118720124367
 33
0.0
 14
15149.627944492229
 24
-8242.1348837428704
 34
0.0
1001
ACAD
1000
DSTYLE
1002
{
1070
   140
1040
2.5
1070
    40
1040
55.0
1070
     3
1000
(<>)
1070
   147
1040
1.0
1070
   271
1070
     0
1002
}
  0
DIMENSION
  5
C450
  8
SP
  2
*D18
 10
18619.82794449223
 20
-6818.4292977711384
 30
0.0
 11
17834.727944492231
 21
-6658.6673930092329
 31
0.0
 12
0.0
 22
600.0
 32
0.0
 70
     0
 13
17049.627944492229
 23
-6899.3118720124367
 33
0.0
 14
18619.82794449223
 24
-8812.1348837428686
 34
0.0
1001
ACAD
1000
DSTYLE
1002
{
1070
   140
1040
2.5
1070
    40
1040
55.0
1070
     3
1000
(<>)
1070
   147
1040
1.0
1070
   271
1070
     0
1002
}
  0
LINE
  5
C452
  8
FUTO
 10
13495.245830054169
 20
-4862.2900275283582
 30
0.0
 11
13495.24583005416
 21
-2054.2900275283569
 31
0.0
  0
LINE
  5
C453
  8
FUTO
 10
13416.24583005416
 20
-4783.2900275283582
 30
0.0
 11
13416.24583005416
 21
-2133.2900275283569
 31
0.0
  0
LINE
  5
C454
  8
FUTO
 10
11356.245830054169
 20
-4783.2900275283582
 30
0.0
 11
11356.245830054169
 21
-2133.2900275283569
 31
0.0
  0
LINE
  5
C455
  8
FUTO
 10
11277.245830054169
 20
-4862.2900275283582
 30
0.0
 11
11277.245830054169
 21
-2054.2900275283569
 31
0.0
  0
LINE
  5
C456
  8
FUTO
 10
9826.2458300541693
 20
-4783.2900275283582
 30
0.0
 11
9826.2458300541693
 21
-2133.2900275283569
 31
0.0
  0
LINE
  5
C457
  8
FUTO
 10
11277.245830054169
 20
-4862.2900275283582
 30
0.0
 11
13495.24583005416
 21
-4862.2900275283582
 31
0.0
  0
LINE
  5
C459
  8
FUTO
 10
11277.245830054169
 20
-2054.2900275283569
 30
0.0
 11
13495.24583005416
 21
-2054.2900275283569
 31
0.0
  0
DIMENSION
  5
C466
  8
SP
  2
*D19
 10
9453.0262375382517
 20
-5304.2900275283573
 30
0.0
 11
9329.2762375382517
 21
-3679.2900275283569
 31
0.0
 12
-291.72734807685617
 22
0.0
 32
0.0
 70
     0
 13
10088.24583005416
 23
-2054.2900275283569
 33
0.0
 14
10088.24583005416
 24
-5304.2900275283573
 34
0.0
 50
270.0
1001
ACAD
1000
DSTYLE
1002
{
1070
   140
1040
2.5
1070
    40
1040
55.0
1070
   147
1040
1.0
1070
   271
1070
     0
1002
}
  0
LINE
  5
C467
  8
FUTO
 10
11356.245830054169
 20
-4783.2900275283582
 30
0.0
 11
13416.245830054169
 21
-4783.2900275283582
 31
0.0
  0
LINE
  5
C468
  8
FUTO
 10
11356.245830054169
 20
-2133.2900275283569
 30
0.0
 11
13416.245830054169
 21
-2133.2900275283569
 31
0.0
  0
LINE
  5
C469
  8
FUTO
 10
11356.245830054169
 20
-2133.2900275283569
 30
0.0
 11
13416.245830054169
 21
-4783.2900275283582
 31
0.0
  0
LINE
  5
C46A
  8
FUTO
 10
13416.245830054169
 20
-2133.2900275283569
 30
0.0
 11
11356.245830054169
 21
-4783.2900275283582
 31
0.0
  0
LINE
  5
C4FF
  8
FUTO
 10
16309.627944492229
 20
-10232.13488374286
 30
0.0
 11
16309.627944492229
 21
-9692.1348837428704
 31
0.0
  0
LINE
  5
C501
  8
FUTO
 10
15724.627944492229
 20
-10232.13488374287
 30
0.0
 11
15724.627944492229
 21
-10312.13488374286
 31
0.0
  0
LINE
  5
C504
  8
FUTO
 10
18453.627944492229
 20
-10812.13488374286
 30
0.0
 11
15203.627944492229
 21
-10812.13488374286
 31
0.0
  0
LINE
  5
C505
  8
FUTO
 10
18453.627944492218
 20
-10632.13488374286
 30
0.0
 11
15203.627944492229
 21
-10632.13488374286
 31
0.0
  0
LINE
  5
C506
  8
FUTO
 10
18453.627944492229
 20
-10632.13488374286
 30
0.0
 11
18453.627944492229
 21
-10812.13488374286
 31
0.0
  0
LINE
  5
C507
  8
FUTO
 10
15203.627944492229
 20
-10632.13488374286
 30
0.0
 11
15203.627944492229
 21
-10812.13488374286
 31
0.0
  0
LINE
  5
C508
  8
FUTO
 10
10088.24583005416
 20
-10812.13488374286
 30
0.0
 11
14288.245830054169
 21
-10812.13488374286
 31
0.0
  0
LINE
  5
C509
  8
FUTO
 10
10088.24583005416
 20
-10632.13488374287
 30
0.0
 11
14288.245830054169
 21
-10632.13488374287
 31
0.0
  0
LINE
  5
C50A
  8
FUTO
 10
14288.24583005416
 20
-10812.13488374286
 30
0.0
 11
14288.24583005416
 21
-10632.13488374287
 31
0.0
  0
LINE
  5
C50B
  8
FUTO
 10
10088.24583005416
 20
-10812.13488374286
 30
0.0
 11
10088.24583005416
 21
-10632.13488374287
 31
0.0
  0
DIMENSION
  5
C522
  8
SP
  2
*D21
 10
9472.3109970271325
 20
-10812.13488374286
 30
0.0
 11
9348.5609970271325
 21
-11255.68153092074
 31
0.0
 12
0.0
 22
-120.0
 32
0.0
 70
     0
 13
10088.24583005416
 23
-10632.13488374287
 33
0.0
 14
10088.24583005416
 24
-10812.13488374286
 34
0.0
 50
90.0
1001
ACAD
1000
DSTYLE
1002
{
1070
   140
1040
2.5
1070
    40
1040
55.0
1070
   147
1040
1.0
1070
   271
1070
     0
1070
     6
1000
_DOT
1002
}
  0
DIMENSION
  5
C53C
  8
SP
  2
*D23
 10
9474.3883538062146
 20
-10632.13488374287
 30
0.0
 11
9232.1264490443118
 21
-10562.13488374286
 31
0.0
 70
     0
 13
10088.24583005416
 23
-10492.13488374287
 33
0.0
 14
10088.24583005416
 24
-10632.13488374287
 34
0.0
 50
90.0
1001
ACAD
1000
DSTYLE
1002
{
1070
   287
1070
     5
1070
   287
1070
     5
1070
     3
1000
(<>)
1070
    40
1040
55.0
1070
    75
1070
     1
1070
    76
1070
     1
1070
   140
1040
2.5
1070
   147
1040
1.0
1070
   271
1070
     0
1070
   279
1070
     2
1070
   289
1070
     3
1070
     6
1000
NONE
1070
     7
1000
NONE
1002
}
  0
ENDSEC
  0
EOF
