  0
SECTION
  2
HEADER
  9
$ACADVER
  1
AC1009
  9
$INSBASE
 10
0.0
 20
0.0
 30
0.0
  9
$EXTMIN
 10
7786.1666978340372
 20
-14237.419212031229
 30
0.0
  9
$EXTMAX
 10
19336.166697834029
 20
1987.580787968772
 30
0.0
  9
$LIMMIN
 10
0.0
 20
0.0
  9
$LIMMAX
 10
297.0
 20
210.0
  9
$ORTHOMODE
 70
     0
  9
$REGENMODE
 70
     1
  9
$FILLMODE
 70
     1
  9
$QTEXTMODE
 70
     0
  9
$MIRRTEXT
 70
     0
  9
$DRAGMODE
 70
     2
  9
$LTSCALE
 40
275.0
  9
$OSMODE
 70
    37
  9
$ATTMODE
 70
     1
  9
$TEXTSIZE
 40
137.5
  9
$TRACEWID
 40
0.05
  9
$TEXTSTYLE
  7
STANDARD
  9
$CLAYER
  8
SP
  9
$CELTYPE
  6
BYLAYER
  9
$CECOLOR
 62
   256
  9
$DIMSCALE
 40
55.0
  9
$DIMASZ
 40
2.0
  9
$DIMEXO
 40
1.0
  9
$DIMDLI
 40
10.0
  9
$DIMRND
 40
0.0
  9
$DIMDLE
 40
0.0
  9
$DIMEXE
 40
1.0
  9
$DIMTP
 40
0.0
  9
$DIMTM
 40
0.0
  9
$DIMTXT
 40
2.5
  9
$DIMCEN
 40
0.0
  9
$DIMTSZ
 40
0.0
  9
$DIMTOL
 70
     0
  9
$DIMLIM
 70
     0
  9
$DIMTIH
 70
     0
  9
$DIMTOH
 70
     0
  9
$DIMSE1
 70
     1
  9
$DIMSE2
 70
     1
  9
$DIMTAD
 70
     1
  9
$DIMZIN
 70
     8
  9
$DIMBLK
  1

  9
$DIMASO
 70
     1
  9
$DIMSHO
 70
     1
  9
$DIMPOST
  1
(<>)
  9
$DIMAPOST
  1

  9
$DIMALT
 70
     0
  9
$DIMALTD
 70
     2
  9
$DIMALTF
 40
0.03937
  9
$DIMLFAC
 40
1.0
  9
$DIMTOFL
 70
     1
  9
$DIMTVP
 40
0.0
  9
$DIMTIX
 70
     0
  9
$DIMSOXD
 70
     0
  9
$DIMSAH
 70
     1
  9
$DIMBLK1
  1
NONE
  9
$DIMBLK2
  1
NONE
  9
$DIMSTYLE
  2
MATSU
  9
$DIMCLRD
 70
   256
  9
$DIMCLRE
 70
   256
  9
$DIMCLRT
 70
   256
  9
$DIMTFAC
 40
1.0
  9
$DIMGAP
 40
1.0
  9
$LUNITS
 70
     2
  9
$LUPREC
 70
     4
  9
$SKETCHINC
 40
0.1
  9
$FILLETRAD
 40
0.0
  9
$AUNITS
 70
     0
  9
$AUPREC
 70
     2
  9
$MENU
  1
acad
  9
$ELEVATION
 40
0.0
  9
$PELEVATION
 40
0.0
  9
$THICKNESS
 40
0.0
  9
$LIMCHECK
 70
     0
  9
$BLIPMODE
 70
     0
  9
$CHAMFERA
 40
20.0
  9
$CHAMFERB
 40
20.0
  9
$SKPOLY
 70
     0
  9
$TDCREATE
 40
2453950.639283854
  9
$TDUPDATE
 40
2454953.8141251849
  9
$TDINDWG
 40
0.3668706481
  9
$TDUSRTIMER
 40
0.3668706481
  9
$USRTIMER
 70
     1
  9
$ANGBASE
 50
0.0
  9
$ANGDIR
 70
     0
  9
$PDMODE
 70
     0
  9
$PDSIZE
 40
1.0
  9
$PLINEWID
 40
0.0
  9
$COORDS
 70
     1
  9
$SPLFRAME
 70
     0
  9
$SPLINETYPE
 70
     6
  9
$SPLINESEGS
 70
     8
  9
$ATTDIA
 70
     0
  9
$ATTREQ
 70
     1
  9
$HANDLING
 70
 10241
  9
$HANDSEED
  5
C4D7
  9
$SURFTAB1
 70
     6
  9
$SURFTAB2
 70
     6
  9
$SURFTYPE
 70
     6
  9
$SURFU
 70
     6
  9
$SURFV
 70
     6
  9
$UCSNAME
  2

  9
$UCSORG
 10
0.0
 20
-0.0000000000000568
 30
0.0
  9
$UCSXDIR
 10
1.0
 20
0.0
 30
0.0
  9
$UCSYDIR
 10
0.0
 20
1.0
 30
0.0
  9
$PUCSNAME
  2

  9
$PUCSORG
 10
0.0
 20
0.0
 30
0.0
  9
$PUCSXDIR
 10
1.0
 20
0.0
 30
0.0
  9
$PUCSYDIR
 10
0.0
 20
1.0
 30
0.0
  9
$USERI1
 70
     0
  9
$USERI2
 70
     0
  9
$USERI3
 70
     0
  9
$USERI4
 70
     0
  9
$USERI5
 70
     0
  9
$USERR1
 40
0.0
  9
$USERR2
 40
0.0
  9
$USERR3
 40
0.0
  9
$USERR4
 40
0.0
  9
$USERR5
 40
0.0
  9
$WORLDVIEW
 70
     1
  9
$SHADEDGE
 70
     3
  9
$SHADEDIF
 70
    70
  9
$TILEMODE
 70
     1
  9
$MAXACTVP
 70
    16
  9
$PLIMCHECK
 70
     0
  9
$PEXTMIN
 10
1.0000000000000000E+020
 20
1.0000000000000000E+020
 30
1.0000000000000000E+020
  9
$PEXTMAX
 10
-1.0000000000000000E+020
 20
-1.0000000000000000E+020
 30
-1.0000000000000000E+020
  9
$PLIMMIN
 10
0.0
 20
0.0
  9
$PLIMMAX
 10
12.0
 20
9.0
  9
$UNITMODE
 70
     0
  9
$VISRETAIN
 70
     0
  9
$PLINEGEN
 70
     0
  9
$PSLTSCALE
 70
     0
  0
ENDSEC
  0
SECTION
  2
TABLES
  0
TABLE
  2
VPORT
 70
     2
  0
VPORT
  2
*ACTIVE
 70
     0
 10
0.0
 20
0.0
 11
1.0
 21
1.0
 12
24363.118975491299
 22
-3223.6752178698162
 13
0.0
 23
0.0
 14
5.0
 24
5.0
 15
0.0
 25
0.0
 16
0.0
 26
0.0
 36
1.0
 17
0.0
 27
0.0
 37
0.0
 40
22027.48798832282
 41
1.5051150895140659
 42
50.0
 43
0.0
 44
0.0
 50
0.0
 51
0.0
 71
     0
 72
   100
 73
     1
 74
     0
 75
     0
 76
     0
 77
     0
 78
     0
  0
ENDTAB
  0
TABLE
  2
LTYPE
 70
     3
  0
LTYPE
  2
CONTINUOUS
 70
     0
  3
Solid line
 72
    65
 73
     0
 40
0.0
  0
LTYPE
  2
CENTER
 70
     0
  3
____ _ ____ _ ____ _ ____ _ ____ _ ____ _ ____ 
 72
    65
 73
     4
 40
2.0
 49
1.25
 49
-0.25
 49
0.25
 49
-0.25
  0
LTYPE
  2
PHANTOM
 70
     0
  3
______  __  __  ______  __  __  ______  __  __ 
 72
    65
 73
     6
 40
2.5
 49
1.25
 49
-0.25
 49
0.25
 49
-0.25
 49
0.25
 49
-0.25
  0
ENDTAB
  0
TABLE
  2
LAYER
 70
     7
  0
LAYER
  2
0
 70
     0
 62
     7
  6
CONTINUOUS
  0
LAYER
  2
CT
 70
     0
 62
     3
  6
CENTER
  0
LAYER
  2
FUTO
 70
     0
 62
     4
  6
CONTINUOUS
  0
LAYER
  2
SL
 70
     0
 62
     1
  6
PHANTOM
  0
LAYER
  2
SP
 70
     0
 62
     2
  6
CONTINUOUS
  0
LAYER
  2
DEFPOINTS
 70
     0
 62
     7
  6
CONTINUOUS
  0
LAYER
  2
4
 70
     0
 62
     7
  6
CONTINUOUS
  0
ENDTAB
  0
TABLE
  2
STYLE
 70
     1
  0
STYLE
  2
STANDARD
 70
     0
 40
0.0
 41
1.0
 50
15.0
 71
     0
 42
137.5
  3
C:\Program Files\AutoCAD LT\simplex.shx
  4
C:\Program Files\AutoCAD LT\extfont.shx
  0
ENDTAB
  0
TABLE
  2
VIEW
 70
     0
  0
ENDTAB
  0
TABLE
  2
UCS
 70
     0
  0
ENDTAB
  0
TABLE
  2
APPID
 70
     2
  0
APPID
  2
ACAD
 70
     0
  0
APPID
  2
CONTENTBLOCKICON
 70
     0
  0
ENDTAB
  0
TABLE
  2
DIMSTYLE
 70
     2
  0
DIMSTYLE
  2
STANDARD
 70
     0
  3

  4

  5

  6

  7

 40
1.0
 41
0.18
 42
0.0625
 43
0.38
 44
0.18
 45
0.0
 46
0.0
 47
0.0
 48
0.0
140
0.18
141
0.09
142
0.0
143
25.399999999999999
144
1.0
145
0.0
146
1.0
147
0.09
 71
     0
 72
     0
 73
     1
 74
     1
 75
     0
 76
     0
 77
     0
 78
     0
170
     0
171
     2
172
     0
173
     0
174
     0
175
     0
176
     0
177
     0
178
     0
  0
DIMSTYLE
  2
MATSU
 70
     0
  3

  4

  5

  6
OPEN
  7
OPEN
 40
1.0
 41
2.0
 42
1.0
 43
10.0
 44
1.0
 45
0.0
 46
0.0
 47
0.0
 48
0.0
140
3.0
141
0.0
142
0.0
143
0.03937
144
1.0
145
0.0
146
1.0
147
0.5
 71
     0
 72
     0
 73
     0
 74
     0
 75
     0
 76
     0
 77
     1
 78
     8
170
     0
171
     2
172
     1
173
     1
174
     0
175
     0
176
   256
177
   256
178
   256
  0
ENDTAB
  0
ENDSEC
  0
SECTION
  2
BLOCKS
  0
BLOCK
  8
0
  2
$MODEL_SPACE
 70
     0
 10
0.0
 20
0.0
 30
0.0
  3
$MODEL_SPACE
  1

  0
ENDBLK
  5
1B
  8
0
  0
BLOCK
 67
     1
  8
0
  2
$PAPER_SPACE
 70
     0
 10
0.0
 20
0.0
 30
0.0
  3
$PAPER_SPACE
  1

  0
ENDBLK
  5
18
 67
     1
  8
0
  0
BLOCK
  8
0
  2
_OPEN
 70
     0
 10
0.0
 20
0.0
 30
0.0
  3
_OPEN
  1

  0
LINE
  5
28
  8
0
  6
BYBLOCK
 62
     0
 10
-1.0
 20
0.1666666666666666
 30
0.0
 11
0.0
 21
0.0
 31
0.0
  0
LINE
  5
29
  8
0
  6
BYBLOCK
 62
     0
 10
0.0
 20
0.0
 30
0.0
 11
-1.0
 21
-0.1666666666666666
 31
0.0
  0
LINE
  5
2A
  8
0
  6
BYBLOCK
 62
     0
 10
0.0
 20
0.0
 30
0.0
 11
-1.0
 21
0.0
 31
0.0
  0
ENDBLK
  5
2B
  8
0
  0
BLOCK
  8
0
  2
*D1
 70
     1
 10
0.0
 20
0.0
 30
0.0
  3
*D1
  1

  0
LINE
  5
C42B
  8
0
  6
BYBLOCK
 10
10379.973178131029
 20
-1999.2900275283571
 30
0.0
 11
10379.973178131029
 21
-1669.618035081395
 31
0.0
  0
LINE
  5
C42C
  8
0
  6
BYBLOCK
 10
12739.97317813102
 20
-1999.2900275283571
 30
0.0
 11
12739.97317813102
 21
-1669.618035081395
 31
0.0
  0
LINE
  5
C42D
  8
0
  6
BYBLOCK
 10
10489.97317813102
 20
-1724.618035081395
 30
0.0
 11
12629.973178131029
 21
-1724.618035081395
 31
0.0
  0
INSERT
  5
C42E
  8
0
  6
BYBLOCK
  2
_OPEN
 10
10379.973178131029
 20
-1724.618035081395
 30
0.0
 41
110.0
 42
110.0
 43
110.0
 50
180.0
  0
INSERT
  5
C42F
  8
0
  6
BYBLOCK
  2
_OPEN
 10
12739.97317813102
 20
-1724.618035081395
 30
0.0
 41
110.0
 42
110.0
 43
110.0
  0
TEXT
  5
C430
  8
SP
 10
11306.0724343856
 20
-1669.618035081395
 30
0.0
 40
137.5
  1
2360
 51
15.0
  0
POINT
  5
C431
  8
DEFPOINTS
  6
BYBLOCK
 62
     0
 10
10379.973178131029
 20
-2054.2900275283569
 30
0.0
  0
POINT
  5
C432
  8
DEFPOINTS
  6
BYBLOCK
 62
     0
 10
12739.97317813102
 20
-2054.2900275283569
 30
0.0
  0
POINT
  5
C433
  8
DEFPOINTS
  6
BYBLOCK
 62
     0
 10
12739.97317813102
 20
-1724.618035081395
 30
0.0
  0
ENDBLK
  5
C434
  8
0
  0
BLOCK
  8
0
  2
*D2
 70
     1
 10
0.0
 20
0.0
 30
0.0
  3
*D2
  1

  0
LINE
  5
C3B2
  8
0
  6
BYBLOCK
 10
12739.97317813102
 20
-1999.2900275283571
 30
0.0
 11
12739.97317813102
 21
-1669.618035081395
 31
0.0
  0
LINE
  5
C3B3
  8
0
  6
BYBLOCK
 10
14579.973178131029
 20
-3949.2900275283541
 30
0.0
 11
14579.973178131029
 21
-1669.618035081395
 31
0.0
  0
LINE
  5
C3B4
  8
0
  6
BYBLOCK
 10
12849.97317813102
 20
-1724.618035081395
 30
0.0
 11
14469.973178131029
 21
-1724.618035081395
 31
0.0
  0
INSERT
  5
C3B5
  8
0
  6
BYBLOCK
  2
_OPEN
 10
12739.97317813102
 20
-1724.618035081395
 30
0.0
 41
110.0
 42
110.0
 43
110.0
 50
180.0
  0
INSERT
  5
C3B6
  8
0
  6
BYBLOCK
  2
_OPEN
 10
14579.973178131029
 20
-1724.618035081395
 30
0.0
 41
110.0
 42
110.0
 43
110.0
  0
TEXT
  5
C3B7
  8
SP
 10
13404.25502397351
 20
-1669.618035081395
 30
0.0
 40
137.5
  1
1840
 51
15.0
  0
POINT
  5
C3B8
  8
DEFPOINTS
  6
BYBLOCK
 62
     0
 10
12739.97317813102
 20
-2054.2900275283569
 30
0.0
  0
POINT
  5
C3B9
  8
DEFPOINTS
  6
BYBLOCK
 62
     0
 10
14579.973178131029
 20
-4004.2900275283532
 30
0.0
  0
POINT
  5
C3BA
  8
DEFPOINTS
  6
BYBLOCK
 62
     0
 10
14579.973178131029
 20
-1724.618035081395
 30
0.0
  0
ENDBLK
  5
C3BB
  8
0
  0
BLOCK
  8
0
  2
*D3
 70
     1
 10
0.0
 20
0.0
 30
0.0
  3
*D3
  1

  0
LINE
  5
C436
  8
0
  6
BYBLOCK
 10
10324.97317813102
 20
-2054.2900275283569
 30
0.0
 11
9819.0991396737263
 21
-2054.2900275283569
 31
0.0
  0
LINE
  5
C437
  8
0
  6
BYBLOCK
 10
10324.97317813102
 20
-5304.2900275283573
 30
0.0
 11
9819.0991396737263
 21
-5304.2900275283573
 31
0.0
  0
LINE
  5
C438
  8
0
  6
BYBLOCK
 10
9874.0991396737263
 20
-2164.2900275283569
 30
0.0
 11
9874.0991396737263
 21
-5194.2900275283573
 31
0.0
  0
INSERT
  5
C439
  8
0
  6
BYBLOCK
  2
_OPEN
 10
9874.0991396737263
 20
-2054.2900275283569
 30
0.0
 41
110.0
 42
110.0
 43
110.0
 50
90.0
  0
INSERT
  5
C43A
  8
0
  6
BYBLOCK
  2
_OPEN
 10
9874.0991396737263
 20
-5304.2900275283573
 30
0.0
 41
110.0
 42
110.0
 43
110.0
 50
270.0
  0
TEXT
  5
C43B
  8
SP
 10
9819.0991396737263
 20
-3936.6996297460919
 30
0.0
 40
137.5
  1
3250
 50
90.0
 51
15.0
  0
POINT
  5
C43C
  8
DEFPOINTS
  6
BYBLOCK
 62
     0
 10
10379.973178131029
 20
-2054.2900275283569
 30
0.0
  0
POINT
  5
C43D
  8
DEFPOINTS
  6
BYBLOCK
 62
     0
 10
10379.973178131029
 20
-5304.2900275283573
 30
0.0
  0
POINT
  5
C43E
  8
DEFPOINTS
  6
BYBLOCK
 62
     0
 10
9874.0991396737263
 20
-5304.2900275283573
 30
0.0
  0
ENDBLK
  5
C43F
  8
0
  0
BLOCK
  8
0
  2
*D4
 70
     1
 10
0.0
 20
0.0
 30
0.0
  3
*D4
  1

  0
LINE
  5
C3BD
  8
0
  6
BYBLOCK
 10
10379.973178131029
 20
-5359.2900275283573
 30
0.0
 11
10379.973178131029
 21
-5806.7633384107676
 31
0.0
  0
LINE
  5
C3BE
  8
0
  6
BYBLOCK
 10
14579.973178131029
 20
-5359.2900275283537
 30
0.0
 11
14579.973178131029
 21
-5806.7633384107676
 31
0.0
  0
LINE
  5
C3BF
  8
0
  6
BYBLOCK
 10
10489.97317813102
 20
-5751.7633384107676
 30
0.0
 11
14469.973178131029
 21
-5751.7633384107676
 31
0.0
  0
INSERT
  5
C3C0
  8
0
  6
BYBLOCK
  2
_OPEN
 10
10379.973178131029
 20
-5751.7633384107676
 30
0.0
 41
110.0
 42
110.0
 43
110.0
 50
180.0
  0
INSERT
  5
C3C1
  8
0
  6
BYBLOCK
  2
_OPEN
 10
14579.973178131029
 20
-5751.7633384107676
 30
0.0
 41
110.0
 42
110.0
 43
110.0
  0
TEXT
  5
C3C2
  8
SP
 10
12219.93193205906
 20
-5696.7633384107676
 30
0.0
 40
137.5
  1
4200
 51
15.0
  0
POINT
  5
C3C3
  8
DEFPOINTS
  6
BYBLOCK
 62
     0
 10
10379.973178131029
 20
-5304.2900275283573
 30
0.0
  0
POINT
  5
C3C4
  8
DEFPOINTS
  6
BYBLOCK
 62
     0
 10
14579.973178131029
 20
-5304.2900275283528
 30
0.0
  0
POINT
  5
C3C5
  8
DEFPOINTS
  6
BYBLOCK
 62
     0
 10
14579.973178131029
 20
-5751.7633384107676
 30
0.0
  0
ENDBLK
  5
C3C6
  8
0
  0
BLOCK
  8
0
  2
*D5
 70
     1
 10
0.0
 20
0.0
 30
0.0
  3
*D5
  1

  0
LINE
  5
C3DE
  8
0
  6
BYBLOCK
 10
14634.973178131029
 20
-4004.2900275283532
 30
0.0
 11
15024.13675893081
 21
-4004.2900275283532
 31
0.0
  0
LINE
  5
C3DF
  8
0
  6
BYBLOCK
 10
14634.973178131029
 20
-5304.2900275283528
 30
0.0
 11
15024.13675893081
 21
-5304.2900275283528
 31
0.0
  0
LINE
  5
C3E0
  8
0
  6
BYBLOCK
 10
14969.13675893081
 20
-4114.2900275283537
 30
0.0
 11
14969.13675893081
 21
-5194.2900275283528
 31
0.0
  0
INSERT
  5
C3E1
  8
0
  6
BYBLOCK
  2
_OPEN
 10
14969.13675893081
 20
-4004.2900275283532
 30
0.0
 41
110.0
 42
110.0
 43
110.0
 50
90.0
  0
INSERT
  5
C3E2
  8
0
  6
BYBLOCK
  2
_OPEN
 10
14969.13675893081
 20
-5304.2900275283528
 30
0.0
 41
110.0
 42
110.0
 43
110.0
 50
270.0
  0
TEXT
  5
C3E3
  8
SP
 10
14914.13675893081
 20
-4910.0081816858647
 30
0.0
 40
137.5
  1
1300
 50
90.0
 51
15.0
  0
POINT
  5
C3E4
  8
DEFPOINTS
  6
BYBLOCK
 62
     0
 10
14579.973178131029
 20
-4004.2900275283532
 30
0.0
  0
POINT
  5
C3E5
  8
DEFPOINTS
  6
BYBLOCK
 62
     0
 10
14579.973178131029
 20
-5304.2900275283528
 30
0.0
  0
POINT
  5
C3E6
  8
DEFPOINTS
  6
BYBLOCK
 62
     0
 10
14969.13675893081
 20
-5304.2900275283528
 30
0.0
  0
ENDBLK
  5
C3E7
  8
0
  0
BLOCK
  8
0
  2
*D6
 70
     1
 10
0.0
 20
0.0
 30
0.0
  3
*D6
  1

  0
LINE
  5
C2EB
  8
0
  6
BYBLOCK
 10
15724.627944492229
 20
-7115.1348837428723
 30
0.0
 11
15724.627944492229
 21
-6726.1240615310662
 31
0.0
  0
LINE
  5
C2EC
  8
0
  6
BYBLOCK
 10
18374.627944492229
 20
-7115.1348837428723
 30
0.0
 11
18374.627944492229
 21
-6726.1240615310662
 31
0.0
  0
LINE
  5
C2ED
  8
0
  6
BYBLOCK
 10
15834.627944492229
 20
-6781.1240615310662
 30
0.0
 11
18264.627944492229
 21
-6781.1240615310662
 31
0.0
  0
INSERT
  5
C2EE
  8
0
  6
BYBLOCK
  2
_OPEN
 10
15724.627944492229
 20
-6781.1240615310662
 30
0.0
 41
110.0
 42
110.0
 43
110.0
 50
180.0
  0
INSERT
  5
C2EF
  8
0
  6
BYBLOCK
  2
_OPEN
 10
18374.627944492229
 20
-6781.1240615310662
 30
0.0
 41
110.0
 42
110.0
 43
110.0
  0
TEXT
  5
C2F0
  8
SP
 10
16795.727200746809
 20
-6726.1240615310662
 30
0.0
 40
137.5
  1
2650
 51
15.0
  0
POINT
  5
C2F1
  8
DEFPOINTS
  6
BYBLOCK
 62
     0
 10
15724.627944492229
 20
-7170.1348837428723
 30
0.0
  0
POINT
  5
C2F2
  8
DEFPOINTS
  6
BYBLOCK
 62
     0
 10
18374.627944492229
 20
-7170.1348837428723
 30
0.0
  0
POINT
  5
C2F3
  8
DEFPOINTS
  6
BYBLOCK
 62
     0
 10
18374.627944492229
 20
-6781.1240615310662
 30
0.0
  0
ENDBLK
  5
C2F4
  8
0
  0
BLOCK
  8
0
  2
*D7
 70
     1
 10
0.0
 20
0.0
 30
0.0
  3
*D7
  1

  0
LINE
  5
C3F4
  8
0
  6
BYBLOCK
 10
10284.97317813102
 20
-7040.1348837428704
 30
0.0
 11
10284.97317813102
 21
-6726.1240615310662
 31
0.0
  0
LINE
  5
C3F5
  8
0
  6
BYBLOCK
 10
11559.97317813102
 20
-6952.2486237122494
 30
0.0
 11
11559.97317813102
 21
-6726.1240615310662
 31
0.0
  0
LINE
  5
C3F6
  8
0
  6
BYBLOCK
 10
10394.97317813102
 20
-6781.1240615310662
 30
0.0
 11
11449.97317813102
 21
-6781.1240615310662
 31
0.0
  0
INSERT
  5
C3F7
  8
0
  6
BYBLOCK
  2
_OPEN
 10
10284.97317813102
 20
-6781.1240615310662
 30
0.0
 41
110.0
 42
110.0
 43
110.0
 50
180.0
  0
INSERT
  5
C3F8
  8
0
  6
BYBLOCK
  2
_OPEN
 10
11559.97317813102
 20
-6781.1240615310662
 30
0.0
 41
110.0
 42
110.0
 43
110.0
  0
TEXT
  5
C3F9
  8
SP
 10
10666.51997502501
 20
-6726.1240615310662
 30
0.0
 40
137.5
  1
1275
 51
15.0
  0
POINT
  5
C3FA
  8
DEFPOINTS
  6
BYBLOCK
 62
     0
 10
10284.97317813102
 20
-7095.1348837428714
 30
0.0
  0
POINT
  5
C3FB
  8
DEFPOINTS
  6
BYBLOCK
 62
     0
 10
11559.97317813102
 20
-7007.2486237122494
 30
0.0
  0
POINT
  5
C3FC
  8
DEFPOINTS
  6
BYBLOCK
 62
     0
 10
11559.97317813102
 20
-6781.1240615310662
 30
0.0
  0
ENDBLK
  5
C3FD
  8
0
  0
BLOCK
  8
0
  2
*D8
 70
     1
 10
0.0
 20
0.0
 30
0.0
  3
*D8
  1

  0
LINE
  5
C3FF
  8
0
  6
BYBLOCK
 10
11559.97317813102
 20
-6952.2486237122494
 30
0.0
 11
11559.97317813102
 21
-6726.1240615310662
 31
0.0
  0
LINE
  5
C400
  8
0
  6
BYBLOCK
 10
13295.973178131029
 20
-9120.1348837428704
 30
0.0
 11
13295.973178131029
 21
-6726.1240615310662
 31
0.0
  0
LINE
  5
C401
  8
0
  6
BYBLOCK
 10
11669.973178131029
 20
-6781.1240615310662
 30
0.0
 11
13185.97317813102
 21
-6781.1240615310662
 31
0.0
  0
INSERT
  5
C402
  8
0
  6
BYBLOCK
  2
_OPEN
 10
11559.97317813102
 20
-6781.1240615310662
 30
0.0
 41
110.0
 42
110.0
 43
110.0
 50
180.0
  0
INSERT
  5
C403
  8
0
  6
BYBLOCK
  2
_OPEN
 10
13295.973178131029
 20
-6781.1240615310662
 30
0.0
 41
110.0
 42
110.0
 43
110.0
  0
TEXT
  5
C404
  8
SP
 10
12174.651618879239
 20
-6726.1240615310662
 30
0.0
 40
137.5
  1
1736
 51
15.0
  0
POINT
  5
C405
  8
DEFPOINTS
  6
BYBLOCK
 62
     0
 10
11559.97317813102
 20
-7007.2486237122494
 30
0.0
  0
POINT
  5
C406
  8
DEFPOINTS
  6
BYBLOCK
 62
     0
 10
13295.973178131029
 20
-9175.1348837428704
 30
0.0
  0
POINT
  5
C407
  8
DEFPOINTS
  6
BYBLOCK
 62
     0
 10
13295.973178131029
 20
-6781.1240615310662
 30
0.0
  0
ENDBLK
  5
C408
  8
0
  0
BLOCK
  8
0
  2
*D9
 70
     1
 10
0.0
 20
0.0
 30
0.0
  3
*D9
  1

  0
LINE
  5
C40A
  8
0
  6
BYBLOCK
 10
10229.97317813102
 20
-7174.1348837428704
 30
0.0
 11
9829.2942168552454
 21
-7174.1348837428704
 31
0.0
  0
LINE
  5
C40B
  8
0
  6
BYBLOCK
 10
10229.97317813102
 20
-9234.1348837428704
 30
0.0
 11
9829.2942168552454
 21
-9234.1348837428704
 31
0.0
  0
LINE
  5
C40C
  8
0
  6
BYBLOCK
 10
9884.2942168552454
 20
-7284.1348837428714
 30
0.0
 11
9884.2942168552454
 21
-9124.1348837428704
 31
0.0
  0
INSERT
  5
C40D
  8
0
  6
BYBLOCK
  2
_OPEN
 10
9884.2942168552454
 20
-7174.1348837428704
 30
0.0
 41
110.0
 42
110.0
 43
110.0
 50
90.0
  0
INSERT
  5
C40E
  8
0
  6
BYBLOCK
  2
_OPEN
 10
9884.2942168552454
 20
-9234.1348837428704
 30
0.0
 41
110.0
 42
110.0
 43
110.0
 50
270.0
  0
TEXT
  5
C40F
  8
SP
 10
9829.2942168552454
 20
-8458.0356274882924
 30
0.0
 40
137.5
  1
2060
 50
90.0
 51
15.0
  0
POINT
  5
C410
  8
DEFPOINTS
  6
BYBLOCK
 62
     0
 10
10284.97317813102
 20
-7174.1348837428704
 30
0.0
  0
POINT
  5
C411
  8
DEFPOINTS
  6
BYBLOCK
 62
     0
 10
10284.97317813102
 20
-9234.1348837428704
 30
0.0
  0
POINT
  5
C412
  8
DEFPOINTS
  6
BYBLOCK
 62
     0
 10
9884.2942168552454
 20
-9234.1348837428704
 30
0.0
  0
ENDBLK
  5
C413
  8
0
  0
BLOCK
  8
0
  2
*D10
 70
     1
 10
0.0
 20
0.0
 30
0.0
  3
*D10
  1

  0
LINE
  5
C415
  8
0
  6
BYBLOCK
 10
10229.97317813102
 20
-7174.1348837428704
 30
0.0
 11
9455.6581316264965
 21
-7174.1348837428704
 31
0.0
  0
LINE
  5
C416
  8
0
  6
BYBLOCK
 10
10126.420180017079
 20
-9322.1348837428704
 30
0.0
 11
9455.6581316264965
 21
-9322.1348837428704
 31
0.0
  0
LINE
  5
C417
  8
0
  6
BYBLOCK
 10
9510.6581316264965
 20
-7284.1348837428714
 30
0.0
 11
9510.6581316264965
 21
-9212.1348837428704
 31
0.0
  0
INSERT
  5
C418
  8
0
  6
BYBLOCK
  2
_OPEN
 10
9510.6581316264965
 20
-7174.1348837428704
 30
0.0
 41
110.0
 42
110.0
 43
110.0
 50
90.0
  0
INSERT
  5
C419
  8
0
  6
BYBLOCK
  2
_OPEN
 10
9510.6581316264965
 20
-9322.1348837428704
 30
0.0
 41
110.0
 42
110.0
 43
110.0
 50
270.0
  0
TEXT
  5
C41A
  8
SP
 10
9455.6581316264965
 20
-8489.8176040111339
 30
0.0
 40
137.5
  1
2148
 50
90.0
 51
15.0
  0
POINT
  5
C41B
  8
DEFPOINTS
  6
BYBLOCK
 62
     0
 10
10284.97317813102
 20
-7174.1348837428704
 30
0.0
  0
POINT
  5
C41C
  8
DEFPOINTS
  6
BYBLOCK
 62
     0
 10
10181.420180017079
 20
-9322.1348837428704
 30
0.0
  0
POINT
  5
C41D
  8
DEFPOINTS
  6
BYBLOCK
 62
     0
 10
9510.6581316264965
 20
-9322.1348837428704
 30
0.0
  0
ENDBLK
  5
C41E
  8
0
  0
BLOCK
  8
0
  2
*D11
 70
     1
 10
0.0
 20
0.0
 30
0.0
  3
*D11
  1

  0
LINE
  5
C420
  8
0
  6
BYBLOCK
 10
10126.420180017079
 20
-9322.1348837428704
 30
0.0
 11
9455.6581316264965
 21
-9322.1348837428704
 31
0.0
  0
LINE
  5
C421
  8
0
  6
BYBLOCK
 10
10324.97317813102
 20
-10802.13488374287
 30
0.0
 11
9455.6581316264965
 21
-10802.13488374287
 31
0.0
  0
LINE
  5
C422
  8
0
  6
BYBLOCK
 10
9510.6581316264965
 20
-9432.1348837428704
 30
0.0
 11
9510.6581316264965
 21
-10692.13488374287
 31
0.0
  0
INSERT
  5
C423
  8
0
  6
BYBLOCK
  2
_OPEN
 10
9510.6581316264965
 20
-9322.1348837428704
 30
0.0
 41
110.0
 42
110.0
 43
110.0
 50
90.0
  0
INSERT
  5
C424
  8
0
  6
BYBLOCK
  2
_OPEN
 10
9510.6581316264965
 20
-10802.13488374287
 30
0.0
 41
110.0
 42
110.0
 43
110.0
 50
270.0
  0
TEXT
  5
C425
  8
SP
 10
9455.6581316264965
 20
-10317.853037900381
 30
0.0
 40
137.5
  1
1480
 50
90.0
 51
15.0
  0
POINT
  5
C426
  8
DEFPOINTS
  6
BYBLOCK
 62
     0
 10
10181.420180017079
 20
-9322.1348837428704
 30
0.0
  0
POINT
  5
C427
  8
DEFPOINTS
  6
BYBLOCK
 62
     0
 10
10379.973178131029
 20
-10802.13488374287
 30
0.0
  0
POINT
  5
C428
  8
DEFPOINTS
  6
BYBLOCK
 62
     0
 10
9510.6581316264965
 20
-10802.13488374287
 30
0.0
  0
ENDBLK
  5
C429
  8
0
  0
BLOCK
  8
0
  2
*D12
 70
     1
 10
0.0
 20
0.0
 30
0.0
  3
*D12
  1

  0
LINE
  5
C346
  8
0
  6
BYBLOCK
 10
15203.627944492229
 20
-10857.13488374287
 30
0.0
 11
15203.627944492229
 21
-11202.63562283916
 31
0.0
  0
LINE
  5
C347
  8
0
  6
BYBLOCK
 10
17049.627944492229
 20
-10857.13488374287
 30
0.0
 11
17049.627944492229
 21
-11202.63562283916
 31
0.0
  0
LINE
  5
C348
  8
0
  6
BYBLOCK
 10
15313.627944492229
 20
-11147.63562283916
 30
0.0
 11
16939.627944492229
 21
-11147.63562283916
 31
0.0
  0
INSERT
  5
C349
  8
0
  6
BYBLOCK
  2
_OPEN
 10
15203.627944492229
 20
-11147.63562283916
 30
0.0
 41
110.0
 42
110.0
 43
110.0
 50
180.0
  0
INSERT
  5
C34A
  8
0
  6
BYBLOCK
  2
_OPEN
 10
17049.627944492229
 20
-11147.63562283916
 30
0.0
 41
110.0
 42
110.0
 43
110.0
  0
TEXT
  5
C34B
  8
SP
 10
15873.30638524045
 20
-11092.635622839151
 30
0.0
 40
137.5
  1
1846
 51
15.0
  0
POINT
  5
C34C
  8
DEFPOINTS
  6
BYBLOCK
 62
     0
 10
15203.627944492229
 20
-10802.13488374287
 30
0.0
  0
POINT
  5
C34D
  8
DEFPOINTS
  6
BYBLOCK
 62
     0
 10
17049.627944492229
 20
-10802.13488374287
 30
0.0
  0
POINT
  5
C34E
  8
DEFPOINTS
  6
BYBLOCK
 62
     0
 10
17049.627944492229
 20
-11147.63562283916
 30
0.0
  0
ENDBLK
  5
C34F
  8
0
  0
BLOCK
  8
0
  2
*D13
 70
     1
 10
0.0
 20
0.0
 30
0.0
  3
*D13
  1

  0
LINE
  5
C353
  8
0
  6
BYBLOCK
 10
17049.627944492229
 20
-10857.13488374287
 30
0.0
 11
17049.627944492229
 21
-11202.63562283916
 31
0.0
  0
LINE
  5
C354
  8
0
  6
BYBLOCK
 10
18453.627944492229
 20
-10857.13488374287
 30
0.0
 11
18453.627944492229
 21
-11202.63562283916
 31
0.0
  0
LINE
  5
C355
  8
0
  6
BYBLOCK
 10
17159.627944492229
 20
-11147.63562283916
 30
0.0
 11
18343.627944492229
 21
-11147.63562283916
 31
0.0
  0
INSERT
  5
C356
  8
0
  6
BYBLOCK
  2
_OPEN
 10
17049.627944492229
 20
-11147.63562283916
 30
0.0
 41
110.0
 42
110.0
 43
110.0
 50
180.0
  0
INSERT
  5
C357
  8
0
  6
BYBLOCK
  2
_OPEN
 10
18453.627944492229
 20
-11147.63562283916
 30
0.0
 41
110.0
 42
110.0
 43
110.0
  0
TEXT
  5
C358
  8
SP
 10
17498.13431746788
 20
-11092.635622839151
 30
0.0
 40
137.5
  1
1404
 51
15.0
  0
POINT
  5
C359
  8
DEFPOINTS
  6
BYBLOCK
 62
     0
 10
17049.627944492229
 20
-10802.13488374287
 30
0.0
  0
POINT
  5
C35A
  8
DEFPOINTS
  6
BYBLOCK
 62
     0
 10
18453.627944492229
 20
-10802.13488374287
 30
0.0
  0
POINT
  5
C35B
  8
DEFPOINTS
  6
BYBLOCK
 62
     0
 10
18453.627944492229
 20
-11147.63562283916
 30
0.0
  0
ENDBLK
  5
C35C
  8
0
  0
BLOCK
  8
0
  2
*D14
 70
     1
 10
0.0
 20
0.0
 30
0.0
  3
*D14
  1

  0
LINE
  5
C360
  8
0
  6
BYBLOCK
 10
15203.627944492229
 20
-10857.13488374286
 30
0.0
 11
15203.627944492229
 21
-11532.38305444039
 31
0.0
  0
LINE
  5
C361
  8
0
  6
BYBLOCK
 10
18453.627944492229
 20
-10857.13488374286
 30
0.0
 11
18453.627944492229
 21
-11532.38305444039
 31
0.0
  0
LINE
  5
C362
  8
0
  6
BYBLOCK
 10
15313.627944492229
 20
-11477.38305444039
 30
0.0
 11
18343.627944492229
 21
-11477.38305444039
 31
0.0
  0
INSERT
  5
C363
  8
0
  6
BYBLOCK
  2
_OPEN
 10
15203.627944492229
 20
-11477.38305444039
 30
0.0
 41
110.0
 42
110.0
 43
110.0
 50
180.0
  0
INSERT
  5
C364
  8
0
  6
BYBLOCK
  2
_OPEN
 10
18453.627944492229
 20
-11477.38305444039
 30
0.0
 41
110.0
 42
110.0
 43
110.0
  0
TEXT
  5
C365
  8
SP
 10
16571.218342274489
 20
-11422.38305444039
 30
0.0
 40
137.5
  1
3250
 51
15.0
  0
POINT
  5
C366
  8
DEFPOINTS
  6
BYBLOCK
 62
     0
 10
15203.627944492229
 20
-10802.13488374286
 30
0.0
  0
POINT
  5
C367
  8
DEFPOINTS
  6
BYBLOCK
 62
     0
 10
18453.627944492229
 20
-10802.13488374286
 30
0.0
  0
POINT
  5
C368
  8
DEFPOINTS
  6
BYBLOCK
 62
     0
 10
18453.627944492229
 20
-11477.38305444039
 30
0.0
  0
ENDBLK
  5
C369
  8
0
  0
BLOCK
  8
0
  2
*D15
 70
     1
 10
0.0
 20
0.0
 30
0.0
  3
*D15
  1

  0
LINE
  5
C3E9
  8
0
  6
BYBLOCK
 10
11559.97317813102
 20
-10857.13488374287
 30
0.0
 11
11559.97317813102
 21
-11203.854903828869
 31
0.0
  0
LINE
  5
C3EA
  8
0
  6
BYBLOCK
 10
10379.973178131029
 20
-10857.13488374287
 30
0.0
 11
10379.973178131029
 21
-11203.854903828869
 31
0.0
  0
LINE
  5
C3EB
  8
0
  6
BYBLOCK
 10
11449.97317813102
 20
-11148.854903828869
 30
0.0
 11
10489.97317813102
 21
-11148.854903828869
 31
0.0
  0
INSERT
  5
C3EC
  8
0
  6
BYBLOCK
  2
_OPEN
 10
11559.97317813102
 20
-11148.854903828869
 30
0.0
 41
110.0
 42
110.0
 43
110.0
  0
INSERT
  5
C3ED
  8
0
  6
BYBLOCK
  2
_OPEN
 10
10379.973178131029
 20
-11148.854903828869
 30
0.0
 41
110.0
 42
110.0
 43
110.0
 50
180.0
  0
TEXT
  5
C3EE
  8
SP
 10
10727.35026206875
 20
-11093.854903828869
 30
0.0
 40
137.5
  1
1180
 51
15.0
  0
POINT
  5
C3EF
  8
DEFPOINTS
  6
BYBLOCK
 62
     0
 10
11559.97317813102
 20
-10802.13488374287
 30
0.0
  0
POINT
  5
C3F0
  8
DEFPOINTS
  6
BYBLOCK
 62
     0
 10
10379.973178131029
 20
-10802.13488374287
 30
0.0
  0
POINT
  5
C3F1
  8
DEFPOINTS
  6
BYBLOCK
 62
     0
 10
10379.973178131029
 20
-11148.854903828869
 30
0.0
  0
ENDBLK
  5
C3F2
  8
0
  0
BLOCK
  8
0
  2
*D16
 70
     1
 10
0.0
 20
0.0
 30
0.0
  3
*D16
  1

  0
LINE
  5
C3C8
  8
0
  6
BYBLOCK
 10
14579.973178131029
 20
-10857.13488374286
 30
0.0
 11
14579.973178131029
 21
-11203.854903828869
 31
0.0
  0
LINE
  5
C3C9
  8
0
  6
BYBLOCK
 10
11559.97317813102
 20
-10857.13488374287
 30
0.0
 11
11559.97317813102
 21
-11203.854903828869
 31
0.0
  0
LINE
  5
C3CA
  8
0
  6
BYBLOCK
 10
14469.973178131029
 20
-11148.854903828869
 30
0.0
 11
11669.973178131029
 21
-11148.854903828869
 31
0.0
  0
INSERT
  5
C3CB
  8
0
  6
BYBLOCK
  2
_OPEN
 10
14579.973178131029
 20
-11148.854903828869
 30
0.0
 41
110.0
 42
110.0
 43
110.0
  0
INSERT
  5
C3CC
  8
0
  6
BYBLOCK
  2
_OPEN
 10
11559.97317813102
 20
-11148.854903828869
 30
0.0
 41
110.0
 42
110.0
 43
110.0
 50
180.0
  0
TEXT
  5
C3CD
  8
SP
 10
12812.563575913289
 20
-11093.854903828869
 30
0.0
 40
137.5
  1
3020
 51
15.0
  0
POINT
  5
C3CE
  8
DEFPOINTS
  6
BYBLOCK
 62
     0
 10
14579.973178131029
 20
-10802.13488374286
 30
0.0
  0
POINT
  5
C3CF
  8
DEFPOINTS
  6
BYBLOCK
 62
     0
 10
11559.97317813102
 20
-10802.13488374287
 30
0.0
  0
POINT
  5
C3D0
  8
DEFPOINTS
  6
BYBLOCK
 62
     0
 10
11559.97317813102
 20
-11148.854903828869
 30
0.0
  0
ENDBLK
  5
C3D1
  8
0
  0
BLOCK
  8
0
  2
*D17
 70
     1
 10
0.0
 20
0.0
 30
0.0
  3
*D17
  1

  0
LINE
  5
C3D3
  8
0
  6
BYBLOCK
 10
14579.973178131029
 20
-10857.13488374286
 30
0.0
 11
14579.973178131029
 21
-11532.38305444039
 31
0.0
  0
LINE
  5
C3D4
  8
0
  6
BYBLOCK
 10
10379.973178131029
 20
-10857.13488374287
 30
0.0
 11
10379.973178131029
 21
-11532.38305444039
 31
0.0
  0
LINE
  5
C3D5
  8
0
  6
BYBLOCK
 10
14469.973178131029
 20
-11477.38305444039
 30
0.0
 11
10489.97317813102
 21
-11477.38305444039
 31
0.0
  0
INSERT
  5
C3D6
  8
0
  6
BYBLOCK
  2
_OPEN
 10
14579.973178131029
 20
-11477.38305444039
 30
0.0
 41
110.0
 42
110.0
 43
110.0
  0
INSERT
  5
C3D7
  8
0
  6
BYBLOCK
  2
_OPEN
 10
10379.973178131029
 20
-11477.38305444039
 30
0.0
 41
110.0
 42
110.0
 43
110.0
 50
180.0
  0
TEXT
  5
C3D8
  8
SP
 10
12219.93193205906
 20
-11422.38305444039
 30
0.0
 40
137.5
  1
4200
 51
15.0
  0
POINT
  5
C3D9
  8
DEFPOINTS
  6
BYBLOCK
 62
     0
 10
14579.973178131029
 20
-10802.13488374286
 30
0.0
  0
POINT
  5
C3DA
  8
DEFPOINTS
  6
BYBLOCK
 62
     0
 10
10379.973178131029
 20
-10802.13488374287
 30
0.0
  0
POINT
  5
C3DB
  8
DEFPOINTS
  6
BYBLOCK
 62
     0
 10
10379.973178131029
 20
-11477.38305444039
 30
0.0
  0
ENDBLK
  5
C3DC
  8
0
  0
BLOCK
  8
0
  2
*D18
 70
     1
 10
0.0
 20
0.0
 30
0.0
  3
*D18
  1

  0
LINE
  5
C394
  8
0
  6
BYBLOCK
 10
17049.627944492229
 20
-6455.5233385909278
 30
0.0
 11
17049.627944492229
 21
-6423.4830211002563
 31
0.0
  0
LINE
  5
C395
  8
0
  6
BYBLOCK
 10
15149.627944492229
 20
-8787.1348837428741
 30
0.0
 11
15149.627944492229
 21
-6423.4830211002563
 31
0.0
  0
LINE
  5
C396
  8
0
  6
BYBLOCK
 10
16939.627944492229
 20
-6478.4830211002563
 30
0.0
 11
15259.627944492229
 21
-6478.4830211002563
 31
0.0
  0
INSERT
  5
C397
  8
0
  6
BYBLOCK
  2
_OPEN
 10
17049.627944492229
 20
-6478.4830211002563
 30
0.0
 41
110.0
 42
110.0
 43
110.0
  0
INSERT
  5
C398
  8
0
  6
BYBLOCK
  2
_OPEN
 10
15149.627944492229
 20
-6478.4830211002563
 30
0.0
 41
110.0
 42
110.0
 43
110.0
 50
180.0
  0
TEXT
  5
C399
  8
SP
 10
15772.41905988385
 20
-6364.554449671683
 30
0.0
 40
137.5
  1
(1900)
 51
15.0
  0
POINT
  5
C39A
  8
DEFPOINTS
  6
BYBLOCK
 62
     0
 10
17049.627944492229
 20
-6510.5233385909269
 30
0.0
  0
POINT
  5
C39B
  8
DEFPOINTS
  6
BYBLOCK
 62
     0
 10
15149.627944492229
 20
-8842.1348837428741
 30
0.0
  0
POINT
  5
C39C
  8
DEFPOINTS
  6
BYBLOCK
 62
     0
 10
15149.627944492229
 20
-6478.4830211002563
 30
0.0
  0
ENDBLK
  5
C39D
  8
0
  0
BLOCK
  8
0
  2
*D19
 70
     1
 10
0.0
 20
0.0
 30
0.0
  3
*D19
  1

  0
LINE
  5
C3A1
  8
0
  6
BYBLOCK
 10
17049.627944492229
 20
-6455.5233385909278
 30
0.0
 11
17049.627944492229
 21
-6423.4830211002563
 31
0.0
  0
LINE
  5
C3A2
  8
0
  6
BYBLOCK
 10
18619.82794449223
 20
-9357.1348837428686
 30
0.0
 11
18619.82794449223
 21
-6423.4830211002563
 31
0.0
  0
LINE
  5
C3A3
  8
0
  6
BYBLOCK
 10
17159.627944492229
 20
-6478.4830211002563
 30
0.0
 11
18509.82794449223
 21
-6478.4830211002563
 31
0.0
  0
INSERT
  5
C3A4
  8
0
  6
BYBLOCK
  2
_OPEN
 10
17049.627944492229
 20
-6478.4830211002563
 30
0.0
 41
110.0
 42
110.0
 43
110.0
 50
180.0
  0
INSERT
  5
C3A5
  8
0
  6
BYBLOCK
  2
_OPEN
 10
18619.82794449223
 20
-6478.4830211002563
 30
0.0
 41
110.0
 42
110.0
 43
110.0
  0
TEXT
  5
C3A6
  8
SP
 10
17507.519059883849
 20
-6364.554449671683
 30
0.0
 40
137.5
  1
(1570)
 51
15.0
  0
POINT
  5
C3A7
  8
DEFPOINTS
  6
BYBLOCK
 62
     0
 10
17049.627944492229
 20
-6510.5233385909269
 30
0.0
  0
POINT
  5
C3A8
  8
DEFPOINTS
  6
BYBLOCK
 62
     0
 10
18619.82794449223
 20
-9412.1348837428686
 30
0.0
  0
POINT
  5
C3A9
  8
DEFPOINTS
  6
BYBLOCK
 62
     0
 10
18619.82794449223
 20
-6478.4830211002563
 30
0.0
  0
ENDBLK
  5
C3AA
  8
0
  0
BLOCK
  8
0
  2
_DOT
 70
     0
 10
0.0
 20
0.0
 30
0.0
  3
_DOT
  1

  0
POLYLINE
  5
C44F
  8
0
  6
BYBLOCK
 62
     0
 66
     1
 10
0.0
 20
0.0
 30
0.0
 70
     1
 40
0.5
 41
0.5
  0
VERTEX
  5
C4CE
  8
0
  6
BYBLOCK
 62
     0
 10
-0.25
 20
0.0
 30
0.0
 42
1.0
  0
VERTEX
  5
C4CF
  8
0
  6
BYBLOCK
 62
     0
 10
0.25
 20
0.0
 30
0.0
 42
1.0
  0
SEQEND
  5
C4D0
  8
0
  6
BYBLOCK
 62
     0
  0
LINE
  5
C453
  8
0
  6
BYBLOCK
 62
     0
 10
-0.5
 20
0.0
 30
0.0
 11
-1.0
 21
0.0
 31
0.0
  0
ENDBLK
  5
C454
  8
0
  0
BLOCK
  8
0
  2
*D21
 70
     1
 10
0.0
 20
0.0
 30
0.0
  3
*D21
  1

  0
LINE
  5
C457
  8
0
  6
BYBLOCK
 10
10195.316541041089
 20
-10822.13488374287
 30
0.0
 11
9322.4861998253909
 21
-10822.13488374287
 31
0.0
  0
LINE
  5
C458
  8
0
  6
BYBLOCK
 10
10195.316541041089
 20
-11002.13488374287
 30
0.0
 11
9322.4861998253909
 21
-11002.13488374287
 31
0.0
  0
LINE
  5
C459
  8
0
  6
BYBLOCK
 10
9377.4861998253909
 20
-10712.13488374287
 30
0.0
 11
9377.4861998253909
 21
-10602.13488374287
 31
0.0
  0
LINE
  5
C45A
  8
0
  6
BYBLOCK
 10
9377.4861998253909
 20
-11112.13488374287
 30
0.0
 11
9377.4861998253909
 21
-11669.22817809861
 31
0.0
  0
LINE
  5
C45B
  8
0
  6
BYBLOCK
 10
9377.4861998253909
 20
-10822.13488374287
 30
0.0
 11
9377.4861998253909
 21
-11002.13488374287
 31
0.0
  0
INSERT
  5
C45C
  8
0
  6
BYBLOCK
  2
_DOT
 10
9377.4861998253909
 20
-10822.13488374287
 30
0.0
 41
110.0
 42
110.0
 43
110.0
 50
270.0
  0
INSERT
  5
C45D
  8
0
  6
BYBLOCK
  2
_OPEN
 10
9377.4861998253909
 20
-11002.13488374287
 30
0.0
 41
110.0
 42
110.0
 43
110.0
 50
90.0
  0
TEXT
  5
C45E
  8
SP
 10
9322.4861998253909
 20
-11635.923494602061
 30
0.0
 40
137.5
  1
180
 50
90.0
 51
15.0
  0
POINT
  5
C45F
  8
DEFPOINTS
  6
BYBLOCK
 62
     0
 10
10250.316541041089
 20
-10822.13488374287
 30
0.0
  0
POINT
  5
C460
  8
DEFPOINTS
  6
BYBLOCK
 62
     0
 10
10250.316541041089
 20
-11002.13488374287
 30
0.0
  0
POINT
  5
C461
  8
DEFPOINTS
  6
BYBLOCK
 62
     0
 10
9377.4861998253909
 20
-11002.13488374287
 30
0.0
  0
ENDBLK
  5
C462
  8
0
  0
BLOCK
  8
0
  2
_NONE
 70
     0
 10
0.0
 20
0.0
 30
0.0
  3
_NONE
  1

  0
CIRCLE
  5
C466
  8
0
  6
BYBLOCK
 62
     0
 10
0.0
 20
0.0
 30
0.0
 40
0.25
  0
ENDBLK
  5
C467
  8
0
  0
BLOCK
  8
0
  2
*D23
 70
     1
 10
0.0
 20
0.0
 30
0.0
  3
*D23
  1

  0
LINE
  5
C4D1
  8
SP
 10
9383.5392548045147
 20
-10842.13488374287
 30
0.0
 11
9383.5392548045147
 21
-10702.13488374287
 31
0.0
  0
TEXT
  8
0
  40
137.5
  5
C4D6
  72
0
  71
0
 10
8866.28
 20
-11015.5
 30
0.000000
  1
(140)
  0
POINT
  5
C4D3
  8
DEFPOINTS
 62
     0
 10
10250.316541041089
 20
-10842.13488374287
 30
0.0
  0
POINT
  5
C4D4
  8
DEFPOINTS
 62
     0
 10
10250.316541041089
 20
-10702.13488374287
 30
0.0
  0
POINT
  5
C4D5
  8
DEFPOINTS
 62
     0
 10
9383.5392548045147
 20
-10702.13488374287
 30
0.0
  0
ENDBLK
  5
C47C
  8
0
  0
ENDSEC
  0
SECTION
  2
ENTITIES
  0
LINE
  5
7AB6
  8
FUTO
 10
13480.316541041089
 20
-10452.13488374287
 30
0.0
 11
13550.316541041089
 21
-10452.13488374286
 31
0.0
  0
LINE
  5
7AB7
  8
FUTO
 10
14180.316541041089
 20
-10452.13488374287
 30
0.0
 11
14180.316541041089
 21
-10522.13488374287
 31
0.0
  0
LINE
  5
7AB8
  8
FUTO
 10
13480.316541041089
 20
-10452.13488374287
 30
0.0
 11
13480.316541041089
 21
-10522.13488374287
 31
0.0
  0
LINE
  5
7AC0
  8
FUTO
 10
14100.316541041089
 20
-4098.2900275283591
 30
0.0
 11
13560.316541041089
 21
-4098.2900275283591
 31
0.0
  0
LINE
  5
7AC6
  8
FUTO
 10
13560.316541041089
 20
-5001.7900275283591
 30
0.0
 11
14100.316541041089
 21
-5001.7900275283591
 31
0.0
  0
LINE
  5
7AFE
  8
FUTO
 10
13872.816541041089
 20
-5068.2900275283591
 30
0.0
 11
13872.816541041089
 21
-5001.7900275283591
 31
0.0
  0
LINE
  5
7AFF
  8
FUTO
 10
13787.816541041089
 20
-5001.7900275283591
 30
0.0
 11
13787.816541041089
 21
-5068.2900275283591
 31
0.0
  0
ARC
  5
7B35
  8
FUTO
 10
13830.316541041089
 20
-10172.13488374287
 30
0.0
 40
287.5
 50
329.6527344126618
 51
210.34726548400729
  0
LINE
  5
7B36
  8
CT
 10
13830.316541041089
 20
-10902.13488374286
 30
0.0
 11
13830.316541041089
 21
-9788.9725637428728
 31
0.0
  0
LINE
  5
7B38
  8
CT
 10
14150.316541041089
 20
-10172.13488374287
 30
0.0
 11
13510.316541041089
 21
-10172.13488374287
 31
0.0
  0
LINE
  5
7B3B
  8
FUTO
 10
14100.68526104109
 20
-10330.88834674287
 30
0.0
 11
14078.42301804109
 21
-10317.39129774287
 31
0.0
  0
LINE
  5
7B3C
  8
FUTO
 10
14110.316541041089
 20
-10452.13488374287
 30
0.0
 11
14110.316541041089
 21
-10347.990675742871
 31
0.0
  0
ARC
  5
7B3E
  8
FUTO
 10
14090.316541041089
 20
-10347.990675742871
 30
0.0
 40
20.0
 50
0.0
 51
58.772599000000007
  0
LINE
  5
7B4A
  8
FUTO
 10
13550.316541041089
 20
-10452.13488374287
 30
0.0
 11
13550.316541041089
 21
-10347.990675742871
 31
0.0
  0
LINE
  5
7B57
  8
FUTO
 10
13559.94782004109
 20
-10330.88834674287
 30
0.0
 11
13582.21006338868
 21
-10317.391297532129
 31
0.0
  0
ARC
  5
7B5A
  8
FUTO
 10
13570.316541041089
 20
-10347.990675742871
 30
0.0
 40
20.0
 50
121.227401
 51
180.0
  0
CIRCLE
  5
7B75
  8
SL
 10
13830.316541041089
 20
-10172.13488374287
 30
0.0
 40
140.0
  0
LINE
  5
7B82
  8
FUTO
 10
14110.316541041089
 20
-10452.13488374286
 30
0.0
 11
14180.316541041089
 21
-10452.13488374287
 31
0.0
  0
LINE
  5
98B6
  8
SL
 10
15199.627944492229
 20
-8972.1348837428741
 30
0.0
 11
15339.627944492229
 21
-8972.1348837428759
 31
0.0
  0
LINE
  5
98B7
  8
SL
 10
15199.627944492229
 20
-9772.1348837428777
 30
0.0
 11
15339.627944492229
 21
-9772.1348837428777
 31
0.0
  0
LINE
  5
98B8
  8
SL
 10
15339.627944492229
 20
-10032.13488374287
 30
0.0
 11
15199.627944492229
 21
-10032.13488374287
 31
0.0
  0
LINE
  5
98B9
  8
SL
 10
15339.627944492229
 20
-10312.13488374286
 30
0.0
 11
15199.627944492229
 21
-10312.13488374286
 31
0.0
  0
LINE
  5
98BA
  8
SL
 10
15199.627944492229
 20
-8972.1348837428741
 30
0.0
 11
15199.627944492229
 21
-10312.13488374286
 31
0.0
  0
LINE
  5
98BC
  8
SL
 10
15339.627944492229
 20
-8972.1348837428741
 30
0.0
 11
15339.627944492229
 21
-10312.13488374286
 31
0.0
  0
LINE
  5
98C4
  8
FUTO
 10
13560.316541041089
 20
-5001.7900275283591
 30
0.0
 11
13560.316541041089
 21
-4098.2900275283591
 31
0.0
  0
LINE
  5
98C5
  8
FUTO
 10
14100.316541041089
 20
-5001.7900275283591
 30
0.0
 11
14100.316541041089
 21
-4098.2900275283591
 31
0.0
  0
LINE
  5
98C6
  8
FUTO
 10
15406.127944492229
 20
-10442.13488374286
 30
0.0
 11
16309.627944492229
 21
-10442.13488374287
 31
0.0
  0
LINE
  5
98C7
  8
FUTO
 10
15406.127944492229
 20
-9902.1348837428686
 30
0.0
 11
16309.627944492229
 21
-9902.1348837428686
 31
0.0
  0
LINE
  5
98CA
  8
FUTO
 10
15406.127944492229
 20
-10442.13488374286
 30
0.0
 11
15406.127944492229
 21
-9902.1348837428686
 31
0.0
  0
LINE
  5
98CC
  8
FUTO
 10
15339.627944492229
 20
-10129.63488374286
 30
0.0
 11
15406.127944492229
 21
-10129.63488374286
 31
0.0
  0
LINE
  5
98CD
  8
FUTO
 10
15406.127944492229
 20
-10214.63488374287
 30
0.0
 11
15339.627944492229
 21
-10214.63488374287
 31
0.0
  0
LINE
  5
98E8
  8
SL
 10
14000.316541041089
 20
-5018.2900275283591
 30
0.0
 11
14050.316541041089
 21
-5018.2900275283591
 31
0.0
  0
LINE
  5
A0E7
  8
4
 10
17961.166697834029
 20
-12040.48813421171
 30
0.0
 11
17961.166697834029
 21
-13140.488134211701
 31
0.0
  0
LINE
  5
A0E8
  8
4
 10
14111.166697834031
 20
-12040.48813421171
 30
0.0
 11
14111.166697834031
 21
-13140.488134211701
 31
0.0
  0
LINE
  5
A0E9
  8
4
 10
11361.166697834031
 20
-12040.48813421171
 30
0.0
 11
11361.166697834031
 21
-13140.488134211701
 31
0.0
  0
LINE
  5
A0EC
  8
4
 10
11361.166697834031
 20
-13140.48813421171
 30
0.0
 11
17961.166697834029
 21
-13140.48813421171
 31
0.0
  0
LINE
  5
A0ED
  8
4
 10
11361.166697834031
 20
-12590.48813421171
 30
0.0
 11
17961.166697834029
 21
-12590.48813421171
 31
0.0
  0
TEXT
  5
A0EE
  8
4
 10
11572.92814249199
 20
-12417.001491945341
 30
0.0
 40
275.0
  1
機器名称
  0
TEXT
  5
A0EF
  8
4
 10
11560.586280970419
 20
-13021.439772185649
 30
0.0
 40
275.0
  1
機器型番
  0
TEXT
  5
A0F0
  8
4
 10
14274.28609399308
 20
-12457.343074152201
 30
0.0
 40
233.75
  1
ミツヤ多翼送風機
  0
TEXT
  5
A0F1
  8
4
 10
14312.76642355418
 20
-13046.110420672019
 30
0.0
 40
275.0
  1
MF#12-5
  0
TEXT
  5
A0F3
  8
4
 10
12185.977151365751
 20
-1128.5605847023901
 30
0.0
 40
297.0
  1
床置防振ベット
  0
TEXT
  5
A0F4
  8
4
 10
9429.0032408987445
 20
-301.07384293508937
 30
0.0
 40
396.0
  1
遠心式両吸込両持多翼ファン
  0
LINE
  5
A0F5
  8
4
 10
9161.1666978340363
 20
-655.67106357480043
 30
0.0
 11
17961.166697834029
 21
-655.67106357480043
 31
0.0
  0
LINE
  5
A0F6
  8
4
 10
9161.1666978340363
 20
444.32893642519952
 30
0.0
 11
17961.166697834029
 21
444.32893642519952
 31
0.0
  0
LINE
  5
A0F7
  8
4
 10
11361.166697834031
 20
-12040.48813421171
 30
0.0
 11
17961.166697834029
 21
-12040.48813421171
 31
0.0
  0
LINE
  5
A0F8
  8
4
 10
9161.1666978340363
 20
444.32893642519952
 30
0.0
 11
9161.1666978340363
 21
-655.67106357480043
 31
0.0
  0
TEXT
  5
A0F9
  8
4
 10
9788.7535740308977
 20
-1134.6620855263391
 30
0.0
 40
297.0
  1
左回転左横向
  0
TEXT
  5
A0FA
  8
4
 10
15865.499273705131
 20
645.91673619297035
 30
0.0
 40
308.0
  1
No.
  0
TEXT
  5
A0FB
  8
4
 10
14998.295042134099
 20
-1128.5605847023901
 30
0.0
 40
297.0
  1
縮尺：1/55
  0
LINE
  5
A0FC
  8
4
 10
17961.166697834029
 20
444.32893642519952
 30
0.0
 11
17961.166697834029
 21
-655.67106357480043
 31
0.0
  0
LINE
  5
A0FD
  8
4
 10
19336.166697834029
 20
1987.580787968772
 30
0.0
 11
19336.166697834029
 21
1987.580787968772
 31
0.0
  0
LINE
  5
A0FE
  8
4
 10
15709.56252081329
 20
509.53049515847852
 30
0.0
 11
15709.56252081329
 21
1089.1682264924109
 31
0.0
  0
LINE
  5
A0FF
  8
4
 10
15709.56252081329
 20
1089.1682264924109
 30
0.0
 11
17961.166697834029
 21
1089.1682264924109
 31
0.0
  0
LINE
  5
A100
  8
4
 10
17961.166697834029
 20
1089.1682264924109
 30
0.0
 11
17961.166697834029
 21
509.53049515847852
 31
0.0
  0
LINE
  5
A101
  8
4
 10
17961.166697834029
 20
509.53049515847852
 30
0.0
 11
15709.56252081329
 21
509.53049515847852
 31
0.0
  0
LINE
  5
A102
  8
4
 10
7786.1666978340372
 20
-14237.419212031229
 30
0.0
 11
7786.1666978340372
 21
1987.580787968772
 31
0.0
  0
LINE
  5
A103
  8
4
 10
7786.1666978340372
 20
1987.580787968772
 30
0.0
 11
19336.166697834029
 21
1987.580787968772
 31
0.0
  0
LINE
  5
A104
  8
4
 10
19336.166697834029
 20
1987.580787968772
 30
0.0
 11
19336.166697834029
 21
-14237.419212031229
 31
0.0
  0
LINE
  5
A105
  8
4
 10
19336.166697834029
 20
-14237.419212031229
 30
0.0
 11
7786.1666978340372
 21
-14237.419212031229
 31
0.0
  0
LINE
  5
B009
  8
FUTO
 10
10250.316541041089
 20
-10522.13488374287
 30
0.0
 11
14450.316541041089
 21
-10522.13488374287
 31
0.0
  0
LINE
  5
B00A
  8
FUTO
 10
10250.316541041089
 20
-10702.13488374287
 30
0.0
 11
14450.316541041089
 21
-10702.13488374286
 31
0.0
  0
LINE
  5
B00B
  8
FUTO
 10
11430.316541041089
 20
-7197.8815710543568
 30
0.0
 11
10155.316541041089
 21
-7074.1348837428704
 31
0.0
  0
LINE
  5
B00D
  8
CT
 10
13302.309649653111
 20
-9222.1348837428704
 30
0.0
 11
10051.763542927139
 21
-9222.1348837428704
 31
0.0
  0
ARC
  5
B00E
  8
FUTO
 10
11283.316541041089
 20
-9075.1348837428704
 30
0.0
 40
1883.0
 50
0.0
 51
85.522539463651455
  0
LINE
  5
B00F
  8
CT
 10
11430.316541041089
 20
-6907.2486237122494
 30
0.0
 11
11430.316541041089
 21
-10902.13488374286
 31
0.0
  0
LINE
  5
B013
  8
FUTO
 10
10230.316541041089
 20
-7081.4141006435457
 30
0.0
 11
10230.316541041089
 21
-9134.1348837428723
 31
0.0
  0
LINE
  5
B014
  8
FUTO
 10
10155.31654104108
 20
-6995.1348837428714
 30
0.0
 11
10155.316541041089
 21
-9213.1348837428686
 31
0.0
  0
LINE
  5
B019
  8
FUTO
 10
10254.137272952359
 20
-9134.1348837428723
 30
0.0
 11
10155.316541041089
 21
-9134.1348837428723
 31
0.0
  0
LINE
  5
B029
  8
CT
 10
17049.627944492229
 20
-6774.166444067072
 30
0.0
 11
17049.627944492229
 21
-10902.13488374286
 31
0.0
  0
LINE
  5
B02A
  8
CT
 10
15149.627944492229
 20
-9222.1348837428704
 30
0.0
 11
18678.179166859431
 21
-9222.1348837428704
 31
0.0
  0
LINE
  5
B02B
  8
FUTO
 10
18453.627944492218
 20
-10522.13488374286
 30
0.0
 11
15203.627944492229
 21
-10522.13488374286
 31
0.0
  0
LINE
  5
B02C
  8
FUTO
 10
18453.627944492229
 20
-10702.13488374286
 30
0.0
 11
15203.627944492229
 21
-10702.13488374286
 31
0.0
  0
LINE
  5
B02D
  8
FUTO
 10
15645.627944492229
 20
-6995.1348837428714
 30
0.0
 11
18453.627944492229
 21
-6995.1348837428714
 31
0.0
  0
LINE
  5
B02E
  8
FUTO
 10
18374.627944492229
 20
-9213.1348837428704
 30
0.0
 11
18453.627944492229
 21
-9213.1348837428704
 31
0.0
  0
LINE
  5
B02F
  8
FUTO
 10
15724.627944492229
 20
-7070.1348837428714
 30
0.0
 11
15724.627944492229
 21
-9902.1348837428668
 31
0.0
  0
LINE
  5
B030
  8
FUTO
 10
18374.627944492229
 20
-7070.1348837428714
 30
0.0
 11
18374.627944492229
 21
-10522.13488374286
 31
0.0
  0
LINE
  5
B031
  8
FUTO
 10
15645.627944492229
 20
-6995.1348837428714
 30
0.0
 11
15645.627944492229
 21
-9164.6348837428704
 31
0.0
  0
LINE
  5
B032
  8
FUTO
 10
18453.627944492229
 20
-6995.1348837428714
 30
0.0
 11
18453.627944492229
 21
-9213.1348837428704
 31
0.0
  0
LINE
  5
B033
  8
FUTO
 10
15724.627944492229
 20
-7070.1348837428732
 30
0.0
 11
18374.627944492229
 21
-7070.1348837428732
 31
0.0
  0
LINE
  5
B03F
  8
FUTO
 10
18453.627944492229
 20
-10522.13488374286
 30
0.0
 11
18453.627944492229
 21
-10702.13488374287
 31
0.0
  0
LINE
  5
B044
  8
FUTO
 10
12600.316541041089
 20
-7732.1348837428704
 30
0.0
 11
12591.316541041089
 21
-7732.1348837428704
 31
0.0
  0
LINE
  5
B168
  8
FUTO
 10
18374.627944492229
 20
-9312.1348837428686
 30
0.0
 11
18619.82794449223
 21
-9312.1348837428686
 31
0.0
  0
LINE
  5
B169
  8
FUTO
 10
18374.627944492229
 20
-9562.1348837428723
 30
0.0
 11
18619.82794449223
 21
-9562.1348837428686
 31
0.0
  0
LINE
  5
B16A
  8
FUTO
 10
18619.82794449223
 20
-9312.1348837428686
 30
0.0
 11
18619.82794449223
 21
-9562.1348837428704
 31
0.0
  0
LINE
  5
B189
  8
FUTO
 10
15481.42794449223
 20
-9562.1348837428704
 30
0.0
 11
15724.627944492229
 21
-9562.1348837428704
 31
0.0
  0
LINE
  5
B18A
  8
FUTO
 10
15481.42794449223
 20
-9312.1348837428686
 30
0.0
 11
15481.42794449223
 21
-9562.1348837428704
 31
0.0
  0
CIRCLE
  5
B18C
  8
SL
 10
11430.316541041089
 20
-9222.1348837428704
 30
0.0
 40
400.0
  0
LINE
  5
B196
  8
FUTO
 10
15203.627944492229
 20
-10522.13488374286
 30
0.0
 11
15203.627944492229
 21
-10702.13488374287
 31
0.0
  0
LINE
  5
B1DD
  8
FUTO
 10
15339.62794449222
 20
-9164.6348837428686
 30
0.0
 11
15724.627944492229
 21
-9164.6348837428704
 31
0.0
  0
LINE
  5
B1DE
  8
FUTO
 10
15339.62794449222
 20
-9279.6348837428723
 30
0.0
 11
15724.627944492229
 21
-9279.6348837428741
 31
0.0
  0
LINE
  5
B1EA
  8
SP
 10
17049.627944492229
 20
-6410.5233385909269
 30
0.0
 11
17049.627944492229
 21
-6350.5233385909269
 31
0.0
  0
ARC
  5
B1F2
  8
FUTO
 10
11577.316541041089
 20
-9075.1348837428704
 30
0.0
 40
1589.0
 50
294.40666221177651
 51
0.0000000000002036
  0
ARC
  5
B1FA
  8
FUTO
 10
11307.816541041089
 20
-9344.6348837428704
 30
0.0
 40
1074.5
 50
168.70239976940189
 51
180.0
  0
ARC
  5
B32D
  8
FUTO
 10
11552.816541041089
 20
-9344.6348837428704
 30
0.0
 40
1319.5
 50
180.0
 51
243.17429884116521
  0
LINE
  5
C236
  8
FUTO
 10
15481.42794449223
 20
-9312.1348837428686
 30
0.0
 11
15724.627944492229
 21
-9312.1348837428704
 31
0.0
  0
LINE
  5
C239
  8
SL
 10
15149.627944492229
 20
-8742.1348837428741
 30
0.0
 11
15149.627944492229
 21
-10392.13488374287
 31
0.0
  0
CIRCLE
  5
C26F
  8
FUTO
 10
11430.316541041089
 20
-9222.1348837428704
 30
0.0
 40
1075.0
  0
CIRCLE
  5
C270
  8
FUTO
 10
11430.316541041089
 20
-9222.1348837428704
 30
0.0
 40
1000.0
  0
LINE
  5
C271
  8
FUTO
 10
10250.316541041089
 20
-10702.13488374287
 30
0.0
 11
10250.316541041089
 21
-10522.13488374287
 31
0.0
  0
LINE
  5
C272
  8
FUTO
 10
14450.316541041089
 20
-10702.13488374287
 30
0.0
 11
14450.316541041089
 21
-10522.13488374287
 31
0.0
  0
ARC
  5
C275
  8
SL
 10
11430.316541041089
 20
-9222.1348837428704
 30
0.0
 40
480.0
 50
62.623535613428679
 51
254.18584348863581
  0
ARC
  5
C276
  8
SL
 10
13830.316541041089
 20
-10172.13488374287
 30
0.0
 40
220.0
 50
254.18584348863561
 51
62.623535613428778
  0
LINE
  5
C277
  8
SL
 10
13931.480253039719
 20
-9976.7739271147402
 30
0.0
 11
11651.03736721992
 21
-8795.8927965542243
 31
0.0
  0
LINE
  5
C278
  8
SL
 10
13894.69344867658
 20
-10047.81427497951
 30
0.0
 11
11614.25056285678
 21
-8866.9331444189993
 31
0.0
  0
LINE
  5
C279
  8
SL
 10
13792.1640236495
 20
-10306.8359803111
 30
0.0
 11
11321.30934849368
 21
-9606.9951596521078
 31
0.0
  0
LINE
  5
C27A
  8
SL
 10
13770.36258514001
 20
-10383.808035492941
 30
0.0
 11
11299.507909984201
 21
-9683.9672148339541
 31
0.0
  0
LINE
  5
C27B
  8
CT
 10
16359.958388156099
 20
-10172.13488374287
 30
0.0
 11
15149.627944492229
 21
-10172.13488374286
 31
0.0
  0
LINE
  5
C27C
  8
SL
 10
15149.627944492229
 20
-8742.1348837428704
 30
0.0
 11
15389.627944492229
 21
-8742.1348837428704
 31
0.0
  0
LINE
  5
C27D
  8
SL
 10
15389.627944492229
 20
-10392.13488374286
 30
0.0
 11
15149.627944492229
 21
-10392.13488374287
 31
0.0
  0
LINE
  5
C27E
  8
SL
 10
15389.627944492229
 20
-8742.1348837428741
 30
0.0
 11
15389.627944492229
 21
-8792.1348837428686
 31
0.0
  0
LINE
  5
C282
  8
SL
 10
15389.627944492229
 20
-10342.13488374286
 30
0.0
 11
15389.627944492229
 21
-10392.13488374287
 31
0.0
  0
LINE
  5
C283
  8
FUTO
 10
10250.316541041089
 20
-5204.2900275283573
 30
0.0
 11
14450.316541041089
 21
-5204.2900275283537
 31
0.0
  0
LINE
  5
C284
  8
FUTO
 10
10250.316541041089
 20
-5204.2900275283573
 30
0.0
 11
10250.31654104108
 21
-4683.2900275283564
 31
0.0
  0
LINE
  5
C285
  8
FUTO
 10
10250.316541041089
 20
-1954.2900275283571
 30
0.0
 11
12610.316541041089
 21
-1954.2900275283571
 31
0.0
  0
LINE
  5
C286
  8
FUTO
 10
12610.316541041089
 20
-1954.2900275283571
 30
0.0
 11
12610.316541041089
 21
-2033.2900275283571
 31
0.0
  0
LINE
  5
C287
  8
FUTO
 10
14450.316541041089
 20
-5204.2900275283537
 30
0.0
 11
14450.316541041089
 21
-3904.2900275283532
 31
0.0
  0
LINE
  5
C288
  8
FUTO
 10
14450.316541041089
 20
-3904.2900275283532
 30
0.0
 11
13166.316541041089
 21
-3904.290027528355
 31
0.0
  0
LINE
  5
C28B
  8
CT
 10
11430.316541041089
 20
-1851.255609288309
 30
0.0
 11
11430.316541041089
 21
-5258.2900275283573
 31
0.0
  0
LINE
  5
C28C
  8
CT
 10
13830.316541041089
 20
-5258.2900275283591
 30
0.0
 11
13830.316541041089
 21
-4063.4583753300858
 31
0.0
  0
LINE
  5
C28D
  8
CT
 10
10067.13894386207
 20
-3358.2900275283569
 30
0.0
 11
13288.420967514399
 21
-3358.2900275283569
 31
0.0
  0
LINE
  5
C28E
  8
SL
 10
10950.316541041089
 20
-5258.2900275283573
 30
0.0
 11
14050.316541041089
 21
-5258.2900275283591
 31
0.0
  0
LINE
  5
C290
  8
SL
 10
14050.31654104108
 20
-5258.2900275283591
 30
0.0
 11
14050.31654104108
 21
-5018.2900275283591
 31
0.0
  0
LINE
  5
C291
  8
SL
 10
10950.316541041089
 20
-5018.2900275283573
 30
0.0
 11
10950.316541041089
 21
-5258.2900275283573
 31
0.0
  0
LINE
  5
C292
  8
SL
 10
10950.316541041089
 20
-5018.2900275283573
 30
0.0
 11
11000.316541041089
 21
-5018.2900275283591
 31
0.0
  0
LINE
  5
C295
  8
SL
 10
14000.31654104108
 20
-5018.290027528361
 30
0.0
 11
14050.316541041089
 21
-5018.2900275283591
 31
0.0
  0
LINE
  5
C297
  8
SL
 10
11030.316541041089
 20
-5208.2900275283582
 30
0.0
 11
13970.316541041089
 21
-5208.2900275283591
 31
0.0
  0
LINE
  5
C298
  8
SL
 10
11030.316541041089
 20
-5068.2900275283573
 30
0.0
 11
13970.316541041089
 21
-5068.2900275283591
 31
0.0
  0
LINE
  5
C299
  8
SL
 10
11030.31654104108
 20
-5068.2900275283573
 30
0.0
 11
11030.316541041089
 21
-5208.2900275283591
 31
0.0
  0
LINE
  5
C29A
  8
SL
 10
11830.316541041089
 20
-5068.2900275283573
 30
0.0
 11
11830.316541041089
 21
-5208.2900275283582
 31
0.0
  0
LINE
  5
C29B
  8
SL
 10
13970.31654104108
 20
-5208.2900275283591
 30
0.0
 11
13970.31654104108
 21
-5068.2900275283591
 31
0.0
  0
LINE
  5
C29C
  8
SL
 10
13690.316541041089
 20
-5208.2900275283591
 30
0.0
 11
13690.316541041089
 21
-5068.2900275283573
 31
0.0
  0
LINE
  5
C29E
  8
FUTO
 10
10155.31654104108
 20
-4762.2900275283573
 30
0.0
 11
10155.31654104108
 21
-1954.2900275283571
 31
0.0
  0
LINE
  5
C29F
  8
FUTO
 10
13166.316541041089
 20
-4683.2900275283564
 30
0.0
 11
13166.316541041089
 21
-2033.290027528358
 31
0.0
  0
LINE
  5
C2A0
  8
FUTO
 10
10155.31654104108
 20
-2033.2900275283571
 30
0.0
 11
13166.316541041089
 21
-2033.2900275283571
 31
0.0
  0
LINE
  5
C2A1
  8
FUTO
 10
10155.316541041089
 20
-4683.2900275283564
 30
0.0
 11
13166.316541041089
 21
-4683.2900275283564
 31
0.0
  0
LINE
  5
C2A2
  8
FUTO
 10
10250.31654104108
 20
-2033.290027528358
 30
0.0
 11
10250.316541041089
 21
-1954.2900275283571
 31
0.0
  0
LINE
  5
C2A6
  8
FUTO
 10
10230.31654104108
 20
-4683.2900275283564
 30
0.0
 11
10230.31654104108
 21
-2033.2900275283571
 31
0.0
  0
DIMENSION
  5
C2B4
  8
SP
  2
*D1
 10
12610.316541041089
 20
-1624.618035081395
 30
0.0
 11
11430.316541041089
 21
-1500.868035081395
 31
0.0
 12
-129.6566370899381
 22
100.0
 32
0.0
 70
     0
 13
10250.316541041089
 23
-1954.2900275283571
 33
0.0
 14
12610.316541041089
 24
-1954.2900275283571
 34
0.0
1001
ACAD
1000
DSTYLE
1002
{
1070
   140
1040
2.5
1070
    40
1040
55.0
1070
   147
1040
1.0
1070
   271
1070
     0
1002
}
  0
DIMENSION
  5
C2C1
  8
SP
  2
*D2
 10
14450.316541041089
 20
-1624.618035081395
 30
0.0
 11
13530.316541041089
 21
-1500.868035081395
 31
0.0
 12
-129.6566370899381
 22
100.0
 32
0.0
 70
     0
 13
12610.316541041089
 23
-1954.2900275283571
 33
0.0
 14
14450.316541041089
 24
-3904.2900275283532
 34
0.0
1001
ACAD
1000
DSTYLE
1002
{
1070
   140
1040
2.5
1070
    40
1040
55.0
1070
   147
1040
1.0
1070
   271
1070
     0
1002
}
  0
DIMENSION
  5
C2CE
  8
SP
  2
*D3
 10
9744.4425025837882
 20
-5204.2900275283573
 30
0.0
 11
9620.6925025837882
 21
-3579.2900275283569
 31
0.0
 12
-129.6566370899381
 22
100.0
 32
0.0
 70
     0
 13
10250.316541041089
 23
-1954.2900275283571
 33
0.0
 14
10250.316541041089
 24
-5204.2900275283573
 34
0.0
 50
270.0
1001
ACAD
1000
DSTYLE
1002
{
1070
   140
1040
2.5
1070
    40
1040
55.0
1070
   147
1040
1.0
1070
   271
1070
     0
1002
}
  0
DIMENSION
  5
C2DB
  8
SP
  2
*D4
 10
14450.316541041089
 20
-5651.7633384107676
 30
0.0
 11
12350.316541041089
 21
-5528.0133384107694
 31
0.0
 12
-129.6566370899381
 22
100.0
 32
0.0
 70
     0
 13
10250.316541041089
 23
-5204.2900275283573
 33
0.0
 14
14450.316541041089
 24
-5204.2900275283537
 34
0.0
1001
ACAD
1000
DSTYLE
1002
{
1070
   140
1040
2.5
1070
    40
1040
55.0
1070
   147
1040
1.0
1070
   271
1070
     0
1002
}
  0
DIMENSION
  5
C2E8
  8
SP
  2
*D5
 10
14839.480121840879
 20
-5204.2900275283537
 30
0.0
 11
14715.73012184087
 21
-4554.2900275283528
 31
0.0
 12
-129.6566370899381
 22
100.0
 32
0.0
 70
     0
 13
14450.316541041089
 23
-3904.2900275283532
 33
0.0
 14
14450.316541041089
 24
-5204.2900275283537
 34
0.0
 50
270.0
1001
ACAD
1000
DSTYLE
1002
{
1070
   140
1040
2.5
1070
    40
1040
55.0
1070
   147
1040
1.0
1070
   271
1070
     0
1002
}
  0
DIMENSION
  5
C2F5
  8
SP
  2
*D6
 10
18374.627944492229
 20
-6681.1240615310662
 30
0.0
 11
17049.627944492229
 21
-6557.3740615310671
 31
0.0
 12
0.0
 22
100.0
 32
0.0
 70
     0
 13
15724.627944492229
 23
-7070.1348837428732
 33
0.0
 14
18374.627944492229
 24
-7070.1348837428732
 34
0.0
1001
ACAD
1000
DSTYLE
1002
{
1070
   140
1040
2.5
1070
    40
1040
55.0
1070
   147
1040
1.0
1070
   271
1070
     0
1002
}
  0
DIMENSION
  5
C302
  8
SP
  2
*D7
 10
11430.316541041089
 20
-6681.1240615310662
 30
0.0
 11
10792.816541041089
 21
-6557.3740615310671
 31
0.0
 12
-129.6566370899381
 22
100.0
 32
0.0
 70
     0
 13
10155.31654104108
 23
-6995.1348837428714
 33
0.0
 14
11430.316541041089
 24
-6907.2486237122494
 34
0.0
1001
ACAD
1000
DSTYLE
1002
{
1070
   140
1040
2.5
1070
    40
1040
55.0
1070
   147
1040
1.0
1070
   271
1070
     0
1002
}
  0
DIMENSION
  5
C31C
  8
SP
  2
*D8
 10
13166.316541041089
 20
-6681.1240615310662
 30
0.0
 11
12298.316541041089
 21
-6557.3740615310671
 31
0.0
 12
-129.6566370899381
 22
100.0
 32
0.0
 70
     0
 13
11430.316541041089
 23
-6907.2486237122494
 33
0.0
 14
13166.316541041089
 24
-9075.1348837428704
 34
0.0
1001
ACAD
1000
DSTYLE
1002
{
1070
   140
1040
2.5
1070
    40
1040
55.0
1070
   147
1040
1.0
1070
   271
1070
     0
1002
}
  0
DIMENSION
  5
C329
  8
SP
  2
*D9
 10
9754.6375797653054
 20
-9134.1348837428723
 30
0.0
 11
9630.8875797653072
 21
-8104.1348837428714
 31
0.0
 12
-129.6566370899381
 22
100.0
 32
0.0
 70
     0
 13
10155.316541041089
 23
-7074.1348837428704
 33
0.0
 14
10155.316541041089
 24
-9134.1348837428723
 34
0.0
 50
270.0
1001
ACAD
1000
DSTYLE
1002
{
1070
   140
1040
2.5
1070
    40
1040
55.0
1070
   147
1040
1.0
1070
   271
1070
     0
1002
}
  0
DIMENSION
  5
C336
  8
SP
  2
*D10
 10
9381.0014945365583
 20
-9222.1348837428704
 30
0.0
 11
9257.2514945365583
 21
-8148.1348837428714
 31
0.0
 12
-129.6566370899381
 22
100.0
 32
0.0
 70
     0
 13
10155.316541041089
 23
-7074.1348837428704
 33
0.0
 14
10051.763542927139
 24
-9222.1348837428704
 34
0.0
 50
270.0
1001
ACAD
1000
DSTYLE
1002
{
1070
   140
1040
2.5
1070
    40
1040
55.0
1070
   147
1040
1.0
1070
   271
1070
     0
1002
}
  0
DIMENSION
  5
C343
  8
SP
  2
*D11
 10
9381.0014945365583
 20
-10702.13488374287
 30
0.0
 11
9257.2514945365583
 21
-9962.1348837428704
 31
0.0
 12
-129.6566370899381
 22
100.0
 32
0.0
 70
     0
 13
10051.763542927139
 23
-9222.1348837428704
 33
0.0
 14
10250.316541041089
 24
-10702.13488374287
 34
0.0
 50
270.0
1001
ACAD
1000
DSTYLE
1002
{
1070
   140
1040
2.5
1070
    40
1040
55.0
1070
   147
1040
1.0
1070
   271
1070
     0
1002
}
  0
DIMENSION
  5
C350
  8
SP
  2
*D12
 10
17049.627944492229
 20
-11367.63562283916
 30
0.0
 11
16126.627944492229
 21
-11243.88562283916
 31
0.0
 12
0.0
 22
-220.0
 32
0.0
 70
     0
 13
15203.627944492229
 23
-11022.13488374287
 33
0.0
 14
17049.627944492229
 24
-11022.13488374287
 34
0.0
1001
ACAD
1000
DSTYLE
1002
{
1070
   140
1040
2.5
1070
    40
1040
55.0
1070
   147
1040
1.0
1070
   271
1070
     0
1002
}
  0
DIMENSION
  5
C35D
  8
SP
  2
*D13
 10
18453.627944492229
 20
-11367.63562283916
 30
0.0
 11
17751.627944492229
 21
-11243.88562283916
 31
0.0
 12
0.0
 22
-220.0
 32
0.0
 70
     0
 13
17049.627944492229
 23
-11022.13488374287
 33
0.0
 14
18453.627944492229
 24
-11022.13488374287
 34
0.0
1001
ACAD
1000
DSTYLE
1002
{
1070
   140
1040
2.5
1070
    40
1040
55.0
1070
   147
1040
1.0
1070
   271
1070
     0
1002
}
  0
DIMENSION
  5
C36A
  8
SP
  2
*D14
 10
18453.627944492229
 20
-11697.38305444039
 30
0.0
 11
16828.627944492229
 21
-11573.63305444039
 31
0.0
 12
0.0
 22
-220.0
 32
0.0
 70
     0
 13
15203.627944492229
 23
-11022.13488374286
 33
0.0
 14
18453.627944492229
 24
-11022.13488374286
 34
0.0
1001
ACAD
1000
DSTYLE
1002
{
1070
   140
1040
2.5
1070
    40
1040
55.0
1070
   147
1040
1.0
1070
   271
1070
     0
1002
}
  0
DIMENSION
  5
C377
  8
SP
  2
*D15
 10
10250.316541041089
 20
-11368.854903828869
 30
0.0
 11
10840.316541041089
 21
-11245.104903828869
 31
0.0
 12
-129.6566370899381
 22
-220.0
 32
0.0
 70
     0
 13
11430.316541041089
 23
-11022.13488374287
 33
0.0
 14
10250.316541041089
 24
-11022.13488374287
 34
0.0
1001
ACAD
1000
DSTYLE
1002
{
1070
   140
1040
2.5
1070
    40
1040
55.0
1070
   147
1040
1.0
1070
   271
1070
     0
1002
}
  0
DIMENSION
  5
C384
  8
SP
  2
*D16
 10
11430.316541041089
 20
-11368.854903828869
 30
0.0
 11
12940.316541041089
 21
-11245.104903828869
 31
0.0
 12
-129.6566370899381
 22
-220.0
 32
0.0
 70
     0
 13
14450.316541041089
 23
-11022.13488374286
 33
0.0
 14
11430.316541041089
 24
-11022.13488374287
 34
0.0
1001
ACAD
1000
DSTYLE
1002
{
1070
   140
1040
2.5
1070
    40
1040
55.0
1070
   147
1040
1.0
1070
   271
1070
     0
1002
}
  0
DIMENSION
  5
C391
  8
SP
  2
*D17
 10
10250.316541041089
 20
-11697.38305444039
 30
0.0
 11
12350.316541041089
 21
-11573.63305444039
 31
0.0
 12
-129.6566370899381
 22
-220.0
 32
0.0
 70
     0
 13
14450.316541041089
 23
-11022.13488374286
 33
0.0
 14
10250.316541041089
 24
-11022.13488374287
 34
0.0
1001
ACAD
1000
DSTYLE
1002
{
1070
   140
1040
2.5
1070
    40
1040
55.0
1070
   147
1040
1.0
1070
   271
1070
     0
1002
}
  0
DIMENSION
  5
C39E
  8
SP
  2
*D18
 10
15149.627944492229
 20
-6378.4830211002554
 30
0.0
 11
16099.627944492229
 21
-6218.7211163383499
 31
0.0
 12
0.0
 22
100.0
 32
0.0
 70
     0
 13
17049.627944492229
 23
-6410.5233385909269
 33
0.0
 14
15149.627944492229
 24
-8742.1348837428741
 34
0.0
1001
ACAD
1000
DSTYLE
1002
{
1070
   140
1040
2.5
1070
    40
1040
55.0
1070
     3
1000
(<>)
1070
   147
1040
1.0
1070
   271
1070
     0
1002
}
  0
DIMENSION
  5
C3AB
  8
SP
  2
*D19
 10
18619.82794449223
 20
-6378.4830211002554
 30
0.0
 11
17834.727944492231
 21
-6218.7211163383499
 31
0.0
 12
0.0
 22
100.0
 32
0.0
 70
     0
 13
17049.627944492229
 23
-6410.5233385909269
 33
0.0
 14
18619.82794449223
 24
-9312.1348837428686
 34
0.0
1001
ACAD
1000
DSTYLE
1002
{
1070
   140
1040
2.5
1070
    40
1040
55.0
1070
     3
1000
(<>)
1070
   147
1040
1.0
1070
   271
1070
     0
1002
}
  0
LINE
  5
C440
  8
FUTO
 10
16309.627944492229
 20
-10442.13488374286
 30
0.0
 11
16309.627944492229
 21
-9902.1348837428686
 31
0.0
  0
LINE
  5
C442
  8
FUTO
 10
15724.627944492229
 20
-10442.13488374287
 30
0.0
 11
15724.627944492229
 21
-10522.13488374286
 31
0.0
  0
LINE
  5
C445
  8
FUTO
 10
18453.627944492229
 20
-11022.13488374286
 30
0.0
 11
15203.627944492229
 21
-11022.13488374286
 31
0.0
  0
LINE
  5
C446
  8
FUTO
 10
18453.627944492218
 20
-10842.13488374286
 30
0.0
 11
15203.627944492229
 21
-10842.13488374286
 31
0.0
  0
LINE
  5
C447
  8
FUTO
 10
18453.627944492229
 20
-10842.13488374286
 30
0.0
 11
18453.627944492229
 21
-11022.13488374287
 31
0.0
  0
LINE
  5
C448
  8
FUTO
 10
15203.627944492229
 20
-10842.13488374286
 30
0.0
 11
15203.627944492229
 21
-11022.13488374287
 31
0.0
  0
LINE
  5
C449
  8
FUTO
 10
10250.316541041089
 20
-10842.13488374287
 30
0.0
 11
14450.316541041089
 21
-10842.13488374287
 31
0.0
  0
LINE
  5
C44A
  8
FUTO
 10
10250.316541041089
 20
-11022.13488374287
 30
0.0
 11
14450.316541041089
 21
-11022.13488374286
 31
0.0
  0
LINE
  5
C44B
  8
FUTO
 10
14450.316541041089
 20
-11022.13488374287
 30
0.0
 11
14450.316541041089
 21
-10842.13488374287
 31
0.0
  0
LINE
  5
C44C
  8
FUTO
 10
10250.316541041089
 20
-11022.13488374287
 30
0.0
 11
10250.316541041089
 21
-10842.13488374287
 31
0.0
  0
DIMENSION
  5
C463
  8
SP
  2
*D21
 10
9377.4861998253909
 20
-11022.13488374287
 30
0.0
 11
9253.7361998253909
 21
-11465.68153092074
 31
0.0
 12
0.0
 22
-20.0
 32
0.0
 70
     0
 13
10250.316541041089
 23
-10842.13488374287
 33
0.0
 14
10250.316541041089
 24
-11022.13488374287
 34
0.0
 50
90.0
1001
ACAD
1000
DSTYLE
1002
{
1070
   140
1040
2.5
1070
    40
1040
55.0
1070
   147
1040
1.0
1070
   271
1070
     0
1070
     6
1000
_DOT
1002
}
  0
DIMENSION
  5
C47D
  8
SP
  2
*D23
 10
9383.5392548045147
 20
-10702.13488374287
 30
0.0
 11
9141.2773500426101
 21
-10772.13488374286
 31
0.0
 70
     0
 13
10250.316541041089
 23
-10842.13488374287
 33
0.0
 14
10250.316541041089
 24
-10702.13488374287
 34
0.0
 50
90.0
1001
ACAD
1000
DSTYLE
1002
{
1070
   287
1070
     5
1070
   287
1070
     5
1070
     3
1000
(<>)
1070
    40
1040
55.0
1070
    75
1070
     1
1070
    76
1070
     1
1070
   140
1040
2.5
1070
   147
1040
1.0
1070
   271
1070
     0
1070
   279
1070
     2
1070
   289
1070
     3
1070
     6
1000
NONE
1070
     7
1000
NONE
1002
}
  0
ENDSEC
  0
EOF
