  0
SECTION
  2
HEADER
  9
$ACADVER
  1
AC1009
  9
$INSBASE
 10
0.0
 20
0.0
 30
0.0
  9
$EXTMIN
 10
7786.1666978340372
 20
-14237.419212031229
 30
0.0
  9
$EXTMAX
 10
19336.166697834029
 20
1987.580787968772
 30
0.0
  9
$LIMMIN
 10
0.0
 20
0.0
  9
$LIMMAX
 10
297.0
 20
210.0
  9
$ORTHOMODE
 70
     0
  9
$REGENMODE
 70
     1
  9
$FILLMODE
 70
     1
  9
$QTEXTMODE
 70
     0
  9
$MIRRTEXT
 70
     0
  9
$DRAGMODE
 70
     2
  9
$LTSCALE
 40
275.0
  9
$OSMODE
 70
    37
  9
$ATTMODE
 70
     1
  9
$TEXTSIZE
 40
137.5
  9
$TRACEWID
 40
0.05
  9
$TEXTSTYLE
  7
STANDARD
  9
$CLAYER
  8
SP
  9
$CELTYPE
  6
BYLAYER
  9
$CECOLOR
 62
   256
  9
$DIMSCALE
 40
55.0
  9
$DIMASZ
 40
2.0
  9
$DIMEXO
 40
1.0
  9
$DIMDLI
 40
10.0
  9
$DIMRND
 40
0.0
  9
$DIMDLE
 40
0.0
  9
$DIMEXE
 40
1.0
  9
$DIMTP
 40
0.0
  9
$DIMTM
 40
0.0
  9
$DIMTXT
 40
2.5
  9
$DIMCEN
 40
0.0
  9
$DIMTSZ
 40
0.0
  9
$DIMTOL
 70
     0
  9
$DIMLIM
 70
     0
  9
$DIMTIH
 70
     0
  9
$DIMTOH
 70
     0
  9
$DIMSE1
 70
     0
  9
$DIMSE2
 70
     0
  9
$DIMTAD
 70
     1
  9
$DIMZIN
 70
     8
  9
$DIMBLK
  1

  9
$DIMASO
 70
     1
  9
$DIMSHO
 70
     1
  9
$DIMPOST
  1

  9
$DIMAPOST
  1

  9
$DIMALT
 70
     0
  9
$DIMALTD
 70
     2
  9
$DIMALTF
 40
0.03937
  9
$DIMLFAC
 40
1.0
  9
$DIMTOFL
 70
     1
  9
$DIMTVP
 40
0.0
  9
$DIMTIX
 70
     0
  9
$DIMSOXD
 70
     0
  9
$DIMSAH
 70
     1
  9
$DIMBLK1
  1
OPEN
  9
$DIMBLK2
  1
OPEN
  9
$DIMSTYLE
  2
MATSU
  9
$DIMCLRD
 70
   256
  9
$DIMCLRE
 70
   256
  9
$DIMCLRT
 70
   256
  9
$DIMTFAC
 40
1.0
  9
$DIMGAP
 40
1.0
  9
$LUNITS
 70
     2
  9
$LUPREC
 70
     4
  9
$SKETCHINC
 40
0.1
  9
$FILLETRAD
 40
0.0
  9
$AUNITS
 70
     0
  9
$AUPREC
 70
     2
  9
$MENU
  1
acad
  9
$ELEVATION
 40
0.0
  9
$PELEVATION
 40
0.0
  9
$THICKNESS
 40
0.0
  9
$LIMCHECK
 70
     0
  9
$BLIPMODE
 70
     0
  9
$CHAMFERA
 40
20.0
  9
$CHAMFERB
 40
20.0
  9
$SKPOLY
 70
     0
  9
$TDCREATE
 40
2453950.639283854
  9
$TDUPDATE
 40
2454953.8324663192
  9
$TDINDWG
 40
0.3694031829
  9
$TDUSRTIMER
 40
0.3694031829
  9
$USRTIMER
 70
     1
  9
$ANGBASE
 50
0.0
  9
$ANGDIR
 70
     0
  9
$PDMODE
 70
     0
  9
$PDSIZE
 40
1.0
  9
$PLINEWID
 40
0.0
  9
$COORDS
 70
     1
  9
$SPLFRAME
 70
     0
  9
$SPLINETYPE
 70
     6
  9
$SPLINESEGS
 70
     8
  9
$ATTDIA
 70
     0
  9
$ATTREQ
 70
     1
  9
$HANDLING
 70
 10241
  9
$HANDSEED
  5
C550
  9
$SURFTAB1
 70
     6
  9
$SURFTAB2
 70
     6
  9
$SURFTYPE
 70
     6
  9
$SURFU
 70
     6
  9
$SURFV
 70
     6
  9
$UCSNAME
  2

  9
$UCSORG
 10
0.0
 20
-0.0000000000000568
 30
0.0
  9
$UCSXDIR
 10
1.0
 20
0.0
 30
0.0
  9
$UCSYDIR
 10
0.0
 20
1.0
 30
0.0
  9
$PUCSNAME
  2

  9
$PUCSORG
 10
0.0
 20
0.0
 30
0.0
  9
$PUCSXDIR
 10
1.0
 20
0.0
 30
0.0
  9
$PUCSYDIR
 10
0.0
 20
1.0
 30
0.0
  9
$USERI1
 70
     0
  9
$USERI2
 70
     0
  9
$USERI3
 70
     0
  9
$USERI4
 70
     0
  9
$USERI5
 70
     0
  9
$USERR1
 40
0.0
  9
$USERR2
 40
0.0
  9
$USERR3
 40
0.0
  9
$USERR4
 40
0.0
  9
$USERR5
 40
0.0
  9
$WORLDVIEW
 70
     1
  9
$SHADEDGE
 70
     3
  9
$SHADEDIF
 70
    70
  9
$TILEMODE
 70
     1
  9
$MAXACTVP
 70
    16
  9
$PLIMCHECK
 70
     0
  9
$PEXTMIN
 10
1.0000000000000000E+020
 20
1.0000000000000000E+020
 30
1.0000000000000000E+020
  9
$PEXTMAX
 10
-1.0000000000000000E+020
 20
-1.0000000000000000E+020
 30
-1.0000000000000000E+020
  9
$PLIMMIN
 10
0.0
 20
0.0
  9
$PLIMMAX
 10
12.0
 20
9.0
  9
$UNITMODE
 70
     0
  9
$VISRETAIN
 70
     0
  9
$PLINEGEN
 70
     0
  9
$PSLTSCALE
 70
     0
  0
ENDSEC
  0
SECTION
  2
TABLES
  0
TABLE
  2
VPORT
 70
     2
  0
VPORT
  2
*ACTIVE
 70
     0
 10
0.0
 20
0.0
 11
1.0
 21
1.0
 12
24363.118975491299
 22
-3223.6752178698162
 13
0.0
 23
0.0
 14
5.0
 24
5.0
 15
0.0
 25
0.0
 16
0.0
 26
0.0
 36
1.0
 17
0.0
 27
0.0
 37
0.0
 40
22027.48798832282
 41
1.5051150895140659
 42
50.0
 43
0.0
 44
0.0
 50
0.0
 51
0.0
 71
     0
 72
   100
 73
     1
 74
     0
 75
     0
 76
     0
 77
     0
 78
     0
  0
ENDTAB
  0
TABLE
  2
LTYPE
 70
     3
  0
LTYPE
  2
CONTINUOUS
 70
     0
  3
Solid line
 72
    65
 73
     0
 40
0.0
  0
LTYPE
  2
CENTER
 70
     0
  3
____ _ ____ _ ____ _ ____ _ ____ _ ____ _ ____ 
 72
    65
 73
     4
 40
2.0
 49
1.25
 49
-0.25
 49
0.25
 49
-0.25
  0
LTYPE
  2
PHANTOM
 70
     0
  3
______  __  __  ______  __  __  ______  __  __ 
 72
    65
 73
     6
 40
2.5
 49
1.25
 49
-0.25
 49
0.25
 49
-0.25
 49
0.25
 49
-0.25
  0
ENDTAB
  0
TABLE
  2
LAYER
 70
     7
  0
LAYER
  2
0
 70
     0
 62
     7
  6
CONTINUOUS
  0
LAYER
  2
CT
 70
     0
 62
     3
  6
CENTER
  0
LAYER
  2
FUTO
 70
     0
 62
     4
  6
CONTINUOUS
  0
LAYER
  2
SL
 70
     0
 62
     1
  6
PHANTOM
  0
LAYER
  2
SP
 70
     0
 62
     2
  6
CONTINUOUS
  0
LAYER
  2
DEFPOINTS
 70
     0
 62
     7
  6
CONTINUOUS
  0
LAYER
  2
4
 70
     0
 62
     7
  6
CONTINUOUS
  0
ENDTAB
  0
TABLE
  2
STYLE
 70
     1
  0
STYLE
  2
STANDARD
 70
     0
 40
0.0
 41
1.0
 50
15.0
 71
     0
 42
137.5
  3
C:\Program Files\AutoCAD LT\simplex.shx
  4
C:\Program Files\AutoCAD LT\extfont.shx
  0
ENDTAB
  0
TABLE
  2
VIEW
 70
     0
  0
ENDTAB
  0
TABLE
  2
UCS
 70
     0
  0
ENDTAB
  0
TABLE
  2
APPID
 70
     2
  0
APPID
  2
ACAD
 70
     0
  0
APPID
  2
CONTENTBLOCKICON
 70
     0
  0
ENDTAB
  0
TABLE
  2
DIMSTYLE
 70
     2
  0
DIMSTYLE
  2
STANDARD
 70
     0
  3

  4

  5

  6

  7

 40
1.0
 41
0.18
 42
0.0625
 43
0.38
 44
0.18
 45
0.0
 46
0.0
 47
0.0
 48
0.0
140
0.18
141
0.09
142
0.0
143
25.399999999999999
144
1.0
145
0.0
146
1.0
147
0.09
 71
     0
 72
     0
 73
     1
 74
     1
 75
     0
 76
     0
 77
     0
 78
     0
170
     0
171
     2
172
     0
173
     0
174
     0
175
     0
176
     0
177
     0
178
     0
  0
DIMSTYLE
  2
MATSU
 70
     0
  3

  4

  5

  6
OPEN
  7
OPEN
 40
1.0
 41
2.0
 42
1.0
 43
10.0
 44
1.0
 45
0.0
 46
0.0
 47
0.0
 48
0.0
140
3.0
141
0.0
142
0.0
143
0.03937
144
1.0
145
0.0
146
1.0
147
0.5
 71
     0
 72
     0
 73
     0
 74
     0
 75
     0
 76
     0
 77
     1
 78
     8
170
     0
171
     2
172
     1
173
     1
174
     0
175
     0
176
   256
177
   256
178
   256
  0
ENDTAB
  0
ENDSEC
  0
SECTION
  2
BLOCKS
  0
BLOCK
  8
0
  2
$MODEL_SPACE
 70
     0
 10
0.0
 20
0.0
 30
0.0
  3
$MODEL_SPACE
  1

  0
ENDBLK
  5
1B
  8
0
  0
BLOCK
 67
     1
  8
0
  2
$PAPER_SPACE
 70
     0
 10
0.0
 20
0.0
 30
0.0
  3
$PAPER_SPACE
  1

  0
ENDBLK
  5
18
 67
     1
  8
0
  0
BLOCK
  8
0
  2
_OPEN
 70
     0
 10
0.0
 20
0.0
 30
0.0
  3
_OPEN
  1

  0
LINE
  5
28
  8
0
  6
BYBLOCK
 62
     0
 10
-1.0
 20
0.1666666666666666
 30
0.0
 11
0.0
 21
0.0
 31
0.0
  0
LINE
  5
29
  8
0
  6
BYBLOCK
 62
     0
 10
0.0
 20
0.0
 30
0.0
 11
-1.0
 21
-0.1666666666666666
 31
0.0
  0
LINE
  5
2A
  8
0
  6
BYBLOCK
 62
     0
 10
0.0
 20
0.0
 30
0.0
 11
-1.0
 21
0.0
 31
0.0
  0
ENDBLK
  5
2B
  8
0
  0
BLOCK
  8
0
  2
*D1
 70
     1
 10
0.0
 20
0.0
 30
0.0
  3
*D1
  1

  0
LINE
  5
C4EC
  8
0
  6
BYBLOCK
 10
10347.55903593364
 20
-1837.3638610484811
 30
0.0
 11
10347.55903593364
 21
-1507.691868601519
 31
0.0
  0
LINE
  5
C4ED
  8
0
  6
BYBLOCK
 10
12707.559035933649
 20
-1837.3638610484811
 30
0.0
 11
12707.559035933649
 21
-1507.691868601519
 31
0.0
  0
LINE
  5
C4EE
  8
0
  6
BYBLOCK
 10
10457.559035933649
 20
-1562.691868601519
 30
0.0
 11
12597.55903593364
 21
-1562.691868601519
 31
0.0
  0
INSERT
  5
C4EF
  8
0
  6
BYBLOCK
  2
_OPEN
 10
10347.55903593364
 20
-1562.691868601519
 30
0.0
 41
110.0
 42
110.0
 43
110.0
 50
180.0
  0
INSERT
  5
C4F0
  8
0
  6
BYBLOCK
  2
_OPEN
 10
12707.559035933649
 20
-1562.691868601519
 30
0.0
 41
110.0
 42
110.0
 43
110.0
  0
TEXT
  5
C4F1
  8
SP
 10
11273.65829218822
 20
-1507.691868601519
 30
0.0
 40
137.5
  1
2360
 51
15.0
  0
POINT
  5
C4F2
  8
DEFPOINTS
  6
BYBLOCK
 62
     0
 10
10347.55903593364
 20
-1892.3638610484811
 30
0.0
  0
POINT
  5
C4F3
  8
DEFPOINTS
  6
BYBLOCK
 62
     0
 10
12707.559035933649
 20
-1892.3638610484811
 30
0.0
  0
POINT
  5
C4F4
  8
DEFPOINTS
  6
BYBLOCK
 62
     0
 10
12707.559035933649
 20
-1562.691868601519
 30
0.0
  0
ENDBLK
  5
C4F5
  8
0
  0
BLOCK
  8
0
  2
*D2
 70
     1
 10
0.0
 20
0.0
 30
0.0
  3
*D2
  1

  0
LINE
  5
C489
  8
0
  6
BYBLOCK
 10
12707.559035933649
 20
-1837.3638610484811
 30
0.0
 11
12707.559035933649
 21
-1507.691868601519
 31
0.0
  0
LINE
  5
C48A
  8
0
  6
BYBLOCK
 10
14547.559035933649
 20
-3787.3638610484768
 30
0.0
 11
14547.559035933649
 21
-1507.691868601519
 31
0.0
  0
LINE
  5
C48B
  8
0
  6
BYBLOCK
 10
12817.55903593364
 20
-1562.691868601519
 30
0.0
 11
14437.559035933649
 21
-1562.691868601519
 31
0.0
  0
INSERT
  5
C48C
  8
0
  6
BYBLOCK
  2
_OPEN
 10
12707.559035933649
 20
-1562.691868601519
 30
0.0
 41
110.0
 42
110.0
 43
110.0
 50
180.0
  0
INSERT
  5
C48D
  8
0
  6
BYBLOCK
  2
_OPEN
 10
14547.559035933649
 20
-1562.691868601519
 30
0.0
 41
110.0
 42
110.0
 43
110.0
  0
TEXT
  5
C48E
  8
SP
 10
13371.840881776139
 20
-1507.691868601519
 30
0.0
 40
137.5
  1
1840
 51
15.0
  0
POINT
  5
C48F
  8
DEFPOINTS
  6
BYBLOCK
 62
     0
 10
12707.559035933649
 20
-1892.3638610484811
 30
0.0
  0
POINT
  5
C490
  8
DEFPOINTS
  6
BYBLOCK
 62
     0
 10
14547.559035933649
 20
-3842.3638610484768
 30
0.0
  0
POINT
  5
C491
  8
DEFPOINTS
  6
BYBLOCK
 62
     0
 10
14547.559035933649
 20
-1562.691868601519
 30
0.0
  0
ENDBLK
  5
C492
  8
0
  0
BLOCK
  8
0
  2
*D3
 70
     1
 10
0.0
 20
0.0
 30
0.0
  3
*D3
  1

  0
LINE
  5
C4F7
  8
0
  6
BYBLOCK
 10
10292.559035933649
 20
-1892.3638610484811
 30
0.0
 11
9786.6849974763463
 21
-1892.3638610484811
 31
0.0
  0
LINE
  5
C4F8
  8
0
  6
BYBLOCK
 10
10292.559035933649
 20
-5142.3638610484813
 30
0.0
 11
9786.6849974763463
 21
-5142.3638610484813
 31
0.0
  0
LINE
  5
C4F9
  8
0
  6
BYBLOCK
 10
9841.6849974763463
 20
-2002.3638610484811
 30
0.0
 11
9841.6849974763463
 21
-5032.3638610484813
 31
0.0
  0
INSERT
  5
C4FA
  8
0
  6
BYBLOCK
  2
_OPEN
 10
9841.6849974763463
 20
-1892.3638610484811
 30
0.0
 41
110.0
 42
110.0
 43
110.0
 50
90.0
  0
INSERT
  5
C4FB
  8
0
  6
BYBLOCK
  2
_OPEN
 10
9841.6849974763463
 20
-5142.3638610484813
 30
0.0
 41
110.0
 42
110.0
 43
110.0
 50
270.0
  0
TEXT
  5
C4FC
  8
SP
 10
9786.6849974763463
 20
-3774.7734632662159
 30
0.0
 40
137.5
  1
3250
 50
90.0
 51
15.0
  0
POINT
  5
C4FD
  8
DEFPOINTS
  6
BYBLOCK
 62
     0
 10
10347.55903593364
 20
-1892.3638610484811
 30
0.0
  0
POINT
  5
C4FE
  8
DEFPOINTS
  6
BYBLOCK
 62
     0
 10
10347.55903593364
 20
-5142.3638610484813
 30
0.0
  0
POINT
  5
C4FF
  8
DEFPOINTS
  6
BYBLOCK
 62
     0
 10
9841.6849974763463
 20
-5142.3638610484813
 30
0.0
  0
ENDBLK
  5
C500
  8
0
  0
BLOCK
  8
0
  2
*D4
 70
     1
 10
0.0
 20
0.0
 30
0.0
  3
*D4
  1

  0
LINE
  5
C47E
  8
0
  6
BYBLOCK
 10
10347.55903593364
 20
-5197.3638610484813
 30
0.0
 11
10347.55903593364
 21
-5644.8371719308916
 31
0.0
  0
LINE
  5
C47F
  8
0
  6
BYBLOCK
 10
14547.559035933649
 20
-5197.3638610484777
 30
0.0
 11
14547.559035933649
 21
-5644.8371719308916
 31
0.0
  0
LINE
  5
C480
  8
0
  6
BYBLOCK
 10
10457.559035933649
 20
-5589.8371719308916
 30
0.0
 11
14437.559035933649
 21
-5589.8371719308916
 31
0.0
  0
INSERT
  5
C481
  8
0
  6
BYBLOCK
  2
_OPEN
 10
10347.55903593364
 20
-5589.8371719308916
 30
0.0
 41
110.0
 42
110.0
 43
110.0
 50
180.0
  0
INSERT
  5
C482
  8
0
  6
BYBLOCK
  2
_OPEN
 10
14547.559035933649
 20
-5589.8371719308916
 30
0.0
 41
110.0
 42
110.0
 43
110.0
  0
TEXT
  5
C483
  8
SP
 10
12187.51778986168
 20
-5534.8371719308934
 30
0.0
 40
137.5
  1
4200
 51
15.0
  0
POINT
  5
C484
  8
DEFPOINTS
  6
BYBLOCK
 62
     0
 10
10347.55903593364
 20
-5142.3638610484813
 30
0.0
  0
POINT
  5
C485
  8
DEFPOINTS
  6
BYBLOCK
 62
     0
 10
14547.559035933649
 20
-5142.3638610484777
 30
0.0
  0
POINT
  5
C486
  8
DEFPOINTS
  6
BYBLOCK
 62
     0
 10
14547.559035933649
 20
-5589.8371719308916
 30
0.0
  0
ENDBLK
  5
C487
  8
0
  0
BLOCK
  8
0
  2
*D5
 70
     1
 10
0.0
 20
0.0
 30
0.0
  3
*D5
  1

  0
LINE
  5
C494
  8
0
  6
BYBLOCK
 10
14602.559035933649
 20
-3842.3638610484768
 30
0.0
 11
14991.72261673343
 21
-3842.3638610484768
 31
0.0
  0
LINE
  5
C495
  8
0
  6
BYBLOCK
 10
14602.559035933649
 20
-5142.3638610484777
 30
0.0
 11
14991.72261673343
 21
-5142.3638610484777
 31
0.0
  0
LINE
  5
C496
  8
0
  6
BYBLOCK
 10
14936.72261673343
 20
-3952.3638610484782
 30
0.0
 11
14936.72261673343
 21
-5032.3638610484768
 31
0.0
  0
INSERT
  5
C497
  8
0
  6
BYBLOCK
  2
_OPEN
 10
14936.72261673343
 20
-3842.3638610484768
 30
0.0
 41
110.0
 42
110.0
 43
110.0
 50
90.0
  0
INSERT
  5
C498
  8
0
  6
BYBLOCK
  2
_OPEN
 10
14936.72261673343
 20
-5142.3638610484777
 30
0.0
 41
110.0
 42
110.0
 43
110.0
 50
270.0
  0
TEXT
  5
C499
  8
SP
 10
14881.72261673343
 20
-4748.0820152059896
 30
0.0
 40
137.5
  1
1300
 50
90.0
 51
15.0
  0
POINT
  5
C49A
  8
DEFPOINTS
  6
BYBLOCK
 62
     0
 10
14547.559035933649
 20
-3842.3638610484768
 30
0.0
  0
POINT
  5
C49B
  8
DEFPOINTS
  6
BYBLOCK
 62
     0
 10
14547.559035933649
 20
-5142.3638610484777
 30
0.0
  0
POINT
  5
C49C
  8
DEFPOINTS
  6
BYBLOCK
 62
     0
 10
14936.72261673343
 20
-5142.3638610484777
 30
0.0
  0
ENDBLK
  5
C49D
  8
0
  0
BLOCK
  8
0
  2
*D6
 70
     1
 10
0.0
 20
0.0
 30
0.0
  3
*D6
  1

  0
LINE
  5
C346
  8
0
  6
BYBLOCK
 10
15203.627944492229
 20
-10857.13488374287
 30
0.0
 11
15203.627944492229
 21
-11202.63562283916
 31
0.0
  0
LINE
  5
C347
  8
0
  6
BYBLOCK
 10
17049.627944492229
 20
-10857.13488374287
 30
0.0
 11
17049.627944492229
 21
-11202.63562283916
 31
0.0
  0
LINE
  5
C348
  8
0
  6
BYBLOCK
 10
15313.627944492229
 20
-11147.63562283916
 30
0.0
 11
16939.627944492229
 21
-11147.63562283916
 31
0.0
  0
INSERT
  5
C349
  8
0
  6
BYBLOCK
  2
_OPEN
 10
15203.627944492229
 20
-11147.63562283916
 30
0.0
 41
110.0
 42
110.0
 43
110.0
 50
180.0
  0
INSERT
  5
C34A
  8
0
  6
BYBLOCK
  2
_OPEN
 10
17049.627944492229
 20
-11147.63562283916
 30
0.0
 41
110.0
 42
110.0
 43
110.0
  0
TEXT
  5
C34B
  8
SP
 10
15873.30638524045
 20
-11092.635622839151
 30
0.0
 40
137.5
  1
1846
 51
15.0
  0
POINT
  5
C34C
  8
DEFPOINTS
  6
BYBLOCK
 62
     0
 10
15203.627944492229
 20
-10802.13488374287
 30
0.0
  0
POINT
  5
C34D
  8
DEFPOINTS
  6
BYBLOCK
 62
     0
 10
17049.627944492229
 20
-10802.13488374287
 30
0.0
  0
POINT
  5
C34E
  8
DEFPOINTS
  6
BYBLOCK
 62
     0
 10
17049.627944492229
 20
-11147.63562283916
 30
0.0
  0
ENDBLK
  5
C34F
  8
0
  0
BLOCK
  8
0
  2
*D7
 70
     1
 10
0.0
 20
0.0
 30
0.0
  3
*D7
  1

  0
LINE
  5
C353
  8
0
  6
BYBLOCK
 10
17049.627944492229
 20
-10857.13488374287
 30
0.0
 11
17049.627944492229
 21
-11202.63562283916
 31
0.0
  0
LINE
  5
C354
  8
0
  6
BYBLOCK
 10
18453.627944492229
 20
-10857.13488374287
 30
0.0
 11
18453.627944492229
 21
-11202.63562283916
 31
0.0
  0
LINE
  5
C355
  8
0
  6
BYBLOCK
 10
17159.627944492229
 20
-11147.63562283916
 30
0.0
 11
18343.627944492229
 21
-11147.63562283916
 31
0.0
  0
INSERT
  5
C356
  8
0
  6
BYBLOCK
  2
_OPEN
 10
17049.627944492229
 20
-11147.63562283916
 30
0.0
 41
110.0
 42
110.0
 43
110.0
 50
180.0
  0
INSERT
  5
C357
  8
0
  6
BYBLOCK
  2
_OPEN
 10
18453.627944492229
 20
-11147.63562283916
 30
0.0
 41
110.0
 42
110.0
 43
110.0
  0
TEXT
  5
C358
  8
SP
 10
17498.13431746788
 20
-11092.635622839151
 30
0.0
 40
137.5
  1
1404
 51
15.0
  0
POINT
  5
C359
  8
DEFPOINTS
  6
BYBLOCK
 62
     0
 10
17049.627944492229
 20
-10802.13488374287
 30
0.0
  0
POINT
  5
C35A
  8
DEFPOINTS
  6
BYBLOCK
 62
     0
 10
18453.627944492229
 20
-10802.13488374287
 30
0.0
  0
POINT
  5
C35B
  8
DEFPOINTS
  6
BYBLOCK
 62
     0
 10
18453.627944492229
 20
-11147.63562283916
 30
0.0
  0
ENDBLK
  5
C35C
  8
0
  0
BLOCK
  8
0
  2
*D8
 70
     1
 10
0.0
 20
0.0
 30
0.0
  3
*D8
  1

  0
LINE
  5
C360
  8
0
  6
BYBLOCK
 10
15203.627944492229
 20
-10857.13488374286
 30
0.0
 11
15203.627944492229
 21
-11532.38305444039
 31
0.0
  0
LINE
  5
C361
  8
0
  6
BYBLOCK
 10
18453.627944492229
 20
-10857.13488374286
 30
0.0
 11
18453.627944492229
 21
-11532.38305444039
 31
0.0
  0
LINE
  5
C362
  8
0
  6
BYBLOCK
 10
15313.627944492229
 20
-11477.38305444039
 30
0.0
 11
18343.627944492229
 21
-11477.38305444039
 31
0.0
  0
INSERT
  5
C363
  8
0
  6
BYBLOCK
  2
_OPEN
 10
15203.627944492229
 20
-11477.38305444039
 30
0.0
 41
110.0
 42
110.0
 43
110.0
 50
180.0
  0
INSERT
  5
C364
  8
0
  6
BYBLOCK
  2
_OPEN
 10
18453.627944492229
 20
-11477.38305444039
 30
0.0
 41
110.0
 42
110.0
 43
110.0
  0
TEXT
  5
C365
  8
SP
 10
16571.218342274489
 20
-11422.38305444039
 30
0.0
 40
137.5
  1
3250
 51
15.0
  0
POINT
  5
C366
  8
DEFPOINTS
  6
BYBLOCK
 62
     0
 10
15203.627944492229
 20
-10802.13488374286
 30
0.0
  0
POINT
  5
C367
  8
DEFPOINTS
  6
BYBLOCK
 62
     0
 10
18453.627944492229
 20
-10802.13488374286
 30
0.0
  0
POINT
  5
C368
  8
DEFPOINTS
  6
BYBLOCK
 62
     0
 10
18453.627944492229
 20
-11477.38305444039
 30
0.0
  0
ENDBLK
  5
C369
  8
0
  0
BLOCK
  8
0
  2
*D9
 70
     1
 10
0.0
 20
0.0
 30
0.0
  3
*D9
  1

  0
LINE
  5
C4B5
  8
0
  6
BYBLOCK
 10
11527.55903593364
 20
-10650.12160820148
 30
0.0
 11
11527.55903593364
 21
-10996.84162828749
 31
0.0
  0
LINE
  5
C4B6
  8
0
  6
BYBLOCK
 10
10347.55903593364
 20
-10650.12160820148
 30
0.0
 11
10347.55903593364
 21
-10996.84162828749
 31
0.0
  0
LINE
  5
C4B7
  8
0
  6
BYBLOCK
 10
11417.55903593364
 20
-10941.84162828748
 30
0.0
 11
10457.559035933649
 21
-10941.84162828748
 31
0.0
  0
INSERT
  5
C4B8
  8
0
  6
BYBLOCK
  2
_OPEN
 10
11527.55903593364
 20
-10941.84162828748
 30
0.0
 41
110.0
 42
110.0
 43
110.0
  0
INSERT
  5
C4B9
  8
0
  6
BYBLOCK
  2
_OPEN
 10
10347.55903593364
 20
-10941.84162828748
 30
0.0
 41
110.0
 42
110.0
 43
110.0
 50
180.0
  0
TEXT
  5
C4BA
  8
SP
 10
10694.93611987137
 20
-10886.84162828748
 30
0.0
 40
137.5
  1
1180
 51
15.0
  0
POINT
  5
C4BB
  8
DEFPOINTS
  6
BYBLOCK
 62
     0
 10
11527.55903593364
 20
-10595.12160820148
 30
0.0
  0
POINT
  5
C4BC
  8
DEFPOINTS
  6
BYBLOCK
 62
     0
 10
10347.55903593364
 20
-10595.12160820148
 30
0.0
  0
POINT
  5
C4BD
  8
DEFPOINTS
  6
BYBLOCK
 62
     0
 10
10347.55903593364
 20
-10941.84162828748
 30
0.0
  0
ENDBLK
  5
C4BE
  8
0
  0
BLOCK
  8
0
  2
*D10
 70
     1
 10
0.0
 20
0.0
 30
0.0
  3
*D10
  1

  0
LINE
  5
C473
  8
0
  6
BYBLOCK
 10
14547.559035933649
 20
-10650.121608201471
 30
0.0
 11
14547.559035933649
 21
-10996.84162828749
 31
0.0
  0
LINE
  5
C474
  8
0
  6
BYBLOCK
 10
11527.55903593364
 20
-10650.12160820148
 30
0.0
 11
11527.55903593364
 21
-10996.84162828749
 31
0.0
  0
LINE
  5
C475
  8
0
  6
BYBLOCK
 10
14437.559035933649
 20
-10941.84162828748
 30
0.0
 11
11637.55903593364
 21
-10941.84162828748
 31
0.0
  0
INSERT
  5
C476
  8
0
  6
BYBLOCK
  2
_OPEN
 10
14547.559035933649
 20
-10941.84162828748
 30
0.0
 41
110.0
 42
110.0
 43
110.0
  0
INSERT
  5
C477
  8
0
  6
BYBLOCK
  2
_OPEN
 10
11527.55903593364
 20
-10941.84162828748
 30
0.0
 41
110.0
 42
110.0
 43
110.0
 50
180.0
  0
TEXT
  5
C478
  8
SP
 10
12780.149433715909
 20
-10886.84162828748
 30
0.0
 40
137.5
  1
3020
 51
15.0
  0
POINT
  5
C479
  8
DEFPOINTS
  6
BYBLOCK
 62
     0
 10
14547.559035933649
 20
-10595.12160820148
 30
0.0
  0
POINT
  5
C47A
  8
DEFPOINTS
  6
BYBLOCK
 62
     0
 10
11527.55903593364
 20
-10595.12160820148
 30
0.0
  0
POINT
  5
C47B
  8
DEFPOINTS
  6
BYBLOCK
 62
     0
 10
11527.55903593364
 20
-10941.84162828748
 30
0.0
  0
ENDBLK
  5
C47C
  8
0
  0
BLOCK
  8
0
  2
*D11
 70
     1
 10
0.0
 20
0.0
 30
0.0
  3
*D11
  1

  0
LINE
  5
C468
  8
0
  6
BYBLOCK
 10
14547.559035933649
 20
-10650.121608201471
 30
0.0
 11
14547.559035933649
 21
-11325.369778898999
 31
0.0
  0
LINE
  5
C469
  8
0
  6
BYBLOCK
 10
10347.55903593364
 20
-10650.12160820148
 30
0.0
 11
10347.55903593364
 21
-11325.369778898999
 31
0.0
  0
LINE
  5
C46A
  8
0
  6
BYBLOCK
 10
14437.559035933649
 20
-11270.369778898999
 30
0.0
 11
10457.559035933649
 21
-11270.369778898999
 31
0.0
  0
INSERT
  5
C46B
  8
0
  6
BYBLOCK
  2
_OPEN
 10
14547.559035933649
 20
-11270.369778898999
 30
0.0
 41
110.0
 42
110.0
 43
110.0
  0
INSERT
  5
C46C
  8
0
  6
BYBLOCK
  2
_OPEN
 10
10347.55903593364
 20
-11270.369778898999
 30
0.0
 41
110.0
 42
110.0
 43
110.0
 50
180.0
  0
TEXT
  5
C46D
  8
SP
 10
12187.51778986168
 20
-11215.369778898999
 30
0.0
 40
137.5
  1
4200
 51
15.0
  0
POINT
  5
C46E
  8
DEFPOINTS
  6
BYBLOCK
 62
     0
 10
14547.559035933649
 20
-10595.12160820148
 30
0.0
  0
POINT
  5
C46F
  8
DEFPOINTS
  6
BYBLOCK
 62
     0
 10
10347.55903593364
 20
-10595.12160820148
 30
0.0
  0
POINT
  5
C470
  8
DEFPOINTS
  6
BYBLOCK
 62
     0
 10
10347.55903593364
 20
-11270.369778898999
 30
0.0
  0
ENDBLK
  5
C471
  8
0
  0
BLOCK
  8
0
  2
*D12
 70
     1
 10
0.0
 20
0.0
 30
0.0
  3
*D12
  1

  0
LINE
  5
C4E1
  8
0
  6
BYBLOCK
 10
10197.55903593364
 20
-8333.1216082014835
 30
0.0
 11
9851.8081094063546
 21
-8333.1216082014835
 31
0.0
  0
LINE
  5
C4E2
  8
0
  6
BYBLOCK
 10
10197.55903593364
 20
-10393.12160820148
 30
0.0
 11
9851.8081094063546
 21
-10393.12160820148
 31
0.0
  0
LINE
  5
C4E3
  8
0
  6
BYBLOCK
 10
9906.8081094063546
 20
-8443.1216082014853
 30
0.0
 11
9906.8081094063546
 21
-10283.12160820148
 31
0.0
  0
INSERT
  5
C4E4
  8
0
  6
BYBLOCK
  2
_OPEN
 10
9906.8081094063546
 20
-8333.1216082014835
 30
0.0
 41
110.0
 42
110.0
 43
110.0
 50
90.0
  0
INSERT
  5
C4E5
  8
0
  6
BYBLOCK
  2
_OPEN
 10
9906.8081094063546
 20
-10393.12160820148
 30
0.0
 41
110.0
 42
110.0
 43
110.0
 50
270.0
  0
TEXT
  5
C4E6
  8
SP
 10
9851.8081094063546
 20
-9617.0223519469073
 30
0.0
 40
137.5
  1
2060
 50
90.0
 51
15.0
  0
POINT
  5
C4E7
  8
DEFPOINTS
  6
BYBLOCK
 62
     0
 10
10252.559035933649
 20
-8333.1216082014835
 30
0.0
  0
POINT
  5
C4E8
  8
DEFPOINTS
  6
BYBLOCK
 62
     0
 10
10252.559035933649
 20
-10393.12160820148
 30
0.0
  0
POINT
  5
C4E9
  8
DEFPOINTS
  6
BYBLOCK
 62
     0
 10
9906.8081094063546
 20
-10393.12160820148
 30
0.0
  0
ENDBLK
  5
C4EA
  8
0
  0
BLOCK
  8
0
  2
*D13
 70
     1
 10
0.0
 20
0.0
 30
0.0
  3
*D13
  1

  0
LINE
  5
C4D6
  8
0
  6
BYBLOCK
 10
10094.006037819699
 20
-8245.1216082014835
 30
0.0
 11
9495.1818543172849
 21
-8245.1216082014835
 31
0.0
  0
LINE
  5
C4D7
  8
0
  6
BYBLOCK
 10
10197.55903593364
 20
-10393.12160820148
 30
0.0
 11
9495.1818543172849
 21
-10393.12160820148
 31
0.0
  0
LINE
  5
C4D8
  8
0
  6
BYBLOCK
 10
9550.1818543172849
 20
-8355.1216082014835
 30
0.0
 11
9550.1818543172849
 21
-10283.12160820148
 31
0.0
  0
INSERT
  5
C4D9
  8
0
  6
BYBLOCK
  2
_OPEN
 10
9550.1818543172849
 20
-8245.1216082014835
 30
0.0
 41
110.0
 42
110.0
 43
110.0
 50
90.0
  0
INSERT
  5
C4DA
  8
0
  6
BYBLOCK
  2
_OPEN
 10
9550.1818543172849
 20
-10393.12160820148
 30
0.0
 41
110.0
 42
110.0
 43
110.0
 50
270.0
  0
TEXT
  5
C4DB
  8
SP
 10
9495.1818543172849
 20
-9560.8043284697487
 30
0.0
 40
137.5
  1
2148
 50
90.0
 51
15.0
  0
POINT
  5
C4DC
  8
DEFPOINTS
  6
BYBLOCK
 62
     0
 10
10149.006037819699
 20
-8245.1216082014835
 30
0.0
  0
POINT
  5
C4DD
  8
DEFPOINTS
  6
BYBLOCK
 62
     0
 10
10252.559035933649
 20
-10393.12160820148
 30
0.0
  0
POINT
  5
C4DE
  8
DEFPOINTS
  6
BYBLOCK
 62
     0
 10
9550.1818543172849
 20
-10393.12160820148
 30
0.0
  0
ENDBLK
  5
C4DF
  8
0
  0
BLOCK
  8
0
  2
*D14
 70
     1
 10
0.0
 20
0.0
 30
0.0
  3
*D14
  1

  0
LINE
  5
C4CB
  8
0
  6
BYBLOCK
 10
10094.006037819699
 20
-8245.1216082014835
 30
0.0
 11
9138.5556675286207
 21
-8245.1216082014835
 31
0.0
  0
LINE
  5
C4CC
  8
0
  6
BYBLOCK
 10
10292.559035933649
 20
-10595.12160820148
 30
0.0
 11
9138.5556675286207
 21
-10595.12160820148
 31
0.0
  0
LINE
  5
C4CD
  8
0
  6
BYBLOCK
 10
9193.5556675286207
 20
-8355.1216082014835
 30
0.0
 11
9193.5556675286207
 21
-10485.12160820148
 31
0.0
  0
INSERT
  5
C4CE
  8
0
  6
BYBLOCK
  2
_OPEN
 10
9193.5556675286207
 20
-8245.1216082014835
 30
0.0
 41
110.0
 42
110.0
 43
110.0
 50
90.0
  0
INSERT
  5
C4CF
  8
0
  6
BYBLOCK
  2
_OPEN
 10
9193.5556675286207
 20
-10595.12160820148
 30
0.0
 41
110.0
 42
110.0
 43
110.0
 50
270.0
  0
TEXT
  5
C4D0
  8
SP
 10
9138.5556675286207
 20
-9674.0223519469055
 30
0.0
 40
137.5
  1
2350
 50
90.0
 51
15.0
  0
POINT
  5
C4D1
  8
DEFPOINTS
  6
BYBLOCK
 62
     0
 10
10149.006037819699
 20
-8245.1216082014835
 30
0.0
  0
POINT
  5
C4D2
  8
DEFPOINTS
  6
BYBLOCK
 62
     0
 10
10347.55903593364
 20
-10595.12160820148
 30
0.0
  0
POINT
  5
C4D3
  8
DEFPOINTS
  6
BYBLOCK
 62
     0
 10
9193.5556675286207
 20
-10595.12160820148
 30
0.0
  0
ENDBLK
  5
C4D4
  8
0
  0
BLOCK
  8
0
  2
*D15
 70
     1
 10
0.0
 20
0.0
 30
0.0
  3
*D15
  1

  0
LINE
  5
C3FE
  8
0
  6
BYBLOCK
 10
15724.627944492229
 20
-7371.7416553759949
 30
0.0
 11
15724.627944492229
 21
-7084.2487154222472
 31
0.0
  0
LINE
  5
C3FF
  8
0
  6
BYBLOCK
 10
18374.627944492229
 20
-7371.7416553759949
 30
0.0
 11
18374.627944492229
 21
-7084.2487154222472
 31
0.0
  0
LINE
  5
C400
  8
0
  6
BYBLOCK
 10
15834.627944492229
 20
-7139.2487154222472
 30
0.0
 11
18264.627944492229
 21
-7139.2487154222472
 31
0.0
  0
INSERT
  5
C401
  8
0
  6
BYBLOCK
  2
_OPEN
 10
15724.627944492229
 20
-7139.2487154222472
 30
0.0
 41
110.0
 42
110.0
 43
110.0
 50
180.0
  0
INSERT
  5
C402
  8
0
  6
BYBLOCK
  2
_OPEN
 10
18374.627944492229
 20
-7139.2487154222472
 30
0.0
 41
110.0
 42
110.0
 43
110.0
  0
TEXT
  5
C403
  8
SP
 10
16795.727200746809
 20
-7084.2487154222472
 30
0.0
 40
137.5
  1
2650
 51
15.0
  0
POINT
  5
C404
  8
DEFPOINTS
  6
BYBLOCK
 62
     0
 10
15724.627944492229
 20
-7426.7416553759949
 30
0.0
  0
POINT
  5
C405
  8
DEFPOINTS
  6
BYBLOCK
 62
     0
 10
18374.627944492229
 20
-7426.7416553759949
 30
0.0
  0
POINT
  5
C406
  8
DEFPOINTS
  6
BYBLOCK
 62
     0
 10
18374.627944492229
 20
-7139.2487154222472
 30
0.0
  0
ENDBLK
  5
C407
  8
0
  0
BLOCK
  8
0
  2
*D16
 70
     1
 10
0.0
 20
0.0
 30
0.0
  3
*D16
  1

  0
LINE
  5
C4AA
  8
0
  6
BYBLOCK
 10
10252.559035933649
 20
-8199.1216082014853
 30
0.0
 11
10252.559035933649
 21
-6460.6286682477357
 31
0.0
  0
LINE
  5
C4AB
  8
0
  6
BYBLOCK
 10
11527.55903593364
 20
-6638.7827537690009
 30
0.0
 11
11527.55903593364
 21
-6460.6286682477357
 31
0.0
  0
LINE
  5
C4AC
  8
0
  6
BYBLOCK
 10
10362.55903593364
 20
-6515.6286682477366
 30
0.0
 11
11417.55903593364
 21
-6515.6286682477366
 31
0.0
  0
INSERT
  5
C4AD
  8
0
  6
BYBLOCK
  2
_OPEN
 10
10252.559035933649
 20
-6515.6286682477366
 30
0.0
 41
110.0
 42
110.0
 43
110.0
 50
180.0
  0
INSERT
  5
C4AE
  8
0
  6
BYBLOCK
  2
_OPEN
 10
11527.55903593364
 20
-6515.6286682477366
 30
0.0
 41
110.0
 42
110.0
 43
110.0
  0
TEXT
  5
C4AF
  8
SP
 10
10634.10583282763
 20
-6460.6286682477357
 30
0.0
 40
137.5
  1
1275
 51
15.0
  0
POINT
  5
C4B0
  8
DEFPOINTS
  6
BYBLOCK
 62
     0
 10
10252.559035933649
 20
-8254.1216082014853
 30
0.0
  0
POINT
  5
C4B1
  8
DEFPOINTS
  6
BYBLOCK
 62
     0
 10
11527.55903593364
 20
-6693.7827537690027
 30
0.0
  0
POINT
  5
C4B2
  8
DEFPOINTS
  6
BYBLOCK
 62
     0
 10
11527.55903593364
 20
-6515.6286682477366
 30
0.0
  0
ENDBLK
  5
C4B3
  8
0
  0
BLOCK
  8
0
  2
*D17
 70
     1
 10
0.0
 20
0.0
 30
0.0
  3
*D17
  1

  0
LINE
  5
C4C0
  8
0
  6
BYBLOCK
 10
11527.55903593364
 20
-6638.7827537690009
 30
0.0
 11
11527.55903593364
 21
-6460.6286682477357
 31
0.0
  0
LINE
  5
C4C1
  8
0
  6
BYBLOCK
 10
13263.55903593364
 20
-8337.1216082014835
 30
0.0
 11
13263.55903593364
 21
-6460.6286682477357
 31
0.0
  0
LINE
  5
C4C2
  8
0
  6
BYBLOCK
 10
11637.55903593364
 20
-6515.6286682477366
 30
0.0
 11
13153.559035933649
 21
-6515.6286682477366
 31
0.0
  0
INSERT
  5
C4C3
  8
0
  6
BYBLOCK
  2
_OPEN
 10
11527.55903593364
 20
-6515.6286682477366
 30
0.0
 41
110.0
 42
110.0
 43
110.0
 50
180.0
  0
INSERT
  5
C4C4
  8
0
  6
BYBLOCK
  2
_OPEN
 10
13263.55903593364
 20
-6515.6286682477366
 30
0.0
 41
110.0
 42
110.0
 43
110.0
  0
TEXT
  5
C4C5
  8
SP
 10
12142.237476681859
 20
-6460.6286682477357
 30
0.0
 40
137.5
  1
1736
 51
15.0
  0
POINT
  5
C4C6
  8
DEFPOINTS
  6
BYBLOCK
 62
     0
 10
11527.55903593364
 20
-6693.7827537690027
 30
0.0
  0
POINT
  5
C4C7
  8
DEFPOINTS
  6
BYBLOCK
 62
     0
 10
13263.55903593364
 20
-8392.1216082014835
 30
0.0
  0
POINT
  5
C4C8
  8
DEFPOINTS
  6
BYBLOCK
 62
     0
 10
13263.55903593364
 20
-6515.6286682477366
 30
0.0
  0
ENDBLK
  5
C4C9
  8
0
  0
BLOCK
  8
0
  2
*D18
 70
     1
 10
0.0
 20
0.0
 30
0.0
  3
*D18
  1

  0
LINE
  5
C433
  8
0
  6
BYBLOCK
 10
17049.627944492229
 20
-6770.3871042053688
 30
0.0
 11
17049.627944492229
 21
-6739.8175614864604
 31
0.0
  0
LINE
  5
C434
  8
0
  6
BYBLOCK
 10
15149.627944492229
 20
-8333.7416553759977
 30
0.0
 11
15149.627944492229
 21
-6739.8175614864604
 31
0.0
  0
LINE
  5
C435
  8
0
  6
BYBLOCK
 10
16939.627944492229
 20
-6794.8175614864604
 30
0.0
 11
15259.627944492229
 21
-6794.8175614864604
 31
0.0
  0
INSERT
  5
C436
  8
0
  6
BYBLOCK
  2
_OPEN
 10
17049.627944492229
 20
-6794.8175614864604
 30
0.0
 41
110.0
 42
110.0
 43
110.0
  0
INSERT
  5
C437
  8
0
  6
BYBLOCK
  2
_OPEN
 10
15149.627944492229
 20
-6794.8175614864604
 30
0.0
 41
110.0
 42
110.0
 43
110.0
 50
180.0
  0
TEXT
  5
C438
  8
SP
 10
15772.41905988385
 20
-6680.888990057887
 30
0.0
 40
137.5
  1
(1900)
 51
15.0
  0
POINT
  5
C439
  8
DEFPOINTS
  6
BYBLOCK
 62
     0
 10
17049.627944492229
 20
-6825.3871042053679
 30
0.0
  0
POINT
  5
C43A
  8
DEFPOINTS
  6
BYBLOCK
 62
     0
 10
15149.627944492229
 20
-8388.7416553759977
 30
0.0
  0
POINT
  5
C43B
  8
DEFPOINTS
  6
BYBLOCK
 62
     0
 10
15149.627944492229
 20
-6794.8175614864604
 30
0.0
  0
ENDBLK
  5
C43C
  8
0
  0
BLOCK
  8
0
  2
*D19
 70
     1
 10
0.0
 20
0.0
 30
0.0
  3
*D19
  1

  0
LINE
  5
C440
  8
0
  6
BYBLOCK
 10
17049.627944492229
 20
-6770.3871042053688
 30
0.0
 11
17049.627944492229
 21
-6739.8175614864604
 31
0.0
  0
LINE
  5
C441
  8
0
  6
BYBLOCK
 10
18619.82794449223
 20
-8903.7416553759922
 30
0.0
 11
18619.82794449223
 21
-6739.8175614864604
 31
0.0
  0
LINE
  5
C442
  8
0
  6
BYBLOCK
 10
17159.627944492229
 20
-6794.8175614864604
 30
0.0
 11
18509.82794449223
 21
-6794.8175614864604
 31
0.0
  0
INSERT
  5
C443
  8
0
  6
BYBLOCK
  2
_OPEN
 10
17049.627944492229
 20
-6794.8175614864604
 30
0.0
 41
110.0
 42
110.0
 43
110.0
 50
180.0
  0
INSERT
  5
C444
  8
0
  6
BYBLOCK
  2
_OPEN
 10
18619.82794449223
 20
-6794.8175614864604
 30
0.0
 41
110.0
 42
110.0
 43
110.0
  0
TEXT
  5
C445
  8
SP
 10
17507.519059883849
 20
-6680.888990057887
 30
0.0
 40
137.5
  1
(1570)
 51
15.0
  0
POINT
  5
C446
  8
DEFPOINTS
  6
BYBLOCK
 62
     0
 10
17049.627944492229
 20
-6825.3871042053679
 30
0.0
  0
POINT
  5
C447
  8
DEFPOINTS
  6
BYBLOCK
 62
     0
 10
18619.82794449223
 20
-8958.7416553759922
 30
0.0
  0
POINT
  5
C448
  8
DEFPOINTS
  6
BYBLOCK
 62
     0
 10
18619.82794449223
 20
-6794.8175614864604
 30
0.0
  0
ENDBLK
  5
C449
  8
0
  0
BLOCK
  8
0
  2
*D20
 70
     1
 10
0.0
 20
0.0
 30
0.0
  3
*D20
  1

  0
LINE
  5
C49F
  8
0
  6
BYBLOCK
 10
11595.05903593364
 20
-6803.1216082014826
 30
0.0
 11
9142.5644231240512
 21
-6803.1216082014826
 31
0.0
  0
LINE
  5
C4A0
  8
0
  6
BYBLOCK
 10
10094.006037819699
 20
-8245.1216082014835
 30
0.0
 11
9142.5644231240512
 21
-8245.1216082014835
 31
0.0
  0
LINE
  5
C4A1
  8
0
  6
BYBLOCK
 10
9197.5644231240512
 20
-6913.1216082014826
 30
0.0
 11
9197.5644231240512
 21
-8135.1216082014826
 31
0.0
  0
INSERT
  5
C4A2
  8
0
  6
BYBLOCK
  2
_OPEN
 10
9197.5644231240512
 20
-6803.1216082014826
 30
0.0
 41
110.0
 42
110.0
 43
110.0
 50
90.0
  0
INSERT
  5
C4A3
  8
0
  6
BYBLOCK
  2
_OPEN
 10
9197.5644231240512
 20
-8245.1216082014835
 30
0.0
 41
110.0
 42
110.0
 43
110.0
 50
270.0
  0
TEXT
  5
C4A4
  8
SP
 10
9142.5644231240512
 20
-7779.8397623589954
 30
0.0
 40
137.5
  1
1442
 50
90.0
 51
15.0
  0
POINT
  5
C4A5
  8
DEFPOINTS
  6
BYBLOCK
 62
     0
 10
11650.05903593364
 20
-6803.1216082014826
 30
0.0
  0
POINT
  5
C4A6
  8
DEFPOINTS
  6
BYBLOCK
 62
     0
 10
10149.006037819699
 20
-8245.1216082014835
 30
0.0
  0
POINT
  5
C4A7
  8
DEFPOINTS
  6
BYBLOCK
 62
     0
 10
9197.5644231240512
 20
-8245.1216082014835
 30
0.0
  0
ENDBLK
  5
C4A8
  8
0
  0
ENDSEC
  0
SECTION
  2
ENTITIES
  0
LINE
  5
7AB6
  8
FUTO
 10
13577.559035933649
 20
-10345.12160820148
 30
0.0
 11
13647.55903593364
 21
-10345.12160820148
 31
0.0
  0
LINE
  5
7AB7
  8
FUTO
 10
14277.55903593364
 20
-10345.12160820148
 30
0.0
 11
14277.55903593364
 21
-10415.12160820148
 31
0.0
  0
LINE
  5
7AB8
  8
FUTO
 10
13577.559035933649
 20
-10345.12160820148
 30
0.0
 11
13577.559035933649
 21
-10415.12160820148
 31
0.0
  0
LINE
  5
7AC0
  8
FUTO
 10
14197.55903593364
 20
-4036.3638610484832
 30
0.0
 11
13657.559035933649
 21
-4036.3638610484832
 31
0.0
  0
LINE
  5
7AC6
  8
FUTO
 10
13657.559035933649
 20
-4939.8638610484832
 30
0.0
 11
14197.55903593364
 21
-4939.8638610484832
 31
0.0
  0
LINE
  5
7AFE
  8
FUTO
 10
13970.059035933649
 20
-5006.3638610484832
 30
0.0
 11
13970.059035933649
 21
-4939.8638610484832
 31
0.0
  0
LINE
  5
7AFF
  8
FUTO
 10
13885.05903593364
 20
-4939.8638610484832
 30
0.0
 11
13885.05903593364
 21
-5006.3638610484832
 31
0.0
  0
ARC
  5
7B35
  8
FUTO
 10
13927.55903593364
 20
-10065.12160820148
 30
0.0
 40
287.5
 50
329.6527344126618
 51
210.34726548400721
  0
LINE
  5
7B36
  8
CT
 10
13927.55903593364
 20
-10595.121608201491
 30
0.0
 11
13927.55903593364
 21
-9681.959288201484
 31
0.0
  0
LINE
  5
7B38
  8
CT
 10
14247.55903593364
 20
-10065.12160820148
 30
0.0
 11
13607.55903593364
 21
-10065.12160820148
 31
0.0
  0
LINE
  5
7B3B
  8
FUTO
 10
14197.927755933641
 20
-10223.875071201481
 30
0.0
 11
14175.66551293365
 21
-10210.378022201479
 31
0.0
  0
LINE
  5
7B3C
  8
FUTO
 10
14207.559035933649
 20
-10345.12160820148
 30
0.0
 11
14207.559035933649
 21
-10240.97740020148
 31
0.0
  0
ARC
  5
7B3E
  8
FUTO
 10
14187.559035933649
 20
-10240.97740020148
 30
0.0
 40
20.0
 50
0.0
 51
58.772599000000007
  0
LINE
  5
7B4A
  8
FUTO
 10
13647.55903593364
 20
-10345.12160820148
 30
0.0
 11
13647.55903593364
 21
-10240.97740020148
 31
0.0
  0
LINE
  5
7B57
  8
FUTO
 10
13657.19031493365
 20
-10223.875071201481
 30
0.0
 11
13679.45255828124
 21
-10210.37802199074
 31
0.0
  0
ARC
  5
7B5A
  8
FUTO
 10
13667.55903593364
 20
-10240.97740020148
 30
0.0
 40
20.0
 50
121.227401
 51
180.0
  0
CIRCLE
  5
7B75
  8
SL
 10
13927.55903593364
 20
-10065.12160820148
 30
0.0
 40
140.0
  0
LINE
  5
7B82
  8
FUTO
 10
14207.559035933649
 20
-10345.12160820148
 30
0.0
 11
14277.55903593364
 21
-10345.12160820148
 31
0.0
  0
LINE
  5
98B6
  8
SL
 10
15199.627944492229
 20
-7995.1216082014862
 30
0.0
 11
15339.627944492229
 21
-7995.1216082014898
 31
0.0
  0
LINE
  5
98B7
  8
SL
 10
15199.627944492229
 20
-8795.1216082014889
 30
0.0
 11
15339.627944492229
 21
-8795.1216082014889
 31
0.0
  0
LINE
  5
98B8
  8
SL
 10
15339.627944492229
 20
-9925.1216082014853
 30
0.0
 11
15199.627944492229
 21
-9925.1216082014835
 31
0.0
  0
LINE
  5
98B9
  8
SL
 10
15339.627944492229
 20
-10205.12160820148
 30
0.0
 11
15199.627944492229
 21
-10205.12160820148
 31
0.0
  0
LINE
  5
98BA
  8
SL
 10
15199.627944492229
 20
-7995.1216082014862
 30
0.0
 11
15199.627944492229
 21
-10205.121608201471
 31
0.0
  0
LINE
  5
98BC
  8
SL
 10
15339.627944492229
 20
-7995.1216082014862
 30
0.0
 11
15339.627944492229
 21
-10205.121608201471
 31
0.0
  0
LINE
  5
98C4
  8
FUTO
 10
13657.559035933649
 20
-4939.8638610484832
 30
0.0
 11
13657.559035933649
 21
-4036.3638610484832
 31
0.0
  0
LINE
  5
98C5
  8
FUTO
 10
14197.55903593364
 20
-4939.8638610484832
 30
0.0
 11
14197.55903593364
 21
-4036.3638610484832
 31
0.0
  0
LINE
  5
98C6
  8
FUTO
 10
15406.127944492229
 20
-10335.12160820148
 30
0.0
 11
16309.627944492229
 21
-10335.12160820148
 31
0.0
  0
LINE
  5
98C7
  8
FUTO
 10
15406.127944492229
 20
-9795.1216082014835
 30
0.0
 11
16309.627944492229
 21
-9795.1216082014907
 31
0.0
  0
LINE
  5
98CA
  8
FUTO
 10
15406.127944492229
 20
-10335.12160820148
 30
0.0
 11
15406.127944492229
 21
-9795.1216082014835
 31
0.0
  0
LINE
  5
98CC
  8
FUTO
 10
15339.627944492229
 20
-10022.62160820148
 30
0.0
 11
15406.127944492229
 21
-10022.62160820148
 31
0.0
  0
LINE
  5
98CD
  8
FUTO
 10
15406.127944492229
 20
-10107.62160820148
 30
0.0
 11
15339.627944492229
 21
-10107.62160820148
 31
0.0
  0
LINE
  5
98E8
  8
SL
 10
14097.55903593364
 20
-4956.3638610484832
 30
0.0
 11
14147.559035933649
 21
-4956.3638610484832
 31
0.0
  0
LINE
  5
A0E7
  8
4
 10
17961.166697834029
 20
-12040.48813421171
 30
0.0
 11
17961.166697834029
 21
-13140.488134211701
 31
0.0
  0
LINE
  5
A0E8
  8
4
 10
14111.166697834031
 20
-12040.48813421171
 30
0.0
 11
14111.166697834031
 21
-13140.488134211701
 31
0.0
  0
LINE
  5
A0E9
  8
4
 10
11361.166697834031
 20
-12040.48813421171
 30
0.0
 11
11361.166697834031
 21
-13140.488134211701
 31
0.0
  0
LINE
  5
A0EC
  8
4
 10
11361.166697834031
 20
-13140.48813421171
 30
0.0
 11
17961.166697834029
 21
-13140.48813421171
 31
0.0
  0
LINE
  5
A0ED
  8
4
 10
11361.166697834031
 20
-12590.48813421171
 30
0.0
 11
17961.166697834029
 21
-12590.48813421171
 31
0.0
  0
TEXT
  5
A0EE
  8
4
 10
11572.92814249199
 20
-12417.001491945341
 30
0.0
 40
275.0
  1
機器名称
  0
TEXT
  5
A0EF
  8
4
 10
11560.586280970419
 20
-13021.439772185649
 30
0.0
 40
275.0
  1
機器型番
  0
TEXT
  5
A0F0
  8
4
 10
14274.28609399308
 20
-12457.343074152201
 30
0.0
 40
233.75
  1
ミツヤ多翼送風機
  0
TEXT
  5
A0F1
  8
4
 10
14312.76642355418
 20
-13046.110420672019
 30
0.0
 40
275.0
  1
MF#12-5
  0
TEXT
  5
A0F3
  8
4
 10
12185.977151365751
 20
-1128.5605847023901
 30
0.0
 40
297.0
  1
床置ベット
  0
TEXT
  5
A0F4
  8
4
 10
9429.0032408987445
 20
-301.07384293508937
 30
0.0
 40
396.0
  1
遠心式両吸込両持多翼ファン
  0
LINE
  5
A0F5
  8
4
 10
9161.1666978340363
 20
-655.67106357480043
 30
0.0
 11
17961.166697834029
 21
-655.67106357480043
 31
0.0
  0
LINE
  5
A0F6
  8
4
 10
9161.1666978340363
 20
444.32893642519952
 30
0.0
 11
17961.166697834029
 21
444.32893642519952
 31
0.0
  0
LINE
  5
A0F7
  8
4
 10
11361.166697834031
 20
-12040.48813421171
 30
0.0
 11
17961.166697834029
 21
-12040.48813421171
 31
0.0
  0
LINE
  5
A0F8
  8
4
 10
9161.1666978340363
 20
444.32893642519952
 30
0.0
 11
9161.1666978340363
 21
-655.67106357480043
 31
0.0
  0
TEXT
  5
A0F9
  8
4
 10
9788.7535740308977
 20
-1134.6620855263391
 30
0.0
 40
297.0
  1
右回転左横向
  0
TEXT
  5
A0FA
  8
4
 10
15865.499273705131
 20
645.91673619297035
 30
0.0
 40
308.0
  1
No.
  0
TEXT
  5
A0FB
  8
4
 10
14998.295042134099
 20
-1128.5605847023901
 30
0.0
 40
297.0
  1
縮尺：1/55
  0
LINE
  5
A0FC
  8
4
 10
17961.166697834029
 20
444.32893642519952
 30
0.0
 11
17961.166697834029
 21
-655.67106357480043
 31
0.0
  0
LINE
  5
A0FD
  8
4
 10
19336.166697834029
 20
1987.580787968772
 30
0.0
 11
19336.166697834029
 21
1987.580787968772
 31
0.0
  0
LINE
  5
A0FE
  8
4
 10
15709.56252081329
 20
509.53049515847852
 30
0.0
 11
15709.56252081329
 21
1089.1682264924109
 31
0.0
  0
LINE
  5
A0FF
  8
4
 10
15709.56252081329
 20
1089.1682264924109
 30
0.0
 11
17961.166697834029
 21
1089.1682264924109
 31
0.0
  0
LINE
  5
A100
  8
4
 10
17961.166697834029
 20
1089.1682264924109
 30
0.0
 11
17961.166697834029
 21
509.53049515847852
 31
0.0
  0
LINE
  5
A101
  8
4
 10
17961.166697834029
 20
509.53049515847852
 30
0.0
 11
15709.56252081329
 21
509.53049515847852
 31
0.0
  0
LINE
  5
A102
  8
4
 10
7786.1666978340372
 20
-14237.419212031229
 30
0.0
 11
7786.1666978340372
 21
1987.580787968772
 31
0.0
  0
LINE
  5
A103
  8
4
 10
7786.1666978340372
 20
1987.580787968772
 30
0.0
 11
19336.166697834029
 21
1987.580787968772
 31
0.0
  0
LINE
  5
A104
  8
4
 10
19336.166697834029
 20
1987.580787968772
 30
0.0
 11
19336.166697834029
 21
-14237.419212031229
 31
0.0
  0
LINE
  5
A105
  8
4
 10
19336.166697834029
 20
-14237.419212031229
 30
0.0
 11
7786.1666978340372
 21
-14237.419212031229
 31
0.0
  0
LINE
  5
B009
  8
FUTO
 10
10347.55903593364
 20
-10415.12160820148
 30
0.0
 11
14547.559035933649
 21
-10415.12160820148
 31
0.0
  0
LINE
  5
B00A
  8
FUTO
 10
10347.55903593364
 20
-10595.12160820148
 30
0.0
 11
14547.559035933649
 21
-10595.12160820148
 31
0.0
  0
LINE
  5
B00B
  8
FUTO
 10
11527.55903593364
 20
-10269.37492088999
 30
0.0
 11
10252.559035933649
 21
-10393.12160820148
 31
0.0
  0
LINE
  5
B00D
  8
CT
 10
13399.552144545671
 20
-8245.1216082014835
 30
0.0
 11
10149.006037819699
 21
-8245.1216082014835
 31
0.0
  0
ARC
  5
B00E
  8
FUTO
 10
11380.559035933649
 20
-8392.1216082014835
 30
0.0
 40
1883.0
 50
274.47746053634847
 51
0.0
  0
LINE
  5
B00F
  8
CT
 10
11527.55903593364
 20
-10595.12160820148
 30
0.0
 11
11527.55903593364
 21
-6693.7827537690027
 31
0.0
  0
LINE
  5
B013
  8
FUTO
 10
10327.55903593364
 20
-10385.842391300799
 30
0.0
 11
10327.55903593364
 21
-8333.1216082014835
 31
0.0
  0
LINE
  5
B014
  8
FUTO
 10
10252.55903593364
 20
-10472.12160820148
 30
0.0
 11
10252.559035933649
 21
-8254.1216082014853
 31
0.0
  0
LINE
  5
B019
  8
FUTO
 10
10351.37976784491
 20
-8333.1216082014835
 30
0.0
 11
10252.559035933649
 21
-8333.1216082014835
 31
0.0
  0
LINE
  5
B029
  8
CT
 10
17049.627944492229
 20
-10595.12160820148
 30
0.0
 11
17049.627944492229
 21
-6568.8141321802468
 31
0.0
  0
LINE
  5
B02A
  8
CT
 10
15149.627944492229
 20
-8245.1216082014835
 30
0.0
 11
18678.179166859431
 21
-8245.1216082014835
 31
0.0
  0
LINE
  5
B02B
  8
FUTO
 10
18453.627944492229
 20
-10415.121608201491
 30
0.0
 11
15203.627944492229
 21
-10415.12160820148
 31
0.0
  0
LINE
  5
B02C
  8
FUTO
 10
18453.627944492229
 20
-10595.12160820148
 30
0.0
 11
15203.627944492229
 21
-10595.12160820148
 31
0.0
  0
LINE
  5
B02E
  8
FUTO
 10
18374.627944492229
 20
-8254.1216082014853
 30
0.0
 11
18453.627944492229
 21
-8254.1216082014853
 31
0.0
  0
LINE
  5
B031
  8
FUTO
 10
15645.627944492229
 20
-10415.12160820148
 30
0.0
 11
15645.627944492229
 21
-10335.12160820148
 31
0.0
  0
LINE
  5
B033
  8
FUTO
 10
15724.627944492229
 20
-10397.12160820148
 30
0.0
 11
18374.627944492229
 21
-10397.12160820148
 31
0.0
  0
LINE
  5
B03F
  8
FUTO
 10
18453.627944492229
 20
-10415.12160820148
 30
0.0
 11
18453.627944492229
 21
-10595.12160820148
 31
0.0
  0
LINE
  5
B168
  8
FUTO
 10
18374.627944492229
 20
-8335.1216082014853
 30
0.0
 11
18619.82794449223
 21
-8335.1216082014816
 31
0.0
  0
LINE
  5
B169
  8
FUTO
 10
18374.627944492229
 20
-8585.1216082014871
 30
0.0
 11
18619.82794449223
 21
-8585.1216082014816
 31
0.0
  0
LINE
  5
B16A
  8
FUTO
 10
18619.82794449223
 20
-8335.1216082014816
 30
0.0
 11
18619.82794449223
 21
-8585.1216082014816
 31
0.0
  0
LINE
  5
B171
  8
FUTO
 10
18374.627944492229
 20
-10397.12160820148
 30
0.0
 11
18374.627944492229
 21
-6803.1216082014826
 31
0.0
  0
LINE
  5
B175
  8
FUTO
 10
15724.627944492229
 20
-10397.12160820148
 30
0.0
 11
15724.627944492229
 21
-10335.12160820148
 31
0.0
  0
LINE
  5
B189
  8
FUTO
 10
15481.42794449223
 20
-8585.1216082014816
 30
0.0
 11
15724.627944492229
 21
-8585.1216082014816
 31
0.0
  0
LINE
  5
B18A
  8
FUTO
 10
15481.42794449223
 20
-8335.1216082014816
 30
0.0
 11
15481.42794449223
 21
-8585.1216082014816
 31
0.0
  0
CIRCLE
  5
B18C
  8
SL
 10
11527.55903593364
 20
-8245.1216082014835
 30
0.0
 40
400.0
  0
LINE
  5
B196
  8
FUTO
 10
15203.627944492229
 20
-10415.12160820148
 30
0.0
 11
15203.627944492229
 21
-10595.12160820148
 31
0.0
  0
LINE
  5
B1DD
  8
FUTO
 10
15339.62794449222
 20
-8302.6216082014853
 30
0.0
 11
15724.627944492229
 21
-8302.6216082014816
 31
0.0
  0
LINE
  5
B1DE
  8
FUTO
 10
15339.62794449222
 20
-8187.6216082014816
 30
0.0
 11
15724.627944492229
 21
-8187.6216082014798
 31
0.0
  0
LINE
  5
B1EA
  8
SP
 10
17049.627944492229
 20
-6201.7670570308583
 30
0.0
 11
17049.627944492229
 21
-6141.7670570308583
 31
0.0
  0
ARC
  5
B1F2
  8
FUTO
 10
11674.55903593364
 20
-8392.1216082014835
 30
0.0
 40
1589.0
 50
359.99999999999972
 51
90.000000000000057
  0
ARC
  5
B1FA
  8
FUTO
 10
11405.05903593364
 20
-8122.6216082014816
 30
0.0
 40
1074.5
 50
180.0
 51
191.29760023059799
  0
ARC
  5
B32D
  8
FUTO
 10
11650.059035933649
 20
-8122.6216082014816
 30
0.0
 40
1319.5
 50
90.000000000000099
 51
180.0
  0
LINE
  5
C236
  8
FUTO
 10
15481.42794449223
 20
-8335.1216082014816
 30
0.0
 11
15724.627944492229
 21
-8335.1216082014816
 31
0.0
  0
LINE
  5
C239
  8
SL
 10
15149.627944492229
 20
-7765.1216082014871
 30
0.0
 11
15149.627944492229
 21
-10285.12160820148
 31
0.0
  0
CIRCLE
  5
C26F
  8
FUTO
 10
11527.55903593364
 20
-8245.1216082014835
 30
0.0
 40
1075.0
  0
CIRCLE
  5
C270
  8
FUTO
 10
11527.55903593364
 20
-8245.1216082014835
 30
0.0
 40
1000.0
  0
LINE
  5
C271
  8
FUTO
 10
10347.55903593364
 20
-10595.12160820148
 30
0.0
 11
10347.55903593364
 21
-10415.12160820148
 31
0.0
  0
LINE
  5
C272
  8
FUTO
 10
14547.559035933649
 20
-10595.12160820148
 30
0.0
 11
14547.559035933649
 21
-10415.12160820148
 31
0.0
  0
LINE
  5
C27B
  8
CT
 10
16369.86536171544
 20
-10065.12160820148
 30
0.0
 11
15149.627944492229
 21
-10065.12160820148
 31
0.0
  0
LINE
  5
C27C
  8
SL
 10
15149.627944492229
 20
-7765.1216082014844
 30
0.0
 11
15389.627944492229
 21
-7765.1216082014844
 31
0.0
  0
LINE
  5
C27D
  8
SL
 10
15389.627944492229
 20
-10285.12160820148
 30
0.0
 11
15149.627944492229
 21
-10285.12160820148
 31
0.0
  0
LINE
  5
C27E
  8
SL
 10
15389.627944492229
 20
-7765.1216082014871
 30
0.0
 11
15389.627944492229
 21
-7815.1216082014807
 31
0.0
  0
LINE
  5
C282
  8
SL
 10
15389.627944492229
 20
-10235.12160820148
 30
0.0
 11
15389.627944492229
 21
-10285.12160820148
 31
0.0
  0
LINE
  5
C283
  8
FUTO
 10
10347.55903593364
 20
-5142.3638610484813
 30
0.0
 11
14547.559035933649
 21
-5142.3638610484777
 31
0.0
  0
LINE
  5
C284
  8
FUTO
 10
10347.55903593364
 20
-5142.3638610484813
 30
0.0
 11
10347.55903593364
 21
-4621.3638610484813
 31
0.0
  0
LINE
  5
C285
  8
FUTO
 10
10347.55903593364
 20
-1892.3638610484811
 30
0.0
 11
12707.559035933649
 21
-1892.3638610484811
 31
0.0
  0
LINE
  5
C286
  8
FUTO
 10
12707.559035933649
 20
-1892.3638610484811
 30
0.0
 11
12707.559035933649
 21
-1971.3638610484811
 31
0.0
  0
LINE
  5
C287
  8
FUTO
 10
14547.559035933649
 20
-5142.3638610484777
 30
0.0
 11
14547.559035933649
 21
-3842.3638610484768
 31
0.0
  0
LINE
  5
C288
  8
FUTO
 10
14547.559035933649
 20
-3842.3638610484768
 30
0.0
 11
13263.55903593364
 21
-3842.3638610484791
 31
0.0
  0
LINE
  5
C28B
  8
CT
 10
11527.55903593364
 20
-1789.329442808433
 30
0.0
 11
11527.559035933649
 21
-5196.3638610484822
 31
0.0
  0
LINE
  5
C28C
  8
CT
 10
13927.55903593364
 20
-5196.3638610484832
 30
0.0
 11
13927.559035933649
 21
-4001.5322088502098
 31
0.0
  0
LINE
  5
C28D
  8
CT
 10
10164.38143875463
 20
-3296.3638610484809
 30
0.0
 11
13385.663462406959
 21
-3296.3638610484809
 31
0.0
  0
LINE
  5
C28E
  8
SL
 10
11047.559035933649
 20
-5196.3638610484822
 30
0.0
 11
14147.559035933649
 21
-5196.3638610484832
 31
0.0
  0
LINE
  5
C290
  8
SL
 10
14147.55903593364
 20
-5196.3638610484832
 30
0.0
 11
14147.55903593364
 21
-4956.3638610484832
 31
0.0
  0
LINE
  5
C291
  8
SL
 10
11047.559035933649
 20
-4956.3638610484813
 30
0.0
 11
11047.55903593364
 21
-5196.3638610484822
 31
0.0
  0
LINE
  5
C292
  8
SL
 10
11047.559035933649
 20
-4956.3638610484813
 30
0.0
 11
11097.559035933649
 21
-4956.3638610484832
 31
0.0
  0
LINE
  5
C295
  8
SL
 10
14097.55903593364
 20
-4956.363861048485
 30
0.0
 11
14147.559035933649
 21
-4956.3638610484832
 31
0.0
  0
LINE
  5
C297
  8
SL
 10
11127.559035933649
 20
-5146.3638610484813
 30
0.0
 11
14067.55903593364
 21
-5146.3638610484841
 31
0.0
  0
LINE
  5
C298
  8
SL
 10
11127.559035933649
 20
-5006.3638610484813
 30
0.0
 11
14067.55903593364
 21
-5006.3638610484832
 31
0.0
  0
LINE
  5
C299
  8
SL
 10
11127.55903593364
 20
-5006.3638610484813
 30
0.0
 11
11127.55903593364
 21
-5146.3638610484841
 31
0.0
  0
LINE
  5
C29A
  8
SL
 10
11927.559035933649
 20
-5006.3638610484813
 30
0.0
 11
11927.559035933649
 21
-5146.3638610484813
 31
0.0
  0
LINE
  5
C29B
  8
SL
 10
14067.55903593364
 20
-5146.3638610484841
 30
0.0
 11
14067.55903593364
 21
-5006.3638610484832
 31
0.0
  0
LINE
  5
C29C
  8
SL
 10
13787.55903593364
 20
-5146.3638610484841
 30
0.0
 11
13787.55903593364
 21
-5006.3638610484813
 31
0.0
  0
LINE
  5
C29E
  8
FUTO
 10
10252.55903593364
 20
-4700.3638610484813
 30
0.0
 11
10252.55903593364
 21
-1892.3638610484811
 31
0.0
  0
LINE
  5
C29F
  8
FUTO
 10
13263.559035933649
 20
-4621.3638610484813
 30
0.0
 11
13263.55903593364
 21
-1971.363861048482
 31
0.0
  0
LINE
  5
C2A0
  8
FUTO
 10
10252.55903593364
 20
-1971.3638610484811
 30
0.0
 11
13263.55903593364
 21
-1971.3638610484811
 31
0.0
  0
LINE
  5
C2A1
  8
FUTO
 10
10252.559035933649
 20
-4621.3638610484813
 30
0.0
 11
13263.559035933649
 21
-4621.3638610484813
 31
0.0
  0
LINE
  5
C2A2
  8
FUTO
 10
10347.55903593364
 20
-1971.363861048482
 30
0.0
 11
10347.55903593364
 21
-1892.3638610484811
 31
0.0
  0
LINE
  5
C2A6
  8
FUTO
 10
10327.55903593364
 20
-4621.3638610484813
 30
0.0
 11
10327.55903593364
 21
-1971.3638610484811
 31
0.0
  0
DIMENSION
  5
C2B4
  8
SP
  2
*D1
 10
12707.559035933649
 20
-1562.691868601519
 30
0.0
 11
11527.55903593364
 21
-1438.941868601519
 31
0.0
 70
     0
 13
10347.55903593364
 23
-1892.3638610484811
 33
0.0
 14
12707.559035933649
 24
-1892.3638610484811
 34
0.0
1001
ACAD
1000
DSTYLE
1002
{
1070
   140
1040
2.5
1070
    40
1040
55.0
1070
   147
1040
1.0
1070
   271
1070
     0
1002
}
  0
DIMENSION
  5
C2C1
  8
SP
  2
*D2
 10
14547.559035933649
 20
-1562.691868601519
 30
0.0
 11
13627.559035933649
 21
-1438.941868601519
 31
0.0
 70
     0
 13
12707.559035933649
 23
-1892.3638610484811
 33
0.0
 14
14547.559035933649
 24
-3842.3638610484768
 34
0.0
1001
ACAD
1000
DSTYLE
1002
{
1070
   140
1040
2.5
1070
    40
1040
55.0
1070
   147
1040
1.0
1070
   271
1070
     0
1002
}
  0
DIMENSION
  5
C2CE
  8
SP
  2
*D3
 10
9841.6849974763463
 20
-5142.3638610484813
 30
0.0
 11
9717.9349974763481
 21
-3517.3638610484809
 31
0.0
 70
     0
 13
10347.55903593364
 23
-1892.3638610484811
 33
0.0
 14
10347.55903593364
 24
-5142.3638610484813
 34
0.0
 50
270.0
1001
ACAD
1000
DSTYLE
1002
{
1070
   140
1040
2.5
1070
    40
1040
55.0
1070
   147
1040
1.0
1070
   271
1070
     0
1002
}
  0
DIMENSION
  5
C2DB
  8
SP
  2
*D4
 10
14547.559035933649
 20
-5589.8371719308916
 30
0.0
 11
12447.559035933649
 21
-5466.0871719308934
 31
0.0
 70
     0
 13
10347.55903593364
 23
-5142.3638610484813
 33
0.0
 14
14547.559035933649
 24
-5142.3638610484777
 34
0.0
1001
ACAD
1000
DSTYLE
1002
{
1070
   140
1040
2.5
1070
    40
1040
55.0
1070
   147
1040
1.0
1070
   271
1070
     0
1002
}
  0
DIMENSION
  5
C2E8
  8
SP
  2
*D5
 10
14936.72261673343
 20
-5142.3638610484777
 30
0.0
 11
14812.97261673343
 21
-4492.3638610484768
 31
0.0
 70
     0
 13
14547.559035933649
 23
-3842.3638610484768
 33
0.0
 14
14547.559035933649
 24
-5142.3638610484777
 34
0.0
 50
270.0
1001
ACAD
1000
DSTYLE
1002
{
1070
   140
1040
2.5
1070
    40
1040
55.0
1070
   147
1040
1.0
1070
   271
1070
     0
1002
}
  0
DIMENSION
  5
C350
  8
SP
  2
*D6
 10
17049.627944492229
 20
-10940.622347297771
 30
0.0
 11
16126.627944492229
 21
-10816.872347297771
 31
0.0
 12
0.0
 22
207.01327554138689
 32
0.0
 70
     0
 13
15203.627944492229
 23
-10595.12160820148
 33
0.0
 14
17049.627944492229
 24
-10595.12160820148
 34
0.0
1001
ACAD
1000
DSTYLE
1002
{
1070
   140
1040
2.5
1070
    40
1040
55.0
1070
   147
1040
1.0
1070
   271
1070
     0
1002
}
  0
DIMENSION
  5
C35D
  8
SP
  2
*D7
 10
18453.627944492229
 20
-10940.622347297771
 30
0.0
 11
17751.627944492229
 21
-10816.872347297771
 31
0.0
 12
0.0
 22
207.01327554138689
 32
0.0
 70
     0
 13
17049.627944492229
 23
-10595.12160820148
 33
0.0
 14
18453.627944492229
 24
-10595.12160820148
 34
0.0
1001
ACAD
1000
DSTYLE
1002
{
1070
   140
1040
2.5
1070
    40
1040
55.0
1070
   147
1040
1.0
1070
   271
1070
     0
1002
}
  0
DIMENSION
  5
C36A
  8
SP
  2
*D8
 10
18453.627944492229
 20
-11270.369778898999
 30
0.0
 11
16828.627944492229
 21
-11146.619778898999
 31
0.0
 12
0.0
 22
207.01327554138689
 32
0.0
 70
     0
 13
15203.627944492229
 23
-10595.12160820148
 33
0.0
 14
18453.627944492229
 24
-10595.12160820148
 34
0.0
1001
ACAD
1000
DSTYLE
1002
{
1070
   140
1040
2.5
1070
    40
1040
55.0
1070
   147
1040
1.0
1070
   271
1070
     0
1002
}
  0
DIMENSION
  5
C377
  8
SP
  2
*D9
 10
10347.55903593364
 20
-10941.84162828748
 30
0.0
 11
10937.559035933649
 21
-10818.09162828748
 31
0.0
 70
     0
 13
11527.55903593364
 23
-10595.12160820148
 33
0.0
 14
10347.55903593364
 24
-10595.12160820148
 34
0.0
1001
ACAD
1000
DSTYLE
1002
{
1070
   140
1040
2.5
1070
    40
1040
55.0
1070
   147
1040
1.0
1070
   271
1070
     0
1002
}
  0
DIMENSION
  5
C384
  8
SP
  2
*D10
 10
11527.55903593364
 20
-10941.84162828748
 30
0.0
 11
13037.559035933649
 21
-10818.09162828748
 31
0.0
 70
     0
 13
14547.559035933649
 23
-10595.12160820148
 33
0.0
 14
11527.55903593364
 24
-10595.12160820148
 34
0.0
1001
ACAD
1000
DSTYLE
1002
{
1070
   140
1040
2.5
1070
    40
1040
55.0
1070
   147
1040
1.0
1070
   271
1070
     0
1002
}
  0
DIMENSION
  5
C391
  8
SP
  2
*D11
 10
10347.55903593364
 20
-11270.369778898999
 30
0.0
 11
12447.559035933649
 21
-11146.619778898999
 31
0.0
 70
     0
 13
14547.559035933649
 23
-10595.12160820148
 33
0.0
 14
10347.55903593364
 24
-10595.12160820148
 34
0.0
1001
ACAD
1000
DSTYLE
1002
{
1070
   140
1040
2.5
1070
    40
1040
55.0
1070
   147
1040
1.0
1070
   271
1070
     0
1002
}
  0
LINE
  5
C3C5
  8
FUTO
 10
11674.55903593364
 20
-6803.1216082014826
 30
0.0
 11
11650.05903593364
 21
-6803.1216082014826
 31
0.0
  0
LINE
  5
C3C6
  8
FUTO
 10
15724.627944492229
 20
-6803.1216082014853
 30
0.0
 11
18374.627944492229
 21
-6803.1216082014853
 31
0.0
  0
DIMENSION
  5
C3D4
  8
SP
  2
*D12
 10
9906.8081094063546
 20
-10393.12160820148
 30
0.0
 11
9783.0581094063546
 21
-9363.1216082014835
 31
0.0
 70
     0
 13
10252.559035933649
 23
-8333.1216082014835
 33
0.0
 14
10252.559035933649
 24
-10393.12160820148
 34
0.0
 50
270.0
1001
ACAD
1000
DSTYLE
1002
{
1070
   140
1040
2.5
1070
    40
1040
55.0
1070
   147
1040
1.0
1070
   271
1070
     0
1002
}
  0
DIMENSION
  5
C3E1
  8
SP
  2
*D13
 10
9550.1818543172849
 20
-10393.12160820148
 30
0.0
 11
9426.4318543172849
 21
-9319.1216082014816
 31
0.0
 70
     0
 13
10149.006037819699
 23
-8245.1216082014835
 33
0.0
 14
10252.559035933649
 24
-10393.12160820148
 34
0.0
 50
270.0
1001
ACAD
1000
DSTYLE
1002
{
1070
   140
1040
2.5
1070
    40
1040
55.0
1070
   147
1040
1.0
1070
   271
1070
     0
1002
}
  0
DIMENSION
  5
C3EE
  8
SP
  2
*D14
 10
9193.5556675286207
 20
-10595.12160820148
 30
0.0
 11
9069.8056675286207
 21
-9420.1216082014835
 31
0.0
 70
     0
 13
10149.006037819699
 23
-8245.1216082014835
 33
0.0
 14
10347.55903593364
 24
-10595.12160820148
 34
0.0
 50
270.0
1001
ACAD
1000
DSTYLE
1002
{
1070
   140
1040
2.5
1070
    40
1040
55.0
1070
   147
1040
1.0
1070
   271
1070
     0
1002
}
  0
DIMENSION
  5
C408
  8
SP
  2
*D15
 10
18374.627944492229
 20
-6515.6286682477366
 30
0.0
 11
17049.627944492229
 21
-6391.8786682477366
 31
0.0
 12
0.0
 22
623.62004717451055
 32
0.0
 70
     0
 13
15724.627944492229
 23
-6803.1216082014826
 33
0.0
 14
18374.627944492229
 24
-6803.1216082014826
 34
0.0
1001
ACAD
1000
DSTYLE
1002
{
1070
   140
1040
2.5
1070
    40
1040
55.0
1070
   147
1040
1.0
1070
   271
1070
     0
1002
}
  0
DIMENSION
  5
C423
  8
SP
  2
*D16
 10
11527.55903593364
 20
-6515.6286682477366
 30
0.0
 11
10890.059035933649
 21
-6391.8786682477366
 31
0.0
 70
     0
 13
10252.559035933649
 23
-8254.1216082014853
 33
0.0
 14
11527.55903593364
 24
-6693.7827537690027
 34
0.0
1001
ACAD
1000
DSTYLE
1002
{
1070
   140
1040
2.5
1070
    40
1040
55.0
1070
   147
1040
1.0
1070
   271
1070
     0
1002
}
  0
DIMENSION
  5
C430
  8
SP
  2
*D17
 10
13263.55903593364
 20
-6515.6286682477366
 30
0.0
 11
12395.55903593364
 21
-6391.8786682477366
 31
0.0
 70
     0
 13
11527.55903593364
 23
-6693.7827537690027
 33
0.0
 14
13263.55903593364
 24
-8392.1216082014835
 34
0.0
1001
ACAD
1000
DSTYLE
1002
{
1070
   140
1040
2.5
1070
    40
1040
55.0
1070
   147
1040
1.0
1070
   271
1070
     0
1002
}
  0
DIMENSION
  5
C43D
  8
SP
  2
*D18
 10
15149.627944492229
 20
-6171.197514311948
 30
0.0
 11
16099.627944492229
 21
-6011.4356095500443
 31
0.0
 12
0.0
 22
623.62004717451055
 32
0.0
 70
     0
 13
17049.627944492229
 23
-6201.7670570308583
 33
0.0
 14
15149.627944492229
 24
-7765.1216082014871
 34
0.0
1001
ACAD
1000
DSTYLE
1002
{
1070
   140
1040
2.5
1070
    40
1040
55.0
1070
     3
1000
(<>)
1070
   147
1040
1.0
1070
   271
1070
     0
1002
}
  0
DIMENSION
  5
C44A
  8
SP
  2
*D19
 10
18619.82794449223
 20
-6171.197514311948
 30
0.0
 11
17834.727944492231
 21
-6011.4356095500443
 31
0.0
 12
0.0
 22
623.62004717451055
 32
0.0
 70
     0
 13
17049.627944492229
 23
-6201.7670570308583
 33
0.0
 14
18619.82794449223
 24
-8335.1216082014816
 34
0.0
1001
ACAD
1000
DSTYLE
1002
{
1070
   140
1040
2.5
1070
    40
1040
55.0
1070
     3
1000
(<>)
1070
   147
1040
1.0
1070
   271
1070
     0
1002
}
  0
DIMENSION
  5
C457
  8
SP
  2
*D20
 10
9197.5644231240512
 20
-8245.1216082014835
 30
0.0
 11
9073.8144231240512
 21
-7524.1216082014826
 31
0.0
 70
     0
 13
11650.05903593364
 23
-6803.1216082014826
 33
0.0
 14
10149.006037819699
 24
-8245.1216082014835
 34
0.0
 50
270.0
1001
ACAD
1000
DSTYLE
1002
{
1070
   140
1040
2.5
1070
    40
1040
55.0
1070
   147
1040
1.0
1070
   271
1070
     0
1002
}
  0
ARC
  5
C458
  8
SL
 10
11527.55903593364
 20
-8245.1216082014835
 30
0.0
 40
480.0
 50
47.873801462985483
 51
237.77768886983219
  0
ARC
  5
C459
  8
SL
 10
13927.55903593364
 20
-10065.12160820148
 30
0.0
 40
220.0
 50
237.7776888698323
 51
47.87380146298544
  0
LINE
  5
C45A
  8
SL
 10
14075.127515861999
 20
-9901.9543819223272
 30
0.0
 11
11849.526628504609
 21
-7889.1203872287797
 31
0.0
  0
LINE
  5
C45C
  8
SL
 10
14021.46625043351
 20
-9961.2879187511116
 30
0.0
 11
11795.86536307612
 21
-7948.4539240575641
 31
0.0
  0
LINE
  5
C45D
  8
SL
 10
13852.910231556791
 20
-10183.55959199513
 30
0.0
 11
11314.276737714061
 21
-8583.515847611925
 31
0.0
  0
LINE
  5
C45E
  8
SL
 10
13810.25377191287
 20
-10251.238439877219
 30
0.0
 11
11271.620278070141
 21
-8651.194695494014
 31
0.0
  0
LINE
  5
C501
  8
FUTO
 10
18453.627944492229
 20
-10415.12160820148
 30
0.0
 11
18453.627944492229
 21
-8585.1216082014853
 31
0.0
  0
LINE
  5
C502
  8
FUTO
 10
18453.627944492229
 20
-8335.1216082014853
 30
0.0
 11
18453.627944492229
 21
-8254.1216082014853
 31
0.0
  0
LINE
  5
C503
  8
FUTO
 10
15645.627944492229
 20
-8335.1216082014816
 30
0.0
 11
15645.627944492229
 21
-8302.6216082014835
 31
0.0
  0
LINE
  5
C504
  8
FUTO
 10
16309.627944492229
 20
-10335.12160820148
 30
0.0
 11
16309.627944492229
 21
-9795.1216082014835
 31
0.0
  0
LINE
  5
C506
  8
FUTO
 10
15724.627944492229
 20
-9795.1216082014853
 30
0.0
 11
15724.627944492229
 21
-6803.1216082014826
 31
0.0
  0
LINE
  5
C507
  8
FUTO
 10
15645.627944492229
 20
-9795.1216082014835
 30
0.0
 11
15645.627944492229
 21
-8585.1216082014816
 31
0.0
  0
ENDSEC
  0
EOF
