  0
SECTION
  2
HEADER
  9
$ACADVER
  1
AC1009
  9
$INSBASE
 10
0.0
 20
0.0
 30
0.0
  9
$EXTMIN
 10
-4128.9508801254269
 20
-7154.4496981635739
 30
0.0
  9
$EXTMAX
 10
8471.0491198745731
 20
10545.55030183642
 30
0.0
  9
$LIMMIN
 10
0.0
 20
0.0
  9
$LIMMAX
 10
297.0
 20
210.0
  9
$ORTHOMODE
 70
     1
  9
$REGENMODE
 70
     1
  9
$FILLMODE
 70
     0
  9
$QTEXTMODE
 70
     0
  9
$MIRRTEXT
 70
     1
  9
$DRAGMODE
 70
     2
  9
$LTSCALE
 40
360.0
  9
$OSMODE
 70
   545
  9
$ATTMODE
 70
     1
  9
$TEXTSIZE
 40
180.0
  9
$TRACEWID
 40
0.05
  9
$TEXTSTYLE
  7
STANDARD
  9
$CLAYER
  8
3
  9
$CELTYPE
  6
BYLAYER
  9
$CECOLOR
 62
   256
  9
$DIMSCALE
 40
60.0
  9
$DIMASZ
 40
2.0
  9
$DIMEXO
 40
0.5
  9
$DIMDLI
 40
10.0
  9
$DIMRND
 40
0.0
  9
$DIMDLE
 40
0.0
  9
$DIMEXE
 40
1.0
  9
$DIMTP
 40
1.0
  9
$DIMTM
 40
1.0
  9
$DIMTXT
 40
3.0
  9
$DIMCEN
 40
0.0
  9
$DIMTSZ
 40
0.0
  9
$DIMTOL
 70
     0
  9
$DIMLIM
 70
     0
  9
$DIMTIH
 70
     0
  9
$DIMTOH
 70
     0
  9
$DIMSE1
 70
     0
  9
$DIMSE2
 70
     0
  9
$DIMTAD
 70
     1
  9
$DIMZIN
 70
     8
  9
$DIMBLK
  1
OPEN30
  9
$DIMASO
 70
     1
  9
$DIMSHO
 70
     1
  9
$DIMPOST
  1
(<>)
  9
$DIMAPOST
  1

  9
$DIMALT
 70
     0
  9
$DIMALTD
 70
     2
  9
$DIMALTF
 40
0.039
  9
$DIMLFAC
 40
1.0
  9
$DIMTOFL
 70
     1
  9
$DIMTVP
 40
0.0
  9
$DIMTIX
 70
     0
  9
$DIMSOXD
 70
     0
  9
$DIMSAH
 70
     1
  9
$DIMBLK1
  1
OPEN
  9
$DIMBLK2
  1
OPEN
  9
$DIMSTYLE
  2
IGA
  9
$DIMCLRD
 70
     0
  9
$DIMCLRE
 70
     0
  9
$DIMCLRT
 70
     0
  9
$DIMTFAC
 40
10.0
  9
$DIMGAP
 40
1.0
  9
$LUNITS
 70
     2
  9
$LUPREC
 70
     3
  9
$SKETCHINC
 40
0.1
  9
$FILLETRAD
 40
50.0
  9
$AUNITS
 70
     0
  9
$AUPREC
 70
     0
  9
$MENU
  1
acad
  9
$ELEVATION
 40
0.0
  9
$PELEVATION
 40
0.0
  9
$THICKNESS
 40
0.0
  9
$LIMCHECK
 70
     0
  9
$BLIPMODE
 70
     0
  9
$CHAMFERA
 40
0.5
  9
$CHAMFERB
 40
0.5
  9
$SKPOLY
 70
     0
  9
$TDCREATE
 40
2453349.637759502
  9
$TDUPDATE
 40
2455013.7334411112
  9
$TDINDWG
 40
0.3181890046
  9
$TDUSRTIMER
 40
0.318188287
  9
$USRTIMER
 70
     1
  9
$ANGBASE
 50
0.0
  9
$ANGDIR
 70
     0
  9
$PDMODE
 70
     0
  9
$PDSIZE
 40
0.0
  9
$PLINEWID
 40
0.0
  9
$COORDS
 70
     2
  9
$SPLFRAME
 70
     0
  9
$SPLINETYPE
 70
     6
  9
$SPLINESEGS
 70
     8
  9
$ATTDIA
 70
     0
  9
$ATTREQ
 70
     1
  9
$HANDLING
 70
 22529
  9
$HANDSEED
  5
967B
  9
$SURFTAB1
 70
     6
  9
$SURFTAB2
 70
     6
  9
$SURFTYPE
 70
     6
  9
$SURFU
 70
     6
  9
$SURFV
 70
     6
  9
$UCSNAME
  2

  9
$UCSORG
 10
0.0
 20
0.0
 30
0.0
  9
$UCSXDIR
 10
1.0
 20
0.0
 30
0.0
  9
$UCSYDIR
 10
0.0
 20
1.0
 30
0.0
  9
$PUCSNAME
  2

  9
$PUCSORG
 10
0.0
 20
0.0
 30
0.0
  9
$PUCSXDIR
 10
1.0
 20
0.0
 30
0.0
  9
$PUCSYDIR
 10
0.0
 20
1.0
 30
0.0
  9
$USERI1
 70
     0
  9
$USERI2
 70
     0
  9
$USERI3
 70
     0
  9
$USERI4
 70
     0
  9
$USERI5
 70
     0
  9
$USERR1
 40
0.0
  9
$USERR2
 40
0.0
  9
$USERR3
 40
0.0
  9
$USERR4
 40
0.0
  9
$USERR5
 40
0.0
  9
$WORLDVIEW
 70
     1
  9
$SHADEDGE
 70
     3
  9
$SHADEDIF
 70
    70
  9
$TILEMODE
 70
     1
  9
$MAXACTVP
 70
    16
  9
$PLIMCHECK
 70
     0
  9
$PEXTMIN
 10
1.0000000000000000E+020
 20
1.0000000000000000E+020
 30
1.0000000000000000E+020
  9
$PEXTMAX
 10
-1.0000000000000000E+020
 20
-1.0000000000000000E+020
 30
-1.0000000000000000E+020
  9
$PLIMMIN
 10
0.0
 20
0.0
  9
$PLIMMAX
 10
12.0
 20
9.0
  9
$UNITMODE
 70
     0
  9
$VISRETAIN
 70
     0
  9
$PLINEGEN
 70
     0
  9
$PSLTSCALE
 70
     1
  0
ENDSEC
  0
SECTION
  2
TABLES
  0
TABLE
  2
VPORT
 70
     2
  0
VPORT
  2
*ACTIVE
 70
     0
 10
0.0
 20
0.0
 11
1.0
 21
1.0
 12
3394.0757328982868
 22
1695.5503842609801
 13
0.0
 23
0.0
 14
10.0
 24
10.0
 15
10.0
 25
10.0
 16
0.0
 26
0.0
 36
1.0
 17
0.0
 27
0.0
 37
0.0
 40
17836.777902186011
 41
1.6307901907356941
 42
50.0
 43
0.0
 44
0.0
 50
0.0
 51
0.0
 71
     0
 72
   100
 73
     1
 74
     0
 75
     0
 76
     0
 77
     0
 78
     0
  0
ENDTAB
  0
TABLE
  2
LTYPE
 70
     2
  0
LTYPE
  2
CONTINUOUS
 70
     0
  3
Solid line
 72
    65
 73
     0
 40
0.0
  0
LTYPE
  2
CENTER
 70
     0
  3
____ _ ____ _ ____ _ ____ _ ____ _ ____ _ ____ 
 72
    65
 73
     4
 40
2.0
 49
1.25
 49
-0.25
 49
0.25
 49
-0.25
  0
ENDTAB
  0
TABLE
  2
LAYER
 70
     6
  0
LAYER
  2
0
 70
     0
 62
     7
  6
CONTINUOUS
  0
LAYER
  2
1
 70
     0
 62
     4
  6
CONTINUOUS
  0
LAYER
  2
3
 70
     0
 62
     2
  6
CONTINUOUS
  0
LAYER
  2
2
 70
     0
 62
     3
  6
CENTER
  0
LAYER
  2
4
 70
     0
 62
     7
  6
CONTINUOUS
  0
LAYER
  2
DEFPOINTS
 70
     0
 62
     7
  6
CONTINUOUS
  0
ENDTAB
  0
TABLE
  2
STYLE
 70
     1
  0
STYLE
  2
STANDARD
 70
     0
 40
0.0
 41
1.0
 50
0.0
 71
     0
 42
180.0
  3
simplex.shx
  4
extfont.shx
  0
ENDTAB
  0
TABLE
  2
VIEW
 70
     0
  0
ENDTAB
  0
TABLE
  2
UCS
 70
     0
  0
ENDTAB
  0
TABLE
  2
APPID
 70
     1
  0
APPID
  2
ACAD
 70
     0
  0
ENDTAB
  0
TABLE
  2
DIMSTYLE
 70
     1
  0
DIMSTYLE
  2
IGA
 70
     0
  3

  4

  5

  6

  7

 40
2.0
 41
2.0
 42
0.5
 43
10.0
 44
1.0
 45
0.0
 46
0.0
 47
1.0
 48
1.0
140
3.0
141
0.0
142
0.0
143
0.03937
144
1.0
145
0.0
146
10.0
147
1.0
 71
     0
 72
     0
 73
     0
 74
     0
 75
     0
 76
     0
 77
     1
 78
     8
170
     0
171
     2
172
     0
173
     1
174
     0
175
     0
176
     0
177
     0
178
     0
  0
ENDTAB
  0
ENDSEC
  0
SECTION
  2
BLOCKS
  0
BLOCK
  8
0
  2
$MODEL_SPACE
 70
     0
 10
0.0
 20
0.0
 30
0.0
  3
$MODEL_SPACE
  1

  0
ENDBLK
  5
7D74
  8
0
  0
BLOCK
 67
     1
  8
0
  2
$PAPER_SPACE
 70
     0
 10
0.0
 20
0.0
 30
0.0
  3
$PAPER_SPACE
  1

  0
ENDBLK
  5
7D70
 67
     1
  8
0
  0
BLOCK
  8
0
  2
_OPEN30
 70
     0
 10
0.0
 20
0.0
 30
0.0
  3
_OPEN30
  1

  0
LINE
  5
7DAE
  8
1
 62
     0
 10
-1.0
 20
0.26794919
 30
0.0
 11
0.0
 21
0.0
 31
0.0
  0
LINE
  5
7DAF
  8
1
 62
     0
 10
0.0
 20
0.0
 30
0.0
 11
-1.0
 21
-0.26794919
 31
0.0
  0
LINE
  5
7DB0
  8
1
 62
     0
 10
0.0
 20
0.0
 30
0.0
 11
-1.0
 21
0.0
 31
0.0
  0
ENDBLK
  5
7DB1
  8
0
  0
BLOCK
  8
0
  2
*D1
 70
     1
 10
0.0
 20
0.0
 30
0.0
  3
*D1
  1

  0
LINE
  5
95B3
  8
3
 62
     0
 10
6928.0871082668846
 20
47.599581659473863
 30
0.0
 11
7769.8980415944388
 21
47.599581659473621
 31
0.0
  0
LINE
  5
95B4
  8
3
 62
     0
 10
6922.0871082668846
 20
-1952.400418340525
 30
0.0
 11
7769.8980415944388
 21
-1952.400418340525
 31
0.0
  0
LINE
  5
95B5
  8
3
 62
     0
 10
7709.8980415944388
 20
-72.400418340526357
 30
0.0
 11
7709.8980415944388
 21
-1832.400418340525
 31
0.0
  0
INSERT
  5
95B6
  8
3
 62
     0
  2
_OPEN30
 10
7709.8980415944388
 20
47.599581659473643
 30
0.0
 41
120.0
 42
120.0
 43
120.0
 50
90.0
  0
INSERT
  5
95B7
  8
3
 62
     0
  2
_OPEN30
 10
7709.8980415944388
 20
-1952.400418340525
 30
0.0
 41
120.0
 42
120.0
 43
120.0
 50
270.0
  0
TEXT
  8
3
  40
180
  5
9667
  62
0
  72
0
  71
0
 10
7199.90
 20
-1271.00
 30
0.000000
  1
%%c2000
  0
POINT
  5
95B9
  8
DEFPOINTS
 62
     0
 10
6898.0871082668837
 20
47.59958165947387
 30
0.0
  0
POINT
  5
95BA
  8
DEFPOINTS
 62
     0
 10
6892.0871082668846
 20
-1952.400418340525
 30
0.0
  0
POINT
  5
95BB
  8
DEFPOINTS
 62
     0
 10
7709.8980415944388
 20
-1952.400418340525
 30
0.0
  0
ENDBLK
  5
7E6D
  8
0
  0
BLOCK
  8
0
  2
*D2
 70
     1
 10
0.0
 20
0.0
 30
0.0
  3
*D2
  1

  0
LINE
  5
95BC
  8
3
 62
     0
 10
4763.0871082668837
 20
-2752.4004183405241
 30
0.0
 11
4763.0871082668837
 21
-4281.6744784385164
 31
0.0
  0
LINE
  5
95BD
  8
3
 62
     0
 10
6823.0871082668837
 20
-2752.4004183405241
 30
0.0
 11
6823.0871082668837
 21
-4281.6744784385164
 31
0.0
  0
LINE
  5
95BE
  8
3
 62
     0
 10
4883.0871082668837
 20
-4221.6744784385146
 30
0.0
 11
6703.0871082668837
 21
-4221.6744784385146
 31
0.0
  0
INSERT
  5
95BF
  8
3
 62
     0
  2
_OPEN30
 10
4763.0871082668837
 20
-4221.6744784385146
 30
0.0
 41
120.0
 42
120.0
 43
120.0
 50
180.0
  0
INSERT
  5
95C0
  8
3
 62
     0
  2
_OPEN30
 10
6823.0871082668837
 20
-4221.6744784385146
 30
0.0
 41
120.0
 42
120.0
 43
120.0
  0
TEXT
  8
3
  40
180
  5
9668
  62
0
  72
0
  71
0
 10
5433.09
 20
-4390.27
 30
0.000000
  1
2060
  0
POINT
  5
95C2
  8
DEFPOINTS
 62
     0
 10
4763.0871082668837
 20
-2722.4004183405241
 30
0.0
  0
POINT
  5
95C3
  8
DEFPOINTS
 62
     0
 10
6823.0871082668837
 20
-2722.4004183405241
 30
0.0
  0
POINT
  5
95C4
  8
DEFPOINTS
 62
     0
 10
6823.0871082668837
 20
-4221.6744784385146
 30
0.0
  0
ENDBLK
  5
7E9A
  8
0
  0
BLOCK
  8
0
  2
*D3
 70
     1
 10
0.0
 20
0.0
 30
0.0
  3
*D3
  1

  0
LINE
  5
95C5
  8
3
 62
     0
 10
4763.0871082668837
 20
-2752.4004183405241
 30
0.0
 11
4763.0871082668837
 21
-3738.87201561965
 31
0.0
  0
LINE
  5
95C6
  8
3
 62
     0
 10
5994.0871082668846
 20
-3126.250785410673
 30
0.0
 11
5994.0871082668846
 21
-3738.87201561965
 31
0.0
  0
LINE
  5
95C7
  8
3
 62
     0
 10
4883.0871082668837
 20
-3678.87201561965
 30
0.0
 11
5874.0871082668837
 21
-3678.87201561965
 31
0.0
  0
INSERT
  5
95C8
  8
3
 62
     0
  2
_OPEN30
 10
4763.0871082668837
 20
-3678.87201561965
 30
0.0
 41
120.0
 42
120.0
 43
120.0
 50
180.0
  0
INSERT
  5
95C9
  8
3
 62
     0
  2
_OPEN30
 10
5994.0871082668846
 20
-3678.87201561965
 30
0.0
 41
120.0
 42
120.0
 43
120.0
  0
TEXT
  8
3
  40
180
  5
9669
  62
0
  72
0
  71
0
 10
5018.59
 20
-3847.47
 30
0.000000
  1
1231
  0
POINT
  5
95CB
  8
DEFPOINTS
 62
     0
 10
4763.0871082668837
 20
-2722.4004183405241
 30
0.0
  0
POINT
  5
95CC
  8
DEFPOINTS
 62
     0
 10
5994.0871082668846
 20
-3096.250785410673
 30
0.0
  0
POINT
  5
95CD
  8
DEFPOINTS
 62
     0
 10
5994.0871082668846
 20
-3678.87201561965
 30
0.0
  0
ENDBLK
  5
7EA7
  8
0
  0
BLOCK
  8
0
  2
*D4
 70
     1
 10
0.0
 20
0.0
 30
0.0
  3
*D4
  1

  0
LINE
  5
95CE
  8
3
 62
     0
 10
5994.0871082668846
 20
-3126.250785410673
 30
0.0
 11
5994.0871082668846
 21
-3738.87201561965
 31
0.0
  0
LINE
  5
95CF
  8
3
 62
     0
 10
6823.0871082668837
 20
-2752.4004183405241
 30
0.0
 11
6823.0871082668837
 21
-3738.87201561965
 31
0.0
  0
LINE
  5
95D0
  8
3
 62
     0
 10
6114.0871082668837
 20
-3678.87201561965
 30
0.0
 11
6703.0871082668837
 21
-3678.87201561965
 31
0.0
  0
INSERT
  5
95D1
  8
3
 62
     0
  2
_OPEN30
 10
5994.0871082668846
 20
-3678.87201561965
 30
0.0
 41
120.0
 42
120.0
 43
120.0
 50
180.0
  0
INSERT
  5
95D2
  8
3
 62
     0
  2
_OPEN30
 10
6823.0871082668837
 20
-3678.87201561965
 30
0.0
 41
120.0
 42
120.0
 43
120.0
  0
TEXT
  8
3
  40
180
  5
966A
  62
0
  72
0
  71
0
 10
6048.59
 20
-3847.47
 30
0.000000
  1
829
  0
POINT
  5
95D4
  8
DEFPOINTS
 62
     0
 10
5994.0871082668846
 20
-3096.250785410673
 30
0.0
  0
POINT
  5
95D5
  8
DEFPOINTS
 62
     0
 10
6823.0871082668837
 20
-2722.4004183405241
 30
0.0
  0
POINT
  5
95D6
  8
DEFPOINTS
 62
     0
 10
6823.0871082668837
 20
-3678.87201561965
 30
0.0
  0
ENDBLK
  5
7EB4
  8
0
  0
BLOCK
  8
0
  2
*D5
 70
     1
 10
0.0
 20
0.0
 30
0.0
  3
*D5
  1

  0
LINE
  5
95D7
  8
3
 62
     0
 10
-1415.1479226929109
 20
-2752.400418340525
 30
0.0
 11
-1415.1479226929109
 21
-4281.6744784385164
 31
0.0
  0
LINE
  5
95D8
  8
3
 62
     0
 10
2284.8520773070891
 20
-2752.400418340525
 30
0.0
 11
2284.8520773070891
 21
-4281.6744784385164
 31
0.0
  0
LINE
  5
95D9
  8
3
 62
     0
 10
-1295.1479226929109
 20
-4221.6744784385146
 30
0.0
 11
2164.8520773070882
 21
-4221.6744784385146
 31
0.0
  0
INSERT
  5
95DA
  8
3
 62
     0
  2
_OPEN30
 10
-1415.1479226929109
 20
-4221.6744784385146
 30
0.0
 41
120.0
 42
120.0
 43
120.0
 50
180.0
  0
INSERT
  5
95DB
  8
3
 62
     0
  2
_OPEN30
 10
2284.8520773070891
 20
-4221.6744784385146
 30
0.0
 41
120.0
 42
120.0
 43
120.0
  0
TEXT
  8
3
  40
180
  5
966B
  62
0
  72
0
  71
0
 10
74.8521
 20
-4390.27
 30
0.000000
  1
3700
  0
POINT
  5
95DD
  8
DEFPOINTS
 62
     0
 10
-1415.1479226929109
 20
-2722.400418340525
 30
0.0
  0
POINT
  5
95DE
  8
DEFPOINTS
 62
     0
 10
2284.8520773070891
 20
-2722.400418340525
 30
0.0
  0
POINT
  5
95DF
  8
DEFPOINTS
 62
     0
 10
2284.8520773070891
 20
-4221.6744784385146
 30
0.0
  0
ENDBLK
  5
7EF3
  8
0
  0
BLOCK
  8
0
  2
*D6
 70
     1
 10
0.0
 20
0.0
 30
0.0
  3
*D6
  1

  0
LINE
  5
95E0
  8
3
 62
     0
 10
-1415.1479226929109
 20
-2752.400418340525
 30
0.0
 11
-1415.1479226929109
 21
-3732.382360148556
 31
0.0
  0
LINE
  5
95E1
  8
3
 62
     0
 10
1104.8520773070879
 20
-3269.5664102275482
 30
0.0
 11
1104.8520773070879
 21
-3732.382360148556
 31
0.0
  0
LINE
  5
95E2
  8
3
 62
     0
 10
-1295.1479226929109
 20
-3672.382360148556
 30
0.0
 11
984.85207730708862
 21
-3672.382360148556
 31
0.0
  0
INSERT
  5
95E3
  8
3
 62
     0
  2
_OPEN30
 10
-1415.1479226929109
 20
-3672.382360148556
 30
0.0
 41
120.0
 42
120.0
 43
120.0
 50
180.0
  0
INSERT
  5
95E4
  8
3
 62
     0
  2
_OPEN30
 10
1104.8520773070879
 20
-3672.382360148556
 30
0.0
 41
120.0
 42
120.0
 43
120.0
  0
TEXT
  8
3
  40
180
  5
966C
  62
0
  72
0
  71
0
 10
-515.148
 20
-3840.98
 30
0.000000
  1
2520
  0
POINT
  5
95E6
  8
DEFPOINTS
 62
     0
 10
-1415.1479226929109
 20
-2722.400418340525
 30
0.0
  0
POINT
  5
95E7
  8
DEFPOINTS
 62
     0
 10
1104.8520773070879
 20
-3239.5664102275468
 30
0.0
  0
POINT
  5
95E8
  8
DEFPOINTS
 62
     0
 10
1104.8520773070879
 20
-3672.382360148556
 30
0.0
  0
ENDBLK
  5
7F00
  8
0
  0
BLOCK
  8
0
  2
*D7
 70
     1
 10
0.0
 20
0.0
 30
0.0
  3
*D7
  1

  0
LINE
  5
95E9
  8
3
 62
     0
 10
1104.8520773070879
 20
-3269.5664102275482
 30
0.0
 11
1104.8520773070879
 21
-3732.382360148556
 31
0.0
  0
LINE
  5
95EA
  8
3
 62
     0
 10
2284.8520773070882
 20
-2752.400418340525
 30
0.0
 11
2284.8520773070882
 21
-3732.382360148556
 31
0.0
  0
LINE
  5
95EB
  8
3
 62
     0
 10
1224.8520773070879
 20
-3672.382360148556
 30
0.0
 11
2164.8520773070882
 21
-3672.382360148556
 31
0.0
  0
INSERT
  5
95EC
  8
3
 62
     0
  2
_OPEN30
 10
1104.8520773070879
 20
-3672.382360148556
 30
0.0
 41
120.0
 42
120.0
 43
120.0
 50
180.0
  0
INSERT
  5
95ED
  8
3
 62
     0
  2
_OPEN30
 10
2284.8520773070882
 20
-3672.382360148556
 30
0.0
 41
120.0
 42
120.0
 43
120.0
  0
TEXT
  8
3
  40
180
  5
966D
  62
0
  72
0
  71
0
 10
1334.85
 20
-3840.98
 30
0.000000
  1
1180
  0
POINT
  5
95EF
  8
DEFPOINTS
 62
     0
 10
1104.8520773070879
 20
-3239.5664102275468
 30
0.0
  0
POINT
  5
95F0
  8
DEFPOINTS
 62
     0
 10
2284.8520773070882
 20
-2722.400418340525
 30
0.0
  0
POINT
  5
95F1
  8
DEFPOINTS
 62
     0
 10
2284.8520773070882
 20
-3672.382360148556
 30
0.0
  0
ENDBLK
  5
7F0D
  8
0
  0
BLOCK
  8
0
  2
*D8
 70
     1
 10
0.0
 20
0.0
 30
0.0
  3
*D8
  1

  0
LINE
  5
95F2
  8
3
 62
     0
 10
-1043.14792269291
 20
352.59958165947501
 30
0.0
 11
-1043.14792269291
 21
930.24175923690916
 31
0.0
  0
LINE
  5
95F3
  8
3
 62
     0
 10
1016.852077307089
 20
352.5995816594745
 30
0.0
 11
1016.852077307089
 21
930.24175923690916
 31
0.0
  0
LINE
  5
95F4
  8
3
 62
     0
 10
-923.14792269291047
 20
870.24175923690916
 30
0.0
 11
896.85207730708919
 21
870.24175923690916
 31
0.0
  0
INSERT
  5
95F5
  8
3
 62
     0
  2
_OPEN30
 10
-1043.14792269291
 20
870.24175923690916
 30
0.0
 41
120.0
 42
120.0
 43
120.0
 50
180.0
  0
INSERT
  5
95F6
  8
3
 62
     0
  2
_OPEN30
 10
1016.852077307089
 20
870.24175923690916
 30
0.0
 41
120.0
 42
120.0
 43
120.0
  0
TEXT
  8
3
  40
180
  5
966E
  62
0
  72
0
  71
0
 10
-373.148
 20
701.642
 30
0.000000
  1
2060
  0
POINT
  5
95F8
  8
DEFPOINTS
 62
     0
 10
-1043.14792269291
 20
322.59958165947501
 30
0.0
  0
POINT
  5
95F9
  8
DEFPOINTS
 62
     0
 10
1016.852077307089
 20
322.5995816594745
 30
0.0
  0
POINT
  5
95FA
  8
DEFPOINTS
 62
     0
 10
1016.852077307089
 20
870.24175923690916
 30
0.0
  0
ENDBLK
  5
8048
  8
0
  0
BLOCK
  8
0
  2
*D9
 70
     1
 10
0.0
 20
0.0
 30
0.0
  3
*D9
  1

  0
LINE
  5
95FB
  8
3
 62
     0
 10
-75.147922692911379
 20
5639.7326331639633
 30
0.0
 11
-75.147922692911337
 21
6271.2875301007589
 31
0.0
  0
LINE
  5
95FC
  8
3
 62
     0
 10
2284.8520773070891
 20
5639.7326331639633
 30
0.0
 11
2284.8520773070891
 21
6271.2875301007589
 31
0.0
  0
LINE
  5
95FD
  8
3
 62
     0
 10
44.852077307088663
 20
6211.2875301007589
 30
0.0
 11
2164.8520773070882
 21
6211.2875301007589
 31
0.0
  0
INSERT
  5
95FE
  8
3
 62
     0
  2
_OPEN30
 10
-75.147922692911337
 20
6211.2875301007589
 30
0.0
 41
120.0
 42
120.0
 43
120.0
 50
180.0
  0
INSERT
  5
95FF
  8
3
 62
     0
  2
_OPEN30
 10
2284.8520773070891
 20
6211.2875301007589
 30
0.0
 41
120.0
 42
120.0
 43
120.0
  0
TEXT
  8
3
  40
180
  5
966F
  62
0
  72
0
  71
0
 10
744.852
 20
6042.69
 30
0.000000
  1
2360
  0
POINT
  5
9601
  8
DEFPOINTS
 62
     0
 10
-75.147922692911379
 20
5609.7326331639642
 30
0.0
  0
POINT
  5
9602
  8
DEFPOINTS
 62
     0
 10
2284.8520773070891
 20
5609.7326331639642
 30
0.0
  0
POINT
  5
9603
  8
DEFPOINTS
 62
     0
 10
2284.8520773070891
 20
6211.2875301007589
 30
0.0
  0
ENDBLK
  5
855F
  8
0
  0
BLOCK
  8
0
  2
*D10
 70
     1
 10
0.0
 20
0.0
 30
0.0
  3
*D10
  1

  0
LINE
  5
9604
  8
3
 62
     0
 10
-75.147922692911379
 20
5639.7326331639633
 30
0.0
 11
-75.147922692911337
 21
6271.2875301007589
 31
0.0
  0
LINE
  5
9605
  8
3
 62
     0
 10
-1415.1479226929109
 20
4779.7326331639651
 30
0.0
 11
-1415.1479226929109
 21
6271.2875301007589
 31
0.0
  0
LINE
  5
9606
  8
3
 62
     0
 10
-195.14792269291129
 20
6211.2875301007589
 30
0.0
 11
-1295.1479226929109
 21
6211.2875301007589
 31
0.0
  0
INSERT
  5
9607
  8
3
 62
     0
  2
_OPEN30
 10
-75.147922692911337
 20
6211.2875301007589
 30
0.0
 41
120.0
 42
120.0
 43
120.0
  0
INSERT
  5
9608
  8
3
 62
     0
  2
_OPEN30
 10
-1415.1479226929109
 20
6211.2875301007589
 30
0.0
 41
120.0
 42
120.0
 43
120.0
 50
180.0
  0
TEXT
  8
3
  40
180
  5
9670
  62
0
  72
0
  71
0
 10
-1105.15
 20
6042.69
 30
0.000000
  1
1340
  0
POINT
  5
960A
  8
DEFPOINTS
 62
     0
 10
-75.147922692911379
 20
5609.7326331639642
 30
0.0
  0
POINT
  5
960B
  8
DEFPOINTS
 62
     0
 10
-1415.1479226929109
 20
4749.7326331639651
 30
0.0
  0
POINT
  5
960C
  8
DEFPOINTS
 62
     0
 10
-1415.1479226929109
 20
6211.2875301007589
 30
0.0
  0
ENDBLK
  5
8575
  8
0
  0
BLOCK
  8
0
  2
*D11
 70
     1
 10
0.0
 20
0.0
 30
0.0
  3
*D11
  1

  0
LINE
  5
960D
  8
3
 62
     0
 10
-1415.1479226929109
 20
3519.7326331639651
 30
0.0
 11
-1415.1479226929109
 21
2679.315186575383
 31
0.0
  0
LINE
  5
960E
  8
3
 62
     0
 10
2284.8520773070891
 20
3519.7326331639651
 30
0.0
 11
2284.8520773070891
 21
2679.315186575383
 31
0.0
  0
LINE
  5
960F
  8
3
 62
     0
 10
-1295.1479226929109
 20
2739.3151865753821
 30
0.0
 11
2164.8520773070882
 21
2739.3151865753821
 31
0.0
  0
INSERT
  5
9610
  8
3
 62
     0
  2
_OPEN30
 10
-1415.1479226929109
 20
2739.3151865753821
 30
0.0
 41
120.0
 42
120.0
 43
120.0
 50
180.0
  0
INSERT
  5
9611
  8
3
 62
     0
  2
_OPEN30
 10
2284.8520773070891
 20
2739.3151865753821
 30
0.0
 41
120.0
 42
120.0
 43
120.0
  0
TEXT
  8
3
  40
180
  5
9671
  62
0
  72
0
  71
0
 10
74.8521
 20
2570.72
 30
0.000000
  1
3700
  0
POINT
  5
9613
  8
DEFPOINTS
 62
     0
 10
-1415.1479226929109
 20
3549.7326331639638
 30
0.0
  0
POINT
  5
9614
  8
DEFPOINTS
 62
     0
 10
2284.8520773070891
 20
3549.7326331639638
 30
0.0
  0
POINT
  5
9615
  8
DEFPOINTS
 62
     0
 10
2284.8520773070891
 20
2739.3151865753821
 30
0.0
  0
ENDBLK
  5
865D
  8
0
  0
BLOCK
  8
0
  2
*D12
 70
     1
 10
0.0
 20
0.0
 30
0.0
  3
*D12
  1

  0
LINE
  5
9616
  8
3
 62
     0
 10
-1445.1479226929109
 20
4749.7326331639651
 30
0.0
 11
-2330.0895603809331
 21
4749.7326331639661
 31
0.0
  0
LINE
  5
9617
  8
3
 62
     0
 10
-1445.1479226929109
 20
3549.7326331639638
 30
0.0
 11
-2330.0895603809331
 21
3549.7326331639638
 31
0.0
  0
LINE
  5
9618
  8
3
 62
     0
 10
-2270.0895603809331
 20
4629.7326331639661
 30
0.0
 11
-2270.0895603809331
 21
3669.7326331639651
 31
0.0
  0
INSERT
  5
9619
  8
3
 62
     0
  2
_OPEN30
 10
-2270.0895603809331
 20
4749.7326331639661
 30
0.0
 41
120.0
 42
120.0
 43
120.0
 50
90.0
  0
INSERT
  5
961A
  8
3
 62
     0
  2
_OPEN30
 10
-2270.0895603809331
 20
3549.7326331639638
 30
0.0
 41
120.0
 42
120.0
 43
120.0
 50
270.0
  0
TEXT
  8
3
  40
180
  5
9672
  62
0
  72
0
  71
0
 10
-2780.09
 20
3831.13
 30
0.000000
  1
1200
  0
POINT
  5
961C
  8
DEFPOINTS
 62
     0
 10
-1415.1479226929109
 20
4749.7326331639651
 30
0.0
  0
POINT
  5
961D
  8
DEFPOINTS
 62
     0
 10
-1415.1479226929109
 20
3549.7326331639638
 30
0.0
  0
POINT
  5
961E
  8
DEFPOINTS
 62
     0
 10
-2270.0895603809331
 20
3549.7326331639638
 30
0.0
  0
ENDBLK
  5
8673
  8
0
  0
BLOCK
  8
0
  2
*D13
 70
     1
 10
0.0
 20
0.0
 30
0.0
  3
*D13
  1

  0
LINE
  5
961F
  8
3
 62
     0
 10
2314.8520773070882
 20
3549.7326331639638
 30
0.0
 11
3291.0711652073942
 21
3549.7326331639638
 31
0.0
  0
LINE
  5
9620
  8
3
 62
     0
 10
2314.8520773070882
 20
5609.7326331639642
 30
0.0
 11
3291.0711652073951
 21
5609.7326331639642
 31
0.0
  0
LINE
  5
9621
  8
3
 62
     0
 10
3231.0711652073942
 20
3669.7326331639638
 30
0.0
 11
3231.0711652073951
 21
5489.7326331639633
 31
0.0
  0
INSERT
  5
9622
  8
3
 62
     0
  2
_OPEN30
 10
3231.0711652073942
 20
3549.7326331639638
 30
0.0
 41
120.0
 42
120.0
 43
120.0
 50
270.0
  0
INSERT
  5
9623
  8
3
 62
     0
  2
_OPEN30
 10
3231.0711652073951
 20
5609.7326331639642
 30
0.0
 41
120.0
 42
120.0
 43
120.0
 50
90.0
  0
TEXT
  8
3
  40
180
  5
9673
  62
0
  72
0
  71
0
 10
2721.07
 20
4261.13
 30
0.000000
  1
2060
  0
POINT
  5
9625
  8
DEFPOINTS
 62
     0
 10
2284.8520773070891
 20
3549.7326331639638
 30
0.0
  0
POINT
  5
9626
  8
DEFPOINTS
 62
     0
 10
2284.8520773070891
 20
5609.7326331639642
 30
0.0
  0
POINT
  5
9627
  8
DEFPOINTS
 62
     0
 10
3231.0711652073951
 20
5609.7326331639642
 30
0.0
  0
ENDBLK
  5
8689
  8
0
  0
BLOCK
  8
0
  2
*D14
 70
     1
 10
0.0
 20
0.0
 30
0.0
  3
*D14
  1

  0
LINE
  5
9628
  8
3
 62
     0
 10
-1043.14792269291
 20
352.59958165947501
 30
0.0
 11
-1043.14792269291
 21
1430.362691306734
 31
0.0
  0
LINE
  5
9629
  8
3
 62
     0
 10
1104.8520773070879
 20
602.54907731362619
 30
0.0
 11
1104.8520773070879
 21
1430.362691306734
 31
0.0
  0
LINE
  5
962A
  8
3
 62
     0
 10
-923.14792269291047
 20
1370.362691306734
 30
0.0
 11
984.85207730708862
 21
1370.362691306734
 31
0.0
  0
INSERT
  5
962B
  8
3
 62
     0
  2
_OPEN30
 10
-1043.14792269291
 20
1370.362691306734
 30
0.0
 41
120.0
 42
120.0
 43
120.0
 50
180.0
  0
INSERT
  5
962C
  8
3
 62
     0
  2
_OPEN30
 10
1104.8520773070879
 20
1370.362691306734
 30
0.0
 41
120.0
 42
120.0
 43
120.0
  0
TEXT
  8
3
  40
180
  5
9674
  62
0
  72
0
  71
0
 10
-329.148
 20
1201.76
 30
0.000000
  1
2148
  0
POINT
  5
962E
  8
DEFPOINTS
 62
     0
 10
-1043.14792269291
 20
322.59958165947501
 30
0.0
  0
POINT
  5
962F
  8
DEFPOINTS
 62
     0
 10
1104.8520773070879
 20
572.54907731362619
 30
0.0
  0
POINT
  5
9630
  8
DEFPOINTS
 62
     0
 10
1104.8520773070879
 20
1370.362691306734
 30
0.0
  0
ENDBLK
  5
92E3
  8
0
  0
BLOCK
  8
0
  2
*D15
 70
     1
 10
0.0
 20
0.0
 30
0.0
  3
*D15
  1

  0
LINE
  5
9631
  8
3
 62
     0
 10
1104.8520773070879
 20
602.54907731362619
 30
0.0
 11
1104.8520773070879
 21
1430.362691306734
 31
0.0
  0
LINE
  5
9632
  8
3
 62
     0
 10
2546.8520773070882
 20
-1069.400418340525
 30
0.0
 11
2546.8520773070882
 21
1430.362691306734
 31
0.0
  0
LINE
  5
9633
  8
3
 62
     0
 10
1224.8520773070879
 20
1370.362691306734
 30
0.0
 11
2426.8520773070882
 21
1370.362691306734
 31
0.0
  0
INSERT
  5
9634
  8
3
 62
     0
  2
_OPEN30
 10
1104.8520773070879
 20
1370.362691306734
 30
0.0
 41
120.0
 42
120.0
 43
120.0
 50
180.0
  0
INSERT
  5
9635
  8
3
 62
     0
  2
_OPEN30
 10
2546.8520773070882
 20
1370.362691306734
 30
0.0
 41
120.0
 42
120.0
 43
120.0
  0
TEXT
  8
3
  40
180
  5
9675
  62
0
  72
0
  71
0
 10
1465.85
 20
1201.76
 30
0.000000
  1
1442
  0
POINT
  5
9637
  8
DEFPOINTS
 62
     0
 10
1104.8520773070879
 20
572.54907731362619
 30
0.0
  0
POINT
  5
9638
  8
DEFPOINTS
 62
     0
 10
2546.8520773070882
 20
-1099.400418340525
 30
0.0
  0
POINT
  5
9639
  8
DEFPOINTS
 62
     0
 10
2546.8520773070882
 20
1370.362691306734
 30
0.0
  0
ENDBLK
  5
92FA
  8
0
  0
BLOCK
  8
0
  2
*D16
 70
     1
 10
0.0
 20
0.0
 30
0.0
  3
*D16
  1

  0
LINE
  5
963A
  8
3
 62
     0
 10
-1152.14792269291
 20
322.59958165947501
 30
0.0
 11
-2593.7421004139319
 21
322.5995816594754
 31
0.0
  0
LINE
  5
963B
  8
3
 62
     0
 10
-1811.7467636762451
 20
-952.40041834052488
 30
0.0
 11
-2593.7421004139319
 21
-952.40041834052477
 31
0.0
  0
LINE
  5
963C
  8
3
 62
     0
 10
-2533.7421004139319
 20
202.5995816594754
 30
0.0
 11
-2533.7421004139319
 21
-832.40041834052465
 31
0.0
  0
INSERT
  5
963D
  8
3
 62
     0
  2
_OPEN30
 10
-2533.7421004139319
 20
322.5995816594754
 30
0.0
 41
120.0
 42
120.0
 43
120.0
 50
90.0
  0
INSERT
  5
963E
  8
3
 62
     0
  2
_OPEN30
 10
-2533.7421004139319
 20
-952.40041834052477
 30
0.0
 41
120.0
 42
120.0
 43
120.0
 50
270.0
  0
TEXT
  8
3
  40
180
  5
9676
  62
0
  72
0
  71
0
 10
-3043.74
 20
-633.500
 30
0.000000
  1
1275
  0
POINT
  5
9640
  8
DEFPOINTS
 62
     0
 10
-1122.14792269291
 20
322.59958165947501
 30
0.0
  0
POINT
  5
9641
  8
DEFPOINTS
 62
     0
 10
-1781.746763676244
 20
-952.40041834052488
 30
0.0
  0
POINT
  5
9642
  8
DEFPOINTS
 62
     0
 10
-2533.7421004139319
 20
-952.40041834052477
 30
0.0
  0
ENDBLK
  5
9322
  8
0
  0
BLOCK
  8
0
  2
*D17
 70
     1
 10
0.0
 20
0.0
 30
0.0
  3
*D17
  1

  0
LINE
  5
9643
  8
3
 62
     0
 10
-1811.7467636762451
 20
-952.40041834052488
 30
0.0
 11
-2593.7421004139319
 21
-952.40041834052477
 31
0.0
  0
LINE
  5
9644
  8
3
 62
     0
 10
-1445.1479226929109
 20
-2722.400418340525
 30
0.0
 11
-2593.7421004139319
 21
-2722.400418340525
 31
0.0
  0
LINE
  5
9645
  8
3
 62
     0
 10
-2533.7421004139328
 20
-1072.400418340525
 30
0.0
 11
-2533.7421004139328
 21
-2602.400418340525
 31
0.0
  0
INSERT
  5
9646
  8
3
 62
     0
  2
_OPEN30
 10
-2533.7421004139319
 20
-952.40041834052477
 30
0.0
 41
120.0
 42
120.0
 43
120.0
 50
90.0
  0
INSERT
  5
9647
  8
3
 62
     0
  2
_OPEN30
 10
-2533.7421004139328
 20
-2722.400418340525
 30
0.0
 41
120.0
 42
120.0
 43
120.0
 50
270.0
  0
TEXT
  8
3
  40
180
  5
9677
  62
0
  72
0
  71
0
 10
-3043.74
 20
-2156.00
 30
0.000000
  1
1770
  0
POINT
  5
9649
  8
DEFPOINTS
 62
     0
 10
-1781.746763676244
 20
-952.40041834052488
 30
0.0
  0
POINT
  5
964A
  8
DEFPOINTS
 62
     0
 10
-1415.1479226929109
 20
-2722.400418340525
 30
0.0
  0
POINT
  5
964B
  8
DEFPOINTS
 62
     0
 10
-2533.7421004139328
 20
-2722.400418340525
 30
0.0
  0
ENDBLK
  5
932F
  8
0
  0
BLOCK
  8
0
  2
_OPEN
 70
     0
 10
0.0
 20
0.0
 30
0.0
  3
_OPEN
  1

  0
LINE
  5
94FA
  8
0
  6
BYBLOCK
 62
     0
 10
-1.0
 20
0.1666666666666666
 30
0.0
 11
0.0
 21
0.0
 31
0.0
  0
LINE
  5
94FB
  8
0
  6
BYBLOCK
 62
     0
 10
0.0
 20
0.0
 30
0.0
 11
-1.0
 21
-0.1666666666666666
 31
0.0
  0
LINE
  5
94FC
  8
0
  6
BYBLOCK
 62
     0
 10
0.0
 20
0.0
 30
0.0
 11
-1.0
 21
0.0
 31
0.0
  0
ENDBLK
  5
94FD
  8
0
  0
BLOCK
  8
0
  2
*D19
 70
     1
 10
0.0
 20
0.0
 30
0.0
  3
*D19
  1

  0
LINE
  5
964C
  8
3
 62
     0
 10
5244.0871082668846
 20
352.59958165947501
 30
0.0
 11
5244.0871082668846
 21
926.77899218520167
 31
0.0
  0
LINE
  5
964D
  8
3
 62
     0
 10
6744.0871082668846
 20
352.59958165947501
 30
0.0
 11
6744.0871082668846
 21
926.77899218520167
 31
0.0
  0
LINE
  5
964E
  8
3
 62
     0
 10
5364.0871082668837
 20
866.77899218520167
 30
0.0
 11
6624.0871082668864
 21
866.77899218520167
 31
0.0
  0
INSERT
  5
964F
  8
3
 62
     0
  2
_OPEN
 10
5244.0871082668846
 20
866.77899218520167
 30
0.0
 41
120.0
 42
120.0
 43
120.0
 50
180.0
  0
INSERT
  5
9650
  8
3
 62
     0
  2
_OPEN
 10
6744.0871082668846
 20
866.77899218520167
 30
0.0
 41
120.0
 42
120.0
 43
120.0
  0
TEXT
  8
3
  40
180
  5
9678
  62
0
  72
0
  71
0
 10
5634.09
 20
698.179
 30
0.000000
  1
1500
  0
POINT
  5
9652
  8
DEFPOINTS
 62
     0
 10
5244.0871082668846
 20
322.59958165947501
 30
0.0
  0
POINT
  5
9653
  8
DEFPOINTS
 62
     0
 10
6744.0871082668846
 20
322.59958165947501
 30
0.0
  0
POINT
  5
9654
  8
DEFPOINTS
 62
     0
 10
6744.0871082668846
 20
866.77899218520167
 30
0.0
  0
ENDBLK
  5
9509
  8
0
  0
BLOCK
  8
0
  2
*D20
 70
     1
 10
0.0
 20
0.0
 30
0.0
  3
*D20
  1

  0
LINE
  5
9655
  8
3
 62
     0
 10
5994.0871082668846
 20
1231.572158288785
 30
0.0
 11
5994.0871082668846
 21
1433.36513337717
 31
0.0
  0
LINE
  5
9656
  8
3
 62
     0
 10
6898.0871082668837
 20
152.59958165947401
 30
0.0
 11
6898.0871082668837
 21
1433.36513337717
 31
0.0
  0
LINE
  5
9657
  8
3
 62
     0
 10
6114.0871082668864
 20
1373.36513337717
 30
0.0
 11
6778.0871082668846
 21
1373.36513337717
 31
0.0
  0
INSERT
  5
9658
  8
3
 62
     0
  2
_OPEN
 10
5994.0871082668846
 20
1373.36513337717
 30
0.0
 41
120.0
 42
120.0
 43
120.0
 50
180.0
  0
INSERT
  5
9659
  8
3
 62
     0
  2
_OPEN
 10
6898.0871082668837
 20
1373.36513337717
 30
0.0
 41
120.0
 42
120.0
 43
120.0
  0
TEXT
  8
3
  40
180
  5
9679
  62
0
  72
0
  71
0
 10
6086.09
 20
1204.77
 30
0.000000
  1
904
  0
POINT
  5
965B
  8
DEFPOINTS
 62
     0
 10
5994.0871082668846
 20
1201.572158288785
 30
0.0
  0
POINT
  5
965C
  8
DEFPOINTS
 62
     0
 10
6898.0871082668837
 20
122.5995816594741
 30
0.0
  0
POINT
  5
965D
  8
DEFPOINTS
 62
     0
 10
6898.0871082668837
 20
1373.36513337717
 30
0.0
  0
ENDBLK
  5
9516
  8
0
  0
BLOCK
  8
0
  2
*D21
 70
     1
 10
0.0
 20
0.0
 30
0.0
  3
*D21
  1

  0
LINE
  5
965E
  8
3
 62
     0
 10
5994.0871082668846
 20
1231.572158288785
 30
0.0
 11
5994.0871082668846
 21
1428.025338579966
 31
0.0
  0
LINE
  5
965F
  8
3
 62
     0
 10
4744.0871082668837
 20
-372.40041834052539
 30
0.0
 11
4744.0871082668837
 21
1428.025338579966
 31
0.0
  0
LINE
  5
9660
  8
3
 62
     0
 10
5874.0871082668846
 20
1368.025338579966
 30
0.0
 11
4864.0871082668837
 21
1368.025338579966
 31
0.0
  0
INSERT
  5
9661
  8
3
 62
     0
  2
_OPEN
 10
5994.0871082668846
 20
1368.025338579966
 30
0.0
 41
120.0
 42
120.0
 43
120.0
  0
INSERT
  5
9662
  8
3
 62
     0
  2
_OPEN
 10
4744.0871082668837
 20
1368.025338579966
 30
0.0
 41
120.0
 42
120.0
 43
120.0
 50
180.0
  0
TEXT
  8
3
  40
180
  5
967A
  62
0
  72
0
  71
0
 10
5009.09
 20
1246.57
 30
0.000000
  1
(1250)
  0
POINT
  5
9664
  8
DEFPOINTS
 62
     0
 10
5994.0871082668846
 20
1201.572158288785
 30
0.0
  0
POINT
  5
9665
  8
DEFPOINTS
 62
     0
 10
4744.0871082668837
 20
-402.40041834052539
 30
0.0
  0
POINT
  5
9666
  8
DEFPOINTS
 62
     0
 10
4744.0871082668837
 20
1368.025338579966
 30
0.0
  0
ENDBLK
  5
9576
  8
0
  0
ENDSEC
  0
SECTION
  2
ENTITIES
  0
LINE
  5
7DB2
  8
2
 10
1104.8520773070879
 20
-3239.5664102275468
 30
0.0
 11
1104.8520773070879
 21
572.54907731362619
 31
0.0
  0
LINE
  5
7DB3
  8
1
 10
-988.80626129362884
 20
-952.40041834052488
 30
0.0
 11
904.85207730708873
 21
-952.40041834052488
 31
0.0
  0
ARC
  5
7DB4
  8
1
 10
957.85207730708862
 20
-805.40041834052499
 30
0.0
 40
1883.0
 50
185.5293556892467
 51
270.0
  0
ARC
  5
7DB5
  8
1
 10
957.85207730708839
 20
-1099.400418340525
 30
0.0
 40
1589.0
 50
270.0
 51
0.0
  0
ARC
  5
7DB6
  8
1
 10
1227.3520773070879
 20
-1074.900418340525
 30
0.0
 40
1319.5
 50
0.0
 51
90.0
  0
ARC
  5
7DB7
  8
1
 10
1227.3520773070879
 20
-829.90041834052511
 30
0.0
 40
1074.5
 50
90.0
 51
101.29760023059789
  0
LINE
  5
7DB8
  8
1
 10
-1122.14792269291
 20
322.59958165947501
 30
0.0
 11
1095.8520773070891
 21
322.59958165947501
 31
0.0
  0
LINE
  5
7DB9
  8
1
 10
-1043.14792269291
 20
322.59958165947501
 30
0.0
 11
-916.38624991766801
 21
-986.83826654685424
 31
0.0
  0
LINE
  5
7DBA
  8
1
 10
1016.852077307089
 20
223.7788497482033
 30
0.0
 11
1016.852077307089
 21
322.59958165947501
 31
0.0
  0
LINE
  5
7DBB
  8
1
 10
2546.8520773070882
 20
-1099.400418340525
 30
0.0
 11
2546.8520773070882
 21
-1074.900418340525
 31
0.0
  0
LINE
  5
7DBC
  8
1
 10
-1415.1479226929109
 20
-2722.400418340525
 30
0.0
 11
2284.8520773070891
 21
-2722.400418340525
 31
0.0
  0
LINE
  5
7DBD
  8
1
 10
-1415.1479226929109
 20
-2542.400418340525
 30
0.0
 11
2284.8520773070891
 21
-2542.400418340525
 31
0.0
  0
LINE
  5
7DBE
  8
1
 10
2284.8520773070891
 20
-2722.400418340525
 30
0.0
 11
2284.8520773070891
 21
-2542.400418340525
 31
0.0
  0
LINE
  5
7DBF
  8
1
 10
-1415.1479226929109
 20
-2722.400418340525
 30
0.0
 11
-1415.1479226929109
 21
-2542.400418340525
 31
0.0
  0
LINE
  5
7DC0
  8
2
 10
-13.147922692910459
 20
610.85911495171422
 30
0.0
 11
-13.147922692910919
 21
-270.95785906242958
 31
0.0
  0
LINE
  5
7DC1
  8
1
 10
-1122.14792269291
 20
247.59958165947501
 30
0.0
 11
1095.8520773070891
 21
247.59958165947501
 31
0.0
  0
LINE
  5
7DC2
  8
1
 10
-1122.14792269291
 20
322.59958165947501
 30
0.0
 11
-1122.14792269291
 21
247.59958165947501
 31
0.0
  0
LINE
  5
7DC3
  8
1
 10
1095.8520773070891
 20
322.59958165947501
 30
0.0
 11
1095.8520773070891
 21
247.59958165947501
 31
0.0
  0
LINE
  5
7DC4
  8
1
 10
-1122.14792269291
 20
316.59958165947501
 30
0.0
 11
1095.8520773070891
 21
316.59958165947501
 31
0.0
  0
LINE
  5
7DC5
  8
2
 10
4433.3930178519813
 20
-952.40041834052488
 30
0.0
 11
7203.276995249239
 21
-952.40041834052579
 31
0.0
  0
LINE
  5
7DC6
  8
2
 10
5994.0871082668846
 20
-3096.250785410673
 30
0.0
 11
5994.0871082668846
 21
517.23656544859841
 31
0.0
  0
LINE
  5
7DC7
  8
1
 10
4763.0871082668837
 20
-2722.400418340525
 30
0.0
 11
6823.0871082668837
 21
-2722.400418340525
 31
0.0
  0
LINE
  5
7DC8
  8
1
 10
4763.0871082668837
 20
-2542.400418340525
 30
0.0
 11
6823.0871082668873
 21
-2542.400418340525
 31
0.0
  0
LINE
  5
7DC9
  8
1
 10
6823.0871082668873
 20
-2722.400418340525
 30
0.0
 11
6823.0871082668837
 21
-2542.400418340525
 31
0.0
  0
LINE
  5
7DCA
  8
1
 10
4763.0871082668837
 20
-2722.400418340525
 30
0.0
 11
4763.0871082668837
 21
-2542.400418340525
 31
0.0
  0
LINE
  5
7DD4
  8
1
 10
6744.0871082668864
 20
-2542.400418340525
 30
0.0
 11
6744.0871082668846
 21
322.59958165947501
 31
0.0
  0
LINE
  5
7DD5
  8
1
 10
5244.0871082668846
 20
-2542.400418340525
 30
0.0
 11
5244.0871082668846
 21
322.59958165947501
 31
0.0
  0
LINE
  5
7DDA
  8
1
 10
6898.0871082668837
 20
-2027.4004183405241
 30
0.0
 11
6898.0871082668837
 21
122.5995816594732
 31
0.0
  0
LINE
  5
7DDB
  8
1
 10
6744.0871082668846
 20
47.599581659473188
 30
0.0
 11
6898.0871082668837
 21
47.59958165947409
 31
0.0
  0
LINE
  5
7DDC
  8
1
 10
6744.0871082668846
 20
-1952.4004183405241
 30
0.0
 11
6898.0871082668837
 21
-1952.4004183405241
 31
0.0
  0
LINE
  5
7DDD
  8
1
 10
6892.0871082668846
 20
122.5995816594732
 30
0.0
 11
6898.0871082668837
 21
122.5995816594741
 31
0.0
  0
LINE
  5
7DDE
  8
1
 10
6892.0871082668846
 20
-2027.4004183405241
 30
0.0
 11
6898.0871082668837
 21
-2027.4004183405241
 31
0.0
  0
LINE
  5
7DDF
  8
1
 10
6892.0871082668846
 20
-2027.4004183405241
 30
0.0
 11
6892.0871082668846
 21
122.5995816594732
 31
0.0
  0
CIRCLE
  5
7DED
  8
1
 10
1104.8520773070879
 20
-952.40041834052488
 30
0.0
 40
400.0
  0
ARC
  5
7DF0
  8
1
 10
1104.8520773070879
 20
-952.40041834052488
 30
0.0
 40
550.0
 50
293.79728024871008
 51
126.4463633043684
  0
LINE
  5
7DF4
  8
1
 10
4824.5064816308659
 20
-552.40041834052488
 30
0.0
 11
5004.506481630865
 21
-552.40041834052488
 31
0.0
  0
LINE
  5
7DF5
  8
1
 10
4824.5064816308659
 20
-1352.400418340525
 30
0.0
 11
5004.506481630865
 21
-1352.400418340525
 31
0.0
  0
LINE
  5
7DF6
  8
1
 10
4744.0871082668837
 20
-402.40041834052539
 30
0.0
 11
5104.0871082668864
 21
-402.40041834052539
 31
0.0
  0
LINE
  5
7DF7
  8
2
 10
4597.2378386882738
 20
-2182.400418340525
 30
0.0
 11
5448.1738968458412
 21
-2182.400418340525
 31
0.0
  0
LINE
  5
7DF8
  8
1
 10
4824.5064816308659
 20
-2032.400418340525
 30
0.0
 11
5004.506481630865
 21
-2032.400418340525
 31
0.0
  0
LINE
  5
7DF9
  8
1
 10
4824.5064816308659
 20
-2332.400418340525
 30
0.0
 11
5004.506481630865
 21
-2332.400418340525
 31
0.0
  0
LINE
  5
7DFA
  8
1
 10
4744.0871082668837
 20
-2462.400418340525
 30
0.0
 11
5104.0871082668846
 21
-2462.4004183405232
 31
0.0
  0
LINE
  5
7DFB
  8
1
 10
4744.0871082668828
 20
-2462.400418340525
 30
0.0
 11
4744.0871082668837
 21
-402.40041834052539
 31
0.0
  0
LINE
  5
7DFC
  8
1
 10
5104.0871082668864
 20
-2462.400418340525
 30
0.0
 11
5104.0871082668864
 21
-2403.2079718781151
 31
0.0
  0
LINE
  5
7DFD
  8
1
 10
5104.0871082668846
 20
-694.70086403370624
 30
0.0
 11
5104.0871082668846
 21
-402.40041834052539
 31
0.0
  0
LINE
  5
7DFE
  8
1
 10
4824.5064816308659
 20
-552.40041834052488
 30
0.0
 11
4824.506481630865
 21
-2332.4004183405241
 31
0.0
  0
LINE
  5
7DFF
  8
1
 10
5004.506481630865
 20
-552.40041834052488
 30
0.0
 11
5004.5064816308641
 21
-2332.4004183405241
 31
0.0
  0
LINE
  5
7E00
  8
2
 10
-1199.083877848519
 20
4780.7326331639651
 30
0.0
 11
2601.6860601964581
 21
4780.7326331639651
 31
0.0
  0
LINE
  5
7E01
  8
2
 10
1104.8520773070879
 20
3337.505352115847
 30
0.0
 11
1104.8520773070879
 21
5820.1555871955443
 31
0.0
  0
LINE
  5
7E02
  8
1
 10
-75.147922692911379
 20
5609.7326331639661
 30
0.0
 11
14.852077307088621
 21
5609.7326331639661
 31
0.0
  0
LINE
  5
7E03
  8
1
 10
-1415.1479226929109
 20
3549.7326331639638
 30
0.0
 11
-1298.057051694547
 21
3549.7326331639651
 31
0.0
  0
LINE
  5
7E04
  8
1
 10
2284.8520773070891
 20
3549.7326331639638
 30
0.0
 11
2284.8520773070891
 21
4030.7326331639638
 31
0.0
  0
LINE
  5
7E05
  8
1
 10
-1415.1479226929109
 20
3549.7326331639638
 30
0.0
 11
-1415.1479226929109
 21
3624.7326331639651
 31
0.0
  0
LINE
  5
7E06
  8
1
 10
-75.147922692911379
 20
3890.7326331639638
 30
0.0
 11
-75.147922692911379
 21
3951.7326331639638
 31
0.0
  0
LINE
  5
7E07
  8
1
 10
-1415.1479226929109
 20
4749.7326331639651
 30
0.0
 11
-1122.14792269291
 21
4749.732633163967
 31
0.0
  0
LINE
  5
7E08
  8
1
 10
-1415.1479226929109
 20
3624.7326331639651
 30
0.0
 11
-1298.057051694547
 21
3624.7326331639651
 31
0.0
  0
LINE
  5
7E09
  8
1
 10
-1415.1479226929109
 20
4674.7326331639661
 30
0.0
 11
-1326.112987326798
 21
4674.732633163967
 31
0.0
  0
LINE
  5
7E0A
  8
1
 10
-0.1479226929113793
 20
3890.7326331639638
 30
0.0
 11
-0.1479226929113793
 21
3951.7326331639638
 31
0.0
  0
LINE
  5
7E0B
  8
1
 10
2209.8520773070882
 20
3624.7326331639651
 30
0.0
 11
2209.8520773070882
 21
4030.7326331639629
 31
0.0
  0
LINE
  5
7E0C
  8
1
 10
-1415.1479226929109
 20
4674.7326331639661
 30
0.0
 11
-1415.1479226929109
 21
4749.7326331639651
 31
0.0
  0
LINE
  5
7E13
  8
1
 10
-988.80626129362884
 20
-943.40041834052488
 30
0.0
 11
904.85207730708873
 21
-943.40041834052488
 31
0.0
  0
LINE
  5
7E14
  8
1
 10
-988.80626129362884
 20
-961.40041834052511
 30
0.0
 11
904.85207730708873
 21
-961.40041834052488
 31
0.0
  0
LINE
  5
7E19
  8
1
 10
-1043.14792269291
 20
5530.7326331639642
 30
0.0
 11
1016.852077307089
 21
5530.7326331639651
 31
0.0
  0
LINE
  5
7E1A
  8
1
 10
-1043.14792269291
 20
4030.7326331639651
 30
0.0
 11
1016.852077307089
 21
4030.7326331639651
 31
0.0
  0
LINE
  5
7E1D
  8
1
 10
-75.147922692911379
 20
5609.7326331639642
 30
0.0
 11
104.85207730708861
 21
5609.7326331639642
 31
0.0
  0
LINE
  5
7E22
  8
1
 10
2104.8520773070882
 20
5609.7326331639633
 30
0.0
 11
2284.8520773070891
 21
5609.7326331639642
 31
0.0
  0
LINE
  5
7E24
  8
1
 10
29.852077307088621
 20
5684.7326331639642
 30
0.0
 11
2179.8520773070882
 21
5684.7326331639642
 31
0.0
  0
LINE
  5
7E25
  8
1
 10
2104.8520773070882
 20
5530.7326331639642
 30
0.0
 11
2104.8520773070882
 21
5684.7326331639651
 31
0.0
  0
LINE
  5
7E26
  8
1
 10
104.85207730708861
 20
5530.7326331639642
 30
0.0
 11
104.85207730708861
 21
5684.7326331639651
 31
0.0
  0
LINE
  5
7E27
  8
1
 10
29.852077307088621
 20
5678.7326331639651
 30
0.0
 11
2179.8520773070882
 21
5678.7326331639642
 31
0.0
  0
LINE
  5
7E28
  8
1
 10
2179.8520773070882
 20
5678.7326331639642
 30
0.0
 11
2179.8520773070882
 21
5684.7326331639651
 31
0.0
  0
LINE
  5
7E29
  8
1
 10
29.852077307088621
 20
5678.7326331639651
 30
0.0
 11
29.852077307088621
 21
5684.7326331639651
 31
0.0
  0
LINE
  5
7E2B
  8
1
 10
-1298.057051694547
 20
3530.7326331639651
 30
0.0
 11
1654.8520773070879
 21
3530.7326331639651
 31
0.0
  0
LINE
  5
7E2C
  8
1
 10
1654.8520773070879
 20
3530.7326331639651
 30
0.0
 11
1654.8520773070879
 21
3890.7326331639638
 31
0.0
  0
LINE
  5
7E2D
  8
1
 10
-1298.057051694547
 20
3530.7326331639651
 30
0.0
 11
-1298.057051694547
 21
3890.7326331639638
 31
0.0
  0
LINE
  5
7E2E
  8
1
 10
-1298.057051694547
 20
3890.7326331639651
 30
0.0
 11
1654.8520773070879
 21
3890.7326331639638
 31
0.0
  0
LINE
  5
7E2F
  8
1
 10
1504.8520773070879
 20
3610.7326331639638
 30
0.0
 11
1504.8520773070879
 21
3790.7326331639638
 31
0.0
  0
LINE
  5
7E30
  8
1
 10
704.85207730708862
 20
3610.7326331639638
 30
0.0
 11
704.85207730708862
 21
3790.7326331639638
 31
0.0
  0
LINE
  5
7E31
  8
1
 10
1654.8520773070879
 20
3624.7326331639638
 30
0.0
 11
2284.8520773070891
 21
3624.7326331639651
 31
0.0
  0
LINE
  5
7E32
  8
1
 10
1654.8520773070879
 20
3549.7326331639638
 30
0.0
 11
2284.8520773070891
 21
3549.7326331639638
 31
0.0
  0
LINE
  5
7E33
  8
1
 10
-1168.057051694547
 20
3610.7326331639651
 30
0.0
 11
1504.8520773070879
 21
3610.7326331639638
 31
0.0
  0
LINE
  5
7E34
  8
1
 10
-1168.057051694547
 20
3790.7326331639651
 30
0.0
 11
1504.8520773070879
 21
3790.7326331639638
 31
0.0
  0
LINE
  5
7E35
  8
1
 10
-1168.057051694547
 20
3610.7326331639638
 30
0.0
 11
-1168.057051694547
 21
3790.7326331639651
 31
0.0
  0
LINE
  5
7E36
  8
1
 10
-868.05705169454723
 20
3610.7326331639638
 30
0.0
 11
-868.05705169454723
 21
3790.7326331639651
 31
0.0
  0
LINE
  5
7E3B
  8
4
 10
6537.5888445345481
 20
-4837.3672664056203
 30
0.0
 11
6537.5888445345481
 21
-6037.3672664056203
 31
0.0
  0
LINE
  5
7E3C
  8
4
 10
1641.425359940142
 20
-4837.3672664056203
 30
0.0
 11
1641.425359940142
 21
-6037.3672664056203
 31
0.0
  0
LINE
  5
7E3D
  8
4
 10
-1358.574640059858
 20
-4837.3672664056203
 30
0.0
 11
-1358.574640059858
 21
-6037.3672664056203
 31
0.0
  0
LINE
  5
7E40
  8
4
 10
-1358.574640059858
 20
-6037.3672664056203
 30
0.0
 11
6537.5888445345481
 21
-6037.3672664056203
 31
0.0
  0
LINE
  5
7E41
  8
4
 10
-1358.574640059858
 20
-5437.3672664056221
 30
0.0
 11
6537.5888445345481
 21
-5437.3672664056221
 31
0.0
  0
TEXT
  5
7E42
  8
4
 10
-1127.562154978448
 20
-5248.1091112059439
 30
0.0
 40
300.0
  1
機器名称
  0
TEXT
  5
7E43
  8
4
 10
-1141.0260039110719
 20
-5907.4963260135546
 30
0.0
 40
300.0
  1
機器型番
  0
TEXT
  5
7E44
  8
4
 10
1807.4978328661309
 20
-5301.9366526602089
 30
0.0
 40
300.0
  1
ミツヤ多翼送風機
  0
TEXT
  5
7E45
  8
4
 10
1861.3523334530239
 20
-5934.409760725961
 30
0.0
 40
300.0
  1
MF＃12-4
  0
TEXT
  5
7E47
  8
4
 10
216.8386270284536
 20
7146.1233498315187
 30
0.0
 40
323.99999999999977
  1
床置ベット
  0
TEXT
  5
7E48
  8
4
 10
-2945.9438318095781
 20
8048.836159032212
 30
0.0
 40
432.0
  1
ベルト駆動式片吸込両持多翼ファン
 41
1.193982332750539
 72
     5
 11
6751.1030818572044
 21
8048.836159032212
 31
0.0
  0
LINE
  5
7E49
  8
4
 10
-3196.1230080652308
 20
7662.0028274252527
 30
0.0
 11
6971.0491198745731
 21
7662.0028274252527
 31
0.0
  0
LINE
  5
7E4A
  8
4
 10
-3196.1230080652308
 20
8862.0028274252545
 30
0.0
 11
6971.0491198745731
 21
8862.0028274252545
 31
0.0
  0
LINE
  5
7E4B
  8
4
 10
-1358.574640059858
 20
-4837.3672664056203
 30
0.0
 11
6537.5888445345481
 21
-4837.3672664056203
 31
0.0
  0
LINE
  5
7E4C
  8
4
 10
-3196.1230080652308
 20
8862.0028274252545
 30
0.0
 11
-3196.1230080652308
 21
7662.0028274252527
 31
0.0
  0
TEXT
  5
7E4D
  8
4
 10
-2738.9710651906489
 20
7139.4671671144861
 30
0.0
 40
323.99999999999977
  1
右回転上向
  0
TEXT
  5
7E4E
  8
4
 10
4684.8664753703124
 20
9081.9167908082782
 30
0.0
 40
336.0
  1
No.
  0
TEXT
  5
7E4F
  8
4
 10
3738.8254954746499
 20
7146.1233498315187
 30
0.0
 40
323.99999999999977
  1
縮尺：1/60
  0
LINE
  5
7E50
  8
4
 10
6971.0491198745731
 20
8862.0028274252545
 30
0.0
 11
6971.0491198745731
 21
7662.0028274252527
 31
0.0
  0
LINE
  5
7E51
  8
4
 10
8471.0491198745731
 20
10545.55030183642
 30
0.0
 11
8471.0491198745731
 21
10545.55030183642
 31
0.0
  0
LINE
  5
7E52
  8
4
 10
4514.7536540337596
 20
8933.1318005888297
 30
0.0
 11
4514.7536540337596
 21
9565.4638711349417
 31
0.0
  0
LINE
  5
7E53
  8
4
 10
4514.7536540337596
 20
9565.4638711349417
 30
0.0
 11
6971.0491198745731
 21
9565.4638711349417
 31
0.0
  0
LINE
  5
7E54
  8
4
 10
6971.0491198745731
 20
9565.4638711349417
 30
0.0
 11
6971.0491198745731
 21
8933.1318005888297
 31
0.0
  0
LINE
  5
7E55
  8
4
 10
6971.0491198745731
 20
8933.1318005888297
 30
0.0
 11
4514.7536540337596
 21
8933.1318005888297
 31
0.0
  0
LINE
  5
7E56
  8
4
 10
-4128.9508801254269
 20
-7154.4496981635739
 30
0.0
 11
-4128.9508801254269
 21
10545.55030183642
 31
0.0
  0
LINE
  5
7E57
  8
4
 10
-4128.9508801254269
 20
10545.55030183642
 30
0.0
 11
8471.0491198745731
 21
10545.55030183642
 31
0.0
  0
LINE
  5
7E58
  8
4
 10
8471.0491198745731
 20
10545.55030183642
 30
0.0
 11
8471.0491198745731
 21
-7154.4496981635739
 31
0.0
  0
LINE
  5
7E59
  8
4
 10
8471.0491198745731
 20
-7154.4496981635739
 30
0.0
 11
-4128.9508801254269
 21
-7154.4496981635739
 31
0.0
  0
LINE
  5
7E5A
  8
1
 10
5175.0871082668864
 20
-943.40041834052488
 30
0.0
 11
6813.0871082668828
 21
-943.40041834052488
 31
0.0
  0
LINE
  5
7E5B
  8
1
 10
5175.0871082668864
 20
-961.40041834052488
 30
0.0
 11
6813.0871082668828
 21
-961.40041834052579
 31
0.0
  0
LINE
  5
7E5C
  8
1
 10
5175.0871082668864
 20
-961.40041834052488
 30
0.0
 11
5175.0871082668864
 21
-943.40041834052488
 31
0.0
  0
LINE
  5
7E5D
  8
1
 10
5175.0871082668864
 20
-952.40041834052488
 30
0.0
 11
6813.0871082668828
 21
-952.40041834052579
 31
0.0
  0
LINE
  5
7E5E
  8
1
 10
6813.0871082668828
 20
-961.40041834052488
 30
0.0
 11
6813.0871082668828
 21
-943.40041834052488
 31
0.0
  0
DIMENSION
  5
7E61
  8
3
  2
*D1
 10
7709.8980415944388
 20
-1952.400418340525
 30
0.0
 11
7559.8980415944397
 21
-952.40041834052477
 31
0.0
 70
     0
  1
%%c<>
 13
6898.0871082668837
 23
47.59958165947387
 33
0.0
 14
6892.0871082668846
 24
-1952.400418340525
 34
0.0
 50
90.0
1001
ACAD
1000
DSTYLE
1002
{
1070
   287
1070
     3
1070
   287
1070
     3
1070
   287
1070
     3
1070
   287
1070
     3
1070
   287
1070
     3
1070
   287
1070
     3
1070
    40
1040
60.0
1070
   143
1040
0.039
1070
   172
1070
     1
1070
   173
1070
     0
1070
   271
1070
     4
1070
   272
1070
     4
1070
   279
1070
     0
1070
   284
1070
     0
1070
   285
1070
     0
1070
   286
1070
     0
1070
   341
1005
7DAC
1070
     5
1000
OPEN30
1002
}
  0
DIMENSION
  5
7E8E
  8
3
  2
*D2
 10
6823.0871082668837
 20
-4221.6744784385146
 30
0.0
 11
5793.0871082668837
 21
-4071.674478438516
 31
0.0
 70
     0
 13
4763.0871082668837
 23
-2722.4004183405241
 33
0.0
 14
6823.0871082668837
 24
-2722.4004183405241
 34
0.0
1001
ACAD
1000
DSTYLE
1002
{
1070
   287
1070
     3
1070
   287
1070
     3
1070
   287
1070
     3
1070
   287
1070
     3
1070
   287
1070
     3
1070
   287
1070
     3
1070
    40
1040
60.0
1070
   143
1040
0.039
1070
   172
1070
     1
1070
   173
1070
     0
1070
   271
1070
     4
1070
   272
1070
     4
1070
   279
1070
     0
1070
   284
1070
     0
1070
   285
1070
     0
1070
   286
1070
     0
1070
   341
1005
7DAC
1070
     5
1000
OPEN30
1002
}
  0
DIMENSION
  5
7E9B
  8
3
  2
*D3
 10
5994.0871082668846
 20
-3678.87201561965
 30
0.0
 11
5378.5871082668837
 21
-3528.87201561965
 31
0.0
 70
     0
 13
4763.0871082668837
 23
-2722.4004183405241
 33
0.0
 14
5994.0871082668846
 24
-3096.250785410673
 34
0.0
1001
ACAD
1000
DSTYLE
1002
{
1070
   287
1070
     3
1070
   287
1070
     3
1070
   287
1070
     3
1070
   287
1070
     3
1070
   287
1070
     3
1070
   287
1070
     3
1070
    40
1040
60.0
1070
   143
1040
0.039
1070
   172
1070
     1
1070
   173
1070
     0
1070
   271
1070
     4
1070
   272
1070
     4
1070
   279
1070
     0
1070
   284
1070
     0
1070
   285
1070
     0
1070
   286
1070
     0
1070
   341
1005
7DAC
1070
     5
1000
OPEN30
1002
}
  0
DIMENSION
  5
7EA8
  8
3
  2
*D4
 10
6823.0871082668837
 20
-3678.87201561965
 30
0.0
 11
6408.5871082668828
 21
-3528.87201561965
 31
0.0
 70
     0
 13
5994.0871082668846
 23
-3096.250785410673
 33
0.0
 14
6823.0871082668837
 24
-2722.4004183405241
 34
0.0
1001
ACAD
1000
DSTYLE
1002
{
1070
   287
1070
     4
1070
   287
1070
     4
1070
   287
1070
     4
1070
   287
1070
     4
1070
   287
1070
     4
1070
   287
1070
     4
1070
    40
1040
60.0
1070
   143
1040
0.039
1070
   172
1070
     1
1070
   173
1070
     0
1070
   271
1070
     4
1070
   272
1070
     4
1070
   279
1070
     1
1070
   284
1070
     0
1070
   285
1070
     0
1070
   286
1070
     0
1070
   341
1005
7DAC
1070
     5
1000
OPEN30
1002
}
  0
DIMENSION
  5
7EE7
  8
3
  2
*D5
 10
2284.8520773070891
 20
-4221.6744784385146
 30
0.0
 11
434.85207730708862
 21
-4071.674478438516
 31
0.0
 70
     0
 13
-1415.1479226929109
 23
-2722.400418340525
 33
0.0
 14
2284.8520773070891
 24
-2722.400418340525
 34
0.0
1001
ACAD
1000
DSTYLE
1002
{
1070
   287
1070
     3
1070
   287
1070
     3
1070
   287
1070
     3
1070
   287
1070
     3
1070
   287
1070
     3
1070
   287
1070
     3
1070
    40
1040
60.0
1070
   143
1040
0.039
1070
   172
1070
     1
1070
   173
1070
     0
1070
   271
1070
     4
1070
   272
1070
     4
1070
   279
1070
     0
1070
   284
1070
     0
1070
   285
1070
     0
1070
   286
1070
     0
1070
   341
1005
7DAC
1070
     5
1000
OPEN30
1002
}
  0
DIMENSION
  5
7EF4
  8
3
  2
*D6
 10
1104.8520773070879
 20
-3672.382360148556
 30
0.0
 11
-155.14792269291129
 21
-3522.382360148556
 31
0.0
 70
     0
 13
-1415.1479226929109
 23
-2722.400418340525
 33
0.0
 14
1104.8520773070879
 24
-3239.5664102275468
 34
0.0
1001
ACAD
1000
DSTYLE
1002
{
1070
   287
1070
     3
1070
   287
1070
     3
1070
   287
1070
     3
1070
   287
1070
     3
1070
   287
1070
     3
1070
   287
1070
     3
1070
    40
1040
60.0
1070
   143
1040
0.039
1070
   172
1070
     1
1070
   173
1070
     0
1070
   271
1070
     4
1070
   272
1070
     4
1070
   279
1070
     0
1070
   284
1070
     0
1070
   285
1070
     0
1070
   286
1070
     0
1070
   341
1005
7DAC
1070
     5
1000
OPEN30
1002
}
  0
DIMENSION
  5
7F01
  8
3
  2
*D7
 10
2284.8520773070882
 20
-3672.382360148556
 30
0.0
 11
1694.8520773070879
 21
-3522.382360148556
 31
0.0
 70
     0
 13
1104.8520773070879
 23
-3239.5664102275468
 33
0.0
 14
2284.8520773070882
 24
-2722.400418340525
 34
0.0
1001
ACAD
1000
DSTYLE
1002
{
1070
   287
1070
     4
1070
   287
1070
     4
1070
   287
1070
     4
1070
   287
1070
     4
1070
   287
1070
     4
1070
   287
1070
     4
1070
    40
1040
60.0
1070
   143
1040
0.039
1070
   172
1070
     1
1070
   173
1070
     0
1070
   271
1070
     4
1070
   272
1070
     4
1070
   279
1070
     1
1070
   284
1070
     0
1070
   285
1070
     0
1070
   286
1070
     0
1070
   341
1005
7DAC
1070
     5
1000
OPEN30
1002
}
  0
DIMENSION
  5
803C
  8
3
  2
*D8
 10
1016.852077307089
 20
870.24175923690916
 30
0.0
 11
-13.147922692910569
 21
1020.241759236909
 31
0.0
 70
     0
 13
-1043.14792269291
 23
322.59958165947501
 33
0.0
 14
1016.852077307089
 24
322.5995816594745
 34
0.0
1001
ACAD
1000
DSTYLE
1002
{
1070
   287
1070
     3
1070
   287
1070
     3
1070
   287
1070
     3
1070
   287
1070
     3
1070
   287
1070
     3
1070
   287
1070
     3
1070
    40
1040
60.0
1070
   143
1040
0.039
1070
   172
1070
     1
1070
   173
1070
     0
1070
   271
1070
     4
1070
   272
1070
     4
1070
   279
1070
     0
1070
   284
1070
     0
1070
   285
1070
     0
1070
   286
1070
     0
1070
   341
1005
7DAC
1070
     5
1000
OPEN30
1002
}
  0
LINE
  5
8314
  8
1
 10
904.85207730708873
 20
-961.40041834052488
 30
0.0
 11
904.85207730708873
 21
-943.40041834052488
 31
0.0
  0
LINE
  5
8552
  8
1
 10
-75.147922692911365
 20
5530.7326331639642
 30
0.0
 11
-75.147922692911379
 21
5609.7326331639661
 31
0.0
  0
DIMENSION
  5
8553
  8
3
  2
*D9
 10
2284.8520773070891
 20
6211.2875301007589
 30
0.0
 11
1104.8520773070879
 21
6361.2875301007589
 31
0.0
 70
     0
 13
-75.147922692911379
 23
5609.7326331639642
 33
0.0
 14
2284.8520773070891
 24
5609.7326331639642
 34
0.0
1001
ACAD
1000
DSTYLE
1002
{
1070
   287
1070
     3
1070
   287
1070
     3
1070
   287
1070
     3
1070
   287
1070
     3
1070
   287
1070
     3
1070
    40
1040
60.0
1070
   143
1040
0.039
1070
   172
1070
     1
1070
   173
1070
     0
1070
   271
1070
     4
1070
   272
1070
     4
1070
   279
1070
     0
1070
   284
1070
     0
1070
   285
1070
     0
1070
   286
1070
     0
1070
   341
1005
7DAC
1070
     5
1000
OPEN30
1002
}
  0
DIMENSION
  5
8569
  8
3
  2
*D10
 10
-1415.1479226929109
 20
6211.2875301007589
 30
0.0
 11
-745.14792269291127
 21
6361.2875301007589
 31
0.0
 70
     0
 13
-75.147922692911379
 23
5609.7326331639642
 33
0.0
 14
-1415.1479226929109
 24
4749.7326331639651
 34
0.0
1001
ACAD
1000
DSTYLE
1002
{
1070
   287
1070
     3
1070
   287
1070
     3
1070
   287
1070
     3
1070
   287
1070
     3
1070
   287
1070
     3
1070
    40
1040
60.0
1070
   143
1040
0.039
1070
   172
1070
     1
1070
   173
1070
     0
1070
   271
1070
     4
1070
   272
1070
     4
1070
   279
1070
     0
1070
   284
1070
     0
1070
   285
1070
     0
1070
   286
1070
     0
1070
   341
1005
7DAC
1070
     5
1000
OPEN30
1002
}
  0
LINE
  5
85E8
  8
2
 10
-1018.057051694547
 20
-1517.6345324142089
 30
0.0
 11
-1018.057051694547
 21
-2659.3719263184239
 31
0.0
  0
LINE
  5
85E9
  8
1
 10
-1248.057051694547
 20
-1612.400418340525
 30
0.0
 11
-1248.057051694547
 21
-1837.400418340525
 31
0.0
  0
LINE
  5
85EA
  8
1
 10
-818.05705169454723
 20
-1612.400418340525
 30
0.0
 11
-818.05705169454723
 21
-1837.400418340527
 31
0.0
  0
ARC
  5
85EB
  8
1
 10
-1018.057051694547
 20
-2182.400418340525
 30
0.0
 40
310.0
 50
300.1023080683089
 51
239.89769193169101
  0
LINE
  5
85EC
  8
1
 10
-1228.057051694547
 20
-1857.4004183405259
 30
0.0
 11
-838.05705169454711
 21
-1857.4004183405259
 31
0.0
  0
LINE
  5
85ED
  8
1
 10
-1173.5361839701529
 20
-2450.5910957079991
 30
0.0
 11
-862.5779194189389
 21
-2450.5910957079968
 31
0.0
  0
LINE
  5
85EF
  8
2
 10
-1355.516015884305
 20
-2182.400418340525
 30
0.0
 11
-674.77982950151716
 21
-2182.400418340525
 31
0.0
  0
LINE
  5
85F0
  8
1
 10
-1298.057051694554
 20
-2315.441765297056
 30
0.0
 11
-1298.057051694545
 21
-2462.400418340525
 31
0.0
  0
LINE
  5
85F1
  8
1
 10
-1298.057051694545
 20
-2462.400418340525
 30
0.0
 11
-1188.057051694545
 21
-2462.400418340525
 31
0.0
  0
LINE
  5
85F2
  8
1
 10
-1298.057051694547
 20
-2432.4004183405259
 30
0.0
 11
-1201.3600794927791
 21
-2432.4004183405259
 31
0.0
  0
LINE
  5
85F3
  8
1
 10
-1188.057051694547
 20
-2441.630046276839
 30
0.0
 11
-1188.057051694547
 21
-2462.400418340525
 31
0.0
  0
LINE
  5
85F4
  8
1
 10
-1246.557051694547
 20
-2417.2309698508798
 30
0.0
 11
-1246.557051694547
 21
-2508.8565329231351
 31
0.0
  0
ARC
  5
85F5
  8
1
 10
-1228.057051694547
 20
-1837.400418340525
 30
0.0
 40
20.0
 50
180.0
 51
270.0
  0
LINE
  5
85F6
  8
1
 10
-848.05705169454734
 20
-2462.400418340525
 30
0.0
 11
-738.05705169454723
 21
-2462.400418340525
 31
0.0
  0
LINE
  5
85F7
  8
1
 10
-848.05705169454734
 20
-2441.630046276839
 30
0.0
 11
-848.05705169454734
 21
-2462.400418340525
 31
0.0
  0
LINE
  5
85F8
  8
1
 10
-738.05705169454723
 20
-2315.441765297071
 30
0.0
 11
-738.05705169454723
 21
-2462.400418340525
 31
0.0
  0
LINE
  5
85F9
  8
1
 10
-834.75402389631461
 20
-2432.4004183405259
 30
0.0
 11
-738.05705169454723
 21
-2432.4004183405259
 31
0.0
  0
LINE
  5
85FA
  8
1
 10
-789.55705169454723
 20
-2417.2309698508798
 30
0.0
 11
-789.55705169454723
 21
-2504.6917346016689
 31
0.0
  0
ARC
  5
85FB
  8
1
 10
-838.05705169454711
 20
-1837.400418340527
 30
0.0
 40
20.0
 50
270.0
 51
0.0
  0
LINE
  5
85FC
  8
1
 10
-1228.057051694547
 20
-1592.400418340525
 30
0.0
 11
-838.05705169454711
 21
-1592.400418340525
 31
0.0
  0
ARC
  5
85FD
  8
1
 10
-1228.057051694547
 20
-1612.400418340525
 30
0.0
 40
20.0
 50
90.0
 51
180.0
  0
ARC
  5
85FE
  8
1
 10
-838.05705169454711
 20
-1612.400418340525
 30
0.0
 40
20.0
 50
0.0
 51
90.0
  0
LINE
  5
85FF
  8
2
 10
-1309.6315417093399
 20
-1732.4004183405259
 30
0.0
 11
-1155.334604189653
 21
-1732.4004183405259
 31
0.0
  0
LINE
  5
8600
  8
1
 10
-1407.522006587039
 20
-2462.400418340525
 30
0.0
 11
-628.59209680205458
 21
-2462.400418340525
 31
0.0
  0
LINE
  5
8602
  8
1
 10
-628.59209680205458
 20
-2462.400418340525
 30
0.0
 11
-618.05705169454723
 21
-2542.400418340525
 31
0.0
  0
LINE
  5
8603
  8
1
 10
-1407.522006587039
 20
-2462.400418340525
 30
0.0
 11
-1418.057051694547
 21
-2542.400418340525
 31
0.0
  0
LINE
  5
8604
  8
1
 10
-1415.1479226929109
 20
-2542.400418340525
 30
0.0
 11
-1418.057051694547
 21
-2542.400418340525
 31
0.0
  0
LINE
  5
8617
  8
1
 10
-708.05705169454723
 20
3951.7326331639651
 30
0.0
 11
-708.05705169454723
 21
3890.7326331639651
 31
0.0
  0
LINE
  5
8618
  8
2
 10
-1018.057051694547
 20
3951.7326331639651
 30
0.0
 11
-1018.057051694547
 21
3645.777026795548
 31
0.0
  0
LINE
  5
861B
  8
1
 10
-1122.14792269291
 20
4541.0418950137828
 30
0.0
 11
-1328.0570516945479
 21
4541.0418950137828
 31
0.0
  0
LINE
  5
861C
  8
1
 10
-1122.14792269291
 20
4710.9258576349384
 30
0.0
 11
-1278.057051694547
 21
4710.9258576349384
 31
0.0
  0
LINE
  5
8628
  8
1
 10
-1298.057051694547
 20
3866.9258576349412
 30
0.0
 11
-1328.057051694545
 21
3866.9258576349412
 31
0.0
  0
LINE
  5
8629
  8
1
 10
-708.05705169454632
 20
3901.4258576349362
 30
0.0
 11
-1328.057051694545
 21
3901.4258576349371
 31
0.0
  0
LINE
  5
8640
  8
1
 10
-618.05705169454734
 20
3927.400798312447
 30
0.0
 11
-618.05705169454723
 21
3951.7326331639651
 31
0.0
  0
LINE
  5
8642
  8
1
 10
-1418.057051694547
 20
3927.400798312447
 30
0.0
 11
-1418.0570516945461
 21
4474.5558672326943
 31
0.0
  0
LINE
  5
8643
  8
1
 10
-1418.0570516945461
 20
4474.5558672326943
 30
0.0
 11
-1328.057051694547
 21
4474.5558672326952
 31
0.0
  0
LINE
  5
8644
  8
1
 10
-1418.057051694547
 20
3927.400798312447
 30
0.0
 11
-1328.057051694545
 21
3927.400798312447
 31
0.0
  0
LINE
  5
8646
  8
1
 10
-708.05705169454723
 20
3927.400798312447
 30
0.0
 11
-618.05705169454734
 21
3927.4007983124461
 31
0.0
  0
DIMENSION
  5
8651
  8
3
  2
*D11
 10
2284.8520773070891
 20
2739.3151865753821
 30
0.0
 11
434.85207730708862
 21
2889.3151865753821
 31
0.0
 70
     0
 13
-1415.1479226929109
 23
3549.7326331639638
 33
0.0
 14
2284.8520773070891
 24
3549.7326331639638
 34
0.0
1001
ACAD
1000
DSTYLE
1002
{
1070
   287
1070
     3
1070
   287
1070
     3
1070
   287
1070
     3
1070
   287
1070
     3
1070
   287
1070
     3
1070
    40
1040
60.0
1070
   143
1040
0.039
1070
   172
1070
     1
1070
   173
1070
     0
1070
   271
1070
     4
1070
   272
1070
     4
1070
   279
1070
     0
1070
   284
1070
     0
1070
   285
1070
     0
1070
   286
1070
     0
1070
   341
1005
7DAC
1070
     5
1000
OPEN30
1002
}
  0
DIMENSION
  5
8667
  8
3
  2
*D12
 10
-2270.0895603809331
 20
3549.7326331639638
 30
0.0
 11
-2420.0895603809331
 21
4149.7326331639651
 31
0.0
 70
     0
 13
-1415.1479226929109
 23
4749.7326331639651
 33
0.0
 14
-1415.1479226929109
 24
3549.7326331639638
 34
0.0
 50
90.0
1001
ACAD
1000
DSTYLE
1002
{
1070
   287
1070
     3
1070
   287
1070
     3
1070
   287
1070
     3
1070
   287
1070
     3
1070
   287
1070
     3
1070
    40
1040
60.0
1070
   143
1040
0.039
1070
   172
1070
     1
1070
   173
1070
     0
1070
   271
1070
     4
1070
   272
1070
     4
1070
   279
1070
     0
1070
   284
1070
     0
1070
   285
1070
     0
1070
   286
1070
     0
1070
   341
1005
7DAC
1070
     5
1000
OPEN30
1002
}
  0
DIMENSION
  5
867D
  8
3
  2
*D13
 10
3231.0711652073951
 20
5609.7326331639642
 30
0.0
 11
3081.0711652073942
 21
4579.7326331639651
 31
0.0
 70
     0
 13
2284.8520773070891
 23
3549.7326331639638
 33
0.0
 14
2284.8520773070891
 24
5609.7326331639642
 34
0.0
 50
90.0
1001
ACAD
1000
DSTYLE
1002
{
1070
   287
1070
     3
1070
   287
1070
     3
1070
   287
1070
     3
1070
   287
1070
     3
1070
   287
1070
     3
1070
    40
1040
60.0
1070
   143
1040
0.039
1070
   172
1070
     1
1070
   173
1070
     0
1070
   271
1070
     4
1070
   272
1070
     4
1070
   279
1070
     0
1070
   284
1070
     0
1070
   285
1070
     0
1070
   286
1070
     0
1070
   341
1005
7DAC
1070
     5
1000
OPEN30
1002
}
  0
CIRCLE
  5
8794
  8
1
 10
-1015.147922692911
 20
-2182.400418340525
 30
0.0
 40
150.0
  0
ARC
  5
8795
  8
1
 10
-1015.147922692911
 20
-2182.400418340525
 30
0.0
 40
280.0
 50
126.4463633043685
 51
293.79728024871008
  0
LINE
  5
88E4
  8
1
 10
-1328.057051694547
 20
4519.6470688482123
 30
0.0
 11
-1328.057051694545
 21
3866.9258576349412
 31
0.0
  0
LINE
  5
88E5
  8
1
 10
-1303.5059212658
 20
4541.0418950137828
 30
0.0
 11
-1328.0570516945461
 21
4519.6470688482123
 31
0.0
  0
ARC
  5
88E6
  8
1
 10
-1278.057051694547
 20
4660.9258576349393
 30
0.0
 40
50.0
 50
90.000000000000171
 51
180.00000000000011
  0
LINE
  5
88E7
  8
1
 10
-1328.057051694547
 20
4660.9258576349393
 30
0.0
 11
-1328.0570516945479
 21
4541.0418950137819
 31
0.0
  0
LINE
  5
9215
  8
1
 10
-988.80626129362895
 20
-943.40041834052488
 30
0.0
 11
-988.80626129362884
 21
-961.40041834052511
 31
0.0
  0
LINE
  5
9216
  8
2
 10
-988.80626129362884
 20
-952.40041834052488
 30
0.0
 11
-1781.746763676244
 21
-952.40041834052488
 31
0.0
  0
LINE
  5
9217
  8
1
 10
2609.1573884139061
 20
-961.40041834052488
 30
0.0
 11
1304.8520773070879
 21
-961.40041834052488
 31
0.0
  0
LINE
  5
9218
  8
1
 10
2609.1573884139061
 20
-952.40041834052488
 30
0.0
 11
1304.8520773070879
 21
-952.40041834052488
 31
0.0
  0
LINE
  5
9219
  8
1
 10
2609.1573884139061
 20
-943.40041834052488
 30
0.0
 11
1304.8520773070879
 21
-943.40041834052488
 31
0.0
  0
LINE
  5
921A
  8
1
 10
1304.8520773070879
 20
-961.40041834052488
 30
0.0
 11
1304.8520773070879
 21
-943.40041834052488
 31
0.0
  0
LINE
  5
921B
  8
2
 10
904.85207730708851
 20
-952.40041834052488
 30
0.0
 11
1304.8520773070879
 21
-952.40041834052488
 31
0.0
  0
LINE
  5
921D
  8
1
 10
2609.1573884139061
 20
-961.40041834052488
 30
0.0
 11
2609.1573884139061
 21
-943.40041834052488
 31
0.0
  0
LINE
  5
921E
  8
2
 10
2609.1573884139061
 20
-952.40041834052488
 30
0.0
 11
3379.0321370430902
 21
-952.40041834052488
 31
0.0
  0
LINE
  5
92D3
  8
1
 10
-1103.265241962544
 20
-2061.0112176481498
 30
0.0
 11
869.87255925473505
 21
-628.69588316085867
 31
0.0
  0
LINE
  5
92D4
  8
1
 10
-1181.487524407484
 20
-1957.164682051992
 30
0.0
 11
778.1135739391774
 21
-509.97307920233658
 31
0.0
  0
LINE
  5
92D5
  8
1
 10
-953.49840093630462
 20
-2319.1459355145139
 30
0.0
 11
1269.250801991373
 21
-1317.0551308044951
 31
0.0
  0
LINE
  5
92D6
  8
1
 10
-902.1674007645986
 20
-2438.594488655991
 30
0.0
 11
1326.7781025234169
 21
-1455.638770745905
 31
0.0
  0
DIMENSION
  5
92D7
  8
3
  2
*D14
 10
1104.8520773070879
 20
1370.362691306734
 30
0.0
 11
30.852077307089079
 21
1520.362691306734
 31
0.0
 70
     0
 13
-1043.14792269291
 23
322.59958165947501
 33
0.0
 14
1104.8520773070879
 24
572.54907731362619
 34
0.0
1001
ACAD
1000
DSTYLE
1002
{
1070
   287
1070
     3
1070
   287
1070
     3
1070
    40
1040
60.0
1070
   143
1040
0.039
1070
   172
1070
     1
1070
   173
1070
     0
1070
   271
1070
     4
1070
   272
1070
     4
1070
   279
1070
     0
1070
   284
1070
     0
1070
   285
1070
     0
1070
   286
1070
     0
1070
   341
1005
7DAC
1070
     5
1000
OPEN30
1002
}
  0
DIMENSION
  5
92EE
  8
3
  2
*D15
 10
2546.8520773070882
 20
1370.362691306734
 30
0.0
 11
1825.8520773070879
 21
1520.362691306734
 31
0.0
 70
     0
 13
1104.8520773070879
 23
572.54907731362619
 33
0.0
 14
2546.8520773070882
 24
-1099.400418340525
 34
0.0
1001
ACAD
1000
DSTYLE
1002
{
1070
   287
1070
     4
1070
   287
1070
     4
1070
    40
1040
60.0
1070
   143
1040
0.039
1070
   172
1070
     1
1070
   173
1070
     0
1070
   271
1070
     4
1070
   272
1070
     4
1070
   279
1070
     1
1070
   284
1070
     0
1070
   285
1070
     0
1070
   286
1070
     0
1070
   341
1005
7DAC
1070
     5
1000
OPEN30
1002
}
  0
DIMENSION
  5
9316
  8
3
  2
*D16
 10
-2533.7421004139319
 20
-952.40041834052477
 30
0.0
 11
-2683.7421004139319
 21
-314.90041834052499
 31
0.0
 70
     0
 13
-1122.14792269291
 23
322.59958165947501
 33
0.0
 14
-1781.746763676244
 24
-952.40041834052488
 34
0.0
 50
90.0
1001
ACAD
1000
DSTYLE
1002
{
1070
   287
1070
     3
1070
   287
1070
     3
1070
    40
1040
60.0
1070
   143
1040
0.039
1070
   172
1070
     1
1070
   173
1070
     0
1070
   271
1070
     4
1070
   272
1070
     4
1070
   279
1070
     0
1070
   284
1070
     0
1070
   285
1070
     0
1070
   286
1070
     0
1070
   341
1005
7DAC
1070
     5
1000
OPEN30
1002
}
  0
DIMENSION
  5
9323
  8
3
  2
*D17
 10
-2533.7421004139328
 20
-2722.400418340525
 30
0.0
 11
-2683.7421004139319
 21
-1837.400418340525
 31
0.0
 70
     0
 13
-1781.746763676244
 23
-952.40041834052488
 33
0.0
 14
-1415.1479226929109
 24
-2722.400418340525
 34
0.0
 50
90.0
1001
ACAD
1000
DSTYLE
1002
{
1070
   287
1070
     4
1070
   287
1070
     4
1070
    40
1040
60.0
1070
   143
1040
0.039
1070
   172
1070
     1
1070
   173
1070
     0
1070
   271
1070
     4
1070
   272
1070
     4
1070
   279
1070
     1
1070
   284
1070
     0
1070
   285
1070
     0
1070
   286
1070
     0
1070
   341
1005
7DAC
1070
     5
1000
OPEN30
1002
}
  0
LINE
  5
94D2
  8
1
 10
5165.0871082668837
 20
316.59958165947489
 30
0.0
 11
6823.0871082668837
 21
316.59958165947489
 31
0.0
  0
LINE
  5
94D3
  8
1
 10
5165.0871082668837
 20
247.59958165947489
 30
0.0
 11
6823.0871082668837
 21
247.59958165947489
 31
0.0
  0
LINE
  5
94D4
  8
1
 10
5165.0871082668837
 20
322.59958165947501
 30
0.0
 11
6823.0871082668837
 21
322.59958165947501
 31
0.0
  0
LINE
  5
94D5
  8
1
 10
5165.0871082668837
 20
247.59958165947489
 30
0.0
 11
5165.0871082668837
 21
322.59958165947501
 31
0.0
  0
LINE
  5
94D6
  8
1
 10
6823.0871082668837
 20
247.59958165947489
 30
0.0
 11
6823.0871082668837
 21
322.59958165947501
 31
0.0
  0
LINE
  5
94EA
  8
3
 10
5994.0871082668846
 20
1201.572158288785
 30
0.0
 11
5994.0871082668846
 21
1261.572158288785
 31
0.0
  0
DIMENSION
  5
950A
  8
3
  2
*D19
 10
6744.0871082668846
 20
866.77899218520167
 30
0.0
 11
5994.0871082668846
 21
1016.778992185201
 31
0.0
 70
     0
 13
5244.0871082668846
 23
322.59958165947501
 33
0.0
 14
6744.0871082668846
 24
322.59958165947501
 34
0.0
1001
ACAD
1000
DSTYLE
1002
{
1070
   287
1070
     3
1070
    40
1040
60.0
1070
   143
1040
0.039
1070
   172
1070
     1
1070
   271
1070
     4
1070
   272
1070
     4
1070
   279
1070
     0
1070
   284
1070
     0
1070
   285
1070
     0
1070
   286
1070
     0
1070
     6
1000
OPEN
1070
     7
1000
OPEN
1002
}
  0
DIMENSION
  5
9517
  8
3
  2
*D20
 10
6898.0871082668837
 20
1373.36513337717
 30
0.0
 11
6446.0871082668864
 21
1523.36513337717
 31
0.0
 70
     0
 13
5994.0871082668846
 23
1201.572158288785
 33
0.0
 14
6898.0871082668837
 24
122.5995816594741
 34
0.0
1001
ACAD
1000
DSTYLE
1002
{
1070
   287
1070
     3
1070
    40
1040
60.0
1070
   143
1040
0.039
1070
   172
1070
     1
1070
   271
1070
     4
1070
   272
1070
     4
1070
   279
1070
     0
1070
   284
1070
     0
1070
   285
1070
     0
1070
   286
1070
     0
1070
     6
1000
OPEN
1070
     7
1000
OPEN
1002
}
  0
DIMENSION
  5
9577
  8
3
  2
*D21
 10
4744.0871082668837
 20
1368.025338579966
 30
0.0
 11
5369.0871082668846
 21
1565.1681957228229
 31
0.0
 70
     0
 13
5994.0871082668846
 23
1201.572158288785
 33
0.0
 14
4744.0871082668837
 24
-402.40041834052539
 34
0.0
1001
ACAD
1000
DSTYLE
1002
{
1070
   287
1070
     3
1070
     3
1000
(<>)
1070
    40
1040
60.0
1070
   143
1040
0.039
1070
   172
1070
     1
1070
   271
1070
     4
1070
   272
1070
     4
1070
   279
1070
     0
1070
   284
1070
     0
1070
   285
1070
     0
1070
   286
1070
     0
1070
     6
1000
OPEN
1070
     7
1000
OPEN
1002
}
  0
LINE
  5
957C
  8
1
 10
-1122.14792269291
 20
3951.7326331639651
 30
0.0
 11
-1122.14792269291
 21
5609.7326331639642
 31
0.0
  0
LINE
  5
957D
  8
1
 10
1095.8520773070891
 20
3951.7326331639651
 30
0.0
 11
1095.8520773070891
 21
5609.7326331639661
 31
0.0
  0
LINE
  5
957E
  8
1
 10
-1122.14792269291
 20
5609.7326331639642
 30
0.0
 11
1095.8520773070891
 21
5609.7326331639642
 31
0.0
  0
LINE
  5
957F
  8
1
 10
-1122.14792269291
 20
3951.7326331639651
 30
0.0
 11
1095.8520773070891
 21
3951.7326331639651
 31
0.0
  0
LINE
  5
9580
  8
1
 10
-1043.14792269291
 20
4030.7326331639651
 30
0.0
 11
-1043.14792269291
 21
5530.7326331639642
 31
0.0
  0
LINE
  5
9581
  8
1
 10
1016.852077307089
 20
4030.7326331639651
 30
0.0
 11
1016.852077307089
 21
5530.732633163967
 31
0.0
  0
LINE
  5
9583
  8
1
 10
1095.8520773070891
 20
5530.7326331639642
 30
0.0
 11
2546.8520773070882
 21
5530.7326331639642
 31
0.0
  0
LINE
  5
9584
  8
1
 10
1095.8520773070891
 20
4030.7326331639651
 30
0.0
 11
2546.8520773070882
 21
4030.7326331639638
 31
0.0
  0
LINE
  5
9586
  8
1
 10
-1043.14792269291
 20
4030.7326331639651
 30
0.0
 11
1016.852077307089
 21
5530.7326331639651
 31
0.0
  0
LINE
  5
9587
  8
1
 10
-1043.14792269291
 20
5530.7326331639642
 30
0.0
 11
1016.852077307089
 21
4030.7326331639651
 31
0.0
  0
LINE
  5
9588
  8
1
 10
2546.8520773070882
 20
4030.7326331639638
 30
0.0
 11
2546.8520773070882
 21
5530.7326331639642
 31
0.0
  0
LINE
  5
958A
  8
1
 10
2284.8520773070891
 20
5530.7326331639642
 30
0.0
 11
2284.8520773070891
 21
5609.7326331639642
 31
0.0
  0
ENDSEC
  0
EOF
