  0
SECTION
  2
HEADER
  9
$ACADVER
  1
AC1009
  9
$INSBASE
 10
0.0
 20
0.0
 30
0.0
  9
$EXTMIN
 10
7786.1666978340372
 20
-14237.419212031229
 30
0.0
  9
$EXTMAX
 10
19336.166697834029
 20
1987.580787968772
 30
0.0
  9
$LIMMIN
 10
0.0
 20
0.0
  9
$LIMMAX
 10
297.0
 20
210.0
  9
$ORTHOMODE
 70
     0
  9
$REGENMODE
 70
     1
  9
$FILLMODE
 70
     1
  9
$QTEXTMODE
 70
     0
  9
$MIRRTEXT
 70
     0
  9
$DRAGMODE
 70
     2
  9
$LTSCALE
 40
275.0
  9
$OSMODE
 70
    37
  9
$ATTMODE
 70
     1
  9
$TEXTSIZE
 40
137.5
  9
$TRACEWID
 40
0.05
  9
$TEXTSTYLE
  7
STANDARD
  9
$CLAYER
  8
SP
  9
$CELTYPE
  6
BYLAYER
  9
$CECOLOR
 62
   256
  9
$DIMSCALE
 40
55.0
  9
$DIMASZ
 40
2.0
  9
$DIMEXO
 40
1.0
  9
$DIMDLI
 40
10.0
  9
$DIMRND
 40
0.0
  9
$DIMDLE
 40
0.0
  9
$DIMEXE
 40
1.0
  9
$DIMTP
 40
0.0
  9
$DIMTM
 40
0.0
  9
$DIMTXT
 40
2.5
  9
$DIMCEN
 40
0.0
  9
$DIMTSZ
 40
0.0
  9
$DIMTOL
 70
     0
  9
$DIMLIM
 70
     0
  9
$DIMTIH
 70
     0
  9
$DIMTOH
 70
     0
  9
$DIMSE1
 70
     1
  9
$DIMSE2
 70
     1
  9
$DIMTAD
 70
     1
  9
$DIMZIN
 70
     8
  9
$DIMBLK
  1

  9
$DIMASO
 70
     1
  9
$DIMSHO
 70
     1
  9
$DIMPOST
  1
(<>)
  9
$DIMAPOST
  1

  9
$DIMALT
 70
     0
  9
$DIMALTD
 70
     2
  9
$DIMALTF
 40
0.03937
  9
$DIMLFAC
 40
1.0
  9
$DIMTOFL
 70
     1
  9
$DIMTVP
 40
0.0
  9
$DIMTIX
 70
     0
  9
$DIMSOXD
 70
     0
  9
$DIMSAH
 70
     1
  9
$DIMBLK1
  1
NONE
  9
$DIMBLK2
  1
NONE
  9
$DIMSTYLE
  2
MATSU
  9
$DIMCLRD
 70
   256
  9
$DIMCLRE
 70
   256
  9
$DIMCLRT
 70
   256
  9
$DIMTFAC
 40
1.0
  9
$DIMGAP
 40
1.0
  9
$LUNITS
 70
     2
  9
$LUPREC
 70
     4
  9
$SKETCHINC
 40
0.1
  9
$FILLETRAD
 40
0.0
  9
$AUNITS
 70
     0
  9
$AUPREC
 70
     2
  9
$MENU
  1
acad
  9
$ELEVATION
 40
0.0
  9
$PELEVATION
 40
0.0
  9
$THICKNESS
 40
0.0
  9
$LIMCHECK
 70
     0
  9
$BLIPMODE
 70
     0
  9
$CHAMFERA
 40
20.0
  9
$CHAMFERB
 40
20.0
  9
$SKPOLY
 70
     0
  9
$TDCREATE
 40
2453950.639283854
  9
$TDUPDATE
 40
2454953.8321039458
  9
$TDINDWG
 40
0.3553922338
  9
$TDUSRTIMER
 40
0.3553922338
  9
$USRTIMER
 70
     1
  9
$ANGBASE
 50
0.0
  9
$ANGDIR
 70
     0
  9
$PDMODE
 70
     0
  9
$PDSIZE
 40
1.0
  9
$PLINEWID
 40
0.0
  9
$COORDS
 70
     1
  9
$SPLFRAME
 70
     0
  9
$SPLINETYPE
 70
     6
  9
$SPLINESEGS
 70
     8
  9
$ATTDIA
 70
     0
  9
$ATTREQ
 70
     1
  9
$HANDLING
 70
 10241
  9
$HANDSEED
  5
A477
  9
$SURFTAB1
 70
     6
  9
$SURFTAB2
 70
     6
  9
$SURFTYPE
 70
     6
  9
$SURFU
 70
     6
  9
$SURFV
 70
     6
  9
$UCSNAME
  2

  9
$UCSORG
 10
0.0
 20
-0.0000000000000568
 30
0.0
  9
$UCSXDIR
 10
1.0
 20
0.0
 30
0.0
  9
$UCSYDIR
 10
0.0
 20
1.0
 30
0.0
  9
$PUCSNAME
  2

  9
$PUCSORG
 10
0.0
 20
0.0
 30
0.0
  9
$PUCSXDIR
 10
1.0
 20
0.0
 30
0.0
  9
$PUCSYDIR
 10
0.0
 20
1.0
 30
0.0
  9
$USERI1
 70
     0
  9
$USERI2
 70
     0
  9
$USERI3
 70
     0
  9
$USERI4
 70
     0
  9
$USERI5
 70
     0
  9
$USERR1
 40
0.0
  9
$USERR2
 40
0.0
  9
$USERR3
 40
0.0
  9
$USERR4
 40
0.0
  9
$USERR5
 40
0.0
  9
$WORLDVIEW
 70
     1
  9
$SHADEDGE
 70
     3
  9
$SHADEDIF
 70
    70
  9
$TILEMODE
 70
     1
  9
$MAXACTVP
 70
    16
  9
$PLIMCHECK
 70
     0
  9
$PEXTMIN
 10
1.0000000000000000E+020
 20
1.0000000000000000E+020
 30
1.0000000000000000E+020
  9
$PEXTMAX
 10
-1.0000000000000000E+020
 20
-1.0000000000000000E+020
 30
-1.0000000000000000E+020
  9
$PLIMMIN
 10
0.0
 20
0.0
  9
$PLIMMAX
 10
12.0
 20
9.0
  9
$UNITMODE
 70
     0
  9
$VISRETAIN
 70
     0
  9
$PLINEGEN
 70
     0
  9
$PSLTSCALE
 70
     0
  0
ENDSEC
  0
SECTION
  2
TABLES
  0
TABLE
  2
VPORT
 70
     2
  0
VPORT
  2
*ACTIVE
 70
     0
 10
0.0
 20
0.0
 11
1.0
 21
1.0
 12
22453.56669783403
 22
-4492.383698012537
 13
0.0
 23
0.0
 14
5.0
 24
5.0
 15
0.0
 25
0.0
 16
0.0
 26
0.0
 36
1.0
 17
0.0
 27
0.0
 37
0.0
 40
19490.071028037379
 41
1.5051150895140659
 42
50.0
 43
0.0
 44
0.0
 50
0.0
 51
0.0
 71
     0
 72
   100
 73
     1
 74
     0
 75
     0
 76
     0
 77
     0
 78
     0
  0
ENDTAB
  0
TABLE
  2
LTYPE
 70
     3
  0
LTYPE
  2
CONTINUOUS
 70
     0
  3
Solid line
 72
    65
 73
     0
 40
0.0
  0
LTYPE
  2
CENTER
 70
     0
  3
____ _ ____ _ ____ _ ____ _ ____ _ ____ _ ____ 
 72
    65
 73
     4
 40
2.0
 49
1.25
 49
-0.25
 49
0.25
 49
-0.25
  0
LTYPE
  2
PHANTOM
 70
     0
  3
______  __  __  ______  __  __  ______  __  __ 
 72
    65
 73
     6
 40
2.5
 49
1.25
 49
-0.25
 49
0.25
 49
-0.25
 49
0.25
 49
-0.25
  0
ENDTAB
  0
TABLE
  2
LAYER
 70
     7
  0
LAYER
  2
0
 70
     0
 62
     7
  6
CONTINUOUS
  0
LAYER
  2
CT
 70
     0
 62
     3
  6
CENTER
  0
LAYER
  2
FUTO
 70
     0
 62
     4
  6
CONTINUOUS
  0
LAYER
  2
SL
 70
     0
 62
     1
  6
PHANTOM
  0
LAYER
  2
SP
 70
     0
 62
     2
  6
CONTINUOUS
  0
LAYER
  2
DEFPOINTS
 70
     0
 62
     7
  6
CONTINUOUS
  0
LAYER
  2
4
 70
     0
 62
     7
  6
CONTINUOUS
  0
ENDTAB
  0
TABLE
  2
STYLE
 70
     1
  0
STYLE
  2
STANDARD
 70
     0
 40
0.0
 41
1.0
 50
15.0
 71
     0
 42
137.5
  3
C:\Program Files\AutoCAD LT\simplex.shx
  4
C:\Program Files\AutoCAD LT\extfont.shx
  0
ENDTAB
  0
TABLE
  2
VIEW
 70
     0
  0
ENDTAB
  0
TABLE
  2
UCS
 70
     0
  0
ENDTAB
  0
TABLE
  2
APPID
 70
     2
  0
APPID
  2
ACAD
 70
     0
  0
APPID
  2
CONTENTBLOCKICON
 70
     0
  0
ENDTAB
  0
TABLE
  2
DIMSTYLE
 70
     2
  0
DIMSTYLE
  2
STANDARD
 70
     0
  3

  4

  5

  6

  7

 40
1.0
 41
0.18
 42
0.0625
 43
0.38
 44
0.18
 45
0.0
 46
0.0
 47
0.0
 48
0.0
140
0.18
141
0.09
142
0.0
143
25.399999999999999
144
1.0
145
0.0
146
1.0
147
0.09
 71
     0
 72
     0
 73
     1
 74
     1
 75
     0
 76
     0
 77
     0
 78
     0
170
     0
171
     2
172
     0
173
     0
174
     0
175
     0
176
     0
177
     0
178
     0
  0
DIMSTYLE
  2
MATSU
 70
     0
  3

  4

  5

  6
OPEN
  7
OPEN
 40
1.0
 41
2.0
 42
1.0
 43
10.0
 44
1.0
 45
0.0
 46
0.0
 47
0.0
 48
0.0
140
3.0
141
0.0
142
0.0
143
0.03937
144
1.0
145
0.0
146
1.0
147
0.5
 71
     0
 72
     0
 73
     0
 74
     0
 75
     0
 76
     0
 77
     1
 78
     8
170
     0
171
     2
172
     1
173
     1
174
     0
175
     0
176
   256
177
   256
178
   256
  0
ENDTAB
  0
ENDSEC
  0
SECTION
  2
BLOCKS
  0
BLOCK
  8
0
  2
$MODEL_SPACE
 70
     0
 10
0.0
 20
0.0
 30
0.0
  3
$MODEL_SPACE
  1

  0
ENDBLK
  5
1B
  8
0
  0
BLOCK
 67
     1
  8
0
  2
$PAPER_SPACE
 70
     0
 10
0.0
 20
0.0
 30
0.0
  3
$PAPER_SPACE
  1

  0
ENDBLK
  5
18
 67
     1
  8
0
  0
BLOCK
  8
0
  2
_OPEN
 70
     0
 10
0.0
 20
0.0
 30
0.0
  3
_OPEN
  1

  0
LINE
  5
28
  8
0
  6
BYBLOCK
 62
     0
 10
-1.0
 20
0.1666666666666666
 30
0.0
 11
0.0
 21
0.0
 31
0.0
  0
LINE
  5
29
  8
0
  6
BYBLOCK
 62
     0
 10
0.0
 20
0.0
 30
0.0
 11
-1.0
 21
-0.1666666666666666
 31
0.0
  0
LINE
  5
2A
  8
0
  6
BYBLOCK
 62
     0
 10
0.0
 20
0.0
 30
0.0
 11
-1.0
 21
0.0
 31
0.0
  0
ENDBLK
  5
2B
  8
0
  0
BLOCK
  8
0
  2
*D1
 70
     1
 10
0.0
 20
0.0
 30
0.0
  3
*D1
  1

  0
LINE
  5
A3A5
  8
0
  6
BYBLOCK
 10
14705.61185537671
 20
-3929.1668147732798
 30
0.0
 11
15051.209607470701
 21
-3929.1668147732798
 31
0.0
  0
LINE
  5
A3A6
  8
0
  6
BYBLOCK
 10
14705.61185537671
 20
-5129.1668147732798
 30
0.0
 11
15051.209607470701
 21
-5129.1668147732798
 31
0.0
  0
LINE
  5
A3A7
  8
0
  6
BYBLOCK
 10
15001.209607470701
 20
-4029.1668147732789
 30
0.0
 11
15001.209607470701
 21
-5029.1668147732789
 31
0.0
  0
INSERT
  5
A3A8
  8
0
  6
BYBLOCK
  2
_OPEN
 10
15001.209607470701
 20
-3929.1668147732798
 30
0.0
 41
100.0
 42
100.0
 43
100.0
 50
90.0
  0
INSERT
  5
A3A9
  8
0
  6
BYBLOCK
  2
_OPEN
 10
15001.209607470701
 20
-5129.1668147732798
 30
0.0
 41
100.0
 42
100.0
 43
100.0
 50
270.0
  0
TEXT
  5
A3AA
  8
SP
 10
14951.209607470701
 20
-4761.6378640073817
 30
0.0
 40
125.0
  1
1200
 50
90.0
 51
15.0
  0
POINT
  5
A3AB
  8
DEFPOINTS
  6
BYBLOCK
 62
     0
 10
14655.611855376719
 20
-3929.1668147732798
 30
0.0
  0
POINT
  5
A3AC
  8
DEFPOINTS
  6
BYBLOCK
 62
     0
 10
14655.611855376719
 20
-5129.1668147732798
 30
0.0
  0
POINT
  5
A3AD
  8
DEFPOINTS
  6
BYBLOCK
 62
     0
 10
15001.209607470701
 20
-5129.1668147732798
 30
0.0
  0
ENDBLK
  5
A3AE
  8
0
  0
BLOCK
  8
0
  2
*D2
 70
     1
 10
0.0
 20
0.0
 30
0.0
  3
*D2
  1

  0
LINE
  5
A39A
  8
0
  6
BYBLOCK
 10
14655.611855376719
 20
-5179.1668147732798
 30
0.0
 11
14655.611855376719
 21
-5702.171877547662
 31
0.0
  0
LINE
  5
A39B
  8
0
  6
BYBLOCK
 10
11055.61185537671
 20
-5179.1668147732753
 30
0.0
 11
11055.61185537671
 21
-5702.171877547662
 31
0.0
  0
LINE
  5
A39C
  8
0
  6
BYBLOCK
 10
14555.61185537671
 20
-5652.171877547662
 30
0.0
 11
11155.61185537671
 21
-5652.171877547662
 31
0.0
  0
INSERT
  5
A39D
  8
0
  6
BYBLOCK
  2
_OPEN
 10
14655.611855376719
 20
-5652.171877547662
 30
0.0
 41
100.0
 42
100.0
 43
100.0
  0
INSERT
  5
A39E
  8
0
  6
BYBLOCK
  2
_OPEN
 10
11055.61185537671
 20
-5652.171877547662
 30
0.0
 41
100.0
 42
100.0
 43
100.0
 50
180.0
  0
TEXT
  5
A39F
  8
SP
 10
12621.60312608787
 20
-5602.171877547662
 30
0.0
 40
125.0
  1
3600
 51
15.0
  0
POINT
  5
A3A0
  8
DEFPOINTS
  6
BYBLOCK
 62
     0
 10
14655.611855376719
 20
-5129.1668147732798
 30
0.0
  0
POINT
  5
A3A1
  8
DEFPOINTS
  6
BYBLOCK
 62
     0
 10
11055.61185537671
 20
-5129.1668147732744
 30
0.0
  0
POINT
  5
A3A2
  8
DEFPOINTS
  6
BYBLOCK
 62
     0
 10
11055.61185537671
 20
-5652.171877547662
 30
0.0
  0
ENDBLK
  5
A3A3
  8
0
  0
BLOCK
  8
0
  2
*D3
 70
     1
 10
0.0
 20
0.0
 30
0.0
  3
*D3
  1

  0
LINE
  5
A408
  8
0
  6
BYBLOCK
 10
11005.611855376719
 20
-2279.1668147732739
 30
0.0
 11
10471.06639179426
 21
-2279.1668147732739
 31
0.0
  0
LINE
  5
A409
  8
0
  6
BYBLOCK
 10
11005.611855376719
 20
-5129.1668147732744
 30
0.0
 11
10471.06639179426
 21
-5129.1668147732744
 31
0.0
  0
LINE
  5
A40A
  8
0
  6
BYBLOCK
 10
10521.06639179426
 20
-2379.1668147732739
 30
0.0
 11
10521.06639179426
 21
-5029.1668147732744
 31
0.0
  0
INSERT
  5
A40B
  8
0
  6
BYBLOCK
  2
_OPEN
 10
10521.06639179426
 20
-2279.1668147732739
 30
0.0
 41
100.0
 42
100.0
 43
100.0
 50
90.0
  0
INSERT
  5
A40C
  8
0
  6
BYBLOCK
  2
_OPEN
 10
10521.06639179426
 20
-5129.1668147732744
 30
0.0
 41
100.0
 42
100.0
 43
100.0
 50
270.0
  0
TEXT
  5
A40D
  8
SP
 10
10471.06639179426
 20
-3934.9856727236579
 30
0.0
 40
125.0
  1
2850
 50
90.0
 51
15.0
  0
POINT
  5
A40E
  8
DEFPOINTS
  6
BYBLOCK
 62
     0
 10
11055.61185537671
 20
-2279.1668147732739
 30
0.0
  0
POINT
  5
A40F
  8
DEFPOINTS
  6
BYBLOCK
 62
     0
 10
11055.61185537671
 20
-5129.1668147732744
 30
0.0
  0
POINT
  5
A410
  8
DEFPOINTS
  6
BYBLOCK
 62
     0
 10
10521.06639179426
 20
-5129.1668147732744
 30
0.0
  0
ENDBLK
  5
A411
  8
0
  0
BLOCK
  8
0
  2
*D4
 70
     1
 10
0.0
 20
0.0
 30
0.0
  3
*D4
  1

  0
LINE
  5
A3FD
  8
0
  6
BYBLOCK
 10
13175.61185537671
 20
-2229.1668147732739
 30
0.0
 11
13175.61185537671
 21
-1933.199102532606
 31
0.0
  0
LINE
  5
A3FE
  8
0
  6
BYBLOCK
 10
11055.61185537671
 20
-2229.1668147732739
 30
0.0
 11
11055.61185537671
 21
-1933.199102532606
 31
0.0
  0
LINE
  5
A3FF
  8
0
  6
BYBLOCK
 10
13075.611855376719
 20
-1983.199102532606
 30
0.0
 11
11155.61185537671
 21
-1983.199102532606
 31
0.0
  0
INSERT
  5
A400
  8
0
  6
BYBLOCK
  2
_OPEN
 10
13175.61185537671
 20
-1983.199102532606
 30
0.0
 41
100.0
 42
100.0
 43
100.0
  0
INSERT
  5
A401
  8
0
  6
BYBLOCK
  2
_OPEN
 10
11055.61185537671
 20
-1983.199102532606
 30
0.0
 41
100.0
 42
100.0
 43
100.0
 50
180.0
  0
TEXT
  5
A402
  8
SP
 10
11896.697759331089
 20
-1933.199102532606
 30
0.0
 40
125.0
  1
2120
 51
15.0
  0
POINT
  5
A403
  8
DEFPOINTS
  6
BYBLOCK
 62
     0
 10
13175.61185537671
 20
-2279.1668147732739
 30
0.0
  0
POINT
  5
A404
  8
DEFPOINTS
  6
BYBLOCK
 62
     0
 10
11055.61185537671
 20
-2279.1668147732739
 30
0.0
  0
POINT
  5
A405
  8
DEFPOINTS
  6
BYBLOCK
 62
     0
 10
11055.61185537671
 20
-1983.199102532606
 30
0.0
  0
ENDBLK
  5
A406
  8
0
  0
BLOCK
  8
0
  2
*D5
 70
     1
 10
0.0
 20
0.0
 30
0.0
  3
*D5
  1

  0
LINE
  5
A38F
  8
0
  6
BYBLOCK
 10
13175.61185537671
 20
-2229.1668147732739
 30
0.0
 11
13175.61185537671
 21
-1933.199102532606
 31
0.0
  0
LINE
  5
A390
  8
0
  6
BYBLOCK
 10
14655.611855376719
 20
-3879.1668147732789
 30
0.0
 11
14655.611855376719
 21
-1933.199102532606
 31
0.0
  0
LINE
  5
A391
  8
0
  6
BYBLOCK
 10
13275.61185537671
 20
-1983.199102532606
 30
0.0
 11
14555.61185537671
 21
-1983.199102532606
 31
0.0
  0
INSERT
  5
A392
  8
0
  6
BYBLOCK
  2
_OPEN
 10
13175.61185537671
 20
-1983.199102532606
 30
0.0
 41
100.0
 42
100.0
 43
100.0
 50
180.0
  0
INSERT
  5
A393
  8
0
  6
BYBLOCK
  2
_OPEN
 10
14655.611855376719
 20
-1983.199102532606
 30
0.0
 41
100.0
 42
100.0
 43
100.0
  0
TEXT
  5
A394
  8
SP
 10
13683.14080614261
 20
-1933.199102532606
 30
0.0
 40
125.0
  1
1480
 51
15.0
  0
POINT
  5
A395
  8
DEFPOINTS
  6
BYBLOCK
 62
     0
 10
13175.61185537671
 20
-2279.1668147732739
 30
0.0
  0
POINT
  5
A396
  8
DEFPOINTS
  6
BYBLOCK
 62
     0
 10
14655.611855376719
 20
-3929.1668147732798
 30
0.0
  0
POINT
  5
A397
  8
DEFPOINTS
  6
BYBLOCK
 62
     0
 10
14655.611855376719
 20
-1983.199102532606
 30
0.0
  0
ENDBLK
  5
A398
  8
0
  0
BLOCK
  8
0
  2
*D6
 70
     1
 10
0.0
 20
0.0
 30
0.0
  3
*D6
  1

  0
LINE
  5
A384
  8
0
  6
BYBLOCK
 10
14655.611855376719
 20
-10647.90686513479
 30
0.0
 11
14655.611855376719
 21
-10960.894503252361
 31
0.0
  0
LINE
  5
A385
  8
0
  6
BYBLOCK
 10
12115.611855376719
 20
-10647.906865134781
 30
0.0
 11
12115.611855376719
 21
-10960.894503252361
 31
0.0
  0
LINE
  5
A386
  8
0
  6
BYBLOCK
 10
14555.61185537671
 20
-10910.89450325237
 30
0.0
 11
12215.611855376719
 21
-10910.89450325237
 31
0.0
  0
INSERT
  5
A387
  8
0
  6
BYBLOCK
  2
_OPEN
 10
14655.611855376719
 20
-10910.89450325237
 30
0.0
 41
100.0
 42
100.0
 43
100.0
  0
INSERT
  5
A388
  8
0
  6
BYBLOCK
  2
_OPEN
 10
12115.611855376719
 20
-10910.89450325237
 30
0.0
 41
100.0
 42
100.0
 43
100.0
 50
180.0
  0
TEXT
  5
A389
  8
SP
 10
13154.79299742633
 20
-10860.894503252361
 30
0.0
 40
125.0
  1
2540
 51
15.0
  0
POINT
  5
A38A
  8
DEFPOINTS
  6
BYBLOCK
 62
     0
 10
14655.611855376719
 20
-10597.90686513479
 30
0.0
  0
POINT
  5
A38B
  8
DEFPOINTS
  6
BYBLOCK
 62
     0
 10
12115.611855376719
 20
-10597.906865134781
 30
0.0
  0
POINT
  5
A38C
  8
DEFPOINTS
  6
BYBLOCK
 62
     0
 10
12115.611855376719
 20
-10910.89450325237
 30
0.0
  0
ENDBLK
  5
A38D
  8
0
  0
BLOCK
  8
0
  2
*D7
 70
     1
 10
0.0
 20
0.0
 30
0.0
  3
*D7
  1

  0
LINE
  5
A3C6
  8
0
  6
BYBLOCK
 10
12115.611855376719
 20
-10647.906865134781
 30
0.0
 11
12115.611855376719
 21
-10960.894503252361
 31
0.0
  0
LINE
  5
A3C7
  8
0
  6
BYBLOCK
 10
11055.61185537671
 20
-10647.906865134781
 30
0.0
 11
11055.61185537671
 21
-10960.894503252361
 31
0.0
  0
LINE
  5
A3C8
  8
0
  6
BYBLOCK
 10
12015.61185537671
 20
-10910.89450325237
 30
0.0
 11
11155.61185537671
 21
-10910.89450325237
 31
0.0
  0
INSERT
  5
A3C9
  8
0
  6
BYBLOCK
  2
_OPEN
 10
12115.611855376719
 20
-10910.89450325237
 30
0.0
 41
100.0
 42
100.0
 43
100.0
  0
INSERT
  5
A3CA
  8
0
  6
BYBLOCK
  2
_OPEN
 10
11055.61185537671
 20
-10910.89450325237
 30
0.0
 41
100.0
 42
100.0
 43
100.0
 50
180.0
  0
TEXT
  5
A3CB
  8
SP
 10
11353.14080614261
 20
-10860.894503252361
 30
0.0
 40
125.0
  1
1060
 51
15.0
  0
POINT
  5
A3CC
  8
DEFPOINTS
  6
BYBLOCK
 62
     0
 10
12115.611855376719
 20
-10597.906865134781
 30
0.0
  0
POINT
  5
A3CD
  8
DEFPOINTS
  6
BYBLOCK
 62
     0
 10
11055.61185537671
 20
-10597.906865134781
 30
0.0
  0
POINT
  5
A3CE
  8
DEFPOINTS
  6
BYBLOCK
 62
     0
 10
11055.61185537671
 20
-10910.89450325237
 30
0.0
  0
ENDBLK
  5
A3CF
  8
0
  0
BLOCK
  8
0
  2
*D8
 70
     1
 10
0.0
 20
0.0
 30
0.0
  3
*D8
  1

  0
LINE
  5
9DF0
  8
0
  6
BYBLOCK
 10
3317.482521670157
 20
-11482.61384118756
 30
0.0
 11
3317.482521670157
 21
-11795.60147930514
 31
0.0
  0
LINE
  5
9DF1
  8
0
  6
BYBLOCK
 10
4908.4825216701574
 20
-11482.61384118756
 30
0.0
 11
4908.4825216701574
 21
-11795.60147930514
 31
0.0
  0
LINE
  5
9DF2
  8
0
  6
BYBLOCK
 10
3417.482521670157
 20
-11745.60147930514
 30
0.0
 11
4808.4825216701574
 21
-11745.60147930514
 31
0.0
  0
INSERT
  5
9DF3
  8
0
  6
BYBLOCK
  2
_OPEN
 10
3317.482521670157
 20
-11745.60147930514
 30
0.0
 41
100.0
 42
100.0
 43
100.0
 50
180.0
  0
INSERT
  5
9DF4
  8
0
  6
BYBLOCK
  2
_OPEN
 10
4908.4825216701574
 20
-11745.60147930514
 30
0.0
 41
100.0
 42
100.0
 43
100.0
  0
TEXT
  5
9DF5
  8
SP
 10
3901.1311249071141
 20
-11695.60147930514
 30
0.0
 40
125.0
  1
1591
 51
15.0
  0
POINT
  5
9DF6
  8
DEFPOINTS
  6
BYBLOCK
 62
     0
 10
3317.482521670157
 20
-11432.61384118756
 30
0.0
  0
POINT
  5
9DF7
  8
DEFPOINTS
  6
BYBLOCK
 62
     0
 10
4908.4825216701574
 20
-11432.61384118756
 30
0.0
  0
POINT
  5
9DF8
  8
DEFPOINTS
  6
BYBLOCK
 62
     0
 10
4908.4825216701574
 20
-11745.60147930514
 30
0.0
  0
ENDBLK
  5
9DF9
  8
0
  0
BLOCK
  8
0
  2
*D9
 70
     1
 10
0.0
 20
0.0
 30
0.0
  3
*D9
  1

  0
LINE
  5
9DFD
  8
0
  6
BYBLOCK
 10
4908.4825216701574
 20
-11482.61384118756
 30
0.0
 11
4908.4825216701574
 21
-11795.60147930514
 31
0.0
  0
LINE
  5
9DFE
  8
0
  6
BYBLOCK
 10
6167.4825216701583
 20
-11482.61384118756
 30
0.0
 11
6167.4825216701583
 21
-11795.60147930514
 31
0.0
  0
LINE
  5
9DFF
  8
0
  6
BYBLOCK
 10
5008.4825216701574
 20
-11745.60147930514
 30
0.0
 11
6067.4825216701574
 21
-11745.60147930514
 31
0.0
  0
INSERT
  5
9E00
  8
0
  6
BYBLOCK
  2
_OPEN
 10
4908.4825216701574
 20
-11745.60147930514
 30
0.0
 41
100.0
 42
100.0
 43
100.0
 50
180.0
  0
INSERT
  5
9E01
  8
0
  6
BYBLOCK
  2
_OPEN
 10
6167.4825216701583
 20
-11745.60147930514
 30
0.0
 41
100.0
 42
100.0
 43
100.0
  0
TEXT
  5
9E02
  8
SP
 10
5307.6901950776301
 20
-11695.60147930514
 30
0.0
 40
125.0
  1
1259
 51
15.0
  0
POINT
  5
9E03
  8
DEFPOINTS
  6
BYBLOCK
 62
     0
 10
4908.4825216701574
 20
-11432.61384118756
 30
0.0
  0
POINT
  5
9E04
  8
DEFPOINTS
  6
BYBLOCK
 62
     0
 10
6167.4825216701583
 20
-11432.61384118756
 30
0.0
  0
POINT
  5
9E05
  8
DEFPOINTS
  6
BYBLOCK
 62
     0
 10
6167.4825216701583
 20
-11745.60147930514
 30
0.0
  0
ENDBLK
  5
9E06
  8
0
  0
BLOCK
  8
0
  2
*D10
 70
     1
 10
0.0
 20
0.0
 30
0.0
  3
*D10
  1

  0
LINE
  5
9E0A
  8
0
  6
BYBLOCK
 10
3317.482521670157
 20
-11482.61384118756
 30
0.0
 11
3317.482521670157
 21
-12113.57912714846
 31
0.0
  0
LINE
  5
9E0B
  8
0
  6
BYBLOCK
 10
6167.4825216701583
 20
-11482.61384118756
 30
0.0
 11
6167.4825216701583
 21
-12113.57912714846
 31
0.0
  0
LINE
  5
9E0C
  8
0
  6
BYBLOCK
 10
3417.482521670157
 20
-12063.57912714846
 30
0.0
 11
6067.4825216701574
 21
-12063.57912714846
 31
0.0
  0
INSERT
  5
9E0D
  8
0
  6
BYBLOCK
  2
_OPEN
 10
3317.482521670157
 20
-12063.57912714846
 30
0.0
 41
100.0
 42
100.0
 43
100.0
 50
180.0
  0
INSERT
  5
9E0E
  8
0
  6
BYBLOCK
  2
_OPEN
 10
6167.4825216701583
 20
-12063.57912714846
 30
0.0
 41
100.0
 42
100.0
 43
100.0
  0
TEXT
  5
9E0F
  8
SP
 10
4511.6636637197726
 20
-12013.57912714846
 30
0.0
 40
125.0
  1
2850
 51
15.0
  0
POINT
  5
9E10
  8
DEFPOINTS
  6
BYBLOCK
 62
     0
 10
3317.482521670157
 20
-11432.61384118756
 30
0.0
  0
POINT
  5
9E11
  8
DEFPOINTS
  6
BYBLOCK
 62
     0
 10
6167.4825216701583
 20
-11432.61384118756
 30
0.0
  0
POINT
  5
9E12
  8
DEFPOINTS
  6
BYBLOCK
 62
     0
 10
6167.4825216701583
 20
-12063.57912714846
 30
0.0
  0
ENDBLK
  5
9E13
  8
0
  0
BLOCK
  8
0
  2
*D11
 70
     1
 10
0.0
 20
0.0
 30
0.0
  3
*D11
  1

  0
LINE
  5
A379
  8
0
  6
BYBLOCK
 10
14655.611855376719
 20
-10647.906865134781
 30
0.0
 11
14655.611855376719
 21
-11278.87215109568
 31
0.0
  0
LINE
  5
A37A
  8
0
  6
BYBLOCK
 10
11055.61185537671
 20
-10647.906865134781
 30
0.0
 11
11055.61185537671
 21
-11278.87215109568
 31
0.0
  0
LINE
  5
A37B
  8
0
  6
BYBLOCK
 10
14555.61185537671
 20
-11228.872151095689
 30
0.0
 11
11155.61185537671
 21
-11228.872151095689
 31
0.0
  0
INSERT
  5
A37C
  8
0
  6
BYBLOCK
  2
_OPEN
 10
14655.611855376719
 20
-11228.872151095689
 30
0.0
 41
100.0
 42
100.0
 43
100.0
  0
INSERT
  5
A37D
  8
0
  6
BYBLOCK
  2
_OPEN
 10
11055.61185537671
 20
-11228.872151095689
 30
0.0
 41
100.0
 42
100.0
 43
100.0
 50
180.0
  0
TEXT
  5
A37E
  8
SP
 10
12621.60312608787
 20
-11178.87215109568
 30
0.0
 40
125.0
  1
3600
 51
15.0
  0
POINT
  5
A37F
  8
DEFPOINTS
  6
BYBLOCK
 62
     0
 10
14655.611855376719
 20
-10597.906865134781
 30
0.0
  0
POINT
  5
A380
  8
DEFPOINTS
  6
BYBLOCK
 62
     0
 10
11055.61185537671
 20
-10597.906865134781
 30
0.0
  0
POINT
  5
A381
  8
DEFPOINTS
  6
BYBLOCK
 62
     0
 10
11055.61185537671
 20
-11228.872151095689
 30
0.0
  0
ENDBLK
  5
A382
  8
0
  0
BLOCK
  8
0
  2
*D12
 70
     1
 10
0.0
 20
0.0
 30
0.0
  3
*D12
  1

  0
LINE
  5
A2F0
  8
0
  6
BYBLOCK
 10
15541.6940608491
 20
-7100.906865134787
 30
0.0
 11
15541.6940608491
 21
-6807.3381015241393
 31
0.0
  0
LINE
  5
A2F1
  8
0
  6
BYBLOCK
 10
17901.694060849099
 20
-7100.906865134787
 30
0.0
 11
17901.694060849099
 21
-6807.3381015241393
 31
0.0
  0
LINE
  5
A2F2
  8
0
  6
BYBLOCK
 10
15651.6940608491
 20
-6862.3381015241393
 30
0.0
 11
17791.694060849099
 21
-6862.3381015241393
 31
0.0
  0
INSERT
  5
A2F3
  8
0
  6
BYBLOCK
  2
_OPEN
 10
15541.6940608491
 20
-6862.3381015241393
 30
0.0
 41
110.0
 42
110.0
 43
110.0
 50
180.0
  0
INSERT
  5
A2F4
  8
0
  6
BYBLOCK
  2
_OPEN
 10
17901.694060849099
 20
-6862.3381015241393
 30
0.0
 41
110.0
 42
110.0
 43
110.0
  0
TEXT
  5
A2F5
  8
SP
 10
16467.793317103678
 20
-6807.3381015241393
 30
0.0
 40
137.5
  1
2360
 51
15.0
  0
POINT
  5
A2F6
  8
DEFPOINTS
  6
BYBLOCK
 62
     0
 10
15541.6940608491
 20
-7155.9068651347879
 30
0.0
  0
POINT
  5
A2F7
  8
DEFPOINTS
  6
BYBLOCK
 62
     0
 10
17901.694060849099
 20
-7155.9068651347879
 30
0.0
  0
POINT
  5
A2F8
  8
DEFPOINTS
  6
BYBLOCK
 62
     0
 10
17901.694060849099
 20
-6862.3381015241393
 30
0.0
  0
ENDBLK
  5
A2F9
  8
0
  0
BLOCK
  8
0
  2
*D13
 70
     1
 10
0.0
 20
0.0
 30
0.0
  3
*D13
  1

  0
LINE
  5
A3BB
  8
0
  6
BYBLOCK
 10
12115.611855376719
 20
-6912.7733814722533
 30
0.0
 11
12115.611855376719
 21
-6807.3381015241393
 31
0.0
  0
LINE
  5
A3BC
  8
0
  6
BYBLOCK
 10
10950.61185537671
 20
-8394.9068651347916
 30
0.0
 11
10950.61185537671
 21
-6807.3381015241393
 31
0.0
  0
LINE
  5
A3BD
  8
0
  6
BYBLOCK
 10
12005.61185537671
 20
-6862.3381015241393
 30
0.0
 11
11060.611855376719
 21
-6862.3381015241393
 31
0.0
  0
INSERT
  5
A3BE
  8
0
  6
BYBLOCK
  2
_OPEN
 10
12115.611855376719
 20
-6862.3381015241393
 30
0.0
 41
110.0
 42
110.0
 43
110.0
  0
INSERT
  5
A3BF
  8
0
  6
BYBLOCK
  2
_OPEN
 10
10950.61185537671
 20
-6862.3381015241393
 30
0.0
 41
110.0
 42
110.0
 43
110.0
 50
180.0
  0
TEXT
  5
A3C0
  8
SP
 10
11290.253890365941
 20
-6807.3381015241393
 30
0.0
 40
137.5
  1
1165
 51
15.0
  0
POINT
  5
A3C1
  8
DEFPOINTS
  6
BYBLOCK
 62
     0
 10
12115.611855376719
 20
-6967.7733814722533
 30
0.0
  0
POINT
  5
A3C2
  8
DEFPOINTS
  6
BYBLOCK
 62
     0
 10
10950.61185537671
 20
-8449.9068651347898
 30
0.0
  0
POINT
  5
A3C3
  8
DEFPOINTS
  6
BYBLOCK
 62
     0
 10
10950.61185537671
 20
-6862.3381015241393
 30
0.0
  0
ENDBLK
  5
A3C4
  8
0
  0
BLOCK
  8
0
  2
*D14
 70
     1
 10
0.0
 20
0.0
 30
0.0
  3
*D14
  1

  0
LINE
  5
A3D1
  8
0
  6
BYBLOCK
 10
12115.611855376719
 20
-6912.7733814722533
 30
0.0
 11
12115.611855376719
 21
-6807.3381015241393
 31
0.0
  0
LINE
  5
A3D2
  8
0
  6
BYBLOCK
 10
13669.61185537671
 20
-8523.9068651347879
 30
0.0
 11
13669.61185537671
 21
-6807.3381015241393
 31
0.0
  0
LINE
  5
A3D3
  8
0
  6
BYBLOCK
 10
12225.61185537671
 20
-6862.3381015241393
 30
0.0
 11
13559.611855376719
 21
-6862.3381015241393
 31
0.0
  0
INSERT
  5
A3D4
  8
0
  6
BYBLOCK
  2
_OPEN
 10
12115.611855376719
 20
-6862.3381015241393
 30
0.0
 41
110.0
 42
110.0
 43
110.0
 50
180.0
  0
INSERT
  5
A3D5
  8
0
  6
BYBLOCK
  2
_OPEN
 10
13669.61185537671
 20
-6862.3381015241393
 30
0.0
 41
110.0
 42
110.0
 43
110.0
  0
TEXT
  5
A3D6
  8
SP
 10
12639.118228352359
 20
-6807.3381015241393
 30
0.0
 40
137.5
  1
1554
 51
15.0
  0
POINT
  5
A3D7
  8
DEFPOINTS
  6
BYBLOCK
 62
     0
 10
12115.611855376719
 20
-6967.7733814722533
 30
0.0
  0
POINT
  5
A3D8
  8
DEFPOINTS
  6
BYBLOCK
 62
     0
 10
13669.61185537671
 20
-8578.9068651347879
 30
0.0
  0
POINT
  5
A3D9
  8
DEFPOINTS
  6
BYBLOCK
 62
     0
 10
13669.61185537671
 20
-6862.3381015241393
 30
0.0
  0
ENDBLK
  5
A3DA
  8
0
  0
BLOCK
  8
0
  2
*D15
 70
     1
 10
0.0
 20
0.0
 30
0.0
  3
*D15
  1

  0
LINE
  5
A3F2
  8
0
  6
BYBLOCK
 10
10895.61185537671
 20
-8518.9068651347879
 30
0.0
 11
10539.266705939181
 21
-8518.9068651347879
 31
0.0
  0
LINE
  5
A3F3
  8
0
  6
BYBLOCK
 10
10895.61185537671
 20
-10368.906865134781
 30
0.0
 11
10539.266705939181
 21
-10368.906865134781
 31
0.0
  0
LINE
  5
A3F4
  8
0
  6
BYBLOCK
 10
10594.26670593919
 20
-8628.9068651347861
 30
0.0
 11
10594.26670593919
 21
-10258.906865134781
 31
0.0
  0
INSERT
  5
A3F5
  8
0
  6
BYBLOCK
  2
_OPEN
 10
10594.26670593919
 20
-8518.9068651347879
 30
0.0
 41
110.0
 42
110.0
 43
110.0
 50
90.0
  0
INSERT
  5
A3F6
  8
0
  6
BYBLOCK
  2
_OPEN
 10
10594.26670593919
 20
-10368.906865134781
 30
0.0
 41
110.0
 42
110.0
 43
110.0
 50
270.0
  0
TEXT
  5
A3F7
  8
SP
 10
10539.266705939181
 20
-9699.6250192922998
 30
0.0
 40
137.5
  1
1850
 50
90.0
 51
15.0
  0
POINT
  5
A3F8
  8
DEFPOINTS
  6
BYBLOCK
 62
     0
 10
10950.61185537671
 20
-8518.9068651347879
 30
0.0
  0
POINT
  5
A3F9
  8
DEFPOINTS
  6
BYBLOCK
 62
     0
 10
10950.61185537671
 20
-10368.906865134781
 30
0.0
  0
POINT
  5
A3FA
  8
DEFPOINTS
  6
BYBLOCK
 62
     0
 10
10594.26670593919
 20
-10368.906865134781
 30
0.0
  0
ENDBLK
  5
A3FB
  8
0
  0
BLOCK
  8
0
  2
*D16
 70
     1
 10
0.0
 20
0.0
 30
0.0
  3
*D16
  1

  0
LINE
  5
A3E7
  8
0
  6
BYBLOCK
 10
10895.61185537671
 20
-10368.906865134781
 30
0.0
 11
10179.386892818589
 21
-10368.906865134781
 31
0.0
  0
LINE
  5
A3E8
  8
0
  6
BYBLOCK
 10
10750.17046135165
 20
-8447.9068651347879
 30
0.0
 11
10179.386892818589
 21
-8447.9068651347879
 31
0.0
  0
LINE
  5
A3E9
  8
0
  6
BYBLOCK
 10
10234.386892818589
 20
-10258.906865134781
 30
0.0
 11
10234.386892818589
 21
-8557.9068651347861
 31
0.0
  0
INSERT
  5
A3EA
  8
0
  6
BYBLOCK
  2
_OPEN
 10
10234.386892818589
 20
-10368.906865134781
 30
0.0
 41
110.0
 42
110.0
 43
110.0
 50
270.0
  0
INSERT
  5
A3EB
  8
0
  6
BYBLOCK
  2
_OPEN
 10
10234.386892818589
 20
-8447.9068651347879
 30
0.0
 41
110.0
 42
110.0
 43
110.0
 50
90.0
  0
TEXT
  5
A3EC
  8
SP
 10
10179.386892818589
 20
-9641.4434015741354
 30
0.0
 40
137.5
  1
1921
 50
90.0
 51
15.0
  0
POINT
  5
A3ED
  8
DEFPOINTS
  6
BYBLOCK
 62
     0
 10
10950.61185537671
 20
-10368.906865134781
 30
0.0
  0
POINT
  5
A3EE
  8
DEFPOINTS
  6
BYBLOCK
 62
     0
 10
10805.17046135165
 20
-8447.9068651347879
 30
0.0
  0
POINT
  5
A3EF
  8
DEFPOINTS
  6
BYBLOCK
 62
     0
 10
10234.386892818589
 20
-8447.9068651347879
 30
0.0
  0
ENDBLK
  5
A3F0
  8
0
  0
BLOCK
  8
0
  2
*D17
 70
     1
 10
0.0
 20
0.0
 30
0.0
  3
*D17
  1

  0
LINE
  5
A3DC
  8
0
  6
BYBLOCK
 10
11000.611855376719
 20
-10597.906865134781
 30
0.0
 11
9819.5070796980071
 21
-10597.906865134781
 31
0.0
  0
LINE
  5
A3DD
  8
0
  6
BYBLOCK
 10
10750.17046135165
 20
-8447.9068651347879
 30
0.0
 11
9819.5070796980071
 21
-8447.9068651347879
 31
0.0
  0
LINE
  5
A3DE
  8
0
  6
BYBLOCK
 10
9874.5070796980071
 20
-10487.906865134781
 30
0.0
 11
9874.5070796980071
 21
-8557.9068651347861
 31
0.0
  0
INSERT
  5
A3DF
  8
0
  6
BYBLOCK
  2
_OPEN
 10
9874.5070796980071
 20
-10597.906865134781
 30
0.0
 41
110.0
 42
110.0
 43
110.0
 50
270.0
  0
INSERT
  5
A3E0
  8
0
  6
BYBLOCK
  2
_OPEN
 10
9874.5070796980071
 20
-8447.9068651347879
 30
0.0
 41
110.0
 42
110.0
 43
110.0
 50
90.0
  0
TEXT
  5
A3E1
  8
SP
 10
9819.5070796980071
 20
-9763.7123707849732
 30
0.0
 40
137.5
  1
2150
 50
90.0
 51
15.0
  0
POINT
  5
A3E2
  8
DEFPOINTS
  6
BYBLOCK
 62
     0
 10
11055.61185537671
 20
-10597.906865134781
 30
0.0
  0
POINT
  5
A3E3
  8
DEFPOINTS
  6
BYBLOCK
 62
     0
 10
10805.17046135165
 20
-8447.9068651347879
 30
0.0
  0
POINT
  5
A3E4
  8
DEFPOINTS
  6
BYBLOCK
 62
     0
 10
9874.5070796980071
 20
-8447.9068651347879
 30
0.0
  0
ENDBLK
  5
A3E5
  8
0
  0
BLOCK
  8
0
  2
*D18
 70
     1
 10
0.0
 20
0.0
 30
0.0
  3
*D18
  1

  0
LINE
  5
A3B0
  8
0
  6
BYBLOCK
 10
12191.611855376719
 20
-7155.9068651347879
 30
0.0
 11
9819.5070796980071
 21
-7155.9068651347879
 31
0.0
  0
LINE
  5
A3B1
  8
0
  6
BYBLOCK
 10
10750.17046135165
 20
-8447.9068651347879
 30
0.0
 11
9819.5070796980071
 21
-8447.9068651347879
 31
0.0
  0
LINE
  5
A3B2
  8
0
  6
BYBLOCK
 10
9874.5070796980071
 20
-7265.9068651347879
 30
0.0
 11
9874.5070796980071
 21
-8337.9068651347879
 31
0.0
  0
INSERT
  5
A3B3
  8
0
  6
BYBLOCK
  2
_OPEN
 10
9874.5070796980071
 20
-7155.9068651347879
 30
0.0
 41
110.0
 42
110.0
 43
110.0
 50
90.0
  0
INSERT
  5
A3B4
  8
0
  6
BYBLOCK
  2
_OPEN
 10
9874.5070796980071
 20
-8447.9068651347879
 30
0.0
 41
110.0
 42
110.0
 43
110.0
 50
270.0
  0
TEXT
  5
A3B5
  8
SP
 10
9819.5070796980071
 20
-8057.6250192922998
 30
0.0
 40
137.5
  1
1292
 50
90.0
 51
15.0
  0
POINT
  5
A3B6
  8
DEFPOINTS
  6
BYBLOCK
 62
     0
 10
12246.61185537671
 20
-7155.9068651347879
 30
0.0
  0
POINT
  5
A3B7
  8
DEFPOINTS
  6
BYBLOCK
 62
     0
 10
10805.17046135165
 20
-8447.9068651347879
 30
0.0
  0
POINT
  5
A3B8
  8
DEFPOINTS
  6
BYBLOCK
 62
     0
 10
9874.5070796980071
 20
-8447.9068651347879
 30
0.0
  0
ENDBLK
  5
A3B9
  8
0
  0
BLOCK
  8
0
  2
*D19
 70
     1
 10
0.0
 20
0.0
 30
0.0
  3
*D19
  1

  0
LINE
  5
A34B
  8
0
  6
BYBLOCK
 10
16721.694060849091
 20
-6537.48237652436
 30
0.0
 11
16721.694060849091
 21
-6511.9862275150372
 31
0.0
  0
LINE
  5
A34C
  8
0
  6
BYBLOCK
 10
14971.69406084909
 20
-7912.9068651347898
 30
0.0
 11
14971.69406084909
 21
-6511.9862275150372
 31
0.0
  0
LINE
  5
A34D
  8
0
  6
BYBLOCK
 10
16611.694060849091
 20
-6566.9862275150372
 30
0.0
 11
15081.6940608491
 21
-6566.9862275150372
 31
0.0
  0
INSERT
  5
A34E
  8
0
  6
BYBLOCK
  2
_OPEN
 10
16721.694060849091
 20
-6566.9862275150372
 30
0.0
 41
110.0
 42
110.0
 43
110.0
  0
INSERT
  5
A34F
  8
0
  6
BYBLOCK
  2
_OPEN
 10
14971.69406084909
 20
-6566.9862275150372
 30
0.0
 41
110.0
 42
110.0
 43
110.0
 50
180.0
  0
TEXT
  5
A350
  8
SP
 10
15519.485176240711
 20
-6453.0576560864656
 30
0.0
 40
137.5
  1
(1750)
 51
15.0
  0
POINT
  5
A351
  8
DEFPOINTS
  6
BYBLOCK
 62
     0
 10
16721.694060849091
 20
-6592.48237652436
 30
0.0
  0
POINT
  5
A352
  8
DEFPOINTS
  6
BYBLOCK
 62
     0
 10
14971.69406084909
 20
-7967.9068651347898
 30
0.0
  0
POINT
  5
A353
  8
DEFPOINTS
  6
BYBLOCK
 62
     0
 10
14971.69406084909
 20
-6566.9862275150372
 30
0.0
  0
ENDBLK
  5
A354
  8
0
  0
BLOCK
  8
0
  2
*D20
 70
     1
 10
0.0
 20
0.0
 30
0.0
  3
*D20
  1

  0
LINE
  5
A358
  8
0
  6
BYBLOCK
 10
16721.694060849091
 20
-6537.48237652436
 30
0.0
 11
16721.694060849091
 21
-6511.9862275150372
 31
0.0
  0
LINE
  5
A359
  8
0
  6
BYBLOCK
 10
18141.694060849091
 20
-8472.9068651347879
 30
0.0
 11
18141.694060849091
 21
-6511.9862275150372
 31
0.0
  0
LINE
  5
A35A
  8
0
  6
BYBLOCK
 10
16831.694060849091
 20
-6566.9862275150372
 30
0.0
 11
18031.694060849091
 21
-6566.9862275150372
 31
0.0
  0
INSERT
  5
A35B
  8
0
  6
BYBLOCK
  2
_OPEN
 10
16721.694060849091
 20
-6566.9862275150372
 30
0.0
 41
110.0
 42
110.0
 43
110.0
 50
180.0
  0
INSERT
  5
A35C
  8
0
  6
BYBLOCK
  2
_OPEN
 10
18141.694060849091
 20
-6566.9862275150372
 30
0.0
 41
110.0
 42
110.0
 43
110.0
  0
TEXT
  5
A35D
  8
SP
 10
17104.485176240709
 20
-6453.0576560864656
 30
0.0
 40
137.5
  1
(1420)
 51
15.0
  0
POINT
  5
A35E
  8
DEFPOINTS
  6
BYBLOCK
 62
     0
 10
16721.694060849091
 20
-6592.48237652436
 30
0.0
  0
POINT
  5
A35F
  8
DEFPOINTS
  6
BYBLOCK
 62
     0
 10
18141.694060849091
 20
-8527.9068651347879
 30
0.0
  0
POINT
  5
A360
  8
DEFPOINTS
  6
BYBLOCK
 62
     0
 10
18141.694060849091
 20
-6566.9862275150372
 30
0.0
  0
ENDBLK
  5
A361
  8
0
  0
BLOCK
  8
0
  2
_DOT
 70
     0
 10
0.0
 20
0.0
 30
0.0
  3
_DOT
  1

  0
POLYLINE
  5
A420
  8
0
  6
BYBLOCK
 62
     0
 66
     1
 10
0.0
 20
0.0
 30
0.0
 70
     1
 40
0.5
 41
0.5
  0
VERTEX
  5
A46E
  8
0
  6
BYBLOCK
 62
     0
 10
-0.25
 20
0.0
 30
0.0
 42
1.0
  0
VERTEX
  5
A46F
  8
0
  6
BYBLOCK
 62
     0
 10
0.25
 20
0.0
 30
0.0
 42
1.0
  0
SEQEND
  5
A470
  8
0
  6
BYBLOCK
 62
     0
  0
LINE
  5
A424
  8
0
  6
BYBLOCK
 62
     0
 10
-0.5
 20
0.0
 30
0.0
 11
-1.0
 21
0.0
 31
0.0
  0
ENDBLK
  5
A425
  8
0
  0
BLOCK
  8
0
  2
*D22
 70
     1
 10
0.0
 20
0.0
 30
0.0
  3
*D22
  1

  0
LINE
  5
A428
  8
0
  6
BYBLOCK
 10
10546.813796312939
 20
-10617.906865134781
 30
0.0
 11
9366.4153802872388
 21
-10617.906865134781
 31
0.0
  0
LINE
  5
A429
  8
0
  6
BYBLOCK
 10
10546.813796312939
 20
-10797.906865134781
 30
0.0
 11
9366.4153802872388
 21
-10797.906865134781
 31
0.0
  0
LINE
  5
A42A
  8
0
  6
BYBLOCK
 10
9421.4153802872388
 20
-10507.906865134781
 30
0.0
 11
9421.4153802872388
 21
-10397.906865134781
 31
0.0
  0
LINE
  5
A42B
  8
0
  6
BYBLOCK
 10
9421.4153802872388
 20
-10907.906865134781
 30
0.0
 11
9421.4153802872388
 21
-11465.00015949053
 31
0.0
  0
LINE
  5
A42C
  8
0
  6
BYBLOCK
 10
9421.4153802872388
 20
-10617.906865134781
 30
0.0
 11
9421.4153802872388
 21
-10797.906865134781
 31
0.0
  0
INSERT
  5
A42D
  8
0
  6
BYBLOCK
  2
_DOT
 10
9421.4153802872388
 20
-10617.906865134781
 30
0.0
 41
110.0
 42
110.0
 43
110.0
 50
270.0
  0
INSERT
  5
A42E
  8
0
  6
BYBLOCK
  2
_OPEN
 10
9421.4153802872388
 20
-10797.906865134781
 30
0.0
 41
110.0
 42
110.0
 43
110.0
 50
90.0
  0
TEXT
  5
A42F
  8
SP
 10
9366.4153802872388
 20
-11431.69547599398
 30
0.0
 40
137.5
  1
180
 50
90.0
 51
15.0
  0
POINT
  5
A430
  8
DEFPOINTS
  6
BYBLOCK
 62
     0
 10
10601.813796312939
 20
-10617.906865134781
 30
0.0
  0
POINT
  5
A431
  8
DEFPOINTS
  6
BYBLOCK
 62
     0
 10
10601.813796312939
 20
-10797.906865134781
 30
0.0
  0
POINT
  5
A432
  8
DEFPOINTS
  6
BYBLOCK
 62
     0
 10
9421.4153802872388
 20
-10797.906865134781
 30
0.0
  0
ENDBLK
  5
A433
  8
0
  0
BLOCK
  8
0
  2
_NONE
 70
     0
 10
0.0
 20
0.0
 30
0.0
  3
_NONE
  1

  0
CIRCLE
  5
A437
  8
0
  6
BYBLOCK
 62
     0
 10
0.0
 20
0.0
 30
0.0
 40
0.25
  0
ENDBLK
  5
A438
  8
0
  0
BLOCK
  8
0
  2
*D24
 70
     1
 10
0.0
 20
0.0
 30
0.0
  3
*D24
  1

  0
LINE
  5
A471
  8
SP
 10
9423.0808856319054
 20
-10597.906865134781
 30
0.0
 11
9423.0808856319054
 21
-10737.906865134781
 31
0.0
  0
TEXT
  8
0
  40
137.5
  5
A476
  72
0
  71
0
 10
8905.82
 20
-10911.3
 30
0.000000
  1
(140)
  0
POINT
  5
A473
  8
DEFPOINTS
 62
     0
 10
10601.813796312939
 20
-10597.906865134781
 30
0.0
  0
POINT
  5
A474
  8
DEFPOINTS
 62
     0
 10
10601.813796312939
 20
-10737.906865134781
 30
0.0
  0
POINT
  5
A475
  8
DEFPOINTS
 62
     0
 10
9423.0808856319054
 20
-10737.906865134781
 30
0.0
  0
ENDBLK
  5
A44D
  8
0
  0
ENDSEC
  0
SECTION
  2
ENTITIES
  0
LINE
  5
5648
  8
CT
 10
13316.66744841509
 20
-8447.9068651347861
 30
0.0
 11
10351.37240228788
 21
-8447.9068651347879
 31
0.0
  0
LINE
  5
564B
  8
FUTO
 10
10601.813796312939
 20
-10417.906865134781
 30
0.0
 11
14201.813796312939
 21
-10417.906865134781
 31
0.0
  0
LINE
  5
564C
  8
FUTO
 10
10601.813796312939
 20
-10597.906865134781
 30
0.0
 11
14201.813796312939
 21
-10597.90686513479
 31
0.0
  0
LINE
  5
564F
  8
FUTO
 10
11661.813796312939
 20
-10258.80686215841
 30
0.0
 11
10496.813796312939
 21
-10368.906865134781
 31
0.0
  0
ARC
  5
5657
  8
FUTO
 10
11792.813796312939
 20
-8578.9068651347879
 30
0.0
 40
1423.0
 50
0.0
 51
4.9182549880850512
  0
ARC
  5
565B
  8
FUTO
 10
11530.813796312939
 20
-8578.9068651347879
 30
0.0
 40
1685.0
 50
274.45894888093687
 51
0.0
  0
LINE
  5
565C
  8
CT
 10
11661.813796312939
 20
-10917.906865134781
 30
0.0
 11
11661.813796312939
 21
-6967.7733814722533
 31
0.0
  0
LINE
  5
566D
  8
FUTO
 10
10561.813796312939
 20
-10362.76394651378
 30
0.0
 11
10561.813796312939
 21
-8518.9068651347861
 31
0.0
  0
LINE
  5
566E
  8
FUTO
 10
10496.813796312939
 20
-10437.906865134781
 30
0.0
 11
10496.813796312939
 21
-8449.9068651347898
 31
0.0
  0
LINE
  5
5674
  8
FUTO
 10
10608.11816443162
 20
-8518.9068651347879
 30
0.0
 11
10496.813796312939
 21
-8518.9068651347879
 31
0.0
  0
CIRCLE
  5
663A
  8
SL
 10
11661.813796312939
 20
-8447.9068651347879
 30
0.0
 40
400.0
  0
ARC
  5
67DA
  8
FUTO
 10
11792.813796312939
 20
-8578.9068651347879
 30
0.0
 40
1423.0
 50
5.6461041202552664
 51
90.0
  0
ARC
  5
67E7
  8
FUTO
 10
11551.313796312939
 20
-8337.4068651347879
 30
0.0
 40
960.5
 50
180.0
 51
190.89233534089439
  0
ARC
  5
6938
  8
FUTO
 10
11772.313796312939
 20
-8337.4068651347879
 30
0.0
 40
1181.4999999999991
 50
90.0
 51
180.0
  0
LINE
  5
7990
  8
FUTO
 10
10601.813796312939
 20
-10417.906865134781
 30
0.0
 11
10601.813796312939
 21
-10597.906865134781
 31
0.0
  0
LINE
  5
7991
  8
FUTO
 10
14201.813796312939
 20
-10417.906865134781
 30
0.0
 11
14201.813796312939
 21
-10597.906865134781
 31
0.0
  0
LINE
  5
7AB6
  8
FUTO
 10
13461.813796312939
 20
-10347.906865134781
 30
0.0
 11
13531.813796312939
 21
-10347.906865134781
 31
0.0
  0
LINE
  5
7AB7
  8
FUTO
 10
14161.813796312939
 20
-10347.906865134781
 30
0.0
 11
14161.813796312939
 21
-10417.906865134781
 31
0.0
  0
LINE
  5
7AB8
  8
FUTO
 10
13461.813796312939
 20
-10347.906865134781
 30
0.0
 11
13461.813796312939
 21
-10417.906865134781
 31
0.0
  0
LINE
  5
7AC0
  8
FUTO
 10
14081.813796312939
 20
-4128.1668147732744
 30
0.0
 11
13541.813796312939
 21
-4128.1668147732744
 31
0.0
  0
LINE
  5
7AC6
  8
FUTO
 10
13541.813796312939
 20
-5031.6668147732744
 30
0.0
 11
14081.813796312939
 21
-5031.6668147732744
 31
0.0
  0
LINE
  5
7AFE
  8
FUTO
 10
13854.313796312939
 20
-5098.1668147732753
 30
0.0
 11
13854.313796312939
 21
-5031.6668147732744
 31
0.0
  0
LINE
  5
7AFF
  8
FUTO
 10
13769.313796312939
 20
-5031.6668147732744
 30
0.0
 11
13769.313796312939
 21
-5098.1668147732753
 31
0.0
  0
ARC
  5
7B35
  8
FUTO
 10
13811.813796312939
 20
-10067.906865134781
 30
0.0
 40
287.5
 50
329.6527344126618
 51
210.34726548400729
  0
LINE
  5
7B36
  8
CT
 10
13811.813796312939
 20
-10917.90686513479
 30
0.0
 11
13811.813796312939
 21
-9684.7445451347849
 31
0.0
  0
LINE
  5
7B38
  8
CT
 10
14131.813796312939
 20
-10067.906865134781
 30
0.0
 11
13491.813796312939
 21
-10067.906865134781
 31
0.0
  0
LINE
  5
7B3B
  8
FUTO
 10
14082.18251631294
 20
-10226.66032813478
 30
0.0
 11
14059.92027331294
 21
-10213.16327913478
 31
0.0
  0
LINE
  5
7B3C
  8
FUTO
 10
14091.813796312939
 20
-10347.906865134781
 30
0.0
 11
14091.813796312939
 21
-10243.762657134779
 31
0.0
  0
ARC
  5
7B3E
  8
FUTO
 10
14071.813796312939
 20
-10243.762657134779
 30
0.0
 40
20.0
 50
0.0
 51
58.772599000000007
  0
LINE
  5
7B4A
  8
FUTO
 10
13531.813796312939
 20
-10347.906865134781
 30
0.0
 11
13531.813796312939
 21
-10243.762657134779
 31
0.0
  0
LINE
  5
7B57
  8
FUTO
 10
13541.44507531294
 20
-10226.66032813478
 30
0.0
 11
13563.707318660539
 21
-10213.163278924039
 31
0.0
  0
ARC
  5
7B5A
  8
FUTO
 10
13551.813796312939
 20
-10243.762657134779
 30
0.0
 40
20.0
 50
121.227401
 51
180.0
  0
CIRCLE
  5
7B75
  8
SL
 10
13811.813796312939
 20
-10067.906865134781
 30
0.0
 40
140.0
  0
LINE
  5
7B82
  8
FUTO
 10
14091.813796312939
 20
-10347.906865134781
 30
0.0
 11
14161.813796312939
 21
-10347.906865134781
 31
0.0
  0
LINE
  5
8CEA
  8
CT
 10
14971.69406084909
 20
-8447.9068651347916
 30
0.0
 11
18174.17843685405
 21
-8447.9068651347879
 31
0.0
  0
LINE
  5
8D2E
  8
CT
 10
16721.694060849091
 20
-6967.7733814722533
 30
0.0
 11
16721.694060849099
 21
-10917.906865134781
 31
0.0
  0
LINE
  5
8D2F
  8
FUTO
 10
17901.694060849099
 20
-10372.906865134781
 30
0.0
 11
17901.694060849099
 21
-7155.9068651347879
 31
0.0
  0
LINE
  5
8D30
  8
FUTO
 10
17970.694060849091
 20
-10417.90686513477
 30
0.0
 11
17970.694060849091
 21
-8777.9068651347916
 31
0.0
  0
LINE
  5
8D31
  8
FUTO
 10
15541.69406084909
 20
-10372.906865134781
 30
0.0
 11
15541.6940608491
 21
-10337.90686513479
 31
0.0
  0
LINE
  5
8D32
  8
FUTO
 10
15472.69406084909
 20
-10417.906865134781
 30
0.0
 11
15472.69406084909
 21
-10337.906865134781
 31
0.0
  0
LINE
  5
8D34
  8
FUTO
 10
17980.694060849091
 20
-10417.906865134781
 30
0.0
 11
17970.694060849091
 21
-10417.906865134781
 31
0.0
  0
LINE
  5
8D35
  8
FUTO
 10
17901.694060849099
 20
-8777.9068651347916
 30
0.0
 11
18141.694060849091
 21
-8777.9068651347898
 31
0.0
  0
LINE
  5
8D38
  8
FUTO
 10
17901.694060849099
 20
-8527.9068651347861
 30
0.0
 11
18141.694060849091
 21
-8527.9068651347879
 31
0.0
  0
LINE
  5
8D3D
  8
FUTO
 10
17980.694060849091
 20
-10597.906865134781
 30
0.0
 11
15130.69406084909
 21
-10597.906865134781
 31
0.0
  0
LINE
  5
8D3E
  8
FUTO
 10
17901.694060849099
 20
-8449.9068651347898
 30
0.0
 11
17970.694060849091
 21
-8449.9068651347898
 31
0.0
  0
LINE
  5
8D59
  8
FUTO
 10
15541.6940608491
 20
-8787.9068651347879
 30
0.0
 11
15307.6940608491
 21
-8787.9068651347879
 31
0.0
  0
LINE
  5
8D5A
  8
FUTO
 10
15541.6940608491
 20
-8537.9068651347843
 30
0.0
 11
15307.6940608491
 21
-8537.9068651347879
 31
0.0
  0
LINE
  5
8D5F
  8
FUTO
 10
15130.69406084909
 20
-10417.906865134781
 30
0.0
 11
15130.69406084909
 21
-10597.906865134781
 31
0.0
  0
LINE
  5
8D73
  8
FUTO
 10
15307.69406084909
 20
-8537.9068651347879
 30
0.0
 11
15307.69406084909
 21
-8787.9068651347898
 31
0.0
  0
LINE
  5
8D8E
  8
FUTO
 10
15161.6940608491
 20
-8390.4068651347898
 30
0.0
 11
15541.69406084909
 21
-8390.4068651347898
 31
0.0
  0
LINE
  5
8D8F
  8
FUTO
 10
15161.6940608491
 20
-8505.4068651347861
 30
0.0
 11
15541.6940608491
 21
-8505.4068651347861
 31
0.0
  0
LINE
  5
8D9A
  8
FUTO
 10
17980.694060849091
 20
-10417.906865134781
 30
0.0
 11
17980.694060849091
 21
-10597.906865134781
 31
0.0
  0
LINE
  5
8DA9
  8
FUTO
 10
18141.694060849091
 20
-8527.9068651347879
 30
0.0
 11
18141.694060849091
 21
-8777.9068651347898
 31
0.0
  0
LINE
  5
8DBE
  8
FUTO
 10
15541.69406084909
 20
-10372.906865134781
 30
0.0
 11
17901.694060849099
 21
-10372.906865134781
 31
0.0
  0
LINE
  5
8DC8
  8
SP
 10
16721.694060849091
 20
-6592.48237652436
 30
0.0
 11
16721.694060849091
 21
-6537.48237652436
 31
0.0
  0
LINE
  5
98B1
  8
SL
 10
14971.69406084909
 20
-7967.9068651347898
 30
0.0
 11
14971.6940608491
 21
-10287.906865134781
 31
0.0
  0
LINE
  5
98B2
  8
SL
 10
14971.69406084909
 20
-7967.9068651347898
 30
0.0
 11
15211.69406084909
 21
-7967.9068651347898
 31
0.0
  0
LINE
  5
98B4
  8
SL
 10
15211.69406084909
 20
-10287.90686513479
 30
0.0
 11
14971.69406084909
 21
-10287.906865134781
 31
0.0
  0
LINE
  5
98B5
  8
SL
 10
15211.69406084909
 20
-7967.9068651347898
 30
0.0
 11
15211.69406084909
 21
-8017.9068651347916
 31
0.0
  0
LINE
  5
98B6
  8
SL
 10
15021.6940608491
 20
-8047.9068651347907
 30
0.0
 11
15161.6940608491
 21
-8047.9068651347934
 31
0.0
  0
LINE
  5
98B7
  8
SL
 10
15021.6940608491
 20
-8847.9068651347934
 30
0.0
 11
15161.69406084909
 21
-8847.9068651347934
 31
0.0
  0
LINE
  5
98B8
  8
SL
 10
15161.6940608491
 20
-9927.9068651347898
 30
0.0
 11
15021.6940608491
 21
-9927.9068651347879
 31
0.0
  0
LINE
  5
98B9
  8
SL
 10
15161.6940608491
 20
-10207.906865134781
 30
0.0
 11
15021.6940608491
 21
-10207.906865134781
 31
0.0
  0
LINE
  5
98BA
  8
SL
 10
15021.6940608491
 20
-8047.9068651347907
 30
0.0
 11
15021.6940608491
 21
-10207.906865134781
 31
0.0
  0
LINE
  5
98BC
  8
SL
 10
15161.6940608491
 20
-8047.9068651347907
 30
0.0
 11
15161.6940608491
 21
-10207.906865134781
 31
0.0
  0
LINE
  5
98BF
  8
SL
 10
15211.69406084909
 20
-10237.90686513479
 30
0.0
 11
15211.69406084909
 21
-10287.906865134781
 31
0.0
  0
LINE
  5
98C4
  8
FUTO
 10
13541.813796312939
 20
-5031.6668147732744
 30
0.0
 11
13541.813796312939
 21
-4128.1668147732744
 31
0.0
  0
LINE
  5
98C5
  8
FUTO
 10
14081.813796312939
 20
-5031.6668147732744
 30
0.0
 11
14081.813796312939
 21
-4128.1668147732744
 31
0.0
  0
LINE
  5
98C6
  8
FUTO
 10
15228.19406084909
 20
-10337.906865134781
 30
0.0
 11
16131.69406084909
 21
-10337.90686513479
 31
0.0
  0
LINE
  5
98C7
  8
FUTO
 10
15228.19406084909
 20
-9797.9068651347861
 30
0.0
 11
16131.6940608491
 21
-9797.9068651347861
 31
0.0
  0
LINE
  5
98C8
  8
CT
 10
14971.69406084909
 20
-10067.906865134781
 30
0.0
 11
16189.549632183671
 21
-10067.90686513479
 31
0.0
  0
LINE
  5
98CA
  8
FUTO
 10
15228.19406084909
 20
-10337.906865134781
 30
0.0
 11
15228.19406084909
 21
-9797.9068651347861
 31
0.0
  0
LINE
  5
98CC
  8
FUTO
 10
15161.6940608491
 20
-10025.406865134781
 30
0.0
 11
15228.19406084909
 21
-10025.406865134781
 31
0.0
  0
LINE
  5
98CD
  8
FUTO
 10
15228.19406084909
 20
-10110.406865134781
 30
0.0
 11
15161.6940608491
 21
-10110.406865134781
 31
0.0
  0
LINE
  5
98CF
  8
FUTO
 10
10601.813796312939
 20
-5129.1668147732744
 30
0.0
 11
14201.813796312939
 21
-5129.1668147732798
 31
0.0
  0
LINE
  5
98D1
  8
FUTO
 10
10601.813796312939
 20
-5129.1668147732744
 30
0.0
 11
10601.813796312939
 21
-4718.1668147732717
 31
0.0
  0
LINE
  5
98D2
  8
FUTO
 10
10601.813796312939
 20
-2279.1668147732739
 30
0.0
 11
12721.813796312939
 21
-2279.1668147732739
 31
0.0
  0
LINE
  5
98D3
  8
FUTO
 10
12721.813796312939
 20
-2279.1668147732739
 30
0.0
 11
12721.813796312939
 21
-2358.1668147732739
 31
0.0
  0
LINE
  5
98D4
  8
FUTO
 10
14201.813796312939
 20
-5129.1668147732798
 30
0.0
 11
14201.813796312939
 21
-3929.1668147732798
 31
0.0
  0
LINE
  5
98D5
  8
FUTO
 10
14201.813796312939
 20
-3929.1668147732798
 30
0.0
 11
13215.813796312939
 21
-3929.1668147732798
 31
0.0
  0
LINE
  5
98D6
  8
CT
 10
13811.813796312939
 20
-5288.1668147732744
 30
0.0
 11
13811.813796312939
 21
-4108.5548784274324
 31
0.0
  0
LINE
  5
98D7
  8
CT
 10
11661.813796312939
 20
-2147.194717401173
 30
0.0
 11
11661.813796312939
 21
-5288.1668147732744
 31
0.0
  0
LINE
  5
98D8
  8
CT
 10
10363.980761877679
 20
-3538.1668147732739
 30
0.0
 11
13348.88906040308
 21
-3538.1668147732739
 31
0.0
  0
LINE
  5
98DA
  8
SL
 10
11261.813796312939
 20
-5238.1668147732753
 30
0.0
 11
13951.813796312939
 21
-5238.1668147732753
 31
0.0
  0
LINE
  5
98DB
  8
SL
 10
11261.813796312939
 20
-5098.1668147732753
 30
0.0
 11
13951.813796312939
 21
-5098.1668147732753
 31
0.0
  0
LINE
  5
98DC
  8
SL
 10
11261.813796312939
 20
-5098.1668147732753
 30
0.0
 11
11261.813796312939
 21
-5238.1668147732753
 31
0.0
  0
LINE
  5
98DD
  8
SL
 10
12061.813796312939
 20
-5098.1668147732753
 30
0.0
 11
12061.813796312939
 21
-5238.1668147732753
 31
0.0
  0
LINE
  5
98DE
  8
SL
 10
13671.813796312939
 20
-5238.1668147732753
 30
0.0
 11
13671.813796312939
 21
-5098.1668147732753
 31
0.0
  0
LINE
  5
98DF
  8
SL
 10
13951.813796312939
 20
-5238.1668147732753
 30
0.0
 11
13951.813796312939
 21
-5098.1668147732753
 31
0.0
  0
LINE
  5
98E1
  8
SL
 10
11181.813796312939
 20
-5288.1668147732744
 30
0.0
 11
14031.813796312939
 21
-5288.1668147732744
 31
0.0
  0
LINE
  5
98E3
  8
SL
 10
11181.813796312939
 20
-5048.1668147732744
 30
0.0
 11
11181.813796312939
 21
-5288.1668147732744
 31
0.0
  0
LINE
  5
98E4
  8
SL
 10
14031.813796312939
 20
-5288.1668147732744
 30
0.0
 11
14031.813796312939
 21
-5048.1668147732744
 31
0.0
  0
LINE
  5
98E5
  8
SL
 10
11181.813796312939
 20
-5048.1668147732744
 30
0.0
 11
11231.813796312939
 21
-5048.1668147732744
 31
0.0
  0
LINE
  5
98E8
  8
SL
 10
13981.813796312939
 20
-5048.1668147732744
 30
0.0
 11
14031.813796312939
 21
-5048.1668147732744
 31
0.0
  0
CIRCLE
  5
98EB
  8
FUTO
 10
11661.813796312939
 20
-8447.9068651347879
 30
0.0
 40
900.0
  0
CIRCLE
  5
98EC
  8
FUTO
 10
11661.813796312939
 20
-8447.9068651347879
 30
0.0
 40
965.0
  0
LINE
  5
98ED
  8
FUTO
 10
10496.813796312939
 20
-4787.1668147732744
 30
0.0
 11
10496.813796312939
 21
-2289.1668147732739
 31
0.0
  0
LINE
  5
98EE
  8
FUTO
 10
13215.813796312939
 20
-4718.1668147732744
 30
0.0
 11
13215.813796312939
 21
-2358.1668147732739
 31
0.0
  0
LINE
  5
98EF
  8
FUTO
 10
10496.813796312939
 20
-2358.1668147732739
 30
0.0
 11
13215.813796312939
 21
-2358.1668147732739
 31
0.0
  0
LINE
  5
98F0
  8
FUTO
 10
10496.813796312939
 20
-4718.1668147732744
 30
0.0
 11
13215.813796312939
 21
-4718.1668147732744
 31
0.0
  0
LINE
  5
98F1
  8
FUTO
 10
10601.813796312939
 20
-2358.1668147732739
 30
0.0
 11
10601.813796312939
 21
-2279.1668147732739
 31
0.0
  0
LINE
  5
98F4
  8
FUTO
 10
10561.813796312939
 20
-4718.1668147732717
 30
0.0
 11
10561.813796312939
 21
-2358.1668147732739
 31
0.0
  0
DIMENSION
  5
9D6B
  8
SP
  2
*D1
 10
14547.411548406921
 20
-5129.1668147732798
 30
0.0
 11
14434.911548406921
 21
-4529.1668147732789
 31
0.0
 12
-453.79805906377442
 22
0.0
 32
0.0
 70
     0
 13
14201.813796312939
 23
-3929.1668147732798
 33
0.0
 14
14201.813796312939
 24
-5129.1668147732798
 34
0.0
 50
270.0
1001
ACAD
1000
DSTYLE
1002
{
1070
   140
1040
2.5
1070
    40
1040
50.0
1070
   147
1040
1.0
1070
   271
1070
     0
1002
}
  0
DIMENSION
  5
9D78
  8
SP
  2
*D2
 10
10601.813796312939
 20
-5652.171877547662
 30
0.0
 11
12401.813796312939
 21
-5539.671877547662
 31
0.0
 12
-453.79805906377442
 22
0.0
 32
0.0
 70
     0
 13
14201.813796312939
 23
-5129.1668147732798
 33
0.0
 14
10601.813796312939
 24
-5129.1668147732744
 34
0.0
1001
ACAD
1000
DSTYLE
1002
{
1070
   140
1040
2.5
1070
    40
1040
50.0
1070
   147
1040
1.0
1070
   271
1070
     0
1002
}
  0
DIMENSION
  5
9D85
  8
SP
  2
*D3
 10
10067.268332730489
 20
-5129.1668147732744
 30
0.0
 11
9954.7683327304912
 21
-3704.1668147732739
 31
0.0
 12
-453.79805906377442
 22
0.0
 32
0.0
 70
     0
 13
10601.813796312939
 23
-2279.1668147732739
 33
0.0
 14
10601.813796312939
 24
-5129.1668147732744
 34
0.0
 50
270.0
1001
ACAD
1000
DSTYLE
1002
{
1070
   140
1040
2.5
1070
    40
1040
50.0
1070
   147
1040
1.0
1070
   271
1070
     0
1002
}
  0
DIMENSION
  5
9D92
  8
SP
  2
*D4
 10
10601.813796312939
 20
-1983.199102532606
 30
0.0
 11
11661.813796312939
 21
-1870.699102532606
 31
0.0
 12
-453.79805906377442
 22
0.0
 32
0.0
 70
     0
 13
12721.813796312939
 23
-2279.1668147732739
 33
0.0
 14
10601.813796312939
 24
-2279.1668147732739
 34
0.0
1001
ACAD
1000
DSTYLE
1002
{
1070
   140
1040
2.5
1070
    40
1040
50.0
1070
   147
1040
1.0
1070
   271
1070
     0
1002
}
  0
DIMENSION
  5
9D9F
  8
SP
  2
*D5
 10
14201.813796312939
 20
-1983.199102532606
 30
0.0
 11
13461.813796312939
 21
-1870.699102532606
 31
0.0
 12
-453.79805906377442
 22
0.0
 32
0.0
 70
     0
 13
12721.813796312939
 23
-2279.1668147732739
 33
0.0
 14
14201.813796312939
 24
-3929.1668147732798
 34
0.0
1001
ACAD
1000
DSTYLE
1002
{
1070
   140
1040
2.5
1070
    40
1040
50.0
1070
   147
1040
1.0
1070
   271
1070
     0
1002
}
  0
DIMENSION
  5
9DD3
  8
SP
  2
*D6
 10
11661.813796312939
 20
-11230.89450325237
 30
0.0
 11
12931.813796312939
 21
-11118.39450325237
 31
0.0
 12
-453.79805906377442
 22
-320.0
 32
0.0
 70
     0
 13
14201.813796312939
 23
-10917.90686513479
 33
0.0
 14
11661.813796312939
 24
-10917.906865134781
 34
0.0
1001
ACAD
1000
DSTYLE
1002
{
1070
   140
1040
2.5
1070
    40
1040
50.0
1070
   147
1040
1.0
1070
   271
1070
     0
1002
}
  0
DIMENSION
  5
9DE0
  8
SP
  2
*D7
 10
10601.813796312939
 20
-11230.89450325237
 30
0.0
 11
11131.813796312939
 21
-11118.39450325237
 31
0.0
 12
-453.79805906377442
 22
-320.0
 32
0.0
 70
     0
 13
11661.813796312939
 23
-10917.906865134781
 33
0.0
 14
10601.813796312939
 24
-10917.906865134781
 34
0.0
1001
ACAD
1000
DSTYLE
1002
{
1070
   140
1040
2.5
1070
    40
1040
50.0
1070
   147
1040
1.0
1070
   271
1070
     0
1002
}
  0
DIMENSION
  5
9DFA
  8
SP
  2
*D8
 10
16721.694060849091
 20
-11230.89450325237
 30
0.0
 11
15926.19406084909
 21
-11118.39450325237
 31
0.0
 12
11813.211539178939
 22
514.70697605277383
 32
0.0
 70
     0
 13
15130.69406084909
 23
-10917.906865134781
 33
0.0
 14
16721.694060849091
 24
-10917.906865134781
 34
0.0
1001
ACAD
1000
DSTYLE
1002
{
1070
   140
1040
2.5
1070
    40
1040
50.0
1070
   147
1040
1.0
1070
   271
1070
     0
1002
}
  0
DIMENSION
  5
9E07
  8
SP
  2
*D9
 10
17980.694060849091
 20
-11230.89450325237
 30
0.0
 11
17351.194060849091
 21
-11118.39450325237
 31
0.0
 12
11813.211539178939
 22
514.70697605277383
 32
0.0
 70
     0
 13
16721.694060849091
 23
-10917.906865134781
 33
0.0
 14
17980.694060849091
 24
-10917.906865134781
 34
0.0
1001
ACAD
1000
DSTYLE
1002
{
1070
   140
1040
2.5
1070
    40
1040
50.0
1070
   147
1040
1.0
1070
   271
1070
     0
1002
}
  0
DIMENSION
  5
9E14
  8
SP
  2
*D10
 10
17980.694060849091
 20
-11548.872151095689
 30
0.0
 11
16555.694060849091
 21
-11436.372151095689
 31
0.0
 12
11813.211539178939
 22
514.70697605277383
 32
0.0
 70
     0
 13
15130.69406084909
 23
-10917.906865134781
 33
0.0
 14
17980.694060849091
 24
-10917.906865134781
 34
0.0
1001
ACAD
1000
DSTYLE
1002
{
1070
   140
1040
2.5
1070
    40
1040
50.0
1070
   147
1040
1.0
1070
   271
1070
     0
1002
}
  0
DIMENSION
  5
9E55
  8
SP
  2
*D11
 10
10601.813796312939
 20
-11548.872151095689
 30
0.0
 11
12401.813796312939
 21
-11436.372151095689
 31
0.0
 12
-453.79805906377442
 22
-320.0
 32
0.0
 70
     0
 13
14201.813796312939
 23
-10917.906865134781
 33
0.0
 14
10601.813796312939
 24
-10917.906865134781
 34
0.0
1001
ACAD
1000
DSTYLE
1002
{
1070
   140
1040
2.5
1070
    40
1040
50.0
1070
   147
1040
1.0
1070
   271
1070
     0
1002
}
  0
LINE
  5
A0E7
  8
4
 10
17961.166697834029
 20
-12040.48813421171
 30
0.0
 11
17961.166697834029
 21
-13140.488134211701
 31
0.0
  0
LINE
  5
A0E8
  8
4
 10
14111.166697834031
 20
-12040.48813421171
 30
0.0
 11
14111.166697834031
 21
-13140.488134211701
 31
0.0
  0
LINE
  5
A0E9
  8
4
 10
11361.166697834031
 20
-12040.48813421171
 30
0.0
 11
11361.166697834031
 21
-13140.488134211701
 31
0.0
  0
LINE
  5
A0EC
  8
4
 10
11361.166697834031
 20
-13140.48813421171
 30
0.0
 11
17961.166697834029
 21
-13140.48813421171
 31
0.0
  0
LINE
  5
A0ED
  8
4
 10
11361.166697834031
 20
-12590.48813421171
 30
0.0
 11
17961.166697834029
 21
-12590.48813421171
 31
0.0
  0
TEXT
  5
A0EE
  8
4
 10
11572.92814249199
 20
-12417.001491945341
 30
0.0
 40
275.0
  1
機器名称
  0
TEXT
  5
A0EF
  8
4
 10
11560.586280970419
 20
-13021.439772185649
 30
0.0
 40
275.0
  1
機器型番
  0
TEXT
  5
A0F0
  8
4
 10
14274.28609399308
 20
-12457.343074152201
 30
0.0
 40
233.75
  1
ミツヤリミットロ－ドファン
  0
TEXT
  5
A0F1
  8
4
 10
14312.76642355418
 20
-13046.110420672019
 30
0.0
 40
275.0
  1
MF#11-5
  0
TEXT
  5
A0F3
  8
4
 10
12185.977151365751
 20
-1128.5605847023901
 30
0.0
 40
297.0
  1
床置防振ベット
  0
TEXT
  5
A0F4
  8
4
 10
9429.0032408987445
 20
-301.07384293508937
 30
0.0
 40
396.0
  1
遠心式両吸込両持多翼ファン
  0
LINE
  5
A0F5
  8
4
 10
9161.1666978340363
 20
-655.67106357480043
 30
0.0
 11
17961.166697834029
 21
-655.67106357480043
 31
0.0
  0
LINE
  5
A0F6
  8
4
 10
9161.1666978340363
 20
444.32893642519952
 30
0.0
 11
17961.166697834029
 21
444.32893642519952
 31
0.0
  0
LINE
  5
A0F7
  8
4
 10
11361.166697834031
 20
-12040.48813421171
 30
0.0
 11
17961.166697834029
 21
-12040.48813421171
 31
0.0
  0
LINE
  5
A0F8
  8
4
 10
9161.1666978340363
 20
444.32893642519952
 30
0.0
 11
9161.1666978340363
 21
-655.67106357480043
 31
0.0
  0
TEXT
  5
A0F9
  8
4
 10
9788.7535740308977
 20
-1134.6620855263391
 30
0.0
 40
297.0
  1
右回転左横向
  0
TEXT
  5
A0FA
  8
4
 10
15865.499273705131
 20
645.91673619297035
 30
0.0
 40
308.0
  1
No.
  0
TEXT
  5
A0FB
  8
4
 10
14998.295042134099
 20
-1128.5605847023901
 30
0.0
 40
297.0
  1
縮尺：1/55
  0
LINE
  5
A0FC
  8
4
 10
17961.166697834029
 20
444.32893642519952
 30
0.0
 11
17961.166697834029
 21
-655.67106357480043
 31
0.0
  0
LINE
  5
A0FD
  8
4
 10
19336.166697834029
 20
1987.580787968772
 30
0.0
 11
19336.166697834029
 21
1987.580787968772
 31
0.0
  0
LINE
  5
A0FE
  8
4
 10
15709.56252081329
 20
509.53049515847852
 30
0.0
 11
15709.56252081329
 21
1089.1682264924109
 31
0.0
  0
LINE
  5
A0FF
  8
4
 10
15709.56252081329
 20
1089.1682264924109
 30
0.0
 11
17961.166697834029
 21
1089.1682264924109
 31
0.0
  0
LINE
  5
A100
  8
4
 10
17961.166697834029
 20
1089.1682264924109
 30
0.0
 11
17961.166697834029
 21
509.53049515847852
 31
0.0
  0
LINE
  5
A101
  8
4
 10
17961.166697834029
 20
509.53049515847852
 30
0.0
 11
15709.56252081329
 21
509.53049515847852
 31
0.0
  0
LINE
  5
A102
  8
4
 10
7786.1666978340372
 20
-14237.419212031229
 30
0.0
 11
7786.1666978340372
 21
1987.580787968772
 31
0.0
  0
LINE
  5
A103
  8
4
 10
7786.1666978340372
 20
1987.580787968772
 30
0.0
 11
19336.166697834029
 21
1987.580787968772
 31
0.0
  0
LINE
  5
A104
  8
4
 10
19336.166697834029
 20
1987.580787968772
 30
0.0
 11
19336.166697834029
 21
-14237.419212031229
 31
0.0
  0
LINE
  5
A105
  8
4
 10
19336.166697834029
 20
-14237.419212031229
 30
0.0
 11
7786.1666978340372
 21
-14237.419212031229
 31
0.0
  0
LINE
  5
A2EA
  8
FUTO
 10
11792.813796312939
 20
-7155.9068651347879
 30
0.0
 11
11772.313796312939
 21
-7155.9068651347879
 31
0.0
  0
LINE
  5
A2EB
  8
FUTO
 10
15541.6940608491
 20
-7155.9068651347879
 30
0.0
 11
17901.694060849099
 21
-7155.9068651347879
 31
0.0
  0
LINE
  5
A2ED
  8
FUTO
 10
17980.694060849091
 20
-10417.90686513477
 30
0.0
 11
15130.6940608491
 21
-10417.906865134781
 31
0.0
  0
DIMENSION
  5
A2FA
  8
SP
  2
*D12
 10
17901.694060849099
 20
-6862.3381015241393
 30
0.0
 11
16721.694060849099
 21
-6738.5881015241403
 31
0.0
 70
     0
 13
15541.6940608491
 23
-7155.9068651347879
 33
0.0
 14
17901.694060849099
 24
-7155.9068651347879
 34
0.0
1001
ACAD
1000
DSTYLE
1002
{
1070
   140
1040
2.5
1070
    40
1040
55.0
1070
   147
1040
1.0
1070
   271
1070
     0
1002
}
  0
DIMENSION
  5
A307
  8
SP
  2
*D13
 10
10496.813796312939
 20
-6862.3381015241393
 30
0.0
 11
11079.313796312939
 21
-6738.5881015241403
 31
0.0
 12
-453.79805906377442
 22
0.0
 32
0.0
 70
     0
 13
11661.813796312939
 23
-6967.7733814722533
 33
0.0
 14
10496.813796312939
 24
-8449.9068651347898
 34
0.0
1001
ACAD
1000
DSTYLE
1002
{
1070
   140
1040
2.5
1070
    40
1040
55.0
1070
   147
1040
1.0
1070
   271
1070
     0
1002
}
  0
DIMENSION
  5
A314
  8
SP
  2
*D14
 10
13215.813796312939
 20
-6862.3381015241393
 30
0.0
 11
12438.813796312939
 21
-6738.5881015241403
 31
0.0
 12
-453.79805906377442
 22
0.0
 32
0.0
 70
     0
 13
11661.813796312939
 23
-6967.7733814722533
 33
0.0
 14
13215.813796312939
 24
-8578.9068651347879
 34
0.0
1001
ACAD
1000
DSTYLE
1002
{
1070
   140
1040
2.5
1070
    40
1040
55.0
1070
   147
1040
1.0
1070
   271
1070
     0
1002
}
  0
DIMENSION
  5
A321
  8
SP
  2
*D15
 10
10140.46864687541
 20
-10368.906865134781
 30
0.0
 11
10016.71864687541
 21
-9443.9068651347879
 31
0.0
 12
-453.79805906377442
 22
0.0
 32
0.0
 70
     0
 13
10496.813796312939
 23
-8518.9068651347879
 33
0.0
 14
10496.813796312939
 24
-10368.906865134781
 34
0.0
 50
270.0
1001
ACAD
1000
DSTYLE
1002
{
1070
   140
1040
2.5
1070
    40
1040
55.0
1070
   147
1040
1.0
1070
   271
1070
     0
1002
}
  0
DIMENSION
  5
A32E
  8
SP
  2
*D16
 10
9780.5888337548258
 20
-8447.9068651347879
 30
0.0
 11
9656.8388337548258
 21
-9408.4068651347879
 31
0.0
 12
-453.79805906377442
 22
0.0
 32
0.0
 70
     0
 13
10496.813796312939
 23
-10368.906865134781
 33
0.0
 14
10351.37240228788
 24
-8447.9068651347879
 34
0.0
 50
270.0
1001
ACAD
1000
DSTYLE
1002
{
1070
   140
1040
2.5
1070
    40
1040
55.0
1070
   147
1040
1.0
1070
   271
1070
     0
1002
}
  0
DIMENSION
  5
A33B
  8
SP
  2
*D17
 10
9420.7090206342327
 20
-8447.9068651347879
 30
0.0
 11
9296.9590206342327
 21
-9522.9068651347898
 31
0.0
 12
-453.79805906377442
 22
0.0
 32
0.0
 70
     0
 13
10601.813796312939
 23
-10597.906865134781
 33
0.0
 14
10351.37240228788
 24
-8447.9068651347879
 34
0.0
 50
270.0
1001
ACAD
1000
DSTYLE
1002
{
1070
   140
1040
2.5
1070
    40
1040
55.0
1070
   147
1040
1.0
1070
   271
1070
     0
1002
}
  0
DIMENSION
  5
A348
  8
SP
  2
*D18
 10
9420.7090206342327
 20
-8447.9068651347879
 30
0.0
 11
9296.9590206342327
 21
-7801.9068651347879
 31
0.0
 12
-453.79805906377442
 22
0.0
 32
0.0
 70
     0
 13
11792.813796312939
 23
-7155.9068651347879
 33
0.0
 14
10351.37240228788
 24
-8447.9068651347879
 34
0.0
 50
270.0
1001
ACAD
1000
DSTYLE
1002
{
1070
   140
1040
2.5
1070
    40
1040
55.0
1070
   147
1040
1.0
1070
   271
1070
     0
1002
}
  0
DIMENSION
  5
A355
  8
SP
  2
*D19
 10
14971.69406084909
 20
-6566.9862275150372
 30
0.0
 11
15846.6940608491
 21
-6407.2243227531326
 31
0.0
 70
     0
 13
16721.694060849091
 23
-6592.48237652436
 33
0.0
 14
14971.69406084909
 24
-7967.9068651347898
 34
0.0
1001
ACAD
1000
DSTYLE
1002
{
1070
   140
1040
2.5
1070
    40
1040
55.0
1070
     3
1000
(<>)
1070
   147
1040
1.0
1070
   271
1070
     0
1002
}
  0
DIMENSION
  5
A362
  8
SP
  2
*D20
 10
18141.694060849091
 20
-6566.9862275150372
 30
0.0
 11
17431.694060849091
 21
-6407.2243227531326
 31
0.0
 70
     0
 13
16721.694060849091
 23
-6592.48237652436
 33
0.0
 14
18141.694060849091
 24
-8527.9068651347879
 34
0.0
1001
ACAD
1000
DSTYLE
1002
{
1070
   140
1040
2.5
1070
    40
1040
55.0
1070
     3
1000
(<>)
1070
   147
1040
1.0
1070
   271
1070
     0
1002
}
  0
ARC
  5
A363
  8
SL
 10
11661.813796312939
 20
-8447.9068651347879
 30
0.0
 40
480.0
 50
47.460006694638842
 51
238.54479377308809
  0
ARC
  5
A364
  8
SL
 10
13811.813796312939
 20
-10067.906865134781
 30
0.0
 40
220.0
 50
238.5447937730882
 51
47.460006694638892
  0
LINE
  5
A365
  8
SL
 10
13960.55682448884
 20
-9905.8096363828245
 30
0.0
 11
11986.344039605799
 21
-8094.2401842214231
 31
0.0
  0
LINE
  5
A367
  8
SL
 10
13906.46845060669
 20
-9964.7540832017185
 30
0.0
 11
11932.25566572366
 21
-8153.1846310403162
 31
0.0
  0
LINE
  5
A368
  8
SL
 10
13738.7573426291
 20
-10187.33364008555
 30
0.0
 11
11453.08107150198
 21
-8789.1262221369852
 31
0.0
  0
LINE
  5
A369
  8
SL
 10
13697.01079766691
 20
-10255.57751148599
 30
0.0
 11
11411.334526539789
 21
-8857.3700935374254
 31
0.0
  0
LINE
  5
A412
  8
FUTO
 10
17970.694060849091
 20
-8527.9068651347861
 30
0.0
 11
17970.694060849091
 21
-8449.9068651347898
 31
0.0
  0
LINE
  5
A413
  8
FUTO
 10
15472.69406084909
 20
-8537.9068651347861
 30
0.0
 11
15472.69406084909
 21
-8505.4068651347861
 31
0.0
  0
LINE
  5
A416
  8
FUTO
 10
17980.694060849091
 20
-10917.906865134781
 30
0.0
 11
15130.69406084909
 21
-10917.906865134781
 31
0.0
  0
LINE
  5
A417
  8
FUTO
 10
17980.694060849091
 20
-10737.906865134781
 30
0.0
 11
17980.694060849091
 21
-10917.906865134781
 31
0.0
  0
LINE
  5
A418
  8
FUTO
 10
17980.694060849091
 20
-10737.90686513477
 30
0.0
 11
15130.6940608491
 21
-10737.906865134781
 31
0.0
  0
LINE
  5
A419
  8
FUTO
 10
15130.69406084909
 20
-10737.906865134781
 30
0.0
 11
15130.69406084909
 21
-10917.906865134781
 31
0.0
  0
LINE
  5
A41A
  8
FUTO
 10
10601.813796312939
 20
-10917.906865134781
 30
0.0
 11
14201.813796312939
 21
-10917.90686513479
 31
0.0
  0
LINE
  5
A41B
  8
FUTO
 10
14201.813796312939
 20
-10737.906865134781
 30
0.0
 11
14201.813796312939
 21
-10917.906865134781
 31
0.0
  0
LINE
  5
A41C
  8
FUTO
 10
10601.813796312939
 20
-10737.906865134781
 30
0.0
 11
14201.813796312939
 21
-10737.906865134781
 31
0.0
  0
LINE
  5
A41D
  8
FUTO
 10
10601.813796312939
 20
-10737.906865134781
 30
0.0
 11
10601.813796312939
 21
-10917.906865134781
 31
0.0
  0
DIMENSION
  5
A434
  8
SP
  2
*D22
 10
9421.4153802872388
 20
-10917.906865134781
 30
0.0
 11
9297.6653802872406
 21
-11361.453512312661
 31
0.0
 12
0.0
 22
-120.0
 32
0.0
 70
     0
 13
10601.813796312939
 23
-10737.906865134781
 33
0.0
 14
10601.813796312939
 24
-10917.906865134781
 34
0.0
 50
90.0
1001
ACAD
1000
DSTYLE
1002
{
1070
   140
1040
2.5
1070
    40
1040
55.0
1070
   147
1040
1.0
1070
   271
1070
     0
1070
     6
1000
_DOT
1002
}
  0
DIMENSION
  5
A44E
  8
SP
  2
*D24
 10
9423.0808856319054
 20
-10737.906865134781
 30
0.0
 11
9180.8189808700026
 21
-10667.906865134781
 31
0.0
 70
     0
 13
10601.813796312939
 23
-10597.906865134781
 33
0.0
 14
10601.813796312939
 24
-10737.906865134781
 34
0.0
 50
90.0
1001
ACAD
1000
DSTYLE
1002
{
1070
   287
1070
     5
1070
     3
1000
(<>)
1070
    40
1040
55.0
1070
    75
1070
     1
1070
    76
1070
     1
1070
   140
1040
2.5
1070
   147
1040
1.0
1070
   271
1070
     0
1070
   279
1070
     2
1070
   289
1070
     3
1070
     6
1000
NONE
1070
     7
1000
NONE
1002
}
  0
LINE
  5
A454
  8
FUTO
 10
16131.69406084909
 20
-10337.906865134781
 30
0.0
 11
16131.69406084909
 21
-9797.9068651347861
 31
0.0
  0
LINE
  5
A456
  8
FUTO
 10
15541.6940608491
 20
-9797.9068651347861
 30
0.0
 11
15541.6940608491
 21
-7155.9068651347879
 31
0.0
  0
LINE
  5
A457
  8
FUTO
 10
15472.69406084909
 20
-9797.9068651347861
 30
0.0
 11
15472.6940608491
 21
-8787.9068651347879
 31
0.0
  0
ENDSEC
  0
EOF
