  0
SECTION
  2
HEADER
  9
$ACADVER
  1
AC1009
  9
$INSBASE
 10
0.0
 20
0.0
 30
0.0
  9
$EXTMIN
 10
7786.1666978340372
 20
-14237.419212031229
 30
0.0
  9
$EXTMAX
 10
19336.166697834029
 20
1987.580787968772
 30
0.0
  9
$LIMMIN
 10
0.0
 20
0.0
  9
$LIMMAX
 10
297.0
 20
210.0
  9
$ORTHOMODE
 70
     0
  9
$REGENMODE
 70
     1
  9
$FILLMODE
 70
     1
  9
$QTEXTMODE
 70
     0
  9
$MIRRTEXT
 70
     0
  9
$DRAGMODE
 70
     2
  9
$LTSCALE
 40
275.0
  9
$OSMODE
 70
    37
  9
$ATTMODE
 70
     1
  9
$TEXTSIZE
 40
137.5
  9
$TRACEWID
 40
0.05
  9
$TEXTSTYLE
  7
STANDARD
  9
$CLAYER
  8
SP
  9
$CELTYPE
  6
BYLAYER
  9
$CECOLOR
 62
   256
  9
$DIMSCALE
 40
55.0
  9
$DIMASZ
 40
2.0
  9
$DIMEXO
 40
1.0
  9
$DIMDLI
 40
10.0
  9
$DIMRND
 40
0.0
  9
$DIMDLE
 40
0.0
  9
$DIMEXE
 40
1.0
  9
$DIMTP
 40
0.0
  9
$DIMTM
 40
0.0
  9
$DIMTXT
 40
2.5
  9
$DIMCEN
 40
0.0
  9
$DIMTSZ
 40
0.0
  9
$DIMTOL
 70
     0
  9
$DIMLIM
 70
     0
  9
$DIMTIH
 70
     0
  9
$DIMTOH
 70
     0
  9
$DIMSE1
 70
     1
  9
$DIMSE2
 70
     1
  9
$DIMTAD
 70
     1
  9
$DIMZIN
 70
     8
  9
$DIMBLK
  1

  9
$DIMASO
 70
     1
  9
$DIMSHO
 70
     1
  9
$DIMPOST
  1
(<>)
  9
$DIMAPOST
  1

  9
$DIMALT
 70
     0
  9
$DIMALTD
 70
     2
  9
$DIMALTF
 40
0.03937
  9
$DIMLFAC
 40
1.0
  9
$DIMTOFL
 70
     1
  9
$DIMTVP
 40
0.0
  9
$DIMTIX
 70
     0
  9
$DIMSOXD
 70
     0
  9
$DIMSAH
 70
     1
  9
$DIMBLK1
  1
NONE
  9
$DIMBLK2
  1
NONE
  9
$DIMSTYLE
  2
MATSU
  9
$DIMCLRD
 70
   256
  9
$DIMCLRE
 70
   256
  9
$DIMCLRT
 70
   256
  9
$DIMTFAC
 40
1.0
  9
$DIMGAP
 40
1.0
  9
$LUNITS
 70
     2
  9
$LUPREC
 70
     4
  9
$SKETCHINC
 40
0.1
  9
$FILLETRAD
 40
0.0
  9
$AUNITS
 70
     0
  9
$AUPREC
 70
     2
  9
$MENU
  1
acad
  9
$ELEVATION
 40
0.0
  9
$PELEVATION
 40
0.0
  9
$THICKNESS
 40
0.0
  9
$LIMCHECK
 70
     0
  9
$BLIPMODE
 70
     0
  9
$CHAMFERA
 40
20.0
  9
$CHAMFERB
 40
20.0
  9
$SKPOLY
 70
     0
  9
$TDCREATE
 40
2453950.639283854
  9
$TDUPDATE
 40
2454953.8320430089
  9
$TDINDWG
 40
0.354718044
  9
$TDUSRTIMER
 40
0.354718044
  9
$USRTIMER
 70
     1
  9
$ANGBASE
 50
0.0
  9
$ANGDIR
 70
     0
  9
$PDMODE
 70
     0
  9
$PDSIZE
 40
1.0
  9
$PLINEWID
 40
0.0
  9
$COORDS
 70
     1
  9
$SPLFRAME
 70
     0
  9
$SPLINETYPE
 70
     6
  9
$SPLINESEGS
 70
     8
  9
$ATTDIA
 70
     0
  9
$ATTREQ
 70
     1
  9
$HANDLING
 70
 10241
  9
$HANDSEED
  5
A3E7
  9
$SURFTAB1
 70
     6
  9
$SURFTAB2
 70
     6
  9
$SURFTYPE
 70
     6
  9
$SURFU
 70
     6
  9
$SURFV
 70
     6
  9
$UCSNAME
  2

  9
$UCSORG
 10
0.0
 20
-0.0000000000000568
 30
0.0
  9
$UCSXDIR
 10
1.0
 20
0.0
 30
0.0
  9
$UCSYDIR
 10
0.0
 20
1.0
 30
0.0
  9
$PUCSNAME
  2

  9
$PUCSORG
 10
0.0
 20
0.0
 30
0.0
  9
$PUCSXDIR
 10
1.0
 20
0.0
 30
0.0
  9
$PUCSYDIR
 10
0.0
 20
1.0
 30
0.0
  9
$USERI1
 70
     0
  9
$USERI2
 70
     0
  9
$USERI3
 70
     0
  9
$USERI4
 70
     0
  9
$USERI5
 70
     0
  9
$USERR1
 40
0.0
  9
$USERR2
 40
0.0
  9
$USERR3
 40
0.0
  9
$USERR4
 40
0.0
  9
$USERR5
 40
0.0
  9
$WORLDVIEW
 70
     1
  9
$SHADEDGE
 70
     3
  9
$SHADEDIF
 70
    70
  9
$TILEMODE
 70
     1
  9
$MAXACTVP
 70
    16
  9
$PLIMCHECK
 70
     0
  9
$PEXTMIN
 10
1.0000000000000000E+020
 20
1.0000000000000000E+020
 30
1.0000000000000000E+020
  9
$PEXTMAX
 10
-1.0000000000000000E+020
 20
-1.0000000000000000E+020
 30
-1.0000000000000000E+020
  9
$PLIMMIN
 10
0.0
 20
0.0
  9
$PLIMMAX
 10
12.0
 20
9.0
  9
$UNITMODE
 70
     0
  9
$VISRETAIN
 70
     0
  9
$PLINEGEN
 70
     0
  9
$PSLTSCALE
 70
     0
  0
ENDSEC
  0
SECTION
  2
TABLES
  0
TABLE
  2
VPORT
 70
     2
  0
VPORT
  2
*ACTIVE
 70
     0
 10
0.0
 20
0.0
 11
1.0
 21
1.0
 12
22453.56669783403
 22
-4492.383698012537
 13
0.0
 23
0.0
 14
5.0
 24
5.0
 15
0.0
 25
0.0
 16
0.0
 26
0.0
 36
1.0
 17
0.0
 27
0.0
 37
0.0
 40
19490.071028037379
 41
1.5051150895140659
 42
50.0
 43
0.0
 44
0.0
 50
0.0
 51
0.0
 71
     0
 72
   100
 73
     1
 74
     0
 75
     0
 76
     0
 77
     0
 78
     0
  0
ENDTAB
  0
TABLE
  2
LTYPE
 70
     3
  0
LTYPE
  2
CONTINUOUS
 70
     0
  3
Solid line
 72
    65
 73
     0
 40
0.0
  0
LTYPE
  2
CENTER
 70
     0
  3
____ _ ____ _ ____ _ ____ _ ____ _ ____ _ ____ 
 72
    65
 73
     4
 40
2.0
 49
1.25
 49
-0.25
 49
0.25
 49
-0.25
  0
LTYPE
  2
PHANTOM
 70
     0
  3
______  __  __  ______  __  __  ______  __  __ 
 72
    65
 73
     6
 40
2.5
 49
1.25
 49
-0.25
 49
0.25
 49
-0.25
 49
0.25
 49
-0.25
  0
ENDTAB
  0
TABLE
  2
LAYER
 70
     7
  0
LAYER
  2
0
 70
     0
 62
     7
  6
CONTINUOUS
  0
LAYER
  2
CT
 70
     0
 62
     3
  6
CENTER
  0
LAYER
  2
FUTO
 70
     0
 62
     4
  6
CONTINUOUS
  0
LAYER
  2
SL
 70
     0
 62
     1
  6
PHANTOM
  0
LAYER
  2
SP
 70
     0
 62
     2
  6
CONTINUOUS
  0
LAYER
  2
DEFPOINTS
 70
     0
 62
     7
  6
CONTINUOUS
  0
LAYER
  2
4
 70
     0
 62
     7
  6
CONTINUOUS
  0
ENDTAB
  0
TABLE
  2
STYLE
 70
     1
  0
STYLE
  2
STANDARD
 70
     0
 40
0.0
 41
1.0
 50
15.0
 71
     0
 42
137.5
  3
C:\Program Files\AutoCAD LT\simplex.shx
  4
C:\Program Files\AutoCAD LT\extfont.shx
  0
ENDTAB
  0
TABLE
  2
VIEW
 70
     0
  0
ENDTAB
  0
TABLE
  2
UCS
 70
     0
  0
ENDTAB
  0
TABLE
  2
APPID
 70
     2
  0
APPID
  2
ACAD
 70
     0
  0
APPID
  2
CONTENTBLOCKICON
 70
     0
  0
ENDTAB
  0
TABLE
  2
DIMSTYLE
 70
     2
  0
DIMSTYLE
  2
STANDARD
 70
     0
  3

  4

  5

  6

  7

 40
1.0
 41
0.18
 42
0.0625
 43
0.38
 44
0.18
 45
0.0
 46
0.0
 47
0.0
 48
0.0
140
0.18
141
0.09
142
0.0
143
25.399999999999999
144
1.0
145
0.0
146
1.0
147
0.09
 71
     0
 72
     0
 73
     1
 74
     1
 75
     0
 76
     0
 77
     0
 78
     0
170
     0
171
     2
172
     0
173
     0
174
     0
175
     0
176
     0
177
     0
178
     0
  0
DIMSTYLE
  2
MATSU
 70
     0
  3

  4

  5

  6
OPEN
  7
OPEN
 40
1.0
 41
2.0
 42
1.0
 43
10.0
 44
1.0
 45
0.0
 46
0.0
 47
0.0
 48
0.0
140
3.0
141
0.0
142
0.0
143
0.03937
144
1.0
145
0.0
146
1.0
147
0.5
 71
     0
 72
     0
 73
     0
 74
     0
 75
     0
 76
     0
 77
     1
 78
     8
170
     0
171
     2
172
     1
173
     1
174
     0
175
     0
176
   256
177
   256
178
   256
  0
ENDTAB
  0
ENDSEC
  0
SECTION
  2
BLOCKS
  0
BLOCK
  8
0
  2
$MODEL_SPACE
 70
     0
 10
0.0
 20
0.0
 30
0.0
  3
$MODEL_SPACE
  1

  0
ENDBLK
  5
1B
  8
0
  0
BLOCK
 67
     1
  8
0
  2
$PAPER_SPACE
 70
     0
 10
0.0
 20
0.0
 30
0.0
  3
$PAPER_SPACE
  1

  0
ENDBLK
  5
18
 67
     1
  8
0
  0
BLOCK
  8
0
  2
_OPEN
 70
     0
 10
0.0
 20
0.0
 30
0.0
  3
_OPEN
  1

  0
LINE
  5
28
  8
0
  6
BYBLOCK
 62
     0
 10
-1.0
 20
0.1666666666666666
 30
0.0
 11
0.0
 21
0.0
 31
0.0
  0
LINE
  5
29
  8
0
  6
BYBLOCK
 62
     0
 10
0.0
 20
0.0
 30
0.0
 11
-1.0
 21
-0.1666666666666666
 31
0.0
  0
LINE
  5
2A
  8
0
  6
BYBLOCK
 62
     0
 10
0.0
 20
0.0
 30
0.0
 11
-1.0
 21
0.0
 31
0.0
  0
ENDBLK
  5
2B
  8
0
  0
BLOCK
  8
0
  2
*D1
 70
     1
 10
0.0
 20
0.0
 30
0.0
  3
*D1
  1

  0
LINE
  5
9D61
  8
0
  6
BYBLOCK
 10
-2287.5996838022211
 20
-4983.8737908260537
 30
0.0
 11
-2633.1974358962029
 21
-4983.8737908260537
 31
0.0
  0
LINE
  5
9D62
  8
0
  6
BYBLOCK
 10
-2287.5996838022211
 20
-6183.8737908260537
 30
0.0
 11
-2633.1974358962029
 21
-6183.8737908260537
 31
0.0
  0
LINE
  5
9D63
  8
0
  6
BYBLOCK
 10
-2583.1974358962029
 20
-5083.8737908260537
 30
0.0
 11
-2583.1974358962029
 21
-6083.8737908260537
 31
0.0
  0
INSERT
  5
9D64
  8
0
  6
BYBLOCK
  2
_OPEN
 10
-2583.1974358962029
 20
-4983.8737908260537
 30
0.0
 41
100.0
 42
100.0
 43
100.0
 50
90.0
  0
INSERT
  5
9D65
  8
0
  6
BYBLOCK
  2
_OPEN
 10
-2583.1974358962029
 20
-6183.8737908260537
 30
0.0
 41
100.0
 42
100.0
 43
100.0
 50
270.0
  0
TEXT
  5
9D66
  8
SP
 10
-2633.1974358962029
 20
-5816.3448400601555
 30
0.0
 40
125.0
  1
1200
 50
90.0
 51
15.0
  0
POINT
  5
9D67
  8
DEFPOINTS
  6
BYBLOCK
 62
     0
 10
-2237.5996838022202
 20
-4983.8737908260537
 30
0.0
  0
POINT
  5
9D68
  8
DEFPOINTS
  6
BYBLOCK
 62
     0
 10
-2237.5996838022202
 20
-6183.8737908260537
 30
0.0
  0
POINT
  5
9D69
  8
DEFPOINTS
  6
BYBLOCK
 62
     0
 10
-2583.1974358962029
 20
-6183.8737908260537
 30
0.0
  0
ENDBLK
  5
9D6A
  8
0
  0
BLOCK
  8
0
  2
*D2
 70
     1
 10
0.0
 20
0.0
 30
0.0
  3
*D2
  1

  0
LINE
  5
9D6E
  8
0
  6
BYBLOCK
 10
-2237.5996838022202
 20
-6233.8737908260537
 30
0.0
 11
-2237.5996838022202
 21
-6756.8788536004358
 31
0.0
  0
LINE
  5
9D6F
  8
0
  6
BYBLOCK
 10
1362.4003161977789
 20
-6233.8737908260491
 30
0.0
 11
1362.4003161977789
 21
-6756.8788536004358
 31
0.0
  0
LINE
  5
9D70
  8
0
  6
BYBLOCK
 10
-2137.5996838022211
 20
-6706.8788536004358
 30
0.0
 11
1262.4003161977789
 21
-6706.8788536004358
 31
0.0
  0
INSERT
  5
9D71
  8
0
  6
BYBLOCK
  2
_OPEN
 10
-2237.5996838022202
 20
-6706.8788536004358
 30
0.0
 41
100.0
 42
100.0
 43
100.0
 50
180.0
  0
INSERT
  5
9D72
  8
0
  6
BYBLOCK
  2
_OPEN
 10
1362.4003161977789
 20
-6706.8788536004358
 30
0.0
 41
100.0
 42
100.0
 43
100.0
  0
TEXT
  5
9D73
  8
SP
 10
-671.60841309107104
 20
-6656.8788536004358
 30
0.0
 40
125.0
  1
3600
 51
15.0
  0
POINT
  5
9D74
  8
DEFPOINTS
  6
BYBLOCK
 62
     0
 10
-2237.5996838022202
 20
-6183.8737908260537
 30
0.0
  0
POINT
  5
9D75
  8
DEFPOINTS
  6
BYBLOCK
 62
     0
 10
1362.4003161977789
 20
-6183.8737908260482
 30
0.0
  0
POINT
  5
9D76
  8
DEFPOINTS
  6
BYBLOCK
 62
     0
 10
1362.4003161977789
 20
-6706.8788536004358
 30
0.0
  0
ENDBLK
  5
9D77
  8
0
  0
BLOCK
  8
0
  2
*D3
 70
     1
 10
0.0
 20
0.0
 30
0.0
  3
*D3
  1

  0
LINE
  5
9D7B
  8
0
  6
BYBLOCK
 10
1412.400316197778
 20
-3333.8737908260482
 30
0.0
 11
1946.9457797802311
 21
-3333.8737908260482
 31
0.0
  0
LINE
  5
9D7C
  8
0
  6
BYBLOCK
 10
1412.400316197778
 20
-6183.8737908260482
 30
0.0
 11
1946.9457797802311
 21
-6183.8737908260482
 31
0.0
  0
LINE
  5
9D7D
  8
0
  6
BYBLOCK
 10
1896.9457797802311
 20
-3433.8737908260482
 30
0.0
 11
1896.9457797802311
 21
-6083.8737908260482
 31
0.0
  0
INSERT
  5
9D7E
  8
0
  6
BYBLOCK
  2
_OPEN
 10
1896.9457797802311
 20
-3333.8737908260482
 30
0.0
 41
100.0
 42
100.0
 43
100.0
 50
90.0
  0
INSERT
  5
9D7F
  8
0
  6
BYBLOCK
  2
_OPEN
 10
1896.9457797802311
 20
-6183.8737908260482
 30
0.0
 41
100.0
 42
100.0
 43
100.0
 50
270.0
  0
TEXT
  5
9D80
  8
SP
 10
1846.9457797802311
 20
-4989.6926487764331
 30
0.0
 40
125.0
  1
2850
 50
90.0
 51
15.0
  0
POINT
  5
9D81
  8
DEFPOINTS
  6
BYBLOCK
 62
     0
 10
1362.4003161977789
 20
-3333.8737908260482
 30
0.0
  0
POINT
  5
9D82
  8
DEFPOINTS
  6
BYBLOCK
 62
     0
 10
1362.4003161977789
 20
-6183.8737908260482
 30
0.0
  0
POINT
  5
9D83
  8
DEFPOINTS
  6
BYBLOCK
 62
     0
 10
1896.9457797802311
 20
-6183.8737908260482
 30
0.0
  0
ENDBLK
  5
9D84
  8
0
  0
BLOCK
  8
0
  2
*D4
 70
     1
 10
0.0
 20
0.0
 30
0.0
  3
*D4
  1

  0
LINE
  5
9D88
  8
0
  6
BYBLOCK
 10
-757.59968380222097
 20
-3283.8737908260482
 30
0.0
 11
-757.59968380222097
 21
-2987.9060785853799
 31
0.0
  0
LINE
  5
9D89
  8
0
  6
BYBLOCK
 10
1362.4003161977789
 20
-3283.8737908260482
 30
0.0
 11
1362.4003161977789
 21
-2987.9060785853799
 31
0.0
  0
LINE
  5
9D8A
  8
0
  6
BYBLOCK
 10
-657.59968380222097
 20
-3037.906078585379
 30
0.0
 11
1262.4003161977789
 21
-3037.906078585379
 31
0.0
  0
INSERT
  5
9D8B
  8
0
  6
BYBLOCK
  2
_OPEN
 10
-757.59968380222097
 20
-3037.906078585379
 30
0.0
 41
100.0
 42
100.0
 43
100.0
 50
180.0
  0
INSERT
  5
9D8C
  8
0
  6
BYBLOCK
  2
_OPEN
 10
1362.4003161977789
 20
-3037.906078585379
 30
0.0
 41
100.0
 42
100.0
 43
100.0
  0
TEXT
  5
9D8D
  8
SP
 10
83.486220152156648
 20
-2987.9060785853799
 30
0.0
 40
125.0
  1
2120
 51
15.0
  0
POINT
  5
9D8E
  8
DEFPOINTS
  6
BYBLOCK
 62
     0
 10
-757.59968380222097
 20
-3333.8737908260482
 30
0.0
  0
POINT
  5
9D8F
  8
DEFPOINTS
  6
BYBLOCK
 62
     0
 10
1362.4003161977789
 20
-3333.8737908260482
 30
0.0
  0
POINT
  5
9D90
  8
DEFPOINTS
  6
BYBLOCK
 62
     0
 10
1362.4003161977789
 20
-3037.906078585379
 30
0.0
  0
ENDBLK
  5
9D91
  8
0
  0
BLOCK
  8
0
  2
*D5
 70
     1
 10
0.0
 20
0.0
 30
0.0
  3
*D5
  1

  0
LINE
  5
9D95
  8
0
  6
BYBLOCK
 10
-757.59968380222097
 20
-3283.8737908260482
 30
0.0
 11
-757.59968380222097
 21
-2987.9060785853799
 31
0.0
  0
LINE
  5
9D96
  8
0
  6
BYBLOCK
 10
-2237.5996838022202
 20
-4933.8737908260537
 30
0.0
 11
-2237.5996838022202
 21
-2987.9060785853799
 31
0.0
  0
LINE
  5
9D97
  8
0
  6
BYBLOCK
 10
-857.59968380222108
 20
-3037.906078585379
 30
0.0
 11
-2137.5996838022211
 21
-3037.906078585379
 31
0.0
  0
INSERT
  5
9D98
  8
0
  6
BYBLOCK
  2
_OPEN
 10
-757.59968380222097
 20
-3037.906078585379
 30
0.0
 41
100.0
 42
100.0
 43
100.0
  0
INSERT
  5
9D99
  8
0
  6
BYBLOCK
  2
_OPEN
 10
-2237.5996838022202
 20
-3037.906078585379
 30
0.0
 41
100.0
 42
100.0
 43
100.0
 50
180.0
  0
TEXT
  5
9D9A
  8
SP
 10
-1730.0707330363221
 20
-2987.9060785853799
 30
0.0
 40
125.0
  1
1480
 51
15.0
  0
POINT
  5
9D9B
  8
DEFPOINTS
  6
BYBLOCK
 62
     0
 10
-757.59968380222097
 20
-3333.8737908260482
 30
0.0
  0
POINT
  5
9D9C
  8
DEFPOINTS
  6
BYBLOCK
 62
     0
 10
-2237.5996838022202
 20
-4983.8737908260537
 30
0.0
  0
POINT
  5
9D9D
  8
DEFPOINTS
  6
BYBLOCK
 62
     0
 10
-2237.5996838022202
 20
-3037.906078585379
 30
0.0
  0
ENDBLK
  5
9D9E
  8
0
  0
BLOCK
  8
0
  2
*D6
 70
     1
 10
0.0
 20
0.0
 30
0.0
  3
*D6
  1

  0
LINE
  5
9DC9
  8
0
  6
BYBLOCK
 10
-2237.5996838022202
 20
-11482.61384118756
 30
0.0
 11
-2237.5996838022202
 21
-11795.60147930514
 31
0.0
  0
LINE
  5
9DCA
  8
0
  6
BYBLOCK
 10
302.40031619777892
 20
-11482.61384118756
 30
0.0
 11
302.40031619777892
 21
-11795.60147930514
 31
0.0
  0
LINE
  5
9DCB
  8
0
  6
BYBLOCK
 10
-2137.5996838022211
 20
-11745.60147930514
 30
0.0
 11
202.40031619777889
 21
-11745.60147930514
 31
0.0
  0
INSERT
  5
9DCC
  8
0
  6
BYBLOCK
  2
_OPEN
 10
-2237.5996838022202
 20
-11745.60147930514
 30
0.0
 41
100.0
 42
100.0
 43
100.0
 50
180.0
  0
INSERT
  5
9DCD
  8
0
  6
BYBLOCK
  2
_OPEN
 10
302.40031619777892
 20
-11745.60147930514
 30
0.0
 41
100.0
 42
100.0
 43
100.0
  0
TEXT
  5
9DCE
  8
SP
 10
-1198.4185417526051
 20
-11695.60147930514
 30
0.0
 40
125.0
  1
2540
 51
15.0
  0
POINT
  5
9DCF
  8
DEFPOINTS
  6
BYBLOCK
 62
     0
 10
-2237.5996838022202
 20
-11432.61384118756
 30
0.0
  0
POINT
  5
9DD0
  8
DEFPOINTS
  6
BYBLOCK
 62
     0
 10
302.40031619777892
 20
-11432.61384118756
 30
0.0
  0
POINT
  5
9DD1
  8
DEFPOINTS
  6
BYBLOCK
 62
     0
 10
302.40031619777892
 20
-11745.60147930514
 30
0.0
  0
ENDBLK
  5
9DD2
  8
0
  0
BLOCK
  8
0
  2
*D7
 70
     1
 10
0.0
 20
0.0
 30
0.0
  3
*D7
  1

  0
LINE
  5
9DD6
  8
0
  6
BYBLOCK
 10
302.40031619777892
 20
-11482.61384118756
 30
0.0
 11
302.40031619777892
 21
-11795.60147930514
 31
0.0
  0
LINE
  5
9DD7
  8
0
  6
BYBLOCK
 10
1362.4003161977789
 20
-11482.61384118756
 30
0.0
 11
1362.4003161977789
 21
-11795.60147930514
 31
0.0
  0
LINE
  5
9DD8
  8
0
  6
BYBLOCK
 10
402.40031619777881
 20
-11745.60147930514
 30
0.0
 11
1262.4003161977789
 21
-11745.60147930514
 31
0.0
  0
INSERT
  5
9DD9
  8
0
  6
BYBLOCK
  2
_OPEN
 10
302.40031619777892
 20
-11745.60147930514
 30
0.0
 41
100.0
 42
100.0
 43
100.0
 50
180.0
  0
INSERT
  5
9DDA
  8
0
  6
BYBLOCK
  2
_OPEN
 10
1362.4003161977789
 20
-11745.60147930514
 30
0.0
 41
100.0
 42
100.0
 43
100.0
  0
TEXT
  5
9DDB
  8
SP
 10
599.92926696367726
 20
-11695.60147930514
 30
0.0
 40
125.0
  1
1060
 51
15.0
  0
POINT
  5
9DDC
  8
DEFPOINTS
  6
BYBLOCK
 62
     0
 10
302.40031619777892
 20
-11432.61384118756
 30
0.0
  0
POINT
  5
9DDD
  8
DEFPOINTS
  6
BYBLOCK
 62
     0
 10
1362.4003161977789
 20
-11432.61384118756
 30
0.0
  0
POINT
  5
9DDE
  8
DEFPOINTS
  6
BYBLOCK
 62
     0
 10
1362.4003161977789
 20
-11745.60147930514
 30
0.0
  0
ENDBLK
  5
9DDF
  8
0
  0
BLOCK
  8
0
  2
*D8
 70
     1
 10
0.0
 20
0.0
 30
0.0
  3
*D8
  1

  0
LINE
  5
9DF0
  8
0
  6
BYBLOCK
 10
3317.482521670157
 20
-11482.61384118756
 30
0.0
 11
3317.482521670157
 21
-11795.60147930514
 31
0.0
  0
LINE
  5
9DF1
  8
0
  6
BYBLOCK
 10
4908.4825216701574
 20
-11482.61384118756
 30
0.0
 11
4908.4825216701574
 21
-11795.60147930514
 31
0.0
  0
LINE
  5
9DF2
  8
0
  6
BYBLOCK
 10
3417.482521670157
 20
-11745.60147930514
 30
0.0
 11
4808.4825216701574
 21
-11745.60147930514
 31
0.0
  0
INSERT
  5
9DF3
  8
0
  6
BYBLOCK
  2
_OPEN
 10
3317.482521670157
 20
-11745.60147930514
 30
0.0
 41
100.0
 42
100.0
 43
100.0
 50
180.0
  0
INSERT
  5
9DF4
  8
0
  6
BYBLOCK
  2
_OPEN
 10
4908.4825216701574
 20
-11745.60147930514
 30
0.0
 41
100.0
 42
100.0
 43
100.0
  0
TEXT
  5
9DF5
  8
SP
 10
3901.1311249071141
 20
-11695.60147930514
 30
0.0
 40
125.0
  1
1591
 51
15.0
  0
POINT
  5
9DF6
  8
DEFPOINTS
  6
BYBLOCK
 62
     0
 10
3317.482521670157
 20
-11432.61384118756
 30
0.0
  0
POINT
  5
9DF7
  8
DEFPOINTS
  6
BYBLOCK
 62
     0
 10
4908.4825216701574
 20
-11432.61384118756
 30
0.0
  0
POINT
  5
9DF8
  8
DEFPOINTS
  6
BYBLOCK
 62
     0
 10
4908.4825216701574
 20
-11745.60147930514
 30
0.0
  0
ENDBLK
  5
9DF9
  8
0
  0
BLOCK
  8
0
  2
*D9
 70
     1
 10
0.0
 20
0.0
 30
0.0
  3
*D9
  1

  0
LINE
  5
9DFD
  8
0
  6
BYBLOCK
 10
4908.4825216701574
 20
-11482.61384118756
 30
0.0
 11
4908.4825216701574
 21
-11795.60147930514
 31
0.0
  0
LINE
  5
9DFE
  8
0
  6
BYBLOCK
 10
6167.4825216701583
 20
-11482.61384118756
 30
0.0
 11
6167.4825216701583
 21
-11795.60147930514
 31
0.0
  0
LINE
  5
9DFF
  8
0
  6
BYBLOCK
 10
5008.4825216701574
 20
-11745.60147930514
 30
0.0
 11
6067.4825216701574
 21
-11745.60147930514
 31
0.0
  0
INSERT
  5
9E00
  8
0
  6
BYBLOCK
  2
_OPEN
 10
4908.4825216701574
 20
-11745.60147930514
 30
0.0
 41
100.0
 42
100.0
 43
100.0
 50
180.0
  0
INSERT
  5
9E01
  8
0
  6
BYBLOCK
  2
_OPEN
 10
6167.4825216701583
 20
-11745.60147930514
 30
0.0
 41
100.0
 42
100.0
 43
100.0
  0
TEXT
  5
9E02
  8
SP
 10
5307.6901950776301
 20
-11695.60147930514
 30
0.0
 40
125.0
  1
1259
 51
15.0
  0
POINT
  5
9E03
  8
DEFPOINTS
  6
BYBLOCK
 62
     0
 10
4908.4825216701574
 20
-11432.61384118756
 30
0.0
  0
POINT
  5
9E04
  8
DEFPOINTS
  6
BYBLOCK
 62
     0
 10
6167.4825216701583
 20
-11432.61384118756
 30
0.0
  0
POINT
  5
9E05
  8
DEFPOINTS
  6
BYBLOCK
 62
     0
 10
6167.4825216701583
 20
-11745.60147930514
 30
0.0
  0
ENDBLK
  5
9E06
  8
0
  0
BLOCK
  8
0
  2
*D10
 70
     1
 10
0.0
 20
0.0
 30
0.0
  3
*D10
  1

  0
LINE
  5
9E0A
  8
0
  6
BYBLOCK
 10
3317.482521670157
 20
-11482.61384118756
 30
0.0
 11
3317.482521670157
 21
-12113.57912714846
 31
0.0
  0
LINE
  5
9E0B
  8
0
  6
BYBLOCK
 10
6167.4825216701583
 20
-11482.61384118756
 30
0.0
 11
6167.4825216701583
 21
-12113.57912714846
 31
0.0
  0
LINE
  5
9E0C
  8
0
  6
BYBLOCK
 10
3417.482521670157
 20
-12063.57912714846
 30
0.0
 11
6067.4825216701574
 21
-12063.57912714846
 31
0.0
  0
INSERT
  5
9E0D
  8
0
  6
BYBLOCK
  2
_OPEN
 10
3317.482521670157
 20
-12063.57912714846
 30
0.0
 41
100.0
 42
100.0
 43
100.0
 50
180.0
  0
INSERT
  5
9E0E
  8
0
  6
BYBLOCK
  2
_OPEN
 10
6167.4825216701583
 20
-12063.57912714846
 30
0.0
 41
100.0
 42
100.0
 43
100.0
  0
TEXT
  5
9E0F
  8
SP
 10
4511.6636637197726
 20
-12013.57912714846
 30
0.0
 40
125.0
  1
2850
 51
15.0
  0
POINT
  5
9E10
  8
DEFPOINTS
  6
BYBLOCK
 62
     0
 10
3317.482521670157
 20
-11432.61384118756
 30
0.0
  0
POINT
  5
9E11
  8
DEFPOINTS
  6
BYBLOCK
 62
     0
 10
6167.4825216701583
 20
-11432.61384118756
 30
0.0
  0
POINT
  5
9E12
  8
DEFPOINTS
  6
BYBLOCK
 62
     0
 10
6167.4825216701583
 20
-12063.57912714846
 30
0.0
  0
ENDBLK
  5
9E13
  8
0
  0
BLOCK
  8
0
  2
*D11
 70
     1
 10
0.0
 20
0.0
 30
0.0
  3
*D11
  1

  0
LINE
  5
9E4B
  8
0
  6
BYBLOCK
 10
-2237.5996838022202
 20
-11482.61384118756
 30
0.0
 11
-2237.5996838022202
 21
-12113.57912714846
 31
0.0
  0
LINE
  5
9E4C
  8
0
  6
BYBLOCK
 10
1362.4003161977789
 20
-11482.61384118756
 30
0.0
 11
1362.4003161977789
 21
-12113.57912714846
 31
0.0
  0
LINE
  5
9E4D
  8
0
  6
BYBLOCK
 10
-2137.5996838022211
 20
-12063.57912714846
 30
0.0
 11
1262.4003161977789
 21
-12063.57912714846
 31
0.0
  0
INSERT
  5
9E4E
  8
0
  6
BYBLOCK
  2
_OPEN
 10
-2237.5996838022202
 20
-12063.57912714846
 30
0.0
 41
100.0
 42
100.0
 43
100.0
 50
180.0
  0
INSERT
  5
9E4F
  8
0
  6
BYBLOCK
  2
_OPEN
 10
1362.4003161977789
 20
-12063.57912714846
 30
0.0
 41
100.0
 42
100.0
 43
100.0
  0
TEXT
  5
9E50
  8
SP
 10
-671.60841309107104
 20
-12013.57912714846
 30
0.0
 40
125.0
  1
3600
 51
15.0
  0
POINT
  5
9E51
  8
DEFPOINTS
  6
BYBLOCK
 62
     0
 10
-2237.5996838022202
 20
-11432.61384118756
 30
0.0
  0
POINT
  5
9E52
  8
DEFPOINTS
  6
BYBLOCK
 62
     0
 10
1362.4003161977789
 20
-11432.61384118756
 30
0.0
  0
POINT
  5
9E53
  8
DEFPOINTS
  6
BYBLOCK
 62
     0
 10
1362.4003161977789
 20
-12063.57912714846
 30
0.0
  0
ENDBLK
  5
9E54
  8
0
  0
BLOCK
  8
0
  2
*D12
 70
     1
 10
0.0
 20
0.0
 30
0.0
  3
*D12
  1

  0
LINE
  5
A319
  8
0
  6
BYBLOCK
 10
10194.611855376719
 20
-7827.9068651347889
 30
0.0
 11
10194.611855376719
 21
-7544.900183871192
 31
0.0
  0
LINE
  5
A31A
  8
0
  6
BYBLOCK
 10
12044.61185537671
 20
-7827.9068651347852
 30
0.0
 11
12044.61185537671
 21
-7544.900183871192
 31
0.0
  0
LINE
  5
A31B
  8
0
  6
BYBLOCK
 10
10304.61185537671
 20
-7599.9001838711911
 30
0.0
 11
11934.61185537671
 21
-7599.9001838711911
 31
0.0
  0
INSERT
  5
A31C
  8
0
  6
BYBLOCK
  2
_OPEN
 10
10194.611855376719
 20
-7599.9001838711911
 30
0.0
 41
110.0
 42
110.0
 43
110.0
 50
180.0
  0
INSERT
  5
A31D
  8
0
  6
BYBLOCK
  2
_OPEN
 10
12044.61185537671
 20
-7599.9001838711911
 30
0.0
 41
110.0
 42
110.0
 43
110.0
  0
TEXT
  5
A31E
  8
SP
 10
10863.8937012192
 20
-7544.900183871192
 30
0.0
 40
137.5
  1
1850
 51
15.0
  0
POINT
  5
A31F
  8
DEFPOINTS
  6
BYBLOCK
 62
     0
 10
10194.611855376719
 20
-7882.9068651347879
 30
0.0
  0
POINT
  5
A320
  8
DEFPOINTS
  6
BYBLOCK
 62
     0
 10
12044.61185537671
 20
-7882.906865134787
 30
0.0
  0
POINT
  5
A321
  8
DEFPOINTS
  6
BYBLOCK
 62
     0
 10
12044.61185537671
 20
-7599.9001838711911
 30
0.0
  0
ENDBLK
  5
A322
  8
0
  0
BLOCK
  8
0
  2
*D13
 70
     1
 10
0.0
 20
0.0
 30
0.0
  3
*D13
  1

  0
LINE
  5
A326
  8
0
  6
BYBLOCK
 10
10194.611855376719
 20
-7827.9068651347889
 30
0.0
 11
10194.611855376719
 21
-7218.1161845228708
 31
0.0
  0
LINE
  5
A327
  8
0
  6
BYBLOCK
 10
12115.611855376719
 20
-7682.4654711097246
 30
0.0
 11
12115.611855376719
 21
-7218.1161845228708
 31
0.0
  0
LINE
  5
A328
  8
0
  6
BYBLOCK
 10
10304.61185537671
 20
-7273.1161845228708
 30
0.0
 11
12005.61185537671
 21
-7273.1161845228708
 31
0.0
  0
INSERT
  5
A329
  8
0
  6
BYBLOCK
  2
_OPEN
 10
10194.611855376719
 20
-7273.1161845228708
 30
0.0
 41
110.0
 42
110.0
 43
110.0
 50
180.0
  0
INSERT
  5
A32A
  8
0
  6
BYBLOCK
  2
_OPEN
 10
12115.611855376719
 20
-7273.1161845228708
 30
0.0
 41
110.0
 42
110.0
 43
110.0
  0
TEXT
  5
A32B
  8
SP
 10
10922.07531893737
 20
-7218.1161845228708
 30
0.0
 40
137.5
  1
1921
 51
15.0
  0
POINT
  5
A32C
  8
DEFPOINTS
  6
BYBLOCK
 62
     0
 10
10194.611855376719
 20
-7882.9068651347879
 30
0.0
  0
POINT
  5
A32D
  8
DEFPOINTS
  6
BYBLOCK
 62
     0
 10
12115.611855376719
 20
-7737.4654711097246
 30
0.0
  0
POINT
  5
A32E
  8
DEFPOINTS
  6
BYBLOCK
 62
     0
 10
12115.611855376719
 20
-7273.1161845228708
 30
0.0
  0
ENDBLK
  5
A32F
  8
0
  0
BLOCK
  8
0
  2
*D14
 70
     1
 10
0.0
 20
0.0
 30
0.0
  3
*D14
  1

  0
LINE
  5
A333
  8
0
  6
BYBLOCK
 10
15541.69406084908
 20
-7827.9068651347889
 30
0.0
 11
15541.69406084908
 21
-7544.900183871192
 31
0.0
  0
LINE
  5
A334
  8
0
  6
BYBLOCK
 10
17901.694060849091
 20
-7827.9068651347889
 30
0.0
 11
17901.694060849091
 21
-7544.900183871192
 31
0.0
  0
LINE
  5
A335
  8
0
  6
BYBLOCK
 10
15651.69406084909
 20
-7599.9001838711911
 30
0.0
 11
17791.694060849091
 21
-7599.9001838711911
 31
0.0
  0
INSERT
  5
A336
  8
0
  6
BYBLOCK
  2
_OPEN
 10
15541.69406084908
 20
-7599.9001838711911
 30
0.0
 41
110.0
 42
110.0
 43
110.0
 50
180.0
  0
INSERT
  5
A337
  8
0
  6
BYBLOCK
  2
_OPEN
 10
17901.694060849091
 20
-7599.9001838711911
 30
0.0
 41
110.0
 42
110.0
 43
110.0
  0
TEXT
  5
A338
  8
SP
 10
16467.79331710366
 20
-7544.900183871192
 30
0.0
 40
137.5
  1
2360
 51
15.0
  0
POINT
  5
A339
  8
DEFPOINTS
  6
BYBLOCK
 62
     0
 10
15541.69406084908
 20
-7882.9068651347889
 30
0.0
  0
POINT
  5
A33A
  8
DEFPOINTS
  6
BYBLOCK
 62
     0
 10
17901.694060849091
 20
-7882.9068651347889
 30
0.0
  0
POINT
  5
A33B
  8
DEFPOINTS
  6
BYBLOCK
 62
     0
 10
17901.694060849091
 20
-7599.9001838711911
 30
0.0
  0
ENDBLK
  5
A33C
  8
0
  0
BLOCK
  8
0
  2
*D15
 70
     1
 10
0.0
 20
0.0
 30
0.0
  3
*D15
  1

  0
LINE
  5
A340
  8
0
  6
BYBLOCK
 10
12168.61185537671
 20
-7882.9068651347879
 30
0.0
 11
13854.951404817901
 21
-7882.9068651347879
 31
0.0
  0
LINE
  5
A341
  8
0
  6
BYBLOCK
 10
13500.611855376719
 20
-9047.9068651347898
 30
0.0
 11
13854.951404817901
 21
-9047.9068651347898
 31
0.0
  0
LINE
  5
A342
  8
0
  6
BYBLOCK
 10
13799.951404817901
 20
-7992.9068651347879
 30
0.0
 11
13799.951404817901
 21
-8937.9068651347879
 31
0.0
  0
INSERT
  5
A343
  8
0
  6
BYBLOCK
  2
_OPEN
 10
13799.951404817901
 20
-7882.9068651347879
 30
0.0
 41
110.0
 42
110.0
 43
110.0
 50
90.0
  0
INSERT
  5
A344
  8
0
  6
BYBLOCK
  2
_OPEN
 10
13799.951404817901
 20
-9047.9068651347898
 30
0.0
 41
110.0
 42
110.0
 43
110.0
 50
270.0
  0
TEXT
  5
A345
  8
SP
 10
13744.951404817901
 20
-8708.2648301455647
 30
0.0
 40
137.5
  1
1165
 50
90.0
 51
15.0
  0
POINT
  5
A346
  8
DEFPOINTS
  6
BYBLOCK
 62
     0
 10
12113.61185537671
 20
-7882.9068651347879
 30
0.0
  0
POINT
  5
A347
  8
DEFPOINTS
  6
BYBLOCK
 62
     0
 10
13445.611855376719
 20
-9047.9068651347898
 30
0.0
  0
POINT
  5
A348
  8
DEFPOINTS
  6
BYBLOCK
 62
     0
 10
13799.951404817901
 20
-9047.9068651347898
 30
0.0
  0
ENDBLK
  5
A349
  8
0
  0
BLOCK
  8
0
  2
*D16
 70
     1
 10
0.0
 20
0.0
 30
0.0
  3
*D16
  1

  0
LINE
  5
A34D
  8
0
  6
BYBLOCK
 10
13500.611855376719
 20
-9047.9068651347898
 30
0.0
 11
13854.951404817901
 21
-9047.9068651347898
 31
0.0
  0
LINE
  5
A34E
  8
0
  6
BYBLOCK
 10
13230.61185537671
 20
-10637.906865134781
 30
0.0
 11
13854.951404817901
 21
-10637.906865134781
 31
0.0
  0
LINE
  5
A34F
  8
0
  6
BYBLOCK
 10
13799.951404817901
 20
-9157.9068651347898
 30
0.0
 11
13799.951404817901
 21
-10527.906865134781
 31
0.0
  0
INSERT
  5
A350
  8
0
  6
BYBLOCK
  2
_OPEN
 10
13799.951404817901
 20
-9047.9068651347898
 30
0.0
 41
110.0
 42
110.0
 43
110.0
 50
90.0
  0
INSERT
  5
A351
  8
0
  6
BYBLOCK
  2
_OPEN
 10
13799.951404817901
 20
-10637.906865134781
 30
0.0
 41
110.0
 42
110.0
 43
110.0
 50
270.0
  0
TEXT
  5
A352
  8
SP
 10
13744.951404817901
 20
-10098.625019292291
 30
0.0
 40
137.5
  1
1590
 50
90.0
 51
15.0
  0
POINT
  5
A353
  8
DEFPOINTS
  6
BYBLOCK
 62
     0
 10
13445.611855376719
 20
-9047.9068651347898
 30
0.0
  0
POINT
  5
A354
  8
DEFPOINTS
  6
BYBLOCK
 62
     0
 10
13175.61185537671
 20
-10637.906865134781
 30
0.0
  0
POINT
  5
A355
  8
DEFPOINTS
  6
BYBLOCK
 62
     0
 10
13799.951404817901
 20
-10637.906865134781
 30
0.0
  0
ENDBLK
  5
A356
  8
0
  0
BLOCK
  8
0
  2
*D17
 70
     1
 10
0.0
 20
0.0
 30
0.0
  3
*D17
  1

  0
LINE
  5
A35A
  8
0
  6
BYBLOCK
 10
12115.611855376719
 20
-7682.4654711097246
 30
0.0
 11
12115.611855376719
 21
-7218.1161845228708
 31
0.0
  0
LINE
  5
A35B
  8
0
  6
BYBLOCK
 10
13407.61185537671
 20
-9103.4068651347898
 30
0.0
 11
13407.61185537671
 21
-7218.1161845228708
 31
0.0
  0
LINE
  5
A35C
  8
0
  6
BYBLOCK
 10
12225.61185537671
 20
-7273.1161845228708
 30
0.0
 11
13297.611855376719
 21
-7273.1161845228708
 31
0.0
  0
INSERT
  5
A35D
  8
0
  6
BYBLOCK
  2
_OPEN
 10
12115.611855376719
 20
-7273.1161845228708
 30
0.0
 41
110.0
 42
110.0
 43
110.0
 50
180.0
  0
INSERT
  5
A35E
  8
0
  6
BYBLOCK
  2
_OPEN
 10
13407.61185537671
 20
-7273.1161845228708
 30
0.0
 41
110.0
 42
110.0
 43
110.0
  0
TEXT
  5
A35F
  8
SP
 10
12505.8937012192
 20
-7218.1161845228708
 30
0.0
 40
137.5
  1
1292
 51
15.0
  0
POINT
  5
A360
  8
DEFPOINTS
  6
BYBLOCK
 62
     0
 10
12115.611855376719
 20
-7737.4654711097246
 30
0.0
  0
POINT
  5
A361
  8
DEFPOINTS
  6
BYBLOCK
 62
     0
 10
13407.61185537671
 20
-9158.4068651347916
 30
0.0
  0
POINT
  5
A362
  8
DEFPOINTS
  6
BYBLOCK
 62
     0
 10
13407.61185537671
 20
-7273.1161845228708
 30
0.0
  0
ENDBLK
  5
A363
  8
0
  0
BLOCK
  8
0
  2
*D18
 70
     1
 10
0.0
 20
0.0
 30
0.0
  3
*D18
  1

  0
LINE
  5
A367
  8
0
  6
BYBLOCK
 10
14971.69406084909
 20
-8512.9068651347898
 30
0.0
 11
14971.69406084909
 21
-7218.1161845228708
 31
0.0
  0
LINE
  5
A368
  8
0
  6
BYBLOCK
 10
16721.694060849091
 20
-7267.840685723324
 30
0.0
 11
16721.694060849091
 21
-7218.1161845228708
 31
0.0
  0
LINE
  5
A369
  8
0
  6
BYBLOCK
 10
15081.6940608491
 20
-7273.1161845228708
 30
0.0
 11
16611.694060849091
 21
-7273.1161845228708
 31
0.0
  0
INSERT
  5
A36A
  8
0
  6
BYBLOCK
  2
_OPEN
 10
14971.69406084909
 20
-7273.1161845228708
 30
0.0
 41
110.0
 42
110.0
 43
110.0
 50
180.0
  0
INSERT
  5
A36B
  8
0
  6
BYBLOCK
  2
_OPEN
 10
16721.694060849091
 20
-7273.1161845228708
 30
0.0
 41
110.0
 42
110.0
 43
110.0
  0
TEXT
  5
A36C
  8
SP
 10
15519.485176240711
 20
-7159.1876130942992
 30
0.0
 40
137.5
  1
(1750)
 51
15.0
  0
POINT
  5
A36D
  8
DEFPOINTS
  6
BYBLOCK
 62
     0
 10
14971.69406084909
 20
-8567.9068651347916
 30
0.0
  0
POINT
  5
A36E
  8
DEFPOINTS
  6
BYBLOCK
 62
     0
 10
16721.694060849091
 20
-7322.840685723324
 30
0.0
  0
POINT
  5
A36F
  8
DEFPOINTS
  6
BYBLOCK
 62
     0
 10
16721.694060849091
 20
-7273.1161845228708
 30
0.0
  0
ENDBLK
  5
A370
  8
0
  0
BLOCK
  8
0
  2
*D19
 70
     1
 10
0.0
 20
0.0
 30
0.0
  3
*D19
  1

  0
LINE
  5
A374
  8
0
  6
BYBLOCK
 10
16721.694060849091
 20
-7267.840685723324
 30
0.0
 11
16721.694060849091
 21
-7218.1161845228708
 31
0.0
  0
LINE
  5
A375
  8
0
  6
BYBLOCK
 10
18141.694060849091
 20
-9072.9068651347879
 30
0.0
 11
18141.694060849091
 21
-7218.1161845228708
 31
0.0
  0
LINE
  5
A376
  8
0
  6
BYBLOCK
 10
16831.694060849091
 20
-7273.1161845228708
 30
0.0
 11
18031.694060849091
 21
-7273.1161845228708
 31
0.0
  0
INSERT
  5
A377
  8
0
  6
BYBLOCK
  2
_OPEN
 10
16721.694060849091
 20
-7273.1161845228708
 30
0.0
 41
110.0
 42
110.0
 43
110.0
 50
180.0
  0
INSERT
  5
A378
  8
0
  6
BYBLOCK
  2
_OPEN
 10
18141.694060849091
 20
-7273.1161845228708
 30
0.0
 41
110.0
 42
110.0
 43
110.0
  0
TEXT
  5
A379
  8
SP
 10
17104.485176240709
 20
-7159.1876130942992
 30
0.0
 40
137.5
  1
(1420)
 51
15.0
  0
POINT
  5
A37A
  8
DEFPOINTS
  6
BYBLOCK
 62
     0
 10
16721.694060849091
 20
-7322.840685723324
 30
0.0
  0
POINT
  5
A37B
  8
DEFPOINTS
  6
BYBLOCK
 62
     0
 10
18141.694060849091
 20
-9127.9068651347879
 30
0.0
  0
POINT
  5
A37C
  8
DEFPOINTS
  6
BYBLOCK
 62
     0
 10
18141.694060849091
 20
-7273.1161845228708
 30
0.0
  0
ENDBLK
  5
A37D
  8
0
  0
BLOCK
  8
0
  2
_DOT
 70
     0
 10
0.0
 20
0.0
 30
0.0
  3
_DOT
  1

  0
POLYLINE
  5
A395
  8
0
  6
BYBLOCK
 62
     0
 66
     1
 10
0.0
 20
0.0
 30
0.0
 70
     1
 40
0.5
 41
0.5
  0
VERTEX
  5
A3DE
  8
0
  6
BYBLOCK
 62
     0
 10
-0.25
 20
0.0
 30
0.0
 42
1.0
  0
VERTEX
  5
A3DF
  8
0
  6
BYBLOCK
 62
     0
 10
0.25
 20
0.0
 30
0.0
 42
1.0
  0
SEQEND
  5
A3E0
  8
0
  6
BYBLOCK
 62
     0
  0
LINE
  5
A399
  8
0
  6
BYBLOCK
 62
     0
 10
-0.5
 20
0.0
 30
0.0
 11
-1.0
 21
0.0
 31
0.0
  0
ENDBLK
  5
A39A
  8
0
  0
BLOCK
  8
0
  2
*D21
 70
     1
 10
0.0
 20
0.0
 30
0.0
  3
*D21
  1

  0
LINE
  5
A39D
  8
0
  6
BYBLOCK
 10
13230.61185537671
 20
-10657.906865134781
 30
0.0
 11
13849.92511545102
 21
-10657.906865134781
 31
0.0
  0
LINE
  5
A39E
  8
0
  6
BYBLOCK
 10
13230.61185537671
 20
-10837.906865134781
 30
0.0
 11
13849.92511545102
 21
-10837.906865134781
 31
0.0
  0
LINE
  5
A39F
  8
0
  6
BYBLOCK
 10
13794.92511545102
 20
-10547.906865134781
 30
0.0
 11
13794.92511545102
 21
-10437.906865134781
 31
0.0
  0
LINE
  5
A3A0
  8
0
  6
BYBLOCK
 10
13794.92511545102
 20
-10947.906865134781
 30
0.0
 11
13794.92511545102
 21
-11505.00015949053
 31
0.0
  0
LINE
  5
A3A1
  8
0
  6
BYBLOCK
 10
13794.92511545102
 20
-10657.906865134781
 30
0.0
 11
13794.92511545102
 21
-10837.906865134781
 31
0.0
  0
INSERT
  5
A3A2
  8
0
  6
BYBLOCK
  2
_DOT
 10
13794.92511545102
 20
-10657.906865134781
 30
0.0
 41
110.0
 42
110.0
 43
110.0
 50
270.0
  0
INSERT
  5
A3A3
  8
0
  6
BYBLOCK
  2
_OPEN
 10
13794.92511545102
 20
-10837.906865134781
 30
0.0
 41
110.0
 42
110.0
 43
110.0
 50
90.0
  0
TEXT
  5
A3A4
  8
SP
 10
13739.92511545102
 20
-11471.69547599398
 30
0.0
 40
137.5
  1
180
 50
90.0
 51
15.0
  0
POINT
  5
A3A5
  8
DEFPOINTS
  6
BYBLOCK
 62
     0
 10
13175.61185537671
 20
-10657.906865134781
 30
0.0
  0
POINT
  5
A3A6
  8
DEFPOINTS
  6
BYBLOCK
 62
     0
 10
13175.61185537671
 20
-10837.906865134781
 30
0.0
  0
POINT
  5
A3A7
  8
DEFPOINTS
  6
BYBLOCK
 62
     0
 10
13794.92511545102
 20
-10837.906865134781
 30
0.0
  0
ENDBLK
  5
A3A8
  8
0
  0
BLOCK
  8
0
  2
_NONE
 70
     0
 10
0.0
 20
0.0
 30
0.0
  3
_NONE
  1

  0
CIRCLE
  5
A3AC
  8
0
  6
BYBLOCK
 62
     0
 10
0.0
 20
0.0
 30
0.0
 40
0.25
  0
ENDBLK
  5
A3AD
  8
0
  0
BLOCK
  8
0
  2
*D23
 70
     1
 10
0.0
 20
0.0
 30
0.0
  3
*D23
  1

  0
LINE
  5
A3E1
  8
SP
 10
13796.33989001364
 20
-10777.906865134781
 30
0.0
 11
13796.33989001364
 21
-10637.906865134781
 31
0.0
  0
TEXT
  8
0
  40
137.5
  5
A3E6
  72
0
  71
0
 10
13973.1
 20
-10951.3
 30
0.000000
  1
(140)
  0
POINT
  5
A3E3
  8
DEFPOINTS
 62
     0
 10
13175.61185537671
 20
-10777.906865134781
 30
0.0
  0
POINT
  5
A3E4
  8
DEFPOINTS
 62
     0
 10
13175.61185537671
 20
-10637.906865134781
 30
0.0
  0
POINT
  5
A3E5
  8
DEFPOINTS
 62
     0
 10
13796.33989001364
 20
-10637.906865134781
 30
0.0
  0
ENDBLK
  5
A3C2
  8
0
  0
ENDSEC
  0
SECTION
  2
ENTITIES
  0
LINE
  5
5648
  8
CT
 10
12115.61185537671
 20
-10957.906865134781
 30
0.0
 11
12115.611855376719
 21
-7737.4654711097246
 31
0.0
  0
LINE
  5
564B
  8
FUTO
 10
13175.61185537671
 20
-10457.906865134781
 30
0.0
 11
9575.6118553767192
 21
-10457.906865134781
 31
0.0
  0
LINE
  5
564C
  8
FUTO
 10
13175.61185537671
 20
-10637.906865134781
 30
0.0
 11
9575.6118553767192
 21
-10637.90686513479
 31
0.0
  0
LINE
  5
564F
  8
FUTO
 10
10304.711858353079
 20
-9047.9068651347898
 30
0.0
 11
10194.611855376719
 21
-7882.9068651347879
 31
0.0
  0
ARC
  5
565B
  8
FUTO
 10
11984.61185537671
 20
-8916.9068651347898
 30
0.0
 40
1685.0
 50
184.45894888093699
 51
246.14049360139771
  0
LINE
  5
565C
  8
CT
 10
10060.512683984771
 20
-9047.9068651347898
 30
0.0
 11
13445.611855376719
 21
-9047.9068651347898
 31
0.0
  0
LINE
  5
566D
  8
FUTO
 10
10200.75477399772
 20
-7947.9068651347889
 30
0.0
 11
12044.611855376719
 21
-7947.9068651347861
 31
0.0
  0
LINE
  5
566E
  8
FUTO
 10
10125.61185537671
 20
-7882.906865134787
 30
0.0
 11
12113.61185537671
 21
-7882.9068651347879
 31
0.0
  0
LINE
  5
5674
  8
FUTO
 10
12044.61185537671
 20
-7994.211233253468
 30
0.0
 11
12044.61185537671
 21
-7882.906865134787
 31
0.0
  0
CIRCLE
  5
663A
  8
SL
 10
12115.611855376719
 20
-9047.9068651347898
 30
0.0
 40
400.0
  0
ARC
  5
67DA
  8
FUTO
 10
11984.61185537671
 20
-9178.9068651347879
 30
0.0
 40
1423.0
 50
295.99852374864849
 51
0.0
  0
ARC
  5
67E7
  8
FUTO
 10
12226.111855376719
 20
-8937.4068651347861
 30
0.0
 40
960.5
 50
90.0
 51
100.89233534089441
  0
ARC
  5
6938
  8
FUTO
 10
12226.111855376719
 20
-9158.4068651347879
 30
0.0
 40
1181.4999999999991
 50
359.99999999999977
 51
90.0
  0
LINE
  5
7990
  8
FUTO
 10
13175.61185537671
 20
-10457.906865134781
 30
0.0
 11
13175.61185537671
 21
-10637.906865134781
 31
0.0
  0
LINE
  5
7991
  8
FUTO
 10
9575.6118553767192
 20
-10457.906865134781
 30
0.0
 11
9575.6118553767192
 21
-10637.906865134781
 31
0.0
  0
LINE
  5
7AB6
  8
FUTO
 10
10315.611855376719
 20
-10387.906865134781
 30
0.0
 11
10245.61185537671
 21
-10387.906865134781
 31
0.0
  0
LINE
  5
7AB7
  8
FUTO
 10
9615.6118553767192
 20
-10387.906865134781
 30
0.0
 11
9615.6118553767192
 21
-10457.906865134781
 31
0.0
  0
LINE
  5
7AB8
  8
FUTO
 10
10315.611855376719
 20
-10387.906865134781
 30
0.0
 11
10315.611855376719
 21
-10457.906865134781
 31
0.0
  0
LINE
  5
7AC0
  8
FUTO
 10
9695.6118553767192
 20
-4128.1668147732744
 30
0.0
 11
10125.61185537671
 21
-4128.1668147732744
 31
0.0
  0
LINE
  5
7AC6
  8
FUTO
 10
10235.611855376719
 20
-5031.6668147732744
 30
0.0
 11
9695.6118553767192
 21
-5031.6668147732744
 31
0.0
  0
LINE
  5
7AFE
  8
FUTO
 10
9923.1118553767192
 20
-5098.1668147732753
 30
0.0
 11
9923.1118553767192
 21
-5031.6668147732744
 31
0.0
  0
LINE
  5
7AFF
  8
FUTO
 10
10008.111855376719
 20
-5031.6668147732744
 30
0.0
 11
10008.111855376719
 21
-5098.1668147732753
 31
0.0
  0
ARC
  5
7B35
  8
FUTO
 10
9965.611855376721
 20
-10107.906865134781
 30
0.0
 40
287.5
 50
329.65273451599268
 51
210.3472655873382
  0
LINE
  5
7B36
  8
CT
 10
9965.611855376721
 20
-10957.90686513479
 30
0.0
 11
9965.611855376721
 21
-9724.7445451347867
 31
0.0
  0
LINE
  5
7B38
  8
CT
 10
9645.611855376721
 20
-10107.906865134781
 30
0.0
 11
10285.61185537671
 21
-10107.906865134781
 31
0.0
  0
LINE
  5
7B3B
  8
FUTO
 10
9695.2431353767206
 20
-10266.66032813478
 30
0.0
 11
9717.5053783767216
 21
-10253.16327913478
 31
0.0
  0
LINE
  5
7B3C
  8
FUTO
 10
9685.6118553767192
 20
-10387.906865134781
 30
0.0
 11
9685.6118553767192
 21
-10283.762657134779
 31
0.0
  0
ARC
  5
7B3E
  8
FUTO
 10
9705.6118553767192
 20
-10283.762657134779
 30
0.0
 40
20.0
 50
121.227401
 51
180.0
  0
LINE
  5
7B4A
  8
FUTO
 10
10245.61185537671
 20
-10387.906865134781
 30
0.0
 11
10245.61185537671
 21
-10283.762657134779
 31
0.0
  0
LINE
  5
7B57
  8
FUTO
 10
10235.980576376711
 20
-10266.66032813478
 30
0.0
 11
10213.718333029119
 21
-10253.163278924039
 31
0.0
  0
ARC
  5
7B5A
  8
FUTO
 10
10225.61185537671
 20
-10283.762657134779
 30
0.0
 40
20.0
 50
0.0
 51
58.772598999999992
  0
CIRCLE
  5
7B75
  8
SL
 10
9965.611855376721
 20
-10107.906865134781
 30
0.0
 40
140.0
  0
LINE
  5
7B82
  8
FUTO
 10
9685.6118553767192
 20
-10387.906865134781
 30
0.0
 11
9615.6118553767192
 21
-10387.906865134781
 31
0.0
  0
LINE
  5
8CEA
  8
CT
 10
14971.69406084909
 20
-9047.9068651347916
 30
0.0
 11
18174.17843685405
 21
-9047.9068651347898
 31
0.0
  0
LINE
  5
8D2E
  8
CT
 10
16721.694060849091
 20
-7683.4385663213461
 30
0.0
 11
16721.694060849091
 21
-10957.906865134781
 31
0.0
  0
LINE
  5
8D30
  8
FUTO
 10
17970.694060849091
 20
-7882.9068651347889
 30
0.0
 11
17970.694060849091
 21
-7947.9068651347889
 31
0.0
  0
LINE
  5
8D32
  8
FUTO
 10
15472.69406084909
 20
-7882.9068651347889
 30
0.0
 11
15472.69406084909
 21
-7947.9068651347889
 31
0.0
  0
LINE
  5
8D34
  8
FUTO
 10
17980.694060849091
 20
-10457.906865134781
 30
0.0
 11
15130.6940608491
 21
-10457.906865134781
 31
0.0
  0
LINE
  5
8D35
  8
FUTO
 10
17901.694060849099
 20
-9377.9068651347898
 30
0.0
 11
18141.694060849091
 21
-9377.9068651347898
 31
0.0
  0
LINE
  5
8D38
  8
FUTO
 10
17901.694060849099
 20
-9127.9068651347843
 30
0.0
 11
18141.694060849091
 21
-9127.9068651347879
 31
0.0
  0
LINE
  5
8D3D
  8
FUTO
 10
17980.694060849091
 20
-10637.906865134781
 30
0.0
 11
15130.69406084909
 21
-10637.906865134781
 31
0.0
  0
LINE
  5
8D59
  8
FUTO
 10
15541.69406084909
 20
-9387.9068651347861
 30
0.0
 11
15307.6940608491
 21
-9387.9068651347861
 31
0.0
  0
LINE
  5
8D5A
  8
FUTO
 10
15541.69406084909
 20
-9137.9068651347861
 30
0.0
 11
15307.6940608491
 21
-9137.9068651347861
 31
0.0
  0
LINE
  5
8D5F
  8
FUTO
 10
15130.69406084909
 20
-10457.906865134781
 30
0.0
 11
15130.69406084909
 21
-10637.906865134781
 31
0.0
  0
LINE
  5
8D73
  8
FUTO
 10
15307.69406084909
 20
-9137.9068651347861
 30
0.0
 11
15307.69406084909
 21
-9387.9068651347898
 31
0.0
  0
LINE
  5
8D75
  8
FUTO
 10
15541.69406084908
 20
-7882.9068651347889
 30
0.0
 11
15541.6940608491
 21
-10457.906865134781
 31
0.0
  0
LINE
  5
8D8E
  8
FUTO
 10
15161.6940608491
 20
-8990.4068651347879
 30
0.0
 11
15541.69406084909
 21
-8990.4068651347916
 31
0.0
  0
LINE
  5
8D8F
  8
FUTO
 10
15161.6940608491
 20
-9105.4068651347861
 30
0.0
 11
15541.69406084909
 21
-9105.4068651347861
 31
0.0
  0
LINE
  5
8D99
  8
FUTO
 10
17901.694060849091
 20
-7882.9068651347889
 30
0.0
 11
17901.694060849099
 21
-10457.906865134781
 31
0.0
  0
LINE
  5
8D9A
  8
FUTO
 10
17980.694060849091
 20
-10457.906865134781
 30
0.0
 11
17980.694060849091
 21
-10637.906865134781
 31
0.0
  0
LINE
  5
8DA9
  8
FUTO
 10
18141.694060849091
 20
-9127.9068651347879
 30
0.0
 11
18141.694060849091
 21
-9377.9068651347898
 31
0.0
  0
LINE
  5
8DC8
  8
SP
 10
16721.694060849091
 20
-7322.840685723324
 30
0.0
 11
16721.694060849091
 21
-7267.840685723324
 31
0.0
  0
LINE
  5
98B1
  8
SL
 10
14971.69406084909
 20
-8567.9068651347916
 30
0.0
 11
14971.6940608491
 21
-10327.90686513479
 31
0.0
  0
LINE
  5
98B2
  8
SL
 10
14971.69406084909
 20
-8567.9068651347916
 30
0.0
 11
15211.69406084909
 21
-8567.9068651347916
 31
0.0
  0
LINE
  5
98B4
  8
SL
 10
15211.69406084909
 20
-10327.90686513479
 30
0.0
 11
14971.69406084909
 21
-10327.906865134781
 31
0.0
  0
LINE
  5
98B5
  8
SL
 10
15211.69406084909
 20
-8567.9068651347916
 30
0.0
 11
15211.69406084909
 21
-8617.9068651347916
 31
0.0
  0
LINE
  5
98B6
  8
SL
 10
15021.6940608491
 20
-8647.9068651347916
 30
0.0
 11
15161.6940608491
 21
-8647.9068651347934
 31
0.0
  0
LINE
  5
98B7
  8
SL
 10
15021.6940608491
 20
-9447.9068651347934
 30
0.0
 11
15161.69406084909
 21
-9447.9068651347934
 31
0.0
  0
LINE
  5
98B8
  8
SL
 10
15161.6940608491
 20
-9967.9068651347916
 30
0.0
 11
15021.6940608491
 21
-9967.9068651347861
 31
0.0
  0
LINE
  5
98B9
  8
SL
 10
15161.6940608491
 20
-10247.906865134781
 30
0.0
 11
15021.6940608491
 21
-10247.906865134781
 31
0.0
  0
LINE
  5
98BA
  8
SL
 10
15021.6940608491
 20
-8647.9068651347916
 30
0.0
 11
15021.6940608491
 21
-10247.906865134781
 31
0.0
  0
LINE
  5
98BC
  8
SL
 10
15161.6940608491
 20
-8647.9068651347916
 30
0.0
 11
15161.6940608491
 21
-10247.906865134781
 31
0.0
  0
LINE
  5
98BF
  8
SL
 10
15211.69406084909
 20
-10277.90686513479
 30
0.0
 11
15211.69406084909
 21
-10327.906865134781
 31
0.0
  0
LINE
  5
98C4
  8
FUTO
 10
10235.611855376719
 20
-5031.6668147732744
 30
0.0
 11
10235.611855376719
 21
-4787.1668147732744
 31
0.0
  0
LINE
  5
98C5
  8
FUTO
 10
9695.6118553767192
 20
-5031.6668147732744
 30
0.0
 11
9695.6118553767192
 21
-4128.1668147732744
 31
0.0
  0
LINE
  5
98C6
  8
FUTO
 10
15228.19406084909
 20
-10377.906865134781
 30
0.0
 11
15541.6940608491
 21
-10377.906865134781
 31
0.0
  0
LINE
  5
98C7
  8
FUTO
 10
15228.19406084909
 20
-9837.9068651347861
 30
0.0
 11
15541.69406084909
 21
-9837.9068651347861
 31
0.0
  0
LINE
  5
98C8
  8
CT
 10
14971.69406084909
 20
-10107.906865134781
 30
0.0
 11
15541.6940608491
 21
-10107.906865134781
 31
0.0
  0
LINE
  5
98CA
  8
FUTO
 10
15228.19406084909
 20
-10377.906865134781
 30
0.0
 11
15228.19406084909
 21
-9837.9068651347861
 31
0.0
  0
LINE
  5
98CC
  8
FUTO
 10
15161.6940608491
 20
-10065.406865134781
 30
0.0
 11
15228.19406084909
 21
-10065.406865134781
 31
0.0
  0
LINE
  5
98CD
  8
FUTO
 10
15228.19406084909
 20
-10150.406865134781
 30
0.0
 11
15161.6940608491
 21
-10150.406865134781
 31
0.0
  0
LINE
  5
98CF
  8
FUTO
 10
13175.61185537671
 20
-5129.1668147732744
 30
0.0
 11
9575.6118553767192
 21
-5129.1668147732798
 31
0.0
  0
LINE
  5
98D1
  8
FUTO
 10
13175.61185537671
 20
-5129.1668147732744
 30
0.0
 11
13175.61185537671
 21
-4718.1668147732717
 31
0.0
  0
LINE
  5
98D2
  8
FUTO
 10
13175.61185537671
 20
-2279.1668147732739
 30
0.0
 11
11055.61185537671
 21
-2279.1668147732739
 31
0.0
  0
LINE
  5
98D3
  8
FUTO
 10
11055.61185537671
 20
-2279.1668147732739
 30
0.0
 11
11055.61185537671
 21
-2289.1668147732739
 31
0.0
  0
LINE
  5
98D4
  8
FUTO
 10
9575.6118553767192
 20
-5129.1668147732798
 30
0.0
 11
9575.6118553767192
 21
-3929.1668147732798
 31
0.0
  0
LINE
  5
98D5
  8
FUTO
 10
9575.6118553767192
 20
-3929.1668147732798
 30
0.0
 11
10125.61185537671
 21
-3929.1668147732798
 31
0.0
  0
LINE
  5
98D6
  8
CT
 10
9965.611855376721
 20
-5288.1668147732744
 30
0.0
 11
9965.611855376721
 21
-4108.5548784274324
 31
0.0
  0
LINE
  5
98D7
  8
CT
 10
12115.611855376719
 20
-2147.194717401173
 30
0.0
 11
12115.611855376719
 21
-5288.1668147732744
 31
0.0
  0
LINE
  5
98D8
  8
CT
 10
13448.344347099861
 20
-3538.1668147732739
 30
0.0
 11
10051.144550522529
 21
-3538.1668147732739
 31
0.0
  0
LINE
  5
98DA
  8
SL
 10
12515.611855376719
 20
-5238.1668147732753
 30
0.0
 11
9825.6118553767192
 21
-5238.1668147732753
 31
0.0
  0
LINE
  5
98DB
  8
SL
 10
12515.611855376719
 20
-5098.1668147732753
 30
0.0
 11
9825.6118553767192
 21
-5098.1668147732753
 31
0.0
  0
LINE
  5
98DC
  8
SL
 10
12515.611855376719
 20
-5098.1668147732753
 30
0.0
 11
12515.611855376719
 21
-5238.1668147732753
 31
0.0
  0
LINE
  5
98DD
  8
SL
 10
11715.61185537671
 20
-5098.1668147732753
 30
0.0
 11
11715.61185537671
 21
-5238.1668147732753
 31
0.0
  0
LINE
  5
98DE
  8
SL
 10
10105.61185537671
 20
-5238.1668147732753
 30
0.0
 11
10105.61185537671
 21
-5098.1668147732753
 31
0.0
  0
LINE
  5
98DF
  8
SL
 10
9825.6118553767192
 20
-5238.1668147732753
 30
0.0
 11
9825.6118553767192
 21
-5098.1668147732753
 31
0.0
  0
LINE
  5
98E1
  8
SL
 10
12595.611855376719
 20
-5288.1668147732744
 30
0.0
 11
9745.6118553767192
 21
-5288.1668147732744
 31
0.0
  0
LINE
  5
98E3
  8
SL
 10
12595.611855376719
 20
-5048.1668147732744
 30
0.0
 11
12595.611855376719
 21
-5288.1668147732744
 31
0.0
  0
LINE
  5
98E4
  8
SL
 10
9745.6118553767192
 20
-5288.1668147732744
 30
0.0
 11
9745.6118553767192
 21
-5048.1668147732744
 31
0.0
  0
LINE
  5
98E5
  8
SL
 10
12595.611855376719
 20
-5048.1668147732744
 30
0.0
 11
12545.611855376719
 21
-5048.1668147732744
 31
0.0
  0
LINE
  5
98E8
  8
SL
 10
9795.611855376721
 20
-5048.1668147732744
 30
0.0
 11
9745.6118553767192
 21
-5048.1668147732744
 31
0.0
  0
CIRCLE
  5
98EB
  8
FUTO
 10
12115.611855376719
 20
-9047.9068651347898
 30
0.0
 40
900.0
  0
CIRCLE
  5
98EC
  8
FUTO
 10
12115.611855376719
 20
-9047.9068651347898
 30
0.0
 40
965.0
  0
LINE
  5
98EF
  8
FUTO
 10
13407.61185537671
 20
-2358.1668147732739
 30
0.0
 11
12113.611855376719
 21
-2358.1668147732739
 31
0.0
  0
LINE
  5
98F0
  8
FUTO
 10
13407.61185537671
 20
-4718.1668147732744
 30
0.0
 11
12113.61185537671
 21
-4718.1668147732744
 31
0.0
  0
LINE
  5
98F1
  8
FUTO
 10
13175.61185537671
 20
-2358.1668147732739
 30
0.0
 11
13175.61185537671
 21
-2279.1668147732739
 31
0.0
  0
DIMENSION
  5
9D6B
  8
SP
  2
*D1
 10
9230.0141032827396
 20
-5129.1668147732798
 30
0.0
 11
9117.5141032827378
 21
-4529.1668147732789
 31
0.0
 12
11813.211539178939
 22
1054.7069760527729
 32
0.0
 70
     0
 13
9575.6118553767192
 23
-3929.1668147732798
 33
0.0
 14
9575.6118553767192
 24
-5129.1668147732798
 34
0.0
 50
90.0
1001
ACAD
1000
DSTYLE
1002
{
1070
   140
1040
2.5
1070
    40
1040
50.0
1070
   147
1040
1.0
1070
   271
1070
     0
1002
}
  0
DIMENSION
  5
9D78
  8
SP
  2
*D2
 10
13175.61185537671
 20
-5652.171877547662
 30
0.0
 11
11375.61185537671
 21
-5539.671877547662
 31
0.0
 12
11813.211539178939
 22
1054.7069760527729
 32
0.0
 70
     0
 13
9575.6118553767192
 23
-5129.1668147732798
 33
0.0
 14
13175.61185537671
 24
-5129.1668147732744
 34
0.0
1001
ACAD
1000
DSTYLE
1002
{
1070
   140
1040
2.5
1070
    40
1040
50.0
1070
   147
1040
1.0
1070
   271
1070
     0
1002
}
  0
DIMENSION
  5
9D85
  8
SP
  2
*D3
 10
13710.157318959171
 20
-5129.1668147732744
 30
0.0
 11
13597.657318959171
 21
-3704.1668147732739
 31
0.0
 12
11813.211539178939
 22
1054.7069760527729
 32
0.0
 70
     0
 13
13175.61185537671
 23
-2279.1668147732739
 33
0.0
 14
13175.61185537671
 24
-5129.1668147732744
 34
0.0
 50
90.0
1001
ACAD
1000
DSTYLE
1002
{
1070
   140
1040
2.5
1070
    40
1040
50.0
1070
   147
1040
1.0
1070
   271
1070
     0
1002
}
  0
DIMENSION
  5
9D92
  8
SP
  2
*D4
 10
13175.61185537671
 20
-1983.199102532606
 30
0.0
 11
12115.611855376719
 21
-1870.699102532606
 31
0.0
 12
11813.211539178939
 22
1054.7069760527729
 32
0.0
 70
     0
 13
11055.61185537671
 23
-2279.1668147732739
 33
0.0
 14
13175.61185537671
 24
-2279.1668147732739
 34
0.0
1001
ACAD
1000
DSTYLE
1002
{
1070
   140
1040
2.5
1070
    40
1040
50.0
1070
   147
1040
1.0
1070
   271
1070
     0
1002
}
  0
DIMENSION
  5
9D9F
  8
SP
  2
*D5
 10
9575.6118553767192
 20
-1983.199102532606
 30
0.0
 11
10315.611855376719
 21
-1870.699102532606
 31
0.0
 12
11813.211539178939
 22
1054.7069760527729
 32
0.0
 70
     0
 13
11055.61185537671
 23
-2279.1668147732739
 33
0.0
 14
9575.6118553767192
 24
-3929.1668147732798
 34
0.0
1001
ACAD
1000
DSTYLE
1002
{
1070
   140
1040
2.5
1070
    40
1040
50.0
1070
   147
1040
1.0
1070
   271
1070
     0
1002
}
  0
DIMENSION
  5
9DD3
  8
SP
  2
*D6
 10
12115.611855376719
 20
-11270.89450325237
 30
0.0
 11
10845.611855376719
 21
-11158.39450325237
 31
0.0
 12
11813.211539178939
 22
474.70697605277383
 32
0.0
 70
     0
 13
9575.6118553767192
 23
-10957.90686513479
 33
0.0
 14
12115.611855376719
 24
-10957.906865134781
 34
0.0
1001
ACAD
1000
DSTYLE
1002
{
1070
   140
1040
2.5
1070
    40
1040
50.0
1070
   147
1040
1.0
1070
   271
1070
     0
1002
}
  0
DIMENSION
  5
9DE0
  8
SP
  2
*D7
 10
13175.61185537671
 20
-11270.89450325237
 30
0.0
 11
12645.61185537671
 21
-11158.39450325237
 31
0.0
 12
11813.211539178939
 22
474.70697605277383
 32
0.0
 70
     0
 13
12115.611855376719
 23
-10957.906865134781
 33
0.0
 14
13175.61185537671
 24
-10957.906865134781
 34
0.0
1001
ACAD
1000
DSTYLE
1002
{
1070
   140
1040
2.5
1070
    40
1040
50.0
1070
   147
1040
1.0
1070
   271
1070
     0
1002
}
  0
DIMENSION
  5
9DFA
  8
SP
  2
*D8
 10
16721.694060849091
 20
-11270.89450325237
 30
0.0
 11
15926.19406084909
 21
-11158.39450325237
 31
0.0
 12
11813.211539178939
 22
474.70697605277383
 32
0.0
 70
     0
 13
15130.69406084909
 23
-10957.906865134781
 33
0.0
 14
16721.694060849091
 24
-10957.906865134781
 34
0.0
1001
ACAD
1000
DSTYLE
1002
{
1070
   140
1040
2.5
1070
    40
1040
50.0
1070
   147
1040
1.0
1070
   271
1070
     0
1002
}
  0
DIMENSION
  5
9E07
  8
SP
  2
*D9
 10
17980.694060849091
 20
-11270.89450325237
 30
0.0
 11
17351.194060849091
 21
-11158.39450325237
 31
0.0
 12
11813.211539178939
 22
474.70697605277383
 32
0.0
 70
     0
 13
16721.694060849091
 23
-10957.906865134781
 33
0.0
 14
17980.694060849091
 24
-10957.906865134781
 34
0.0
1001
ACAD
1000
DSTYLE
1002
{
1070
   140
1040
2.5
1070
    40
1040
50.0
1070
   147
1040
1.0
1070
   271
1070
     0
1002
}
  0
DIMENSION
  5
9E14
  8
SP
  2
*D10
 10
17980.694060849091
 20
-11588.872151095689
 30
0.0
 11
16555.694060849091
 21
-11476.372151095689
 31
0.0
 12
11813.211539178939
 22
474.70697605277383
 32
0.0
 70
     0
 13
15130.69406084909
 23
-10957.906865134781
 33
0.0
 14
17980.694060849091
 24
-10957.906865134781
 34
0.0
1001
ACAD
1000
DSTYLE
1002
{
1070
   140
1040
2.5
1070
    40
1040
50.0
1070
   147
1040
1.0
1070
   271
1070
     0
1002
}
  0
DIMENSION
  5
9E55
  8
SP
  2
*D11
 10
13175.61185537671
 20
-11588.872151095689
 30
0.0
 11
11375.61185537671
 21
-11476.372151095689
 31
0.0
 12
11813.211539178939
 22
474.70697605277383
 32
0.0
 70
     0
 13
9575.6118553767192
 23
-10957.906865134781
 33
0.0
 14
13175.61185537671
 24
-10957.906865134781
 34
0.0
1001
ACAD
1000
DSTYLE
1002
{
1070
   140
1040
2.5
1070
    40
1040
50.0
1070
   147
1040
1.0
1070
   271
1070
     0
1002
}
  0
LINE
  5
A0E7
  8
4
 10
17961.166697834029
 20
-12040.48813421171
 30
0.0
 11
17961.166697834029
 21
-13140.488134211701
 31
0.0
  0
LINE
  5
A0E8
  8
4
 10
14111.166697834031
 20
-12040.48813421171
 30
0.0
 11
14111.166697834031
 21
-13140.488134211701
 31
0.0
  0
LINE
  5
A0E9
  8
4
 10
11361.166697834031
 20
-12040.48813421171
 30
0.0
 11
11361.166697834031
 21
-13140.488134211701
 31
0.0
  0
LINE
  5
A0EC
  8
4
 10
11361.166697834031
 20
-13140.48813421171
 30
0.0
 11
17961.166697834029
 21
-13140.48813421171
 31
0.0
  0
LINE
  5
A0ED
  8
4
 10
11361.166697834031
 20
-12590.48813421171
 30
0.0
 11
17961.166697834029
 21
-12590.48813421171
 31
0.0
  0
TEXT
  5
A0EE
  8
4
 10
11572.92814249199
 20
-12417.001491945341
 30
0.0
 40
275.0
  1
機器名称
  0
TEXT
  5
A0EF
  8
4
 10
11560.586280970419
 20
-13021.439772185649
 30
0.0
 40
275.0
  1
機器型番
  0
TEXT
  5
A0F0
  8
4
 10
14274.28609399308
 20
-12457.343074152201
 30
0.0
 40
233.75
  1
ミツヤ多翼送風機
  0
TEXT
  5
A0F1
  8
4
 10
14312.76642355418
 20
-13046.110420672019
 30
0.0
 40
275.0
  1
MF#11-5
  0
TEXT
  5
A0F3
  8
4
 10
12185.977151365751
 20
-1128.5605847023901
 30
0.0
 40
297.0
  1
床置防振ベット
  0
TEXT
  5
A0F4
  8
4
 10
9429.0032408987445
 20
-301.07384293508937
 30
0.0
 40
396.0
  1
遠心式両吸込両持多翼ファン
  0
LINE
  5
A0F5
  8
4
 10
9161.1666978340363
 20
-655.67106357480043
 30
0.0
 11
17961.166697834029
 21
-655.67106357480043
 31
0.0
  0
LINE
  5
A0F6
  8
4
 10
9161.1666978340363
 20
444.32893642519952
 30
0.0
 11
17961.166697834029
 21
444.32893642519952
 31
0.0
  0
LINE
  5
A0F7
  8
4
 10
11361.166697834031
 20
-12040.48813421171
 30
0.0
 11
17961.166697834029
 21
-12040.48813421171
 31
0.0
  0
LINE
  5
A0F8
  8
4
 10
9161.1666978340363
 20
444.32893642519952
 30
0.0
 11
9161.1666978340363
 21
-655.67106357480043
 31
0.0
  0
TEXT
  5
A0F9
  8
4
 10
9788.7535740308977
 20
-1134.6620855263391
 30
0.0
 40
297.0
  1
右回転上向
  0
TEXT
  5
A0FA
  8
4
 10
15865.499273705131
 20
645.91673619297035
 30
0.0
 40
308.0
  1
No.
  0
TEXT
  5
A0FB
  8
4
 10
14998.295042134099
 20
-1128.5605847023901
 30
0.0
 40
297.0
  1
縮尺：1/55
  0
LINE
  5
A0FC
  8
4
 10
17961.166697834029
 20
444.32893642519952
 30
0.0
 11
17961.166697834029
 21
-655.67106357480043
 31
0.0
  0
LINE
  5
A0FD
  8
4
 10
19336.166697834029
 20
1987.580787968772
 30
0.0
 11
19336.166697834029
 21
1987.580787968772
 31
0.0
  0
LINE
  5
A0FE
  8
4
 10
15709.56252081329
 20
509.53049515847852
 30
0.0
 11
15709.56252081329
 21
1089.1682264924109
 31
0.0
  0
LINE
  5
A0FF
  8
4
 10
15709.56252081329
 20
1089.1682264924109
 30
0.0
 11
17961.166697834029
 21
1089.1682264924109
 31
0.0
  0
LINE
  5
A100
  8
4
 10
17961.166697834029
 20
1089.1682264924109
 30
0.0
 11
17961.166697834029
 21
509.53049515847852
 31
0.0
  0
LINE
  5
A101
  8
4
 10
17961.166697834029
 20
509.53049515847852
 30
0.0
 11
15709.56252081329
 21
509.53049515847852
 31
0.0
  0
LINE
  5
A102
  8
4
 10
7786.1666978340372
 20
-14237.419212031229
 30
0.0
 11
7786.1666978340372
 21
1987.580787968772
 31
0.0
  0
LINE
  5
A103
  8
4
 10
7786.1666978340372
 20
1987.580787968772
 30
0.0
 11
19336.166697834029
 21
1987.580787968772
 31
0.0
  0
LINE
  5
A104
  8
4
 10
19336.166697834029
 20
1987.580787968772
 30
0.0
 11
19336.166697834029
 21
-14237.419212031229
 31
0.0
  0
LINE
  5
A105
  8
4
 10
19336.166697834029
 20
-14237.419212031229
 30
0.0
 11
7786.1666978340372
 21
-14237.419212031229
 31
0.0
  0
LINE
  5
A2E7
  8
FUTO
 10
13407.61185537671
 20
-9178.9068651347879
 30
0.0
 11
13407.61185537671
 21
-9158.4068651347916
 31
0.0
  0
ARC
  5
A2E8
  8
SL
 10
12115.611855376719
 20
-9047.9068651347898
 30
0.0
 40
480.0
 50
290.01757329328592
 51
122.4711650918682
  0
ARC
  5
A2E9
  8
SL
 10
9965.611855376721
 20
-10107.906865134781
 30
0.0
 40
220.0
 50
122.4711650918682
 51
290.01757329328598
  0
LINE
  5
A2EA
  8
SL
 10
9847.4993352033944
 20
-9922.3012817642793
 30
0.0
 11
11857.911811362181
 21
-8642.9492286900495
 31
0.0
  0
LINE
  5
A2EB
  8
SL
 10
9890.4493425391502
 20
-9989.7942211717345
 30
0.0
 11
11900.86181869794
 21
-8710.4421680975065
 31
0.0
  0
LINE
  5
A2EC
  8
SL
 10
10013.535023267281
 20
-10239.44913962984
 30
0.0
 11
12252.535192206889
 21
-9423.7419351206663
 31
0.0
  0
LINE
  5
A2ED
  8
SL
 10
10040.919690633311
 20
-10314.61615362701
 30
0.0
 11
12279.919859572919
 21
-9498.908949117842
 31
0.0
  0
LINE
  5
A2EE
  8
FUTO
 10
15472.69406084909
 20
-7882.9068651347889
 30
0.0
 11
17970.694060849091
 21
-7882.9068651347889
 31
0.0
  0
LINE
  5
A2EF
  8
FUTO
 10
15472.69406084909
 20
-7947.9068651347889
 30
0.0
 11
17970.694060849091
 21
-7947.906865134787
 31
0.0
  0
LINE
  5
A2F1
  8
FUTO
 10
10125.61185537671
 20
-4787.1668147732744
 30
0.0
 11
10125.61185537671
 21
-2289.1668147732739
 31
0.0
  0
LINE
  5
A2F2
  8
FUTO
 10
13407.611855376719
 20
-4718.1668147732744
 30
0.0
 11
13407.61185537671
 21
-2358.1668147732739
 31
0.0
  0
LINE
  5
A2F3
  8
FUTO
 10
12113.61185537671
 20
-2289.1668147732739
 30
0.0
 11
10125.61185537671
 21
-2289.1668147732739
 31
0.0
  0
LINE
  5
A2F4
  8
FUTO
 10
12113.61185537671
 20
-4787.1668147732744
 30
0.0
 11
10125.61185537671
 21
-4787.1668147732744
 31
0.0
  0
LINE
  5
A2F5
  8
FUTO
 10
12113.61185537671
 20
-4787.1668147732744
 30
0.0
 11
12113.611855376719
 21
-2289.1668147732739
 31
0.0
  0
LINE
  5
A2F6
  8
FUTO
 10
10194.611855376719
 20
-4718.1668147732726
 30
0.0
 11
10194.611855376719
 21
-2358.1668147732739
 31
0.0
  0
LINE
  5
A2F7
  8
FUTO
 10
12044.61185537671
 20
-4718.1668147732744
 30
0.0
 11
12044.61185537671
 21
-2358.1668147732739
 31
0.0
  0
LINE
  5
A2F8
  8
FUTO
 10
12044.61185537671
 20
-4718.1668147732744
 30
0.0
 11
10194.611855376719
 21
-4718.1668147732744
 31
0.0
  0
LINE
  5
A2F9
  8
FUTO
 10
12044.61185537671
 20
-2358.1668147732739
 30
0.0
 11
10194.611855376719
 21
-2358.1668147732739
 31
0.0
  0
LINE
  5
A2FB
  8
FUTO
 10
10194.611855376719
 20
-4718.1668147732726
 30
0.0
 11
12044.61185537671
 21
-2358.1668147732739
 31
0.0
  0
LINE
  5
A2FC
  8
FUTO
 10
10194.611855376719
 20
-2358.1668147732739
 30
0.0
 11
12044.61185537671
 21
-4718.1668147732744
 31
0.0
  0
DIMENSION
  5
A323
  8
SP
  2
*D12
 10
12044.61185537671
 20
-7599.9001838711911
 30
0.0
 11
11119.61185537671
 21
-7476.150183871192
 31
0.0
 70
     0
 13
10194.611855376719
 23
-7882.9068651347879
 33
0.0
 14
12044.61185537671
 24
-7882.906865134787
 34
0.0
1001
ACAD
1000
DSTYLE
1002
{
1070
   140
1040
2.5
1070
    40
1040
55.0
1070
   147
1040
1.0
1070
   271
1070
     0
1002
}
  0
DIMENSION
  5
A330
  8
SP
  2
*D13
 10
12115.611855376719
 20
-7273.1161845228708
 30
0.0
 11
11155.111855376719
 21
-7149.3661845228717
 31
0.0
 70
     0
 13
10194.611855376719
 23
-7882.9068651347879
 33
0.0
 14
12115.611855376719
 24
-7737.4654711097246
 34
0.0
1001
ACAD
1000
DSTYLE
1002
{
1070
   140
1040
2.5
1070
    40
1040
55.0
1070
   147
1040
1.0
1070
   271
1070
     0
1002
}
  0
DIMENSION
  5
A33D
  8
SP
  2
*D14
 10
17901.694060849091
 20
-7599.9001838711911
 30
0.0
 11
16721.694060849091
 21
-7476.150183871192
 31
0.0
 70
     0
 13
15541.69406084908
 23
-7882.9068651347889
 33
0.0
 14
17901.694060849091
 24
-7882.9068651347889
 34
0.0
1001
ACAD
1000
DSTYLE
1002
{
1070
   140
1040
2.5
1070
    40
1040
55.0
1070
   147
1040
1.0
1070
   271
1070
     0
1002
}
  0
DIMENSION
  5
A34A
  8
SP
  2
*D15
 10
13799.951404817901
 20
-9047.9068651347898
 30
0.0
 11
13676.201404817901
 21
-8465.4068651347879
 31
0.0
 70
     0
 13
12113.61185537671
 23
-7882.9068651347879
 33
0.0
 14
13445.611855376719
 24
-9047.9068651347898
 34
0.0
 50
90.0
1001
ACAD
1000
DSTYLE
1002
{
1070
   140
1040
2.5
1070
    40
1040
55.0
1070
   147
1040
1.0
1070
   271
1070
     0
1002
}
  0
DIMENSION
  5
A357
  8
SP
  2
*D16
 10
13799.951404817901
 20
-10637.906865134781
 30
0.0
 11
13676.201404817901
 21
-9842.9068651347861
 31
0.0
 70
     0
 13
13445.611855376719
 23
-9047.9068651347898
 33
0.0
 14
13175.61185537671
 24
-10637.906865134781
 34
0.0
 50
90.0
1001
ACAD
1000
DSTYLE
1002
{
1070
   140
1040
2.5
1070
    40
1040
55.0
1070
   147
1040
1.0
1070
   271
1070
     0
1002
}
  0
DIMENSION
  5
A364
  8
SP
  2
*D17
 10
13407.61185537671
 20
-7273.1161845228708
 30
0.0
 11
12761.61185537671
 21
-7149.3661845228717
 31
0.0
 70
     0
 13
12115.611855376719
 23
-7737.4654711097246
 33
0.0
 14
13407.61185537671
 24
-9158.4068651347916
 34
0.0
1001
ACAD
1000
DSTYLE
1002
{
1070
   140
1040
2.5
1070
    40
1040
55.0
1070
   147
1040
1.0
1070
   271
1070
     0
1002
}
  0
DIMENSION
  5
A371
  8
SP
  2
*D18
 10
16721.694060849091
 20
-7273.1161845228708
 30
0.0
 11
15846.6940608491
 21
-7113.3542797609662
 31
0.0
 70
     0
 13
14971.69406084909
 23
-8567.9068651347916
 33
0.0
 14
16721.694060849091
 24
-7322.840685723324
 34
0.0
1001
ACAD
1000
DSTYLE
1002
{
1070
   140
1040
2.5
1070
    40
1040
55.0
1070
     3
1000
(<>)
1070
   147
1040
1.0
1070
   271
1070
     0
1002
}
  0
DIMENSION
  5
A37E
  8
SP
  2
*D19
 10
18141.694060849091
 20
-7273.1161845228708
 30
0.0
 11
17431.694060849091
 21
-7113.3542797609662
 31
0.0
 70
     0
 13
16721.694060849091
 23
-7322.840685723324
 33
0.0
 14
18141.694060849091
 24
-9127.9068651347879
 34
0.0
1001
ACAD
1000
DSTYLE
1002
{
1070
   140
1040
2.5
1070
    40
1040
55.0
1070
     3
1000
(<>)
1070
   147
1040
1.0
1070
   271
1070
     0
1002
}
  0
LINE
  5
A38B
  8
FUTO
 10
17980.694060849091
 20
-10777.906865134781
 30
0.0
 11
17980.694060849091
 21
-10957.906865134781
 31
0.0
  0
LINE
  5
A38C
  8
FUTO
 10
17980.694060849091
 20
-10777.906865134781
 30
0.0
 11
15130.6940608491
 21
-10777.906865134781
 31
0.0
  0
LINE
  5
A38D
  8
FUTO
 10
17980.694060849091
 20
-10957.906865134781
 30
0.0
 11
15130.69406084909
 21
-10957.906865134781
 31
0.0
  0
LINE
  5
A38E
  8
FUTO
 10
15130.69406084909
 20
-10777.906865134781
 30
0.0
 11
15130.69406084909
 21
-10957.906865134781
 31
0.0
  0
LINE
  5
A38F
  8
FUTO
 10
13175.61185537671
 20
-10777.906865134781
 30
0.0
 11
13175.61185537671
 21
-10957.906865134781
 31
0.0
  0
LINE
  5
A390
  8
FUTO
 10
13175.61185537671
 20
-10777.906865134781
 30
0.0
 11
9575.6118553767192
 21
-10777.906865134781
 31
0.0
  0
LINE
  5
A391
  8
FUTO
 10
13175.61185537671
 20
-10957.906865134781
 30
0.0
 11
9575.6118553767192
 21
-10957.90686513479
 31
0.0
  0
LINE
  5
A392
  8
FUTO
 10
9575.6118553767192
 20
-10777.906865134781
 30
0.0
 11
9575.6118553767192
 21
-10957.906865134781
 31
0.0
  0
DIMENSION
  5
A3A9
  8
SP
  2
*D21
 10
13794.92511545102
 20
-10957.906865134781
 30
0.0
 11
13671.17511545102
 21
-11401.453512312661
 31
0.0
 12
0.0
 22
-120.0
 32
0.0
 70
     0
 13
13175.61185537671
 23
-10777.906865134781
 33
0.0
 14
13175.61185537671
 24
-10957.906865134781
 34
0.0
 50
90.0
1001
ACAD
1000
DSTYLE
1002
{
1070
   140
1040
2.5
1070
    40
1040
55.0
1070
   147
1040
1.0
1070
   271
1070
     0
1070
     6
1000
_DOT
1002
}
  0
DIMENSION
  5
A3C3
  8
SP
  2
*D23
 10
13796.33989001364
 20
-10637.906865134781
 30
0.0
 11
14248.125604299359
 21
-10707.906865134781
 31
0.0
 70
     0
 13
13175.61185537671
 23
-10777.906865134781
 33
0.0
 14
13175.61185537671
 24
-10637.906865134781
 34
0.0
 50
90.0
1001
ACAD
1000
DSTYLE
1002
{
1070
   287
1070
     5
1070
     3
1000
(<>)
1070
    40
1040
55.0
1070
    75
1070
     1
1070
    76
1070
     1
1070
   140
1040
2.5
1070
   147
1040
1.0
1070
   271
1070
     0
1070
   279
1070
     2
1070
   289
1070
     3
1070
     6
1000
NONE
1070
     7
1000
NONE
1002
}
  0
ENDSEC
  0
EOF
