  0
SECTION
  2
HEADER
  9
$ACADVER
  1
AC1009
  9
$INSBASE
 10
0.0
 20
0.0
 30
0.0
  9
$EXTMIN
 10
7786.1666978340372
 20
-14237.419212031229
 30
0.0
  9
$EXTMAX
 10
19336.166697834029
 20
1987.580787968772
 30
0.0
  9
$LIMMIN
 10
0.0
 20
0.0
  9
$LIMMAX
 10
297.0
 20
210.0
  9
$ORTHOMODE
 70
     0
  9
$REGENMODE
 70
     1
  9
$FILLMODE
 70
     1
  9
$QTEXTMODE
 70
     0
  9
$MIRRTEXT
 70
     0
  9
$DRAGMODE
 70
     2
  9
$LTSCALE
 40
275.0
  9
$OSMODE
 70
    37
  9
$ATTMODE
 70
     1
  9
$TEXTSIZE
 40
137.5
  9
$TRACEWID
 40
0.05
  9
$TEXTSTYLE
  7
STANDARD
  9
$CLAYER
  8
SP
  9
$CELTYPE
  6
BYLAYER
  9
$CECOLOR
 62
   256
  9
$DIMSCALE
 40
55.0
  9
$DIMASZ
 40
2.0
  9
$DIMEXO
 40
1.0
  9
$DIMDLI
 40
10.0
  9
$DIMRND
 40
0.0
  9
$DIMDLE
 40
0.0
  9
$DIMEXE
 40
1.0
  9
$DIMTP
 40
0.0
  9
$DIMTM
 40
0.0
  9
$DIMTXT
 40
2.5
  9
$DIMCEN
 40
0.0
  9
$DIMTSZ
 40
0.0
  9
$DIMTOL
 70
     0
  9
$DIMLIM
 70
     0
  9
$DIMTIH
 70
     0
  9
$DIMTOH
 70
     0
  9
$DIMSE1
 70
     1
  9
$DIMSE2
 70
     1
  9
$DIMTAD
 70
     1
  9
$DIMZIN
 70
     8
  9
$DIMBLK
  1

  9
$DIMASO
 70
     1
  9
$DIMSHO
 70
     1
  9
$DIMPOST
  1
(<>)
  9
$DIMAPOST
  1

  9
$DIMALT
 70
     0
  9
$DIMALTD
 70
     2
  9
$DIMALTF
 40
0.03937
  9
$DIMLFAC
 40
1.0
  9
$DIMTOFL
 70
     1
  9
$DIMTVP
 40
0.0
  9
$DIMTIX
 70
     0
  9
$DIMSOXD
 70
     0
  9
$DIMSAH
 70
     1
  9
$DIMBLK1
  1
NONE
  9
$DIMBLK2
  1
NONE
  9
$DIMSTYLE
  2
MATSU
  9
$DIMCLRD
 70
   256
  9
$DIMCLRE
 70
   256
  9
$DIMCLRT
 70
   256
  9
$DIMTFAC
 40
1.0
  9
$DIMGAP
 40
1.0
  9
$LUNITS
 70
     2
  9
$LUPREC
 70
     4
  9
$SKETCHINC
 40
0.1
  9
$FILLETRAD
 40
0.0
  9
$AUNITS
 70
     0
  9
$AUPREC
 70
     2
  9
$MENU
  1
acad
  9
$ELEVATION
 40
0.0
  9
$PELEVATION
 40
0.0
  9
$THICKNESS
 40
0.0
  9
$LIMCHECK
 70
     0
  9
$BLIPMODE
 70
     0
  9
$CHAMFERA
 40
20.0
  9
$CHAMFERB
 40
20.0
  9
$SKPOLY
 70
     0
  9
$TDCREATE
 40
2453950.639283854
  9
$TDUPDATE
 40
2454953.8317998028
  9
$TDINDWG
 40
0.3535421991
  9
$TDUSRTIMER
 40
0.3535421991
  9
$USRTIMER
 70
     1
  9
$ANGBASE
 50
0.0
  9
$ANGDIR
 70
     0
  9
$PDMODE
 70
     0
  9
$PDSIZE
 40
1.0
  9
$PLINEWID
 40
0.0
  9
$COORDS
 70
     1
  9
$SPLFRAME
 70
     0
  9
$SPLINETYPE
 70
     6
  9
$SPLINESEGS
 70
     8
  9
$ATTDIA
 70
     0
  9
$ATTREQ
 70
     1
  9
$HANDLING
 70
 10241
  9
$HANDSEED
  5
A3E0
  9
$SURFTAB1
 70
     6
  9
$SURFTAB2
 70
     6
  9
$SURFTYPE
 70
     6
  9
$SURFU
 70
     6
  9
$SURFV
 70
     6
  9
$UCSNAME
  2

  9
$UCSORG
 10
0.0
 20
-0.0000000000000568
 30
0.0
  9
$UCSXDIR
 10
1.0
 20
0.0
 30
0.0
  9
$UCSYDIR
 10
0.0
 20
1.0
 30
0.0
  9
$PUCSNAME
  2

  9
$PUCSORG
 10
0.0
 20
0.0
 30
0.0
  9
$PUCSXDIR
 10
1.0
 20
0.0
 30
0.0
  9
$PUCSYDIR
 10
0.0
 20
1.0
 30
0.0
  9
$USERI1
 70
     0
  9
$USERI2
 70
     0
  9
$USERI3
 70
     0
  9
$USERI4
 70
     0
  9
$USERI5
 70
     0
  9
$USERR1
 40
0.0
  9
$USERR2
 40
0.0
  9
$USERR3
 40
0.0
  9
$USERR4
 40
0.0
  9
$USERR5
 40
0.0
  9
$WORLDVIEW
 70
     1
  9
$SHADEDGE
 70
     3
  9
$SHADEDIF
 70
    70
  9
$TILEMODE
 70
     1
  9
$MAXACTVP
 70
    16
  9
$PLIMCHECK
 70
     0
  9
$PEXTMIN
 10
1.0000000000000000E+020
 20
1.0000000000000000E+020
 30
1.0000000000000000E+020
  9
$PEXTMAX
 10
-1.0000000000000000E+020
 20
-1.0000000000000000E+020
 30
-1.0000000000000000E+020
  9
$PLIMMIN
 10
0.0
 20
0.0
  9
$PLIMMAX
 10
12.0
 20
9.0
  9
$UNITMODE
 70
     0
  9
$VISRETAIN
 70
     0
  9
$PLINEGEN
 70
     0
  9
$PSLTSCALE
 70
     0
  0
ENDSEC
  0
SECTION
  2
TABLES
  0
TABLE
  2
VPORT
 70
     2
  0
VPORT
  2
*ACTIVE
 70
     0
 10
0.0
 20
0.0
 11
1.0
 21
1.0
 12
22453.56669783403
 22
-4492.383698012537
 13
0.0
 23
0.0
 14
5.0
 24
5.0
 15
0.0
 25
0.0
 16
0.0
 26
0.0
 36
1.0
 17
0.0
 27
0.0
 37
0.0
 40
19490.071028037379
 41
1.5051150895140659
 42
50.0
 43
0.0
 44
0.0
 50
0.0
 51
0.0
 71
     0
 72
   100
 73
     1
 74
     0
 75
     0
 76
     0
 77
     0
 78
     0
  0
ENDTAB
  0
TABLE
  2
LTYPE
 70
     3
  0
LTYPE
  2
CONTINUOUS
 70
     0
  3
Solid line
 72
    65
 73
     0
 40
0.0
  0
LTYPE
  2
CENTER
 70
     0
  3
____ _ ____ _ ____ _ ____ _ ____ _ ____ _ ____ 
 72
    65
 73
     4
 40
2.0
 49
1.25
 49
-0.25
 49
0.25
 49
-0.25
  0
LTYPE
  2
PHANTOM
 70
     0
  3
______  __  __  ______  __  __  ______  __  __ 
 72
    65
 73
     6
 40
2.5
 49
1.25
 49
-0.25
 49
0.25
 49
-0.25
 49
0.25
 49
-0.25
  0
ENDTAB
  0
TABLE
  2
LAYER
 70
     7
  0
LAYER
  2
0
 70
     0
 62
     7
  6
CONTINUOUS
  0
LAYER
  2
CT
 70
     0
 62
     3
  6
CENTER
  0
LAYER
  2
FUTO
 70
     0
 62
     4
  6
CONTINUOUS
  0
LAYER
  2
SL
 70
     0
 62
     1
  6
PHANTOM
  0
LAYER
  2
SP
 70
     0
 62
     2
  6
CONTINUOUS
  0
LAYER
  2
DEFPOINTS
 70
     0
 62
     7
  6
CONTINUOUS
  0
LAYER
  2
4
 70
     0
 62
     7
  6
CONTINUOUS
  0
ENDTAB
  0
TABLE
  2
STYLE
 70
     1
  0
STYLE
  2
STANDARD
 70
     0
 40
0.0
 41
1.0
 50
15.0
 71
     0
 42
137.5
  3
C:\Program Files\AutoCAD LT\simplex.shx
  4
C:\Program Files\AutoCAD LT\extfont.shx
  0
ENDTAB
  0
TABLE
  2
VIEW
 70
     0
  0
ENDTAB
  0
TABLE
  2
UCS
 70
     0
  0
ENDTAB
  0
TABLE
  2
APPID
 70
     2
  0
APPID
  2
ACAD
 70
     0
  0
APPID
  2
CONTENTBLOCKICON
 70
     0
  0
ENDTAB
  0
TABLE
  2
DIMSTYLE
 70
     2
  0
DIMSTYLE
  2
STANDARD
 70
     0
  3

  4

  5

  6

  7

 40
1.0
 41
0.18
 42
0.0625
 43
0.38
 44
0.18
 45
0.0
 46
0.0
 47
0.0
 48
0.0
140
0.18
141
0.09
142
0.0
143
25.399999999999999
144
1.0
145
0.0
146
1.0
147
0.09
 71
     0
 72
     0
 73
     1
 74
     1
 75
     0
 76
     0
 77
     0
 78
     0
170
     0
171
     2
172
     0
173
     0
174
     0
175
     0
176
     0
177
     0
178
     0
  0
DIMSTYLE
  2
MATSU
 70
     0
  3

  4

  5

  6
OPEN
  7
OPEN
 40
1.0
 41
2.0
 42
1.0
 43
10.0
 44
1.0
 45
0.0
 46
0.0
 47
0.0
 48
0.0
140
3.0
141
0.0
142
0.0
143
0.03937
144
1.0
145
0.0
146
1.0
147
0.5
 71
     0
 72
     0
 73
     0
 74
     0
 75
     0
 76
     0
 77
     1
 78
     8
170
     0
171
     2
172
     1
173
     1
174
     0
175
     0
176
   256
177
   256
178
   256
  0
ENDTAB
  0
ENDSEC
  0
SECTION
  2
BLOCKS
  0
BLOCK
  8
0
  2
$MODEL_SPACE
 70
     0
 10
0.0
 20
0.0
 30
0.0
  3
$MODEL_SPACE
  1

  0
ENDBLK
  5
1B
  8
0
  0
BLOCK
 67
     1
  8
0
  2
$PAPER_SPACE
 70
     0
 10
0.0
 20
0.0
 30
0.0
  3
$PAPER_SPACE
  1

  0
ENDBLK
  5
18
 67
     1
  8
0
  0
BLOCK
  8
0
  2
_OPEN
 70
     0
 10
0.0
 20
0.0
 30
0.0
  3
_OPEN
  1

  0
LINE
  5
28
  8
0
  6
BYBLOCK
 62
     0
 10
-1.0
 20
0.1666666666666666
 30
0.0
 11
0.0
 21
0.0
 31
0.0
  0
LINE
  5
29
  8
0
  6
BYBLOCK
 62
     0
 10
0.0
 20
0.0
 30
0.0
 11
-1.0
 21
-0.1666666666666666
 31
0.0
  0
LINE
  5
2A
  8
0
  6
BYBLOCK
 62
     0
 10
0.0
 20
0.0
 30
0.0
 11
-1.0
 21
0.0
 31
0.0
  0
ENDBLK
  5
2B
  8
0
  0
BLOCK
  8
0
  2
*D1
 70
     1
 10
0.0
 20
0.0
 30
0.0
  3
*D1
  1

  0
LINE
  5
A318
  8
0
  6
BYBLOCK
 10
13635.945094562639
 20
-3929.1668147732798
 30
0.0
 11
13981.54284665663
 21
-3929.1668147732798
 31
0.0
  0
LINE
  5
A319
  8
0
  6
BYBLOCK
 10
13635.945094562639
 20
-5129.1668147732798
 30
0.0
 11
13981.54284665663
 21
-5129.1668147732798
 31
0.0
  0
LINE
  5
A31A
  8
0
  6
BYBLOCK
 10
13931.54284665663
 20
-4029.1668147732789
 30
0.0
 11
13931.54284665663
 21
-5029.1668147732789
 31
0.0
  0
INSERT
  5
A31B
  8
0
  6
BYBLOCK
  2
_OPEN
 10
13931.54284665663
 20
-3929.1668147732798
 30
0.0
 41
100.0
 42
100.0
 43
100.0
 50
90.0
  0
INSERT
  5
A31C
  8
0
  6
BYBLOCK
  2
_OPEN
 10
13931.54284665663
 20
-5129.1668147732798
 30
0.0
 41
100.0
 42
100.0
 43
100.0
 50
270.0
  0
TEXT
  5
A31D
  8
SP
 10
13881.54284665663
 20
-4761.6378640073817
 30
0.0
 40
125.0
  1
1200
 50
90.0
 51
15.0
  0
POINT
  5
A31E
  8
DEFPOINTS
  6
BYBLOCK
 62
     0
 10
13585.94509456265
 20
-3929.1668147732798
 30
0.0
  0
POINT
  5
A31F
  8
DEFPOINTS
  6
BYBLOCK
 62
     0
 10
13585.94509456265
 20
-5129.1668147732798
 30
0.0
  0
POINT
  5
A320
  8
DEFPOINTS
  6
BYBLOCK
 62
     0
 10
13931.54284665663
 20
-5129.1668147732798
 30
0.0
  0
ENDBLK
  5
A321
  8
0
  0
BLOCK
  8
0
  2
*D2
 70
     1
 10
0.0
 20
0.0
 30
0.0
  3
*D2
  1

  0
LINE
  5
A2EC
  8
0
  6
BYBLOCK
 10
13585.94509456265
 20
-5179.1668147732798
 30
0.0
 11
13585.94509456265
 21
-5702.171877547662
 31
0.0
  0
LINE
  5
A2ED
  8
0
  6
BYBLOCK
 10
9985.9450945626504
 20
-5179.1668147732753
 30
0.0
 11
9985.9450945626504
 21
-5702.171877547662
 31
0.0
  0
LINE
  5
A2EE
  8
0
  6
BYBLOCK
 10
13485.94509456265
 20
-5652.171877547662
 30
0.0
 11
10085.945094562639
 21
-5652.171877547662
 31
0.0
  0
INSERT
  5
A2EF
  8
0
  6
BYBLOCK
  2
_OPEN
 10
13585.94509456265
 20
-5652.171877547662
 30
0.0
 41
100.0
 42
100.0
 43
100.0
  0
INSERT
  5
A2F0
  8
0
  6
BYBLOCK
  2
_OPEN
 10
9985.9450945626504
 20
-5652.171877547662
 30
0.0
 41
100.0
 42
100.0
 43
100.0
 50
180.0
  0
TEXT
  5
A2F1
  8
SP
 10
11551.936365273799
 20
-5602.171877547662
 30
0.0
 40
125.0
  1
3600
 51
15.0
  0
POINT
  5
A2F2
  8
DEFPOINTS
  6
BYBLOCK
 62
     0
 10
13585.94509456265
 20
-5129.1668147732798
 30
0.0
  0
POINT
  5
A2F3
  8
DEFPOINTS
  6
BYBLOCK
 62
     0
 10
9985.9450945626504
 20
-5129.1668147732744
 30
0.0
  0
POINT
  5
A2F4
  8
DEFPOINTS
  6
BYBLOCK
 62
     0
 10
9985.9450945626504
 20
-5652.171877547662
 30
0.0
  0
ENDBLK
  5
A2F5
  8
0
  0
BLOCK
  8
0
  2
*D3
 70
     1
 10
0.0
 20
0.0
 30
0.0
  3
*D3
  1

  0
LINE
  5
A35A
  8
0
  6
BYBLOCK
 10
9935.9450945626486
 20
-2279.1668147732739
 30
0.0
 11
9401.3996309801951
 21
-2279.1668147732739
 31
0.0
  0
LINE
  5
A35B
  8
0
  6
BYBLOCK
 10
9935.9450945626486
 20
-5129.1668147732744
 30
0.0
 11
9401.3996309801951
 21
-5129.1668147732744
 31
0.0
  0
LINE
  5
A35C
  8
0
  6
BYBLOCK
 10
9451.3996309801969
 20
-2379.1668147732739
 30
0.0
 11
9451.3996309801969
 21
-5029.1668147732744
 31
0.0
  0
INSERT
  5
A35D
  8
0
  6
BYBLOCK
  2
_OPEN
 10
9451.3996309801969
 20
-2279.1668147732739
 30
0.0
 41
100.0
 42
100.0
 43
100.0
 50
90.0
  0
INSERT
  5
A35E
  8
0
  6
BYBLOCK
  2
_OPEN
 10
9451.3996309801969
 20
-5129.1668147732744
 30
0.0
 41
100.0
 42
100.0
 43
100.0
 50
270.0
  0
TEXT
  5
A35F
  8
SP
 10
9401.3996309801951
 20
-3934.9856727236579
 30
0.0
 40
125.0
  1
2850
 50
90.0
 51
15.0
  0
POINT
  5
A360
  8
DEFPOINTS
  6
BYBLOCK
 62
     0
 10
9985.9450945626504
 20
-2279.1668147732739
 30
0.0
  0
POINT
  5
A361
  8
DEFPOINTS
  6
BYBLOCK
 62
     0
 10
9985.9450945626504
 20
-5129.1668147732744
 30
0.0
  0
POINT
  5
A362
  8
DEFPOINTS
  6
BYBLOCK
 62
     0
 10
9451.3996309801969
 20
-5129.1668147732744
 30
0.0
  0
ENDBLK
  5
A363
  8
0
  0
BLOCK
  8
0
  2
*D4
 70
     1
 10
0.0
 20
0.0
 30
0.0
  3
*D4
  1

  0
LINE
  5
A365
  8
0
  6
BYBLOCK
 10
12105.945094562639
 20
-2229.1668147732739
 30
0.0
 11
12105.945094562639
 21
-1933.199102532606
 31
0.0
  0
LINE
  5
A366
  8
0
  6
BYBLOCK
 10
9985.9450945626504
 20
-2229.1668147732739
 30
0.0
 11
9985.9450945626504
 21
-1933.199102532606
 31
0.0
  0
LINE
  5
A367
  8
0
  6
BYBLOCK
 10
12005.945094562639
 20
-1983.199102532606
 30
0.0
 11
10085.945094562639
 21
-1983.199102532606
 31
0.0
  0
INSERT
  5
A368
  8
0
  6
BYBLOCK
  2
_OPEN
 10
12105.945094562639
 20
-1983.199102532606
 30
0.0
 41
100.0
 42
100.0
 43
100.0
  0
INSERT
  5
A369
  8
0
  6
BYBLOCK
  2
_OPEN
 10
9985.9450945626504
 20
-1983.199102532606
 30
0.0
 41
100.0
 42
100.0
 43
100.0
 50
180.0
  0
TEXT
  5
A36A
  8
SP
 10
10827.030998517021
 20
-1933.199102532606
 30
0.0
 40
125.0
  1
2120
 51
15.0
  0
POINT
  5
A36B
  8
DEFPOINTS
  6
BYBLOCK
 62
     0
 10
12105.945094562639
 20
-2279.1668147732739
 30
0.0
  0
POINT
  5
A36C
  8
DEFPOINTS
  6
BYBLOCK
 62
     0
 10
9985.9450945626504
 20
-2279.1668147732739
 30
0.0
  0
POINT
  5
A36D
  8
DEFPOINTS
  6
BYBLOCK
 62
     0
 10
9985.9450945626504
 20
-1983.199102532606
 30
0.0
  0
ENDBLK
  5
A36E
  8
0
  0
BLOCK
  8
0
  2
*D5
 70
     1
 10
0.0
 20
0.0
 30
0.0
  3
*D5
  1

  0
LINE
  5
A2F7
  8
0
  6
BYBLOCK
 10
12105.945094562639
 20
-2229.1668147732739
 30
0.0
 11
12105.945094562639
 21
-1933.199102532606
 31
0.0
  0
LINE
  5
A2F8
  8
0
  6
BYBLOCK
 10
13585.94509456265
 20
-3879.1668147732789
 30
0.0
 11
13585.94509456265
 21
-1933.199102532606
 31
0.0
  0
LINE
  5
A2F9
  8
0
  6
BYBLOCK
 10
12205.945094562639
 20
-1983.199102532606
 30
0.0
 11
13485.94509456265
 21
-1983.199102532606
 31
0.0
  0
INSERT
  5
A2FA
  8
0
  6
BYBLOCK
  2
_OPEN
 10
12105.945094562639
 20
-1983.199102532606
 30
0.0
 41
100.0
 42
100.0
 43
100.0
 50
180.0
  0
INSERT
  5
A2FB
  8
0
  6
BYBLOCK
  2
_OPEN
 10
13585.94509456265
 20
-1983.199102532606
 30
0.0
 41
100.0
 42
100.0
 43
100.0
  0
TEXT
  5
A2FC
  8
SP
 10
12613.474045328539
 20
-1933.199102532606
 30
0.0
 40
125.0
  1
1480
 51
15.0
  0
POINT
  5
A2FD
  8
DEFPOINTS
  6
BYBLOCK
 62
     0
 10
12105.945094562639
 20
-2279.1668147732739
 30
0.0
  0
POINT
  5
A2FE
  8
DEFPOINTS
  6
BYBLOCK
 62
     0
 10
13585.94509456265
 20
-3929.1668147732798
 30
0.0
  0
POINT
  5
A2FF
  8
DEFPOINTS
  6
BYBLOCK
 62
     0
 10
13585.94509456265
 20
-1983.199102532606
 30
0.0
  0
ENDBLK
  5
A300
  8
0
  0
BLOCK
  8
0
  2
*D6
 70
     1
 10
0.0
 20
0.0
 30
0.0
  3
*D6
  1

  0
LINE
  5
9DA2
  8
0
  6
BYBLOCK
 10
3728.482521670157
 20
-8127.6138411875618
 30
0.0
 11
3728.482521670157
 21
-7806.4903157631343
 31
0.0
  0
LINE
  5
9DA3
  8
0
  6
BYBLOCK
 10
6088.4825216701547
 20
-8127.61384118756
 30
0.0
 11
6088.4825216701547
 21
-7806.4903157631343
 31
0.0
  0
LINE
  5
9DA4
  8
0
  6
BYBLOCK
 10
3828.482521670157
 20
-7856.4903157631352
 30
0.0
 11
5988.4825216701556
 21
-7856.4903157631352
 31
0.0
  0
INSERT
  5
9DA5
  8
0
  6
BYBLOCK
  2
_OPEN
 10
3728.482521670157
 20
-7856.4903157631352
 30
0.0
 41
100.0
 42
100.0
 43
100.0
 50
180.0
  0
INSERT
  5
9DA6
  8
0
  6
BYBLOCK
  2
_OPEN
 10
6088.4825216701547
 20
-7856.4903157631352
 30
0.0
 41
100.0
 42
100.0
 43
100.0
  0
TEXT
  5
9DA7
  8
SP
 10
4677.6636637197716
 20
-7806.4903157631343
 30
0.0
 40
125.0
  1
2360
 51
15.0
  0
POINT
  5
9DA8
  8
DEFPOINTS
  6
BYBLOCK
 62
     0
 10
3728.482521670157
 20
-8177.6138411875627
 30
0.0
  0
POINT
  5
9DA9
  8
DEFPOINTS
  6
BYBLOCK
 62
     0
 10
6088.4825216701547
 20
-8177.6138411875609
 30
0.0
  0
POINT
  5
9DAA
  8
DEFPOINTS
  6
BYBLOCK
 62
     0
 10
6088.4825216701547
 20
-7856.4903157631352
 30
0.0
  0
ENDBLK
  5
9DAB
  8
0
  0
BLOCK
  8
0
  2
*D7
 70
     1
 10
0.0
 20
0.0
 30
0.0
  3
*D7
  1

  0
LINE
  5
A34F
  8
0
  6
BYBLOCK
 10
9880.9450945626486
 20
-7007.9068651347879
 30
0.0
 11
9880.9450945626486
 21
-6751.7833397103605
 31
0.0
  0
LINE
  5
A350
  8
0
  6
BYBLOCK
 10
11045.945094562639
 20
-6942.8076937428423
 30
0.0
 11
11045.945094562639
 21
-6751.7833397103605
 31
0.0
  0
LINE
  5
A351
  8
0
  6
BYBLOCK
 10
9980.9450945626468
 20
-6801.7833397103605
 30
0.0
 11
10945.94509456265
 21
-6801.7833397103605
 31
0.0
  0
INSERT
  5
A352
  8
0
  6
BYBLOCK
  2
_OPEN
 10
9880.9450945626486
 20
-6801.7833397103605
 30
0.0
 41
100.0
 42
100.0
 43
100.0
 50
180.0
  0
INSERT
  5
A353
  8
0
  6
BYBLOCK
  2
_OPEN
 10
11045.945094562639
 20
-6801.7833397103605
 30
0.0
 41
100.0
 42
100.0
 43
100.0
  0
TEXT
  5
A354
  8
SP
 10
10242.66512637103
 20
-6751.7833397103605
 30
0.0
 40
125.0
  1
1165
 51
15.0
  0
POINT
  5
A355
  8
DEFPOINTS
  6
BYBLOCK
 62
     0
 10
9880.9450945626486
 20
-7057.9068651347879
 30
0.0
  0
POINT
  5
A356
  8
DEFPOINTS
  6
BYBLOCK
 62
     0
 10
11045.945094562639
 20
-6992.8076937428414
 30
0.0
  0
POINT
  5
A357
  8
DEFPOINTS
  6
BYBLOCK
 62
     0
 10
11045.945094562639
 20
-6801.7833397103605
 30
0.0
  0
ENDBLK
  5
A358
  8
0
  0
BLOCK
  8
0
  2
*D8
 70
     1
 10
0.0
 20
0.0
 30
0.0
  3
*D8
  1

  0
LINE
  5
A2E1
  8
0
  6
BYBLOCK
 10
11045.945094562639
 20
-6942.8076937428423
 30
0.0
 11
11045.945094562639
 21
-6751.7833397103605
 31
0.0
  0
LINE
  5
A2E2
  8
0
  6
BYBLOCK
 10
12599.94509456265
 20
-8866.9068651347879
 30
0.0
 11
12599.94509456265
 21
-6751.7833397103605
 31
0.0
  0
LINE
  5
A2E3
  8
0
  6
BYBLOCK
 10
11145.945094562639
 20
-6801.7833397103605
 30
0.0
 11
12499.94509456265
 21
-6801.7833397103605
 31
0.0
  0
INSERT
  5
A2E4
  8
0
  6
BYBLOCK
  2
_OPEN
 10
11045.945094562639
 20
-6801.7833397103605
 30
0.0
 41
100.0
 42
100.0
 43
100.0
 50
180.0
  0
INSERT
  5
A2E5
  8
0
  6
BYBLOCK
  2
_OPEN
 10
12599.94509456265
 20
-6801.7833397103605
 30
0.0
 41
100.0
 42
100.0
 43
100.0
  0
TEXT
  5
A2E6
  8
SP
 10
11592.49634272233
 20
-6751.7833397103605
 30
0.0
 40
125.0
  1
1554
 51
15.0
  0
POINT
  5
A2E7
  8
DEFPOINTS
  6
BYBLOCK
 62
     0
 10
11045.945094562639
 20
-6992.8076937428414
 30
0.0
  0
POINT
  5
A2E8
  8
DEFPOINTS
  6
BYBLOCK
 62
     0
 10
12599.94509456265
 20
-8916.9068651347898
 30
0.0
  0
POINT
  5
A2E9
  8
DEFPOINTS
  6
BYBLOCK
 62
     0
 10
12599.94509456265
 20
-6801.7833397103605
 30
0.0
  0
ENDBLK
  5
A2EA
  8
0
  0
BLOCK
  8
0
  2
*D9
 70
     1
 10
0.0
 20
0.0
 30
0.0
  3
*D9
  1

  0
LINE
  5
A302
  8
0
  6
BYBLOCK
 10
13585.94509456265
 20
-10427.90686513479
 30
0.0
 11
13585.94509456265
 21
-10740.894503252361
 31
0.0
  0
LINE
  5
A303
  8
0
  6
BYBLOCK
 10
11045.945094562639
 20
-10427.906865134781
 30
0.0
 11
11045.945094562639
 21
-10740.894503252361
 31
0.0
  0
LINE
  5
A304
  8
0
  6
BYBLOCK
 10
13485.94509456265
 20
-10690.89450325237
 30
0.0
 11
11145.945094562639
 21
-10690.89450325237
 31
0.0
  0
INSERT
  5
A305
  8
0
  6
BYBLOCK
  2
_OPEN
 10
13585.94509456265
 20
-10690.89450325237
 30
0.0
 41
100.0
 42
100.0
 43
100.0
  0
INSERT
  5
A306
  8
0
  6
BYBLOCK
  2
_OPEN
 10
11045.945094562639
 20
-10690.89450325237
 30
0.0
 41
100.0
 42
100.0
 43
100.0
 50
180.0
  0
TEXT
  5
A307
  8
SP
 10
12085.126236612259
 20
-10640.894503252361
 30
0.0
 40
125.0
  1
2540
 51
15.0
  0
POINT
  5
A308
  8
DEFPOINTS
  6
BYBLOCK
 62
     0
 10
13585.94509456265
 20
-10377.90686513479
 30
0.0
  0
POINT
  5
A309
  8
DEFPOINTS
  6
BYBLOCK
 62
     0
 10
11045.945094562639
 20
-10377.906865134781
 30
0.0
  0
POINT
  5
A30A
  8
DEFPOINTS
  6
BYBLOCK
 62
     0
 10
11045.945094562639
 20
-10690.89450325237
 30
0.0
  0
ENDBLK
  5
A30B
  8
0
  0
BLOCK
  8
0
  2
*D10
 70
     1
 10
0.0
 20
0.0
 30
0.0
  3
*D10
  1

  0
LINE
  5
A344
  8
0
  6
BYBLOCK
 10
11045.945094562639
 20
-10427.906865134781
 30
0.0
 11
11045.945094562639
 21
-10740.894503252361
 31
0.0
  0
LINE
  5
A345
  8
0
  6
BYBLOCK
 10
9985.9450945626504
 20
-10427.906865134781
 30
0.0
 11
9985.9450945626504
 21
-10740.894503252361
 31
0.0
  0
LINE
  5
A346
  8
0
  6
BYBLOCK
 10
10945.94509456265
 20
-10690.89450325237
 30
0.0
 11
10085.945094562639
 21
-10690.89450325237
 31
0.0
  0
INSERT
  5
A347
  8
0
  6
BYBLOCK
  2
_OPEN
 10
11045.945094562639
 20
-10690.89450325237
 30
0.0
 41
100.0
 42
100.0
 43
100.0
  0
INSERT
  5
A348
  8
0
  6
BYBLOCK
  2
_OPEN
 10
9985.9450945626504
 20
-10690.89450325237
 30
0.0
 41
100.0
 42
100.0
 43
100.0
 50
180.0
  0
TEXT
  5
A349
  8
SP
 10
10283.474045328539
 20
-10640.894503252361
 30
0.0
 40
125.0
  1
1060
 51
15.0
  0
POINT
  5
A34A
  8
DEFPOINTS
  6
BYBLOCK
 62
     0
 10
11045.945094562639
 20
-10377.906865134781
 30
0.0
  0
POINT
  5
A34B
  8
DEFPOINTS
  6
BYBLOCK
 62
     0
 10
9985.9450945626504
 20
-10377.906865134781
 30
0.0
  0
POINT
  5
A34C
  8
DEFPOINTS
  6
BYBLOCK
 62
     0
 10
9985.9450945626504
 20
-10690.89450325237
 30
0.0
  0
ENDBLK
  5
A34D
  8
0
  0
BLOCK
  8
0
  2
*D11
 70
     1
 10
0.0
 20
0.0
 30
0.0
  3
*D11
  1

  0
LINE
  5
9DF0
  8
0
  6
BYBLOCK
 10
3317.482521670157
 20
-11482.61384118756
 30
0.0
 11
3317.482521670157
 21
-11795.60147930514
 31
0.0
  0
LINE
  5
9DF1
  8
0
  6
BYBLOCK
 10
4908.4825216701574
 20
-11482.61384118756
 30
0.0
 11
4908.4825216701574
 21
-11795.60147930514
 31
0.0
  0
LINE
  5
9DF2
  8
0
  6
BYBLOCK
 10
3417.482521670157
 20
-11745.60147930514
 30
0.0
 11
4808.4825216701574
 21
-11745.60147930514
 31
0.0
  0
INSERT
  5
9DF3
  8
0
  6
BYBLOCK
  2
_OPEN
 10
3317.482521670157
 20
-11745.60147930514
 30
0.0
 41
100.0
 42
100.0
 43
100.0
 50
180.0
  0
INSERT
  5
9DF4
  8
0
  6
BYBLOCK
  2
_OPEN
 10
4908.4825216701574
 20
-11745.60147930514
 30
0.0
 41
100.0
 42
100.0
 43
100.0
  0
TEXT
  5
9DF5
  8
SP
 10
3901.1311249071141
 20
-11695.60147930514
 30
0.0
 40
125.0
  1
1591
 51
15.0
  0
POINT
  5
9DF6
  8
DEFPOINTS
  6
BYBLOCK
 62
     0
 10
3317.482521670157
 20
-11432.61384118756
 30
0.0
  0
POINT
  5
9DF7
  8
DEFPOINTS
  6
BYBLOCK
 62
     0
 10
4908.4825216701574
 20
-11432.61384118756
 30
0.0
  0
POINT
  5
9DF8
  8
DEFPOINTS
  6
BYBLOCK
 62
     0
 10
4908.4825216701574
 20
-11745.60147930514
 30
0.0
  0
ENDBLK
  5
9DF9
  8
0
  0
BLOCK
  8
0
  2
*D12
 70
     1
 10
0.0
 20
0.0
 30
0.0
  3
*D12
  1

  0
LINE
  5
9DFD
  8
0
  6
BYBLOCK
 10
4908.4825216701574
 20
-11482.61384118756
 30
0.0
 11
4908.4825216701574
 21
-11795.60147930514
 31
0.0
  0
LINE
  5
9DFE
  8
0
  6
BYBLOCK
 10
6167.4825216701583
 20
-11482.61384118756
 30
0.0
 11
6167.4825216701583
 21
-11795.60147930514
 31
0.0
  0
LINE
  5
9DFF
  8
0
  6
BYBLOCK
 10
5008.4825216701574
 20
-11745.60147930514
 30
0.0
 11
6067.4825216701574
 21
-11745.60147930514
 31
0.0
  0
INSERT
  5
9E00
  8
0
  6
BYBLOCK
  2
_OPEN
 10
4908.4825216701574
 20
-11745.60147930514
 30
0.0
 41
100.0
 42
100.0
 43
100.0
 50
180.0
  0
INSERT
  5
9E01
  8
0
  6
BYBLOCK
  2
_OPEN
 10
6167.4825216701583
 20
-11745.60147930514
 30
0.0
 41
100.0
 42
100.0
 43
100.0
  0
TEXT
  5
9E02
  8
SP
 10
5307.6901950776301
 20
-11695.60147930514
 30
0.0
 40
125.0
  1
1259
 51
15.0
  0
POINT
  5
9E03
  8
DEFPOINTS
  6
BYBLOCK
 62
     0
 10
4908.4825216701574
 20
-11432.61384118756
 30
0.0
  0
POINT
  5
9E04
  8
DEFPOINTS
  6
BYBLOCK
 62
     0
 10
6167.4825216701583
 20
-11432.61384118756
 30
0.0
  0
POINT
  5
9E05
  8
DEFPOINTS
  6
BYBLOCK
 62
     0
 10
6167.4825216701583
 20
-11745.60147930514
 30
0.0
  0
ENDBLK
  5
9E06
  8
0
  0
BLOCK
  8
0
  2
*D13
 70
     1
 10
0.0
 20
0.0
 30
0.0
  3
*D13
  1

  0
LINE
  5
9E0A
  8
0
  6
BYBLOCK
 10
3317.482521670157
 20
-11482.61384118756
 30
0.0
 11
3317.482521670157
 21
-12113.57912714846
 31
0.0
  0
LINE
  5
9E0B
  8
0
  6
BYBLOCK
 10
6167.4825216701583
 20
-11482.61384118756
 30
0.0
 11
6167.4825216701583
 21
-12113.57912714846
 31
0.0
  0
LINE
  5
9E0C
  8
0
  6
BYBLOCK
 10
3417.482521670157
 20
-12063.57912714846
 30
0.0
 11
6067.4825216701574
 21
-12063.57912714846
 31
0.0
  0
INSERT
  5
9E0D
  8
0
  6
BYBLOCK
  2
_OPEN
 10
3317.482521670157
 20
-12063.57912714846
 30
0.0
 41
100.0
 42
100.0
 43
100.0
 50
180.0
  0
INSERT
  5
9E0E
  8
0
  6
BYBLOCK
  2
_OPEN
 10
6167.4825216701583
 20
-12063.57912714846
 30
0.0
 41
100.0
 42
100.0
 43
100.0
  0
TEXT
  5
9E0F
  8
SP
 10
4511.6636637197726
 20
-12013.57912714846
 30
0.0
 40
125.0
  1
2850
 51
15.0
  0
POINT
  5
9E10
  8
DEFPOINTS
  6
BYBLOCK
 62
     0
 10
3317.482521670157
 20
-11432.61384118756
 30
0.0
  0
POINT
  5
9E11
  8
DEFPOINTS
  6
BYBLOCK
 62
     0
 10
6167.4825216701583
 20
-11432.61384118756
 30
0.0
  0
POINT
  5
9E12
  8
DEFPOINTS
  6
BYBLOCK
 62
     0
 10
6167.4825216701583
 20
-12063.57912714846
 30
0.0
  0
ENDBLK
  5
9E13
  8
0
  0
BLOCK
  8
0
  2
*D14
 70
     1
 10
0.0
 20
0.0
 30
0.0
  3
*D14
  1

  0
LINE
  5
A339
  8
0
  6
BYBLOCK
 10
9830.9450945626504
 20
-7126.9068651347879
 30
0.0
 11
9450.3629197872851
 21
-7126.9068651347879
 31
0.0
  0
LINE
  5
A33A
  8
0
  6
BYBLOCK
 10
9830.9450945626468
 20
-8976.9068651347879
 30
0.0
 11
9450.3629197872851
 21
-8976.9068651347879
 31
0.0
  0
LINE
  5
A33B
  8
0
  6
BYBLOCK
 10
9500.362919787287
 20
-7226.9068651347879
 30
0.0
 11
9500.362919787287
 21
-8876.9068651347879
 31
0.0
  0
INSERT
  5
A33C
  8
0
  6
BYBLOCK
  2
_OPEN
 10
9500.362919787287
 20
-7126.9068651347879
 30
0.0
 41
100.0
 42
100.0
 43
100.0
 50
90.0
  0
INSERT
  5
A33D
  8
0
  6
BYBLOCK
  2
_OPEN
 10
9500.362919787287
 20
-8976.9068651347879
 30
0.0
 41
100.0
 42
100.0
 43
100.0
 50
270.0
  0
TEXT
  5
A33E
  8
SP
 10
9450.3629197872851
 20
-8284.3779143688898
 30
0.0
 40
125.0
  1
1850
 50
90.0
 51
15.0
  0
POINT
  5
A33F
  8
DEFPOINTS
  6
BYBLOCK
 62
     0
 10
9880.9450945626486
 20
-7126.9068651347879
 30
0.0
  0
POINT
  5
A340
  8
DEFPOINTS
  6
BYBLOCK
 62
     0
 10
9880.9450945626486
 20
-8976.9068651347879
 30
0.0
  0
POINT
  5
A341
  8
DEFPOINTS
  6
BYBLOCK
 62
     0
 10
9500.362919787287
 20
-8976.9068651347879
 30
0.0
  0
ENDBLK
  5
A342
  8
0
  0
BLOCK
  8
0
  2
*D15
 70
     1
 10
0.0
 20
0.0
 30
0.0
  3
*D15
  1

  0
LINE
  5
A32E
  8
0
  6
BYBLOCK
 10
9780.9450945626504
 20
-7126.9068651347879
 30
0.0
 11
9083.1380546186483
 21
-7126.9068651347879
 31
0.0
  0
LINE
  5
A32F
  8
0
  6
BYBLOCK
 10
9685.5037005375852
 20
-9047.9068651347898
 30
0.0
 11
9083.1380546186483
 21
-9047.9068651347898
 31
0.0
  0
LINE
  5
A330
  8
0
  6
BYBLOCK
 10
9133.1380546186483
 20
-7226.9068651347879
 30
0.0
 11
9133.1380546186483
 21
-8947.9068651347879
 31
0.0
  0
INSERT
  5
A331
  8
0
  6
BYBLOCK
  2
_OPEN
 10
9133.1380546186483
 20
-7126.9068651347879
 30
0.0
 41
100.0
 42
100.0
 43
100.0
 50
90.0
  0
INSERT
  5
A332
  8
0
  6
BYBLOCK
  2
_OPEN
 10
9133.1380546186483
 20
-9047.9068651347898
 30
0.0
 41
100.0
 42
100.0
 43
100.0
 50
270.0
  0
TEXT
  5
A333
  8
SP
 10
9083.1380546186483
 20
-8299.2582618978304
 30
0.0
 40
125.0
  1
1921
 50
90.0
 51
15.0
  0
POINT
  5
A334
  8
DEFPOINTS
  6
BYBLOCK
 62
     0
 10
9830.9450945626504
 20
-7126.9068651347879
 30
0.0
  0
POINT
  5
A335
  8
DEFPOINTS
  6
BYBLOCK
 62
     0
 10
9735.5037005375834
 20
-9047.9068651347898
 30
0.0
  0
POINT
  5
A336
  8
DEFPOINTS
  6
BYBLOCK
 62
     0
 10
9133.1380546186483
 20
-9047.9068651347898
 30
0.0
  0
ENDBLK
  5
A337
  8
0
  0
BLOCK
  8
0
  2
*D16
 70
     1
 10
0.0
 20
0.0
 30
0.0
  3
*D16
  1

  0
LINE
  5
A323
  8
0
  6
BYBLOCK
 10
9685.5037005375852
 20
-9047.9068651347898
 30
0.0
 11
9083.1380546186483
 21
-9047.9068651347898
 31
0.0
  0
LINE
  5
A324
  8
0
  6
BYBLOCK
 10
9935.9450945626486
 20
-10377.906865134781
 30
0.0
 11
9083.1380546186483
 21
-10377.906865134781
 31
0.0
  0
LINE
  5
A325
  8
0
  6
BYBLOCK
 10
9133.1380546186483
 20
-9147.9068651347898
 30
0.0
 11
9133.1380546186483
 21
-10277.906865134781
 31
0.0
  0
INSERT
  5
A326
  8
0
  6
BYBLOCK
  2
_OPEN
 10
9133.1380546186483
 20
-9047.9068651347898
 30
0.0
 41
100.0
 42
100.0
 43
100.0
 50
90.0
  0
INSERT
  5
A327
  8
0
  6
BYBLOCK
  2
_OPEN
 10
9133.1380546186483
 20
-10377.906865134781
 30
0.0
 41
100.0
 42
100.0
 43
100.0
 50
270.0
  0
TEXT
  5
A328
  8
SP
 10
9083.1380546186483
 20
-9945.3779143688898
 30
0.0
 40
125.0
  1
1330
 50
90.0
 51
15.0
  0
POINT
  5
A329
  8
DEFPOINTS
  6
BYBLOCK
 62
     0
 10
9735.5037005375834
 20
-9047.9068651347898
 30
0.0
  0
POINT
  5
A32A
  8
DEFPOINTS
  6
BYBLOCK
 62
     0
 10
9985.9450945626504
 20
-10377.906865134781
 30
0.0
  0
POINT
  5
A32B
  8
DEFPOINTS
  6
BYBLOCK
 62
     0
 10
9133.1380546186483
 20
-10377.906865134781
 30
0.0
  0
ENDBLK
  5
A32C
  8
0
  0
BLOCK
  8
0
  2
*D17
 70
     1
 10
0.0
 20
0.0
 30
0.0
  3
*D17
  1

  0
LINE
  5
A30D
  8
0
  6
BYBLOCK
 10
13585.94509456265
 20
-10427.906865134781
 30
0.0
 11
13585.94509456265
 21
-11058.87215109568
 31
0.0
  0
LINE
  5
A30E
  8
0
  6
BYBLOCK
 10
9985.9450945626504
 20
-10427.906865134781
 30
0.0
 11
9985.9450945626504
 21
-11058.87215109568
 31
0.0
  0
LINE
  5
A30F
  8
0
  6
BYBLOCK
 10
13485.94509456265
 20
-11008.87215109568
 30
0.0
 11
10085.945094562639
 21
-11008.87215109568
 31
0.0
  0
INSERT
  5
A310
  8
0
  6
BYBLOCK
  2
_OPEN
 10
13585.94509456265
 20
-11008.87215109568
 30
0.0
 41
100.0
 42
100.0
 43
100.0
  0
INSERT
  5
A311
  8
0
  6
BYBLOCK
  2
_OPEN
 10
9985.9450945626504
 20
-11008.87215109568
 30
0.0
 41
100.0
 42
100.0
 43
100.0
 50
180.0
  0
TEXT
  5
A312
  8
SP
 10
11551.936365273799
 20
-10958.87215109568
 30
0.0
 40
125.0
  1
3600
 51
15.0
  0
POINT
  5
A313
  8
DEFPOINTS
  6
BYBLOCK
 62
     0
 10
13585.94509456265
 20
-10377.906865134781
 30
0.0
  0
POINT
  5
A314
  8
DEFPOINTS
  6
BYBLOCK
 62
     0
 10
9985.9450945626504
 20
-10377.906865134781
 30
0.0
  0
POINT
  5
A315
  8
DEFPOINTS
  6
BYBLOCK
 62
     0
 10
9985.9450945626504
 20
-11008.87215109568
 30
0.0
  0
ENDBLK
  5
A316
  8
0
  0
BLOCK
  8
0
  2
*D18
 70
     1
 10
0.0
 20
0.0
 30
0.0
  3
*D18
  1

  0
LINE
  5
9E7D
  8
0
  6
BYBLOCK
 10
4908.4825216701574
 20
-7531.3777509785532
 30
0.0
 11
4908.4825216701574
 21
-7454.2396435298797
 31
0.0
  0
LINE
  5
9E7E
  8
0
  6
BYBLOCK
 10
6328.4825216701574
 20
-10132.61384118756
 30
0.0
 11
6328.4825216701574
 21
-7454.2396435298797
 31
0.0
  0
LINE
  5
9E7F
  8
0
  6
BYBLOCK
 10
5008.4825216701574
 20
-7504.2396435298797
 30
0.0
 11
6228.4825216701583
 21
-7504.2396435298797
 31
0.0
  0
INSERT
  5
9E80
  8
0
  6
BYBLOCK
  2
_OPEN
 10
4908.4825216701574
 20
-7504.2396435298797
 30
0.0
 41
100.0
 42
100.0
 43
100.0
 50
180.0
  0
INSERT
  5
9E81
  8
0
  6
BYBLOCK
  2
_OPEN
 10
6328.4825216701574
 20
-7504.2396435298797
 30
0.0
 41
100.0
 42
100.0
 43
100.0
  0
TEXT
  5
9E82
  8
SP
 10
5321.0198992988999
 20
-7400.6682149584522
 30
0.0
 40
125.0
  1
(1420)
 51
15.0
  0
POINT
  5
9E83
  8
DEFPOINTS
  6
BYBLOCK
 62
     0
 10
4908.4825216701574
 20
-7581.3777509785532
 30
0.0
  0
POINT
  5
9E84
  8
DEFPOINTS
  6
BYBLOCK
 62
     0
 10
6328.4825216701574
 20
-10182.61384118756
 30
0.0
  0
POINT
  5
9E85
  8
DEFPOINTS
  6
BYBLOCK
 62
     0
 10
6328.4825216701574
 20
-7504.2396435298797
 30
0.0
  0
ENDBLK
  5
9E86
  8
0
  0
BLOCK
  8
0
  2
*D19
 70
     1
 10
0.0
 20
0.0
 30
0.0
  3
*D19
  1

  0
LINE
  5
9E8A
  8
0
  6
BYBLOCK
 10
4908.4825216701574
 20
-7531.3777509785532
 30
0.0
 11
4908.4825216701574
 21
-7454.2396435298797
 31
0.0
  0
LINE
  5
9E8B
  8
0
  6
BYBLOCK
 10
3158.482521670157
 20
-9572.6138411875636
 30
0.0
 11
3158.482521670157
 21
-7454.2396435298797
 31
0.0
  0
LINE
  5
9E8C
  8
0
  6
BYBLOCK
 10
4808.4825216701574
 20
-7504.2396435298797
 30
0.0
 11
3258.4825216701561
 21
-7504.2396435298797
 31
0.0
  0
INSERT
  5
9E8D
  8
0
  6
BYBLOCK
  2
_OPEN
 10
4908.4825216701574
 20
-7504.2396435298797
 30
0.0
 41
100.0
 42
100.0
 43
100.0
  0
INSERT
  5
9E8E
  8
0
  6
BYBLOCK
  2
_OPEN
 10
3158.482521670157
 20
-7504.2396435298797
 30
0.0
 41
100.0
 42
100.0
 43
100.0
 50
180.0
  0
TEXT
  5
9E8F
  8
SP
 10
3736.0198992988999
 20
-7400.6682149584522
 30
0.0
 40
125.0
  1
(1750)
 51
15.0
  0
POINT
  5
9E90
  8
DEFPOINTS
  6
BYBLOCK
 62
     0
 10
4908.4825216701574
 20
-7581.3777509785532
 30
0.0
  0
POINT
  5
9E91
  8
DEFPOINTS
  6
BYBLOCK
 62
     0
 10
3158.482521670157
 20
-9622.6138411875654
 30
0.0
  0
POINT
  5
9E92
  8
DEFPOINTS
  6
BYBLOCK
 62
     0
 10
3158.482521670157
 20
-7504.2396435298797
 30
0.0
  0
ENDBLK
  5
9E93
  8
0
  0
BLOCK
  8
0
  2
_DOT
 70
     0
 10
0.0
 20
0.0
 30
0.0
  3
_DOT
  1

  0
POLYLINE
  5
A37F
  8
0
  6
BYBLOCK
 62
     0
 66
     1
 10
0.0
 20
0.0
 30
0.0
 70
     1
 40
0.5
 41
0.5
  0
VERTEX
  5
A3D7
  8
0
  6
BYBLOCK
 62
     0
 10
-0.25
 20
0.0
 30
0.0
 42
1.0
  0
VERTEX
  5
A3D8
  8
0
  6
BYBLOCK
 62
     0
 10
0.25
 20
0.0
 30
0.0
 42
1.0
  0
SEQEND
  5
A3D9
  8
0
  6
BYBLOCK
 62
     0
  0
LINE
  5
A383
  8
0
  6
BYBLOCK
 62
     0
 10
-0.5
 20
0.0
 30
0.0
 11
-1.0
 21
0.0
 31
0.0
  0
ENDBLK
  5
A384
  8
0
  0
BLOCK
  8
0
  2
*D21
 70
     1
 10
0.0
 20
0.0
 30
0.0
  3
*D21
  1

  0
LINE
  5
A387
  8
0
  6
BYBLOCK
 10
10222.672374339099
 20
-10397.906865134781
 30
0.0
 11
9374.0023940334668
 21
-10397.906865134781
 31
0.0
  0
LINE
  5
A388
  8
0
  6
BYBLOCK
 10
10222.672374339099
 20
-10577.906865134781
 30
0.0
 11
9374.0023940334668
 21
-10577.906865134781
 31
0.0
  0
LINE
  5
A389
  8
0
  6
BYBLOCK
 10
9429.002394033465
 20
-10287.906865134781
 30
0.0
 11
9429.002394033465
 21
-10177.906865134781
 31
0.0
  0
LINE
  5
A38A
  8
0
  6
BYBLOCK
 10
9429.002394033465
 20
-10687.906865134781
 30
0.0
 11
9429.002394033465
 21
-11245.00015949053
 31
0.0
  0
LINE
  5
A38B
  8
0
  6
BYBLOCK
 10
9429.002394033465
 20
-10397.906865134781
 30
0.0
 11
9429.002394033465
 21
-10577.906865134781
 31
0.0
  0
INSERT
  5
A38C
  8
0
  6
BYBLOCK
  2
_DOT
 10
9429.002394033465
 20
-10397.906865134781
 30
0.0
 41
110.0
 42
110.0
 43
110.0
 50
270.0
  0
INSERT
  5
A38D
  8
0
  6
BYBLOCK
  2
_OPEN
 10
9429.002394033465
 20
-10577.906865134781
 30
0.0
 41
110.0
 42
110.0
 43
110.0
 50
90.0
  0
TEXT
  5
A38E
  8
SP
 10
9374.0023940334668
 20
-11211.69547599398
 30
0.0
 40
137.5
  1
180
 50
90.0
 51
15.0
  0
POINT
  5
A38F
  8
DEFPOINTS
  6
BYBLOCK
 62
     0
 10
10277.672374339099
 20
-10397.906865134781
 30
0.0
  0
POINT
  5
A390
  8
DEFPOINTS
  6
BYBLOCK
 62
     0
 10
10277.672374339099
 20
-10577.906865134781
 30
0.0
  0
POINT
  5
A391
  8
DEFPOINTS
  6
BYBLOCK
 62
     0
 10
9429.002394033465
 20
-10577.906865134781
 30
0.0
  0
ENDBLK
  5
A392
  8
0
  0
BLOCK
  8
0
  2
_NONE
 70
     0
 10
0.0
 20
0.0
 30
0.0
  3
_NONE
  1

  0
CIRCLE
  5
A396
  8
0
  6
BYBLOCK
 62
     0
 10
0.0
 20
0.0
 30
0.0
 40
0.25
  0
ENDBLK
  5
A397
  8
0
  0
BLOCK
  8
0
  2
*D23
 70
     1
 10
0.0
 20
0.0
 30
0.0
  3
*D23
  1

  0
LINE
  5
A3DA
  8
SP
 10
9435.2127448423489
 20
-10377.906865134781
 30
0.0
 11
9435.2127448423489
 21
-10517.906865134781
 31
0.0
  0
TEXT
  8
0
  40
137.5
  5
A3DF
  72
0
  71
0
 10
8917.95
 20
-10691.3
 30
0.000000
  1
(140)
  0
POINT
  5
A3DC
  8
DEFPOINTS
 62
     0
 10
10277.672374339099
 20
-10377.906865134781
 30
0.0
  0
POINT
  5
A3DD
  8
DEFPOINTS
 62
     0
 10
10277.672374339099
 20
-10517.906865134781
 30
0.0
  0
POINT
  5
A3DE
  8
DEFPOINTS
 62
     0
 10
9435.2127448423489
 20
-10517.906865134781
 30
0.0
  0
ENDBLK
  5
A3BC
  8
0
  0
ENDSEC
  0
SECTION
  2
ENTITIES
  0
LINE
  5
5648
  8
CT
 10
12992.52602644125
 20
-9047.9068651347898
 30
0.0
 11
10027.230980314031
 21
-9047.9068651347898
 31
0.0
  0
LINE
  5
564B
  8
FUTO
 10
10277.672374339099
 20
-10197.906865134781
 30
0.0
 11
13877.672374339099
 21
-10197.906865134781
 31
0.0
  0
LINE
  5
564C
  8
FUTO
 10
10277.672374339099
 20
-10377.906865134781
 30
0.0
 11
13877.672374339099
 21
-10377.90686513479
 31
0.0
  0
LINE
  5
564F
  8
FUTO
 10
11337.672374339099
 20
-7237.0068681111579
 30
0.0
 11
10172.672374339099
 21
-7126.9068651347879
 31
0.0
  0
ARC
  5
5657
  8
FUTO
 10
11468.672374339099
 20
-8916.9068651347898
 30
0.0
 40
1423.0
 50
355.0817450119149
 51
0.0
  0
ARC
  5
565B
  8
FUTO
 10
11206.672374339099
 20
-8916.9068651347898
 30
0.0
 40
1685.0
 50
0.0
 51
85.541051119062999
  0
LINE
  5
565C
  8
CT
 10
11337.672374339099
 20
-6992.8076937428414
 30
0.0
 11
11337.672374339099
 21
-10697.906865134781
 31
0.0
  0
LINE
  5
566D
  8
FUTO
 10
10237.672374339099
 20
-7133.0497837557896
 30
0.0
 11
10237.67237433909
 21
-8976.9068651347898
 31
0.0
  0
LINE
  5
566E
  8
FUTO
 10
10172.672374339099
 20
-7057.9068651347879
 30
0.0
 11
10172.672374339099
 21
-9045.9068651347861
 31
0.0
  0
LINE
  5
5674
  8
FUTO
 10
10283.97674245778
 20
-8976.9068651347879
 30
0.0
 11
10172.672374339099
 21
-8976.9068651347879
 31
0.0
  0
CIRCLE
  5
663A
  8
SL
 10
11337.672374339099
 20
-9047.9068651347898
 30
0.0
 40
400.0
  0
ARC
  5
67DA
  8
FUTO
 10
11468.672374339099
 20
-8916.9068651347898
 30
0.0
 40
1423.0
 50
295.8142072740668
 51
354.3538958797447
  0
ARC
  5
67E7
  8
FUTO
 10
11227.172374339099
 20
-9158.4068651347879
 30
0.0
 40
960.5
 50
169.10766465910561
 51
180.0
  0
ARC
  5
6938
  8
FUTO
 10
11448.172374339099
 20
-9158.4068651347879
 30
0.0
 40
1181.4999999999991
 50
180.0
 51
241.61990990458929
  0
LINE
  5
7990
  8
FUTO
 10
10277.672374339099
 20
-10197.906865134781
 30
0.0
 11
10277.672374339099
 21
-10377.906865134781
 31
0.0
  0
LINE
  5
7991
  8
FUTO
 10
13877.672374339099
 20
-10197.906865134781
 30
0.0
 11
13877.672374339099
 21
-10377.906865134781
 31
0.0
  0
LINE
  5
7AB6
  8
FUTO
 10
13137.672374339099
 20
-10127.906865134781
 30
0.0
 11
13207.672374339099
 21
-10127.906865134781
 31
0.0
  0
LINE
  5
7AB7
  8
FUTO
 10
13837.672374339099
 20
-10127.906865134781
 30
0.0
 11
13837.672374339099
 21
-10197.906865134781
 31
0.0
  0
LINE
  5
7AB8
  8
FUTO
 10
13137.67237433909
 20
-10127.906865134781
 30
0.0
 11
13137.672374339099
 21
-10197.906865134781
 31
0.0
  0
LINE
  5
7AC0
  8
FUTO
 10
13757.672374339099
 20
-4128.1668147732744
 30
0.0
 11
13217.672374339099
 21
-4128.1668147732744
 31
0.0
  0
LINE
  5
7AC6
  8
FUTO
 10
13217.672374339099
 20
-5031.6668147732744
 30
0.0
 11
13757.672374339099
 21
-5031.6668147732744
 31
0.0
  0
LINE
  5
7AFE
  8
FUTO
 10
13530.172374339099
 20
-5098.1668147732753
 30
0.0
 11
13530.172374339099
 21
-5031.6668147732744
 31
0.0
  0
LINE
  5
7AFF
  8
FUTO
 10
13445.172374339099
 20
-5031.6668147732744
 30
0.0
 11
13445.172374339099
 21
-5098.1668147732753
 31
0.0
  0
ARC
  5
7B35
  8
FUTO
 10
13487.672374339099
 20
-9847.9068651347843
 30
0.0
 40
287.5
 50
329.6527344126618
 51
210.34726548400729
  0
LINE
  5
7B36
  8
CT
 10
13487.67237433909
 20
-10697.90686513479
 30
0.0
 11
13487.672374339099
 21
-9464.7445451347849
 31
0.0
  0
LINE
  5
7B38
  8
CT
 10
13807.672374339099
 20
-9847.9068651347843
 30
0.0
 11
13167.672374339099
 21
-9847.9068651347843
 31
0.0
  0
LINE
  5
7B3B
  8
FUTO
 10
13758.041094339091
 20
-10006.66032813478
 30
0.0
 11
13735.778851339101
 21
-9993.1632791347838
 31
0.0
  0
LINE
  5
7B3C
  8
FUTO
 10
13767.672374339099
 20
-10127.906865134781
 30
0.0
 11
13767.672374339099
 21
-10023.762657134779
 31
0.0
  0
ARC
  5
7B3E
  8
FUTO
 10
13747.672374339099
 20
-10023.762657134779
 30
0.0
 40
20.0
 50
0.0
 51
58.772599000000007
  0
LINE
  5
7B4A
  8
FUTO
 10
13207.672374339099
 20
-10127.906865134781
 30
0.0
 11
13207.672374339099
 21
-10023.762657134779
 31
0.0
  0
LINE
  5
7B57
  8
FUTO
 10
13217.3036533391
 20
-10006.66032813478
 30
0.0
 11
13239.56589668669
 21
-9993.1632789240448
 31
0.0
  0
ARC
  5
7B5A
  8
FUTO
 10
13227.672374339099
 20
-10023.762657134779
 30
0.0
 40
20.0
 50
121.227401
 51
180.0
  0
CIRCLE
  5
7B75
  8
SL
 10
13487.67237433909
 20
-9847.9068651347843
 30
0.0
 40
140.0
  0
LINE
  5
7B76
  8
SL
 10
13551.05176067888
 20
-9723.0747643465984
 30
0.0
 11
11518.756335309919
 21
-8691.2437200256863
 31
0.0
  0
LINE
  5
7B77
  8
SL
 10
13454.03550581403
 20
-9983.805949295891
 30
0.0
 11
11241.56703569606
 21
-9436.1899627379516
 31
0.0
  0
ARC
  5
7B78
  8
SL
 10
11337.672374339099
 20
-9047.9068651347898
 30
0.0
 40
480.0
 50
63.082318140392843
 51
256.09791619199927
  0
ARC
  5
7B79
  8
SL
 10
13487.67237433909
 20
-9847.9068651347843
 30
0.0
 40
220.0
 50
256.09791619199922
 51
63.082318140392942
  0
LINE
  5
7B80
  8
SL
 10
11222.345967967451
 20
-9513.8465822585858
 30
0.0
 11
13434.81443808543
 21
-10061.46256881652
 31
0.0
  0
LINE
  5
7B81
  8
SL
 10
11554.97312750409
 20
-8619.9110910038671
 30
0.0
 11
13587.268552873051
 21
-9651.742135324781
 31
0.0
  0
LINE
  5
7B82
  8
FUTO
 10
13767.672374339099
 20
-10127.906865134781
 30
0.0
 11
13837.672374339099
 21
-10127.906865134781
 31
0.0
  0
LINE
  5
8CEA
  8
CT
 10
14971.69406084909
 20
-9047.9068651347916
 30
0.0
 11
18174.17843685405
 21
-9047.9068651347898
 31
0.0
  0
LINE
  5
8D2E
  8
CT
 10
16721.694060849091
 20
-6805.4656368891838
 30
0.0
 11
16721.694060849091
 21
-10697.906865134781
 31
0.0
  0
LINE
  5
8D2F
  8
FUTO
 10
17901.694060849099
 20
-7122.9068651347889
 30
0.0
 11
17901.694060849099
 21
-10197.906865134781
 31
0.0
  0
LINE
  5
8D30
  8
FUTO
 10
17970.694060849091
 20
-7057.9068651347889
 30
0.0
 11
17970.694060849091
 21
-9045.9068651347861
 31
0.0
  0
LINE
  5
8D31
  8
FUTO
 10
15541.69406084909
 20
-7122.9068651347889
 30
0.0
 11
15541.6940608491
 21
-9577.9068651347898
 31
0.0
  0
LINE
  5
8D32
  8
FUTO
 10
15472.69406084909
 20
-7057.9068651347889
 30
0.0
 11
15472.69406084909
 21
-8990.4068651347916
 31
0.0
  0
LINE
  5
8D34
  8
FUTO
 10
17980.694060849091
 20
-10197.906865134781
 30
0.0
 11
15130.6940608491
 21
-10197.906865134781
 31
0.0
  0
LINE
  5
8D35
  8
FUTO
 10
17901.694060849099
 20
-9377.9068651347898
 30
0.0
 11
18141.694060849091
 21
-9377.9068651347898
 31
0.0
  0
LINE
  5
8D38
  8
FUTO
 10
17901.694060849099
 20
-9127.9068651347843
 30
0.0
 11
18141.694060849091
 21
-9127.9068651347879
 31
0.0
  0
LINE
  5
8D3D
  8
FUTO
 10
17980.694060849091
 20
-10377.906865134781
 30
0.0
 11
15130.69406084909
 21
-10377.906865134781
 31
0.0
  0
LINE
  5
8D59
  8
FUTO
 10
15541.69406084909
 20
-9387.9068651347861
 30
0.0
 11
15307.6940608491
 21
-9387.9068651347861
 31
0.0
  0
LINE
  5
8D5A
  8
FUTO
 10
15541.69406084909
 20
-9137.9068651347861
 30
0.0
 11
15307.6940608491
 21
-9137.9068651347861
 31
0.0
  0
LINE
  5
8D5F
  8
FUTO
 10
15130.69406084909
 20
-10197.906865134781
 30
0.0
 11
15130.69406084909
 21
-10377.906865134781
 31
0.0
  0
LINE
  5
8D73
  8
FUTO
 10
15307.69406084909
 20
-9137.9068651347861
 30
0.0
 11
15307.69406084909
 21
-9387.9068651347898
 31
0.0
  0
LINE
  5
8D8E
  8
FUTO
 10
15161.6940608491
 20
-8990.4068651347879
 30
0.0
 11
15541.69406084909
 21
-8990.4068651347916
 31
0.0
  0
LINE
  5
8D8F
  8
FUTO
 10
15161.6940608491
 20
-9105.4068651347861
 30
0.0
 11
15541.69406084909
 21
-9105.4068651347861
 31
0.0
  0
LINE
  5
8D9A
  8
FUTO
 10
17980.694060849091
 20
-10197.906865134781
 30
0.0
 11
17980.694060849091
 21
-10377.906865134781
 31
0.0
  0
LINE
  5
8DA9
  8
FUTO
 10
18141.694060849091
 20
-9127.9068651347879
 30
0.0
 11
18141.694060849091
 21
-9377.9068651347898
 31
0.0
  0
LINE
  5
8DBD
  8
FUTO
 10
15472.69406084909
 20
-7057.9068651347934
 30
0.0
 11
17970.694060849091
 21
-7057.9068651347889
 31
0.0
  0
LINE
  5
8DBE
  8
FUTO
 10
15541.69406084909
 20
-7122.9068651347861
 30
0.0
 11
17901.694060849099
 21
-7122.9068651347861
 31
0.0
  0
LINE
  5
8DC8
  8
SP
 10
16721.694060849091
 20
-6526.6707749257803
 30
0.0
 11
16721.694060849091
 21
-6471.6707749257803
 31
0.0
  0
LINE
  5
98B1
  8
SL
 10
14971.69406084909
 20
-8567.9068651347916
 30
0.0
 11
14971.69406084909
 21
-10067.906865134781
 31
0.0
  0
LINE
  5
98B2
  8
SL
 10
14971.69406084909
 20
-8567.9068651347916
 30
0.0
 11
15211.69406084909
 21
-8567.9068651347916
 31
0.0
  0
LINE
  5
98B4
  8
SL
 10
15211.69406084909
 20
-10067.90686513479
 30
0.0
 11
14971.69406084909
 21
-10067.906865134781
 31
0.0
  0
LINE
  5
98B5
  8
SL
 10
15211.69406084909
 20
-8567.9068651347916
 30
0.0
 11
15211.69406084909
 21
-8617.9068651347916
 31
0.0
  0
LINE
  5
98B6
  8
SL
 10
15021.6940608491
 20
-8647.9068651347916
 30
0.0
 11
15161.6940608491
 21
-8647.9068651347934
 31
0.0
  0
LINE
  5
98B7
  8
SL
 10
15021.6940608491
 20
-9447.9068651347934
 30
0.0
 11
15161.69406084909
 21
-9447.9068651347934
 31
0.0
  0
LINE
  5
98B8
  8
SL
 10
15161.6940608491
 20
-9707.9068651347898
 30
0.0
 11
15021.6940608491
 21
-9707.9068651347879
 31
0.0
  0
LINE
  5
98B9
  8
SL
 10
15161.6940608491
 20
-9987.9068651347861
 30
0.0
 11
15021.6940608491
 21
-9987.9068651347861
 31
0.0
  0
LINE
  5
98BA
  8
SL
 10
15021.6940608491
 20
-8647.9068651347916
 30
0.0
 11
15021.6940608491
 21
-9987.9068651347861
 31
0.0
  0
LINE
  5
98BC
  8
SL
 10
15161.6940608491
 20
-8647.9068651347916
 30
0.0
 11
15161.6940608491
 21
-9987.9068651347861
 31
0.0
  0
LINE
  5
98BF
  8
SL
 10
15211.69406084909
 20
-10017.90686513479
 30
0.0
 11
15211.69406084909
 21
-10067.906865134781
 31
0.0
  0
LINE
  5
98C4
  8
FUTO
 10
13217.672374339099
 20
-5031.6668147732744
 30
0.0
 11
13217.672374339099
 21
-4128.1668147732744
 31
0.0
  0
LINE
  5
98C5
  8
FUTO
 10
13757.672374339099
 20
-5031.6668147732744
 30
0.0
 11
13757.672374339099
 21
-4128.1668147732744
 31
0.0
  0
LINE
  5
98C6
  8
FUTO
 10
15228.19406084909
 20
-10117.906865134781
 30
0.0
 11
16131.69406084909
 21
-10117.90686513479
 31
0.0
  0
LINE
  5
98C7
  8
FUTO
 10
15228.19406084909
 20
-9577.9068651347861
 30
0.0
 11
16131.69406084909
 21
-9577.9068651347861
 31
0.0
  0
LINE
  5
98C8
  8
CT
 10
14971.69406084909
 20
-9847.9068651347861
 30
0.0
 11
16182.122782884169
 21
-9847.9068651347898
 31
0.0
  0
LINE
  5
98CA
  8
FUTO
 10
15228.19406084909
 20
-10117.906865134781
 30
0.0
 11
15228.19406084909
 21
-9577.9068651347861
 31
0.0
  0
LINE
  5
98CC
  8
FUTO
 10
15161.6940608491
 20
-9805.4068651347843
 30
0.0
 11
15228.19406084909
 21
-9805.4068651347861
 31
0.0
  0
LINE
  5
98CD
  8
FUTO
 10
15228.19406084909
 20
-9890.4068651347861
 30
0.0
 11
15161.6940608491
 21
-9890.4068651347861
 31
0.0
  0
LINE
  5
98CF
  8
FUTO
 10
10277.672374339099
 20
-5129.1668147732744
 30
0.0
 11
13877.672374339099
 21
-5129.1668147732798
 31
0.0
  0
LINE
  5
98D1
  8
FUTO
 10
10277.672374339099
 20
-5129.1668147732744
 30
0.0
 11
10277.672374339099
 21
-4718.1668147732717
 31
0.0
  0
LINE
  5
98D2
  8
FUTO
 10
10277.672374339099
 20
-2279.1668147732739
 30
0.0
 11
12397.672374339099
 21
-2279.1668147732739
 31
0.0
  0
LINE
  5
98D3
  8
FUTO
 10
12397.672374339099
 20
-2279.1668147732739
 30
0.0
 11
12397.672374339099
 21
-2358.1668147732739
 31
0.0
  0
LINE
  5
98D4
  8
FUTO
 10
13877.672374339099
 20
-5129.1668147732798
 30
0.0
 11
13877.672374339099
 21
-3929.1668147732798
 31
0.0
  0
LINE
  5
98D5
  8
FUTO
 10
13877.672374339099
 20
-3929.1668147732798
 30
0.0
 11
12891.672374339099
 21
-3929.1668147732798
 31
0.0
  0
LINE
  5
98D6
  8
CT
 10
13487.672374339099
 20
-5288.1668147732744
 30
0.0
 11
13487.672374339099
 21
-4108.5548784274324
 31
0.0
  0
LINE
  5
98D7
  8
CT
 10
11337.672374339099
 20
-2147.194717401173
 30
0.0
 11
11337.672374339099
 21
-5288.1668147732744
 31
0.0
  0
LINE
  5
98D8
  8
CT
 10
10039.83933990384
 20
-3538.1668147732739
 30
0.0
 11
13024.747638429229
 21
-3538.1668147732739
 31
0.0
  0
LINE
  5
98DA
  8
SL
 10
10937.672374339099
 20
-5238.1668147732753
 30
0.0
 11
13627.672374339099
 21
-5238.1668147732753
 31
0.0
  0
LINE
  5
98DB
  8
SL
 10
10937.672374339099
 20
-5098.1668147732753
 30
0.0
 11
13627.672374339099
 21
-5098.1668147732753
 31
0.0
  0
LINE
  5
98DC
  8
SL
 10
10937.672374339099
 20
-5098.1668147732753
 30
0.0
 11
10937.672374339099
 21
-5238.1668147732753
 31
0.0
  0
LINE
  5
98DD
  8
SL
 10
11737.672374339099
 20
-5098.1668147732753
 30
0.0
 11
11737.672374339099
 21
-5238.1668147732753
 31
0.0
  0
LINE
  5
98DE
  8
SL
 10
13347.672374339099
 20
-5238.1668147732753
 30
0.0
 11
13347.672374339099
 21
-5098.1668147732753
 31
0.0
  0
LINE
  5
98DF
  8
SL
 10
13627.672374339099
 20
-5238.1668147732753
 30
0.0
 11
13627.672374339099
 21
-5098.1668147732753
 31
0.0
  0
LINE
  5
98E1
  8
SL
 10
10857.672374339099
 20
-5288.1668147732744
 30
0.0
 11
13707.672374339099
 21
-5288.1668147732744
 31
0.0
  0
LINE
  5
98E3
  8
SL
 10
10857.672374339099
 20
-5048.1668147732744
 30
0.0
 11
10857.672374339099
 21
-5288.1668147732744
 31
0.0
  0
LINE
  5
98E4
  8
SL
 10
13707.672374339099
 20
-5288.1668147732744
 30
0.0
 11
13707.672374339099
 21
-5048.1668147732744
 31
0.0
  0
LINE
  5
98E5
  8
SL
 10
10857.672374339099
 20
-5048.1668147732744
 30
0.0
 11
10907.67237433909
 21
-5048.1668147732744
 31
0.0
  0
LINE
  5
98E8
  8
SL
 10
13657.672374339099
 20
-5048.1668147732744
 30
0.0
 11
13707.672374339099
 21
-5048.1668147732744
 31
0.0
  0
CIRCLE
  5
98EB
  8
FUTO
 10
11337.672374339099
 20
-9047.9068651347898
 30
0.0
 40
900.0
  0
CIRCLE
  5
98EC
  8
FUTO
 10
11337.672374339099
 20
-9047.9068651347898
 30
0.0
 40
965.0
  0
LINE
  5
98ED
  8
FUTO
 10
10172.672374339099
 20
-4787.1668147732744
 30
0.0
 11
10172.672374339099
 21
-2289.1668147732739
 31
0.0
  0
LINE
  5
98EE
  8
FUTO
 10
12891.672374339099
 20
-4718.1668147732744
 30
0.0
 11
12891.672374339099
 21
-2358.1668147732739
 31
0.0
  0
LINE
  5
98EF
  8
FUTO
 10
10172.672374339099
 20
-2358.1668147732739
 30
0.0
 11
12891.672374339099
 21
-2358.1668147732739
 31
0.0
  0
LINE
  5
98F0
  8
FUTO
 10
10172.672374339099
 20
-4718.1668147732744
 30
0.0
 11
12891.672374339099
 21
-4718.1668147732744
 31
0.0
  0
LINE
  5
98F1
  8
FUTO
 10
10277.672374339099
 20
-2358.1668147732739
 30
0.0
 11
10277.672374339099
 21
-2279.1668147732739
 31
0.0
  0
LINE
  5
98F4
  8
FUTO
 10
10237.672374339099
 20
-4718.1668147732717
 30
0.0
 11
10237.67237433909
 21
-2358.1668147732739
 31
0.0
  0
DIMENSION
  5
9D6B
  8
SP
  2
*D1
 10
14223.270126433081
 20
-5129.1668147732798
 30
0.0
 11
14110.770126433081
 21
-4529.1668147732789
 31
0.0
 12
291.72727977645258
 22
0.0
 32
0.0
 70
     0
 13
13877.672374339099
 23
-3929.1668147732798
 33
0.0
 14
13877.672374339099
 24
-5129.1668147732798
 34
0.0
 50
270.0
1001
ACAD
1000
DSTYLE
1002
{
1070
   140
1040
2.5
1070
    40
1040
50.0
1070
   147
1040
1.0
1070
   271
1070
     0
1002
}
  0
DIMENSION
  5
9D78
  8
SP
  2
*D2
 10
10277.672374339099
 20
-5652.171877547662
 30
0.0
 11
12077.672374339099
 21
-5539.671877547662
 31
0.0
 12
291.72727977645258
 22
0.0
 32
0.0
 70
     0
 13
13877.672374339099
 23
-5129.1668147732798
 33
0.0
 14
10277.672374339099
 24
-5129.1668147732744
 34
0.0
1001
ACAD
1000
DSTYLE
1002
{
1070
   140
1040
2.5
1070
    40
1040
50.0
1070
   147
1040
1.0
1070
   271
1070
     0
1002
}
  0
DIMENSION
  5
9D85
  8
SP
  2
*D3
 10
9743.1269107566477
 20
-5129.1668147732744
 30
0.0
 11
9630.6269107566477
 21
-3704.1668147732739
 31
0.0
 12
291.72727977645258
 22
0.0
 32
0.0
 70
     0
 13
10277.672374339099
 23
-2279.1668147732739
 33
0.0
 14
10277.672374339099
 24
-5129.1668147732744
 34
0.0
 50
270.0
1001
ACAD
1000
DSTYLE
1002
{
1070
   140
1040
2.5
1070
    40
1040
50.0
1070
   147
1040
1.0
1070
   271
1070
     0
1002
}
  0
DIMENSION
  5
9D92
  8
SP
  2
*D4
 10
10277.672374339099
 20
-1983.199102532606
 30
0.0
 11
11337.672374339099
 21
-1870.699102532606
 31
0.0
 12
291.72727977645258
 22
0.0
 32
0.0
 70
     0
 13
12397.672374339099
 23
-2279.1668147732739
 33
0.0
 14
10277.672374339099
 24
-2279.1668147732739
 34
0.0
1001
ACAD
1000
DSTYLE
1002
{
1070
   140
1040
2.5
1070
    40
1040
50.0
1070
   147
1040
1.0
1070
   271
1070
     0
1002
}
  0
DIMENSION
  5
9D9F
  8
SP
  2
*D5
 10
13877.672374339099
 20
-1983.199102532606
 30
0.0
 11
13137.672374339099
 21
-1870.699102532606
 31
0.0
 12
291.72727977645258
 22
0.0
 32
0.0
 70
     0
 13
12397.672374339099
 23
-2279.1668147732739
 33
0.0
 14
13877.672374339099
 24
-3929.1668147732798
 34
0.0
1001
ACAD
1000
DSTYLE
1002
{
1070
   140
1040
2.5
1070
    40
1040
50.0
1070
   147
1040
1.0
1070
   271
1070
     0
1002
}
  0
DIMENSION
  5
9DAC
  8
SP
  2
*D6
 10
17901.694060849099
 20
-6801.7833397103605
 30
0.0
 11
16721.694060849091
 21
-6689.2833397103605
 31
0.0
 12
11813.211539178939
 22
1054.7069760527729
 32
0.0
 70
     0
 13
15541.69406084909
 23
-7122.9068651347889
 33
0.0
 14
17901.694060849099
 24
-7122.9068651347861
 34
0.0
1001
ACAD
1000
DSTYLE
1002
{
1070
   140
1040
2.5
1070
    40
1040
50.0
1070
   147
1040
1.0
1070
   271
1070
     0
1002
}
  0
DIMENSION
  5
9DB9
  8
SP
  2
*D7
 10
11337.672374339099
 20
-6801.7833397103605
 30
0.0
 11
10755.172374339099
 21
-6689.2833397103605
 31
0.0
 12
291.72727977645258
 22
0.0
 32
0.0
 70
     0
 13
10172.672374339099
 23
-7057.9068651347879
 33
0.0
 14
11337.672374339099
 24
-6992.8076937428414
 34
0.0
1001
ACAD
1000
DSTYLE
1002
{
1070
   140
1040
2.5
1070
    40
1040
50.0
1070
   147
1040
1.0
1070
   271
1070
     0
1002
}
  0
DIMENSION
  5
9DC6
  8
SP
  2
*D8
 10
12891.672374339099
 20
-6801.7833397103605
 30
0.0
 11
12114.672374339099
 21
-6689.2833397103605
 31
0.0
 12
291.72727977645258
 22
0.0
 32
0.0
 70
     0
 13
11337.672374339099
 23
-6992.8076937428414
 33
0.0
 14
12891.672374339099
 24
-8916.9068651347898
 34
0.0
1001
ACAD
1000
DSTYLE
1002
{
1070
   140
1040
2.5
1070
    40
1040
50.0
1070
   147
1040
1.0
1070
   271
1070
     0
1002
}
  0
DIMENSION
  5
9DD3
  8
SP
  2
*D9
 10
11337.672374339099
 20
-11010.89450325237
 30
0.0
 11
12607.672374339099
 21
-10898.39450325237
 31
0.0
 12
291.72727977645258
 22
-320.0
 32
0.0
 70
     0
 13
13877.672374339099
 23
-10697.90686513479
 33
0.0
 14
11337.672374339099
 24
-10697.906865134781
 34
0.0
1001
ACAD
1000
DSTYLE
1002
{
1070
   140
1040
2.5
1070
    40
1040
50.0
1070
   147
1040
1.0
1070
   271
1070
     0
1002
}
  0
DIMENSION
  5
9DE0
  8
SP
  2
*D10
 10
10277.672374339099
 20
-11010.89450325237
 30
0.0
 11
10807.672374339099
 21
-10898.39450325237
 31
0.0
 12
291.72727977645258
 22
-320.0
 32
0.0
 70
     0
 13
11337.672374339099
 23
-10697.906865134781
 33
0.0
 14
10277.672374339099
 24
-10697.906865134781
 34
0.0
1001
ACAD
1000
DSTYLE
1002
{
1070
   140
1040
2.5
1070
    40
1040
50.0
1070
   147
1040
1.0
1070
   271
1070
     0
1002
}
  0
DIMENSION
  5
9DFA
  8
SP
  2
*D11
 10
16721.694060849091
 20
-11010.89450325237
 30
0.0
 11
15926.19406084909
 21
-10898.39450325237
 31
0.0
 12
11813.211539178939
 22
734.70697605277371
 32
0.0
 70
     0
 13
15130.69406084909
 23
-10697.906865134781
 33
0.0
 14
16721.694060849091
 24
-10697.906865134781
 34
0.0
1001
ACAD
1000
DSTYLE
1002
{
1070
   140
1040
2.5
1070
    40
1040
50.0
1070
   147
1040
1.0
1070
   271
1070
     0
1002
}
  0
DIMENSION
  5
9E07
  8
SP
  2
*D12
 10
17980.694060849091
 20
-11010.89450325237
 30
0.0
 11
17351.194060849091
 21
-10898.39450325237
 31
0.0
 12
11813.211539178939
 22
734.70697605277371
 32
0.0
 70
     0
 13
16721.694060849091
 23
-10697.906865134781
 33
0.0
 14
17980.694060849091
 24
-10697.906865134781
 34
0.0
1001
ACAD
1000
DSTYLE
1002
{
1070
   140
1040
2.5
1070
    40
1040
50.0
1070
   147
1040
1.0
1070
   271
1070
     0
1002
}
  0
DIMENSION
  5
9E14
  8
SP
  2
*D13
 10
17980.694060849091
 20
-11328.872151095689
 30
0.0
 11
16555.694060849091
 21
-11216.372151095689
 31
0.0
 12
11813.211539178939
 22
734.70697605277371
 32
0.0
 70
     0
 13
15130.69406084909
 23
-10697.906865134781
 33
0.0
 14
17980.694060849091
 24
-10697.906865134781
 34
0.0
1001
ACAD
1000
DSTYLE
1002
{
1070
   140
1040
2.5
1070
    40
1040
50.0
1070
   147
1040
1.0
1070
   271
1070
     0
1002
}
  0
DIMENSION
  5
9E21
  8
SP
  2
*D14
 10
9792.0901995637396
 20
-8976.9068651347879
 30
0.0
 11
9679.5901995637396
 21
-8051.906865134787
 31
0.0
 12
291.72727977645258
 22
0.0
 32
0.0
 70
     0
 13
10172.672374339099
 23
-7126.9068651347879
 33
0.0
 14
10172.672374339099
 24
-8976.9068651347879
 34
0.0
 50
270.0
1001
ACAD
1000
DSTYLE
1002
{
1070
   140
1040
2.5
1070
    40
1040
50.0
1070
   147
1040
1.0
1070
   271
1070
     0
1002
}
  0
DIMENSION
  5
9E2E
  8
SP
  2
*D15
 10
9424.8653343950991
 20
-9047.9068651347898
 30
0.0
 11
9312.3653343951009
 21
-8087.4068651347879
 31
0.0
 12
291.72727977645258
 22
0.0
 32
0.0
 70
     0
 13
10122.672374339099
 23
-7126.9068651347879
 33
0.0
 14
10027.230980314031
 24
-9047.9068651347898
 34
0.0
 50
270.0
1001
ACAD
1000
DSTYLE
1002
{
1070
   140
1040
2.5
1070
    40
1040
50.0
1070
   147
1040
1.0
1070
   271
1070
     0
1002
}
  0
DIMENSION
  5
9E48
  8
SP
  2
*D16
 10
9424.8653343950991
 20
-10377.906865134781
 30
0.0
 11
9312.3653343951009
 21
-9712.9068651347879
 31
0.0
 12
291.72727977645258
 22
0.0
 32
0.0
 70
     0
 13
10027.230980314031
 23
-9047.9068651347898
 33
0.0
 14
10277.672374339099
 24
-10377.906865134781
 34
0.0
 50
270.0
1001
ACAD
1000
DSTYLE
1002
{
1070
   140
1040
2.5
1070
    40
1040
50.0
1070
   147
1040
1.0
1070
   271
1070
     0
1002
}
  0
DIMENSION
  5
9E55
  8
SP
  2
*D17
 10
10277.672374339099
 20
-11328.872151095689
 30
0.0
 11
12077.672374339099
 21
-11216.372151095689
 31
0.0
 12
291.72727977645258
 22
-320.0
 32
0.0
 70
     0
 13
13877.672374339099
 23
-10697.906865134781
 33
0.0
 14
10277.672374339099
 24
-10697.906865134781
 34
0.0
1001
ACAD
1000
DSTYLE
1002
{
1070
   140
1040
2.5
1070
    40
1040
50.0
1070
   147
1040
1.0
1070
   271
1070
     0
1002
}
  0
DIMENSION
  5
9E87
  8
SP
  2
*D18
 10
18141.694060849091
 20
-6449.5326674771059
 30
0.0
 11
17431.694060849091
 21
-6304.2945722390114
 31
0.0
 12
11813.211539178939
 22
1054.7069760527729
 32
0.0
 70
     0
 13
16721.694060849091
 23
-6526.6707749257803
 33
0.0
 14
18141.694060849091
 24
-9127.9068651347879
 34
0.0
1001
ACAD
1000
DSTYLE
1002
{
1070
   140
1040
2.5
1070
    40
1040
50.0
1070
     3
1000
(<>)
1070
   147
1040
1.0
1070
   271
1070
     0
1002
}
  0
DIMENSION
  5
9E94
  8
SP
  2
*D19
 10
14971.69406084909
 20
-6449.5326674771059
 30
0.0
 11
15846.6940608491
 21
-6304.2945722390114
 31
0.0
 12
11813.211539178939
 22
1054.7069760527729
 32
0.0
 70
     0
 13
16721.694060849091
 23
-6526.6707749257803
 33
0.0
 14
14971.69406084909
 24
-8567.9068651347916
 34
0.0
1001
ACAD
1000
DSTYLE
1002
{
1070
   140
1040
2.5
1070
    40
1040
50.0
1070
     3
1000
(<>)
1070
   147
1040
1.0
1070
   271
1070
     0
1002
}
  0
LINE
  5
A0E7
  8
4
 10
17961.166697834029
 20
-12040.48813421171
 30
0.0
 11
17961.166697834029
 21
-13140.488134211701
 31
0.0
  0
LINE
  5
A0E8
  8
4
 10
14111.166697834031
 20
-12040.48813421171
 30
0.0
 11
14111.166697834031
 21
-13140.488134211701
 31
0.0
  0
LINE
  5
A0E9
  8
4
 10
11361.166697834031
 20
-12040.48813421171
 30
0.0
 11
11361.166697834031
 21
-13140.488134211701
 31
0.0
  0
LINE
  5
A0EC
  8
4
 10
11361.166697834031
 20
-13140.48813421171
 30
0.0
 11
17961.166697834029
 21
-13140.48813421171
 31
0.0
  0
LINE
  5
A0ED
  8
4
 10
11361.166697834031
 20
-12590.48813421171
 30
0.0
 11
17961.166697834029
 21
-12590.48813421171
 31
0.0
  0
TEXT
  5
A0EE
  8
4
 10
11572.92814249199
 20
-12417.001491945341
 30
0.0
 40
275.0
  1
機器名称
  0
TEXT
  5
A0EF
  8
4
 10
11560.586280970419
 20
-13021.439772185649
 30
0.0
 40
275.0
  1
機器型番
  0
TEXT
  5
A0F0
  8
4
 10
14274.28609399308
 20
-12457.343074152201
 30
0.0
 40
233.75
  1
ミツヤ多翼送風機
  0
TEXT
  5
A0F1
  8
4
 10
14312.76642355418
 20
-13046.110420672019
 30
0.0
 40
275.0
  1
MF#11-5
  0
TEXT
  5
A0F3
  8
4
 10
12185.977151365751
 20
-1128.5605847023901
 30
0.0
 40
297.0
  1
床置防振ベット
  0
TEXT
  5
A0F4
  8
4
 10
9429.0032408987445
 20
-301.07384293508937
 30
0.0
 40
396.0
  1
遠心式両吸込両持多翼ファン
  0
LINE
  5
A0F5
  8
4
 10
9161.1666978340363
 20
-655.67106357480043
 30
0.0
 11
17961.166697834029
 21
-655.67106357480043
 31
0.0
  0
LINE
  5
A0F6
  8
4
 10
9161.1666978340363
 20
444.32893642519952
 30
0.0
 11
17961.166697834029
 21
444.32893642519952
 31
0.0
  0
LINE
  5
A0F7
  8
4
 10
11361.166697834031
 20
-12040.48813421171
 30
0.0
 11
17961.166697834029
 21
-12040.48813421171
 31
0.0
  0
LINE
  5
A0F8
  8
4
 10
9161.1666978340363
 20
444.32893642519952
 30
0.0
 11
9161.1666978340363
 21
-655.67106357480043
 31
0.0
  0
TEXT
  5
A0F9
  8
4
 10
9788.7535740308977
 20
-1134.6620855263391
 30
0.0
 40
297.0
  1
左回転左横向
  0
TEXT
  5
A0FA
  8
4
 10
15865.499273705131
 20
645.91673619297035
 30
0.0
 40
308.0
  1
No.
  0
TEXT
  5
A0FB
  8
4
 10
14998.295042134099
 20
-1128.5605847023901
 30
0.0
 40
297.0
  1
縮尺：1/55
  0
LINE
  5
A0FC
  8
4
 10
17961.166697834029
 20
444.32893642519952
 30
0.0
 11
17961.166697834029
 21
-655.67106357480043
 31
0.0
  0
LINE
  5
A0FD
  8
4
 10
19336.166697834029
 20
1987.580787968772
 30
0.0
 11
19336.166697834029
 21
1987.580787968772
 31
0.0
  0
LINE
  5
A0FE
  8
4
 10
15709.56252081329
 20
509.53049515847852
 30
0.0
 11
15709.56252081329
 21
1089.1682264924109
 31
0.0
  0
LINE
  5
A0FF
  8
4
 10
15709.56252081329
 20
1089.1682264924109
 30
0.0
 11
17961.166697834029
 21
1089.1682264924109
 31
0.0
  0
LINE
  5
A100
  8
4
 10
17961.166697834029
 20
1089.1682264924109
 30
0.0
 11
17961.166697834029
 21
509.53049515847852
 31
0.0
  0
LINE
  5
A101
  8
4
 10
17961.166697834029
 20
509.53049515847852
 30
0.0
 11
15709.56252081329
 21
509.53049515847852
 31
0.0
  0
LINE
  5
A102
  8
4
 10
7786.1666978340372
 20
-14237.419212031229
 30
0.0
 11
7786.1666978340372
 21
1987.580787968772
 31
0.0
  0
LINE
  5
A103
  8
4
 10
7786.1666978340372
 20
1987.580787968772
 30
0.0
 11
19336.166697834029
 21
1987.580787968772
 31
0.0
  0
LINE
  5
A104
  8
4
 10
19336.166697834029
 20
1987.580787968772
 30
0.0
 11
19336.166697834029
 21
-14237.419212031229
 31
0.0
  0
LINE
  5
A105
  8
4
 10
19336.166697834029
 20
-14237.419212031229
 30
0.0
 11
7786.1666978340372
 21
-14237.419212031229
 31
0.0
  0
LINE
  5
A36F
  8
FUTO
 10
17901.694060849099
 20
-9045.9068651347861
 30
0.0
 11
17970.694060849091
 21
-9045.9068651347861
 31
0.0
  0
LINE
  5
A370
  8
FUTO
 10
16131.69406084909
 20
-10117.906865134781
 30
0.0
 11
16131.69406084909
 21
-9577.9068651347861
 31
0.0
  0
LINE
  5
A372
  8
FUTO
 10
15541.69406084909
 20
-10117.906865134781
 30
0.0
 11
15541.69406084909
 21
-10197.906865134781
 31
0.0
  0
LINE
  5
A375
  8
FUTO
 10
17980.694060849091
 20
-10697.906865134781
 30
0.0
 11
15130.69406084909
 21
-10697.906865134781
 31
0.0
  0
LINE
  5
A376
  8
FUTO
 10
17980.694060849091
 20
-10517.906865134781
 30
0.0
 11
17980.694060849091
 21
-10697.906865134781
 31
0.0
  0
LINE
  5
A377
  8
FUTO
 10
17980.694060849091
 20
-10517.906865134781
 30
0.0
 11
15130.6940608491
 21
-10517.906865134781
 31
0.0
  0
LINE
  5
A378
  8
FUTO
 10
15130.69406084909
 20
-10517.906865134781
 30
0.0
 11
15130.69406084909
 21
-10697.906865134781
 31
0.0
  0
LINE
  5
A379
  8
FUTO
 10
10277.672374339099
 20
-10697.906865134781
 30
0.0
 11
13877.672374339099
 21
-10697.90686513479
 31
0.0
  0
LINE
  5
A37A
  8
FUTO
 10
13877.672374339099
 20
-10517.906865134781
 30
0.0
 11
13877.672374339099
 21
-10697.906865134781
 31
0.0
  0
LINE
  5
A37B
  8
FUTO
 10
10277.672374339099
 20
-10517.906865134781
 30
0.0
 11
13877.672374339099
 21
-10517.906865134781
 31
0.0
  0
LINE
  5
A37C
  8
FUTO
 10
10277.672374339099
 20
-10517.906865134781
 30
0.0
 11
10277.672374339099
 21
-10697.906865134781
 31
0.0
  0
DIMENSION
  5
A393
  8
SP
  2
*D21
 10
9429.002394033465
 20
-10697.906865134781
 30
0.0
 11
9305.2523940334631
 21
-11141.453512312661
 31
0.0
 12
0.0
 22
-120.0
 32
0.0
 70
     0
 13
10277.672374339099
 23
-10517.906865134781
 33
0.0
 14
10277.672374339099
 24
-10697.906865134781
 34
0.0
 50
90.0
1001
ACAD
1000
DSTYLE
1002
{
1070
   140
1040
2.5
1070
    40
1040
55.0
1070
   147
1040
1.0
1070
   271
1070
     0
1070
     6
1000
_DOT
1002
}
  0
DIMENSION
  5
A3BD
  8
SP
  2
*D23
 10
9435.2127448423489
 20
-10517.906865134781
 30
0.0
 11
9192.9508400804461
 21
-10447.906865134781
 31
0.0
 70
     0
 13
10277.672374339099
 23
-10377.906865134781
 33
0.0
 14
10277.672374339099
 24
-10517.906865134781
 34
0.0
 50
90.0
1001
ACAD
1000
DSTYLE
1002
{
1070
   287
1070
     5
1070
     3
1000
(<>)
1070
    40
1040
55.0
1070
    75
1070
     1
1070
    76
1070
     1
1070
   140
1040
2.5
1070
   147
1040
1.0
1070
   271
1070
     0
1070
   279
1070
     2
1070
   289
1070
     3
1070
     6
1000
NONE
1070
     7
1000
NONE
1002
}
  0
ENDSEC
  0
EOF
