  0
SECTION
  2
HEADER
  9
$ACADVER
  1
AC1009
  9
$INSBASE
 10
0.0
 20
0.0
 30
0.0
  9
$EXTMIN
 10
7786.1666978340372
 20
-14237.419212031229
 30
0.0
  9
$EXTMAX
 10
19336.166697834029
 20
1987.580787968772
 30
0.0
  9
$LIMMIN
 10
0.0
 20
0.0
  9
$LIMMAX
 10
297.0
 20
210.0
  9
$ORTHOMODE
 70
     0
  9
$REGENMODE
 70
     1
  9
$FILLMODE
 70
     1
  9
$QTEXTMODE
 70
     0
  9
$MIRRTEXT
 70
     0
  9
$DRAGMODE
 70
     2
  9
$LTSCALE
 40
275.0
  9
$OSMODE
 70
    37
  9
$ATTMODE
 70
     1
  9
$TEXTSIZE
 40
137.5
  9
$TRACEWID
 40
0.05
  9
$TEXTSTYLE
  7
STANDARD
  9
$CLAYER
  8
SP
  9
$CELTYPE
  6
BYLAYER
  9
$CECOLOR
 62
   256
  9
$DIMSCALE
 40
55.0
  9
$DIMASZ
 40
2.0
  9
$DIMEXO
 40
1.0
  9
$DIMDLI
 40
10.0
  9
$DIMRND
 40
0.0
  9
$DIMDLE
 40
0.0
  9
$DIMEXE
 40
1.0
  9
$DIMTP
 40
0.0
  9
$DIMTM
 40
0.0
  9
$DIMTXT
 40
2.5
  9
$DIMCEN
 40
0.0
  9
$DIMTSZ
 40
0.0
  9
$DIMTOL
 70
     0
  9
$DIMLIM
 70
     0
  9
$DIMTIH
 70
     0
  9
$DIMTOH
 70
     0
  9
$DIMSE1
 70
     1
  9
$DIMSE2
 70
     1
  9
$DIMTAD
 70
     1
  9
$DIMZIN
 70
     8
  9
$DIMBLK
  1

  9
$DIMASO
 70
     1
  9
$DIMSHO
 70
     1
  9
$DIMPOST
  1
(<>)
  9
$DIMAPOST
  1

  9
$DIMALT
 70
     0
  9
$DIMALTD
 70
     2
  9
$DIMALTF
 40
0.03937
  9
$DIMLFAC
 40
1.0
  9
$DIMTOFL
 70
     1
  9
$DIMTVP
 40
0.0
  9
$DIMTIX
 70
     0
  9
$DIMSOXD
 70
     0
  9
$DIMSAH
 70
     1
  9
$DIMBLK1
  1
NONE
  9
$DIMBLK2
  1
NONE
  9
$DIMSTYLE
  2
MATSU
  9
$DIMCLRD
 70
   256
  9
$DIMCLRE
 70
   256
  9
$DIMCLRT
 70
   256
  9
$DIMTFAC
 40
1.0
  9
$DIMGAP
 40
1.0
  9
$LUNITS
 70
     2
  9
$LUPREC
 70
     4
  9
$SKETCHINC
 40
0.1
  9
$FILLETRAD
 40
0.0
  9
$AUNITS
 70
     0
  9
$AUPREC
 70
     2
  9
$MENU
  1
acad
  9
$ELEVATION
 40
0.0
  9
$PELEVATION
 40
0.0
  9
$THICKNESS
 40
0.0
  9
$LIMCHECK
 70
     0
  9
$BLIPMODE
 70
     0
  9
$CHAMFERA
 40
20.0
  9
$CHAMFERB
 40
20.0
  9
$SKPOLY
 70
     0
  9
$TDCREATE
 40
2453950.639283854
  9
$TDUPDATE
 40
2454953.8315531588
  9
$TDINDWG
 40
0.349971412
  9
$TDUSRTIMER
 40
0.349971412
  9
$USRTIMER
 70
     1
  9
$ANGBASE
 50
0.0
  9
$ANGDIR
 70
     0
  9
$PDMODE
 70
     0
  9
$PDSIZE
 40
1.0
  9
$PLINEWID
 40
0.0
  9
$COORDS
 70
     1
  9
$SPLFRAME
 70
     0
  9
$SPLINETYPE
 70
     6
  9
$SPLINESEGS
 70
     8
  9
$ATTDIA
 70
     0
  9
$ATTREQ
 70
     1
  9
$HANDLING
 70
 10241
  9
$HANDSEED
  5
A3C4
  9
$SURFTAB1
 70
     6
  9
$SURFTAB2
 70
     6
  9
$SURFTYPE
 70
     6
  9
$SURFU
 70
     6
  9
$SURFV
 70
     6
  9
$UCSNAME
  2

  9
$UCSORG
 10
0.0
 20
-0.0000000000000568
 30
0.0
  9
$UCSXDIR
 10
1.0
 20
0.0
 30
0.0
  9
$UCSYDIR
 10
0.0
 20
1.0
 30
0.0
  9
$PUCSNAME
  2

  9
$PUCSORG
 10
0.0
 20
0.0
 30
0.0
  9
$PUCSXDIR
 10
1.0
 20
0.0
 30
0.0
  9
$PUCSYDIR
 10
0.0
 20
1.0
 30
0.0
  9
$USERI1
 70
     0
  9
$USERI2
 70
     0
  9
$USERI3
 70
     0
  9
$USERI4
 70
     0
  9
$USERI5
 70
     0
  9
$USERR1
 40
0.0
  9
$USERR2
 40
0.0
  9
$USERR3
 40
0.0
  9
$USERR4
 40
0.0
  9
$USERR5
 40
0.0
  9
$WORLDVIEW
 70
     1
  9
$SHADEDGE
 70
     3
  9
$SHADEDIF
 70
    70
  9
$TILEMODE
 70
     1
  9
$MAXACTVP
 70
    16
  9
$PLIMCHECK
 70
     0
  9
$PEXTMIN
 10
1.0000000000000000E+020
 20
1.0000000000000000E+020
 30
1.0000000000000000E+020
  9
$PEXTMAX
 10
-1.0000000000000000E+020
 20
-1.0000000000000000E+020
 30
-1.0000000000000000E+020
  9
$PLIMMIN
 10
0.0
 20
0.0
  9
$PLIMMAX
 10
12.0
 20
9.0
  9
$UNITMODE
 70
     0
  9
$VISRETAIN
 70
     0
  9
$PLINEGEN
 70
     0
  9
$PSLTSCALE
 70
     0
  0
ENDSEC
  0
SECTION
  2
TABLES
  0
TABLE
  2
VPORT
 70
     2
  0
VPORT
  2
*ACTIVE
 70
     0
 10
0.0
 20
0.0
 11
1.0
 21
1.0
 12
22453.56669783403
 22
-4492.383698012537
 13
0.0
 23
0.0
 14
5.0
 24
5.0
 15
0.0
 25
0.0
 16
0.0
 26
0.0
 36
1.0
 17
0.0
 27
0.0
 37
0.0
 40
19490.071028037379
 41
1.5051150895140659
 42
50.0
 43
0.0
 44
0.0
 50
0.0
 51
0.0
 71
     0
 72
   100
 73
     1
 74
     0
 75
     0
 76
     0
 77
     0
 78
     0
  0
ENDTAB
  0
TABLE
  2
LTYPE
 70
     3
  0
LTYPE
  2
CONTINUOUS
 70
     0
  3
Solid line
 72
    65
 73
     0
 40
0.0
  0
LTYPE
  2
CENTER
 70
     0
  3
____ _ ____ _ ____ _ ____ _ ____ _ ____ _ ____ 
 72
    65
 73
     4
 40
2.0
 49
1.25
 49
-0.25
 49
0.25
 49
-0.25
  0
LTYPE
  2
PHANTOM
 70
     0
  3
______  __  __  ______  __  __  ______  __  __ 
 72
    65
 73
     6
 40
2.5
 49
1.25
 49
-0.25
 49
0.25
 49
-0.25
 49
0.25
 49
-0.25
  0
ENDTAB
  0
TABLE
  2
LAYER
 70
     7
  0
LAYER
  2
0
 70
     0
 62
     7
  6
CONTINUOUS
  0
LAYER
  2
CT
 70
     0
 62
     3
  6
CENTER
  0
LAYER
  2
FUTO
 70
     0
 62
     4
  6
CONTINUOUS
  0
LAYER
  2
SL
 70
     0
 62
     1
  6
PHANTOM
  0
LAYER
  2
SP
 70
     0
 62
     2
  6
CONTINUOUS
  0
LAYER
  2
DEFPOINTS
 70
     0
 62
     7
  6
CONTINUOUS
  0
LAYER
  2
4
 70
     0
 62
     7
  6
CONTINUOUS
  0
ENDTAB
  0
TABLE
  2
STYLE
 70
     1
  0
STYLE
  2
STANDARD
 70
     0
 40
0.0
 41
1.0
 50
15.0
 71
     0
 42
137.5
  3
C:\Program Files\AutoCAD LT\simplex.shx
  4
C:\Program Files\AutoCAD LT\extfont.shx
  0
ENDTAB
  0
TABLE
  2
VIEW
 70
     0
  0
ENDTAB
  0
TABLE
  2
UCS
 70
     0
  0
ENDTAB
  0
TABLE
  2
APPID
 70
     2
  0
APPID
  2
ACAD
 70
     0
  0
APPID
  2
CONTENTBLOCKICON
 70
     0
  0
ENDTAB
  0
TABLE
  2
DIMSTYLE
 70
     2
  0
DIMSTYLE
  2
STANDARD
 70
     0
  3

  4

  5

  6

  7

 40
1.0
 41
0.18
 42
0.0625
 43
0.38
 44
0.18
 45
0.0
 46
0.0
 47
0.0
 48
0.0
140
0.18
141
0.09
142
0.0
143
25.399999999999999
144
1.0
145
0.0
146
1.0
147
0.09
 71
     0
 72
     0
 73
     1
 74
     1
 75
     0
 76
     0
 77
     0
 78
     0
170
     0
171
     2
172
     0
173
     0
174
     0
175
     0
176
     0
177
     0
178
     0
  0
DIMSTYLE
  2
MATSU
 70
     0
  3

  4

  5

  6
OPEN
  7
OPEN
 40
1.0
 41
2.0
 42
1.0
 43
10.0
 44
1.0
 45
0.0
 46
0.0
 47
0.0
 48
0.0
140
3.0
141
0.0
142
0.0
143
0.03937
144
1.0
145
0.0
146
1.0
147
0.5
 71
     0
 72
     0
 73
     0
 74
     0
 75
     0
 76
     0
 77
     1
 78
     8
170
     0
171
     2
172
     1
173
     1
174
     0
175
     0
176
   256
177
   256
178
   256
  0
ENDTAB
  0
ENDSEC
  0
SECTION
  2
BLOCKS
  0
BLOCK
  8
0
  2
$MODEL_SPACE
 70
     0
 10
0.0
 20
0.0
 30
0.0
  3
$MODEL_SPACE
  1

  0
ENDBLK
  5
1B
  8
0
  0
BLOCK
 67
     1
  8
0
  2
$PAPER_SPACE
 70
     0
 10
0.0
 20
0.0
 30
0.0
  3
$PAPER_SPACE
  1

  0
ENDBLK
  5
18
 67
     1
  8
0
  0
BLOCK
  8
0
  2
_OPEN
 70
     0
 10
0.0
 20
0.0
 30
0.0
  3
_OPEN
  1

  0
LINE
  5
28
  8
0
  6
BYBLOCK
 62
     0
 10
-1.0
 20
0.1666666666666666
 30
0.0
 11
0.0
 21
0.0
 31
0.0
  0
LINE
  5
29
  8
0
  6
BYBLOCK
 62
     0
 10
0.0
 20
0.0
 30
0.0
 11
-1.0
 21
-0.1666666666666666
 31
0.0
  0
LINE
  5
2A
  8
0
  6
BYBLOCK
 62
     0
 10
0.0
 20
0.0
 30
0.0
 11
-1.0
 21
0.0
 31
0.0
  0
ENDBLK
  5
2B
  8
0
  0
BLOCK
  8
0
  2
*D1
 70
     1
 10
0.0
 20
0.0
 30
0.0
  3
*D1
  1

  0
LINE
  5
9D61
  8
0
  6
BYBLOCK
 10
-2287.5996838022211
 20
-4983.8737908260537
 30
0.0
 11
-2633.1974358962029
 21
-4983.8737908260537
 31
0.0
  0
LINE
  5
9D62
  8
0
  6
BYBLOCK
 10
-2287.5996838022211
 20
-6183.8737908260537
 30
0.0
 11
-2633.1974358962029
 21
-6183.8737908260537
 31
0.0
  0
LINE
  5
9D63
  8
0
  6
BYBLOCK
 10
-2583.1974358962029
 20
-5083.8737908260537
 30
0.0
 11
-2583.1974358962029
 21
-6083.8737908260537
 31
0.0
  0
INSERT
  5
9D64
  8
0
  6
BYBLOCK
  2
_OPEN
 10
-2583.1974358962029
 20
-4983.8737908260537
 30
0.0
 41
100.0
 42
100.0
 43
100.0
 50
90.0
  0
INSERT
  5
9D65
  8
0
  6
BYBLOCK
  2
_OPEN
 10
-2583.1974358962029
 20
-6183.8737908260537
 30
0.0
 41
100.0
 42
100.0
 43
100.0
 50
270.0
  0
TEXT
  5
9D66
  8
SP
 10
-2633.1974358962029
 20
-5816.3448400601555
 30
0.0
 40
125.0
  1
1200
 50
90.0
 51
15.0
  0
POINT
  5
9D67
  8
DEFPOINTS
  6
BYBLOCK
 62
     0
 10
-2237.5996838022202
 20
-4983.8737908260537
 30
0.0
  0
POINT
  5
9D68
  8
DEFPOINTS
  6
BYBLOCK
 62
     0
 10
-2237.5996838022202
 20
-6183.8737908260537
 30
0.0
  0
POINT
  5
9D69
  8
DEFPOINTS
  6
BYBLOCK
 62
     0
 10
-2583.1974358962029
 20
-6183.8737908260537
 30
0.0
  0
ENDBLK
  5
9D6A
  8
0
  0
BLOCK
  8
0
  2
*D2
 70
     1
 10
0.0
 20
0.0
 30
0.0
  3
*D2
  1

  0
LINE
  5
9D6E
  8
0
  6
BYBLOCK
 10
-2237.5996838022202
 20
-6233.8737908260537
 30
0.0
 11
-2237.5996838022202
 21
-6756.8788536004358
 31
0.0
  0
LINE
  5
9D6F
  8
0
  6
BYBLOCK
 10
1362.4003161977789
 20
-6233.8737908260491
 30
0.0
 11
1362.4003161977789
 21
-6756.8788536004358
 31
0.0
  0
LINE
  5
9D70
  8
0
  6
BYBLOCK
 10
-2137.5996838022211
 20
-6706.8788536004358
 30
0.0
 11
1262.4003161977789
 21
-6706.8788536004358
 31
0.0
  0
INSERT
  5
9D71
  8
0
  6
BYBLOCK
  2
_OPEN
 10
-2237.5996838022202
 20
-6706.8788536004358
 30
0.0
 41
100.0
 42
100.0
 43
100.0
 50
180.0
  0
INSERT
  5
9D72
  8
0
  6
BYBLOCK
  2
_OPEN
 10
1362.4003161977789
 20
-6706.8788536004358
 30
0.0
 41
100.0
 42
100.0
 43
100.0
  0
TEXT
  5
9D73
  8
SP
 10
-671.60841309107104
 20
-6656.8788536004358
 30
0.0
 40
125.0
  1
3600
 51
15.0
  0
POINT
  5
9D74
  8
DEFPOINTS
  6
BYBLOCK
 62
     0
 10
-2237.5996838022202
 20
-6183.8737908260537
 30
0.0
  0
POINT
  5
9D75
  8
DEFPOINTS
  6
BYBLOCK
 62
     0
 10
1362.4003161977789
 20
-6183.8737908260482
 30
0.0
  0
POINT
  5
9D76
  8
DEFPOINTS
  6
BYBLOCK
 62
     0
 10
1362.4003161977789
 20
-6706.8788536004358
 30
0.0
  0
ENDBLK
  5
9D77
  8
0
  0
BLOCK
  8
0
  2
*D3
 70
     1
 10
0.0
 20
0.0
 30
0.0
  3
*D3
  1

  0
LINE
  5
9D7B
  8
0
  6
BYBLOCK
 10
1412.400316197778
 20
-3333.8737908260482
 30
0.0
 11
1946.9457797802311
 21
-3333.8737908260482
 31
0.0
  0
LINE
  5
9D7C
  8
0
  6
BYBLOCK
 10
1412.400316197778
 20
-6183.8737908260482
 30
0.0
 11
1946.9457797802311
 21
-6183.8737908260482
 31
0.0
  0
LINE
  5
9D7D
  8
0
  6
BYBLOCK
 10
1896.9457797802311
 20
-3433.8737908260482
 30
0.0
 11
1896.9457797802311
 21
-6083.8737908260482
 31
0.0
  0
INSERT
  5
9D7E
  8
0
  6
BYBLOCK
  2
_OPEN
 10
1896.9457797802311
 20
-3333.8737908260482
 30
0.0
 41
100.0
 42
100.0
 43
100.0
 50
90.0
  0
INSERT
  5
9D7F
  8
0
  6
BYBLOCK
  2
_OPEN
 10
1896.9457797802311
 20
-6183.8737908260482
 30
0.0
 41
100.0
 42
100.0
 43
100.0
 50
270.0
  0
TEXT
  5
9D80
  8
SP
 10
1846.9457797802311
 20
-4989.6926487764331
 30
0.0
 40
125.0
  1
2850
 50
90.0
 51
15.0
  0
POINT
  5
9D81
  8
DEFPOINTS
  6
BYBLOCK
 62
     0
 10
1362.4003161977789
 20
-3333.8737908260482
 30
0.0
  0
POINT
  5
9D82
  8
DEFPOINTS
  6
BYBLOCK
 62
     0
 10
1362.4003161977789
 20
-6183.8737908260482
 30
0.0
  0
POINT
  5
9D83
  8
DEFPOINTS
  6
BYBLOCK
 62
     0
 10
1896.9457797802311
 20
-6183.8737908260482
 30
0.0
  0
ENDBLK
  5
9D84
  8
0
  0
BLOCK
  8
0
  2
*D4
 70
     1
 10
0.0
 20
0.0
 30
0.0
  3
*D4
  1

  0
LINE
  5
9D88
  8
0
  6
BYBLOCK
 10
-757.59968380222097
 20
-3283.8737908260482
 30
0.0
 11
-757.59968380222097
 21
-2987.9060785853799
 31
0.0
  0
LINE
  5
9D89
  8
0
  6
BYBLOCK
 10
1362.4003161977789
 20
-3283.8737908260482
 30
0.0
 11
1362.4003161977789
 21
-2987.9060785853799
 31
0.0
  0
LINE
  5
9D8A
  8
0
  6
BYBLOCK
 10
-657.59968380222097
 20
-3037.906078585379
 30
0.0
 11
1262.4003161977789
 21
-3037.906078585379
 31
0.0
  0
INSERT
  5
9D8B
  8
0
  6
BYBLOCK
  2
_OPEN
 10
-757.59968380222097
 20
-3037.906078585379
 30
0.0
 41
100.0
 42
100.0
 43
100.0
 50
180.0
  0
INSERT
  5
9D8C
  8
0
  6
BYBLOCK
  2
_OPEN
 10
1362.4003161977789
 20
-3037.906078585379
 30
0.0
 41
100.0
 42
100.0
 43
100.0
  0
TEXT
  5
9D8D
  8
SP
 10
83.486220152156648
 20
-2987.9060785853799
 30
0.0
 40
125.0
  1
2120
 51
15.0
  0
POINT
  5
9D8E
  8
DEFPOINTS
  6
BYBLOCK
 62
     0
 10
-757.59968380222097
 20
-3333.8737908260482
 30
0.0
  0
POINT
  5
9D8F
  8
DEFPOINTS
  6
BYBLOCK
 62
     0
 10
1362.4003161977789
 20
-3333.8737908260482
 30
0.0
  0
POINT
  5
9D90
  8
DEFPOINTS
  6
BYBLOCK
 62
     0
 10
1362.4003161977789
 20
-3037.906078585379
 30
0.0
  0
ENDBLK
  5
9D91
  8
0
  0
BLOCK
  8
0
  2
*D5
 70
     1
 10
0.0
 20
0.0
 30
0.0
  3
*D5
  1

  0
LINE
  5
9D95
  8
0
  6
BYBLOCK
 10
-757.59968380222097
 20
-3283.8737908260482
 30
0.0
 11
-757.59968380222097
 21
-2987.9060785853799
 31
0.0
  0
LINE
  5
9D96
  8
0
  6
BYBLOCK
 10
-2237.5996838022202
 20
-4933.8737908260537
 30
0.0
 11
-2237.5996838022202
 21
-2987.9060785853799
 31
0.0
  0
LINE
  5
9D97
  8
0
  6
BYBLOCK
 10
-857.59968380222108
 20
-3037.906078585379
 30
0.0
 11
-2137.5996838022211
 21
-3037.906078585379
 31
0.0
  0
INSERT
  5
9D98
  8
0
  6
BYBLOCK
  2
_OPEN
 10
-757.59968380222097
 20
-3037.906078585379
 30
0.0
 41
100.0
 42
100.0
 43
100.0
  0
INSERT
  5
9D99
  8
0
  6
BYBLOCK
  2
_OPEN
 10
-2237.5996838022202
 20
-3037.906078585379
 30
0.0
 41
100.0
 42
100.0
 43
100.0
 50
180.0
  0
TEXT
  5
9D9A
  8
SP
 10
-1730.0707330363221
 20
-2987.9060785853799
 30
0.0
 40
125.0
  1
1480
 51
15.0
  0
POINT
  5
9D9B
  8
DEFPOINTS
  6
BYBLOCK
 62
     0
 10
-757.59968380222097
 20
-3333.8737908260482
 30
0.0
  0
POINT
  5
9D9C
  8
DEFPOINTS
  6
BYBLOCK
 62
     0
 10
-2237.5996838022202
 20
-4983.8737908260537
 30
0.0
  0
POINT
  5
9D9D
  8
DEFPOINTS
  6
BYBLOCK
 62
     0
 10
-2237.5996838022202
 20
-3037.906078585379
 30
0.0
  0
ENDBLK
  5
9D9E
  8
0
  0
BLOCK
  8
0
  2
*D6
 70
     1
 10
0.0
 20
0.0
 30
0.0
  3
*D6
  1

  0
LINE
  5
9DC9
  8
0
  6
BYBLOCK
 10
-2237.5996838022202
 20
-11482.61384118756
 30
0.0
 11
-2237.5996838022202
 21
-11795.60147930514
 31
0.0
  0
LINE
  5
9DCA
  8
0
  6
BYBLOCK
 10
302.40031619777892
 20
-11482.61384118756
 30
0.0
 11
302.40031619777892
 21
-11795.60147930514
 31
0.0
  0
LINE
  5
9DCB
  8
0
  6
BYBLOCK
 10
-2137.5996838022211
 20
-11745.60147930514
 30
0.0
 11
202.40031619777889
 21
-11745.60147930514
 31
0.0
  0
INSERT
  5
9DCC
  8
0
  6
BYBLOCK
  2
_OPEN
 10
-2237.5996838022202
 20
-11745.60147930514
 30
0.0
 41
100.0
 42
100.0
 43
100.0
 50
180.0
  0
INSERT
  5
9DCD
  8
0
  6
BYBLOCK
  2
_OPEN
 10
302.40031619777892
 20
-11745.60147930514
 30
0.0
 41
100.0
 42
100.0
 43
100.0
  0
TEXT
  5
9DCE
  8
SP
 10
-1198.4185417526051
 20
-11695.60147930514
 30
0.0
 40
125.0
  1
2540
 51
15.0
  0
POINT
  5
9DCF
  8
DEFPOINTS
  6
BYBLOCK
 62
     0
 10
-2237.5996838022202
 20
-11432.61384118756
 30
0.0
  0
POINT
  5
9DD0
  8
DEFPOINTS
  6
BYBLOCK
 62
     0
 10
302.40031619777892
 20
-11432.61384118756
 30
0.0
  0
POINT
  5
9DD1
  8
DEFPOINTS
  6
BYBLOCK
 62
     0
 10
302.40031619777892
 20
-11745.60147930514
 30
0.0
  0
ENDBLK
  5
9DD2
  8
0
  0
BLOCK
  8
0
  2
*D7
 70
     1
 10
0.0
 20
0.0
 30
0.0
  3
*D7
  1

  0
LINE
  5
9DD6
  8
0
  6
BYBLOCK
 10
302.40031619777892
 20
-11482.61384118756
 30
0.0
 11
302.40031619777892
 21
-11795.60147930514
 31
0.0
  0
LINE
  5
9DD7
  8
0
  6
BYBLOCK
 10
1362.4003161977789
 20
-11482.61384118756
 30
0.0
 11
1362.4003161977789
 21
-11795.60147930514
 31
0.0
  0
LINE
  5
9DD8
  8
0
  6
BYBLOCK
 10
402.40031619777881
 20
-11745.60147930514
 30
0.0
 11
1262.4003161977789
 21
-11745.60147930514
 31
0.0
  0
INSERT
  5
9DD9
  8
0
  6
BYBLOCK
  2
_OPEN
 10
302.40031619777892
 20
-11745.60147930514
 30
0.0
 41
100.0
 42
100.0
 43
100.0
 50
180.0
  0
INSERT
  5
9DDA
  8
0
  6
BYBLOCK
  2
_OPEN
 10
1362.4003161977789
 20
-11745.60147930514
 30
0.0
 41
100.0
 42
100.0
 43
100.0
  0
TEXT
  5
9DDB
  8
SP
 10
599.92926696367726
 20
-11695.60147930514
 30
0.0
 40
125.0
  1
1060
 51
15.0
  0
POINT
  5
9DDC
  8
DEFPOINTS
  6
BYBLOCK
 62
     0
 10
302.40031619777892
 20
-11432.61384118756
 30
0.0
  0
POINT
  5
9DDD
  8
DEFPOINTS
  6
BYBLOCK
 62
     0
 10
1362.4003161977789
 20
-11432.61384118756
 30
0.0
  0
POINT
  5
9DDE
  8
DEFPOINTS
  6
BYBLOCK
 62
     0
 10
1362.4003161977789
 20
-11745.60147930514
 30
0.0
  0
ENDBLK
  5
9DDF
  8
0
  0
BLOCK
  8
0
  2
*D8
 70
     1
 10
0.0
 20
0.0
 30
0.0
  3
*D8
  1

  0
LINE
  5
9DF0
  8
0
  6
BYBLOCK
 10
3317.482521670157
 20
-11482.61384118756
 30
0.0
 11
3317.482521670157
 21
-11795.60147930514
 31
0.0
  0
LINE
  5
9DF1
  8
0
  6
BYBLOCK
 10
4908.4825216701574
 20
-11482.61384118756
 30
0.0
 11
4908.4825216701574
 21
-11795.60147930514
 31
0.0
  0
LINE
  5
9DF2
  8
0
  6
BYBLOCK
 10
3417.482521670157
 20
-11745.60147930514
 30
0.0
 11
4808.4825216701574
 21
-11745.60147930514
 31
0.0
  0
INSERT
  5
9DF3
  8
0
  6
BYBLOCK
  2
_OPEN
 10
3317.482521670157
 20
-11745.60147930514
 30
0.0
 41
100.0
 42
100.0
 43
100.0
 50
180.0
  0
INSERT
  5
9DF4
  8
0
  6
BYBLOCK
  2
_OPEN
 10
4908.4825216701574
 20
-11745.60147930514
 30
0.0
 41
100.0
 42
100.0
 43
100.0
  0
TEXT
  5
9DF5
  8
SP
 10
3901.1311249071141
 20
-11695.60147930514
 30
0.0
 40
125.0
  1
1591
 51
15.0
  0
POINT
  5
9DF6
  8
DEFPOINTS
  6
BYBLOCK
 62
     0
 10
3317.482521670157
 20
-11432.61384118756
 30
0.0
  0
POINT
  5
9DF7
  8
DEFPOINTS
  6
BYBLOCK
 62
     0
 10
4908.4825216701574
 20
-11432.61384118756
 30
0.0
  0
POINT
  5
9DF8
  8
DEFPOINTS
  6
BYBLOCK
 62
     0
 10
4908.4825216701574
 20
-11745.60147930514
 30
0.0
  0
ENDBLK
  5
9DF9
  8
0
  0
BLOCK
  8
0
  2
*D9
 70
     1
 10
0.0
 20
0.0
 30
0.0
  3
*D9
  1

  0
LINE
  5
9DFD
  8
0
  6
BYBLOCK
 10
4908.4825216701574
 20
-11482.61384118756
 30
0.0
 11
4908.4825216701574
 21
-11795.60147930514
 31
0.0
  0
LINE
  5
9DFE
  8
0
  6
BYBLOCK
 10
6167.4825216701583
 20
-11482.61384118756
 30
0.0
 11
6167.4825216701583
 21
-11795.60147930514
 31
0.0
  0
LINE
  5
9DFF
  8
0
  6
BYBLOCK
 10
5008.4825216701574
 20
-11745.60147930514
 30
0.0
 11
6067.4825216701574
 21
-11745.60147930514
 31
0.0
  0
INSERT
  5
9E00
  8
0
  6
BYBLOCK
  2
_OPEN
 10
4908.4825216701574
 20
-11745.60147930514
 30
0.0
 41
100.0
 42
100.0
 43
100.0
 50
180.0
  0
INSERT
  5
9E01
  8
0
  6
BYBLOCK
  2
_OPEN
 10
6167.4825216701583
 20
-11745.60147930514
 30
0.0
 41
100.0
 42
100.0
 43
100.0
  0
TEXT
  5
9E02
  8
SP
 10
5307.6901950776301
 20
-11695.60147930514
 30
0.0
 40
125.0
  1
1259
 51
15.0
  0
POINT
  5
9E03
  8
DEFPOINTS
  6
BYBLOCK
 62
     0
 10
4908.4825216701574
 20
-11432.61384118756
 30
0.0
  0
POINT
  5
9E04
  8
DEFPOINTS
  6
BYBLOCK
 62
     0
 10
6167.4825216701583
 20
-11432.61384118756
 30
0.0
  0
POINT
  5
9E05
  8
DEFPOINTS
  6
BYBLOCK
 62
     0
 10
6167.4825216701583
 20
-11745.60147930514
 30
0.0
  0
ENDBLK
  5
9E06
  8
0
  0
BLOCK
  8
0
  2
*D10
 70
     1
 10
0.0
 20
0.0
 30
0.0
  3
*D10
  1

  0
LINE
  5
9E0A
  8
0
  6
BYBLOCK
 10
3317.482521670157
 20
-11482.61384118756
 30
0.0
 11
3317.482521670157
 21
-12113.57912714846
 31
0.0
  0
LINE
  5
9E0B
  8
0
  6
BYBLOCK
 10
6167.4825216701583
 20
-11482.61384118756
 30
0.0
 11
6167.4825216701583
 21
-12113.57912714846
 31
0.0
  0
LINE
  5
9E0C
  8
0
  6
BYBLOCK
 10
3417.482521670157
 20
-12063.57912714846
 30
0.0
 11
6067.4825216701574
 21
-12063.57912714846
 31
0.0
  0
INSERT
  5
9E0D
  8
0
  6
BYBLOCK
  2
_OPEN
 10
3317.482521670157
 20
-12063.57912714846
 30
0.0
 41
100.0
 42
100.0
 43
100.0
 50
180.0
  0
INSERT
  5
9E0E
  8
0
  6
BYBLOCK
  2
_OPEN
 10
6167.4825216701583
 20
-12063.57912714846
 30
0.0
 41
100.0
 42
100.0
 43
100.0
  0
TEXT
  5
9E0F
  8
SP
 10
4511.6636637197726
 20
-12013.57912714846
 30
0.0
 40
125.0
  1
2850
 51
15.0
  0
POINT
  5
9E10
  8
DEFPOINTS
  6
BYBLOCK
 62
     0
 10
3317.482521670157
 20
-11432.61384118756
 30
0.0
  0
POINT
  5
9E11
  8
DEFPOINTS
  6
BYBLOCK
 62
     0
 10
6167.4825216701583
 20
-11432.61384118756
 30
0.0
  0
POINT
  5
9E12
  8
DEFPOINTS
  6
BYBLOCK
 62
     0
 10
6167.4825216701583
 20
-12063.57912714846
 30
0.0
  0
ENDBLK
  5
9E13
  8
0
  0
BLOCK
  8
0
  2
*D11
 70
     1
 10
0.0
 20
0.0
 30
0.0
  3
*D11
  1

  0
LINE
  5
9E4B
  8
0
  6
BYBLOCK
 10
-2237.5996838022202
 20
-11482.61384118756
 30
0.0
 11
-2237.5996838022202
 21
-12113.57912714846
 31
0.0
  0
LINE
  5
9E4C
  8
0
  6
BYBLOCK
 10
1362.4003161977789
 20
-11482.61384118756
 30
0.0
 11
1362.4003161977789
 21
-12113.57912714846
 31
0.0
  0
LINE
  5
9E4D
  8
0
  6
BYBLOCK
 10
-2137.5996838022211
 20
-12063.57912714846
 30
0.0
 11
1262.4003161977789
 21
-12063.57912714846
 31
0.0
  0
INSERT
  5
9E4E
  8
0
  6
BYBLOCK
  2
_OPEN
 10
-2237.5996838022202
 20
-12063.57912714846
 30
0.0
 41
100.0
 42
100.0
 43
100.0
 50
180.0
  0
INSERT
  5
9E4F
  8
0
  6
BYBLOCK
  2
_OPEN
 10
1362.4003161977789
 20
-12063.57912714846
 30
0.0
 41
100.0
 42
100.0
 43
100.0
  0
TEXT
  5
9E50
  8
SP
 10
-671.60841309107104
 20
-12013.57912714846
 30
0.0
 40
125.0
  1
3600
 51
15.0
  0
POINT
  5
9E51
  8
DEFPOINTS
  6
BYBLOCK
 62
     0
 10
-2237.5996838022202
 20
-11432.61384118756
 30
0.0
  0
POINT
  5
9E52
  8
DEFPOINTS
  6
BYBLOCK
 62
     0
 10
1362.4003161977789
 20
-11432.61384118756
 30
0.0
  0
POINT
  5
9E53
  8
DEFPOINTS
  6
BYBLOCK
 62
     0
 10
1362.4003161977789
 20
-12063.57912714846
 30
0.0
  0
ENDBLK
  5
9E54
  8
0
  0
BLOCK
  8
0
  2
*D12
 70
     1
 10
0.0
 20
0.0
 30
0.0
  3
*D12
  1

  0
LINE
  5
A2F0
  8
0
  6
BYBLOCK
 10
15541.6940608491
 20
-7100.906865134787
 30
0.0
 11
15541.6940608491
 21
-6807.3381015241393
 31
0.0
  0
LINE
  5
A2F1
  8
0
  6
BYBLOCK
 10
17901.694060849099
 20
-7100.906865134787
 30
0.0
 11
17901.694060849099
 21
-6807.3381015241393
 31
0.0
  0
LINE
  5
A2F2
  8
0
  6
BYBLOCK
 10
15651.6940608491
 20
-6862.3381015241393
 30
0.0
 11
17791.694060849099
 21
-6862.3381015241393
 31
0.0
  0
INSERT
  5
A2F3
  8
0
  6
BYBLOCK
  2
_OPEN
 10
15541.6940608491
 20
-6862.3381015241393
 30
0.0
 41
110.0
 42
110.0
 43
110.0
 50
180.0
  0
INSERT
  5
A2F4
  8
0
  6
BYBLOCK
  2
_OPEN
 10
17901.694060849099
 20
-6862.3381015241393
 30
0.0
 41
110.0
 42
110.0
 43
110.0
  0
TEXT
  5
A2F5
  8
SP
 10
16467.793317103678
 20
-6807.3381015241393
 30
0.0
 40
137.5
  1
2360
 51
15.0
  0
POINT
  5
A2F6
  8
DEFPOINTS
  6
BYBLOCK
 62
     0
 10
15541.6940608491
 20
-7155.9068651347879
 30
0.0
  0
POINT
  5
A2F7
  8
DEFPOINTS
  6
BYBLOCK
 62
     0
 10
17901.694060849099
 20
-7155.9068651347879
 30
0.0
  0
POINT
  5
A2F8
  8
DEFPOINTS
  6
BYBLOCK
 62
     0
 10
17901.694060849099
 20
-6862.3381015241393
 30
0.0
  0
ENDBLK
  5
A2F9
  8
0
  0
BLOCK
  8
0
  2
*D13
 70
     1
 10
0.0
 20
0.0
 30
0.0
  3
*D13
  1

  0
LINE
  5
A2FD
  8
0
  6
BYBLOCK
 10
12115.611855376719
 20
-6912.7733814722533
 30
0.0
 11
12115.611855376719
 21
-6807.3381015241393
 31
0.0
  0
LINE
  5
A2FE
  8
0
  6
BYBLOCK
 10
13280.611855376719
 20
-8394.9068651347916
 30
0.0
 11
13280.611855376719
 21
-6807.3381015241393
 31
0.0
  0
LINE
  5
A2FF
  8
0
  6
BYBLOCK
 10
12225.61185537671
 20
-6862.3381015241393
 30
0.0
 11
13170.61185537671
 21
-6862.3381015241393
 31
0.0
  0
INSERT
  5
A300
  8
0
  6
BYBLOCK
  2
_OPEN
 10
12115.611855376719
 20
-6862.3381015241393
 30
0.0
 41
110.0
 42
110.0
 43
110.0
 50
180.0
  0
INSERT
  5
A301
  8
0
  6
BYBLOCK
  2
_OPEN
 10
13280.611855376719
 20
-6862.3381015241393
 30
0.0
 41
110.0
 42
110.0
 43
110.0
  0
TEXT
  5
A302
  8
SP
 10
12455.253890365941
 20
-6807.3381015241393
 30
0.0
 40
137.5
  1
1165
 51
15.0
  0
POINT
  5
A303
  8
DEFPOINTS
  6
BYBLOCK
 62
     0
 10
12115.611855376719
 20
-6967.7733814722533
 30
0.0
  0
POINT
  5
A304
  8
DEFPOINTS
  6
BYBLOCK
 62
     0
 10
13280.611855376719
 20
-8449.9068651347898
 30
0.0
  0
POINT
  5
A305
  8
DEFPOINTS
  6
BYBLOCK
 62
     0
 10
13280.611855376719
 20
-6862.3381015241393
 30
0.0
  0
ENDBLK
  5
A306
  8
0
  0
BLOCK
  8
0
  2
*D14
 70
     1
 10
0.0
 20
0.0
 30
0.0
  3
*D14
  1

  0
LINE
  5
A30A
  8
0
  6
BYBLOCK
 10
12115.611855376719
 20
-6912.7733814722533
 30
0.0
 11
12115.611855376719
 21
-6807.3381015241393
 31
0.0
  0
LINE
  5
A30B
  8
0
  6
BYBLOCK
 10
10561.611855376719
 20
-8523.9068651347879
 30
0.0
 11
10561.611855376719
 21
-6807.3381015241393
 31
0.0
  0
LINE
  5
A30C
  8
0
  6
BYBLOCK
 10
12005.61185537671
 20
-6862.3381015241393
 30
0.0
 11
10671.61185537671
 21
-6862.3381015241393
 31
0.0
  0
INSERT
  5
A30D
  8
0
  6
BYBLOCK
  2
_OPEN
 10
12115.611855376719
 20
-6862.3381015241393
 30
0.0
 41
110.0
 42
110.0
 43
110.0
  0
INSERT
  5
A30E
  8
0
  6
BYBLOCK
  2
_OPEN
 10
10561.611855376719
 20
-6862.3381015241393
 30
0.0
 41
110.0
 42
110.0
 43
110.0
 50
180.0
  0
TEXT
  5
A30F
  8
SP
 10
11085.118228352359
 20
-6807.3381015241393
 30
0.0
 40
137.5
  1
1554
 51
15.0
  0
POINT
  5
A310
  8
DEFPOINTS
  6
BYBLOCK
 62
     0
 10
12115.611855376719
 20
-6967.7733814722533
 30
0.0
  0
POINT
  5
A311
  8
DEFPOINTS
  6
BYBLOCK
 62
     0
 10
10561.611855376719
 20
-8578.9068651347879
 30
0.0
  0
POINT
  5
A312
  8
DEFPOINTS
  6
BYBLOCK
 62
     0
 10
10561.611855376719
 20
-6862.3381015241393
 30
0.0
  0
ENDBLK
  5
A313
  8
0
  0
BLOCK
  8
0
  2
*D15
 70
     1
 10
0.0
 20
0.0
 30
0.0
  3
*D15
  1

  0
LINE
  5
A317
  8
0
  6
BYBLOCK
 10
13335.611855376719
 20
-8518.9068651347879
 30
0.0
 11
13691.95700481425
 21
-8518.9068651347879
 31
0.0
  0
LINE
  5
A318
  8
0
  6
BYBLOCK
 10
13335.61185537671
 20
-10368.906865134781
 30
0.0
 11
13691.95700481425
 21
-10368.906865134781
 31
0.0
  0
LINE
  5
A319
  8
0
  6
BYBLOCK
 10
13636.95700481424
 20
-8628.9068651347861
 30
0.0
 11
13636.95700481424
 21
-10258.906865134781
 31
0.0
  0
INSERT
  5
A31A
  8
0
  6
BYBLOCK
  2
_OPEN
 10
13636.95700481424
 20
-8518.9068651347879
 30
0.0
 41
110.0
 42
110.0
 43
110.0
 50
90.0
  0
INSERT
  5
A31B
  8
0
  6
BYBLOCK
  2
_OPEN
 10
13636.95700481424
 20
-10368.906865134781
 30
0.0
 41
110.0
 42
110.0
 43
110.0
 50
270.0
  0
TEXT
  5
A31C
  8
SP
 10
13581.95700481424
 20
-9699.6250192922998
 30
0.0
 40
137.5
  1
1850
 50
90.0
 51
15.0
  0
POINT
  5
A31D
  8
DEFPOINTS
  6
BYBLOCK
 62
     0
 10
13280.611855376719
 20
-8518.9068651347879
 30
0.0
  0
POINT
  5
A31E
  8
DEFPOINTS
  6
BYBLOCK
 62
     0
 10
13280.611855376719
 20
-10368.906865134781
 30
0.0
  0
POINT
  5
A31F
  8
DEFPOINTS
  6
BYBLOCK
 62
     0
 10
13636.95700481424
 20
-10368.906865134781
 30
0.0
  0
ENDBLK
  5
A320
  8
0
  0
BLOCK
  8
0
  2
*D16
 70
     1
 10
0.0
 20
0.0
 30
0.0
  3
*D16
  1

  0
LINE
  5
A324
  8
0
  6
BYBLOCK
 10
13335.61185537671
 20
-10368.906865134781
 30
0.0
 11
14051.836817934831
 21
-10368.906865134781
 31
0.0
  0
LINE
  5
A325
  8
0
  6
BYBLOCK
 10
13481.053249401781
 20
-8447.9068651347879
 30
0.0
 11
14051.836817934831
 21
-8447.9068651347879
 31
0.0
  0
LINE
  5
A326
  8
0
  6
BYBLOCK
 10
13996.83681793484
 20
-10258.906865134781
 30
0.0
 11
13996.83681793484
 21
-8557.9068651347861
 31
0.0
  0
INSERT
  5
A327
  8
0
  6
BYBLOCK
  2
_OPEN
 10
13996.83681793484
 20
-10368.906865134781
 30
0.0
 41
110.0
 42
110.0
 43
110.0
 50
270.0
  0
INSERT
  5
A328
  8
0
  6
BYBLOCK
  2
_OPEN
 10
13996.83681793484
 20
-8447.9068651347879
 30
0.0
 41
110.0
 42
110.0
 43
110.0
 50
90.0
  0
TEXT
  5
A329
  8
SP
 10
13941.83681793484
 20
-9641.4434015741354
 30
0.0
 40
137.5
  1
1921
 50
90.0
 51
15.0
  0
POINT
  5
A32A
  8
DEFPOINTS
  6
BYBLOCK
 62
     0
 10
13280.611855376719
 20
-10368.906865134781
 30
0.0
  0
POINT
  5
A32B
  8
DEFPOINTS
  6
BYBLOCK
 62
     0
 10
13426.053249401781
 20
-8447.9068651347879
 30
0.0
  0
POINT
  5
A32C
  8
DEFPOINTS
  6
BYBLOCK
 62
     0
 10
13996.83681793484
 20
-8447.9068651347879
 30
0.0
  0
ENDBLK
  5
A32D
  8
0
  0
BLOCK
  8
0
  2
*D17
 70
     1
 10
0.0
 20
0.0
 30
0.0
  3
*D17
  1

  0
LINE
  5
A331
  8
0
  6
BYBLOCK
 10
13230.61185537671
 20
-10597.906865134781
 30
0.0
 11
14411.716631055429
 21
-10597.906865134781
 31
0.0
  0
LINE
  5
A332
  8
0
  6
BYBLOCK
 10
13481.053249401781
 20
-8447.9068651347879
 30
0.0
 11
14411.716631055429
 21
-8447.9068651347879
 31
0.0
  0
LINE
  5
A333
  8
0
  6
BYBLOCK
 10
14356.716631055429
 20
-10487.906865134781
 30
0.0
 11
14356.716631055429
 21
-8557.9068651347861
 31
0.0
  0
INSERT
  5
A334
  8
0
  6
BYBLOCK
  2
_OPEN
 10
14356.716631055429
 20
-10597.906865134781
 30
0.0
 41
110.0
 42
110.0
 43
110.0
 50
270.0
  0
INSERT
  5
A335
  8
0
  6
BYBLOCK
  2
_OPEN
 10
14356.716631055429
 20
-8447.9068651347879
 30
0.0
 41
110.0
 42
110.0
 43
110.0
 50
90.0
  0
TEXT
  5
A336
  8
SP
 10
14301.716631055429
 20
-9763.7123707849732
 30
0.0
 40
137.5
  1
2150
 50
90.0
 51
15.0
  0
POINT
  5
A337
  8
DEFPOINTS
  6
BYBLOCK
 62
     0
 10
13175.61185537671
 20
-10597.906865134781
 30
0.0
  0
POINT
  5
A338
  8
DEFPOINTS
  6
BYBLOCK
 62
     0
 10
13426.053249401781
 20
-8447.9068651347879
 30
0.0
  0
POINT
  5
A339
  8
DEFPOINTS
  6
BYBLOCK
 62
     0
 10
14356.716631055429
 20
-8447.9068651347879
 30
0.0
  0
ENDBLK
  5
A33A
  8
0
  0
BLOCK
  8
0
  2
*D18
 70
     1
 10
0.0
 20
0.0
 30
0.0
  3
*D18
  1

  0
LINE
  5
A33E
  8
0
  6
BYBLOCK
 10
12039.61185537671
 20
-7155.9068651347879
 30
0.0
 11
14411.716631055429
 21
-7155.9068651347879
 31
0.0
  0
LINE
  5
A33F
  8
0
  6
BYBLOCK
 10
13481.053249401781
 20
-8447.9068651347879
 30
0.0
 11
14411.716631055429
 21
-8447.9068651347879
 31
0.0
  0
LINE
  5
A340
  8
0
  6
BYBLOCK
 10
14356.716631055429
 20
-7265.9068651347879
 30
0.0
 11
14356.716631055429
 21
-8337.9068651347879
 31
0.0
  0
INSERT
  5
A341
  8
0
  6
BYBLOCK
  2
_OPEN
 10
14356.716631055429
 20
-7155.9068651347879
 30
0.0
 41
110.0
 42
110.0
 43
110.0
 50
90.0
  0
INSERT
  5
A342
  8
0
  6
BYBLOCK
  2
_OPEN
 10
14356.716631055429
 20
-8447.9068651347879
 30
0.0
 41
110.0
 42
110.0
 43
110.0
 50
270.0
  0
TEXT
  5
A343
  8
SP
 10
14301.716631055429
 20
-8057.6250192922998
 30
0.0
 40
137.5
  1
1292
 50
90.0
 51
15.0
  0
POINT
  5
A344
  8
DEFPOINTS
  6
BYBLOCK
 62
     0
 10
11984.61185537671
 20
-7155.9068651347879
 30
0.0
  0
POINT
  5
A345
  8
DEFPOINTS
  6
BYBLOCK
 62
     0
 10
13426.053249401781
 20
-8447.9068651347879
 30
0.0
  0
POINT
  5
A346
  8
DEFPOINTS
  6
BYBLOCK
 62
     0
 10
14356.716631055429
 20
-8447.9068651347879
 30
0.0
  0
ENDBLK
  5
A347
  8
0
  0
BLOCK
  8
0
  2
*D19
 70
     1
 10
0.0
 20
0.0
 30
0.0
  3
*D19
  1

  0
LINE
  5
A34B
  8
0
  6
BYBLOCK
 10
16721.694060849091
 20
-6537.48237652436
 30
0.0
 11
16721.694060849091
 21
-6511.9862275150372
 31
0.0
  0
LINE
  5
A34C
  8
0
  6
BYBLOCK
 10
14971.69406084909
 20
-7912.9068651347898
 30
0.0
 11
14971.69406084909
 21
-6511.9862275150372
 31
0.0
  0
LINE
  5
A34D
  8
0
  6
BYBLOCK
 10
16611.694060849091
 20
-6566.9862275150372
 30
0.0
 11
15081.6940608491
 21
-6566.9862275150372
 31
0.0
  0
INSERT
  5
A34E
  8
0
  6
BYBLOCK
  2
_OPEN
 10
16721.694060849091
 20
-6566.9862275150372
 30
0.0
 41
110.0
 42
110.0
 43
110.0
  0
INSERT
  5
A34F
  8
0
  6
BYBLOCK
  2
_OPEN
 10
14971.69406084909
 20
-6566.9862275150372
 30
0.0
 41
110.0
 42
110.0
 43
110.0
 50
180.0
  0
TEXT
  5
A350
  8
SP
 10
15519.485176240711
 20
-6453.0576560864656
 30
0.0
 40
137.5
  1
(1750)
 51
15.0
  0
POINT
  5
A351
  8
DEFPOINTS
  6
BYBLOCK
 62
     0
 10
16721.694060849091
 20
-6592.48237652436
 30
0.0
  0
POINT
  5
A352
  8
DEFPOINTS
  6
BYBLOCK
 62
     0
 10
14971.69406084909
 20
-7967.9068651347898
 30
0.0
  0
POINT
  5
A353
  8
DEFPOINTS
  6
BYBLOCK
 62
     0
 10
14971.69406084909
 20
-6566.9862275150372
 30
0.0
  0
ENDBLK
  5
A354
  8
0
  0
BLOCK
  8
0
  2
*D20
 70
     1
 10
0.0
 20
0.0
 30
0.0
  3
*D20
  1

  0
LINE
  5
A358
  8
0
  6
BYBLOCK
 10
16721.694060849091
 20
-6537.48237652436
 30
0.0
 11
16721.694060849091
 21
-6511.9862275150372
 31
0.0
  0
LINE
  5
A359
  8
0
  6
BYBLOCK
 10
18141.694060849091
 20
-8472.9068651347879
 30
0.0
 11
18141.694060849091
 21
-6511.9862275150372
 31
0.0
  0
LINE
  5
A35A
  8
0
  6
BYBLOCK
 10
16831.694060849091
 20
-6566.9862275150372
 30
0.0
 11
18031.694060849091
 21
-6566.9862275150372
 31
0.0
  0
INSERT
  5
A35B
  8
0
  6
BYBLOCK
  2
_OPEN
 10
16721.694060849091
 20
-6566.9862275150372
 30
0.0
 41
110.0
 42
110.0
 43
110.0
 50
180.0
  0
INSERT
  5
A35C
  8
0
  6
BYBLOCK
  2
_OPEN
 10
18141.694060849091
 20
-6566.9862275150372
 30
0.0
 41
110.0
 42
110.0
 43
110.0
  0
TEXT
  5
A35D
  8
SP
 10
17104.485176240709
 20
-6453.0576560864656
 30
0.0
 40
137.5
  1
(1420)
 51
15.0
  0
POINT
  5
A35E
  8
DEFPOINTS
  6
BYBLOCK
 62
     0
 10
16721.694060849091
 20
-6592.48237652436
 30
0.0
  0
POINT
  5
A35F
  8
DEFPOINTS
  6
BYBLOCK
 62
     0
 10
18141.694060849091
 20
-8527.9068651347879
 30
0.0
  0
POINT
  5
A360
  8
DEFPOINTS
  6
BYBLOCK
 62
     0
 10
18141.694060849091
 20
-6566.9862275150372
 30
0.0
  0
ENDBLK
  5
A361
  8
0
  0
BLOCK
  8
0
  2
_DOT
 70
     0
 10
0.0
 20
0.0
 30
0.0
  3
_DOT
  1

  0
POLYLINE
  5
A37A
  8
0
  6
BYBLOCK
 62
     0
 66
     1
 10
0.0
 20
0.0
 30
0.0
 70
     1
 40
0.5
 41
0.5
  0
VERTEX
  5
A3B9
  8
0
  6
BYBLOCK
 62
     0
 10
-0.25
 20
0.0
 30
0.0
 42
1.0
  0
VERTEX
  5
A3BA
  8
0
  6
BYBLOCK
 62
     0
 10
0.25
 20
0.0
 30
0.0
 42
1.0
  0
SEQEND
  5
A3BB
  8
0
  6
BYBLOCK
 62
     0
  0
LINE
  5
A37E
  8
0
  6
BYBLOCK
 62
     0
 10
-0.5
 20
0.0
 30
0.0
 11
-1.0
 21
0.0
 31
0.0
  0
ENDBLK
  5
A37F
  8
0
  0
BLOCK
  8
0
  2
*D22
 70
     1
 10
0.0
 20
0.0
 30
0.0
  3
*D22
  1

  0
LINE
  5
A382
  8
0
  6
BYBLOCK
 10
13230.61185537671
 20
-10617.906865134781
 30
0.0
 11
14415.453482743649
 21
-10617.906865134781
 31
0.0
  0
LINE
  5
A383
  8
0
  6
BYBLOCK
 10
13230.61185537671
 20
-10797.906865134781
 30
0.0
 11
14415.453482743649
 21
-10797.906865134781
 31
0.0
  0
LINE
  5
A384
  8
0
  6
BYBLOCK
 10
14360.453482743649
 20
-10507.906865134781
 30
0.0
 11
14360.453482743649
 21
-10397.906865134781
 31
0.0
  0
LINE
  5
A385
  8
0
  6
BYBLOCK
 10
14360.453482743649
 20
-10907.906865134781
 30
0.0
 11
14360.453482743649
 21
-11465.00015949053
 31
0.0
  0
LINE
  5
A386
  8
0
  6
BYBLOCK
 10
14360.453482743649
 20
-10617.906865134781
 30
0.0
 11
14360.453482743649
 21
-10797.906865134781
 31
0.0
  0
INSERT
  5
A387
  8
0
  6
BYBLOCK
  2
_DOT
 10
14360.453482743649
 20
-10617.906865134781
 30
0.0
 41
110.0
 42
110.0
 43
110.0
 50
270.0
  0
INSERT
  5
A388
  8
0
  6
BYBLOCK
  2
_OPEN
 10
14360.453482743649
 20
-10797.906865134781
 30
0.0
 41
110.0
 42
110.0
 43
110.0
 50
90.0
  0
TEXT
  5
A389
  8
SP
 10
14305.45348274366
 20
-11431.69547599398
 30
0.0
 40
137.5
  1
180
 50
90.0
 51
15.0
  0
POINT
  5
A38A
  8
DEFPOINTS
  6
BYBLOCK
 62
     0
 10
13175.61185537671
 20
-10617.906865134781
 30
0.0
  0
POINT
  5
A38B
  8
DEFPOINTS
  6
BYBLOCK
 62
     0
 10
13175.61185537671
 20
-10797.906865134781
 30
0.0
  0
POINT
  5
A38C
  8
DEFPOINTS
  6
BYBLOCK
 62
     0
 10
14360.453482743649
 20
-10797.906865134781
 30
0.0
  0
ENDBLK
  5
A38D
  8
0
  0
BLOCK
  8
0
  2
_NONE
 70
     0
 10
0.0
 20
0.0
 30
0.0
  3
_NONE
  1

  0
CIRCLE
  5
A391
  8
0
  6
BYBLOCK
 62
     0
 10
0.0
 20
0.0
 30
0.0
 40
0.25
  0
ENDBLK
  5
A392
  8
0
  0
BLOCK
  8
0
  2
*D24
 70
     1
 10
0.0
 20
0.0
 30
0.0
  3
*D24
  1

  0
LINE
  5
A3BC
  8
SP
 10
14360.453482743649
 20
-10423.59550313571
 30
0.0
 11
14360.453482743649
 21
-10533.59550313571
 31
0.0
  0
LINE
  5
A3BD
  8
SP
 10
14360.453482743649
 20
-10403.59550313571
 30
0.0
 11
14360.453482743649
 21
-10293.59550313571
 31
0.0
  0
TEXT
  8
0
  40
137.5
  5
A3C3
  72
0
  71
0
 10
14537.2
 20
-10657.0
 30
0.000000
  1
(20)
  0
LINE
  5
A3BF
  8
SP
 10
14360.453482743649
 20
-10423.59550313571
 30
0.0
 11
14360.453482743649
 21
-10403.59550313571
 31
0.0
  0
POINT
  5
A3C0
  8
DEFPOINTS
 62
     0
 10
13175.61185537671
 20
-10423.59550313571
 30
0.0
  0
POINT
  5
A3C1
  8
DEFPOINTS
 62
     0
 10
13175.61185537671
 20
-10403.59550313571
 30
0.0
  0
POINT
  5
A3C2
  8
DEFPOINTS
 62
     0
 10
14360.453482743649
 20
-10403.59550313571
 30
0.0
  0
ENDBLK
  5
A39C
  8
0
  0
ENDSEC
  0
SECTION
  2
ENTITIES
  0
LINE
  5
5648
  8
CT
 10
10460.75820327457
 20
-8253.5955031357116
 30
0.0
 11
13426.053249401781
 21
-8253.5955031357116
 31
0.0
  0
LINE
  5
564B
  8
FUTO
 10
13175.61185537671
 20
-10223.59550313571
 30
0.0
 11
9575.6118553767192
 21
-10223.595503135701
 31
0.0
  0
LINE
  5
564C
  8
FUTO
 10
13175.61185537671
 20
-10403.59550313571
 30
0.0
 11
9575.6118553767192
 21
-10403.59550313571
 31
0.0
  0
LINE
  5
564F
  8
FUTO
 10
12115.611855376719
 20
-10064.495500159341
 30
0.0
 11
13280.611855376719
 21
-10174.59550313571
 31
0.0
  0
ARC
  5
5657
  8
FUTO
 10
11984.61185537671
 20
-8384.5955031357116
 30
0.0
 40
1423.0
 50
175.0817450119149
 51
180.0
  0
ARC
  5
565B
  8
FUTO
 10
12246.61185537671
 20
-8384.5955031357116
 30
0.0
 40
1685.0
 50
180.0
 51
265.54105111906301
  0
LINE
  5
565C
  8
CT
 10
12115.611855376719
 20
-10603.59550313571
 30
0.0
 11
12115.611855376719
 21
-6773.4620194731779
 31
0.0
  0
LINE
  5
566D
  8
FUTO
 10
13215.61185537671
 20
-10168.4525845147
 30
0.0
 11
13215.611855376719
 21
-8324.5955031357098
 31
0.0
  0
LINE
  5
566E
  8
FUTO
 10
13280.611855376719
 20
-10243.59550313571
 30
0.0
 11
13280.611855376719
 21
-8255.5955031357134
 31
0.0
  0
LINE
  5
5674
  8
FUTO
 10
13169.30748725804
 20
-8324.5955031357116
 30
0.0
 11
13280.611855376719
 21
-8324.5955031357116
 31
0.0
  0
CIRCLE
  5
663A
  8
SL
 10
12115.611855376719
 20
-8253.5955031357116
 30
0.0
 40
400.0
  0
ARC
  5
67DA
  8
FUTO
 10
11984.61185537671
 20
-8384.5955031357116
 30
0.0
 40
1423.0
 50
90.0
 51
174.3538958797447
  0
ARC
  5
67E7
  8
FUTO
 10
12226.111855376719
 20
-8143.0955031357107
 30
0.0
 40
960.5
 50
349.10766465910552
 51
0.0
  0
ARC
  5
6938
  8
FUTO
 10
12005.11185537671
 20
-8143.0955031357107
 30
0.0
 40
1181.4999999999991
 50
0.0
 51
90.0
  0
LINE
  5
7990
  8
FUTO
 10
13175.61185537671
 20
-10223.59550313571
 30
0.0
 11
13175.61185537671
 21
-10403.59550313571
 31
0.0
  0
LINE
  5
7991
  8
FUTO
 10
9575.6118553767192
 20
-10223.59550313571
 30
0.0
 11
9575.6118553767192
 21
-10403.59550313571
 31
0.0
  0
LINE
  5
7AB6
  8
FUTO
 10
10315.611855376719
 20
-10153.595503135701
 30
0.0
 11
10245.61185537671
 21
-10153.595503135701
 31
0.0
  0
LINE
  5
7AB7
  8
FUTO
 10
9615.6118553767192
 20
-10153.595503135701
 30
0.0
 11
9615.6118553767192
 21
-10223.595503135701
 31
0.0
  0
LINE
  5
7AB8
  8
FUTO
 10
10315.611855376719
 20
-10153.595503135701
 30
0.0
 11
10315.611855376719
 21
-10223.595503135701
 31
0.0
  0
LINE
  5
7AC0
  8
FUTO
 10
9695.6118553767192
 20
-3933.8554527741981
 30
0.0
 11
10235.611855376719
 21
-3933.8554527741981
 31
0.0
  0
LINE
  5
7AC6
  8
FUTO
 10
10235.611855376719
 20
-4837.3554527741981
 30
0.0
 11
9695.6118553767192
 21
-4837.3554527741981
 31
0.0
  0
LINE
  5
7AFE
  8
FUTO
 10
9923.1118553767192
 20
-4903.8554527741981
 30
0.0
 11
9923.1118553767192
 21
-4837.3554527741981
 31
0.0
  0
LINE
  5
7AFF
  8
FUTO
 10
10008.111855376719
 20
-4837.3554527741981
 30
0.0
 11
10008.111855376719
 21
-4903.8554527741981
 31
0.0
  0
ARC
  5
7B35
  8
FUTO
 10
9965.611855376721
 20
-9873.595503135708
 30
0.0
 40
287.5
 50
329.65273451599268
 51
210.3472655873382
  0
LINE
  5
7B36
  8
CT
 10
9965.611855376721
 20
-10603.59550313571
 30
0.0
 11
9965.611855376721
 21
-9490.4331831357085
 31
0.0
  0
LINE
  5
7B38
  8
CT
 10
9645.611855376721
 20
-9873.595503135708
 30
0.0
 11
10285.61185537671
 21
-9873.595503135708
 31
0.0
  0
LINE
  5
7B3B
  8
FUTO
 10
9695.2431353767206
 20
-10032.3489661357
 30
0.0
 11
9717.5053783767216
 21
-10018.8519171357
 31
0.0
  0
LINE
  5
7B3C
  8
FUTO
 10
9685.6118553767192
 20
-10153.595503135701
 30
0.0
 11
9685.6118553767192
 21
-10049.451295135699
 31
0.0
  0
ARC
  5
7B3E
  8
FUTO
 10
9705.6118553767192
 20
-10049.451295135699
 30
0.0
 40
20.0
 50
121.227401
 51
180.0
  0
LINE
  5
7B4A
  8
FUTO
 10
10245.61185537671
 20
-10153.595503135701
 30
0.0
 11
10245.61185537671
 21
-10049.451295135699
 31
0.0
  0
LINE
  5
7B57
  8
FUTO
 10
10235.980576376711
 20
-10032.3489661357
 30
0.0
 11
10213.718333029119
 21
-10018.851916924959
 31
0.0
  0
ARC
  5
7B5A
  8
FUTO
 10
10225.61185537671
 20
-10049.451295135699
 30
0.0
 40
20.0
 50
0.0
 51
58.772598999999992
  0
CIRCLE
  5
7B75
  8
SL
 10
9965.611855376721
 20
-9873.595503135708
 30
0.0
 40
140.0
  0
LINE
  5
7B82
  8
FUTO
 10
9685.6118553767192
 20
-10153.595503135701
 30
0.0
 11
9615.6118553767192
 21
-10153.595503135701
 31
0.0
  0
LINE
  5
8CEA
  8
CT
 10
14971.69406084909
 20
-8253.5955031357153
 30
0.0
 11
18174.17843685405
 21
-8253.5955031357116
 31
0.0
  0
LINE
  5
8D2E
  8
CT
 10
16721.694060849091
 20
-6773.462019473176
 30
0.0
 11
16721.694060849091
 21
-10603.59550313571
 31
0.0
  0
LINE
  5
8D2F
  8
FUTO
 10
17901.694060849099
 20
-10178.59550313571
 30
0.0
 11
17901.694060849099
 21
-8320.5955031357116
 31
0.0
  0
LINE
  5
8D30
  8
FUTO
 10
17970.694060849091
 20
-10243.595503135701
 30
0.0
 11
17970.694060849091
 21
-8255.5955031357116
 31
0.0
  0
LINE
  5
8D31
  8
FUTO
 10
15541.69406084909
 20
-10178.59550313571
 30
0.0
 11
15541.6940608491
 21
-8320.595503135708
 31
0.0
  0
LINE
  5
8D32
  8
FUTO
 10
15472.69406084909
 20
-10243.595503135701
 30
0.0
 11
15472.69406084909
 21
-8255.5955031357116
 31
0.0
  0
LINE
  5
8D34
  8
FUTO
 10
17980.694060849091
 20
-10223.595503135701
 30
0.0
 11
17970.694060849091
 21
-10223.595503135701
 31
0.0
  0
LINE
  5
8D35
  8
FUTO
 10
17970.694060849091
 20
-8583.5955031357134
 30
0.0
 11
18141.694060849091
 21
-8583.5955031357134
 31
0.0
  0
LINE
  5
8D38
  8
FUTO
 10
17970.694060849091
 20
-8333.5955031357098
 30
0.0
 11
18141.694060849091
 21
-8333.5955031357116
 31
0.0
  0
LINE
  5
8D3D
  8
FUTO
 10
17980.694060849091
 20
-10403.59550313571
 30
0.0
 11
15130.69406084909
 21
-10403.59550313571
 31
0.0
  0
LINE
  5
8D3E
  8
FUTO
 10
15472.69406084909
 20
-8255.5955031357116
 30
0.0
 11
17970.694060849091
 21
-8255.5955031357116
 31
0.0
  0
LINE
  5
8D3F
  8
FUTO
 10
15541.6940608491
 20
-8320.595503135708
 30
0.0
 11
17901.694060849099
 21
-8320.5955031357116
 31
0.0
  0
LINE
  5
8D59
  8
FUTO
 10
15472.69406084909
 20
-8593.5955031357134
 30
0.0
 11
15307.6940608491
 21
-8593.5955031357134
 31
0.0
  0
LINE
  5
8D5A
  8
FUTO
 10
15472.69406084909
 20
-8343.5955031357062
 30
0.0
 11
15307.6940608491
 21
-8343.5955031357134
 31
0.0
  0
LINE
  5
8D5F
  8
FUTO
 10
15130.69406084909
 20
-10223.59550313571
 30
0.0
 11
15130.69406084909
 21
-10403.59550313571
 31
0.0
  0
LINE
  5
8D73
  8
FUTO
 10
15307.69406084909
 20
-8343.5955031357134
 30
0.0
 11
15307.69406084909
 21
-8593.5955031357134
 31
0.0
  0
LINE
  5
8D75
  8
FUTO
 10
15541.69406084909
 20
-8255.5955031357116
 30
0.0
 11
15541.6940608491
 21
-6961.5955031357107
 31
0.0
  0
LINE
  5
8D8E
  8
FUTO
 10
15161.6940608491
 20
-8196.0955031357116
 30
0.0
 11
15541.69406084909
 21
-8196.0955031357134
 31
0.0
  0
LINE
  5
8D8F
  8
FUTO
 10
15161.6940608491
 20
-8311.0955031357116
 30
0.0
 11
15472.69406084909
 21
-8311.0955031357116
 31
0.0
  0
LINE
  5
8D99
  8
FUTO
 10
17901.694060849099
 20
-8255.5955031357116
 30
0.0
 11
17901.694060849099
 21
-6961.5955031357107
 31
0.0
  0
LINE
  5
8D9A
  8
FUTO
 10
17980.694060849091
 20
-10223.59550313571
 30
0.0
 11
17980.694060849091
 21
-10403.59550313571
 31
0.0
  0
LINE
  5
8DA9
  8
FUTO
 10
18141.694060849091
 20
-8333.5955031357116
 30
0.0
 11
18141.694060849091
 21
-8583.5955031357134
 31
0.0
  0
LINE
  5
8DBD
  8
FUTO
 10
15472.69406084909
 20
-10243.595503135701
 30
0.0
 11
17970.694060849091
 21
-10243.595503135701
 31
0.0
  0
LINE
  5
8DBE
  8
FUTO
 10
15541.69406084909
 20
-10178.59550313571
 30
0.0
 11
17901.694060849099
 21
-10178.59550313571
 31
0.0
  0
LINE
  5
8DC8
  8
SP
 10
16721.694060849091
 20
-6398.1710145252837
 30
0.0
 11
16721.694060849091
 21
-6343.1710145252828
 31
0.0
  0
LINE
  5
98B1
  8
SL
 10
14971.69406084909
 20
-7773.5955031357134
 30
0.0
 11
14971.6940608491
 21
-10093.59550313571
 31
0.0
  0
LINE
  5
98B2
  8
SL
 10
14971.69406084909
 20
-7773.5955031357134
 30
0.0
 11
15211.69406084909
 21
-7773.5955031357134
 31
0.0
  0
LINE
  5
98B4
  8
SL
 10
15211.69406084909
 20
-10093.59550313571
 30
0.0
 11
14971.69406084909
 21
-10093.59550313571
 31
0.0
  0
LINE
  5
98B5
  8
SL
 10
15211.69406084909
 20
-7773.5955031357134
 30
0.0
 11
15211.69406084909
 21
-7823.5955031357153
 31
0.0
  0
LINE
  5
98B6
  8
SL
 10
15021.6940608491
 20
-7853.5955031357144
 30
0.0
 11
15161.6940608491
 21
-7853.595503135718
 31
0.0
  0
LINE
  5
98B7
  8
SL
 10
15021.6940608491
 20
-8653.5955031357171
 30
0.0
 11
15161.69406084909
 21
-8653.5955031357171
 31
0.0
  0
LINE
  5
98B8
  8
SL
 10
15161.6940608491
 20
-9733.5955031357134
 30
0.0
 11
15021.6940608491
 21
-9733.5955031357116
 31
0.0
  0
LINE
  5
98B9
  8
SL
 10
15161.6940608491
 20
-10013.59550313571
 30
0.0
 11
15021.6940608491
 21
-10013.59550313571
 31
0.0
  0
LINE
  5
98BA
  8
SL
 10
15021.6940608491
 20
-7853.5955031357144
 30
0.0
 11
15021.6940608491
 21
-10013.595503135701
 31
0.0
  0
LINE
  5
98BC
  8
SL
 10
15161.6940608491
 20
-7853.5955031357144
 30
0.0
 11
15161.6940608491
 21
-10013.595503135701
 31
0.0
  0
LINE
  5
98BF
  8
SL
 10
15211.69406084909
 20
-10043.59550313571
 30
0.0
 11
15211.69406084909
 21
-10093.59550313571
 31
0.0
  0
LINE
  5
98C0
  8
FUTO
 10
15541.6940608491
 20
-8320.595503135708
 30
0.0
 11
17901.694060849099
 21
-10178.59550313571
 31
0.0
  0
LINE
  5
98C1
  8
FUTO
 10
15541.69406084909
 20
-10178.59550313571
 30
0.0
 11
17901.694060849099
 21
-8320.5955031357116
 31
0.0
  0
LINE
  5
98C4
  8
FUTO
 10
10235.611855376719
 20
-4837.3554527741981
 30
0.0
 11
10235.611855376719
 21
-3933.8554527741981
 31
0.0
  0
LINE
  5
98C5
  8
FUTO
 10
9695.6118553767192
 20
-4837.3554527741981
 30
0.0
 11
9695.6118553767192
 21
-3933.8554527741981
 31
0.0
  0
LINE
  5
98C6
  8
FUTO
 10
15228.19406084909
 20
-10143.595503135701
 30
0.0
 11
15472.69406084909
 21
-10143.59550313571
 31
0.0
  0
LINE
  5
98C7
  8
FUTO
 10
15228.19406084909
 20
-9603.5955031357116
 30
0.0
 11
15472.69406084909
 21
-9603.5955031357116
 31
0.0
  0
LINE
  5
98C8
  8
CT
 10
14971.69406084909
 20
-9873.5955031357098
 30
0.0
 11
15472.69406084909
 21
-9873.5955031357116
 31
0.0
  0
LINE
  5
98CA
  8
FUTO
 10
15228.19406084909
 20
-10143.595503135701
 30
0.0
 11
15228.19406084909
 21
-9603.5955031357116
 31
0.0
  0
LINE
  5
98CC
  8
FUTO
 10
15161.6940608491
 20
-9831.095503135708
 30
0.0
 11
15228.19406084909
 21
-9831.0955031357098
 31
0.0
  0
LINE
  5
98CD
  8
FUTO
 10
15228.19406084909
 20
-9916.0955031357116
 30
0.0
 11
15161.6940608491
 21
-9916.0955031357116
 31
0.0
  0
LINE
  5
98CF
  8
FUTO
 10
13175.61185537671
 20
-4934.8554527741981
 30
0.0
 11
9575.6118553767192
 21
-4934.8554527742044
 31
0.0
  0
LINE
  5
98D1
  8
FUTO
 10
13175.61185537671
 20
-4934.8554527741981
 30
0.0
 11
13175.61185537671
 21
-4523.8554527741962
 31
0.0
  0
LINE
  5
98D2
  8
FUTO
 10
13175.61185537671
 20
-2084.8554527741981
 30
0.0
 11
11055.61185537671
 21
-2084.8554527741981
 31
0.0
  0
LINE
  5
98D3
  8
FUTO
 10
11055.61185537671
 20
-2084.8554527741981
 30
0.0
 11
11055.61185537671
 21
-2163.8554527741971
 31
0.0
  0
LINE
  5
98D4
  8
FUTO
 10
9575.6118553767192
 20
-4934.8554527742044
 30
0.0
 11
9575.6118553767192
 21
-3734.8554527742031
 31
0.0
  0
LINE
  5
98D5
  8
FUTO
 10
9575.6118553767192
 20
-3734.8554527742031
 30
0.0
 11
10561.611855376719
 21
-3734.8554527742031
 31
0.0
  0
LINE
  5
98D6
  8
CT
 10
9965.611855376721
 20
-5093.855452774199
 30
0.0
 11
9965.611855376721
 21
-3914.2435164283561
 31
0.0
  0
LINE
  5
98D7
  8
CT
 10
12115.611855376719
 20
-1952.883355402096
 30
0.0
 11
12115.611855376719
 21
-5093.855452774199
 31
0.0
  0
LINE
  5
98D8
  8
CT
 10
13413.44488981197
 20
-3343.8554527741981
 30
0.0
 11
10428.53659128658
 21
-3343.8554527741981
 31
0.0
  0
LINE
  5
98DA
  8
SL
 10
12515.611855376719
 20
-5043.855452774199
 30
0.0
 11
9825.6118553767192
 21
-5043.855452774199
 31
0.0
  0
LINE
  5
98DB
  8
SL
 10
12515.611855376719
 20
-4903.8554527741981
 30
0.0
 11
9825.6118553767192
 21
-4903.8554527741981
 31
0.0
  0
LINE
  5
98DC
  8
SL
 10
12515.611855376719
 20
-4903.8554527741981
 30
0.0
 11
12515.611855376719
 21
-5043.855452774199
 31
0.0
  0
LINE
  5
98DD
  8
SL
 10
11715.61185537671
 20
-4903.8554527741981
 30
0.0
 11
11715.61185537671
 21
-5043.855452774199
 31
0.0
  0
LINE
  5
98DE
  8
SL
 10
10105.61185537671
 20
-5043.855452774199
 30
0.0
 11
10105.61185537671
 21
-4903.8554527741981
 31
0.0
  0
LINE
  5
98DF
  8
SL
 10
9825.6118553767192
 20
-5043.855452774199
 30
0.0
 11
9825.6118553767192
 21
-4903.8554527741981
 31
0.0
  0
LINE
  5
98E1
  8
SL
 10
12595.611855376719
 20
-5093.855452774199
 30
0.0
 11
9745.6118553767192
 21
-5093.855452774199
 31
0.0
  0
LINE
  5
98E3
  8
SL
 10
12595.611855376719
 20
-4853.8554527741971
 30
0.0
 11
12595.611855376719
 21
-5093.855452774199
 31
0.0
  0
LINE
  5
98E4
  8
SL
 10
9745.6118553767192
 20
-5093.855452774199
 30
0.0
 11
9745.6118553767192
 21
-4853.8554527741971
 31
0.0
  0
LINE
  5
98E5
  8
SL
 10
12595.611855376719
 20
-4853.8554527741971
 30
0.0
 11
12545.611855376719
 21
-4853.8554527741971
 31
0.0
  0
LINE
  5
98E8
  8
SL
 10
9795.611855376721
 20
-4853.8554527741971
 30
0.0
 11
9745.6118553767192
 21
-4853.8554527741971
 31
0.0
  0
CIRCLE
  5
98EB
  8
FUTO
 10
12115.611855376719
 20
-8253.5955031357116
 30
0.0
 40
900.0
  0
CIRCLE
  5
98EC
  8
FUTO
 10
12115.611855376719
 20
-8253.5955031357116
 30
0.0
 40
965.0
  0
LINE
  5
98ED
  8
FUTO
 10
13280.611855376719
 20
-4592.8554527741971
 30
0.0
 11
13280.611855376719
 21
-2094.8554527741981
 31
0.0
  0
LINE
  5
98EE
  8
FUTO
 10
10561.611855376719
 20
-4523.8554527741981
 30
0.0
 11
10561.611855376719
 21
-2163.8554527741971
 31
0.0
  0
LINE
  5
98EF
  8
FUTO
 10
13280.611855376719
 20
-2163.8554527741971
 30
0.0
 11
10561.611855376719
 21
-2163.8554527741971
 31
0.0
  0
LINE
  5
98F0
  8
FUTO
 10
13280.611855376719
 20
-4523.8554527741981
 30
0.0
 11
10561.611855376719
 21
-4523.8554527741981
 31
0.0
  0
LINE
  5
98F1
  8
FUTO
 10
13175.61185537671
 20
-2163.8554527741971
 30
0.0
 11
13175.61185537671
 21
-2084.8554527741981
 31
0.0
  0
LINE
  5
98F4
  8
FUTO
 10
13215.61185537671
 20
-4523.8554527741962
 30
0.0
 11
13215.611855376719
 21
-2163.8554527741971
 31
0.0
  0
DIMENSION
  5
9D6B
  8
SP
  2
*D1
 10
9230.0141032827396
 20
-4934.8554527742044
 30
0.0
 11
9117.5141032827378
 21
-4334.8554527742044
 31
0.0
 12
11813.211539178939
 22
1249.0183380518499
 32
0.0
 70
     0
 13
9575.6118553767192
 23
-3734.8554527742031
 33
0.0
 14
9575.6118553767192
 24
-4934.8554527742044
 34
0.0
 50
90.0
1001
ACAD
1000
DSTYLE
1002
{
1070
   140
1040
2.5
1070
    40
1040
50.0
1070
   147
1040
1.0
1070
   271
1070
     0
1002
}
  0
DIMENSION
  5
9D78
  8
SP
  2
*D2
 10
13175.61185537671
 20
-5457.8605155485857
 30
0.0
 11
11375.61185537671
 21
-5345.3605155485857
 31
0.0
 12
11813.211539178939
 22
1249.0183380518499
 32
0.0
 70
     0
 13
9575.6118553767192
 23
-4934.8554527742044
 33
0.0
 14
13175.61185537671
 24
-4934.8554527741981
 34
0.0
1001
ACAD
1000
DSTYLE
1002
{
1070
   140
1040
2.5
1070
    40
1040
50.0
1070
   147
1040
1.0
1070
   271
1070
     0
1002
}
  0
DIMENSION
  5
9D85
  8
SP
  2
*D3
 10
13710.157318959171
 20
-4934.8554527741981
 30
0.0
 11
13597.657318959171
 21
-3509.8554527741981
 31
0.0
 12
11813.211539178939
 22
1249.0183380518499
 32
0.0
 70
     0
 13
13175.61185537671
 23
-2084.8554527741981
 33
0.0
 14
13175.61185537671
 24
-4934.8554527741981
 34
0.0
 50
90.0
1001
ACAD
1000
DSTYLE
1002
{
1070
   140
1040
2.5
1070
    40
1040
50.0
1070
   147
1040
1.0
1070
   271
1070
     0
1002
}
  0
DIMENSION
  5
9D92
  8
SP
  2
*D4
 10
13175.61185537671
 20
-1788.887740533529
 30
0.0
 11
12115.611855376719
 21
-1676.387740533529
 31
0.0
 12
11813.211539178939
 22
1249.0183380518499
 32
0.0
 70
     0
 13
11055.61185537671
 23
-2084.8554527741981
 33
0.0
 14
13175.61185537671
 24
-2084.8554527741981
 34
0.0
1001
ACAD
1000
DSTYLE
1002
{
1070
   140
1040
2.5
1070
    40
1040
50.0
1070
   147
1040
1.0
1070
   271
1070
     0
1002
}
  0
DIMENSION
  5
9D9F
  8
SP
  2
*D5
 10
9575.6118553767192
 20
-1788.887740533529
 30
0.0
 11
10315.611855376719
 21
-1676.387740533529
 31
0.0
 12
11813.211539178939
 22
1249.0183380518499
 32
0.0
 70
     0
 13
11055.61185537671
 23
-2084.8554527741981
 33
0.0
 14
9575.6118553767192
 24
-3734.8554527742031
 34
0.0
1001
ACAD
1000
DSTYLE
1002
{
1070
   140
1040
2.5
1070
    40
1040
50.0
1070
   147
1040
1.0
1070
   271
1070
     0
1002
}
  0
DIMENSION
  5
9DD3
  8
SP
  2
*D6
 10
12115.611855376719
 20
-10916.58314125329
 30
0.0
 11
10845.611855376719
 21
-10804.08314125329
 31
0.0
 12
11813.211539178939
 22
829.01833805185015
 32
0.0
 70
     0
 13
9575.6118553767192
 23
-10603.59550313571
 33
0.0
 14
12115.611855376719
 24
-10603.59550313571
 34
0.0
1001
ACAD
1000
DSTYLE
1002
{
1070
   140
1040
2.5
1070
    40
1040
50.0
1070
   147
1040
1.0
1070
   271
1070
     0
1002
}
  0
DIMENSION
  5
9DE0
  8
SP
  2
*D7
 10
13175.61185537671
 20
-10916.58314125329
 30
0.0
 11
12645.61185537671
 21
-10804.08314125329
 31
0.0
 12
11813.211539178939
 22
829.01833805185015
 32
0.0
 70
     0
 13
12115.611855376719
 23
-10603.59550313571
 33
0.0
 14
13175.61185537671
 24
-10603.59550313571
 34
0.0
1001
ACAD
1000
DSTYLE
1002
{
1070
   140
1040
2.5
1070
    40
1040
50.0
1070
   147
1040
1.0
1070
   271
1070
     0
1002
}
  0
DIMENSION
  5
9DFA
  8
SP
  2
*D8
 10
16721.694060849091
 20
-10916.58314125329
 30
0.0
 11
15926.19406084909
 21
-10804.08314125329
 31
0.0
 12
11813.211539178939
 22
829.01833805185015
 32
0.0
 70
     0
 13
15130.69406084909
 23
-10603.59550313571
 33
0.0
 14
16721.694060849091
 24
-10603.59550313571
 34
0.0
1001
ACAD
1000
DSTYLE
1002
{
1070
   140
1040
2.5
1070
    40
1040
50.0
1070
   147
1040
1.0
1070
   271
1070
     0
1002
}
  0
DIMENSION
  5
9E07
  8
SP
  2
*D9
 10
17980.694060849091
 20
-10916.58314125329
 30
0.0
 11
17351.194060849091
 21
-10804.08314125329
 31
0.0
 12
11813.211539178939
 22
829.01833805185015
 32
0.0
 70
     0
 13
16721.694060849091
 23
-10603.59550313571
 33
0.0
 14
17980.694060849091
 24
-10603.59550313571
 34
0.0
1001
ACAD
1000
DSTYLE
1002
{
1070
   140
1040
2.5
1070
    40
1040
50.0
1070
   147
1040
1.0
1070
   271
1070
     0
1002
}
  0
DIMENSION
  5
9E14
  8
SP
  2
*D10
 10
17980.694060849091
 20
-11234.560789096609
 30
0.0
 11
16555.694060849091
 21
-11122.060789096609
 31
0.0
 12
11813.211539178939
 22
829.01833805185015
 32
0.0
 70
     0
 13
15130.69406084909
 23
-10603.59550313571
 33
0.0
 14
17980.694060849091
 24
-10603.59550313571
 34
0.0
1001
ACAD
1000
DSTYLE
1002
{
1070
   140
1040
2.5
1070
    40
1040
50.0
1070
   147
1040
1.0
1070
   271
1070
     0
1002
}
  0
DIMENSION
  5
9E55
  8
SP
  2
*D11
 10
13175.61185537671
 20
-11234.560789096609
 30
0.0
 11
11375.61185537671
 21
-11122.060789096609
 31
0.0
 12
11813.211539178939
 22
829.01833805185015
 32
0.0
 70
     0
 13
9575.6118553767192
 23
-10603.59550313571
 33
0.0
 14
13175.61185537671
 24
-10603.59550313571
 34
0.0
1001
ACAD
1000
DSTYLE
1002
{
1070
   140
1040
2.5
1070
    40
1040
50.0
1070
   147
1040
1.0
1070
   271
1070
     0
1002
}
  0
LINE
  5
A0E7
  8
4
 10
17961.166697834029
 20
-12040.48813421171
 30
0.0
 11
17961.166697834029
 21
-13140.488134211701
 31
0.0
  0
LINE
  5
A0E8
  8
4
 10
14111.166697834031
 20
-12040.48813421171
 30
0.0
 11
14111.166697834031
 21
-13140.488134211701
 31
0.0
  0
LINE
  5
A0E9
  8
4
 10
11361.166697834031
 20
-12040.48813421171
 30
0.0
 11
11361.166697834031
 21
-13140.488134211701
 31
0.0
  0
LINE
  5
A0EC
  8
4
 10
11361.166697834031
 20
-13140.48813421171
 30
0.0
 11
17961.166697834029
 21
-13140.48813421171
 31
0.0
  0
LINE
  5
A0ED
  8
4
 10
11361.166697834031
 20
-12590.48813421171
 30
0.0
 11
17961.166697834029
 21
-12590.48813421171
 31
0.0
  0
TEXT
  5
A0EE
  8
4
 10
11572.92814249199
 20
-12417.001491945341
 30
0.0
 40
275.0
  1
機器名称
  0
TEXT
  5
A0EF
  8
4
 10
11560.586280970419
 20
-13021.439772185649
 30
0.0
 40
275.0
  1
機器型番
  0
TEXT
  5
A0F0
  8
4
 10
14274.28609399308
 20
-12457.343074152201
 30
0.0
 40
233.75
  1
ミツヤ多翼送風機
  0
TEXT
  5
A0F1
  8
4
 10
14312.76642355418
 20
-13046.110420672019
 30
0.0
 40
275.0
  1
MF#11-5
  0
TEXT
  5
A0F3
  8
4
 10
12185.977151365751
 20
-1128.5605847023901
 30
0.0
 40
297.0
  1
床置防振ベット
  0
TEXT
  5
A0F4
  8
4
 10
9429.0032408987445
 20
-301.07384293508937
 30
0.0
 40
396.0
  1
遠心式両吸込両持多翼ファン
  0
LINE
  5
A0F5
  8
4
 10
9161.1666978340363
 20
-655.67106357480043
 30
0.0
 11
17961.166697834029
 21
-655.67106357480043
 31
0.0
  0
LINE
  5
A0F6
  8
4
 10
9161.1666978340363
 20
444.32893642519952
 30
0.0
 11
17961.166697834029
 21
444.32893642519952
 31
0.0
  0
LINE
  5
A0F7
  8
4
 10
11361.166697834031
 20
-12040.48813421171
 30
0.0
 11
17961.166697834029
 21
-12040.48813421171
 31
0.0
  0
LINE
  5
A0F8
  8
4
 10
9161.1666978340363
 20
444.32893642519952
 30
0.0
 11
9161.1666978340363
 21
-655.67106357480043
 31
0.0
  0
TEXT
  5
A0F9
  8
4
 10
9788.7535740308977
 20
-1134.6620855263391
 30
0.0
 40
297.0
  1
左回転右横向
  0
TEXT
  5
A0FA
  8
4
 10
15865.499273705131
 20
645.91673619297035
 30
0.0
 40
308.0
  1
No.
  0
TEXT
  5
A0FB
  8
4
 10
14998.295042134099
 20
-1128.5605847023901
 30
0.0
 40
297.0
  1
縮尺：1/55
  0
LINE
  5
A0FC
  8
4
 10
17961.166697834029
 20
444.32893642519952
 30
0.0
 11
17961.166697834029
 21
-655.67106357480043
 31
0.0
  0
LINE
  5
A0FD
  8
4
 10
19336.166697834029
 20
1987.580787968772
 30
0.0
 11
19336.166697834029
 21
1987.580787968772
 31
0.0
  0
LINE
  5
A0FE
  8
4
 10
15709.56252081329
 20
509.53049515847852
 30
0.0
 11
15709.56252081329
 21
1089.1682264924109
 31
0.0
  0
LINE
  5
A0FF
  8
4
 10
15709.56252081329
 20
1089.1682264924109
 30
0.0
 11
17961.166697834029
 21
1089.1682264924109
 31
0.0
  0
LINE
  5
A100
  8
4
 10
17961.166697834029
 20
1089.1682264924109
 30
0.0
 11
17961.166697834029
 21
509.53049515847852
 31
0.0
  0
LINE
  5
A101
  8
4
 10
17961.166697834029
 20
509.53049515847852
 30
0.0
 11
15709.56252081329
 21
509.53049515847852
 31
0.0
  0
LINE
  5
A102
  8
4
 10
7786.1666978340372
 20
-14237.419212031229
 30
0.0
 11
7786.1666978340372
 21
1987.580787968772
 31
0.0
  0
LINE
  5
A103
  8
4
 10
7786.1666978340372
 20
1987.580787968772
 30
0.0
 11
19336.166697834029
 21
1987.580787968772
 31
0.0
  0
LINE
  5
A104
  8
4
 10
19336.166697834029
 20
1987.580787968772
 30
0.0
 11
19336.166697834029
 21
-14237.419212031229
 31
0.0
  0
LINE
  5
A105
  8
4
 10
19336.166697834029
 20
-14237.419212031229
 30
0.0
 11
7786.1666978340372
 21
-14237.419212031229
 31
0.0
  0
LINE
  5
A2EA
  8
FUTO
 10
11984.61185537671
 20
-6961.5955031357107
 30
0.0
 11
12005.11185537671
 21
-6961.5955031357107
 31
0.0
  0
LINE
  5
A2EB
  8
FUTO
 10
15541.6940608491
 20
-6961.5955031357107
 30
0.0
 11
17901.694060849099
 21
-6961.5955031357107
 31
0.0
  0
LINE
  5
A2ED
  8
FUTO
 10
15472.69406084909
 20
-10223.595503135701
 30
0.0
 11
15130.6940608491
 21
-10223.59550313571
 31
0.0
  0
DIMENSION
  5
A2FA
  8
SP
  2
*D12
 10
17901.694060849099
 20
-6668.0267395250639
 30
0.0
 11
16721.694060849099
 21
-6544.276739525063
 31
0.0
 12
0.0
 22
194.3113619990763
 32
0.0
 70
     0
 13
15541.6940608491
 23
-6961.5955031357107
 33
0.0
 14
17901.694060849099
 24
-6961.5955031357107
 34
0.0
1001
ACAD
1000
DSTYLE
1002
{
1070
   140
1040
2.5
1070
    40
1040
55.0
1070
   147
1040
1.0
1070
   271
1070
     0
1002
}
  0
DIMENSION
  5
A307
  8
SP
  2
*D13
 10
13280.611855376719
 20
-6668.0267395250639
 30
0.0
 11
12698.11185537671
 21
-6544.276739525063
 31
0.0
 12
0.0
 22
194.3113619990763
 32
0.0
 70
     0
 13
12115.611855376719
 23
-6773.4620194731779
 33
0.0
 14
13280.611855376719
 24
-8255.5955031357134
 34
0.0
1001
ACAD
1000
DSTYLE
1002
{
1070
   140
1040
2.5
1070
    40
1040
55.0
1070
   147
1040
1.0
1070
   271
1070
     0
1002
}
  0
DIMENSION
  5
A314
  8
SP
  2
*D14
 10
10561.611855376719
 20
-6668.0267395250639
 30
0.0
 11
11338.61185537671
 21
-6544.276739525063
 31
0.0
 12
0.0
 22
194.3113619990763
 32
0.0
 70
     0
 13
12115.611855376719
 23
-6773.4620194731779
 33
0.0
 14
10561.611855376719
 24
-8384.5955031357116
 34
0.0
1001
ACAD
1000
DSTYLE
1002
{
1070
   140
1040
2.5
1070
    40
1040
55.0
1070
   147
1040
1.0
1070
   271
1070
     0
1002
}
  0
DIMENSION
  5
A321
  8
SP
  2
*D15
 10
13636.95700481424
 20
-10174.59550313571
 30
0.0
 11
13513.20700481424
 21
-9249.5955031357116
 31
0.0
 12
0.0
 22
194.3113619990763
 32
0.0
 70
     0
 13
13280.611855376719
 23
-8324.5955031357116
 33
0.0
 14
13280.611855376719
 24
-10174.59550313571
 34
0.0
 50
90.0
1001
ACAD
1000
DSTYLE
1002
{
1070
   140
1040
2.5
1070
    40
1040
55.0
1070
   147
1040
1.0
1070
   271
1070
     0
1002
}
  0
DIMENSION
  5
A32E
  8
SP
  2
*D16
 10
13996.83681793484
 20
-8253.5955031357116
 30
0.0
 11
13873.08681793484
 21
-9214.0955031357134
 31
0.0
 12
0.0
 22
194.3113619990763
 32
0.0
 70
     0
 13
13280.611855376719
 23
-10174.59550313571
 33
0.0
 14
13426.053249401781
 24
-8253.5955031357116
 34
0.0
 50
90.0
1001
ACAD
1000
DSTYLE
1002
{
1070
   140
1040
2.5
1070
    40
1040
55.0
1070
   147
1040
1.0
1070
   271
1070
     0
1002
}
  0
DIMENSION
  5
A33B
  8
SP
  2
*D17
 10
14356.716631055429
 20
-8253.5955031357116
 30
0.0
 11
14232.966631055429
 21
-9328.5955031357116
 31
0.0
 12
0.0
 22
194.3113619990763
 32
0.0
 70
     0
 13
13175.61185537671
 23
-10403.59550313571
 33
0.0
 14
13426.053249401781
 24
-8253.5955031357116
 34
0.0
 50
90.0
1001
ACAD
1000
DSTYLE
1002
{
1070
   140
1040
2.5
1070
    40
1040
55.0
1070
   147
1040
1.0
1070
   271
1070
     0
1002
}
  0
DIMENSION
  5
A348
  8
SP
  2
*D18
 10
14356.716631055429
 20
-8253.5955031357116
 30
0.0
 11
14232.966631055429
 21
-7607.5955031357107
 31
0.0
 12
0.0
 22
194.3113619990763
 32
0.0
 70
     0
 13
11984.61185537671
 23
-6961.5955031357107
 33
0.0
 14
13426.053249401781
 24
-8253.5955031357116
 34
0.0
 50
90.0
1001
ACAD
1000
DSTYLE
1002
{
1070
   140
1040
2.5
1070
    40
1040
55.0
1070
   147
1040
1.0
1070
   271
1070
     0
1002
}
  0
DIMENSION
  5
A355
  8
SP
  2
*D19
 10
14971.69406084909
 20
-6372.6748655159608
 30
0.0
 11
15846.6940608491
 21
-6212.9129607540563
 31
0.0
 12
0.0
 22
194.3113619990763
 32
0.0
 70
     0
 13
16721.694060849091
 23
-6398.1710145252837
 33
0.0
 14
14971.69406084909
 24
-7773.5955031357134
 34
0.0
1001
ACAD
1000
DSTYLE
1002
{
1070
   140
1040
2.5
1070
    40
1040
55.0
1070
     3
1000
(<>)
1070
   147
1040
1.0
1070
   271
1070
     0
1002
}
  0
DIMENSION
  5
A362
  8
SP
  2
*D20
 10
18141.694060849091
 20
-6372.6748655159608
 30
0.0
 11
17431.694060849091
 21
-6212.9129607540563
 31
0.0
 12
0.0
 22
194.3113619990763
 32
0.0
 70
     0
 13
16721.694060849091
 23
-6398.1710145252837
 33
0.0
 14
18141.694060849091
 24
-8333.5955031357116
 34
0.0
1001
ACAD
1000
DSTYLE
1002
{
1070
   140
1040
2.5
1070
    40
1040
55.0
1070
     3
1000
(<>)
1070
   147
1040
1.0
1070
   271
1070
     0
1002
}
  0
ARC
  5
A363
  8
SL
 10
12115.611855376719
 20
-8253.5955031357116
 30
0.0
 40
480.0
 50
301.45520622691191
 51
132.53999330536109
  0
ARC
  5
A364
  8
SL
 10
9965.611855376721
 20
-9873.595503135708
 30
0.0
 40
220.0
 50
132.53999330536109
 51
301.45520622691168
  0
LINE
  5
A365
  8
SL
 10
9816.8688272008239
 20
-9711.49827438375
 30
0.0
 11
11791.081612083861
 21
-7899.9288222223458
 31
0.0
  0
LINE
  5
A367
  8
SL
 10
9870.9572010829706
 20
-9770.4427212026403
 30
0.0
 11
11845.169985966
 21
-7958.8732690412407
 31
0.0
  0
LINE
  5
A368
  8
SL
 10
10038.668309060549
 20
-9993.0222780864788
 30
0.0
 11
12324.34458018767
 21
-8594.8148601379089
 31
0.0
  0
LINE
  5
A369
  8
SL
 10
10080.41485402274
 20
-10061.26614948691
 30
0.0
 11
12366.09112514986
 21
-8663.0587315383491
 31
0.0
  0
LINE
  5
A370
  8
FUTO
 10
17980.694060849091
 20
-10603.59550313571
 30
0.0
 11
15130.69406084909
 21
-10603.59550313571
 31
0.0
  0
LINE
  5
A371
  8
FUTO
 10
17980.694060849091
 20
-10423.59550313571
 30
0.0
 11
17980.694060849091
 21
-10603.59550313571
 31
0.0
  0
LINE
  5
A372
  8
FUTO
 10
15130.69406084909
 20
-10423.59550313571
 30
0.0
 11
15130.69406084909
 21
-10603.59550313571
 31
0.0
  0
LINE
  5
A373
  8
FUTO
 10
17980.694060849091
 20
-10423.59550313569
 30
0.0
 11
15130.6940608491
 21
-10423.59550313571
 31
0.0
  0
LINE
  5
A374
  8
FUTO
 10
13175.61185537671
 20
-10423.59550313571
 30
0.0
 11
13175.61185537671
 21
-10603.59550313571
 31
0.0
  0
LINE
  5
A375
  8
FUTO
 10
13175.61185537671
 20
-10423.59550313571
 30
0.0
 11
9575.6118553767192
 21
-10423.595503135701
 31
0.0
  0
LINE
  5
A376
  8
FUTO
 10
13175.61185537671
 20
-10603.59550313571
 30
0.0
 11
9575.6118553767192
 21
-10603.59550313571
 31
0.0
  0
LINE
  5
A377
  8
FUTO
 10
9575.6118553767192
 20
-10423.59550313571
 30
0.0
 11
9575.6118553767192
 21
-10603.59550313571
 31
0.0
  0
DIMENSION
  5
A38E
  8
SP
  2
*D22
 10
14360.453482743649
 20
-10603.59550313571
 30
0.0
 11
14236.703482743649
 21
-11047.142150313581
 31
0.0
 12
0.0
 22
194.3113619990763
 32
0.0
 70
     0
 13
13175.61185537671
 23
-10423.59550313571
 33
0.0
 14
13175.61185537671
 24
-10603.59550313571
 34
0.0
 50
90.0
1001
ACAD
1000
DSTYLE
1002
{
1070
   140
1040
2.5
1070
    40
1040
55.0
1070
   147
1040
1.0
1070
   271
1070
     0
1070
     6
1000
_DOT
1002
}
  0
DIMENSION
  5
A39D
  8
SP
  2
*D24
 10
14360.453482743649
 20
-10403.59550313571
 30
0.0
 11
14812.23919702937
 21
-10413.595503135701
 31
0.0
 70
     0
 13
13175.61185537671
 23
-10423.59550313571
 33
0.0
 14
13175.61185537671
 24
-10403.59550313571
 34
0.0
 50
90.0
1001
ACAD
1000
DSTYLE
1002
{
1070
   287
1070
     5
1070
     3
1000
(<>)
1070
    40
1040
55.0
1070
    75
1070
     1
1070
    76
1070
     1
1070
   140
1040
2.5
1070
   147
1040
1.0
1070
   271
1070
     0
1070
   279
1070
     2
1070
   289
1070
     3
1070
     6
1000
NONE
1070
     7
1000
NONE
1002
}
  0
ENDSEC
  0
EOF
