  0
SECTION
  2
HEADER
  9
$ACADVER
  1
AC1009
  9
$INSBASE
 10
0.0
 20
0.0
 30
0.0
  9
$EXTMIN
 10
0.0
 20
0.0
 30
0.0
  9
$EXTMAX
 10
9450.0
 20
13275.0
 30
0.0
  9
$LIMMIN
 10
0.0
 20
0.0
  9
$LIMMAX
 10
297.0
 20
210.0
  9
$ORTHOMODE
 70
     1
  9
$REGENMODE
 70
     1
  9
$FILLMODE
 70
     0
  9
$QTEXTMODE
 70
     0
  9
$MIRRTEXT
 70
     1
  9
$DRAGMODE
 70
     2
  9
$LTSCALE
 40
100.0
  9
$OSMODE
 70
   545
  9
$ATTMODE
 70
     1
  9
$TEXTSIZE
 40
180.0
  9
$TRACEWID
 40
0.05
  9
$TEXTSTYLE
  7
STANDARD
  9
$CLAYER
  8
3
  9
$CELTYPE
  6
BYLAYER
  9
$CECOLOR
 62
   256
  9
$DIMSCALE
 40
45.0
  9
$DIMASZ
 40
2.0
  9
$DIMEXO
 40
0.5
  9
$DIMDLI
 40
10.0
  9
$DIMRND
 40
0.0
  9
$DIMDLE
 40
0.0
  9
$DIMEXE
 40
1.0
  9
$DIMTP
 40
1.0
  9
$DIMTM
 40
1.0
  9
$DIMTXT
 40
3.0
  9
$DIMCEN
 40
0.0
  9
$DIMTSZ
 40
0.0
  9
$DIMTOL
 70
     0
  9
$DIMLIM
 70
     0
  9
$DIMTIH
 70
     0
  9
$DIMTOH
 70
     0
  9
$DIMSE1
 70
     0
  9
$DIMSE2
 70
     0
  9
$DIMTAD
 70
     1
  9
$DIMZIN
 70
     8
  9
$DIMBLK
  1

  9
$DIMASO
 70
     1
  9
$DIMSHO
 70
     1
  9
$DIMPOST
  1

  9
$DIMAPOST
  1

  9
$DIMALT
 70
     0
  9
$DIMALTD
 70
     2
  9
$DIMALTF
 40
0.039
  9
$DIMLFAC
 40
1.0
  9
$DIMTOFL
 70
     0
  9
$DIMTVP
 40
0.0
  9
$DIMTIX
 70
     0
  9
$DIMSOXD
 70
     0
  9
$DIMSAH
 70
     1
  9
$DIMBLK1
  1
OPEN
  9
$DIMBLK2
  1
OPEN
  9
$DIMSTYLE
  2
IGA
  9
$DIMCLRD
 70
     0
  9
$DIMCLRE
 70
     0
  9
$DIMCLRT
 70
     0
  9
$DIMTFAC
 40
10.0
  9
$DIMGAP
 40
1.0
  9
$LUNITS
 70
     2
  9
$LUPREC
 70
     3
  9
$SKETCHINC
 40
0.1
  9
$FILLETRAD
 40
50.0
  9
$AUNITS
 70
     0
  9
$AUPREC
 70
     0
  9
$MENU
  1
acad
  9
$ELEVATION
 40
0.0
  9
$PELEVATION
 40
0.0
  9
$THICKNESS
 40
0.0
  9
$LIMCHECK
 70
     0
  9
$BLIPMODE
 70
     0
  9
$CHAMFERA
 40
0.5
  9
$CHAMFERB
 40
0.5
  9
$SKPOLY
 70
     0
  9
$TDCREATE
 40
2451845.4205035879
  9
$TDUPDATE
 40
2455013.7329257061
  9
$TDINDWG
 40
0.0589606481
  9
$TDUSRTIMER
 40
0.0589606481
  9
$USRTIMER
 70
     1
  9
$ANGBASE
 50
0.0
  9
$ANGDIR
 70
     0
  9
$PDMODE
 70
     0
  9
$PDSIZE
 40
0.0
  9
$PLINEWID
 40
0.0
  9
$COORDS
 70
     2
  9
$SPLFRAME
 70
     0
  9
$SPLINETYPE
 70
     6
  9
$SPLINESEGS
 70
     8
  9
$ATTDIA
 70
     0
  9
$ATTREQ
 70
     1
  9
$HANDLING
 70
 22529
  9
$HANDSEED
  5
8CF5
  9
$SURFTAB1
 70
     6
  9
$SURFTAB2
 70
     6
  9
$SURFTYPE
 70
     6
  9
$SURFU
 70
     6
  9
$SURFV
 70
     6
  9
$UCSNAME
  2

  9
$UCSORG
 10
0.0
 20
0.0
 30
0.0
  9
$UCSXDIR
 10
1.0
 20
0.0
 30
0.0
  9
$UCSYDIR
 10
0.0
 20
1.0
 30
0.0
  9
$PUCSNAME
  2

  9
$PUCSORG
 10
0.0
 20
0.0
 30
0.0
  9
$PUCSXDIR
 10
1.0
 20
0.0
 30
0.0
  9
$PUCSYDIR
 10
0.0
 20
1.0
 30
0.0
  9
$USERI1
 70
     0
  9
$USERI2
 70
     0
  9
$USERI3
 70
     0
  9
$USERI4
 70
     0
  9
$USERI5
 70
     0
  9
$USERR1
 40
0.0
  9
$USERR2
 40
0.0
  9
$USERR3
 40
0.0
  9
$USERR4
 40
0.0
  9
$USERR5
 40
0.0
  9
$WORLDVIEW
 70
     1
  9
$SHADEDGE
 70
     3
  9
$SHADEDIF
 70
    70
  9
$TILEMODE
 70
     1
  9
$MAXACTVP
 70
    16
  9
$PLIMCHECK
 70
     0
  9
$PEXTMIN
 10
1.0000000000000000E+020
 20
1.0000000000000000E+020
 30
1.0000000000000000E+020
  9
$PEXTMAX
 10
-1.0000000000000000E+020
 20
-1.0000000000000000E+020
 30
-1.0000000000000000E+020
  9
$PLIMMIN
 10
0.0
 20
0.0
  9
$PLIMMAX
 10
12.0
 20
9.0
  9
$UNITMODE
 70
     0
  9
$VISRETAIN
 70
     0
  9
$PLINEGEN
 70
     0
  9
$PSLTSCALE
 70
     1
  0
ENDSEC
  0
SECTION
  2
TABLES
  0
TABLE
  2
VPORT
 70
     2
  0
VPORT
  2
*ACTIVE
 70
     0
 10
0.0
 20
0.0
 11
1.0
 21
1.0
 12
5642.2139554681344
 22
6637.5000309082689
 13
0.0
 23
0.0
 14
10.0
 24
10.0
 15
10.0
 25
10.0
 16
0.0
 26
0.0
 36
1.0
 17
0.0
 27
0.0
 37
0.0
 40
13376.766973576199
 41
1.6307901907356941
 42
50.0
 43
0.0
 44
0.0
 50
0.0
 51
0.0
 71
     0
 72
   100
 73
     1
 74
     0
 75
     0
 76
     0
 77
     0
 78
     0
  0
ENDTAB
  0
TABLE
  2
LTYPE
 70
     2
  0
LTYPE
  2
CONTINUOUS
 70
     0
  3
Solid line
 72
    65
 73
     0
 40
0.0
  0
LTYPE
  2
CENTER
 70
     0
  3
____ _ ____ _ ____ _ ____ _ ____ _ ____ _ ____ 
 72
    65
 73
     4
 40
2.0
 49
1.25
 49
-0.25
 49
0.25
 49
-0.25
  0
ENDTAB
  0
TABLE
  2
LAYER
 70
     6
  0
LAYER
  2
0
 70
     0
 62
     7
  6
CONTINUOUS
  0
LAYER
  2
3
 70
     0
 62
     2
  6
CONTINUOUS
  0
LAYER
  2
2
 70
     0
 62
     3
  6
CENTER
  0
LAYER
  2
1
 70
     0
 62
     4
  6
CONTINUOUS
  0
LAYER
  2
4
 70
     0
 62
     7
  6
CONTINUOUS
  0
LAYER
  2
DEFPOINTS
 70
     0
 62
     7
  6
CONTINUOUS
  0
ENDTAB
  0
TABLE
  2
STYLE
 70
     1
  0
STYLE
  2
STANDARD
 70
     0
 40
0.0
 41
1.0
 50
0.0
 71
     0
 42
180.0
  3
simplex.shx
  4
extfont.shx
  0
ENDTAB
  0
TABLE
  2
VIEW
 70
     0
  0
ENDTAB
  0
TABLE
  2
UCS
 70
     0
  0
ENDTAB
  0
TABLE
  2
APPID
 70
     1
  0
APPID
  2
ACAD
 70
     0
  0
ENDTAB
  0
TABLE
  2
DIMSTYLE
 70
     1
  0
DIMSTYLE
  2
IGA
 70
     0
  3

  4

  5

  6
OPEN
  7
OPEN
 40
2.0
 41
2.0
 42
0.5
 43
10.0
 44
1.0
 45
0.0
 46
0.0
 47
1.0
 48
1.0
140
3.0
141
0.0
142
0.0
143
0.03937
144
1.0
145
0.0
146
10.0
147
1.0
 71
     0
 72
     0
 73
     0
 74
     0
 75
     0
 76
     0
 77
     1
 78
     8
170
     0
171
     2
172
     0
173
     1
174
     0
175
     0
176
     0
177
     0
178
     0
  0
ENDTAB
  0
ENDSEC
  0
SECTION
  2
BLOCKS
  0
BLOCK
  8
0
  2
$MODEL_SPACE
 70
     0
 10
0.0
 20
0.0
 30
0.0
  3
$MODEL_SPACE
  1

  0
ENDBLK
  5
1B
  8
0
  0
BLOCK
 67
     1
  8
0
  2
$PAPER_SPACE
 70
     0
 10
0.0
 20
0.0
 30
0.0
  3
$PAPER_SPACE
  1

  0
ENDBLK
  5
18
 67
     1
  8
0
  0
BLOCK
  8
0
  2
YA_N
 70
     0
 10
0.0
 20
0.0
 30
0.0
  3
YA_N
  1

  0
ENDBLK
  5
79FE
  8
0
  0
BLOCK
  8
0
  2
_OPEN
 70
     0
 10
0.0
 20
0.0
 30
0.0
  3
_OPEN
  1

  0
LINE
  5
7B50
  8
0
  6
BYBLOCK
 62
     0
 10
-1.0
 20
0.166667
 30
0.0
 11
0.0
 21
0.0
 31
0.0
  0
LINE
  5
7B51
  8
0
  6
BYBLOCK
 62
     0
 10
0.0
 20
0.0
 30
0.0
 11
-1.0
 21
-0.166667
 31
0.0
  0
LINE
  5
7B52
  8
0
  6
BYBLOCK
 62
     0
 10
0.0
 20
0.0
 30
0.0
 11
-1.0
 21
0.0
 31
0.0
  0
ENDBLK
  5
7B53
  8
0
  0
BLOCK
  8
0
  2
_DOT
 70
     0
 10
0.0
 20
0.0
 30
0.0
  3
_DOT
  1

  0
LINE
  5
7D69
  8
0
  6
BYBLOCK
 62
     0
 10
0.0
 20
0.0
 30
0.0
 11
-1.0
 21
0.0
 31
0.0
  0
POLYLINE
  5
7D6A
  8
0
  6
BYBLOCK
 62
     0
 66
     1
 10
0.0
 20
0.0
 30
0.0
 70
     1
 40
0.166667
 41
0.166667
  0
VERTEX
  5
8C05
  8
0
  6
BYBLOCK
 62
     0
 10
-0.083333
 20
0.0
 30
0.0
 42
1.0
  0
VERTEX
  5
8C06
  8
0
  6
BYBLOCK
 62
     0
 10
0.083333
 20
0.0
 30
0.0
 42
1.0
  0
SEQEND
  5
8C07
  8
0
  6
BYBLOCK
 62
     0
  0
ENDBLK
  5
7D3B
  8
0
  0
BLOCK
  8
0
  2
*D3
 70
     1
 10
0.0
 20
0.0
 30
0.0
  3
*D3
  1

  0
LINE
  5
8C08
  8
3
 62
     0
 10
4530.6624886969748
 20
10036.069825035571
 30
0.0
 11
4530.6624886969748
 21
10365.822061390931
 31
0.0
  0
LINE
  5
8C09
  8
3
 62
     0
 10
2410.6624886969762
 20
10036.069825035571
 30
0.0
 11
2410.6624886969762
 21
10365.822061390931
 31
0.0
  0
LINE
  5
8C0A
  8
3
 62
     0
 10
4440.6624886969748
 20
10320.822061390931
 30
0.0
 11
2500.6624886969762
 21
10320.822061390931
 31
0.0
  0
INSERT
  5
8C0B
  8
3
 62
     0
  2
_OPEN
 10
4530.6624886969748
 20
10320.822061390931
 30
0.0
 41
90.0
 42
90.0
 43
90.0
  0
INSERT
  5
8C0C
  8
3
 62
     0
  2
_OPEN
 10
2410.6624886969762
 20
10320.822061390931
 30
0.0
 41
90.0
 42
90.0
 43
90.0
 50
180.0
  0
TEXT
  8
3
  40
135
  5
8CDD
  62
0
  72
0
  71
0
 10
3193.59
 20
10194.4
 30
0.000000
  1
2120
  0
POINT
  5
8C0E
  8
DEFPOINTS
 62
     0
 10
4530.6624886969748
 20
10013.569825035571
 30
0.0
  0
POINT
  5
8C0F
  8
DEFPOINTS
 62
     0
 10
2410.6624886969762
 20
10013.569825035571
 30
0.0
  0
POINT
  5
8C10
  8
DEFPOINTS
 62
     0
 10
2410.6624886969762
 20
10320.822061390931
 30
0.0
  0
ENDBLK
  5
8175
  8
0
  0
BLOCK
  8
0
  2
*D4
 70
     1
 10
0.0
 20
0.0
 30
0.0
  3
*D4
  1

  0
LINE
  5
8C11
  8
3
 62
     0
 10
630.66248869697665
 20
9386.0698250355763
 30
0.0
 11
630.66248869697677
 21
10365.822061390931
 31
0.0
  0
LINE
  5
8C12
  8
3
 62
     0
 10
2320.6624886969762
 20
10320.822061390931
 30
0.0
 11
720.66248869697665
 21
10320.822061390931
 31
0.0
  0
INSERT
  5
8C13
  8
3
 62
     0
  2
_OPEN
 10
2410.6624886969762
 20
10320.822061390931
 30
0.0
 41
90.0
 42
90.0
 43
90.0
  0
INSERT
  5
8C14
  8
3
 62
     0
  2
_OPEN
 10
630.66248869697677
 20
10320.822061390931
 30
0.0
 41
90.0
 42
90.0
 43
90.0
 50
180.0
  0
TEXT
  8
3
  40
135
  5
8CDE
  62
0
  72
0
  71
0
 10
1250.66
 20
10194.4
 30
0.000000
  1
1780
  0
POINT
  5
8C16
  8
DEFPOINTS
 62
     0
 10
2410.6624886969762
 20
10013.569825035571
 30
0.0
  0
POINT
  5
8C17
  8
DEFPOINTS
 62
     0
 10
630.66248869697665
 20
9363.5698250355745
 30
0.0
  0
POINT
  5
8C18
  8
DEFPOINTS
 62
     0
 10
630.66248869697677
 20
10320.822061390931
 30
0.0
  0
ENDBLK
  5
8309
  8
0
  0
BLOCK
  8
0
  2
*D5
 70
     1
 10
0.0
 20
0.0
 30
0.0
  3
*D5
  1

  0
LINE
  5
8C19
  8
3
 62
     0
 10
608.16248869697665
 20
9363.5698250355745
 30
0.0
 11
343.53044069697779
 21
9363.5698250355745
 31
0.0
  0
LINE
  5
8C1A
  8
3
 62
     0
 10
608.16248869697665
 20
8163.5698250355763
 30
0.0
 11
343.53044069697751
 21
8163.5698250355763
 31
0.0
  0
LINE
  5
8C1B
  8
3
 62
     0
 10
388.53044069697779
 20
9273.5698250355763
 30
0.0
 11
388.53044069697751
 21
8253.5698250355763
 31
0.0
  0
INSERT
  5
8C1C
  8
3
 62
     0
  2
_OPEN
 10
388.53044069697779
 20
9363.5698250355745
 30
0.0
 41
90.0
 42
90.0
 43
90.0
 50
90.0
  0
INSERT
  5
8C1D
  8
3
 62
     0
  2
_OPEN
 10
388.53044069697751
 20
8163.5698250355763
 30
0.0
 41
90.0
 42
90.0
 43
90.0
 50
270.0
  0
TEXT
  8
3
  40
135
  5
8CDF
  62
0
  72
0
  71
0
 10
6.03044
 20
8518.33
 30
0.000000
  1
1200
  0
POINT
  5
8C1F
  8
DEFPOINTS
 62
     0
 10
630.66248869697665
 20
9363.5698250355745
 30
0.0
  0
POINT
  5
8C20
  8
DEFPOINTS
 62
     0
 10
630.66248869697665
 20
8163.5698250355763
 30
0.0
  0
POINT
  5
8C21
  8
DEFPOINTS
 62
     0
 10
388.53044069697751
 20
8163.5698250355763
 30
0.0
  0
ENDBLK
  5
819B
  8
0
  0
BLOCK
  8
0
  2
*D6
 70
     1
 10
0.0
 20
0.0
 30
0.0
  3
*D6
  1

  0
LINE
  5
8C22
  8
3
 62
     0
 10
630.66248869697665
 20
8141.0698250355772
 30
0.0
 11
630.66248869697665
 21
7637.284521137196
 31
0.0
  0
LINE
  5
8C23
  8
3
 62
     0
 10
4530.6624886969748
 20
8141.0698250355772
 30
0.0
 11
4530.6624886969748
 21
7637.284521137196
 31
0.0
  0
LINE
  5
8C24
  8
3
 62
     0
 10
720.66248869697665
 20
7682.284521137195
 30
0.0
 11
4440.6624886969748
 21
7682.284521137195
 31
0.0
  0
INSERT
  5
8C25
  8
3
 62
     0
  2
_OPEN
 10
630.66248869697665
 20
7682.284521137195
 30
0.0
 41
90.0
 42
90.0
 43
90.0
 50
180.0
  0
INSERT
  5
8C26
  8
3
 62
     0
  2
_OPEN
 10
4530.6624886969748
 20
7682.284521137195
 30
0.0
 41
90.0
 42
90.0
 43
90.0
  0
TEXT
  8
3
  40
135
  5
8CE0
  62
0
  72
0
  71
0
 10
2400.68
 20
7555.83
 30
0.000000
  1
3900
  0
POINT
  5
8C28
  8
DEFPOINTS
 62
     0
 10
630.66248869697665
 20
8163.5698250355763
 30
0.0
  0
POINT
  5
8C29
  8
DEFPOINTS
 62
     0
 10
4530.6624886969748
 20
8163.5698250355763
 30
0.0
  0
POINT
  5
8C2A
  8
DEFPOINTS
 62
     0
 10
4530.6624886969748
 20
7682.284521137195
 30
0.0
  0
ENDBLK
  5
82FF
  8
0
  0
BLOCK
  8
0
  2
*D7
 70
     1
 10
0.0
 20
0.0
 30
0.0
  3
*D7
  1

  0
LINE
  5
8C2B
  8
3
 62
     0
 10
6486.6376499999997
 20
3053.554669227151
 30
0.0
 11
6486.6376499999997
 21
2558.582059511094
 31
0.0
  0
LINE
  5
8C2C
  8
3
 62
     0
 10
7597.6376499999997
 20
2998.9124062271499
 30
0.0
 11
7597.6376499999997
 21
2558.582059511094
 31
0.0
  0
LINE
  5
8C2D
  8
3
 62
     0
 10
6576.6376499999988
 20
2603.582059511094
 30
0.0
 11
7507.6376499999988
 21
2603.582059511094
 31
0.0
  0
INSERT
  5
8C2E
  8
3
 62
     0
  2
_OPEN
 10
6486.6376499999997
 20
2603.582059511094
 30
0.0
 41
90.0
 42
90.0
 43
90.0
 50
180.0
  0
INSERT
  5
8C2F
  8
3
 62
     0
  2
_OPEN
 10
7597.6376499999997
 20
2603.582059511094
 30
0.0
 41
90.0
 42
90.0
 43
90.0
  0
TEXT
  8
3
  40
135
  5
8CE1
  62
0
  72
0
  71
0
 10
6794.64
 20
2477.13
 30
0.000000
  1
1111
  0
POINT
  5
8C31
  8
DEFPOINTS
 62
     0
 10
6486.6376499999997
 20
3076.054669227151
 30
0.0
  0
POINT
  5
8C32
  8
DEFPOINTS
 62
     0
 10
7597.6376499999997
 20
3021.4124062271512
 30
0.0
  0
POINT
  5
8C33
  8
DEFPOINTS
 62
     0
 10
7597.6376499999997
 20
2603.582059511094
 30
0.0
  0
ENDBLK
  5
85EA
  8
0
  0
BLOCK
  8
0
  2
*D8
 70
     1
 10
0.0
 20
0.0
 30
0.0
  3
*D8
  1

  0
LINE
  5
8C34
  8
3
 62
     0
 10
8336.6376500000006
 20
3053.554669227151
 30
0.0
 11
8336.6376500000006
 21
2558.582059511094
 31
0.0
  0
LINE
  5
8C35
  8
3
 62
     0
 10
7687.6376499999988
 20
2603.582059511094
 30
0.0
 11
8246.6376500000024
 21
2603.582059511094
 31
0.0
  0
INSERT
  5
8C36
  8
3
 62
     0
  2
_OPEN
 10
7597.6376499999997
 20
2603.582059511094
 30
0.0
 41
90.0
 42
90.0
 43
90.0
 50
180.0
  0
INSERT
  5
8C37
  8
3
 62
     0
  2
_OPEN
 10
8336.6376500000006
 20
2603.582059511094
 30
0.0
 41
90.0
 42
90.0
 43
90.0
  0
TEXT
  8
3
  40
135
  5
8CE2
  62
0
  72
0
  71
0
 10
7697.14
 20
2477.13
 30
0.000000
  1
739
  0
POINT
  5
8C39
  8
DEFPOINTS
 62
     0
 10
7597.6376499999997
 20
3021.4124062271512
 30
0.0
  0
POINT
  5
8C3A
  8
DEFPOINTS
 62
     0
 10
8336.6376500000006
 20
3076.054669227151
 30
0.0
  0
POINT
  5
8C3B
  8
DEFPOINTS
 62
     0
 10
8336.6376500000006
 20
2603.582059511094
 30
0.0
  0
ENDBLK
  5
85DF
  8
0
  0
BLOCK
  8
0
  2
*D9
 70
     1
 10
0.0
 20
0.0
 30
0.0
  3
*D9
  1

  0
LINE
  5
8C3C
  8
3
 62
     0
 10
6486.6376499999997
 20
3053.554669227151
 30
0.0
 11
6486.6376499999997
 21
2310.4739218080281
 31
0.0
  0
LINE
  5
8C3D
  8
3
 62
     0
 10
8336.6376500000006
 20
3053.554669227151
 30
0.0
 11
8336.6376500000006
 21
2310.4739218080281
 31
0.0
  0
LINE
  5
8C3E
  8
3
 62
     0
 10
6576.6376499999988
 20
2355.4739218080281
 30
0.0
 11
8246.6376500000024
 21
2355.4739218080281
 31
0.0
  0
INSERT
  5
8C3F
  8
3
 62
     0
  2
_OPEN
 10
6486.6376499999997
 20
2355.4739218080281
 30
0.0
 41
90.0
 42
90.0
 43
90.0
 50
180.0
  0
INSERT
  5
8C40
  8
3
 62
     0
  2
_OPEN
 10
8336.6376500000006
 20
2355.4739218080281
 30
0.0
 41
90.0
 42
90.0
 43
90.0
  0
TEXT
  8
3
  40
135
  5
8CE3
  62
0
  72
0
  71
0
 10
7216.83
 20
2229.02
 30
0.000000
  1
1850
  0
POINT
  5
8C42
  8
DEFPOINTS
 62
     0
 10
6486.6376499999997
 20
3076.054669227151
 30
0.0
  0
POINT
  5
8C43
  8
DEFPOINTS
 62
     0
 10
8336.6376500000006
 20
3076.054669227151
 30
0.0
  0
POINT
  5
8C44
  8
DEFPOINTS
 62
     0
 10
8336.6376500000006
 20
2355.4739218080281
 30
0.0
  0
ENDBLK
  5
85F5
  8
0
  0
BLOCK
  8
0
  2
*D10
 70
     1
 10
0.0
 20
0.0
 30
0.0
  3
*D10
  1

  0
LINE
  5
8C45
  8
3
 62
     0
 10
8415.1376500000006
 20
5596.11824922715
 30
0.0
 11
8822.5519080000013
 21
5596.11824922715
 31
0.0
  0
LINE
  5
8C46
  8
3
 62
     0
 10
8415.1376500000006
 20
3796.11824922715
 30
0.0
 11
8822.5519079999995
 21
3796.11824922715
 31
0.0
  0
LINE
  5
8C47
  8
3
 62
     0
 10
8777.5519080000013
 20
5506.1182492271491
 30
0.0
 11
8777.5519079999995
 21
3886.11824922715
 31
0.0
  0
INSERT
  5
8C48
  8
3
 62
     0
  2
_OPEN
 10
8777.5519080000013
 20
5596.11824922715
 30
0.0
 41
90.0
 42
90.0
 43
90.0
 50
90.0
  0
INSERT
  5
8C49
  8
3
 62
     0
  2
_OPEN
 10
8777.5519079999995
 20
3796.11824922715
 30
0.0
 41
90.0
 42
90.0
 43
90.0
 50
270.0
  0
TEXT
  8
3
  40
135
  5
8CE4
  62
0
  72
0
  71
0
 10
8395.05
 20
4402.88
 30
0.000000
  1
φ1800
  0
POINT
  5
8C4B
  8
DEFPOINTS
 62
     0
 10
8392.6376500000006
 20
5596.11824922715
 30
0.0
  0
POINT
  5
8C4C
  8
DEFPOINTS
 62
     0
 10
8392.6376500000006
 20
3796.11824922715
 30
0.0
  0
POINT
  5
8C4D
  8
DEFPOINTS
 62
     0
 10
8777.5519079999995
 20
3796.11824922715
 30
0.0
  0
ENDBLK
  5
825D
  8
0
  0
BLOCK
  8
0
  2
*D11
 70
     1
 10
0.0
 20
0.0
 30
0.0
  3
*D11
  1

  0
LINE
  5
8C4E
  8
3
 62
     0
 10
8392.6376500000006
 20
5683.61824922715
 30
0.0
 11
8392.6376500000006
 21
7211.2087289752171
 31
0.0
  0
LINE
  5
8C4F
  8
3
 62
     0
 10
7597.6376499999997
 20
7047.555187372549
 30
0.0
 11
7597.6376499999997
 21
7211.2087289752171
 31
0.0
  0
LINE
  5
8C50
  8
3
 62
     0
 10
8302.6376500000006
 20
7166.2087289752171
 30
0.0
 11
7687.6376499999988
 21
7166.2087289752171
 31
0.0
  0
INSERT
  5
8C51
  8
3
 62
     0
  2
_OPEN
 10
8392.6376500000006
 20
7166.2087289752171
 30
0.0
 41
90.0
 42
90.0
 43
90.0
  0
INSERT
  5
8C52
  8
3
 62
     0
  2
_OPEN
 10
7597.6376499999997
 20
7166.2087289752171
 30
0.0
 41
90.0
 42
90.0
 43
90.0
 50
180.0
  0
TEXT
  8
3
  40
135
  5
8CE5
  62
0
  72
0
  71
0
 10
7735.53
 20
7039.76
 30
0.000000
  1
795
  0
POINT
  5
8C54
  8
DEFPOINTS
 62
     0
 10
8392.6376500000006
 20
5661.118249227151
 30
0.0
  0
POINT
  5
8C55
  8
DEFPOINTS
 62
     0
 10
7597.6376499999997
 20
7025.0551873725481
 30
0.0
  0
POINT
  5
8C56
  8
DEFPOINTS
 62
     0
 10
7597.6376499999997
 20
7166.2087289752171
 30
0.0
  0
ENDBLK
  5
8670
  8
0
  0
BLOCK
  8
0
  2
*D12
 70
     1
 10
0.0
 20
0.0
 30
0.0
  3
*D12
  1

  0
LINE
  5
8C57
  8
3
 62
     0
 10
6497.6376499999997
 20
5198.61824922715
 30
0.0
 11
6497.6376499999997
 21
7211.2087289752171
 31
0.0
  0
LINE
  5
8C58
  8
3
 62
     0
 10
7507.6376499999988
 20
7166.2087289752171
 30
0.0
 11
6587.6376499999988
 21
7166.2087289752171
 31
0.0
  0
INSERT
  5
8C59
  8
3
 62
     0
  2
_OPEN
 10
7597.6376499999997
 20
7166.2087289752171
 30
0.0
 41
90.0
 42
90.0
 43
90.0
  0
INSERT
  5
8C5A
  8
3
 62
     0
  2
_OPEN
 10
6497.6376499999997
 20
7166.2087289752171
 30
0.0
 41
90.0
 42
90.0
 43
90.0
 50
180.0
  0
TEXT
  8
3
  40
135
  5
8CE6
  62
0
  72
0
  71
0
 10
6777.64
 20
7075.12
 30
0.000000
  1
(1150)
  0
POINT
  5
8C5C
  8
DEFPOINTS
 62
     0
 10
7597.6376499999997
 20
6855.407678258558
 30
0.0
  0
POINT
  5
8C5D
  8
DEFPOINTS
 62
     0
 10
6497.6376499999997
 20
5176.11824922715
 30
0.0
  0
POINT
  5
8C5E
  8
DEFPOINTS
 62
     0
 10
6497.6376499999997
 20
7166.2087289752171
 30
0.0
  0
ENDBLK
  5
865A
  8
0
  0
BLOCK
  8
0
  2
*D13
 70
     1
 10
0.0
 20
0.0
 30
0.0
  3
*D13
  1

  0
LINE
  5
8C68
  8
3
 62
     0
 10
630.66248869697756
 20
3053.554669227151
 30
0.0
 11
630.66248869697756
 21
2620.808258764207
 31
0.0
  0
LINE
  5
8C69
  8
3
 62
     0
 10
3470.6624886969771
 20
2945.9689980150679
 30
0.0
 11
3470.6624886969771
 21
2620.808258764207
 31
0.0
  0
LINE
  5
8C6A
  8
3
 62
     0
 10
720.66248869697745
 20
2665.808258764207
 30
0.0
 11
3380.6624886969762
 21
2665.808258764207
 31
0.0
  0
INSERT
  5
8C6B
  8
3
 62
     0
  2
_OPEN
 10
630.66248869697756
 20
2665.808258764207
 30
0.0
 41
90.0
 42
90.0
 43
90.0
 50
180.0
  0
INSERT
  5
8C6C
  8
3
 62
     0
  2
_OPEN
 10
3470.6624886969771
 20
2665.808258764207
 30
0.0
 41
90.0
 42
90.0
 43
90.0
  0
TEXT
  8
3
  40
135
  5
8CE7
  62
0
  72
0
  71
0
 10
1862.74
 20
2539.36
 30
0.000000
  1
2840
  0
POINT
  5
8C6E
  8
DEFPOINTS
 62
     0
 10
630.66248869697756
 20
3076.054669227151
 30
0.0
  0
POINT
  5
8C6F
  8
DEFPOINTS
 62
     0
 10
3470.6624886969771
 20
2968.468998015067
 30
0.0
  0
POINT
  5
8C70
  8
DEFPOINTS
 62
     0
 10
3470.6624886969771
 20
2665.808258764207
 30
0.0
  0
ENDBLK
  5
857D
  8
0
  0
BLOCK
  8
0
  2
*D14
 70
     1
 10
0.0
 20
0.0
 30
0.0
  3
*D14
  1

  0
LINE
  5
8C71
  8
3
 62
     0
 10
4530.6624886969757
 20
3053.554669227151
 30
0.0
 11
4530.6624886969757
 21
2620.808258764207
 31
0.0
  0
LINE
  5
8C72
  8
3
 62
     0
 10
3560.6624886969762
 20
2665.808258764207
 30
0.0
 11
4440.6624886969757
 21
2665.808258764207
 31
0.0
  0
INSERT
  5
8C73
  8
3
 62
     0
  2
_OPEN
 10
3470.6624886969771
 20
2665.808258764207
 30
0.0
 41
90.0
 42
90.0
 43
90.0
 50
180.0
  0
INSERT
  5
8C74
  8
3
 62
     0
  2
_OPEN
 10
4530.6624886969757
 20
2665.808258764207
 30
0.0
 41
90.0
 42
90.0
 43
90.0
  0
TEXT
  8
3
  40
135
  5
8CE8
  62
0
  72
0
  71
0
 10
3730.66
 20
2539.36
 30
0.000000
  1
1060
  0
POINT
  5
8C76
  8
DEFPOINTS
 62
     0
 10
3470.6624886969771
 20
2968.468998015067
 30
0.0
  0
POINT
  5
8C77
  8
DEFPOINTS
 62
     0
 10
4530.6624886969757
 20
3076.054669227151
 30
0.0
  0
POINT
  5
8C78
  8
DEFPOINTS
 62
     0
 10
4530.6624886969757
 20
2665.808258764207
 30
0.0
  0
ENDBLK
  5
8592
  8
0
  0
BLOCK
  8
0
  2
*D15
 70
     1
 10
0.0
 20
0.0
 30
0.0
  3
*D15
  1

  0
LINE
  5
8C5F
  8
3
 62
     0
 10
630.66248869697756
 20
3053.554669227151
 30
0.0
 11
630.66248869697756
 21
2295.3561467642071
 31
0.0
  0
LINE
  5
8C60
  8
3
 62
     0
 10
4530.6624886969757
 20
3053.554669227151
 30
0.0
 11
4530.6624886969757
 21
2295.3561467642071
 31
0.0
  0
LINE
  5
8C61
  8
3
 62
     0
 10
720.66248869697745
 20
2340.3561467642071
 30
0.0
 11
4440.6624886969757
 21
2340.3561467642071
 31
0.0
  0
INSERT
  5
8C62
  8
3
 62
     0
  2
_OPEN
 10
630.66248869697756
 20
2340.3561467642071
 30
0.0
 41
90.0
 42
90.0
 43
90.0
 50
180.0
  0
INSERT
  5
8C63
  8
3
 62
     0
  2
_OPEN
 10
4530.6624886969757
 20
2340.3561467642071
 30
0.0
 41
90.0
 42
90.0
 43
90.0
  0
TEXT
  8
3
  40
135
  5
8CE9
  62
0
  72
0
  71
0
 10
2465.88
 20
2213.91
 30
0.000000
  1
3900
  0
POINT
  5
8C65
  8
DEFPOINTS
 62
     0
 10
630.66248869697756
 20
3076.054669227151
 30
0.0
  0
POINT
  5
8C66
  8
DEFPOINTS
 62
     0
 10
4530.6624886969757
 20
3076.054669227151
 30
0.0
  0
POINT
  5
8C67
  8
DEFPOINTS
 62
     0
 10
4530.6624886969757
 20
2340.3561467642071
 30
0.0
  0
ENDBLK
  5
8588
  8
0
  0
BLOCK
  8
0
  2
*D16
 70
     1
 10
0.0
 20
0.0
 30
0.0
  3
*D16
  1

  0
LINE
  5
8C79
  8
3
 62
     0
 10
630.66248869697756
 20
3538.61824922715
 30
0.0
 11
630.66248869697768
 21
7188.7320504162926
 31
0.0
  0
LINE
  5
8C7A
  8
3
 62
     0
 10
4635.6624886969767
 20
6701.6182492271491
 30
0.0
 11
4635.6624886969767
 21
7188.7320504162926
 31
0.0
  0
LINE
  5
8C7B
  8
3
 62
     0
 10
720.66248869697779
 20
7143.7320504162926
 30
0.0
 11
4545.6624886969767
 21
7143.7320504162926
 31
0.0
  0
INSERT
  5
8C7C
  8
3
 62
     0
  2
_OPEN
 10
630.66248869697768
 20
7143.7320504162926
 30
0.0
 41
90.0
 42
90.0
 43
90.0
 50
180.0
  0
INSERT
  5
8C7D
  8
3
 62
     0
  2
_OPEN
 10
4635.6624886969767
 20
7143.7320504162926
 30
0.0
 41
90.0
 42
90.0
 43
90.0
  0
TEXT
  8
3
  40
135
  5
8CEA
  62
0
  72
0
  71
0
 10
2363.16
 20
7017.28
 30
0.000000
  1
4005
  0
POINT
  5
8C7F
  8
DEFPOINTS
 62
     0
 10
630.66248869697756
 20
3516.11824922715
 30
0.0
  0
POINT
  5
8C80
  8
DEFPOINTS
 62
     0
 10
4635.6624886969767
 20
6679.1182492271491
 30
0.0
  0
POINT
  5
8C81
  8
DEFPOINTS
 62
     0
 10
4635.6624886969767
 20
7143.7320504162926
 30
0.0
  0
ENDBLK
  5
859D
  8
0
  0
BLOCK
  8
0
  2
*D17
 70
     1
 10
0.0
 20
0.0
 30
0.0
  3
*D17
  1

  0
LINE
  5
8C82
  8
3
 62
     0
 10
4635.6624886969767
 20
6724.1182492271491
 30
0.0
 11
4635.6624886969767
 21
6848.9506352395547
 31
0.0
  0
LINE
  5
8C83
  8
3
 62
     0
 10
3470.6624886969771
 20
6627.6196802527547
 30
0.0
 11
3470.6624886969771
 21
6848.9506352395547
 31
0.0
  0
LINE
  5
8C84
  8
3
 62
     0
 10
4545.6624886969767
 20
6803.9506352395547
 30
0.0
 11
3560.6624886969762
 21
6803.9506352395547
 31
0.0
  0
INSERT
  5
8C85
  8
3
 62
     0
  2
_OPEN
 10
4635.6624886969767
 20
6803.9506352395547
 30
0.0
 41
90.0
 42
90.0
 43
90.0
  0
INSERT
  5
8C86
  8
3
 62
     0
  2
_OPEN
 10
3470.6624886969771
 20
6803.9506352395547
 30
0.0
 41
90.0
 42
90.0
 43
90.0
 50
180.0
  0
TEXT
  8
3
  40
135
  5
8CEB
  62
0
  72
0
  71
0
 10
3783.16
 20
6677.50
 30
0.000000
  1
1165
  0
POINT
  5
8C88
  8
DEFPOINTS
 62
     0
 10
4635.6624886969767
 20
6701.6182492271491
 30
0.0
  0
POINT
  5
8C89
  8
DEFPOINTS
 62
     0
 10
3470.6624886969771
 20
6605.1196802527547
 30
0.0
  0
POINT
  5
8C8A
  8
DEFPOINTS
 62
     0
 10
3470.6624886969771
 20
6803.9506352395547
 30
0.0
  0
ENDBLK
  5
855C
  8
0
  0
BLOCK
  8
0
  2
*D18
 70
     1
 10
0.0
 20
0.0
 30
0.0
  3
*D18
  1

  0
LINE
  5
8C8B
  8
3
 62
     0
 10
1916.662488696976
 20
4849.6182492271491
 30
0.0
 11
1916.662488696976
 21
6848.9506352395547
 31
0.0
  0
LINE
  5
8C8C
  8
3
 62
     0
 10
3380.6624886969762
 20
6803.9506352395547
 30
0.0
 11
2006.6624886969771
 21
6803.9506352395547
 31
0.0
  0
INSERT
  5
8C8D
  8
3
 62
     0
  2
_OPEN
 10
3470.6624886969771
 20
6803.9506352395547
 30
0.0
 41
90.0
 42
90.0
 43
90.0
  0
INSERT
  5
8C8E
  8
3
 62
     0
  2
_OPEN
 10
1916.662488696976
 20
6803.9506352395547
 30
0.0
 41
90.0
 42
90.0
 43
90.0
 50
180.0
  0
TEXT
  8
3
  40
135
  5
8CEC
  62
0
  72
0
  71
0
 10
2423.66
 20
6677.50
 30
0.000000
  1
1554
  0
POINT
  5
8C90
  8
DEFPOINTS
 62
     0
 10
3470.6624886969771
 20
6605.1196802527547
 30
0.0
  0
POINT
  5
8C91
  8
DEFPOINTS
 62
     0
 10
1916.662488696976
 20
4827.1182492271491
 30
0.0
  0
POINT
  5
8C92
  8
DEFPOINTS
 62
     0
 10
1916.662488696976
 20
6803.9506352395547
 30
0.0
  0
ENDBLK
  5
8551
  8
0
  0
BLOCK
  8
0
  2
*D19
 70
     1
 10
0.0
 20
0.0
 30
0.0
  3
*D19
  1

  0
LINE
  5
8C93
  8
3
 62
     0
 10
4657.9465216969766
 20
6617.4080872271506
 30
0.0
 11
5299.1979261629922
 21
6617.4080872271506
 31
0.0
  0
LINE
  5
8C94
  8
3
 62
     0
 10
4658.1624886969767
 20
4767.1182492271491
 30
0.0
 11
5299.1979261629913
 21
4767.1182492271491
 31
0.0
  0
LINE
  5
8C95
  8
3
 62
     0
 10
5254.1979261629913
 20
6527.4080872271497
 30
0.0
 11
5254.1979261629913
 21
4857.1182492271482
 31
0.0
  0
INSERT
  5
8C96
  8
3
 62
     0
  2
_OPEN
 10
5254.1979261629913
 20
6617.4080872271506
 30
0.0
 41
90.0
 42
90.0
 43
90.0
 50
90.0
  0
INSERT
  5
8C97
  8
3
 62
     0
  2
_OPEN
 10
5254.1979261629913
 20
4767.1182492271491
 30
0.0
 41
90.0
 42
90.0
 43
90.0
 50
270.0
  0
TEXT
  8
3
  40
135
  5
8CED
  62
0
  72
0
  71
0
 10
4871.70
 20
5453.31
 30
0.000000
  1
1850
  0
POINT
  5
8C99
  8
DEFPOINTS
 62
     0
 10
4635.4465216969784
 20
6617.4080872271506
 30
0.0
  0
POINT
  5
8C9A
  8
DEFPOINTS
 62
     0
 10
4635.6624886969767
 20
4767.1182492271491
 30
0.0
  0
POINT
  5
8C9B
  8
DEFPOINTS
 62
     0
 10
5254.1979261629913
 20
4767.1182492271491
 30
0.0
  0
ENDBLK
  5
844D
  8
0
  0
BLOCK
  8
0
  2
*D20
 70
     1
 10
0.0
 20
0.0
 30
0.0
  3
*D20
  1

  0
LINE
  5
8C9C
  8
3
 62
     0
 10
5276.6979261629913
 20
6617.4080872271506
 30
0.0
 11
5656.6850221258092
 21
6617.4080872271506
 31
0.0
  0
LINE
  5
8C9D
  8
3
 62
     0
 10
4749.4464006507314
 20
4696.11824922715
 30
0.0
 11
5656.6850221258073
 21
4696.11824922715
 31
0.0
  0
LINE
  5
8C9E
  8
3
 62
     0
 10
5611.6850221258082
 20
6527.4080872271497
 30
0.0
 11
5611.6850221258082
 21
4786.11824922715
 31
0.0
  0
INSERT
  5
8C9F
  8
3
 62
     0
  2
_OPEN
 10
5611.6850221258082
 20
6617.4080872271506
 30
0.0
 41
90.0
 42
90.0
 43
90.0
 50
90.0
  0
INSERT
  5
8CA0
  8
3
 62
     0
  2
_OPEN
 10
5611.6850221258082
 20
4696.11824922715
 30
0.0
 41
90.0
 42
90.0
 43
90.0
 50
270.0
  0
TEXT
  8
3
  40
135
  5
8CEE
  62
0
  72
0
  71
0
 10
5229.19
 20
5417.81
 30
0.000000
  1
1921
  0
POINT
  5
8CA2
  8
DEFPOINTS
 62
     0
 10
5254.1979261629913
 20
6617.4080872271506
 30
0.0
  0
POINT
  5
8CA3
  8
DEFPOINTS
 62
     0
 10
4726.9464006507324
 20
4696.11824922715
 30
0.0
  0
POINT
  5
8CA4
  8
DEFPOINTS
 62
     0
 10
5611.6850221258082
 20
4696.11824922715
 30
0.0
  0
ENDBLK
  5
8546
  8
0
  0
BLOCK
  8
0
  2
*D21
 70
     1
 10
0.0
 20
0.0
 30
0.0
  3
*D21
  1

  0
LINE
  5
8CA5
  8
3
 62
     0
 10
4553.1624886969757
 20
3366.11824922715
 30
0.0
 11
5656.6850221258073
 21
3366.1182492271491
 31
0.0
  0
LINE
  5
8CA6
  8
3
 62
     0
 10
5611.6850221258082
 20
4606.11824922715
 30
0.0
 11
5611.6850221258082
 21
3456.11824922715
 31
0.0
  0
INSERT
  5
8CA7
  8
3
 62
     0
  2
_OPEN
 10
5611.6850221258082
 20
4696.11824922715
 30
0.0
 41
90.0
 42
90.0
 43
90.0
 50
90.0
  0
INSERT
  5
8CA8
  8
3
 62
     0
  2
_OPEN
 10
5611.6850221258082
 20
3366.1182492271491
 30
0.0
 41
90.0
 42
90.0
 43
90.0
 50
270.0
  0
TEXT
  8
3
  40
135
  5
8CEF
  62
0
  72
0
  71
0
 10
5229.19
 20
3792.17
 30
0.000000
  1
1330
  0
POINT
  5
8CAA
  8
DEFPOINTS
 62
     0
 10
4726.9464006507324
 20
4696.11824922715
 30
0.0
  0
POINT
  5
8CAB
  8
DEFPOINTS
 62
     0
 10
4530.6624886969757
 20
3366.11824922715
 30
0.0
  0
POINT
  5
8CAC
  8
DEFPOINTS
 62
     0
 10
5611.6850221258082
 20
3366.1182492271491
 30
0.0
  0
ENDBLK
  5
853B
  8
0
  0
BLOCK
  8
0
  2
*D22
 70
     1
 10
0.0
 20
0.0
 30
0.0
  3
*D22
  1

  0
LINE
  5
8CAD
  8
3
 62
     0
 10
4553.1624886969757
 20
3226.054669227151
 30
0.0
 11
5656.6850221258073
 21
3226.05466922715
 31
0.0
  0
LINE
  5
8CAE
  8
3
 62
     0
 10
5611.6850221258082
 20
3456.11824922715
 30
0.0
 11
5611.6850221258082
 21
3546.1182492271491
 31
0.0
  0
LINE
  5
8CAF
  8
3
 62
     0
 10
5611.6850221258082
 20
3136.05466922715
 30
0.0
 11
5611.6850221258082
 21
3046.05466922715
 31
0.0
  0
LINE
  5
8CB0
  8
3
 62
     0
 10
5611.6850221258082
 20
3296.0864592271491
 30
0.0
 11
5926.6850221258073
 21
3390.5864592271491
 31
0.0
  0
LINE
  5
8CB1
  8
3
 62
     0
 10
5926.6850221258073
 20
3390.5864592271491
 30
0.0
 11
5926.6850221258073
 21
3802.0150306557221
 31
0.0
  0
TEXT
  8
3
  40
135
  5
8CF0
  62
0
  72
0
  71
0
 10
5544.19
 20
3357.35
 30
0.000000
  1
140
  0
LINE
  5
8CB3
  8
3
 62
     0
 10
5611.6850221258082
 20
3366.1182492271491
 30
0.0
 11
5611.6850221258082
 21
3226.05466922715
 31
0.0
  0
INSERT
  5
8CB4
  8
3
 62
     0
  2
_OPEN
 10
5611.6850221258082
 20
3366.1182492271491
 30
0.0
 41
90.0
 42
90.0
 43
90.0
 50
270.0
  0
INSERT
  5
8CB5
  8
3
 62
     0
  2
_OPEN
 10
5611.6850221258082
 20
3226.05466922715
 30
0.0
 41
90.0
 42
90.0
 43
90.0
 50
90.0
  0
POINT
  5
8CB6
  8
DEFPOINTS
 62
     0
 10
4530.6624886969757
 20
3366.11824922715
 30
0.0
  0
POINT
  5
8CB7
  8
DEFPOINTS
 62
     0
 10
4530.6624886969757
 20
3226.054669227151
 30
0.0
  0
POINT
  5
8CB8
  8
DEFPOINTS
 62
     0
 10
5611.6850221258082
 20
3226.05466922715
 30
0.0
  0
ENDBLK
  5
8476
  8
0
  0
BLOCK
  8
0
  2
*D23
 70
     1
 10
0.0
 20
0.0
 30
0.0
  3
*D23
  1

  0
LINE
  5
8CB9
  8
3
 62
     0
 10
4553.1624886969757
 20
3076.054669227151
 30
0.0
 11
5656.6850221258073
 21
3076.054669227151
 31
0.0
  0
LINE
  5
8CBA
  8
3
 62
     0
 10
5611.6850221258082
 20
3316.05466922715
 30
0.0
 11
5611.6850221258082
 21
3406.054669227151
 31
0.0
  0
LINE
  5
8CBB
  8
3
 62
     0
 10
5611.6850221258082
 20
2986.05466922715
 30
0.0
 11
5611.6850221258082
 21
2484.6260977985789
 31
0.0
  0
INSERT
  5
8CBC
  8
3
 62
     0
  2
_OPEN
 10
5611.6850221258082
 20
3226.05466922715
 30
0.0
 41
90.0
 42
90.0
 43
90.0
 50
270.0
  0
INSERT
  5
8CBD
  8
3
 62
     0
  2
_OPEN
 10
5611.6850221258082
 20
3076.054669227151
 30
0.0
 41
90.0
 42
90.0
 43
90.0
 50
90.0
  0
TEXT
  8
3
  40
135
  5
8CF1
  62
0
  72
0
  71
0
 10
5229.19
 20
2451.39
 30
0.000000
  1
150
  0
POINT
  5
8CBF
  8
DEFPOINTS
 62
     0
 10
4530.6624886969757
 20
3226.054669227151
 30
0.0
  0
POINT
  5
8CC0
  8
DEFPOINTS
 62
     0
 10
4530.6624886969757
 20
3076.054669227151
 30
0.0
  0
POINT
  5
8CC1
  8
DEFPOINTS
 62
     0
 10
5611.6850221258082
 20
3076.054669227151
 30
0.0
  0
ENDBLK
  5
849C
  8
0
  0
BLOCK
  8
0
  2
*D24
 70
     1
 10
0.0
 20
0.0
 30
0.0
  3
*D24
  1

  0
LINE
  5
8CC2
  8
3
 62
     0
 10
5634.1850221258082
 20
3076.054669227151
 30
0.0
 11
6098.1720471246799
 21
3076.054669227151
 31
0.0
  0
LINE
  5
8CC3
  8
3
 62
     0
 10
5634.1850221258082
 20
6617.4080872271506
 30
0.0
 11
6098.1720471246808
 21
6617.4080872271506
 31
0.0
  0
LINE
  5
8CC4
  8
3
 62
     0
 10
6053.1720471246808
 20
3166.05466922715
 30
0.0
 11
6053.1720471246817
 21
6527.4080872271497
 31
0.0
  0
INSERT
  5
8CC5
  8
3
 62
     0
  2
_OPEN
 10
6053.1720471246808
 20
3076.054669227151
 30
0.0
 41
90.0
 42
90.0
 43
90.0
 50
270.0
  0
INSERT
  5
8CC6
  8
3
 62
     0
  2
_OPEN
 10
6053.1720471246817
 20
6617.4080872271506
 30
0.0
 41
90.0
 42
90.0
 43
90.0
 50
90.0
  0
TEXT
  8
3
  40
135
  5
8CF2
  62
0
  72
0
  71
0
 10
5670.67
 20
4607.78
 30
0.000000
  1
3541
  0
POINT
  5
8CC8
  8
DEFPOINTS
 62
     0
 10
5611.6850221258082
 20
3076.054669227151
 30
0.0
  0
POINT
  5
8CC9
  8
DEFPOINTS
 62
     0
 10
5611.6850221258082
 20
6617.4080872271506
 30
0.0
  0
POINT
  5
8CCA
  8
DEFPOINTS
 62
     0
 10
6053.1720471246817
 20
6617.4080872271506
 30
0.0
  0
ENDBLK
  5
8531
  8
0
  0
BLOCK
  8
0
  2
*D25
 70
     1
 10
0.0
 20
0.0
 30
0.0
  3
*D25
  1

  0
LINE
  5
8CCB
  8
3
 62
     0
 10
6937.6376499999988
 20
6641.7122550463973
 30
0.0
 11
6937.6376499999988
 21
6838.8525596123
 31
0.0
  0
LINE
  5
8CCC
  8
3
 62
     0
 10
8257.6376500000006
 20
6641.7122550463992
 30
0.0
 11
8257.6376500000006
 21
6838.8525596123
 31
0.0
  0
LINE
  5
8CCD
  8
3
 62
     0
 10
7027.6376499999988
 20
6793.8525596123
 30
0.0
 11
8167.6376500000006
 21
6793.8525596123
 31
0.0
  0
INSERT
  5
8CCE
  8
3
 62
     0
  2
_OPEN
 10
6937.6376499999988
 20
6793.8525596123
 30
0.0
 41
90.0
 42
90.0
 43
90.0
 50
180.0
  0
INSERT
  5
8CCF
  8
3
 62
     0
  2
_OPEN
 10
8257.6376500000006
 20
6793.8525596123
 30
0.0
 41
90.0
 42
90.0
 43
90.0
  0
TEXT
  8
3
  40
135
  5
8CF3
  62
0
  72
0
  71
0
 10
7327.64
 20
6667.40
 30
0.000000
  1
1320
  0
POINT
  5
8CD1
  8
DEFPOINTS
 62
     0
 10
6937.6376499999988
 20
6619.2122550463982
 30
0.0
  0
POINT
  5
8CD2
  8
DEFPOINTS
 62
     0
 10
8257.6376500000006
 20
6619.2122550463982
 30
0.0
  0
POINT
  5
8CD3
  8
DEFPOINTS
 62
     0
 10
8257.6376500000006
 20
6793.8525596123
 30
0.0
  0
ENDBLK
  5
864F
  8
0
  0
BLOCK
  8
0
  2
*D26
 70
     1
 10
0.0
 20
0.0
 30
0.0
  3
*D26
  1

  0
LINE
  5
8CD4
  8
3
 62
     0
 10
4553.1624886969748
 20
8163.5698250355763
 30
0.0
 11
5437.145554794959
 21
8163.5698250355763
 31
0.0
  0
LINE
  5
8CD5
  8
3
 62
     0
 10
4553.1624886969748
 20
10013.569825035571
 30
0.0
 11
5437.145554794959
 21
10013.569825035571
 31
0.0
  0
LINE
  5
8CD6
  8
3
 62
     0
 10
5392.145554794959
 20
8253.5698250355763
 30
0.0
 11
5392.145554794959
 21
9923.5698250355781
 31
0.0
  0
INSERT
  5
8CD7
  8
3
 62
     0
  2
_OPEN
 10
5392.145554794959
 20
8163.5698250355763
 30
0.0
 41
90.0
 42
90.0
 43
90.0
 50
270.0
  0
INSERT
  5
8CD8
  8
3
 62
     0
  2
_OPEN
 10
5392.145554794959
 20
10013.569825035571
 30
0.0
 41
90.0
 42
90.0
 43
90.0
 50
90.0
  0
TEXT
  8
3
  40
135
  5
8CF4
  62
0
  72
0
  71
0
 10
5009.65
 20
8849.62
 30
0.000000
  1
1850
  0
POINT
  5
8CDA
  8
DEFPOINTS
 62
     0
 10
4530.6624886969748
 20
8163.5698250355763
 30
0.0
  0
POINT
  5
8CDB
  8
DEFPOINTS
 62
     0
 10
4530.6624886969748
 20
10013.569825035571
 30
0.0
  0
POINT
  5
8CDC
  8
DEFPOINTS
 62
     0
 10
5392.145554794959
 20
10013.569825035571
 30
0.0
  0
ENDBLK
  5
867E
  8
0
  0
ENDSEC
  0
SECTION
  2
ENTITIES
  0
INSERT
  5
7ADD
  8
0
  2
YA_N
 10
12518.736613999999
 20
-6524.6833909999987
 30
0.0
  0
INSERT
  5
7AF5
  8
0
  2
YA_N
 10
18386.038918999999
 20
2975.8020809999989
 30
0.0
  0
INSERT
  5
7DA2
  8
0
  2
YA_N
 10
12518.736613999999
 20
-6524.6833909999987
 30
0.0
  0
INSERT
  5
7DB4
  8
0
  2
YA_N
 10
18386.038918999999
 20
2975.8020809999989
 30
0.0
  0
LINE
  5
80D9
  8
1
 10
6486.6376499999997
 20
3516.11824922715
 30
0.0
 11
8336.6376500000006
 21
3516.11824922715
 31
0.0
  0
LINE
  5
80DA
  8
1
 10
6486.6376499999997
 20
3366.11824922715
 30
0.0
 11
8336.6376500000006
 21
3366.11824922715
 31
0.0
  0
LINE
  5
80E7
  8
1
 10
6561.6376499999997
 20
3516.11824922715
 30
0.0
 11
6486.6376499999997
 21
3516.11824922715
 31
0.0
  0
LINE
  5
80E8
  8
1
 10
6561.6376499999997
 20
3366.11824922715
 30
0.0
 11
6486.6376499999997
 21
3366.11824922715
 31
0.0
  0
LINE
  5
80EA
  8
2
 10
7597.6376499999997
 20
3021.4124062271512
 30
0.0
 11
7597.6376499999997
 21
6773.0185956053756
 31
0.0
  0
LINE
  5
80EB
  8
1
 10
8257.6376500000006
 20
4767.118249227151
 30
0.0
 11
8257.6376500000006
 21
6619.2122550463964
 31
0.0
  0
LINE
  5
80EC
  8
1
 10
8392.6376500000006
 20
3731.1182492271491
 30
0.0
 11
8392.6376500000006
 21
5661.118249227151
 31
0.0
  0
LINE
  5
80ED
  8
1
 10
8257.6376500000006
 20
3516.11824922715
 30
0.0
 11
8257.6376499999988
 21
4703.11824922715
 31
0.0
  0
LINE
  5
80EE
  8
1
 10
8261.6376500000006
 20
3366.11824922715
 30
0.0
 11
8336.6376500000006
 21
3366.11824922715
 31
0.0
  0
LINE
  5
80EF
  8
1
 10
8261.6376500000006
 20
3516.11824922715
 30
0.0
 11
8336.6376500000006
 21
3516.11824922715
 31
0.0
  0
LINE
  5
80F0
  8
1
 10
8257.6376500000006
 20
3796.11824922715
 30
0.0
 11
8392.6376500000006
 21
3796.11824922715
 31
0.0
  0
LINE
  5
80F1
  8
1
 10
8257.6376500000006
 20
5596.11824922715
 30
0.0
 11
8392.6376500000006
 21
5596.11824922715
 31
0.0
  0
LINE
  5
80F7
  8
1
 10
1916.662488696976
 20
9363.5698250355745
 30
0.0
 11
630.66248869697665
 21
9363.5698250355745
 31
0.0
  0
LINE
  5
80F8
  8
1
 10
4530.6624886969748
 20
8163.5698250355763
 30
0.0
 11
630.66248869697654
 21
8163.5698250355763
 31
0.0
  0
LINE
  5
80FB
  8
1
 10
4530.6624886969748
 20
10013.569825035571
 30
0.0
 11
4370.6624886969739
 21
10013.569825035571
 31
0.0
  0
LINE
  5
80FD
  8
2
 10
3470.6624886969748
 20
8109.5040792468944
 30
0.0
 11
3470.6624886969748
 21
10184.02316551319
 31
0.0
  0
LINE
  5
8102
  8
1
 10
630.66248869697665
 20
8163.5698250355763
 30
0.0
 11
630.66248869697665
 21
9363.5698250355745
 31
0.0
  0
INSERT
  5
8103
  8
0
  2
YA_N
 10
12518.736613999999
 20
-6524.6833909999987
 30
0.0
  0
LINE
  5
8105
  8
2
 10
6397.6376499999997
 20
4696.11824922715
 30
0.0
 11
8498.3907209999998
 21
4696.11824922715
 31
0.0
  0
LINE
  5
8106
  8
1
 10
6497.6376499999978
 20
3581.11824922715
 30
0.0
 11
6497.6376499999997
 21
5176.11824922715
 31
0.0
  0
LINE
  5
8107
  8
1
 10
6697.6376499999997
 20
5176.11824922715
 30
0.0
 11
6697.6376499999978
 21
3581.11824922715
 31
0.0
  0
LINE
  5
8108
  8
1
 10
6697.6376499999978
 20
3581.11824922715
 30
0.0
 11
6497.6376499999978
 21
3581.11824922715
 31
0.0
  0
LINE
  5
8109
  8
1
 10
6657.6376499999988
 20
3716.11824922715
 30
0.0
 11
6657.6376499999988
 21
4046.11824922715
 31
0.0
  0
LINE
  5
810A
  8
1
 10
6537.6376499999988
 20
3716.11824922715
 30
0.0
 11
6537.6376499999988
 21
4046.11824922715
 31
0.0
  0
LINE
  5
810B
  8
1
 10
6537.6376499999988
 20
5096.11824922715
 30
0.0
 11
6657.6376499999988
 21
5096.11824922715
 31
0.0
  0
LINE
  5
810C
  8
1
 10
6657.6376499999988
 20
4296.11824922715
 30
0.0
 11
6537.6376499999988
 21
4296.11824922715
 31
0.0
  0
LINE
  5
810D
  8
1
 10
6537.6376499999988
 20
4046.11824922715
 30
0.0
 11
6537.6376499999988
 21
5096.11824922715
 31
0.0
  0
LINE
  5
810E
  8
1
 10
6657.6376499999988
 20
4046.11824922715
 30
0.0
 11
6657.6376499999988
 21
5096.11824922715
 31
0.0
  0
LINE
  5
810F
  8
2
 10
6597.6376499999997
 20
5141.96624922715
 30
0.0
 11
6597.6376499999988
 21
3480.81417422715
 31
0.0
  0
LINE
  5
8110
  8
1
 10
6697.6376499999997
 20
5176.11824922715
 30
0.0
 11
6497.6376499999997
 21
5176.11824922715
 31
0.0
  0
LINE
  5
8112
  8
2
 10
6463.3366499999993
 20
3866.11824922715
 30
0.0
 11
7258.8748049999986
 21
3866.11824922715
 31
0.0
  0
LINE
  5
8113
  8
1
 10
6537.6376499999988
 20
4016.11824922715
 30
0.0
 11
6657.6376499999988
 21
4016.11824922715
 31
0.0
  0
LINE
  5
8114
  8
1
 10
6537.6376499999988
 20
3716.11824922715
 30
0.0
 11
6657.6376499999988
 21
3716.11824922715
 31
0.0
  0
INSERT
  5
8115
  8
0
  2
YA_N
 10
18386.038918999999
 20
2975.8020809999989
 30
0.0
  0
LINE
  5
8124
  8
1
 10
6486.6376499999997
 20
3516.11824922715
 30
0.0
 11
6486.6376499999997
 21
3366.11824922715
 31
0.0
  0
LINE
  5
8125
  8
1
 10
8336.6376500000006
 20
3516.11824922715
 30
0.0
 11
8336.6376500000006
 21
3366.11824922715
 31
0.0
  0
LINE
  5
8126
  8
1
 10
6486.6376499999997
 20
3076.054669227151
 30
0.0
 11
8336.6376500000006
 21
3076.054669227151
 31
0.0
  0
LINE
  5
8127
  8
1
 10
6486.6376499999997
 20
3226.054669227151
 30
0.0
 11
8336.6376500000006
 21
3226.054669227151
 31
0.0
  0
LINE
  5
8128
  8
1
 10
6561.6376499999997
 20
3076.054669227151
 30
0.0
 11
6486.6376499999997
 21
3076.054669227151
 31
0.0
  0
LINE
  5
8129
  8
1
 10
6561.6376499999997
 20
3226.054669227151
 30
0.0
 11
6486.6376499999997
 21
3226.054669227151
 31
0.0
  0
LINE
  5
812A
  8
1
 10
6486.6376499999997
 20
3226.054669227151
 30
0.0
 11
6486.6376499999997
 21
3076.054669227151
 31
0.0
  0
LINE
  5
812B
  8
1
 10
8336.6376500000006
 20
3226.054669227151
 30
0.0
 11
8336.6376500000006
 21
3076.054669227151
 31
0.0
  0
LINE
  5
812E
  8
2
 10
5000.8064256969774
 20
9274.5698250355745
 30
0.0
 11
2042.2571361713781
 21
9274.5698250355745
 31
0.0
  0
LINE
  5
8131
  8
1
 10
4635.6624886969767
 20
9934.5698250355763
 30
0.0
 11
1916.662488696976
 21
9934.5698250355781
 31
0.0
  0
LINE
  5
8132
  8
1
 10
4635.6624886969767
 20
8614.5698250355763
 30
0.0
 11
1916.662488696976
 21
8614.5698250355763
 31
0.0
  0
LINE
  5
8133
  8
1
 10
4530.6624886969757
 20
8163.5698250355763
 30
0.0
 11
4530.6624886969757
 21
8614.5698250355763
 31
0.0
  0
LINE
  5
8134
  8
1
 10
2410.6624886969762
 20
8374.5698250355763
 30
0.0
 11
2410.6624886969762
 21
8614.5698250355763
 31
0.0
  0
LINE
  5
8138
  8
1
 10
950.66248869697665
 20
8214.5698250355745
 30
0.0
 11
950.66248869697665
 21
8334.5698250355745
 31
0.0
  0
LINE
  5
8139
  8
1
 10
1250.662488696976
 20
8214.5698250355745
 30
0.0
 11
1250.662488696976
 21
8334.5698250355745
 31
0.0
  0
LINE
  5
813A
  8
1
 10
1100.662488696976
 20
8140.2688250355741
 30
0.0
 11
1100.662488696976
 21
8488.0698250355745
 31
0.0
  0
LINE
  5
813B
  8
1
 10
3950.6624886969762
 20
8374.5698250355745
 30
0.0
 11
3950.6624886969762
 21
8174.5698250355736
 31
0.0
  0
LINE
  5
813C
  8
1
 10
3070.6624886969762
 20
8334.5698250355745
 30
0.0
 11
3070.6624886969762
 21
8214.5698250355745
 31
0.0
  0
LINE
  5
813D
  8
1
 10
3870.6624886969748
 20
8214.5698250355745
 30
0.0
 11
3870.6624886969748
 21
8334.5698250355745
 31
0.0
  0
LINE
  5
813E
  8
1
 10
815.66248869697654
 20
8374.5698250355745
 30
0.0
 11
815.66248869697654
 21
8174.5698250355736
 31
0.0
  0
LINE
  5
813F
  8
1
 10
950.66248869697665
 20
8214.5698250355745
 30
0.0
 11
1250.662488696976
 21
8214.5698250355745
 31
0.0
  0
LINE
  5
8140
  8
1
 10
815.66248869697654
 20
8174.5698250355754
 30
0.0
 11
3950.6624886969762
 21
8174.5698250355736
 31
0.0
  0
LINE
  5
8141
  8
2
 10
3916.5104886969762
 20
8274.5698250355745
 30
0.0
 11
894.21144469697617
 21
8274.5698250355745
 31
0.0
  0
LINE
  5
8142
  8
1
 10
3070.6624886969762
 20
8214.5698250355745
 30
0.0
 11
3870.6624886969748
 21
8214.5698250355745
 31
0.0
  0
LINE
  5
8143
  8
1
 10
950.66248869697665
 20
8334.5698250355745
 30
0.0
 11
1250.662488696976
 21
8334.5698250355745
 31
0.0
  0
LINE
  5
8144
  8
1
 10
3950.6624886969762
 20
8374.5698250355745
 30
0.0
 11
815.66248869697654
 21
8374.5698250355745
 31
0.0
  0
LINE
  5
8145
  8
1
 10
3070.6624886969762
 20
8334.5698250355745
 30
0.0
 11
3870.6624886969748
 21
8334.5698250355745
 31
0.0
  0
LINE
  5
8146
  8
1
 10
6657.6376499999988
 20
4741.11824922715
 30
0.0
 11
6868.6376499999997
 21
4741.1182492271491
 31
0.0
  0
LINE
  5
8147
  8
1
 10
6657.6376499999988
 20
4651.11824922715
 30
0.0
 11
6937.6376499999988
 21
4651.11824922715
 31
0.0
  0
LINE
  5
8148
  8
1
 10
830.66248869697665
 20
9313.5698250355763
 30
0.0
 11
830.66248869697665
 21
8461.0698250355763
 31
0.0
  0
LINE
  5
8149
  8
1
 10
1388.162488696976
 20
8461.0698250355763
 30
0.0
 11
1388.162488696976
 21
9313.5698250355763
 31
0.0
  0
LINE
  5
814A
  8
2
 10
1100.662488696976
 20
8255.0732440355769
 30
0.0
 11
1100.662488696976
 21
9332.861141035577
 31
0.0
  0
LINE
  5
814B
  8
1
 10
830.66248869697665
 20
9313.5698250355763
 30
0.0
 11
1388.162488696976
 21
9313.5698250355763
 31
0.0
  0
LINE
  5
814C
  8
1
 10
1388.162488696976
 20
8461.0698250355763
 30
0.0
 11
830.66248869697665
 21
8461.0698250355763
 31
0.0
  0
LINE
  5
814D
  8
1
 10
1015.162488696976
 20
8454.5698250355745
 30
0.0
 11
1186.162488696976
 21
8454.5698250355745
 31
0.0
  0
LINE
  5
814E
  8
1
 10
1058.162488696976
 20
8274.5698250355745
 30
0.0
 11
1148.162488696976
 21
8274.5698250355745
 31
0.0
  0
LINE
  5
814F
  8
1
 10
1050.662488696976
 20
8444.5698250355745
 30
0.0
 11
1150.662488696976
 21
8444.5698250355745
 31
0.0
  0
LINE
  5
8150
  8
1
 10
1058.162488696976
 20
8274.5698250355745
 30
0.0
 11
1058.162488696976
 21
8444.5698250355745
 31
0.0
  0
LINE
  5
8151
  8
1
 10
1050.662488696976
 20
8444.5698250355745
 30
0.0
 11
1050.662488696976
 21
8454.5698250355745
 31
0.0
  0
ARC
  5
8152
  8
1
 10
1015.162488696976
 20
8456.5698250355745
 30
0.0
 40
2.0
 50
180.0
 51
270.0
  0
LINE
  5
8153
  8
1
 10
1013.162488696976
 20
8461.4182000355759
 30
0.0
 11
1013.162488696976
 21
8456.5698250355745
 31
0.0
  0
LINE
  5
8154
  8
1
 10
1148.162488696976
 20
8274.5698250355745
 30
0.0
 11
1148.162488696976
 21
8414.5698250355763
 31
0.0
  0
LINE
  5
8155
  8
1
 10
1143.162488696976
 20
8274.5698250355745
 30
0.0
 11
1143.162488696976
 21
8439.0698250355745
 31
0.0
  0
LINE
  5
8156
  8
1
 10
1150.662488696976
 20
8444.5698250355745
 30
0.0
 11
1150.662488696976
 21
8454.5698250355745
 31
0.0
  0
ARC
  5
8157
  8
1
 10
1186.162488696976
 20
8456.5698250355745
 30
0.0
 40
2.0
 50
270.0
 51
0.0
  0
LINE
  5
8158
  8
1
 10
1188.162488696976
 20
8461.0698250355763
 30
0.0
 11
1188.162488696976
 21
8456.5698250355745
 31
0.0
  0
LINE
  5
8159
  8
1
 10
1143.162488696976
 20
8414.5698250355763
 30
0.0
 11
1148.162488696976
 21
8414.5698250355763
 31
0.0
  0
LINE
  5
815A
  8
1
 10
6937.6376499999988
 20
4136.11824922715
 30
0.0
 11
6784.1376499999988
 21
4136.11824922715
 31
0.0
  0
LINE
  5
815B
  8
1
 10
6784.1376499999988
 20
3578.61824922715
 30
0.0
 11
6937.6376499999988
 21
3578.61824922715
 31
0.0
  0
LINE
  5
815C
  8
1
 10
6784.1376499999988
 20
3578.61824922715
 30
0.0
 11
6784.1376499999988
 21
4136.11824922715
 31
0.0
  0
LINE
  5
815D
  8
1
 10
6777.6376499999988
 20
3951.61824922715
 30
0.0
 11
6777.6376499999988
 21
3780.61824922715
 31
0.0
  0
LINE
  5
815E
  8
1
 10
6784.4860249999992
 20
3953.61824922715
 30
0.0
 11
6779.6376499999988
 21
3953.61824922715
 31
0.0
  0
ARC
  5
815F
  8
1
 10
6779.6376499999988
 20
3951.61824922715
 30
0.0
 40
2.0
 50
90.0
 51
180.0
  0
LINE
  5
8160
  8
1
 10
6597.6376499999988
 20
3823.61824922715
 30
0.0
 11
6762.1376499999978
 21
3823.61824922715
 31
0.0
  0
LINE
  5
8161
  8
1
 10
6597.6376499999988
 20
3818.6182492271491
 30
0.0
 11
6737.6376499999988
 21
3818.6182492271491
 31
0.0
  0
LINE
  5
8162
  8
1
 10
6597.6376499999988
 20
3908.61824922715
 30
0.0
 11
6767.6376499999988
 21
3908.61824922715
 31
0.0
  0
LINE
  5
8163
  8
1
 10
6737.6376499999988
 20
3823.61824922715
 30
0.0
 11
6737.6376499999988
 21
3818.6182492271491
 31
0.0
  0
LINE
  5
8164
  8
1
 10
6784.1376499999988
 20
3778.61824922715
 30
0.0
 11
6779.6376499999988
 21
3778.61824922715
 31
0.0
  0
ARC
  5
8165
  8
1
 10
6779.6376499999988
 20
3780.61824922715
 30
0.0
 40
2.0
 50
180.0
 51
270.0
  0
LINE
  5
8166
  8
1
 10
6767.6376499999988
 20
3816.11824922715
 30
0.0
 11
6777.6376499999988
 21
3816.11824922715
 31
0.0
  0
LINE
  5
8167
  8
1
 10
6767.6376499999988
 20
3916.11824922715
 30
0.0
 11
6777.6376499999988
 21
3916.11824922715
 31
0.0
  0
LINE
  5
8168
  8
1
 10
6767.6376499999988
 20
3916.11824922715
 30
0.0
 11
6767.6376499999988
 21
3816.11824922715
 31
0.0
  0
LINE
  5
8169
  8
1
 10
6597.6376499999988
 20
3908.61824922715
 30
0.0
 11
6597.6376499999988
 21
3818.6182492271491
 31
0.0
  0
DIMENSION
  5
8176
  8
3
  2
*D3
 10
2410.6624886969762
 20
10320.822061390931
 30
0.0
 11
3463.5912026969759
 21
10320.822061390931
 31
0.0
 70
   128
 13
4530.6624886969748
 23
10013.569825035571
 33
0.0
 14
2410.6624886969762
 24
10013.569825035571
 34
0.0
1001
ACAD
1000
DSTYLE
1002
{
1070
   287
1070
     3
1070
   287
1070
     3
1070
    40
1040
45.0
1070
   143
1040
0.039
1070
   172
1070
     1
1070
   271
1070
     0
1070
   279
1070
     0
1070
   288
1070
     1
1002
}
  0
DIMENSION
  5
8182
  8
3
  2
*D4
 10
630.66248869697677
 20
10320.822061390931
 30
0.0
 11
1520.662488696976
 21
10433.322061390931
 31
0.0
 70
     0
 13
2410.6624886969762
 23
10013.569825035571
 33
0.0
 14
630.66248869697665
 24
9363.5698250355745
 34
0.0
1001
ACAD
1000
DSTYLE
1002
{
1070
   287
1070
     4
1070
   287
1070
     4
1070
    40
1040
45.0
1070
    75
1070
     1
1070
   143
1040
0.039
1070
   172
1070
     1
1070
   271
1070
     0
1070
   279
1070
     1
1070
   288
1070
     1
1002
}
  0
DIMENSION
  5
819C
  8
3
  2
*D5
 10
388.53044069697751
 20
8163.5698250355763
 30
0.0
 11
388.5304406969762
 21
8757.2817040355767
 31
0.0
 70
   128
 13
630.66248869697665
 23
9363.5698250355745
 33
0.0
 14
630.66248869697665
 24
8163.5698250355763
 34
0.0
 50
90.0
1001
ACAD
1000
DSTYLE
1002
{
1070
   287
1070
     3
1070
   287
1070
     3
1070
    40
1040
45.0
1070
   143
1040
0.039
1070
   172
1070
     1
1070
   271
1070
     0
1070
   279
1070
     0
1070
   288
1070
     1
1002
}
  0
DIMENSION
  5
81A9
  8
3
  2
*D6
 10
4530.6624886969748
 20
7682.284521137195
 30
0.0
 11
2670.6811446969759
 21
7682.284521137195
 31
0.0
 70
   128
 13
630.66248869697665
 23
8163.5698250355763
 33
0.0
 14
4530.6624886969748
 24
8163.5698250355763
 34
0.0
1001
ACAD
1000
DSTYLE
1002
{
1070
   287
1070
     3
1070
   287
1070
     3
1070
    40
1040
45.0
1070
   143
1040
0.039
1070
   172
1070
     1
1070
   271
1070
     0
1070
   279
1070
     0
1070
   288
1070
     1
1002
}
  0
DIMENSION
  5
8238
  8
3
  2
*D7
 10
7597.6376499999997
 20
2603.582059511094
 30
0.0
 11
7064.637444
 21
2603.582059511094
 31
0.0
 70
   128
 13
6486.6376499999997
 23
3076.054669227151
 33
0.0
 14
7597.6376499999997
 24
3021.4124062271512
 34
0.0
1001
ACAD
1000
DSTYLE
1002
{
1070
   287
1070
     3
1070
   287
1070
     3
1070
    40
1040
45.0
1070
   143
1040
0.039
1070
   172
1070
     1
1070
   271
1070
     0
1070
   279
1070
     0
1070
   288
1070
     1
1002
}
  0
DIMENSION
  5
8244
  8
3
  2
*D8
 10
8336.6376500000006
 20
2603.582059511094
 30
0.0
 11
7967.1376500000006
 21
2716.082059511094
 31
0.0
 70
     0
 13
7597.6376499999997
 23
3021.4124062271512
 33
0.0
 14
8336.6376500000006
 24
3076.054669227151
 34
0.0
1001
ACAD
1000
DSTYLE
1002
{
1070
   287
1070
     4
1070
   287
1070
     4
1070
    40
1040
45.0
1070
    75
1070
     1
1070
   143
1040
0.039
1070
   172
1070
     1
1070
   271
1070
     0
1070
   279
1070
     1
1070
   288
1070
     1
1002
}
  0
DIMENSION
  5
8251
  8
3
  2
*D9
 10
8336.6376500000006
 20
2355.4739218080281
 30
0.0
 11
7486.8346590000001
 21
2355.4739218080281
 31
0.0
 70
   128
 13
6486.6376499999997
 23
3076.054669227151
 33
0.0
 14
8336.6376500000006
 24
3076.054669227151
 34
0.0
1001
ACAD
1000
DSTYLE
1002
{
1070
   287
1070
     3
1070
   287
1070
     3
1070
    40
1040
45.0
1070
   143
1040
0.039
1070
   172
1070
     1
1070
   271
1070
     0
1070
   279
1070
     0
1070
   288
1070
     1
1002
}
  0
DIMENSION
  5
825E
  8
3
  2
*D10
 10
8777.5519079999995
 20
3796.11824922715
 30
0.0
 11
8777.5519079999995
 21
4641.8280002271504
 31
0.0
 70
   128
 13
8392.6376500000006
 23
5596.11824922715
 33
0.0
 14
8392.6376500000006
 24
3796.11824922715
 34
0.0
 50
90.0
1001
ACAD
1000
DSTYLE
1002
{
1070
   287
1070
     3
1070
   287
1070
     3
1070
     3
1000
φ<>
1070
    40
1040
45.0
1070
   143
1040
0.039
1070
   172
1070
     1
1070
   271
1070
     0
1070
   279
1070
     0
1070
   288
1070
     1
1002
}
  0
DIMENSION
  5
8278
  8
3
  2
*D11
 10
7597.6376499999997
 20
7166.2087289752171
 30
0.0
 11
8005.5341159999989
 21
7166.2087289752171
 31
0.0
 70
   128
 13
8392.6376500000006
 23
5661.118249227151
 33
0.0
 14
7597.6376499999997
 24
7025.0551873725481
 34
0.0
1001
ACAD
1000
DSTYLE
1002
{
1070
   287
1070
     3
1070
   287
1070
     3
1070
    40
1040
45.0
1070
   143
1040
0.039
1070
   172
1070
     1
1070
   271
1070
     0
1070
   279
1070
     0
1070
   288
1070
     1
1002
}
  0
DIMENSION
  5
8284
  8
3
  2
*D12
 10
6497.6376499999997
 20
7166.2087289752171
 30
0.0
 11
7047.6376499999997
 21
7314.0658718323593
 31
0.0
 70
     0
  1
(1150)
 13
7597.6376499999997
 23
6855.407678258558
 33
0.0
 14
6497.6376499999997
 24
5176.11824922715
 34
0.0
1001
ACAD
1000
DSTYLE
1002
{
1070
   287
1070
     4
1070
   287
1070
     4
1070
    40
1040
45.0
1070
    75
1070
     1
1070
   143
1040
0.039
1070
   172
1070
     1
1070
   271
1070
     0
1070
   279
1070
     1
1070
   288
1070
     1
1002
}
  0
LINE
  5
8285
  8
4
 10
8325.0
 20
1775.845221491152
 30
0.0
 11
8325.0
 21
875.84522149115207
 31
0.0
  0
LINE
  5
8286
  8
4
 10
5175.0
 20
1775.845221491152
 30
0.0
 11
5175.0
 21
875.84522149115207
 31
0.0
  0
LINE
  5
8287
  8
4
 10
2925.0
 20
1775.845221491152
 30
0.0
 11
2925.0
 21
875.84522149115207
 31
0.0
  0
LINE
  5
828A
  8
4
 10
2925.0
 20
875.84522149115207
 30
0.0
 11
8325.0
 21
875.84522149115207
 31
0.0
  0
LINE
  5
828B
  8
4
 10
2925.0
 20
1325.845221491152
 30
0.0
 11
8325.0
 21
1325.845221491152
 31
0.0
  0
TEXT
  5
828C
  8
4
 10
3098.259364
 20
1467.788837491152
 30
0.0
 40
225.0
  1
機器名称
  0
TEXT
  5
828D
  8
4
 10
3088.1614769999992
 20
973.24842649115226
 30
0.0
 40
225.0
  1
機器型番
  0
TEXT
  5
828E
  8
4
 10
5197.1468829999994
 20
1429.233946491152
 30
0.0
 40
202.49999999999989
  1
ミツヤ多翼送風機
  0
TEXT
  5
828F
  8
4
 10
5339.9452299999994
 20
953.06335049115205
 30
0.0
 40
225.0
  1
MF#11-4
  0
TEXT
  5
8291
  8
4
 10
3619.4975020000002
 20
10725.429786000001
 30
0.0
 40
243.0
  1
床置防振ベット
  0
TEXT
  5
8292
  8
4
 10
1258.0479374325371
 20
11402.464393
 30
0.0
 40
324.0
  1
ベルト駆動式片吸込両持多翼ファン
 41
1.143750671685607
 72
     5
 11
8224.8620288039092
 21
11402.464393
 31
0.0
  0
LINE
  5
8293
  8
4
 10
1125.0
 20
11112.339394000001
 30
0.0
 11
8325.0
 21
11112.339394000001
 31
0.0
  0
LINE
  5
8294
  8
4
 10
1125.0
 20
12012.339394000001
 30
0.0
 11
8325.0
 21
12012.339394000001
 31
0.0
  0
LINE
  5
8295
  8
4
 10
2925.0
 20
1775.845221491152
 30
0.0
 11
8325.0
 21
1775.845221491152
 31
0.0
  0
LINE
  5
8296
  8
4
 10
1125.0
 20
12012.339394000001
 30
0.0
 11
1125.0
 21
11112.339394000001
 31
0.0
  0
TEXT
  5
8297
  8
4
 10
1658.1327570000001
 20
10720.437649
 30
0.0
 40
243.0
  1
右回転右横向
  0
TEXT
  5
8298
  8
4
 10
6610.3630169999997
 20
12177.274867
 30
0.0
 40
252.0
  1
No.
  0
TEXT
  5
8299
  8
4
 10
5900.8322820000003
 20
10725.429786000001
 30
0.0
 40
243.0
  1
縮尺：1/45
  0
LINE
  5
829A
  8
4
 10
8325.0
 20
12012.339394000001
 30
0.0
 11
8325.0
 21
11112.339394000001
 31
0.0
  0
LINE
  5
829B
  8
4
 10
9450.0
 20
13275.0
 30
0.0
 11
9450.0
 21
13275.0
 31
0.0
  0
LINE
  5
829C
  8
4
 10
6482.7784009999996
 20
12065.686124
 30
0.0
 11
6482.7784009999996
 21
12539.93517699999
 31
0.0
  0
LINE
  5
829D
  8
4
 10
6482.7784009999996
 20
12539.93517699999
 30
0.0
 11
8325.0
 21
12539.93517699999
 31
0.0
  0
LINE
  5
829E
  8
4
 10
8325.0
 20
12539.93517699999
 30
0.0
 11
8325.0
 21
12065.686124
 31
0.0
  0
LINE
  5
829F
  8
4
 10
8325.0
 20
12065.686124
 30
0.0
 11
6482.7784009999996
 21
12065.686124
 31
0.0
  0
LINE
  5
82A0
  8
4
 10
0.0
 20
0.0
 30
0.0
 11
0.0
 21
13275.0
 31
0.0
  0
LINE
  5
82A1
  8
4
 10
0.0
 20
13275.0
 30
0.0
 11
9450.0
 21
13275.0
 31
0.0
  0
LINE
  5
82A2
  8
4
 10
9450.0
 20
13275.0
 30
0.0
 11
9450.0
 21
0.0
 31
0.0
  0
LINE
  5
82A3
  8
4
 10
9450.0
 20
0.0
 30
0.0
 11
0.0
 21
0.0
 31
0.0
  0
LINE
  5
82B1
  8
1
 10
6937.6376499999988
 20
3516.11824922715
 30
0.0
 11
6937.6376499999997
 21
4703.1182492271491
 31
0.0
  0
DIMENSION
  5
831C
  8
3
  2
*D15
 10
4530.6624886969757
 20
2340.3561467642071
 30
0.0
 11
2735.8761266969768
 21
2340.3561467642071
 31
0.0
 70
   128
 13
630.66248869697756
 23
3076.054669227151
 33
0.0
 14
4530.6624886969757
 24
3076.054669227151
 34
0.0
1001
ACAD
1000
DSTYLE
1002
{
1070
   287
1070
     3
1070
   287
1070
     3
1070
    40
1040
45.0
1070
   143
1040
0.039
1070
   172
1070
     1
1070
   271
1070
     0
1070
   279
1070
     0
1070
   288
1070
     1
1002
}
  0
DIMENSION
  5
831D
  8
3
  2
*D13
 10
3470.6624886969771
 20
2665.808258764207
 30
0.0
 11
2132.7372136969771
 21
2665.808258764207
 31
0.0
 70
   128
 13
630.66248869697756
 23
3076.054669227151
 33
0.0
 14
3470.6624886969771
 24
2968.468998015067
 34
0.0
1001
ACAD
1000
DSTYLE
1002
{
1070
   287
1070
     3
1070
   287
1070
     3
1070
    40
1040
45.0
1070
   143
1040
0.039
1070
   172
1070
     1
1070
   271
1070
     0
1070
   279
1070
     0
1070
   288
1070
     1
1002
}
  0
LINE
  5
8320
  8
1
 10
3618.142297696977
 20
4324.29879622715
 30
0.0
 11
1155.9674166969769
 21
3726.68595422715
 31
0.0
  0
LINE
  5
8321
  8
1
 10
3247.538608696977
 20
5028.1058012271506
 30
0.0
 11
1016.991033696977
 21
3990.6135812271509
 31
0.0
  0
LINE
  5
8322
  8
1
 10
3657.1764976969771
 20
4253.8376242271488
 30
0.0
 11
1209.4629106969769
 21
3608.1212182271502
 31
0.0
  0
LINE
  5
8323
  8
1
 10
3211.5281516969771
 20
5100.1602202271497
 30
0.0
 11
949.50137569697745
 21
4101.8093992271488
 31
0.0
  0
LINE
  5
8324
  8
1
 10
4530.6624886969757
 20
3516.11824922715
 30
0.0
 11
630.66248869697756
 21
3516.11824922715
 31
0.0
  0
LINE
  5
8325
  8
1
 10
4530.6624886969757
 20
3366.11824922715
 30
0.0
 11
630.66248869697756
 21
3366.11824922715
 31
0.0
  0
LINE
  5
8326
  8
1
 10
4530.6624886969757
 20
3076.054669227151
 30
0.0
 11
630.66248869697756
 21
3076.054669227151
 31
0.0
  0
LINE
  5
8327
  8
1
 10
4530.6624886969757
 20
3226.054669227151
 30
0.0
 11
630.66248869697756
 21
3226.054669227151
 31
0.0
  0
LINE
  5
8328
  8
2
 10
1834.183845378619
 20
4696.11824922715
 30
0.0
 11
4726.9464006507324
 21
4696.11824922715
 31
0.0
  0
ARC
  5
8329
  8
1
 10
3601.6624886969762
 20
4827.1182492271491
 30
0.0
 40
1685.0
 50
95.387940999999998
 51
180.0
  0
LINE
  5
832A
  8
1
 10
4570.6624886969767
 20
4767.1182492271491
 30
0.0
 11
4570.6624886969767
 21
6611.2979502271501
 31
0.0
  0
LINE
  5
832B
  8
1
 10
4635.6624886969767
 20
4703.11824922715
 30
0.0
 11
4635.6624886969767
 21
6679.1182492271491
 31
0.0
  0
LINE
  5
832F
  8
1
 10
4635.4465216969784
 20
6617.4080872271506
 30
0.0
 11
3443.2270876969769
 21
6506.9633352271494
 31
0.0
  0
LINE
  5
8331
  8
1
 10
945.18335669697706
 20
3597.92757222715
 30
0.0
 11
1256.141620696977
 21
3597.92757222715
 31
0.0
  0
LINE
  5
8332
  8
2
 10
763.20352469697707
 20
3866.11824922715
 30
0.0
 11
1443.939710696977
 21
3866.11824922715
 31
0.0
  0
LINE
  5
8333
  8
1
 10
750.66248869697745
 20
3586.11824922715
 30
0.0
 11
1450.6624886969771
 21
3586.11824922715
 31
0.0
  0
ARC
  5
8334
  8
1
 10
1100.6624886969771
 20
3866.11824922715
 30
0.0
 40
310.0
 50
300.10230799999988
 51
239.89769200000001
  0
CIRCLE
  5
8335
  8
1
 10
1100.6624886969771
 20
3866.11824922715
 30
0.0
 40
150.0
  0
ARC
  5
8336
  8
1
 10
1100.6624886969771
 20
3866.11824922715
 30
0.0
 40
280.0
 50
122.67418499999999
 51
292.86573199999992
  0
LINE
  5
8338
  8
1
 10
820.66248869697745
 20
3733.0769022271502
 30
0.0
 11
820.66248869697745
 21
3586.11824922715
 31
0.0
  0
LINE
  5
8339
  8
1
 10
630.66248869697756
 20
3226.054669227151
 30
0.0
 11
630.66248869697756
 21
3076.054669227151
 31
0.0
  0
LINE
  5
833A
  8
1
 10
630.66248869697756
 20
3516.11824922715
 30
0.0
 11
630.66248869697756
 21
3366.11824922715
 31
0.0
  0
LINE
  5
833B
  8
1
 10
750.66248869697745
 20
3586.11824922715
 30
0.0
 11
930.66248869697745
 21
3586.11824922715
 31
0.0
  0
LINE
  5
833C
  8
1
 10
750.66248869697745
 20
3586.11824922715
 30
0.0
 11
750.66248869697745
 21
3516.11824922715
 31
0.0
  0
LINE
  5
833D
  8
1
 10
1380.6624886969771
 20
3733.0769022271502
 30
0.0
 11
1380.6624886969771
 21
3586.11824922715
 31
0.0
  0
LINE
  5
833E
  8
2
 10
1100.6624886969771
 20
3443.3203192271499
 30
0.0
 11
1100.6624886969771
 21
4348.1171012271507
 31
0.0
  0
LINE
  5
833F
  8
1
 10
1450.6624886969771
 20
3586.11824922715
 30
0.0
 11
1450.6624886969771
 21
3516.11824922715
 31
0.0
  0
DIMENSION
  5
8340
  8
3
  2
*D14
 10
4530.6624886969757
 20
2665.808258764207
 30
0.0
 11
4000.6624886969771
 21
2778.308258764207
 31
0.0
 70
     0
 13
3470.6624886969771
 23
2968.468998015067
 33
0.0
 14
4530.6624886969757
 24
3076.054669227151
 34
0.0
1001
ACAD
1000
DSTYLE
1002
{
1070
   287
1070
     4
1070
   287
1070
     4
1070
    40
1040
45.0
1070
    75
1070
     1
1070
   143
1040
0.039
1070
   172
1070
     1
1070
   271
1070
     0
1070
   279
1070
     1
1070
   288
1070
     1
1002
}
  0
ARC
  5
8344
  8
1
 10
3360.1624886969762
 20
4585.61824922715
 30
0.0
 40
1181.4999999999991
 50
295.14905934509642
 51
0.0
  0
ARC
  5
8345
  8
1
 10
3339.6624886969762
 20
4827.1182492271491
 30
0.0
 40
1423.0
 50
180.0
 51
247.11585403247039
  0
LINE
  5
8346
  8
2
 10
3470.6624886969771
 20
2968.468998015067
 30
0.0
 11
3470.6624886969771
 21
6605.1196802527547
 31
0.0
  0
LINE
  5
8347
  8
1
 10
4524.3581206969757
 20
4767.1182492271491
 30
0.0
 11
4635.6624886969767
 21
4767.1182492271491
 31
0.0
  0
ARC
  5
8348
  8
1
 10
3470.6614886969769
 20
4696.11824922715
 30
0.0
 40
480.0
 50
292.86573199999992
 51
122.67418499999999
  0
CIRCLE
  5
8349
  8
1
 10
3470.6624886969771
 20
4696.11824922715
 30
0.0
 40
400.0
  0
ARC
  5
834A
  8
1
 10
3470.6624886969771
 20
4696.11824922715
 30
0.0
 40
965.0
 50
180.0
 51
180.5343729999999
  0
ARC
  5
834B
  8
1
 10
3581.1624886969771
 20
4585.61824922715
 30
0.0
 40
960.5
 50
0.0
 51
10.89233500000001
  0
LINE
  5
834C
  8
1
 10
4530.6624886969757
 20
3226.054669227151
 30
0.0
 11
4530.6624886969757
 21
3076.054669227151
 31
0.0
  0
LINE
  5
834D
  8
1
 10
4530.6624886969757
 20
3516.11824922715
 30
0.0
 11
4530.6624886969757
 21
3366.11824922715
 31
0.0
  0
DIMENSION
  5
8428
  8
3
  2
*D16
 10
4635.6624886969767
 20
7143.7320504162926
 30
0.0
 11
2633.1624886969771
 21
7256.2320504162926
 31
0.0
 70
     0
 13
630.66248869697756
 23
3516.11824922715
 33
0.0
 14
4635.6624886969767
 24
6679.1182492271491
 34
0.0
1001
ACAD
1000
DSTYLE
1002
{
1070
   287
1070
     3
1070
   287
1070
     3
1070
    40
1040
45.0
1070
   143
1040
0.039
1070
   271
1070
     0
1070
   279
1070
     0
1002
}
  0
DIMENSION
  5
8435
  8
3
  2
*D17
 10
3470.6624886969771
 20
6803.9506352395547
 30
0.0
 11
4053.1624886969762
 21
6916.4506352395547
 31
0.0
 70
     0
 13
4635.6624886969767
 23
6701.6182492271491
 33
0.0
 14
3470.6624886969771
 24
6605.1196802527547
 34
0.0
1001
ACAD
1000
DSTYLE
1002
{
1070
   287
1070
     3
1070
   287
1070
     3
1070
    40
1040
45.0
1070
   143
1040
0.039
1070
   271
1070
     0
1070
   279
1070
     0
1002
}
  0
DIMENSION
  5
8441
  8
3
  2
*D18
 10
1916.662488696976
 20
6803.9506352395547
 30
0.0
 11
2693.6624886969762
 21
6916.4506352395547
 31
0.0
 70
     0
 13
3470.6624886969771
 23
6605.1196802527547
 33
0.0
 14
1916.662488696976
 24
4827.1182492271491
 34
0.0
1001
ACAD
1000
DSTYLE
1002
{
1070
   287
1070
     4
1070
   287
1070
     4
1070
    40
1040
45.0
1070
    75
1070
     1
1070
   143
1040
0.039
1070
   271
1070
     0
1070
   279
1070
     1
1002
}
  0
DIMENSION
  5
844E
  8
3
  2
*D19
 10
5254.1979261629913
 20
4767.1182492271491
 30
0.0
 11
5141.6979261629904
 21
5692.2631682271503
 31
0.0
 70
     0
 13
4635.4465216969784
 23
6617.4080872271506
 33
0.0
 14
4635.6624886969767
 24
4767.1182492271491
 34
0.0
 50
90.0
1001
ACAD
1000
DSTYLE
1002
{
1070
   287
1070
     3
1070
   287
1070
     3
1070
    40
1040
45.0
1070
   143
1040
0.039
1070
   271
1070
     0
1070
   279
1070
     0
1002
}
  0
DIMENSION
  5
845B
  8
3
  2
*D20
 10
5611.6850221258082
 20
4696.11824922715
 30
0.0
 11
5499.1850221258064
 21
5656.7631682271513
 31
0.0
 70
     0
 13
5254.1979261629913
 23
6617.4080872271506
 33
0.0
 14
4726.9464006507324
 24
4696.11824922715
 34
0.0
 50
90.0
1001
ACAD
1000
DSTYLE
1002
{
1070
   287
1070
     3
1070
   287
1070
     3
1070
    40
1040
45.0
1070
   143
1040
0.039
1070
   271
1070
     0
1070
   279
1070
     0
1002
}
  0
DIMENSION
  5
8467
  8
3
  2
*D21
 10
5611.6850221258082
 20
3366.1182492271491
 30
0.0
 11
5499.1850221258064
 21
4031.118249227151
 31
0.0
 70
     0
 13
4726.9464006507324
 23
4696.11824922715
 33
0.0
 14
4530.6624886969757
 24
3366.11824922715
 34
0.0
 50
90.0
1001
ACAD
1000
DSTYLE
1002
{
1070
   287
1070
     4
1070
   287
1070
     4
1070
    40
1040
45.0
1070
    75
1070
     1
1070
   143
1040
0.039
1070
   271
1070
     0
1070
   279
1070
     1
1002
}
  0
DIMENSION
  5
8477
  8
3
  2
*D22
 10
5611.6850221258082
 20
3226.05466922715
 30
0.0
 11
5814.1850221258073
 21
3435.586459227151
 31
0.0
 70
     0
 13
4530.6624886969757
 23
3366.11824922715
 33
0.0
 14
4530.6624886969757
 24
3226.054669227151
 34
0.0
 50
90.0
1001
ACAD
1000
DSTYLE
1002
{
1070
   287
1070
     4
1070
   287
1070
     4
1070
    40
1040
45.0
1070
    75
1070
     1
1070
   143
1040
0.039
1070
   271
1070
     0
1070
   279
1070
     1
1002
}
  0
DIMENSION
  5
8487
  8
3
  2
*D23
 10
5611.6850221258082
 20
3076.054669227151
 30
0.0
 11
5499.1850221258064
 21
2690.3403835128652
 31
0.0
 70
     0
 13
4530.6624886969757
 23
3226.054669227151
 33
0.0
 14
4530.6624886969757
 24
3076.054669227151
 34
0.0
 50
90.0
1001
ACAD
1000
DSTYLE
1002
{
1070
   287
1070
     1
1070
   287
1070
     1
1070
    40
1040
45.0
1070
    75
1070
     1
1070
   143
1040
0.039
1070
   271
1070
     0
1070
   279
1070
     0
1070
   289
1070
     1
1002
}
  0
DIMENSION
  5
8526
  8
3
  2
*D24
 10
6053.1720471246817
 20
6617.4080872271506
 30
0.0
 11
5940.6720471246799
 21
4846.7313782271513
 31
0.0
 70
     0
 13
5611.6850221258082
 23
3076.054669227151
 33
0.0
 14
5611.6850221258082
 24
6617.4080872271506
 34
0.0
 50
90.0
1001
ACAD
1000
DSTYLE
1002
{
1070
   287
1070
     4
1070
   287
1070
     4
1070
    40
1040
45.0
1070
   143
1040
0.039
1070
   271
1070
     0
1070
   279
1070
     1
1002
}
  0
LINE
  5
859E
  8
1
 10
4635.6624886969767
 20
8545.5698250355781
 30
0.0
 11
4635.6624886969767
 21
10003.569825035571
 31
0.0
  0
LINE
  5
85A1
  8
1
 10
1916.662488696976
 20
8614.5698250355763
 30
0.0
 11
1916.662488696976
 21
9934.5698250355781
 31
0.0
  0
LINE
  5
85A2
  8
1
 10
2570.6624886969762
 20
9934.5698250355781
 30
0.0
 11
2570.6624886969762
 21
10069.569825035571
 31
0.0
  0
LINE
  5
85A3
  8
1
 10
4370.6624886969739
 20
9934.5698250355763
 30
0.0
 11
4370.6624886969748
 21
10069.569825035571
 31
0.0
  0
LINE
  5
85A6
  8
1
 10
4435.6624886969748
 20
10069.569825035571
 30
0.0
 11
2505.6624886969748
 21
10069.569825035571
 31
0.0
  0
LINE
  5
85A7
  8
1
 10
6937.6376499999988
 20
6619.2122550463982
 30
0.0
 11
8257.6376500000006
 21
6619.2122550463982
 31
0.0
  0
LINE
  5
85F7
  8
1
 10
6937.6376499999997
 20
4767.1182492271491
 30
0.0
 11
8257.6376500000006
 21
4767.118249227151
 31
0.0
  0
LINE
  5
8618
  8
1
 10
6937.6376499999988
 20
6619.2122550463982
 30
0.0
 11
8257.6376500000006
 21
4767.118249227151
 31
0.0
  0
LINE
  5
8619
  8
1
 10
8257.6376500000006
 20
6619.2122550463982
 30
0.0
 11
6937.6376499999988
 21
4767.1182492271491
 31
0.0
  0
DIMENSION
  5
8650
  8
3
  2
*D25
 10
8257.6376500000006
 20
6793.8525596123
 30
0.0
 11
7597.6376499999997
 21
6906.3525596123
 31
0.0
 70
     0
 13
6937.6376499999988
 23
6619.2122550463982
 33
0.0
 14
8257.6376500000006
 24
6619.2122550463982
 34
0.0
1001
ACAD
1000
DSTYLE
1002
{
1070
   287
1070
     4
1070
   287
1070
     4
1070
    40
1040
45.0
1070
   143
1040
0.039
1070
   271
1070
     0
1070
   279
1070
     1
1002
}
  0
DIMENSION
  5
867F
  8
3
  2
*D26
 10
5392.145554794959
 20
10013.569825035571
 30
0.0
 11
5279.6455547949581
 21
9088.5698250355781
 31
0.0
 70
     0
 13
4530.6624886969748
 23
8163.5698250355763
 33
0.0
 14
4530.6624886969748
 24
10013.569825035571
 34
0.0
 50
90.0
1001
ACAD
1000
DSTYLE
1002
{
1070
   287
1070
     4
1070
   287
1070
     4
1070
    40
1040
45.0
1070
   143
1040
0.039
1070
   271
1070
     0
1070
   279
1070
     1
1002
}
  0
LINE
  5
8703
  8
1
 10
1916.662488696976
 20
9288.5698250355763
 30
0.0
 11
630.66248869697665
 21
9288.5698250355763
 31
0.0
  0
LINE
  5
8704
  8
1
 10
4530.6624886969748
 20
8238.5698250355745
 30
0.0
 11
3950.6624886969762
 21
8238.5698250355745
 31
0.0
  0
LINE
  5
8705
  8
1
 10
4455.6624886969757
 20
8238.5698250355745
 30
0.0
 11
4455.6624886969776
 21
8614.5698250355763
 31
0.0
  0
LINE
  5
8706
  8
1
 10
2485.6624886969771
 20
8374.5698250355745
 30
0.0
 11
2485.6624886969771
 21
8614.5698250355745
 31
0.0
  0
LINE
  5
8707
  8
1
 10
4530.6624886969748
 20
9938.5698250355763
 30
0.0
 11
2410.6624886969762
 21
9938.5698250355763
 31
0.0
  0
LINE
  5
8708
  8
1
 10
2570.6624886969762
 20
10013.569825035571
 30
0.0
 11
2410.6624886969762
 21
10013.569825035571
 31
0.0
  0
LINE
  5
8709
  8
1
 10
815.66248869697665
 20
8238.5698250355745
 30
0.0
 11
630.66248869697654
 21
8238.5698250355745
 31
0.0
  0
LINE
  5
870A
  8
1
 10
2410.6624886969762
 20
9934.5698250355781
 30
0.0
 11
2410.6624886969762
 21
10013.569825035571
 31
0.0
  0
LINE
  5
870B
  8
1
 10
2485.6624886969762
 20
9934.5698250355763
 30
0.0
 11
2485.6624886969771
 21
9938.5698250355781
 31
0.0
  0
LINE
  5
870C
  8
1
 10
4455.6624886969776
 20
9934.5698250355763
 30
0.0
 11
4455.6624886969757
 21
9938.5698250355781
 31
0.0
  0
LINE
  5
870D
  8
1
 10
4530.6624886969748
 20
9934.5698250355763
 30
0.0
 11
4530.6624886969748
 21
10013.569825035571
 31
0.0
  0
LINE
  5
8BED
  8
1
 10
6868.6376499999997
 20
6679.1182492271482
 30
0.0
 11
8326.6376500000006
 21
6679.1182492271491
 31
0.0
  0
LINE
  5
8BEE
  8
1
 10
6868.6376499999997
 20
4703.1182492271491
 30
0.0
 11
6868.6376499999997
 21
6679.1182492271482
 31
0.0
  0
LINE
  5
8BEF
  8
1
 10
8326.6376500000006
 20
4703.1182492271491
 30
0.0
 11
8326.6376500000006
 21
6679.1182492271491
 31
0.0
  0
LINE
  5
8BF0
  8
1
 10
6868.6376499999997
 20
4703.1182492271491
 30
0.0
 11
8326.6376500000006
 21
4703.11824922715
 31
0.0
  0
LINE
  5
8BF1
  8
1
 10
6937.6376499999988
 20
4767.1182492271491
 30
0.0
 11
6937.6376499999988
 21
6619.2122550463982
 31
0.0
  0
ENDSEC
  0
EOF
