  0
SECTION
  2
HEADER
  9
$ACADVER
  1
AC1009
  9
$INSBASE
 10
0.0
 20
0.0
 30
0.0
  9
$EXTMIN
 10
0.0
 20
0.0
 30
0.0
  9
$EXTMAX
 10
9450.0
 20
13275.0
 30
0.0
  9
$LIMMIN
 10
0.0
 20
0.0
  9
$LIMMAX
 10
297.0
 20
210.0
  9
$ORTHOMODE
 70
     1
  9
$REGENMODE
 70
     1
  9
$FILLMODE
 70
     0
  9
$QTEXTMODE
 70
     0
  9
$MIRRTEXT
 70
     1
  9
$DRAGMODE
 70
     2
  9
$LTSCALE
 40
100.0
  9
$OSMODE
 70
   545
  9
$ATTMODE
 70
     1
  9
$TEXTSIZE
 40
180.0
  9
$TRACEWID
 40
0.05
  9
$TEXTSTYLE
  7
STANDARD
  9
$CLAYER
  8
1
  9
$CELTYPE
  6
BYLAYER
  9
$CECOLOR
 62
   256
  9
$DIMSCALE
 40
45.0
  9
$DIMASZ
 40
2.0
  9
$DIMEXO
 40
0.5
  9
$DIMDLI
 40
10.0
  9
$DIMRND
 40
0.0
  9
$DIMDLE
 40
0.0
  9
$DIMEXE
 40
1.0
  9
$DIMTP
 40
1.0
  9
$DIMTM
 40
1.0
  9
$DIMTXT
 40
3.0
  9
$DIMCEN
 40
0.0
  9
$DIMTSZ
 40
0.0
  9
$DIMTOL
 70
     0
  9
$DIMLIM
 70
     0
  9
$DIMTIH
 70
     0
  9
$DIMTOH
 70
     0
  9
$DIMSE1
 70
     0
  9
$DIMSE2
 70
     0
  9
$DIMTAD
 70
     1
  9
$DIMZIN
 70
     8
  9
$DIMBLK
  1

  9
$DIMASO
 70
     1
  9
$DIMSHO
 70
     1
  9
$DIMPOST
  1

  9
$DIMAPOST
  1

  9
$DIMALT
 70
     0
  9
$DIMALTD
 70
     2
  9
$DIMALTF
 40
0.039
  9
$DIMLFAC
 40
1.0
  9
$DIMTOFL
 70
     1
  9
$DIMTVP
 40
0.0
  9
$DIMTIX
 70
     0
  9
$DIMSOXD
 70
     0
  9
$DIMSAH
 70
     1
  9
$DIMBLK1
  1
OPEN
  9
$DIMBLK2
  1
OPEN
  9
$DIMSTYLE
  2
IGA
  9
$DIMCLRD
 70
     0
  9
$DIMCLRE
 70
     0
  9
$DIMCLRT
 70
     0
  9
$DIMTFAC
 40
10.0
  9
$DIMGAP
 40
1.0
  9
$LUNITS
 70
     2
  9
$LUPREC
 70
     3
  9
$SKETCHINC
 40
0.1
  9
$FILLETRAD
 40
50.0
  9
$AUNITS
 70
     0
  9
$AUPREC
 70
     0
  9
$MENU
  1
acad
  9
$ELEVATION
 40
0.0
  9
$PELEVATION
 40
0.0
  9
$THICKNESS
 40
0.0
  9
$LIMCHECK
 70
     0
  9
$BLIPMODE
 70
     0
  9
$CHAMFERA
 40
0.5
  9
$CHAMFERB
 40
0.5
  9
$SKPOLY
 70
     0
  9
$TDCREATE
 40
2451845.4205035879
  9
$TDUPDATE
 40
2455013.7327656592
  9
$TDINDWG
 40
0.0390100116
  9
$TDUSRTIMER
 40
0.0390100116
  9
$USRTIMER
 70
     1
  9
$ANGBASE
 50
0.0
  9
$ANGDIR
 70
     0
  9
$PDMODE
 70
     0
  9
$PDSIZE
 40
0.0
  9
$PLINEWID
 40
0.0
  9
$COORDS
 70
     2
  9
$SPLFRAME
 70
     0
  9
$SPLINETYPE
 70
     6
  9
$SPLINESEGS
 70
     8
  9
$ATTDIA
 70
     0
  9
$ATTREQ
 70
     1
  9
$HANDLING
 70
 22529
  9
$HANDSEED
  5
84E0
  9
$SURFTAB1
 70
     6
  9
$SURFTAB2
 70
     6
  9
$SURFTYPE
 70
     6
  9
$SURFU
 70
     6
  9
$SURFV
 70
     6
  9
$UCSNAME
  2

  9
$UCSORG
 10
0.0
 20
0.0
 30
0.0
  9
$UCSXDIR
 10
1.0
 20
0.0
 30
0.0
  9
$UCSYDIR
 10
0.0
 20
1.0
 30
0.0
  9
$PUCSNAME
  2

  9
$PUCSORG
 10
0.0
 20
0.0
 30
0.0
  9
$PUCSXDIR
 10
1.0
 20
0.0
 30
0.0
  9
$PUCSYDIR
 10
0.0
 20
1.0
 30
0.0
  9
$USERI1
 70
     0
  9
$USERI2
 70
     0
  9
$USERI3
 70
     0
  9
$USERI4
 70
     0
  9
$USERI5
 70
     0
  9
$USERR1
 40
0.0
  9
$USERR2
 40
0.0
  9
$USERR3
 40
0.0
  9
$USERR4
 40
0.0
  9
$USERR5
 40
0.0
  9
$WORLDVIEW
 70
     1
  9
$SHADEDGE
 70
     3
  9
$SHADEDIF
 70
    70
  9
$TILEMODE
 70
     1
  9
$MAXACTVP
 70
    16
  9
$PLIMCHECK
 70
     0
  9
$PEXTMIN
 10
1.0000000000000000E+020
 20
1.0000000000000000E+020
 30
1.0000000000000000E+020
  9
$PEXTMAX
 10
-1.0000000000000000E+020
 20
-1.0000000000000000E+020
 30
-1.0000000000000000E+020
  9
$PLIMMIN
 10
0.0
 20
0.0
  9
$PLIMMAX
 10
12.0
 20
9.0
  9
$UNITMODE
 70
     0
  9
$VISRETAIN
 70
     0
  9
$PLINEGEN
 70
     0
  9
$PSLTSCALE
 70
     1
  0
ENDSEC
  0
SECTION
  2
TABLES
  0
TABLE
  2
VPORT
 70
     2
  0
VPORT
  2
*ACTIVE
 70
     0
 10
0.0
 20
0.0
 11
1.0
 21
1.0
 12
5642.2139554681344
 22
6637.5000309082689
 13
0.0
 23
0.0
 14
10.0
 24
10.0
 15
10.0
 25
10.0
 16
0.0
 26
0.0
 36
1.0
 17
0.0
 27
0.0
 37
0.0
 40
13376.766973576199
 41
1.6307901907356941
 42
50.0
 43
0.0
 44
0.0
 50
0.0
 51
0.0
 71
     0
 72
   100
 73
     1
 74
     0
 75
     0
 76
     0
 77
     0
 78
     0
  0
ENDTAB
  0
TABLE
  2
LTYPE
 70
     2
  0
LTYPE
  2
CONTINUOUS
 70
     0
  3
Solid line
 72
    65
 73
     0
 40
0.0
  0
LTYPE
  2
CENTER
 70
     0
  3
____ _ ____ _ ____ _ ____ _ ____ _ ____ _ ____ 
 72
    65
 73
     4
 40
2.0
 49
1.25
 49
-0.25
 49
0.25
 49
-0.25
  0
ENDTAB
  0
TABLE
  2
LAYER
 70
     6
  0
LAYER
  2
0
 70
     0
 62
     7
  6
CONTINUOUS
  0
LAYER
  2
3
 70
     0
 62
     2
  6
CONTINUOUS
  0
LAYER
  2
2
 70
     0
 62
     3
  6
CENTER
  0
LAYER
  2
1
 70
     0
 62
     4
  6
CONTINUOUS
  0
LAYER
  2
4
 70
     0
 62
     7
  6
CONTINUOUS
  0
LAYER
  2
DEFPOINTS
 70
     0
 62
     7
  6
CONTINUOUS
  0
ENDTAB
  0
TABLE
  2
STYLE
 70
     1
  0
STYLE
  2
STANDARD
 70
     0
 40
0.0
 41
1.0
 50
0.0
 71
     0
 42
180.0
  3
simplex.shx
  4
extfont.shx
  0
ENDTAB
  0
TABLE
  2
VIEW
 70
     0
  0
ENDTAB
  0
TABLE
  2
UCS
 70
     0
  0
ENDTAB
  0
TABLE
  2
APPID
 70
     1
  0
APPID
  2
ACAD
 70
     0
  0
ENDTAB
  0
TABLE
  2
DIMSTYLE
 70
     1
  0
DIMSTYLE
  2
IGA
 70
     0
  3

  4

  5

  6
OPEN
  7
OPEN
 40
2.0
 41
2.0
 42
0.5
 43
10.0
 44
1.0
 45
0.0
 46
0.0
 47
1.0
 48
1.0
140
3.0
141
0.0
142
0.0
143
0.03937
144
1.0
145
0.0
146
10.0
147
1.0
 71
     0
 72
     0
 73
     0
 74
     0
 75
     0
 76
     0
 77
     1
 78
     8
170
     0
171
     2
172
     0
173
     1
174
     0
175
     0
176
     0
177
     0
178
     0
  0
ENDTAB
  0
ENDSEC
  0
SECTION
  2
BLOCKS
  0
BLOCK
  8
0
  2
$MODEL_SPACE
 70
     0
 10
0.0
 20
0.0
 30
0.0
  3
$MODEL_SPACE
  1

  0
ENDBLK
  5
1B
  8
0
  0
BLOCK
 67
     1
  8
0
  2
$PAPER_SPACE
 70
     0
 10
0.0
 20
0.0
 30
0.0
  3
$PAPER_SPACE
  1

  0
ENDBLK
  5
18
 67
     1
  8
0
  0
BLOCK
  8
0
  2
YA_N
 70
     0
 10
0.0
 20
0.0
 30
0.0
  3
YA_N
  1

  0
ENDBLK
  5
79FE
  8
0
  0
BLOCK
  8
0
  2
_OPEN
 70
     0
 10
0.0
 20
0.0
 30
0.0
  3
_OPEN
  1

  0
LINE
  5
7B50
  8
0
  6
BYBLOCK
 62
     0
 10
-1.0
 20
0.166667
 30
0.0
 11
0.0
 21
0.0
 31
0.0
  0
LINE
  5
7B51
  8
0
  6
BYBLOCK
 62
     0
 10
0.0
 20
0.0
 30
0.0
 11
-1.0
 21
-0.166667
 31
0.0
  0
LINE
  5
7B52
  8
0
  6
BYBLOCK
 62
     0
 10
0.0
 20
0.0
 30
0.0
 11
-1.0
 21
0.0
 31
0.0
  0
ENDBLK
  5
7B53
  8
0
  0
BLOCK
  8
0
  2
_DOT
 70
     0
 10
0.0
 20
0.0
 30
0.0
  3
_DOT
  1

  0
LINE
  5
7D69
  8
0
  6
BYBLOCK
 62
     0
 10
0.0
 20
0.0
 30
0.0
 11
-1.0
 21
0.0
 31
0.0
  0
POLYLINE
  5
7D6A
  8
0
  6
BYBLOCK
 62
     0
 66
     1
 10
0.0
 20
0.0
 30
0.0
 70
     1
 40
0.166667
 41
0.166667
  0
VERTEX
  5
8405
  8
0
  6
BYBLOCK
 62
     0
 10
-0.083333
 20
0.0
 30
0.0
 42
1.0
  0
VERTEX
  5
8406
  8
0
  6
BYBLOCK
 62
     0
 10
0.083333
 20
0.0
 30
0.0
 42
1.0
  0
SEQEND
  5
8407
  8
0
  6
BYBLOCK
 62
     0
  0
ENDBLK
  5
7D3B
  8
0
  0
BLOCK
  8
0
  2
*D3
 70
     1
 10
0.0
 20
0.0
 30
0.0
  3
*D3
  1

  0
LINE
  5
8408
  8
3
 62
     0
 10
1464.8540892796491
 20
10083.563537999989
 30
0.0
 11
1464.8540892796491
 21
10309.028694000001
 31
0.0
  0
LINE
  5
8409
  8
3
 62
     0
 10
3584.8540892796482
 20
10083.563537999989
 30
0.0
 11
3584.8540892796482
 21
10309.028694000001
 31
0.0
  0
LINE
  5
840A
  8
3
 62
     0
 10
1554.8540892796491
 20
10264.028694000001
 30
0.0
 11
3494.8540892796482
 21
10264.028694000001
 31
0.0
  0
INSERT
  5
840B
  8
3
 62
     0
  2
_OPEN
 10
1464.8540892796491
 20
10264.028694000001
 30
0.0
 41
90.0
 42
90.0
 43
90.0
 50
180.0
  0
INSERT
  5
840C
  8
3
 62
     0
  2
_OPEN
 10
3584.8540892796482
 20
10264.028694000001
 30
0.0
 41
90.0
 42
90.0
 43
90.0
  0
TEXT
  8
3
  40
135
  5
84CA
  62
0
  72
0
  71
0
 10
2261.93
 20
10137.6
 30
0.000000
  1
2120
  0
POINT
  5
840E
  8
DEFPOINTS
 62
     0
 10
1464.8540892796491
 20
10061.063538
 30
0.0
  0
POINT
  5
840F
  8
DEFPOINTS
 62
     0
 10
3584.8540892796482
 20
10061.063538
 30
0.0
  0
POINT
  5
8410
  8
DEFPOINTS
 62
     0
 10
3584.8540892796482
 20
10264.028694000001
 30
0.0
  0
ENDBLK
  5
832E
  8
0
  0
BLOCK
  8
0
  2
*D4
 70
     1
 10
0.0
 20
0.0
 30
0.0
  3
*D4
  1

  0
LINE
  5
8411
  8
3
 62
     0
 10
5364.8540892796482
 20
9433.5635379999985
 30
0.0
 11
5364.8540892796482
 21
10309.028694000001
 31
0.0
  0
LINE
  5
8412
  8
3
 62
     0
 10
3674.8540892796482
 20
10264.028694000001
 30
0.0
 11
5274.8540892796482
 21
10264.028694000001
 31
0.0
  0
INSERT
  5
8413
  8
3
 62
     0
  2
_OPEN
 10
3584.8540892796482
 20
10264.028694000001
 30
0.0
 41
90.0
 42
90.0
 43
90.0
 50
180.0
  0
INSERT
  5
8414
  8
3
 62
     0
  2
_OPEN
 10
5364.8540892796482
 20
10264.028694000001
 30
0.0
 41
90.0
 42
90.0
 43
90.0
  0
TEXT
  8
3
  40
135
  5
84CB
  62
0
  72
0
  71
0
 10
4204.85
 20
10137.6
 30
0.000000
  1
1780
  0
POINT
  5
8416
  8
DEFPOINTS
 62
     0
 10
3584.8540892796482
 20
10061.063538
 30
0.0
  0
POINT
  5
8417
  8
DEFPOINTS
 62
     0
 10
5364.8540892796482
 20
9411.0635380000003
 30
0.0
  0
POINT
  5
8418
  8
DEFPOINTS
 62
     0
 10
5364.8540892796482
 20
10264.028694000001
 30
0.0
  0
ENDBLK
  5
8338
  8
0
  0
BLOCK
  8
0
  2
*D5
 70
     1
 10
0.0
 20
0.0
 30
0.0
  3
*D5
  1

  0
LINE
  5
8419
  8
3
 62
     0
 10
1442.3540892796491
 20
10061.063538
 30
0.0
 11
645.79725327965014
 21
10061.063538
 31
0.0
  0
LINE
  5
841A
  8
3
 62
     0
 10
1442.3540892796491
 20
8211.0635380000003
 30
0.0
 11
645.79725327964957
 21
8211.0635380000003
 31
0.0
  0
LINE
  5
841B
  8
3
 62
     0
 10
690.79725327965002
 20
9971.0635380000003
 30
0.0
 11
690.79725327964957
 21
8301.0635380000003
 31
0.0
  0
INSERT
  5
841C
  8
3
 62
     0
  2
_OPEN
 10
690.79725327965014
 20
10061.063538
 30
0.0
 41
90.0
 42
90.0
 43
90.0
 50
90.0
  0
INSERT
  5
841D
  8
3
 62
     0
  2
_OPEN
 10
690.79725327964957
 20
8211.0635380000003
 30
0.0
 41
90.0
 42
90.0
 43
90.0
 50
270.0
  0
TEXT
  8
3
  40
135
  5
84CC
  62
0
  72
0
  71
0
 10
308.297
 20
8856.98
 30
0.000000
  1
1850
  0
POINT
  5
841F
  8
DEFPOINTS
 62
     0
 10
1464.8540892796491
 20
10061.063538
 30
0.0
  0
POINT
  5
8420
  8
DEFPOINTS
 62
     0
 10
1464.8540892796491
 20
8211.0635380000003
 30
0.0
  0
POINT
  5
8421
  8
DEFPOINTS
 62
     0
 10
690.79725327964957
 20
8211.0635380000003
 30
0.0
  0
ENDBLK
  5
834E
  8
0
  0
BLOCK
  8
0
  2
*D6
 70
     1
 10
0.0
 20
0.0
 30
0.0
  3
*D6
  1

  0
LINE
  5
8422
  8
3
 62
     0
 10
5387.3540892796482
 20
9411.0635380000003
 30
0.0
 11
5871.5049850419182
 21
9411.0635380000003
 31
0.0
  0
LINE
  5
8423
  8
3
 62
     0
 10
5387.3540892796482
 20
8211.0635380000003
 30
0.0
 11
5871.5049850419182
 21
8211.0635380000003
 31
0.0
  0
LINE
  5
8424
  8
3
 62
     0
 10
5826.5049850419182
 20
9321.0635380000003
 30
0.0
 11
5826.5049850419182
 21
8301.0635380000003
 31
0.0
  0
INSERT
  5
8425
  8
3
 62
     0
  2
_OPEN
 10
5826.5049850419182
 20
9411.0635380000003
 30
0.0
 41
90.0
 42
90.0
 43
90.0
 50
90.0
  0
INSERT
  5
8426
  8
3
 62
     0
  2
_OPEN
 10
5826.5049850419182
 20
8211.0635380000003
 30
0.0
 41
90.0
 42
90.0
 43
90.0
 50
270.0
  0
TEXT
  8
3
  40
135
  5
84CD
  62
0
  72
0
  71
0
 10
5444.00
 20
8565.83
 30
0.000000
  1
1200
  0
POINT
  5
8428
  8
DEFPOINTS
 62
     0
 10
5364.8540892796482
 20
9411.0635380000003
 30
0.0
  0
POINT
  5
8429
  8
DEFPOINTS
 62
     0
 10
5364.8540892796482
 20
8211.0635380000003
 30
0.0
  0
POINT
  5
842A
  8
DEFPOINTS
 62
     0
 10
5826.5049850419182
 20
8211.0635380000003
 30
0.0
  0
ENDBLK
  5
83D2
  8
0
  0
BLOCK
  8
0
  2
*D7
 70
     1
 10
0.0
 20
0.0
 30
0.0
  3
*D7
  1

  0
LINE
  5
842B
  8
3
 62
     0
 10
5364.8540892796482
 20
8188.5635380000022
 30
0.0
 11
5364.8540892796482
 21
7419.3202430000028
 31
0.0
  0
LINE
  5
842C
  8
3
 62
     0
 10
1464.8540892796491
 20
8188.5635380000022
 30
0.0
 11
1464.8540892796491
 21
7419.3202430000028
 31
0.0
  0
LINE
  5
842D
  8
3
 62
     0
 10
5274.8540892796482
 20
7464.3202430000019
 30
0.0
 11
1554.8540892796491
 21
7464.3202430000019
 31
0.0
  0
INSERT
  5
842E
  8
3
 62
     0
  2
_OPEN
 10
5364.8540892796482
 20
7464.3202430000019
 30
0.0
 41
90.0
 42
90.0
 43
90.0
  0
INSERT
  5
842F
  8
3
 62
     0
  2
_OPEN
 10
1464.8540892796491
 20
7464.3202430000019
 30
0.0
 41
90.0
 42
90.0
 43
90.0
 50
180.0
  0
TEXT
  8
3
  40
135
  5
84CE
  62
0
  72
0
  71
0
 10
3054.84
 20
7337.87
 30
0.000000
  1
3900
  0
POINT
  5
8431
  8
DEFPOINTS
 62
     0
 10
5364.8540892796482
 20
8211.0635380000003
 30
0.0
  0
POINT
  5
8432
  8
DEFPOINTS
 62
     0
 10
1464.8540892796491
 20
8211.0635380000003
 30
0.0
  0
POINT
  5
8433
  8
DEFPOINTS
 62
     0
 10
1464.8540892796491
 20
7464.3202430000019
 30
0.0
  0
ENDBLK
  5
8323
  8
0
  0
BLOCK
  8
0
  2
*D8
 70
     1
 10
0.0
 20
0.0
 30
0.0
  3
*D8
  1

  0
LINE
  5
8434
  8
3
 62
     0
 10
1232.8540892796491
 20
5051.9495479999987
 30
0.0
 11
1232.8540892796491
 21
6826.6350540000003
 31
0.0
  0
LINE
  5
8435
  8
3
 62
     0
 10
2524.8540892796491
 20
6641.7444249999999
 30
0.0
 11
2524.8540892796491
 21
6826.6350540000003
 31
0.0
  0
LINE
  5
8436
  8
3
 62
     0
 10
1322.8540892796491
 20
6781.6350540000003
 30
0.0
 11
2434.8540892796491
 21
6781.6350540000003
 31
0.0
  0
INSERT
  5
8437
  8
3
 62
     0
  2
_OPEN
 10
1232.8540892796491
 20
6781.6350540000003
 30
0.0
 41
90.0
 42
90.0
 43
90.0
 50
180.0
  0
INSERT
  5
8438
  8
3
 62
     0
  2
_OPEN
 10
2524.8540892796491
 20
6781.6350540000003
 30
0.0
 41
90.0
 42
90.0
 43
90.0
  0
TEXT
  8
3
  40
135
  5
84CF
  62
0
  72
0
  71
0
 10
1626.55
 20
6655.19
 30
0.000000
  1
1292
  0
POINT
  5
843A
  8
DEFPOINTS
 62
     0
 10
1232.8540892796491
 20
5029.4495479999987
 30
0.0
  0
POINT
  5
843B
  8
DEFPOINTS
 62
     0
 10
2524.8540892796491
 20
6619.244424999999
 30
0.0
  0
POINT
  5
843C
  8
DEFPOINTS
 62
     0
 10
2524.8540892796491
 20
6781.6350540000003
 30
0.0
  0
ENDBLK
  5
836E
  8
0
  0
BLOCK
  8
0
  2
*D9
 70
     1
 10
0.0
 20
0.0
 30
0.0
  3
*D9
  1

  0
LINE
  5
843D
  8
3
 62
     0
 10
4446.1439272796479
 20
6347.7335810000004
 30
0.0
 11
4446.1439272796479
 21
6826.6350540000003
 31
0.0
  0
LINE
  5
843E
  8
3
 62
     0
 10
2614.8540892796491
 20
6781.6350540000003
 30
0.0
 11
4356.1439272796479
 21
6781.6350540000003
 31
0.0
  0
INSERT
  5
843F
  8
3
 62
     0
  2
_OPEN
 10
2524.8540892796491
 20
6781.6350540000003
 30
0.0
 41
90.0
 42
90.0
 43
90.0
 50
180.0
  0
INSERT
  5
8440
  8
3
 62
     0
  2
_OPEN
 10
4446.1439272796479
 20
6781.6350540000003
 30
0.0
 41
90.0
 42
90.0
 43
90.0
  0
TEXT
  8
3
  40
135
  5
84D0
  62
0
  72
0
  71
0
 10
3215.50
 20
6655.19
 30
0.000000
  1
1921
  0
POINT
  5
8442
  8
DEFPOINTS
 62
     0
 10
2524.8540892796491
 20
6619.244424999999
 30
0.0
  0
POINT
  5
8443
  8
DEFPOINTS
 62
     0
 10
4446.1439272796479
 20
6325.2335810000004
 30
0.0
  0
POINT
  5
8444
  8
DEFPOINTS
 62
     0
 10
4446.1439272796479
 20
6781.6350540000003
 30
0.0
  0
ENDBLK
  5
8383
  8
0
  0
BLOCK
  8
0
  2
*D10
 70
     1
 10
0.0
 20
0.0
 30
0.0
  3
*D10
  1

  0
LINE
  5
8445
  8
3
 62
     0
 10
4446.1439272796479
 20
6347.7335810000004
 30
0.0
 11
4446.1439272796479
 21
6525.2904899999994
 31
0.0
  0
LINE
  5
8446
  8
3
 62
     0
 10
2595.8540892796482
 20
6347.9495479999987
 30
0.0
 11
2595.8540892796482
 21
6525.2904899999994
 31
0.0
  0
LINE
  5
8447
  8
3
 62
     0
 10
4356.1439272796479
 20
6480.2904900000003
 30
0.0
 11
2685.8540892796482
 21
6480.2904900000003
 31
0.0
  0
INSERT
  5
8448
  8
3
 62
     0
  2
_OPEN
 10
4446.1439272796479
 20
6480.2904900000003
 30
0.0
 41
90.0
 42
90.0
 43
90.0
  0
INSERT
  5
8449
  8
3
 62
     0
  2
_OPEN
 10
2595.8540892796482
 20
6480.2904900000003
 30
0.0
 41
90.0
 42
90.0
 43
90.0
 50
180.0
  0
TEXT
  8
3
  40
135
  5
84D1
  62
0
  72
0
  71
0
 10
3158.52
 20
6353.84
 30
0.000000
  1
1850
  0
POINT
  5
844B
  8
DEFPOINTS
 62
     0
 10
4446.1439272796479
 20
6325.2335810000004
 30
0.0
  0
POINT
  5
844C
  8
DEFPOINTS
 62
     0
 10
2595.8540892796482
 20
6325.4495479999987
 30
0.0
  0
POINT
  5
844D
  8
DEFPOINTS
 62
     0
 10
2595.8540892796482
 20
6480.2904900000003
 30
0.0
  0
ENDBLK
  5
8379
  8
0
  0
BLOCK
  8
0
  2
*D11
 70
     1
 10
0.0
 20
0.0
 30
0.0
  3
*D11
  1

  0
LINE
  5
844E
  8
3
 62
     0
 10
4530.3540892796482
 20
6325.4495479999987
 30
0.0
 11
5715.6266292796499
 21
6325.4495479999987
 31
0.0
  0
LINE
  5
844F
  8
3
 62
     0
 10
4750.3001572796493
 20
5160.4495479999987
 30
0.0
 11
5715.626629279649
 21
5160.4495479999987
 31
0.0
  0
LINE
  5
8450
  8
3
 62
     0
 10
5670.6266292796499
 20
6235.4495479999996
 30
0.0
 11
5670.626629279649
 21
5250.4495479999987
 31
0.0
  0
INSERT
  5
8451
  8
3
 62
     0
  2
_OPEN
 10
5670.6266292796499
 20
6325.4495479999987
 30
0.0
 41
90.0
 42
90.0
 43
90.0
 50
90.0
  0
INSERT
  5
8452
  8
3
 62
     0
  2
_OPEN
 10
5670.626629279649
 20
5160.4495479999987
 30
0.0
 41
90.0
 42
90.0
 43
90.0
 50
270.0
  0
TEXT
  8
3
  40
135
  5
84D2
  62
0
  72
0
  71
0
 10
5288.13
 20
5518.11
 30
0.000000
  1
1165
  0
POINT
  5
8454
  8
DEFPOINTS
 62
     0
 10
4507.8540892796482
 20
6325.4495479999987
 30
0.0
  0
POINT
  5
8455
  8
DEFPOINTS
 62
     0
 10
4727.8001572796484
 20
5160.4495479999987
 30
0.0
  0
POINT
  5
8456
  8
DEFPOINTS
 62
     0
 10
5670.626629279649
 20
5160.4495479999987
 30
0.0
  0
ENDBLK
  5
838E
  8
0
  0
BLOCK
  8
0
  2
*D12
 70
     1
 10
0.0
 20
0.0
 30
0.0
  3
*D12
  1

  0
LINE
  5
8457
  8
3
 62
     0
 10
5387.3540892796482
 20
3570.449548
 30
0.0
 11
5715.6266292796481
 21
3570.449548
 31
0.0
  0
LINE
  5
8458
  8
3
 62
     0
 10
5670.626629279649
 20
5070.4495479999996
 30
0.0
 11
5670.626629279649
 21
3660.4495479999991
 31
0.0
  0
INSERT
  5
8459
  8
3
 62
     0
  2
_OPEN
 10
5670.626629279649
 20
5160.4495479999987
 30
0.0
 41
90.0
 42
90.0
 43
90.0
 50
90.0
  0
INSERT
  5
845A
  8
3
 62
     0
  2
_OPEN
 10
5670.626629279649
 20
3570.449548
 30
0.0
 41
90.0
 42
90.0
 43
90.0
 50
270.0
  0
TEXT
  8
3
  40
135
  5
84D3
  62
0
  72
0
  71
0
 10
5288.13
 20
4126.50
 30
0.000000
  1
1590
  0
POINT
  5
845C
  8
DEFPOINTS
 62
     0
 10
4727.8001572796484
 20
5160.4495479999987
 30
0.0
  0
POINT
  5
845D
  8
DEFPOINTS
 62
     0
 10
5364.8540892796482
 20
3570.449548
 30
0.0
  0
POINT
  5
845E
  8
DEFPOINTS
 62
     0
 10
5670.626629279649
 20
3570.449548
 30
0.0
  0
ENDBLK
  5
8398
  8
0
  0
BLOCK
  8
0
  2
*D13
 70
     1
 10
0.0
 20
0.0
 30
0.0
  3
*D13
  1

  0
LINE
  5
83BD
  8
0
  6
BYBLOCK
 62
     0
 10
-2592.8478915750861
 20
3430.385968
 30
0.0
 11
-2264.5753515750848
 21
3430.385968
 31
0.0
  0
LINE
  5
83BE
  8
0
  6
BYBLOCK
 62
     0
 10
-2309.5753515750848
 20
3660.4495479999991
 30
0.0
 11
-2309.5753515750848
 21
3750.4495479999991
 31
0.0
  0
LINE
  5
83BF
  8
0
  6
BYBLOCK
 62
     0
 10
-2309.5753515750848
 20
3340.385968
 30
0.0
 11
-2309.5753515750848
 21
3250.3859679999991
 31
0.0
  0
TEXT
  5
83C0
  8
1
 62
     0
 10
-2049.2182085750851
 20
3390.7781850000001
 30
0.0
 40
135.0
  1
(140)
 50
90.0
  0
LINE
  5
83C1
  8
0
  6
BYBLOCK
 62
     0
 10
-2309.5753515750848
 20
3570.449548
 30
0.0
 11
-2309.5753515750848
 21
3430.385968
 31
0.0
  0
INSERT
  5
83C2
  8
0
  6
BYBLOCK
 62
     0
  2
_OPEN
 10
-2309.5753515750848
 20
3570.449548
 30
0.0
 41
90.0
 42
90.0
 43
90.0
 50
270.0
  0
INSERT
  5
83C3
  8
0
  6
BYBLOCK
 62
     0
  2
_DOT
 10
-2309.5753515750848
 20
3430.385968
 30
0.0
 41
90.0
 42
90.0
 43
90.0
 50
90.0
  0
POINT
  5
83C4
  8
DEFPOINTS
  6
BYBLOCK
 62
     0
 10
-2615.3478915750852
 20
3570.449548
 30
0.0
  0
POINT
  5
83C5
  8
DEFPOINTS
  6
BYBLOCK
 62
     0
 10
-2615.3478915750852
 20
3430.385968
 30
0.0
  0
POINT
  5
83C6
  8
DEFPOINTS
  6
BYBLOCK
 62
     0
 10
-2309.5753515750848
 20
3430.385968
 30
0.0
  0
ENDBLK
  5
83C7
  8
0
  0
BLOCK
  8
0
  2
*D14
 70
     1
 10
0.0
 20
0.0
 30
0.0
  3
*D14
  1

  0
LINE
  5
845F
  8
3
 62
     0
 10
5387.3540892796482
 20
3430.385968000001
 30
0.0
 11
5715.6266292796481
 21
3430.385968000001
 31
0.0
  0
LINE
  5
8460
  8
3
 62
     0
 10
5387.3540892796482
 20
3280.385968
 30
0.0
 11
5715.6266292796481
 21
3280.385968
 31
0.0
  0
LINE
  5
8461
  8
3
 62
     0
 10
5670.626629279649
 20
3520.385968000001
 30
0.0
 11
5670.626629279649
 21
3610.385968000001
 31
0.0
  0
LINE
  5
8462
  8
3
 62
     0
 10
5670.626629279649
 20
3190.385968000001
 30
0.0
 11
5670.626629279649
 21
2688.9573965714289
 31
0.0
  0
LINE
  5
8463
  8
3
 62
     0
 10
5670.626629279649
 20
3430.385968000001
 30
0.0
 11
5670.626629279649
 21
3280.385968
 31
0.0
  0
INSERT
  5
8464
  8
3
 62
     0
  2
_DOT
 10
5670.626629279649
 20
3430.385968000001
 30
0.0
 41
90.0
 42
90.0
 43
90.0
 50
270.0
  0
INSERT
  5
8465
  8
3
 62
     0
  2
_OPEN
 10
5670.626629279649
 20
3280.385968
 30
0.0
 41
90.0
 42
90.0
 43
90.0
 50
90.0
  0
TEXT
  8
3
  40
135
  5
84D4
  62
0
  72
0
  71
0
 10
5288.13
 20
2655.72
 30
0.000000
  1
150
  0
POINT
  5
8467
  8
DEFPOINTS
 62
     0
 10
5364.8540892796482
 20
3430.385968000001
 30
0.0
  0
POINT
  5
8468
  8
DEFPOINTS
 62
     0
 10
5364.8540892796482
 20
3280.385968
 30
0.0
  0
POINT
  5
8469
  8
DEFPOINTS
 62
     0
 10
5670.626629279649
 20
3280.385968
 30
0.0
  0
ENDBLK
  5
83BB
  8
0
  0
BLOCK
  8
0
  2
*D15
 70
     1
 10
0.0
 20
0.0
 30
0.0
  3
*D15
  1

  0
LINE
  5
846A
  8
3
 62
     0
 10
5364.8540892796482
 20
3257.885968
 30
0.0
 11
5364.8540892796482
 21
2904.07006
 31
0.0
  0
LINE
  5
846B
  8
3
 62
     0
 10
2524.8540892796491
 20
3168.1840739999998
 30
0.0
 11
2524.8540892796491
 21
2904.07006
 31
0.0
  0
LINE
  5
846C
  8
3
 62
     0
 10
5274.8540892796482
 20
2949.07006
 30
0.0
 11
2614.8540892796491
 21
2949.07006
 31
0.0
  0
INSERT
  5
846D
  8
3
 62
     0
  2
_OPEN
 10
5364.8540892796482
 20
2949.07006
 30
0.0
 41
90.0
 42
90.0
 43
90.0
  0
INSERT
  5
846E
  8
3
 62
     0
  2
_OPEN
 10
2524.8540892796491
 20
2949.07006
 30
0.0
 41
90.0
 42
90.0
 43
90.0
 50
180.0
  0
TEXT
  8
3
  40
135
  5
84D5
  62
0
  72
0
  71
0
 10
3592.78
 20
2822.62
 30
0.000000
  1
2840
  0
POINT
  5
8470
  8
DEFPOINTS
 62
     0
 10
5364.8540892796482
 20
3280.385968
 30
0.0
  0
POINT
  5
8471
  8
DEFPOINTS
 62
     0
 10
2524.8540892796491
 20
3190.6840739999989
 30
0.0
  0
POINT
  5
8472
  8
DEFPOINTS
 62
     0
 10
2524.8540892796491
 20
2949.07006
 30
0.0
  0
ENDBLK
  5
83AE
  8
0
  0
BLOCK
  8
0
  2
*D16
 70
     1
 10
0.0
 20
0.0
 30
0.0
  3
*D16
  1

  0
LINE
  5
8473
  8
3
 62
     0
 10
1464.8540892796491
 20
3257.885968
 30
0.0
 11
1464.8540892796491
 21
2904.07006
 31
0.0
  0
LINE
  5
8474
  8
3
 62
     0
 10
2434.8540892796491
 20
2949.07006
 30
0.0
 11
1554.8540892796491
 21
2949.07006
 31
0.0
  0
INSERT
  5
8475
  8
3
 62
     0
  2
_OPEN
 10
2524.8540892796491
 20
2949.07006
 30
0.0
 41
90.0
 42
90.0
 43
90.0
  0
INSERT
  5
8476
  8
3
 62
     0
  2
_OPEN
 10
1464.8540892796491
 20
2949.07006
 30
0.0
 41
90.0
 42
90.0
 43
90.0
 50
180.0
  0
TEXT
  8
3
  40
135
  5
84D6
  62
0
  72
0
  71
0
 10
1724.85
 20
2822.62
 30
0.000000
  1
1060
  0
POINT
  5
8478
  8
DEFPOINTS
 62
     0
 10
2524.8540892796491
 20
3190.6840739999989
 30
0.0
  0
POINT
  5
8479
  8
DEFPOINTS
 62
     0
 10
1464.8540892796491
 20
3280.385968
 30
0.0
  0
POINT
  5
847A
  8
DEFPOINTS
 62
     0
 10
1464.8540892796491
 20
2949.07006
 30
0.0
  0
ENDBLK
  5
8363
  8
0
  0
BLOCK
  8
0
  2
*D17
 70
     1
 10
0.0
 20
0.0
 30
0.0
  3
*D17
  1

  0
LINE
  5
847B
  8
3
 62
     0
 10
5364.8540892796482
 20
3257.885968
 30
0.0
 11
5364.8540892796482
 21
2578.6179480000001
 31
0.0
  0
LINE
  5
847C
  8
3
 62
     0
 10
1464.8540892796491
 20
3257.885968
 30
0.0
 11
1464.8540892796491
 21
2578.6179480000001
 31
0.0
  0
LINE
  5
847D
  8
3
 62
     0
 10
5274.8540892796482
 20
2623.6179480000001
 30
0.0
 11
1554.8540892796491
 21
2623.6179480000001
 31
0.0
  0
INSERT
  5
847E
  8
3
 62
     0
  2
_OPEN
 10
5364.8540892796482
 20
2623.6179480000001
 30
0.0
 41
90.0
 42
90.0
 43
90.0
  0
INSERT
  5
847F
  8
3
 62
     0
  2
_OPEN
 10
1464.8540892796491
 20
2623.6179480000001
 30
0.0
 41
90.0
 42
90.0
 43
90.0
 50
180.0
  0
TEXT
  8
3
  40
135
  5
84D7
  62
0
  72
0
  71
0
 10
2989.64
 20
2497.17
 30
0.000000
  1
3900
  0
POINT
  5
8481
  8
DEFPOINTS
 62
     0
 10
5364.8540892796482
 20
3280.385968
 30
0.0
  0
POINT
  5
8482
  8
DEFPOINTS
 62
     0
 10
1464.8540892796491
 20
3280.385968
 30
0.0
  0
POINT
  5
8483
  8
DEFPOINTS
 62
     0
 10
1464.8540892796491
 20
2623.6179480000001
 30
0.0
  0
ENDBLK
  5
8359
  8
0
  0
BLOCK
  8
0
  2
*D18
 70
     1
 10
0.0
 20
0.0
 30
0.0
  3
*D18
  1

  0
LINE
  5
8484
  8
3
 62
     0
 10
6486.6376499999997
 20
3377.885968
 30
0.0
 11
6486.6376499999997
 21
3024.07006
 31
0.0
  0
LINE
  5
8485
  8
3
 62
     0
 10
7597.6376499999997
 20
3323.2437049999999
 30
0.0
 11
7597.6376499999997
 21
3024.07006
 31
0.0
  0
LINE
  5
8486
  8
3
 62
     0
 10
6576.6376499999988
 20
3069.07006
 30
0.0
 11
7507.6376499999988
 21
3069.07006
 31
0.0
  0
INSERT
  5
8487
  8
3
 62
     0
  2
_OPEN
 10
6486.6376499999997
 20
3069.07006
 30
0.0
 41
90.0
 42
90.0
 43
90.0
 50
180.0
  0
INSERT
  5
8488
  8
3
 62
     0
  2
_OPEN
 10
7597.6376499999997
 20
3069.07006
 30
0.0
 41
90.0
 42
90.0
 43
90.0
  0
TEXT
  8
3
  40
135
  5
84D8
  62
0
  72
0
  71
0
 10
6794.64
 20
2942.62
 30
0.000000
  1
1111
  0
POINT
  5
848A
  8
DEFPOINTS
 62
     0
 10
6486.6376499999997
 20
3400.385968
 30
0.0
  0
POINT
  5
848B
  8
DEFPOINTS
 62
     0
 10
7597.6376499999997
 20
3345.743704999999
 30
0.0
  0
POINT
  5
848C
  8
DEFPOINTS
 62
     0
 10
7597.6376499999997
 20
3069.07006
 30
0.0
  0
ENDBLK
  5
8237
  8
0
  0
BLOCK
  8
0
  2
*D19
 70
     1
 10
0.0
 20
0.0
 30
0.0
  3
*D19
  1

  0
LINE
  5
848D
  8
3
 62
     0
 10
8336.6376500000006
 20
3377.885968
 30
0.0
 11
8336.6376500000006
 21
3024.07006
 31
0.0
  0
LINE
  5
848E
  8
3
 62
     0
 10
7687.6376499999988
 20
3069.07006
 30
0.0
 11
8246.6376500000024
 21
3069.07006
 31
0.0
  0
INSERT
  5
848F
  8
3
 62
     0
  2
_OPEN
 10
7597.6376499999997
 20
3069.07006
 30
0.0
 41
90.0
 42
90.0
 43
90.0
 50
180.0
  0
INSERT
  5
8490
  8
3
 62
     0
  2
_OPEN
 10
8336.6376500000006
 20
3069.07006
 30
0.0
 41
90.0
 42
90.0
 43
90.0
  0
TEXT
  8
3
  40
135
  5
84D9
  62
0
  72
0
  71
0
 10
7697.14
 20
2942.62
 30
0.000000
  1
739
  0
POINT
  5
8492
  8
DEFPOINTS
 62
     0
 10
7597.6376499999997
 20
3345.743704999999
 30
0.0
  0
POINT
  5
8493
  8
DEFPOINTS
 62
     0
 10
8336.6376500000006
 20
3400.385968
 30
0.0
  0
POINT
  5
8494
  8
DEFPOINTS
 62
     0
 10
8336.6376500000006
 20
3069.07006
 30
0.0
  0
ENDBLK
  5
8243
  8
0
  0
BLOCK
  8
0
  2
*D20
 70
     1
 10
0.0
 20
0.0
 30
0.0
  3
*D20
  1

  0
LINE
  5
8495
  8
3
 62
     0
 10
6486.6376499999997
 20
3377.885968
 30
0.0
 11
6486.6376499999997
 21
2698.6179480000001
 31
0.0
  0
LINE
  5
8496
  8
3
 62
     0
 10
8336.6376500000006
 20
3377.885968
 30
0.0
 11
8336.6376500000006
 21
2698.6179480000001
 31
0.0
  0
LINE
  5
8497
  8
3
 62
     0
 10
6576.6376499999988
 20
2743.6179480000001
 30
0.0
 11
8246.6376500000024
 21
2743.6179480000001
 31
0.0
  0
INSERT
  5
8498
  8
3
 62
     0
  2
_OPEN
 10
6486.6376499999997
 20
2743.6179480000001
 30
0.0
 41
90.0
 42
90.0
 43
90.0
 50
180.0
  0
INSERT
  5
8499
  8
3
 62
     0
  2
_OPEN
 10
8336.6376500000006
 20
2743.6179480000001
 30
0.0
 41
90.0
 42
90.0
 43
90.0
  0
TEXT
  8
3
  40
135
  5
84DA
  62
0
  72
0
  71
0
 10
7216.83
 20
2617.17
 30
0.000000
  1
1850
  0
POINT
  5
849B
  8
DEFPOINTS
 62
     0
 10
6486.6376499999997
 20
3400.385968
 30
0.0
  0
POINT
  5
849C
  8
DEFPOINTS
 62
     0
 10
8336.6376500000006
 20
3400.385968
 30
0.0
  0
POINT
  5
849D
  8
DEFPOINTS
 62
     0
 10
8336.6376500000006
 20
2743.6179480000001
 30
0.0
  0
ENDBLK
  5
8250
  8
0
  0
BLOCK
  8
0
  2
*D21
 70
     1
 10
0.0
 20
0.0
 30
0.0
  3
*D21
  1

  0
LINE
  5
849E
  8
3
 62
     0
 10
8415.1376500000006
 20
6060.4495479999996
 30
0.0
 11
8822.5519080000013
 21
6060.4495479999996
 31
0.0
  0
LINE
  5
849F
  8
3
 62
     0
 10
8415.1376500000006
 20
4260.4495479999987
 30
0.0
 11
8822.5519080000013
 21
4260.4495479999987
 31
0.0
  0
LINE
  5
84A0
  8
3
 62
     0
 10
8777.5519080000013
 20
5970.4495479999996
 30
0.0
 11
8777.5519080000013
 21
4350.4495479999987
 31
0.0
  0
INSERT
  5
84A1
  8
3
 62
     0
  2
_OPEN
 10
8777.5519080000013
 20
6060.4495479999996
 30
0.0
 41
90.0
 42
90.0
 43
90.0
 50
90.0
  0
INSERT
  5
84A2
  8
3
 62
     0
  2
_OPEN
 10
8777.5519080000013
 20
4260.4495479999987
 30
0.0
 41
90.0
 42
90.0
 43
90.0
 50
270.0
  0
TEXT
  8
3
  40
135
  5
84DB
  62
0
  72
0
  71
0
 10
8395.05
 20
4867.21
 30
0.000000
  1
φ1800
  0
POINT
  5
84A4
  8
DEFPOINTS
 62
     0
 10
8392.6376500000006
 20
6060.4495479999996
 30
0.0
  0
POINT
  5
84A5
  8
DEFPOINTS
 62
     0
 10
8392.6376500000006
 20
4260.4495479999987
 30
0.0
  0
POINT
  5
84A6
  8
DEFPOINTS
 62
     0
 10
8777.5519080000013
 20
4260.4495479999987
 30
0.0
  0
ENDBLK
  5
825D
  8
0
  0
BLOCK
  8
0
  2
*D22
 70
     1
 10
0.0
 20
0.0
 30
0.0
  3
*D22
  1

  0
LINE
  5
84A7
  8
3
 62
     0
 10
6937.6376499999988
 20
6347.9495479999987
 30
0.0
 11
6937.6376499999988
 21
6561.4518230000003
 31
0.0
  0
LINE
  5
84A8
  8
3
 62
     0
 10
8257.6376500000006
 20
6347.9495479999987
 30
0.0
 11
8257.6376500000006
 21
6561.4518230000003
 31
0.0
  0
LINE
  5
84A9
  8
3
 62
     0
 10
7027.6376499999988
 20
6516.4518230000003
 30
0.0
 11
8167.6376500000006
 21
6516.4518230000003
 31
0.0
  0
INSERT
  5
84AA
  8
3
 62
     0
  2
_OPEN
 10
6937.6376499999988
 20
6516.4518230000003
 30
0.0
 41
90.0
 42
90.0
 43
90.0
 50
180.0
  0
INSERT
  5
84AB
  8
3
 62
     0
  2
_OPEN
 10
8257.6376500000006
 20
6516.4518230000003
 30
0.0
 41
90.0
 42
90.0
 43
90.0
  0
TEXT
  8
3
  40
135
  5
84DC
  62
0
  72
0
  71
0
 10
7289.21
 20
6390.00
 30
0.000000
  1
1320
  0
POINT
  5
84AD
  8
DEFPOINTS
 62
     0
 10
6937.6376499999988
 20
6325.4495479999987
 30
0.0
  0
POINT
  5
84AE
  8
DEFPOINTS
 62
     0
 10
8257.6376500000006
 20
6325.4495479999987
 30
0.0
  0
POINT
  5
84AF
  8
DEFPOINTS
 62
     0
 10
8257.6376500000006
 20
6516.4518230000003
 30
0.0
  0
ENDBLK
  5
826A
  8
0
  0
BLOCK
  8
0
  2
*D23
 70
     1
 10
0.0
 20
0.0
 30
0.0
  3
*D23
  1

  0
LINE
  5
84B0
  8
3
 62
     0
 10
8392.6376500000006
 20
6147.9495479999987
 30
0.0
 11
8392.6376500000006
 21
6971.2804430000006
 31
0.0
  0
LINE
  5
84B1
  8
3
 62
     0
 10
7597.6376499999997
 20
6738.8326290000005
 30
0.0
 11
7597.6376499999997
 21
6971.2804430000006
 31
0.0
  0
LINE
  5
84B2
  8
3
 62
     0
 10
8302.6376500000006
 20
6926.2804429999997
 30
0.0
 11
7687.6376499999988
 21
6926.2804429999997
 31
0.0
  0
INSERT
  5
84B3
  8
3
 62
     0
  2
_OPEN
 10
8392.6376500000006
 20
6926.2804429999997
 30
0.0
 41
90.0
 42
90.0
 43
90.0
  0
INSERT
  5
84B4
  8
3
 62
     0
  2
_OPEN
 10
7597.6376499999997
 20
6926.2804429999997
 30
0.0
 41
90.0
 42
90.0
 43
90.0
 50
180.0
  0
TEXT
  8
3
  40
135
  5
84DD
  62
0
  72
0
  71
0
 10
7735.53
 20
6799.83
 30
0.000000
  1
795
  0
POINT
  5
84B6
  8
DEFPOINTS
 62
     0
 10
8392.6376500000006
 20
6125.4495479999987
 30
0.0
  0
POINT
  5
84B7
  8
DEFPOINTS
 62
     0
 10
7597.6376499999997
 20
6716.3326290000005
 30
0.0
  0
POINT
  5
84B8
  8
DEFPOINTS
 62
     0
 10
7597.6376499999997
 20
6926.2804429999997
 30
0.0
  0
ENDBLK
  5
8277
  8
0
  0
BLOCK
  8
0
  2
*D24
 70
     1
 10
0.0
 20
0.0
 30
0.0
  3
*D24
  1

  0
LINE
  5
84B9
  8
3
 62
     0
 10
6497.6376499999997
 20
5662.9495479999996
 30
0.0
 11
6497.6376499999997
 21
6971.2804430000006
 31
0.0
  0
LINE
  5
84BA
  8
3
 62
     0
 10
7507.6376499999988
 20
6926.2804429999997
 30
0.0
 11
6587.6376499999988
 21
6926.2804429999997
 31
0.0
  0
INSERT
  5
84BB
  8
3
 62
     0
  2
_OPEN
 10
7597.6376499999997
 20
6926.2804429999997
 30
0.0
 41
90.0
 42
90.0
 43
90.0
  0
INSERT
  5
84BC
  8
3
 62
     0
  2
_OPEN
 10
6497.6376499999997
 20
6926.2804429999997
 30
0.0
 41
90.0
 42
90.0
 43
90.0
 50
180.0
  0
TEXT
  8
3
  40
135
  5
84DE
  62
0
  72
0
  71
0
 10
6777.64
 20
6835.19
 30
0.000000
  1
(1150)
  0
POINT
  5
84BE
  8
DEFPOINTS
 62
     0
 10
7597.6376499999997
 20
6716.3326290000005
 30
0.0
  0
POINT
  5
84BF
  8
DEFPOINTS
 62
     0
 10
6497.6376499999997
 20
5640.4495479999987
 30
0.0
  0
POINT
  5
84C0
  8
DEFPOINTS
 62
     0
 10
6497.6376499999997
 20
6926.2804429999997
 30
0.0
  0
ENDBLK
  5
8283
  8
0
  0
BLOCK
  8
0
  2
*D25
 70
     1
 10
0.0
 20
0.0
 30
0.0
  3
*D25
  1

  0
LINE
  5
84C1
  8
3
 62
     0
 10
4552.8540892796482
 20
6325.4495479999987
 30
0.0
 11
6145.3548322796496
 21
6325.4495479999987
 31
0.0
  0
LINE
  5
84C2
  8
3
 62
     0
 10
5387.3540892796482
 20
3280.385968
 30
0.0
 11
6145.3548322796496
 21
3280.385968
 31
0.0
  0
LINE
  5
84C3
  8
3
 62
     0
 10
6100.3548322796496
 20
6235.4495479999996
 30
0.0
 11
6100.3548322796487
 21
3370.385968
 31
0.0
  0
INSERT
  5
84C4
  8
3
 62
     0
  2
_OPEN
 10
6100.3548322796496
 20
6325.4495479999987
 30
0.0
 41
90.0
 42
90.0
 43
90.0
 50
90.0
  0
INSERT
  5
84C5
  8
3
 62
     0
  2
_OPEN
 10
6100.3548322796487
 20
3280.385968
 30
0.0
 41
90.0
 42
90.0
 43
90.0
 50
270.0
  0
TEXT
  8
3
  40
135
  5
84DF
  62
0
  72
0
  71
0
 10
5717.85
 20
4616.84
 30
0.000000
  1
3045
  0
POINT
  5
84C7
  8
DEFPOINTS
 62
     0
 10
4530.3540892796482
 20
6325.4495479999987
 30
0.0
  0
POINT
  5
84C8
  8
DEFPOINTS
 62
     0
 10
5364.8540892796482
 20
3280.385968
 30
0.0
  0
POINT
  5
84C9
  8
DEFPOINTS
 62
     0
 10
6100.3548322796487
 20
3280.385968
 30
0.0
  0
ENDBLK
  5
83A3
  8
0
  0
ENDSEC
  0
SECTION
  2
ENTITIES
  0
INSERT
  5
7ADD
  8
0
  2
YA_N
 10
12518.736613999999
 20
-6524.6833909999987
 30
0.0
  0
INSERT
  5
7AF5
  8
0
  2
YA_N
 10
18386.038918999999
 20
2975.8020809999989
 30
0.0
  0
INSERT
  5
7DA2
  8
0
  2
YA_N
 10
12518.736613999999
 20
-6524.6833909999987
 30
0.0
  0
INSERT
  5
7DB4
  8
0
  2
YA_N
 10
18386.038918999999
 20
2975.8020809999989
 30
0.0
  0
LINE
  5
80D9
  8
1
 10
6486.6376499999997
 20
3720.4495479999991
 30
0.0
 11
8336.6376500000006
 21
3720.4495479999991
 31
0.0
  0
LINE
  5
80DA
  8
1
 10
6486.6376499999997
 20
3570.449548
 30
0.0
 11
8336.6376500000006
 21
3570.449548
 31
0.0
  0
LINE
  5
80DB
  8
1
 10
2531.8540892796491
 20
6325.4495479999987
 30
0.0
 11
4507.8540892796482
 21
6325.4495479999987
 31
0.0
  0
LINE
  5
80DC
  8
1
 10
2595.8540892796482
 20
6260.4495479999996
 30
0.0
 11
4440.0337902796491
 21
6260.4495479999996
 31
0.0
  0
ARC
  5
80DD
  8
1
 10
2655.8540892796482
 20
5291.4495479999996
 30
0.0
 40
1685.0
 50
270.0
 51
354.61205899999999
  0
LINE
  5
80DE
  8
1
 10
4446.1439272796479
 20
6325.2335810000004
 30
0.0
 11
4335.6991752796484
 21
5133.0141469999999
 31
0.0
  0
ARC
  5
80DF
  8
1
 10
4894.8540892796482
 20
4070.449548
 30
0.0
 40
280.0
 50
247.13426799999999
 51
57.325814999999977
  0
ARC
  5
80E0
  8
1
 10
2655.8540892796482
 20
5029.4495479999987
 30
0.0
 40
1423.0
 50
180.0
 51
270.0
  0
LINE
  5
80E1
  8
2
 10
4727.8001572796484
 20
5160.4495479999987
 30
0.0
 11
940.09650827964833
 21
5160.4495479999987
 31
0.0
  0
ARC
  5
80E2
  8
1
 10
2414.3540892796491
 20
5049.9495479999996
 30
0.0
 40
1181.4999999999991
 50
90.0
 51
180.994179
  0
ARC
  5
80E3
  8
1
 10
2524.8540892796491
 20
5160.4495479999987
 30
0.0
 40
965.0
 50
359.46562699999998
 51
0.0
  0
LINE
  5
80E4
  8
1
 10
2595.8540892796482
 20
6214.1451800000004
 30
0.0
 11
2595.8540892796482
 21
6325.4495479999987
 31
0.0
  0
LINE
  5
80E5
  8
2
 10
2524.8540892796491
 20
3190.6840739999989
 30
0.0
 11
2524.8540892796491
 21
6619.244424999999
 31
0.0
  0
ARC
  5
80E6
  8
1
 10
2414.3540892796491
 20
5270.9495479999987
 30
0.0
 40
960.5
 50
79.107664999999969
 51
90.0
  0
LINE
  5
80E7
  8
1
 10
6561.6376499999997
 20
3720.4495479999991
 30
0.0
 11
6486.6376499999997
 21
3720.4495479999991
 31
0.0
  0
LINE
  5
80E8
  8
1
 10
6561.6376499999997
 20
3570.449548
 30
0.0
 11
6486.6376499999997
 21
3570.449548
 31
0.0
  0
LINE
  5
80EA
  8
2
 10
7597.6376499999997
 20
3345.743704999999
 30
0.0
 11
7597.6376499999997
 21
6528.0706770000006
 31
0.0
  0
LINE
  5
80EB
  8
1
 10
8257.6376500000006
 20
5169.4495479999996
 30
0.0
 11
8257.6376500000006
 21
6325.4495479999987
 31
0.0
  0
LINE
  5
80EC
  8
1
 10
8392.6376500000006
 20
4195.4495479999996
 30
0.0
 11
8392.6376500000006
 21
6125.4495479999987
 31
0.0
  0
LINE
  5
80ED
  8
1
 10
8257.6376500000006
 20
3720.4495479999991
 30
0.0
 11
8257.6376500000006
 21
5151.4495479999987
 31
0.0
  0
LINE
  5
80EE
  8
1
 10
8261.6376500000006
 20
3570.449548
 30
0.0
 11
8336.6376500000006
 21
3570.449548
 31
0.0
  0
LINE
  5
80EF
  8
1
 10
8261.6376500000006
 20
3720.4495479999991
 30
0.0
 11
8336.6376500000006
 21
3720.4495479999991
 31
0.0
  0
LINE
  5
80F0
  8
1
 10
8257.6376500000006
 20
4260.4495479999987
 30
0.0
 11
8392.6376500000006
 21
4260.4495479999987
 31
0.0
  0
LINE
  5
80F1
  8
1
 10
8257.6376500000006
 20
6060.4495479999996
 30
0.0
 11
8392.6376500000006
 21
6060.4495479999996
 31
0.0
  0
LINE
  5
80F3
  8
1
 10
1464.8540892796491
 20
3430.385968000001
 30
0.0
 11
5364.8540892796482
 21
3430.385968000001
 31
0.0
  0
LINE
  5
80F4
  8
1
 10
1464.8540892796491
 20
3280.385968
 30
0.0
 11
5364.8540892796482
 21
3280.385968
 31
0.0
  0
LINE
  5
80F5
  8
1
 10
1464.8540892796491
 20
3570.449548
 30
0.0
 11
5364.8540892796482
 21
3570.449548
 31
0.0
  0
LINE
  5
80F6
  8
1
 10
1464.8540892796491
 20
3720.4495479999991
 30
0.0
 11
5364.8540892796482
 21
3720.4495479999991
 31
0.0
  0
LINE
  5
80F7
  8
1
 10
4507.8540892796482
 20
9411.0635379999985
 30
0.0
 11
5364.8540892796482
 21
9411.0635380000003
 31
0.0
  0
LINE
  5
80F8
  8
1
 10
1464.8540892796491
 20
8211.0635380000003
 30
0.0
 11
4607.3540892796482
 21
8211.0635380000003
 31
0.0
  0
LINE
  5
80F9
  8
1
 10
1464.8540892796491
 20
3430.385968000001
 30
0.0
 11
1464.8540892796491
 21
3280.385968
 31
0.0
  0
LINE
  5
80FA
  8
1
 10
1464.8540892796491
 20
3720.4495479999991
 30
0.0
 11
1464.8540892796491
 21
3570.449548
 31
0.0
  0
LINE
  5
80FB
  8
1
 10
1464.8540892796491
 20
10061.063538
 30
0.0
 11
3584.8540892796482
 21
10061.063538
 31
0.0
  0
LINE
  5
80FC
  8
1
 10
1464.8540892796491
 20
8211.0635380000003
 30
0.0
 11
1464.8540892796491
 21
8290.0635380000003
 31
0.0
  0
LINE
  5
80FD
  8
2
 10
2524.8540892796491
 20
7794.7701879999977
 30
0.0
 11
2524.8540892796491
 21
10139.871609999989
 31
0.0
  0
LINE
  5
80FE
  8
1
 10
3584.8540892796482
 20
8211.0635380000003
 30
0.0
 11
3584.8540892796482
 21
8222.0635380000003
 31
0.0
  0
LINE
  5
80FF
  8
2
 10
4894.8540892796482
 20
3647.651617999999
 30
0.0
 11
4894.8540892796482
 21
4552.4484000000002
 31
0.0
  0
LINE
  5
8100
  8
1
 10
5364.8540892796482
 20
3430.385968000001
 30
0.0
 11
5364.8540892796482
 21
3280.385968
 31
0.0
  0
LINE
  5
8101
  8
1
 10
5364.8540892796482
 20
3720.4495479999991
 30
0.0
 11
5364.8540892796482
 21
3570.449548
 31
0.0
  0
LINE
  5
8102
  8
1
 10
5364.8540892796482
 20
8211.0635380000003
 30
0.0
 11
5364.8540892796482
 21
9411.0635380000003
 31
0.0
  0
INSERT
  5
8103
  8
0
  2
YA_N
 10
12518.736613999999
 20
-6524.6833909999987
 30
0.0
  0
CIRCLE
  5
8104
  8
1
 10
2524.8540892796491
 20
5160.4495479999987
 30
0.0
 40
400.0
  0
LINE
  5
8105
  8
2
 10
6397.6376499999997
 20
5160.4495479999987
 30
0.0
 11
8498.3907209999998
 21
5160.4495479999987
 31
0.0
  0
LINE
  5
8106
  8
1
 10
6497.6376499999997
 20
3785.449548
 30
0.0
 11
6497.6376499999997
 21
5640.4495479999987
 31
0.0
  0
LINE
  5
8107
  8
1
 10
6697.6376499999997
 20
5640.4495479999987
 30
0.0
 11
6697.6376499999997
 21
3785.449548
 31
0.0
  0
LINE
  5
8108
  8
1
 10
6697.6376499999997
 20
3785.449548
 30
0.0
 11
6497.6376499999997
 21
3785.449548
 31
0.0
  0
LINE
  5
810B
  8
1
 10
6537.6376499999988
 20
5560.4495479999996
 30
0.0
 11
6657.6376499999988
 21
5560.4495479999996
 31
0.0
  0
LINE
  5
810C
  8
1
 10
6657.6376499999988
 20
4760.4495479999987
 30
0.0
 11
6537.6376499999988
 21
4760.4495479999987
 31
0.0
  0
LINE
  5
810D
  8
1
 10
6537.6376499999988
 20
3920.449548
 30
0.0
 11
6537.6376499999988
 21
5560.4495479999996
 31
0.0
  0
LINE
  5
810E
  8
1
 10
6657.6376499999988
 20
3920.449548
 30
0.0
 11
6657.6376499999988
 21
5560.4495479999996
 31
0.0
  0
LINE
  5
810F
  8
2
 10
6597.6376499999997
 20
5606.2975479999996
 30
0.0
 11
6597.6376499999997
 21
3915.1454729999991
 31
0.0
  0
LINE
  5
8110
  8
1
 10
6697.6376499999997
 20
5640.4495479999987
 30
0.0
 11
6497.6376499999997
 21
5640.4495479999987
 31
0.0
  0
ARC
  5
8111
  8
1
 10
2524.8550892796479
 20
5160.4495479999987
 30
0.0
 40
480.0
 50
57.325814999999977
 51
247.13426799999999
  0
LINE
  5
8112
  8
2
 10
6463.3366500000011
 20
4070.449548
 30
0.0
 11
7696.3797731887244
 21
4070.449548
 31
0.0
  0
LINE
  5
8113
  8
1
 10
6537.6376499999988
 20
4220.4495479999996
 30
0.0
 11
6657.6376499999988
 21
4220.4495479999996
 31
0.0
  0
LINE
  5
8114
  8
1
 10
6537.6376499999988
 20
3920.449548
 30
0.0
 11
6657.6376499999988
 21
3920.449548
 31
0.0
  0
INSERT
  5
8115
  8
0
  2
YA_N
 10
18386.038918999999
 20
2975.8020809999989
 30
0.0
  0
CIRCLE
  5
8116
  8
1
 10
4894.8540892796482
 20
4070.449548
 30
0.0
 40
150.0
  0
ARC
  5
8117
  8
1
 10
4894.8540892796482
 20
4070.449548
 30
0.0
 40
310.0
 50
300.10230799999988
 51
239.89769200000001
  0
LINE
  5
8118
  8
1
 10
5244.8540892796482
 20
3790.4495479999991
 30
0.0
 11
4544.8540892796482
 21
3790.4495479999991
 31
0.0
  0
LINE
  5
8119
  8
2
 10
5232.3130532796476
 20
4070.449548
 30
0.0
 11
4551.5768672796476
 21
4070.449548
 31
0.0
  0
LINE
  5
811A
  8
1
 10
5050.3332212796486
 20
3802.258871
 30
0.0
 11
4739.3749572796487
 21
3802.258871
 31
0.0
  0
LINE
  5
811B
  8
1
 10
5244.8540892796482
 20
3790.4495479999991
 30
0.0
 11
5064.8540892796482
 21
3790.4495479999991
 31
0.0
  0
LINE
  5
811C
  8
1
 10
5174.8540892796482
 20
3937.4082010000002
 30
0.0
 11
5174.8540892796482
 21
3790.4495479999991
 31
0.0
  0
LINE
  5
811D
  8
1
 10
5244.8540892796482
 20
3790.4495479999991
 30
0.0
 11
5244.8540892796482
 21
3720.4495479999991
 31
0.0
  0
LINE
  5
811E
  8
1
 10
4614.8540892796482
 20
3937.4082010000002
 30
0.0
 11
4614.8540892796482
 21
3790.4495479999991
 31
0.0
  0
LINE
  5
811F
  8
1
 10
4544.8540892796482
 20
3790.4495479999991
 30
0.0
 11
4544.8540892796482
 21
3720.4495479999991
 31
0.0
  0
LINE
  5
8120
  8
1
 10
2783.9884262796481
 20
5564.4915190000002
 30
0.0
 11
5046.0152022796483
 21
4306.1406979999992
 31
0.0
  0
LINE
  5
8121
  8
1
 10
2338.3400802796482
 20
4718.1689229999993
 30
0.0
 11
4786.0536672796479
 21
3812.4525170000002
 31
0.0
  0
LINE
  5
8122
  8
1
 10
2747.9779692796478
 20
5492.4371000000001
 30
0.0
 11
4978.5255442796479
 21
4194.94488
 31
0.0
  0
LINE
  5
8123
  8
1
 10
2377.3742802796478
 20
4788.6300950000013
 30
0.0
 11
4839.5491612796486
 21
3931.017253
 31
0.0
  0
LINE
  5
8124
  8
1
 10
6486.6376499999997
 20
3720.4495479999991
 30
0.0
 11
6486.6376499999997
 21
3570.449548
 31
0.0
  0
LINE
  5
8125
  8
1
 10
8336.6376500000006
 20
3720.4495479999991
 30
0.0
 11
8336.6376500000006
 21
3570.449548
 31
0.0
  0
LINE
  5
8126
  8
1
 10
6486.6376499999997
 20
3400.385968
 30
0.0
 11
8336.6376500000006
 21
3400.385968
 31
0.0
  0
LINE
  5
8127
  8
1
 10
6486.6376499999997
 20
3550.385968
 30
0.0
 11
8336.6376500000006
 21
3550.385968
 31
0.0
  0
LINE
  5
8128
  8
1
 10
6561.6376499999997
 20
3400.385968
 30
0.0
 11
6486.6376499999997
 21
3400.385968
 31
0.0
  0
LINE
  5
8129
  8
1
 10
6561.6376499999997
 20
3550.385968
 30
0.0
 11
6486.6376499999997
 21
3550.385968
 31
0.0
  0
LINE
  5
812A
  8
1
 10
6486.6376499999997
 20
3550.385968
 30
0.0
 11
6486.6376499999997
 21
3400.385968
 31
0.0
  0
LINE
  5
812B
  8
1
 10
8336.6376500000006
 20
3550.385968
 30
0.0
 11
8336.6376500000006
 21
3400.385968
 31
0.0
  0
LINE
  5
812E
  8
2
 10
994.71015227964836
 20
8950.0635380000003
 30
0.0
 11
5541.8168652796494
 21
8950.0635380000003
 31
0.0
  0
LINE
  5
812F
  8
1
 10
4445.8540892796482
 20
8290.0635380000003
 30
0.0
 11
4445.8540892796482
 21
9610.0635380000003
 31
0.0
  0
LINE
  5
8130
  8
1
 10
1232.8540892796491
 20
8290.0635380000003
 30
0.0
 11
1232.8540892796491
 21
9610.0635380000003
 31
0.0
  0
LINE
  5
8131
  8
1
 10
1232.8540892796491
 20
9610.0635380000003
 30
0.0
 11
2531.8540892796491
 21
9610.0635380000003
 31
0.0
  0
LINE
  5
8132
  8
1
 10
1232.8540892796491
 20
8290.0635380000003
 30
0.0
 11
2531.8540892796491
 21
8290.0635380000003
 31
0.0
  0
LINE
  5
8133
  8
1
 10
1464.8540892796491
 20
9610.0635380000003
 30
0.0
 11
1464.8540892796491
 21
10061.063538
 31
0.0
  0
LINE
  5
8134
  8
1
 10
3584.8540892796482
 20
9678.0635380000003
 30
0.0
 11
3584.8540892796482
 21
10061.063538
 31
0.0
  0
LINE
  5
8135
  8
1
 10
2595.8540892796482
 20
8290.0635380000003
 30
0.0
 11
2595.8540892796482
 21
9610.0635380000003
 31
0.0
  0
LINE
  5
8136
  8
1
 10
2595.8540892796482
 20
9610.0635380000003
 30
0.0
 11
4445.8540892796482
 21
8290.0635380000003
 31
0.0
  0
LINE
  5
8137
  8
1
 10
4445.8540892796482
 20
9610.0635380000003
 30
0.0
 11
2595.8540892796482
 21
8290.0635380000003
 31
0.0
  0
LINE
  5
8138
  8
1
 10
5044.8540892796482
 20
7890.0635379999976
 30
0.0
 11
5044.8540892796482
 21
8010.0635379999976
 31
0.0
  0
LINE
  5
8139
  8
1
 10
4744.8540892796473
 20
7890.0635379999976
 30
0.0
 11
4744.8540892796473
 21
8010.0635379999976
 31
0.0
  0
LINE
  5
813A
  8
1
 10
4894.8540892796482
 20
7815.7625379999999
 30
0.0
 11
4894.8540892796482
 21
8163.5635379999976
 31
0.0
  0
LINE
  5
813B
  8
1
 10
2044.854089279648
 20
8050.0635379999994
 30
0.0
 11
2044.854089279648
 21
7850.0635379999994
 31
0.0
  0
LINE
  5
813C
  8
1
 10
2924.8540892796482
 20
8010.0635379999976
 30
0.0
 11
2924.8540892796482
 21
7890.0635379999976
 31
0.0
  0
LINE
  5
813D
  8
1
 10
2124.8540892796491
 20
7890.0635379999976
 30
0.0
 11
2124.8540892796491
 21
8010.0635379999976
 31
0.0
  0
LINE
  5
813E
  8
1
 10
5179.8540892796482
 20
8050.0635379999994
 30
0.0
 11
5179.8540892796482
 21
7850.0635379999994
 31
0.0
  0
LINE
  5
813F
  8
1
 10
5044.8540892796482
 20
7890.0635379999976
 30
0.0
 11
4744.8540892796473
 21
7890.0635379999976
 31
0.0
  0
LINE
  5
8140
  8
1
 10
5179.8540892796482
 20
7850.0635379999994
 30
0.0
 11
2044.854089279648
 21
7850.0635379999994
 31
0.0
  0
LINE
  5
8141
  8
2
 10
2079.0060892796482
 20
7950.0635379999994
 30
0.0
 11
5101.3051332796476
 21
7950.0635379999994
 31
0.0
  0
LINE
  5
8142
  8
1
 10
2924.8540892796482
 20
7890.0635379999976
 30
0.0
 11
2124.8540892796491
 21
7890.0635379999976
 31
0.0
  0
LINE
  5
8143
  8
1
 10
5044.8540892796482
 20
8010.0635379999976
 30
0.0
 11
4744.8540892796473
 21
8010.0635379999976
 31
0.0
  0
LINE
  5
8144
  8
1
 10
2044.854089279648
 20
8050.0635379999994
 30
0.0
 11
5179.8540892796482
 21
8050.0635379999994
 31
0.0
  0
LINE
  5
8145
  8
1
 10
2924.8540892796482
 20
8010.0635379999976
 30
0.0
 11
2124.8540892796491
 21
8010.0635379999976
 31
0.0
  0
LINE
  5
8146
  8
1
 10
6657.6376499999988
 20
5205.4495479999996
 30
0.0
 11
6937.6376499999988
 21
5205.4495479999996
 31
0.0
  0
LINE
  5
8147
  8
1
 10
6657.6376499999988
 20
5115.4495479999987
 30
0.0
 11
6937.6376499999988
 21
5115.4495479999987
 31
0.0
  0
LINE
  5
8148
  8
1
 10
5164.8540892796482
 20
8989.0635380000003
 30
0.0
 11
5164.8540892796482
 21
8136.5635379999976
 31
0.0
  0
LINE
  5
8149
  8
1
 10
4607.3540892796482
 20
8136.5635379999976
 30
0.0
 11
4607.3540892796482
 21
8989.0635380000003
 31
0.0
  0
LINE
  5
814A
  8
2
 10
4894.8540892796482
 20
7930.5669569999991
 30
0.0
 11
4894.8540892796482
 21
9008.3548540000029
 31
0.0
  0
LINE
  5
814B
  8
1
 10
5164.8540892796482
 20
8989.0635380000003
 30
0.0
 11
4607.3540892796482
 21
8989.0635380000003
 31
0.0
  0
LINE
  5
814C
  8
1
 10
4607.3540892796482
 20
8136.5635379999976
 30
0.0
 11
5164.8540892796482
 21
8136.5635379999976
 31
0.0
  0
LINE
  5
814D
  8
1
 10
4980.3540892796482
 20
8130.0635379999994
 30
0.0
 11
4809.3540892796482
 21
8130.0635379999994
 31
0.0
  0
LINE
  5
814E
  8
1
 10
4937.3540892796482
 20
7950.0635379999994
 30
0.0
 11
4847.3540892796482
 21
7950.0635379999994
 31
0.0
  0
LINE
  5
814F
  8
1
 10
4944.8540892796473
 20
8120.0635379999976
 30
0.0
 11
4844.8540892796482
 21
8120.0635379999976
 31
0.0
  0
LINE
  5
8150
  8
1
 10
4937.3540892796482
 20
7950.0635379999994
 30
0.0
 11
4937.3540892796482
 21
8120.0635379999976
 31
0.0
  0
LINE
  5
8151
  8
1
 10
4944.8540892796473
 20
8120.0635379999976
 30
0.0
 11
4944.8540892796473
 21
8130.0635379999994
 31
0.0
  0
ARC
  5
8152
  8
1
 10
4980.3540892796482
 20
8132.0635379999976
 30
0.0
 40
2.0
 50
270.0
 51
0.0
  0
LINE
  5
8153
  8
1
 10
4982.3540892796482
 20
8136.9119129999999
 30
0.0
 11
4982.3540892796482
 21
8132.0635379999976
 31
0.0
  0
LINE
  5
8154
  8
1
 10
4847.3540892796482
 20
7950.0635379999994
 30
0.0
 11
4847.3540892796482
 21
8090.0635379999976
 31
0.0
  0
LINE
  5
8155
  8
1
 10
4852.3540892796482
 20
7950.0635379999994
 30
0.0
 11
4852.3540892796482
 21
8114.5635379999976
 31
0.0
  0
LINE
  5
8156
  8
1
 10
4844.8540892796482
 20
8120.0635379999976
 30
0.0
 11
4844.8540892796482
 21
8130.0635379999994
 31
0.0
  0
ARC
  5
8157
  8
1
 10
4809.3540892796482
 20
8132.0635379999976
 30
0.0
 40
2.0
 50
180.0
 51
270.0
  0
LINE
  5
8158
  8
1
 10
4807.3540892796482
 20
8136.5635379999976
 30
0.0
 11
4807.3540892796482
 21
8132.0635379999976
 31
0.0
  0
LINE
  5
8159
  8
1
 10
4852.3540892796482
 20
8090.0635379999976
 30
0.0
 11
4847.3540892796482
 21
8090.0635379999976
 31
0.0
  0
LINE
  5
815A
  8
1
 10
7636.6376499999997
 20
4349.1995479999996
 30
0.0
 11
6784.1376499999988
 21
4349.1995479999996
 31
0.0
  0
LINE
  5
815B
  8
1
 10
6784.1376499999988
 20
3791.699548
 30
0.0
 11
7636.6376499999997
 21
3791.699548
 31
0.0
  0
LINE
  5
815C
  8
1
 10
6784.1376499999988
 20
3791.699548
 30
0.0
 11
6784.1376499999988
 21
4349.1995479999996
 31
0.0
  0
LINE
  5
815D
  8
1
 10
6777.6376499999988
 20
4155.9495479999996
 30
0.0
 11
6777.6376499999988
 21
3984.949548000001
 31
0.0
  0
LINE
  5
815E
  8
1
 10
6784.4860249999992
 20
4157.9495479999996
 30
0.0
 11
6779.6376499999988
 21
4157.9495479999996
 31
0.0
  0
ARC
  5
815F
  8
1
 10
6779.6376499999988
 20
4155.9495479999996
 30
0.0
 40
2.0
 50
90.0
 51
180.0
  0
LINE
  5
8160
  8
1
 10
6597.6376499999997
 20
4027.949548000001
 30
0.0
 11
6762.1376499999988
 21
4027.949548000001
 31
0.0
  0
LINE
  5
8162
  8
1
 10
6597.6376499999997
 20
4112.9495479999996
 30
0.0
 11
6767.6376500000006
 21
4112.9495479999996
 31
0.0
  0
LINE
  5
8164
  8
1
 10
6784.1376499999988
 20
3982.949548
 30
0.0
 11
6779.6376499999988
 21
3982.949548
 31
0.0
  0
ARC
  5
8165
  8
1
 10
6779.6376499999988
 20
3984.949548000001
 30
0.0
 40
2.0
 50
180.0
 51
270.0
  0
LINE
  5
8166
  8
1
 10
6767.6376500000006
 20
4020.449548000001
 30
0.0
 11
6777.6376499999988
 21
4020.449548000001
 31
0.0
  0
LINE
  5
8167
  8
1
 10
6767.6376500000006
 20
4120.4495479999996
 30
0.0
 11
6777.6376499999988
 21
4120.4495479999996
 31
0.0
  0
LINE
  5
8168
  8
1
 10
6767.6376500000006
 20
4120.4495479999996
 30
0.0
 11
6767.6376500000006
 21
4020.449548000001
 31
0.0
  0
DIMENSION
  5
8176
  8
3
  2
*D3
 10
3584.8540892796482
 20
10264.028694000001
 30
0.0
 11
2531.9253752796481
 21
10264.028694000001
 31
0.0
 70
   128
 13
1464.8540892796491
 23
10061.063538
 33
0.0
 14
3584.8540892796482
 24
10061.063538
 34
0.0
1001
ACAD
1000
DSTYLE
1002
{
1070
   287
1070
     3
1070
    40
1040
45.0
1070
   143
1040
0.039
1070
   172
1070
     1
1070
   271
1070
     0
1070
   279
1070
     0
1070
   288
1070
     1
1002
}
  0
DIMENSION
  5
8182
  8
3
  2
*D4
 10
5364.8540892796482
 20
10264.028694000001
 30
0.0
 11
4474.8540892796482
 21
10376.528694000001
 31
0.0
 70
     0
 13
3584.8540892796482
 23
10061.063538
 33
0.0
 14
5364.8540892796482
 24
9411.0635380000003
 34
0.0
1001
ACAD
1000
DSTYLE
1002
{
1070
   287
1070
     4
1070
    40
1040
45.0
1070
    75
1070
     1
1070
   143
1040
0.039
1070
   172
1070
     1
1070
   271
1070
     0
1070
   279
1070
     1
1070
   288
1070
     1
1002
}
  0
DIMENSION
  5
818F
  8
3
  2
*D5
 10
690.79725327964957
 20
8211.0635380000003
 30
0.0
 11
690.79725327964843
 21
9095.9301969999997
 31
0.0
 70
   128
 13
1464.8540892796491
 23
10061.063538
 33
0.0
 14
1464.8540892796491
 24
8211.0635380000003
 34
0.0
 50
270.0
1001
ACAD
1000
DSTYLE
1002
{
1070
   287
1070
     3
1070
    40
1040
45.0
1070
   143
1040
0.039
1070
   172
1070
     1
1070
   271
1070
     0
1070
   279
1070
     0
1070
   288
1070
     1
1002
}
  0
DIMENSION
  5
819C
  8
3
  2
*D6
 10
5826.5049850419182
 20
8211.0635380000003
 30
0.0
 11
5826.5049850419173
 21
8804.7754170000007
 31
0.0
 70
   128
 13
5364.8540892796482
 23
9411.0635380000003
 33
0.0
 14
5364.8540892796482
 24
8211.0635380000003
 34
0.0
 50
270.0
1001
ACAD
1000
DSTYLE
1002
{
1070
   287
1070
     3
1070
    40
1040
45.0
1070
   143
1040
0.039
1070
   172
1070
     1
1070
   271
1070
     0
1070
   279
1070
     0
1070
   288
1070
     1
1002
}
  0
DIMENSION
  5
81A9
  8
3
  2
*D7
 10
1464.8540892796491
 20
7464.3202430000019
 30
0.0
 11
3324.835433279648
 21
7464.3202430000019
 31
0.0
 70
   128
 13
5364.8540892796482
 23
8211.0635380000003
 33
0.0
 14
1464.8540892796491
 24
8211.0635380000003
 34
0.0
1001
ACAD
1000
DSTYLE
1002
{
1070
   287
1070
     3
1070
    40
1040
45.0
1070
   143
1040
0.039
1070
   172
1070
     1
1070
   271
1070
     0
1070
   279
1070
     0
1070
   288
1070
     1
1002
}
  0
DIMENSION
  5
81B6
  8
3
  2
*D8
 10
2524.8540892796491
 20
6781.6350540000003
 30
0.0
 11
1896.5465302796481
 21
6781.6350540000003
 31
0.0
 70
   128
 13
1232.8540892796491
 23
5029.4495479999987
 33
0.0
 14
2524.8540892796491
 24
6619.244424999999
 34
0.0
1001
ACAD
1000
DSTYLE
1002
{
1070
   287
1070
     3
1070
    40
1040
45.0
1070
   143
1040
0.039
1070
   172
1070
     1
1070
   271
1070
     0
1070
   279
1070
     0
1070
   288
1070
     1
1002
}
  0
DIMENSION
  5
81C2
  8
3
  2
*D9
 10
4446.1439272796479
 20
6781.6350540000003
 30
0.0
 11
3485.4990082796489
 21
6894.1350540000003
 31
0.0
 70
     0
 13
2524.8540892796491
 23
6619.244424999999
 33
0.0
 14
4446.1439272796479
 24
6325.2335810000004
 34
0.0
1001
ACAD
1000
DSTYLE
1002
{
1070
   287
1070
     4
1070
    40
1040
45.0
1070
    75
1070
     1
1070
   143
1040
0.039
1070
   172
1070
     1
1070
   271
1070
     0
1070
   279
1070
     1
1070
   288
1070
     1
1002
}
  0
DIMENSION
  5
81CF
  8
3
  2
*D10
 10
2595.8540892796482
 20
6480.2904900000003
 30
0.0
 11
3428.519364279648
 21
6480.2904900000003
 31
0.0
 70
   128
 13
4446.1439272796479
 23
6325.2335810000004
 33
0.0
 14
2595.8540892796482
 24
6325.4495479999987
 34
0.0
1001
ACAD
1000
DSTYLE
1002
{
1070
   287
1070
     3
1070
    40
1040
45.0
1070
   143
1040
0.039
1070
   172
1070
     1
1070
   271
1070
     0
1070
   279
1070
     0
1070
   288
1070
     1
1002
}
  0
DIMENSION
  5
81DC
  8
3
  2
*D11
 10
5670.626629279649
 20
5160.4495479999987
 30
0.0
 11
5670.626629279649
 21
5757.0635419999999
 31
0.0
 70
   128
 13
4507.8540892796482
 23
6325.4495479999987
 33
0.0
 14
4727.8001572796484
 24
5160.4495479999987
 34
0.0
 50
270.0
1001
ACAD
1000
DSTYLE
1002
{
1070
   287
1070
     3
1070
    40
1040
45.0
1070
   143
1040
0.039
1070
   172
1070
     1
1070
   271
1070
     0
1070
   279
1070
     0
1070
   288
1070
     1
1002
}
  0
DIMENSION
  5
81E8
  8
3
  2
*D12
 10
5670.626629279649
 20
3570.449548
 30
0.0
 11
5558.1266292796472
 21
4365.4495479999996
 31
0.0
 70
     0
 13
4727.8001572796484
 23
5160.4495479999987
 33
0.0
 14
5364.8540892796482
 24
3570.449548
 34
0.0
 50
270.0
1001
ACAD
1000
DSTYLE
1002
{
1070
   287
1070
     4
1070
    40
1040
45.0
1070
    75
1070
     1
1070
   143
1040
0.039
1070
   172
1070
     1
1070
   271
1070
     0
1070
   279
1070
     1
1070
   288
1070
     1
1002
}
  0
DIMENSION
  5
81F6
  8
3
  2
*D13
 10
5670.626629279649
 20
3430.385968000001
 30
0.0
 11
5885.9837722796483
 21
3638.2781850000001
 31
0.0
 12
7980.2019808547338
 22
0.0
 32
0.0
 70
   128
  1
(<>)
 13
5364.8540892796482
 23
3570.449548
 33
0.0
 14
5364.8540892796482
 24
3430.385968000001
 34
0.0
 50
270.0
1001
ACAD
1000
DSTYLE
1002
{
1070
   288
1070
     1
1070
   172
1070
     1
1070
    75
1070
     1
1070
    40
1040
45.0
1070
   271
1070
     0
1070
     7
1000
_DOT
1070
   143
1040
0.039
1002
}
  0
DIMENSION
  5
8205
  8
3
  2
*D14
 10
5670.626629279649
 20
3280.385968
 30
0.0
 11
5558.1266292796472
 21
2894.6716822857152
 31
0.0
 70
     0
 13
5364.8540892796482
 23
3430.385968000001
 33
0.0
 14
5364.8540892796482
 24
3280.385968
 34
0.0
 50
270.0
1001
ACAD
1000
DSTYLE
1002
{
1070
   287
1070
     3
1070
    40
1040
45.0
1070
   143
1040
0.039
1070
   172
1070
     1
1070
   271
1070
     0
1070
   279
1070
     0
1070
   288
1070
     1
1070
     6
1000
DOT
1002
}
  0
DIMENSION
  5
8212
  8
3
  2
*D15
 10
2524.8540892796491
 20
2949.07006
 30
0.0
 11
3862.7793642796491
 21
2949.07006
 31
0.0
 70
   128
 13
5364.8540892796482
 23
3280.385968
 33
0.0
 14
2524.8540892796491
 24
3190.6840739999989
 34
0.0
1001
ACAD
1000
DSTYLE
1002
{
1070
   287
1070
     3
1070
    40
1040
45.0
1070
   143
1040
0.039
1070
   172
1070
     1
1070
   271
1070
     0
1070
   279
1070
     0
1070
   288
1070
     1
1002
}
  0
DIMENSION
  5
821E
  8
3
  2
*D16
 10
1464.8540892796491
 20
2949.07006
 30
0.0
 11
1994.8540892796491
 21
3061.57006
 31
0.0
 70
     0
 13
2524.8540892796491
 23
3190.6840739999989
 33
0.0
 14
1464.8540892796491
 24
3280.385968
 34
0.0
1001
ACAD
1000
DSTYLE
1002
{
1070
   287
1070
     4
1070
    40
1040
45.0
1070
    75
1070
     1
1070
   143
1040
0.039
1070
   172
1070
     1
1070
   271
1070
     0
1070
   279
1070
     1
1070
   288
1070
     1
1002
}
  0
DIMENSION
  5
822B
  8
3
  2
*D17
 10
1464.8540892796491
 20
2623.6179480000001
 30
0.0
 11
3259.6404512796489
 21
2623.6179480000001
 31
0.0
 70
   128
 13
5364.8540892796482
 23
3280.385968
 33
0.0
 14
1464.8540892796491
 24
3280.385968
 34
0.0
1001
ACAD
1000
DSTYLE
1002
{
1070
   287
1070
     3
1070
    40
1040
45.0
1070
   143
1040
0.039
1070
   172
1070
     1
1070
   271
1070
     0
1070
   279
1070
     0
1070
   288
1070
     1
1002
}
  0
DIMENSION
  5
8238
  8
3
  2
*D18
 10
7597.6376499999997
 20
3069.07006
 30
0.0
 11
7064.637444
 21
3069.07006
 31
0.0
 70
   128
 13
6486.6376499999997
 23
3400.385968
 33
0.0
 14
7597.6376499999997
 24
3345.743704999999
 34
0.0
1001
ACAD
1000
DSTYLE
1002
{
1070
   287
1070
     3
1070
    40
1040
45.0
1070
   143
1040
0.039
1070
   172
1070
     1
1070
   271
1070
     0
1070
   279
1070
     0
1070
   288
1070
     1
1002
}
  0
DIMENSION
  5
8244
  8
3
  2
*D19
 10
8336.6376500000006
 20
3069.07006
 30
0.0
 11
7967.1376500000006
 21
3181.57006
 31
0.0
 70
     0
 13
7597.6376499999997
 23
3345.743704999999
 33
0.0
 14
8336.6376500000006
 24
3400.385968
 34
0.0
1001
ACAD
1000
DSTYLE
1002
{
1070
   287
1070
     4
1070
    40
1040
45.0
1070
    75
1070
     1
1070
   143
1040
0.039
1070
   172
1070
     1
1070
   271
1070
     0
1070
   279
1070
     1
1070
   288
1070
     1
1002
}
  0
DIMENSION
  5
8251
  8
3
  2
*D20
 10
8336.6376500000006
 20
2743.6179480000001
 30
0.0
 11
7486.8346590000001
 21
2743.6179480000001
 31
0.0
 70
   128
 13
6486.6376499999997
 23
3400.385968
 33
0.0
 14
8336.6376500000006
 24
3400.385968
 34
0.0
1001
ACAD
1000
DSTYLE
1002
{
1070
   287
1070
     3
1070
    40
1040
45.0
1070
   143
1040
0.039
1070
   172
1070
     1
1070
   271
1070
     0
1070
   279
1070
     0
1070
   288
1070
     1
1002
}
  0
DIMENSION
  5
825E
  8
3
  2
*D21
 10
8777.5519080000013
 20
4260.4495479999987
 30
0.0
 11
8777.5519079999995
 21
5106.1592989999999
 31
0.0
 70
   128
 13
8392.6376500000006
 23
6060.4495479999996
 33
0.0
 14
8392.6376500000006
 24
4260.4495479999987
 34
0.0
 50
90.0
1001
ACAD
1000
DSTYLE
1002
{
1070
   287
1070
     3
1070
     3
1000
φ<>
1070
    40
1040
45.0
1070
   143
1040
0.039
1070
   172
1070
     1
1070
   271
1070
     0
1070
   279
1070
     0
1070
   288
1070
     1
1002
}
  0
DIMENSION
  5
826B
  8
3
  2
*D22
 10
8257.6376500000006
 20
6516.4518230000003
 30
0.0
 11
7559.2113310000004
 21
6516.4518230000003
 31
0.0
 70
   128
 13
6937.6376499999988
 23
6325.4495479999987
 33
0.0
 14
8257.6376500000006
 24
6325.4495479999987
 34
0.0
1001
ACAD
1000
DSTYLE
1002
{
1070
   287
1070
     3
1070
    40
1040
45.0
1070
   143
1040
0.039
1070
   172
1070
     1
1070
   271
1070
     0
1070
   279
1070
     0
1070
   288
1070
     1
1002
}
  0
DIMENSION
  5
8278
  8
3
  2
*D23
 10
7597.6376499999997
 20
6926.2804429999997
 30
0.0
 11
8005.5341159999989
 21
6926.2804429999997
 31
0.0
 70
   128
 13
8392.6376500000006
 23
6125.4495479999987
 33
0.0
 14
7597.6376499999997
 24
6716.3326290000005
 34
0.0
1001
ACAD
1000
DSTYLE
1002
{
1070
   287
1070
     3
1070
    40
1040
45.0
1070
   143
1040
0.039
1070
   172
1070
     1
1070
   271
1070
     0
1070
   279
1070
     0
1070
   288
1070
     1
1002
}
  0
DIMENSION
  5
8284
  8
3
  2
*D24
 10
6497.6376499999997
 20
6926.2804429999997
 30
0.0
 11
7047.6376499999997
 21
7074.1375858571437
 31
0.0
 70
     0
  1
(1150)
 13
7597.6376499999997
 23
6716.3326290000005
 33
0.0
 14
6497.6376499999997
 24
5640.4495479999987
 34
0.0
1001
ACAD
1000
DSTYLE
1002
{
1070
   287
1070
     4
1070
    40
1040
45.0
1070
    75
1070
     1
1070
   143
1040
0.039
1070
   172
1070
     1
1070
   271
1070
     0
1070
   279
1070
     1
1070
   288
1070
     1
1002
}
  0
LINE
  5
8285
  8
4
 10
8325.0
 20
2250.0
 30
0.0
 11
8325.0
 21
1350.0
 31
0.0
  0
LINE
  5
8286
  8
4
 10
5175.0
 20
2250.0
 30
0.0
 11
5175.0
 21
1350.0
 31
0.0
  0
LINE
  5
8287
  8
4
 10
2925.0
 20
2250.0
 30
0.0
 11
2925.0
 21
1350.0
 31
0.0
  0
LINE
  5
828A
  8
4
 10
2925.0
 20
1350.0
 30
0.0
 11
8325.0
 21
1350.0
 31
0.0
  0
LINE
  5
828B
  8
4
 10
2925.0
 20
1800.0
 30
0.0
 11
8325.0
 21
1800.0
 31
0.0
  0
TEXT
  5
828C
  8
4
 10
3098.259364
 20
1941.943616
 30
0.0
 40
225.0
  1
機器名称
  0
TEXT
  5
828D
  8
4
 10
3088.1614770000001
 20
1447.4032050000001
 30
0.0
 40
225.0
  1
機器型番
  0
TEXT
  5
828E
  8
4
 10
5197.1468829999994
 20
1903.388725
 30
0.0
 40
202.49999999999989
  1
ミツヤ多翼送風機
  0
TEXT
  5
828F
  8
4
 10
5339.9452299999994
 20
1427.218128999999
 30
0.0
 40
225.0
  1
MF#11-4
  0
TEXT
  5
8291
  8
4
 10
3619.4975020000002
 20
10725.429786000001
 30
0.0
 40
243.0
  1
床置防振ベット
  0
TEXT
  5
8292
  8
4
 10
1258.0479374325371
 20
11402.464393
 30
0.0
 40
324.0
  1
ベルト駆動式片吸込両持多翼ファン
 41
1.143750671685607
 72
     5
 11
8224.8620288039092
 21
11402.464393
 31
0.0
  0
LINE
  5
8293
  8
4
 10
1125.0
 20
11112.339394000001
 30
0.0
 11
8325.0
 21
11112.339394000001
 31
0.0
  0
LINE
  5
8294
  8
4
 10
1125.0
 20
12012.339394000001
 30
0.0
 11
8325.0
 21
12012.339394000001
 31
0.0
  0
LINE
  5
8295
  8
4
 10
2925.0
 20
2250.0
 30
0.0
 11
8325.0
 21
2250.0
 31
0.0
  0
LINE
  5
8296
  8
4
 10
1125.0
 20
12012.339394000001
 30
0.0
 11
1125.0
 21
11112.339394000001
 31
0.0
  0
TEXT
  5
8297
  8
4
 10
1658.1327570000001
 20
10720.437649
 30
0.0
 40
243.0
  1
左回転上向
  0
TEXT
  5
8298
  8
4
 10
6610.3630169999997
 20
12177.274867
 30
0.0
 40
252.0
  1
No.
  0
TEXT
  5
8299
  8
4
 10
5900.8322820000003
 20
10725.429786000001
 30
0.0
 40
243.0
  1
縮尺：1/45
  0
LINE
  5
829A
  8
4
 10
8325.0
 20
12012.339394000001
 30
0.0
 11
8325.0
 21
11112.339394000001
 31
0.0
  0
LINE
  5
829B
  8
4
 10
9450.0
 20
13275.0
 30
0.0
 11
9450.0
 21
13275.0
 31
0.0
  0
LINE
  5
829C
  8
4
 10
6482.7784009999996
 20
12065.686124
 30
0.0
 11
6482.7784009999996
 21
12539.93517699999
 31
0.0
  0
LINE
  5
829D
  8
4
 10
6482.7784009999996
 20
12539.93517699999
 30
0.0
 11
8325.0
 21
12539.93517699999
 31
0.0
  0
LINE
  5
829E
  8
4
 10
8325.0
 20
12539.93517699999
 30
0.0
 11
8325.0
 21
12065.686124
 31
0.0
  0
LINE
  5
829F
  8
4
 10
8325.0
 20
12065.686124
 30
0.0
 11
6482.7784009999996
 21
12065.686124
 31
0.0
  0
LINE
  5
82A0
  8
4
 10
0.0
 20
0.0
 30
0.0
 11
0.0
 21
13275.0
 31
0.0
  0
LINE
  5
82A1
  8
4
 10
0.0
 20
13275.0
 30
0.0
 11
9450.0
 21
13275.0
 31
0.0
  0
LINE
  5
82A2
  8
4
 10
9450.0
 20
13275.0
 30
0.0
 11
9450.0
 21
0.0
 31
0.0
  0
LINE
  5
82A3
  8
4
 10
9450.0
 20
0.0
 30
0.0
 11
0.0
 21
0.0
 31
0.0
  0
DIMENSION
  5
82B0
  8
3
  2
*D25
 10
6100.3548322796487
 20
3280.385968
 30
0.0
 11
6100.3548322796487
 21
4855.7892299999994
 31
0.0
 70
   128
 13
4530.3540892796482
 23
6325.4495479999987
 33
0.0
 14
5364.8540892796482
 24
3280.385968
 34
0.0
 50
270.0
1001
ACAD
1000
DSTYLE
1002
{
1070
   287
1070
     3
1070
    40
1040
45.0
1070
   143
1040
0.039
1070
   172
1070
     1
1070
   271
1070
     0
1070
   279
1070
     0
1070
   288
1070
     1
1002
}
  0
LINE
  5
82B1
  8
1
 10
6937.6376499999988
 20
3720.4495479999991
 30
0.0
 11
6937.6376499999988
 21
3791.699548
 31
0.0
  0
LINE
  5
830A
  8
1
 10
5164.8540892796491
 20
8211.0635380000003
 30
0.0
 11
5364.8540892796482
 21
8211.0635380000003
 31
0.0
  0
LINE
  5
83D7
  8
1
 10
7636.6376499999997
 20
3791.699548
 30
0.0
 11
7636.6376499999997
 21
4349.1995479999996
 31
0.0
  0
LINE
  5
83DA
  8
1
 10
6937.6376499999988
 20
4349.1995479999996
 30
0.0
 11
6937.6376499999988
 21
6325.4495479999987
 31
0.0
  0
LINE
  5
83E0
  8
1
 10
6869.6376500000006
 20
6260.4495479999996
 30
0.0
 11
6869.6376499999997
 21
6325.4495479999987
 31
0.0
  0
LINE
  5
83E1
  8
1
 10
8325.6376500000024
 20
6260.4495479999996
 30
0.0
 11
8325.6376500000024
 21
6325.4495480000014
 31
0.0
  0
LINE
  5
83E2
  8
1
 10
8325.6376500000006
 20
6325.4495479999987
 30
0.0
 11
6869.6376499999997
 21
6325.4495479999987
 31
0.0
  0
LINE
  5
83E3
  8
1
 10
8325.6376500000006
 20
6260.4495479999996
 30
0.0
 11
6869.6376499999997
 21
6260.4495479999996
 31
0.0
  0
LINE
  5
83E4
  8
1
 10
2531.8540892796491
 20
9678.0635380000022
 30
0.0
 11
4507.8540892796482
 21
9678.0635379999985
 31
0.0
  0
LINE
  5
83E5
  8
1
 10
2531.8540892796491
 20
8222.0635380000022
 30
0.0
 11
4507.8540892796482
 21
8222.0635380000003
 31
0.0
  0
LINE
  5
83E6
  8
1
 10
4507.8540892796473
 20
8222.0635380000003
 30
0.0
 11
4507.8540892796473
 21
9678.0635380000003
 31
0.0
  0
LINE
  5
83E7
  8
1
 10
2531.8540892796491
 20
8222.0635380000003
 30
0.0
 11
2531.8540892796491
 21
9678.0635380000022
 31
0.0
  0
LINE
  5
83E8
  8
1
 10
2595.8540892796482
 20
9610.0635380000003
 30
0.0
 11
4445.8540892796482
 21
9610.0635380000003
 31
0.0
  0
LINE
  5
83E9
  8
1
 10
2595.8540892796482
 20
8290.0635380000003
 30
0.0
 11
4445.8540892796482
 21
8290.0635380000003
 31
0.0
  0
ENDSEC
  0
EOF
