  0
SECTION
  2
HEADER
  9
$ACADVER
  1
AC1009
  9
$INSBASE
 10
0.0
 20
0.0
 30
0.0
  9
$EXTMIN
 10
0.0
 20
0.0
 30
0.0
  9
$EXTMAX
 10
9450.0
 20
13275.0
 30
0.0
  9
$LIMMIN
 10
0.0
 20
0.0
  9
$LIMMAX
 10
297.0
 20
210.0
  9
$ORTHOMODE
 70
     1
  9
$REGENMODE
 70
     1
  9
$FILLMODE
 70
     0
  9
$QTEXTMODE
 70
     0
  9
$MIRRTEXT
 70
     1
  9
$DRAGMODE
 70
     2
  9
$LTSCALE
 40
100.0
  9
$OSMODE
 70
   545
  9
$ATTMODE
 70
     1
  9
$TEXTSIZE
 40
180.0
  9
$TRACEWID
 40
0.05
  9
$TEXTSTYLE
  7
STANDARD
  9
$CLAYER
  8
3
  9
$CELTYPE
  6
BYLAYER
  9
$CECOLOR
 62
   256
  9
$DIMSCALE
 40
45.0
  9
$DIMASZ
 40
2.0
  9
$DIMEXO
 40
0.5
  9
$DIMDLI
 40
10.0
  9
$DIMRND
 40
0.0
  9
$DIMDLE
 40
0.0
  9
$DIMEXE
 40
1.0
  9
$DIMTP
 40
1.0
  9
$DIMTM
 40
1.0
  9
$DIMTXT
 40
3.0
  9
$DIMCEN
 40
0.0
  9
$DIMTSZ
 40
0.0
  9
$DIMTOL
 70
     0
  9
$DIMLIM
 70
     0
  9
$DIMTIH
 70
     0
  9
$DIMTOH
 70
     0
  9
$DIMSE1
 70
     0
  9
$DIMSE2
 70
     0
  9
$DIMTAD
 70
     1
  9
$DIMZIN
 70
     8
  9
$DIMBLK
  1

  9
$DIMASO
 70
     1
  9
$DIMSHO
 70
     1
  9
$DIMPOST
  1

  9
$DIMAPOST
  1

  9
$DIMALT
 70
     0
  9
$DIMALTD
 70
     2
  9
$DIMALTF
 40
0.039
  9
$DIMLFAC
 40
1.0
  9
$DIMTOFL
 70
     0
  9
$DIMTVP
 40
0.0
  9
$DIMTIX
 70
     0
  9
$DIMSOXD
 70
     0
  9
$DIMSAH
 70
     1
  9
$DIMBLK1
  1
OPEN
  9
$DIMBLK2
  1
OPEN
  9
$DIMSTYLE
  2
IGA
  9
$DIMCLRD
 70
     0
  9
$DIMCLRE
 70
     0
  9
$DIMCLRT
 70
     0
  9
$DIMTFAC
 40
10.0
  9
$DIMGAP
 40
1.0
  9
$LUNITS
 70
     2
  9
$LUPREC
 70
     3
  9
$SKETCHINC
 40
0.1
  9
$FILLETRAD
 40
50.0
  9
$AUNITS
 70
     0
  9
$AUPREC
 70
     0
  9
$MENU
  1
acad
  9
$ELEVATION
 40
0.0
  9
$PELEVATION
 40
0.0
  9
$THICKNESS
 40
0.0
  9
$LIMCHECK
 70
     0
  9
$BLIPMODE
 70
     0
  9
$CHAMFERA
 40
0.5
  9
$CHAMFERB
 40
0.5
  9
$SKPOLY
 70
     0
  9
$TDCREATE
 40
2451845.4205035879
  9
$TDUPDATE
 40
2455013.7325177188
  9
$TDINDWG
 40
0.0817409606
  9
$TDUSRTIMER
 40
0.0817406019
  9
$USRTIMER
 70
     1
  9
$ANGBASE
 50
0.0
  9
$ANGDIR
 70
     0
  9
$PDMODE
 70
     0
  9
$PDSIZE
 40
0.0
  9
$PLINEWID
 40
0.0
  9
$COORDS
 70
     2
  9
$SPLFRAME
 70
     0
  9
$SPLINETYPE
 70
     6
  9
$SPLINESEGS
 70
     8
  9
$ATTDIA
 70
     0
  9
$ATTREQ
 70
     1
  9
$HANDLING
 70
 22529
  9
$HANDSEED
  5
9916
  9
$SURFTAB1
 70
     6
  9
$SURFTAB2
 70
     6
  9
$SURFTYPE
 70
     6
  9
$SURFU
 70
     6
  9
$SURFV
 70
     6
  9
$UCSNAME
  2

  9
$UCSORG
 10
0.0
 20
0.0
 30
0.0
  9
$UCSXDIR
 10
1.0
 20
0.0
 30
0.0
  9
$UCSYDIR
 10
0.0
 20
1.0
 30
0.0
  9
$PUCSNAME
  2

  9
$PUCSORG
 10
0.0
 20
0.0
 30
0.0
  9
$PUCSXDIR
 10
1.0
 20
0.0
 30
0.0
  9
$PUCSYDIR
 10
0.0
 20
1.0
 30
0.0
  9
$USERI1
 70
     0
  9
$USERI2
 70
     0
  9
$USERI3
 70
     0
  9
$USERI4
 70
     0
  9
$USERI5
 70
     0
  9
$USERR1
 40
0.0
  9
$USERR2
 40
0.0
  9
$USERR3
 40
0.0
  9
$USERR4
 40
0.0
  9
$USERR5
 40
0.0
  9
$WORLDVIEW
 70
     1
  9
$SHADEDGE
 70
     3
  9
$SHADEDIF
 70
    70
  9
$TILEMODE
 70
     1
  9
$MAXACTVP
 70
    16
  9
$PLIMCHECK
 70
     0
  9
$PEXTMIN
 10
1.0000000000000000E+020
 20
1.0000000000000000E+020
 30
1.0000000000000000E+020
  9
$PEXTMAX
 10
-1.0000000000000000E+020
 20
-1.0000000000000000E+020
 30
-1.0000000000000000E+020
  9
$PLIMMIN
 10
0.0
 20
0.0
  9
$PLIMMAX
 10
12.0
 20
9.0
  9
$UNITMODE
 70
     0
  9
$VISRETAIN
 70
     0
  9
$PLINEGEN
 70
     0
  9
$PSLTSCALE
 70
     1
  0
ENDSEC
  0
SECTION
  2
TABLES
  0
TABLE
  2
VPORT
 70
     2
  0
VPORT
  2
*ACTIVE
 70
     0
 10
0.0
 20
0.0
 11
1.0
 21
1.0
 12
5642.2139554681344
 22
6637.5000309082689
 13
0.0
 23
0.0
 14
10.0
 24
10.0
 15
10.0
 25
10.0
 16
0.0
 26
0.0
 36
1.0
 17
0.0
 27
0.0
 37
0.0
 40
13376.766973576199
 41
1.6307901907356941
 42
50.0
 43
0.0
 44
0.0
 50
0.0
 51
0.0
 71
     0
 72
   100
 73
     1
 74
     0
 75
     0
 76
     0
 77
     0
 78
     0
  0
ENDTAB
  0
TABLE
  2
LTYPE
 70
     2
  0
LTYPE
  2
CONTINUOUS
 70
     0
  3
Solid line
 72
    65
 73
     0
 40
0.0
  0
LTYPE
  2
CENTER
 70
     0
  3
____ _ ____ _ ____ _ ____ _ ____ _ ____ _ ____ 
 72
    65
 73
     4
 40
2.0
 49
1.25
 49
-0.25
 49
0.25
 49
-0.25
  0
ENDTAB
  0
TABLE
  2
LAYER
 70
     6
  0
LAYER
  2
0
 70
     0
 62
     7
  6
CONTINUOUS
  0
LAYER
  2
3
 70
     0
 62
     2
  6
CONTINUOUS
  0
LAYER
  2
2
 70
     0
 62
     3
  6
CENTER
  0
LAYER
  2
1
 70
     0
 62
     4
  6
CONTINUOUS
  0
LAYER
  2
4
 70
     0
 62
     7
  6
CONTINUOUS
  0
LAYER
  2
DEFPOINTS
 70
     0
 62
     7
  6
CONTINUOUS
  0
ENDTAB
  0
TABLE
  2
STYLE
 70
     1
  0
STYLE
  2
STANDARD
 70
     0
 40
0.0
 41
1.0
 50
0.0
 71
     0
 42
180.0
  3
simplex.shx
  4
extfont.shx
  0
ENDTAB
  0
TABLE
  2
VIEW
 70
     0
  0
ENDTAB
  0
TABLE
  2
UCS
 70
     0
  0
ENDTAB
  0
TABLE
  2
APPID
 70
     1
  0
APPID
  2
ACAD
 70
     0
  0
ENDTAB
  0
TABLE
  2
DIMSTYLE
 70
     1
  0
DIMSTYLE
  2
IGA
 70
     0
  3

  4

  5

  6

  7

 40
2.0
 41
2.0
 42
0.5
 43
10.0
 44
1.0
 45
0.0
 46
0.0
 47
1.0
 48
1.0
140
3.0
141
0.0
142
0.0
143
0.03937
144
1.0
145
0.0
146
10.0
147
1.0
 71
     0
 72
     0
 73
     0
 74
     0
 75
     0
 76
     0
 77
     1
 78
     8
170
     0
171
     2
172
     0
173
     1
174
     0
175
     0
176
     0
177
     0
178
     0
  0
ENDTAB
  0
ENDSEC
  0
SECTION
  2
BLOCKS
  0
BLOCK
  8
0
  2
$MODEL_SPACE
 70
     0
 10
0.0
 20
0.0
 30
0.0
  3
$MODEL_SPACE
  1

  0
ENDBLK
  5
8CFA
  8
0
  0
BLOCK
 67
     1
  8
0
  2
$PAPER_SPACE
 70
     0
 10
0.0
 20
0.0
 30
0.0
  3
$PAPER_SPACE
  1

  0
ENDBLK
  5
8CF6
 67
     1
  8
0
  0
BLOCK
  8
0
  2
YA_N
 70
     0
 10
0.0
 20
0.0
 30
0.0
  3
YA_N
  1

  0
ENDBLK
  5
8D0E
  8
0
  0
BLOCK
  8
0
  2
_OPEN
 70
     0
 10
0.0
 20
0.0
 30
0.0
  3
_OPEN
  1

  0
LINE
  5
8D11
  8
0
  6
BYBLOCK
 62
     0
 10
-1.0
 20
0.166667
 30
0.0
 11
0.0
 21
0.0
 31
0.0
  0
LINE
  5
8D12
  8
0
  6
BYBLOCK
 62
     0
 10
0.0
 20
0.0
 30
0.0
 11
-1.0
 21
-0.166667
 31
0.0
  0
LINE
  5
8D13
  8
0
  6
BYBLOCK
 62
     0
 10
0.0
 20
0.0
 30
0.0
 11
-1.0
 21
0.0
 31
0.0
  0
ENDBLK
  5
8D14
  8
0
  0
BLOCK
  8
0
  2
*D2
 70
     1
 10
0.0
 20
0.0
 30
0.0
  3
*D2
  1

  0
LINE
  5
98ED
  8
3
 62
     0
 10
4553.1624886969748
 20
8163.5698250355763
 30
0.0
 11
5437.145554794959
 21
8163.5698250355763
 31
0.0
  0
LINE
  5
98EE
  8
3
 62
     0
 10
4553.1624886969748
 20
10013.569825035571
 30
0.0
 11
5437.145554794959
 21
10013.569825035571
 31
0.0
  0
LINE
  5
98EF
  8
3
 62
     0
 10
5392.145554794959
 20
8253.5698250355763
 30
0.0
 11
5392.145554794959
 21
9923.5698250355726
 31
0.0
  0
INSERT
  5
98F0
  8
3
 62
     0
  2
_OPEN
 10
5392.145554794959
 20
8163.5698250355763
 30
0.0
 41
90.0
 42
90.0
 43
90.0
 50
270.0
  0
INSERT
  5
98F1
  8
3
 62
     0
  2
_OPEN
 10
5392.145554794959
 20
10013.569825035571
 30
0.0
 41
90.0
 42
90.0
 43
90.0
 50
90.0
  0
TEXT
  8
3
  40
135
  5
9900
  62
0
  72
0
  71
0
 10
5009.65
 20
8849.62
 30
0.000000
  1
1850
  0
POINT
  5
98F3
  8
DEFPOINTS
 62
     0
 10
4530.6624886969739
 20
8163.5698250355763
 30
0.0
  0
POINT
  5
98F4
  8
DEFPOINTS
 62
     0
 10
4530.6624886969739
 20
10013.569825035571
 30
0.0
  0
POINT
  5
98F5
  8
DEFPOINTS
 62
     0
 10
5392.145554794959
 20
10013.569825035571
 30
0.0
  0
ENDBLK
  5
908C
  8
0
  0
BLOCK
  8
0
  2
*D3
 70
     1
 10
0.0
 20
0.0
 30
0.0
  3
*D3
  1

  0
LINE
  5
983A
  8
3
 62
     0
 10
4530.6624886969739
 20
10036.069825035571
 30
0.0
 11
4530.6624886969739
 21
10365.822061390931
 31
0.0
  0
LINE
  5
983B
  8
3
 62
     0
 10
2410.6624886969762
 20
10036.069825035571
 30
0.0
 11
2410.6624886969762
 21
10365.822061390931
 31
0.0
  0
LINE
  5
983C
  8
3
 62
     0
 10
4440.6624886969739
 20
10320.822061390931
 30
0.0
 11
2500.6624886969762
 21
10320.822061390931
 31
0.0
  0
INSERT
  5
983D
  8
3
 62
     0
  2
_OPEN
 10
4530.6624886969739
 20
10320.822061390931
 30
0.0
 41
90.0
 42
90.0
 43
90.0
  0
INSERT
  5
983E
  8
3
 62
     0
  2
_OPEN
 10
2410.6624886969762
 20
10320.822061390931
 30
0.0
 41
90.0
 42
90.0
 43
90.0
 50
180.0
  0
TEXT
  8
3
  40
135
  5
9901
  62
0
  72
0
  71
0
 10
3193.59
 20
10194.4
 30
0.000000
  1
2120
  0
POINT
  5
9840
  8
DEFPOINTS
 62
     0
 10
4530.6624886969739
 20
10013.569825035571
 30
0.0
  0
POINT
  5
9841
  8
DEFPOINTS
 62
     0
 10
2410.6624886969762
 20
10013.569825035571
 30
0.0
  0
POINT
  5
9842
  8
DEFPOINTS
 62
     0
 10
2410.6624886969762
 20
10320.822061390931
 30
0.0
  0
ENDBLK
  5
9098
  8
0
  0
BLOCK
  8
0
  2
*D4
 70
     1
 10
0.0
 20
0.0
 30
0.0
  3
*D4
  1

  0
LINE
  5
9843
  8
3
 62
     0
 10
2410.6624886969762
 20
10036.069825035571
 30
0.0
 11
2410.6624886969762
 21
10365.822061390931
 31
0.0
  0
LINE
  5
9844
  8
3
 62
     0
 10
930.66248869697677
 20
9386.0698250355745
 30
0.0
 11
930.66248869697688
 21
10365.822061390931
 31
0.0
  0
LINE
  5
9845
  8
3
 62
     0
 10
2320.6624886969762
 20
10320.822061390931
 30
0.0
 11
1020.662488696976
 21
10320.822061390931
 31
0.0
  0
INSERT
  5
9846
  8
3
 62
     0
  2
_OPEN
 10
2410.6624886969762
 20
10320.822061390931
 30
0.0
 41
90.0
 42
90.0
 43
90.0
  0
INSERT
  5
9847
  8
3
 62
     0
  2
_OPEN
 10
930.66248869697688
 20
10320.822061390931
 30
0.0
 41
90.0
 42
90.0
 43
90.0
 50
180.0
  0
TEXT
  8
3
  40
135
  5
9902
  62
0
  72
0
  71
0
 10
1400.66
 20
10194.4
 30
0.000000
  1
1480
  0
POINT
  5
9849
  8
DEFPOINTS
 62
     0
 10
2410.6624886969762
 20
10013.569825035571
 30
0.0
  0
POINT
  5
984A
  8
DEFPOINTS
 62
     0
 10
930.66248869697677
 20
9363.5698250355745
 30
0.0
  0
POINT
  5
984B
  8
DEFPOINTS
 62
     0
 10
930.66248869697688
 20
10320.822061390931
 30
0.0
  0
ENDBLK
  5
90A4
  8
0
  0
BLOCK
  8
0
  2
*D5
 70
     1
 10
0.0
 20
0.0
 30
0.0
  3
*D5
  1

  0
LINE
  5
9855
  8
3
 62
     0
 10
930.66248869697677
 20
8141.0698250355772
 30
0.0
 11
930.66248869697677
 21
7637.284521137195
 31
0.0
  0
LINE
  5
9856
  8
3
 62
     0
 10
4530.6624886969739
 20
8141.0698250355772
 30
0.0
 11
4530.6624886969739
 21
7637.284521137195
 31
0.0
  0
LINE
  5
9857
  8
3
 62
     0
 10
1020.662488696976
 20
7682.284521137195
 30
0.0
 11
4440.6624886969739
 21
7682.284521137195
 31
0.0
  0
INSERT
  5
9858
  8
3
 62
     0
  2
_OPEN
 10
930.66248869697677
 20
7682.284521137195
 30
0.0
 41
90.0
 42
90.0
 43
90.0
 50
180.0
  0
INSERT
  5
9859
  8
3
 62
     0
  2
_OPEN
 10
4530.6624886969739
 20
7682.284521137195
 30
0.0
 41
90.0
 42
90.0
 43
90.0
  0
TEXT
  8
3
  40
135
  5
9903
  62
0
  72
0
  71
0
 10
2700.68
 20
7555.83
 30
0.000000
  1
3600
  0
POINT
  5
985B
  8
DEFPOINTS
 62
     0
 10
930.66248869697677
 20
8163.5698250355763
 30
0.0
  0
POINT
  5
985C
  8
DEFPOINTS
 62
     0
 10
4530.6624886969739
 20
8163.5698250355763
 30
0.0
  0
POINT
  5
985D
  8
DEFPOINTS
 62
     0
 10
4530.6624886969739
 20
7682.284521137195
 30
0.0
  0
ENDBLK
  5
90B0
  8
0
  0
BLOCK
  8
0
  2
*D6
 70
     1
 10
0.0
 20
0.0
 30
0.0
  3
*D6
  1

  0
LINE
  5
984C
  8
3
 62
     0
 10
908.16248869697677
 20
9363.5698250355745
 30
0.0
 11
643.53044069697762
 21
9363.5698250355745
 31
0.0
  0
LINE
  5
984D
  8
3
 62
     0
 10
908.16248869697677
 20
8163.5698250355763
 30
0.0
 11
643.53044069697728
 21
8163.5698250355763
 31
0.0
  0
LINE
  5
984E
  8
3
 62
     0
 10
688.53044069697762
 20
9273.5698250355763
 30
0.0
 11
688.53044069697728
 21
8253.5698250355763
 31
0.0
  0
INSERT
  5
984F
  8
3
 62
     0
  2
_OPEN
 10
688.53044069697762
 20
9363.5698250355745
 30
0.0
 41
90.0
 42
90.0
 43
90.0
 50
90.0
  0
INSERT
  5
9850
  8
3
 62
     0
  2
_OPEN
 10
688.53044069697728
 20
8163.5698250355763
 30
0.0
 41
90.0
 42
90.0
 43
90.0
 50
270.0
  0
TEXT
  8
3
  40
135
  5
9904
  62
0
  72
0
  71
0
 10
306.030
 20
8518.33
 30
0.000000
  1
1200
  0
POINT
  5
9852
  8
DEFPOINTS
 62
     0
 10
930.66248869697677
 20
9363.5698250355745
 30
0.0
  0
POINT
  5
9853
  8
DEFPOINTS
 62
     0
 10
930.66248869697677
 20
8163.5698250355763
 30
0.0
  0
POINT
  5
9854
  8
DEFPOINTS
 62
     0
 10
688.53044069697728
 20
8163.5698250355763
 30
0.0
  0
ENDBLK
  5
90BC
  8
0
  0
BLOCK
  8
0
  2
*D7
 70
     1
 10
0.0
 20
0.0
 30
0.0
  3
*D7
  1

  0
LINE
  5
98AE
  8
3
 62
     0
 10
930.66248869697745
 20
3538.61824922715
 30
0.0
 11
930.66248869697779
 21
7188.7320504162926
 31
0.0
  0
LINE
  5
98AF
  8
3
 62
     0
 10
4635.6624886969767
 20
6701.6182492271482
 30
0.0
 11
4635.6624886969767
 21
7188.7320504162926
 31
0.0
  0
LINE
  5
98B0
  8
3
 62
     0
 10
1020.662488696977
 20
7143.7320504162926
 30
0.0
 11
4545.6624886969767
 21
7143.7320504162926
 31
0.0
  0
INSERT
  5
98B1
  8
3
 62
     0
  2
_OPEN
 10
930.66248869697779
 20
7143.7320504162926
 30
0.0
 41
90.0
 42
90.0
 43
90.0
 50
180.0
  0
INSERT
  5
98B2
  8
3
 62
     0
  2
_OPEN
 10
4635.6624886969767
 20
7143.7320504162926
 30
0.0
 41
90.0
 42
90.0
 43
90.0
  0
TEXT
  8
3
  40
135
  5
9905
  62
0
  72
0
  71
0
 10
2513.16
 20
7017.28
 30
0.000000
  1
3705
  0
POINT
  5
98B4
  8
DEFPOINTS
 62
     0
 10
930.66248869697745
 20
3516.11824922715
 30
0.0
  0
POINT
  5
98B5
  8
DEFPOINTS
 62
     0
 10
4635.6624886969767
 20
6679.1182492271491
 30
0.0
  0
POINT
  5
98B6
  8
DEFPOINTS
 62
     0
 10
4635.6624886969767
 20
7143.7320504162926
 30
0.0
  0
ENDBLK
  5
90C8
  8
0
  0
BLOCK
  8
0
  2
*D8
 70
     1
 10
0.0
 20
0.0
 30
0.0
  3
*D8
  1

  0
LINE
  5
98C0
  8
3
 62
     0
 10
3470.6624886969771
 20
6627.6196802527529
 30
0.0
 11
3470.6624886969771
 21
6848.9506352395547
 31
0.0
  0
LINE
  5
98C1
  8
3
 62
     0
 10
1916.662488696976
 20
4849.6182492271491
 30
0.0
 11
1916.662488696976
 21
6848.9506352395547
 31
0.0
  0
LINE
  5
98C2
  8
3
 62
     0
 10
3380.6624886969771
 20
6803.9506352395547
 30
0.0
 11
2006.662488696976
 21
6803.9506352395547
 31
0.0
  0
INSERT
  5
98C3
  8
3
 62
     0
  2
_OPEN
 10
3470.6624886969771
 20
6803.9506352395547
 30
0.0
 41
90.0
 42
90.0
 43
90.0
  0
INSERT
  5
98C4
  8
3
 62
     0
  2
_OPEN
 10
1916.662488696976
 20
6803.9506352395547
 30
0.0
 41
90.0
 42
90.0
 43
90.0
 50
180.0
  0
TEXT
  8
3
  40
135
  5
9906
  62
0
  72
0
  71
0
 10
2423.66
 20
6677.50
 30
0.000000
  1
1554
  0
POINT
  5
98C6
  8
DEFPOINTS
 62
     0
 10
3470.6624886969771
 20
6605.1196802527538
 30
0.0
  0
POINT
  5
98C7
  8
DEFPOINTS
 62
     0
 10
1916.662488696976
 20
4827.1182492271491
 30
0.0
  0
POINT
  5
98C8
  8
DEFPOINTS
 62
     0
 10
1916.662488696976
 20
6803.9506352395547
 30
0.0
  0
ENDBLK
  5
90D4
  8
0
  0
BLOCK
  8
0
  2
*D9
 70
     1
 10
0.0
 20
0.0
 30
0.0
  3
*D9
  1

  0
LINE
  5
98B7
  8
3
 62
     0
 10
4635.6624886969767
 20
6724.1182492271482
 30
0.0
 11
4635.6624886969767
 21
6848.9506352395547
 31
0.0
  0
LINE
  5
98B8
  8
3
 62
     0
 10
3470.6624886969771
 20
6627.6196802527529
 30
0.0
 11
3470.6624886969771
 21
6848.9506352395547
 31
0.0
  0
LINE
  5
98B9
  8
3
 62
     0
 10
4545.6624886969767
 20
6803.9506352395547
 30
0.0
 11
3560.6624886969762
 21
6803.9506352395547
 31
0.0
  0
INSERT
  5
98BA
  8
3
 62
     0
  2
_OPEN
 10
4635.6624886969767
 20
6803.9506352395547
 30
0.0
 41
90.0
 42
90.0
 43
90.0
  0
INSERT
  5
98BB
  8
3
 62
     0
  2
_OPEN
 10
3470.6624886969771
 20
6803.9506352395547
 30
0.0
 41
90.0
 42
90.0
 43
90.0
 50
180.0
  0
TEXT
  8
3
  40
135
  5
9907
  62
0
  72
0
  71
0
 10
3783.16
 20
6677.50
 30
0.000000
  1
1165
  0
POINT
  5
98BD
  8
DEFPOINTS
 62
     0
 10
4635.6624886969767
 20
6701.6182492271482
 30
0.0
  0
POINT
  5
98BE
  8
DEFPOINTS
 62
     0
 10
3470.6624886969771
 20
6605.1196802527538
 30
0.0
  0
POINT
  5
98BF
  8
DEFPOINTS
 62
     0
 10
3470.6624886969771
 20
6803.9506352395547
 30
0.0
  0
ENDBLK
  5
90E0
  8
0
  0
BLOCK
  8
0
  2
*D10
 70
     1
 10
0.0
 20
0.0
 30
0.0
  3
*D10
  1

  0
LINE
  5
989C
  8
3
 62
     0
 10
930.66248869697745
 20
3173.554669227151
 30
0.0
 11
930.66248869697745
 21
2740.808258764207
 31
0.0
  0
LINE
  5
989D
  8
3
 62
     0
 10
3470.6624886969771
 20
3065.968998015067
 30
0.0
 11
3470.6624886969771
 21
2740.808258764207
 31
0.0
  0
LINE
  5
989E
  8
3
 62
     0
 10
1020.662488696977
 20
2785.808258764207
 30
0.0
 11
3380.6624886969771
 21
2785.808258764207
 31
0.0
  0
INSERT
  5
989F
  8
3
 62
     0
  2
_OPEN
 10
930.66248869697745
 20
2785.808258764207
 30
0.0
 41
90.0
 42
90.0
 43
90.0
 50
180.0
  0
INSERT
  5
98A0
  8
3
 62
     0
  2
_OPEN
 10
3470.6624886969771
 20
2785.808258764207
 30
0.0
 41
90.0
 42
90.0
 43
90.0
  0
TEXT
  8
3
  40
135
  5
9908
  62
0
  72
0
  71
0
 10
2162.74
 20
2659.36
 30
0.000000
  1
2540
  0
POINT
  5
98A2
  8
DEFPOINTS
 62
     0
 10
930.66248869697745
 20
3196.054669227151
 30
0.0
  0
POINT
  5
98A3
  8
DEFPOINTS
 62
     0
 10
3470.6624886969771
 20
3088.468998015067
 30
0.0
  0
POINT
  5
98A4
  8
DEFPOINTS
 62
     0
 10
3470.6624886969771
 20
2785.808258764207
 30
0.0
  0
ENDBLK
  5
90EC
  8
0
  0
BLOCK
  8
0
  2
*D11
 70
     1
 10
0.0
 20
0.0
 30
0.0
  3
*D11
  1

  0
LINE
  5
98A5
  8
3
 62
     0
 10
3470.6624886969771
 20
3065.968998015067
 30
0.0
 11
3470.6624886969771
 21
2740.808258764207
 31
0.0
  0
LINE
  5
98A6
  8
3
 62
     0
 10
4530.6624886969748
 20
3173.554669227151
 30
0.0
 11
4530.6624886969748
 21
2740.808258764207
 31
0.0
  0
LINE
  5
98A7
  8
3
 62
     0
 10
3560.6624886969762
 20
2785.808258764207
 30
0.0
 11
4440.6624886969748
 21
2785.808258764207
 31
0.0
  0
INSERT
  5
98A8
  8
3
 62
     0
  2
_OPEN
 10
3470.6624886969771
 20
2785.808258764207
 30
0.0
 41
90.0
 42
90.0
 43
90.0
 50
180.0
  0
INSERT
  5
98A9
  8
3
 62
     0
  2
_OPEN
 10
4530.6624886969748
 20
2785.808258764207
 30
0.0
 41
90.0
 42
90.0
 43
90.0
  0
TEXT
  8
3
  40
135
  5
9909
  62
0
  72
0
  71
0
 10
3730.66
 20
2659.36
 30
0.000000
  1
1060
  0
POINT
  5
98AB
  8
DEFPOINTS
 62
     0
 10
3470.6624886969771
 20
3088.468998015067
 30
0.0
  0
POINT
  5
98AC
  8
DEFPOINTS
 62
     0
 10
4530.6624886969748
 20
3196.054669227151
 30
0.0
  0
POINT
  5
98AD
  8
DEFPOINTS
 62
     0
 10
4530.6624886969748
 20
2785.808258764207
 30
0.0
  0
ENDBLK
  5
90F8
  8
0
  0
BLOCK
  8
0
  2
*D12
 70
     1
 10
0.0
 20
0.0
 30
0.0
  3
*D12
  1

  0
LINE
  5
9893
  8
3
 62
     0
 10
930.66248869697745
 20
3173.554669227151
 30
0.0
 11
930.66248869697745
 21
2415.3561467642071
 31
0.0
  0
LINE
  5
9894
  8
3
 62
     0
 10
4530.6624886969748
 20
3173.554669227151
 30
0.0
 11
4530.6624886969748
 21
2415.3561467642071
 31
0.0
  0
LINE
  5
9895
  8
3
 62
     0
 10
1020.662488696977
 20
2460.3561467642062
 30
0.0
 11
4440.6624886969748
 21
2460.3561467642062
 31
0.0
  0
INSERT
  5
9896
  8
3
 62
     0
  2
_OPEN
 10
930.66248869697745
 20
2460.3561467642062
 30
0.0
 41
90.0
 42
90.0
 43
90.0
 50
180.0
  0
INSERT
  5
9897
  8
3
 62
     0
  2
_OPEN
 10
4530.6624886969748
 20
2460.3561467642062
 30
0.0
 41
90.0
 42
90.0
 43
90.0
  0
TEXT
  8
3
  40
135
  5
990A
  62
0
  72
0
  71
0
 10
2765.88
 20
2333.91
 30
0.000000
  1
3600
  0
POINT
  5
9899
  8
DEFPOINTS
 62
     0
 10
930.66248869697745
 20
3196.054669227151
 30
0.0
  0
POINT
  5
989A
  8
DEFPOINTS
 62
     0
 10
4530.6624886969748
 20
3196.054669227151
 30
0.0
  0
POINT
  5
989B
  8
DEFPOINTS
 62
     0
 10
4530.6624886969748
 20
2460.3561467642062
 30
0.0
  0
ENDBLK
  5
9104
  8
0
  0
BLOCK
  8
0
  2
*D13
 70
     1
 10
0.0
 20
0.0
 30
0.0
  3
*D13
  1

  0
LINE
  5
985E
  8
3
 62
     0
 10
6486.6376499999997
 20
3173.554669227151
 30
0.0
 11
6486.6376499999997
 21
2678.582059511094
 31
0.0
  0
LINE
  5
985F
  8
3
 62
     0
 10
7597.6376499999988
 20
3118.9124062271499
 30
0.0
 11
7597.6376499999988
 21
2678.582059511094
 31
0.0
  0
LINE
  5
9860
  8
3
 62
     0
 10
6576.6376499999988
 20
2723.582059511094
 30
0.0
 11
7507.6376499999978
 21
2723.582059511094
 31
0.0
  0
INSERT
  5
9861
  8
3
 62
     0
  2
_OPEN
 10
6486.6376499999997
 20
2723.582059511094
 30
0.0
 41
90.0
 42
90.0
 43
90.0
 50
180.0
  0
INSERT
  5
9862
  8
3
 62
     0
  2
_OPEN
 10
7597.6376499999988
 20
2723.582059511094
 30
0.0
 41
90.0
 42
90.0
 43
90.0
  0
TEXT
  8
3
  40
135
  5
990B
  62
0
  72
0
  71
0
 10
6794.64
 20
2597.13
 30
0.000000
  1
1111
  0
POINT
  5
9864
  8
DEFPOINTS
 62
     0
 10
6486.6376499999997
 20
3196.054669227151
 30
0.0
  0
POINT
  5
9865
  8
DEFPOINTS
 62
     0
 10
7597.6376499999988
 20
3141.4124062271499
 30
0.0
  0
POINT
  5
9866
  8
DEFPOINTS
 62
     0
 10
7597.6376499999988
 20
2723.582059511094
 30
0.0
  0
ENDBLK
  5
9146
  8
0
  0
BLOCK
  8
0
  2
*D14
 70
     1
 10
0.0
 20
0.0
 30
0.0
  3
*D14
  1

  0
LINE
  5
9867
  8
3
 62
     0
 10
7597.6376499999988
 20
3118.9124062271499
 30
0.0
 11
7597.6376499999988
 21
2678.582059511094
 31
0.0
  0
LINE
  5
9868
  8
3
 62
     0
 10
8336.6376500000006
 20
3173.554669227151
 30
0.0
 11
8336.6376500000006
 21
2678.582059511094
 31
0.0
  0
LINE
  5
9869
  8
3
 62
     0
 10
7687.6376499999978
 20
2723.582059511094
 30
0.0
 11
8246.6376500000024
 21
2723.582059511094
 31
0.0
  0
INSERT
  5
986A
  8
3
 62
     0
  2
_OPEN
 10
7597.6376499999988
 20
2723.582059511094
 30
0.0
 41
90.0
 42
90.0
 43
90.0
 50
180.0
  0
INSERT
  5
986B
  8
3
 62
     0
  2
_OPEN
 10
8336.6376500000006
 20
2723.582059511094
 30
0.0
 41
90.0
 42
90.0
 43
90.0
  0
TEXT
  8
3
  40
135
  5
990C
  62
0
  72
0
  71
0
 10
7697.14
 20
2597.13
 30
0.000000
  1
739
  0
POINT
  5
986D
  8
DEFPOINTS
 62
     0
 10
7597.6376499999988
 20
3141.4124062271499
 30
0.0
  0
POINT
  5
986E
  8
DEFPOINTS
 62
     0
 10
8336.6376500000006
 20
3196.054669227151
 30
0.0
  0
POINT
  5
986F
  8
DEFPOINTS
 62
     0
 10
8336.6376500000006
 20
2723.582059511094
 30
0.0
  0
ENDBLK
  5
9152
  8
0
  0
BLOCK
  8
0
  2
*D15
 70
     1
 10
0.0
 20
0.0
 30
0.0
  3
*D15
  1

  0
LINE
  5
9870
  8
3
 62
     0
 10
6486.6376499999997
 20
3173.554669227151
 30
0.0
 11
6486.6376499999997
 21
2328.232012947351
 31
0.0
  0
LINE
  5
9871
  8
3
 62
     0
 10
8336.6376500000006
 20
3173.554669227151
 30
0.0
 11
8336.6376500000006
 21
2328.232012947351
 31
0.0
  0
LINE
  5
9872
  8
3
 62
     0
 10
6576.6376499999988
 20
2373.232012947351
 30
0.0
 11
8246.6376500000024
 21
2373.232012947351
 31
0.0
  0
INSERT
  5
9873
  8
3
 62
     0
  2
_OPEN
 10
6486.6376499999997
 20
2373.232012947351
 30
0.0
 41
90.0
 42
90.0
 43
90.0
 50
180.0
  0
INSERT
  5
9874
  8
3
 62
     0
  2
_OPEN
 10
8336.6376500000006
 20
2373.232012947351
 30
0.0
 41
90.0
 42
90.0
 43
90.0
  0
TEXT
  8
3
  40
135
  5
990D
  62
0
  72
0
  71
0
 10
7216.83
 20
2246.78
 30
0.000000
  1
1850
  0
POINT
  5
9876
  8
DEFPOINTS
 62
     0
 10
6486.6376499999997
 20
3196.054669227151
 30
0.0
  0
POINT
  5
9877
  8
DEFPOINTS
 62
     0
 10
8336.6376500000006
 20
3196.054669227151
 30
0.0
  0
POINT
  5
9878
  8
DEFPOINTS
 62
     0
 10
8336.6376500000006
 20
2373.232012947351
 30
0.0
  0
ENDBLK
  5
915E
  8
0
  0
BLOCK
  8
0
  2
*D16
 70
     1
 10
0.0
 20
0.0
 30
0.0
  3
*D16
  1

  0
LINE
  5
98DB
  8
3
 62
     0
 10
4749.4464006507333
 20
4696.11824922715
 30
0.0
 11
5656.6850221258092
 21
4696.11824922715
 31
0.0
  0
LINE
  5
98DC
  8
3
 62
     0
 10
4553.1624886969748
 20
3366.11824922715
 30
0.0
 11
5656.6850221258092
 21
3366.1182492271491
 31
0.0
  0
LINE
  5
98DD
  8
3
 62
     0
 10
5611.6850221258082
 20
4606.11824922715
 30
0.0
 11
5611.6850221258082
 21
3456.11824922715
 31
0.0
  0
INSERT
  5
98DE
  8
3
 62
     0
  2
_OPEN
 10
5611.6850221258082
 20
4696.11824922715
 30
0.0
 41
90.0
 42
90.0
 43
90.0
 50
90.0
  0
INSERT
  5
98DF
  8
3
 62
     0
  2
_OPEN
 10
5611.6850221258082
 20
3366.1182492271491
 30
0.0
 41
90.0
 42
90.0
 43
90.0
 50
270.0
  0
TEXT
  8
3
  40
135
  5
990E
  62
0
  72
0
  71
0
 10
5229.19
 20
3792.17
 30
0.000000
  1
1330
  0
POINT
  5
98E1
  8
DEFPOINTS
 62
     0
 10
4726.9464006507333
 20
4696.11824922715
 30
0.0
  0
POINT
  5
98E2
  8
DEFPOINTS
 62
     0
 10
4530.6624886969748
 20
3366.11824922715
 30
0.0
  0
POINT
  5
98E3
  8
DEFPOINTS
 62
     0
 10
5611.6850221258082
 20
3366.1182492271491
 30
0.0
  0
ENDBLK
  5
9176
  8
0
  0
BLOCK
  8
0
  2
*D17
 70
     1
 10
0.0
 20
0.0
 30
0.0
  3
*D17
  1

  0
LINE
  5
98C9
  8
3
 62
     0
 10
4657.9465216969784
 20
6617.4080872271506
 30
0.0
 11
5299.1979261629922
 21
6617.4080872271506
 31
0.0
  0
LINE
  5
98CA
  8
3
 62
     0
 10
4658.1624886969767
 20
4767.1182492271491
 30
0.0
 11
5299.1979261629913
 21
4767.1182492271491
 31
0.0
  0
LINE
  5
98CB
  8
3
 62
     0
 10
5254.1979261629913
 20
6527.4080872271506
 30
0.0
 11
5254.1979261629913
 21
4857.1182492271482
 31
0.0
  0
INSERT
  5
98CC
  8
3
 62
     0
  2
_OPEN
 10
5254.1979261629913
 20
6617.4080872271506
 30
0.0
 41
90.0
 42
90.0
 43
90.0
 50
90.0
  0
INSERT
  5
98CD
  8
3
 62
     0
  2
_OPEN
 10
5254.1979261629913
 20
4767.1182492271491
 30
0.0
 41
90.0
 42
90.0
 43
90.0
 50
270.0
  0
TEXT
  8
3
  40
135
  5
990F
  62
0
  72
0
  71
0
 10
4871.70
 20
5453.31
 30
0.000000
  1
1850
  0
POINT
  5
98CF
  8
DEFPOINTS
 62
     0
 10
4635.4465216969784
 20
6617.4080872271506
 30
0.0
  0
POINT
  5
98D0
  8
DEFPOINTS
 62
     0
 10
4635.6624886969767
 20
4767.1182492271491
 30
0.0
  0
POINT
  5
98D1
  8
DEFPOINTS
 62
     0
 10
5254.1979261629913
 20
4767.1182492271491
 30
0.0
  0
ENDBLK
  5
91D3
  8
0
  0
BLOCK
  8
0
  2
*D18
 70
     1
 10
0.0
 20
0.0
 30
0.0
  3
*D18
  1

  0
LINE
  5
98D2
  8
3
 62
     0
 10
5276.6979261629913
 20
6617.4080872271506
 30
0.0
 11
5656.6850221258101
 21
6617.4080872271506
 31
0.0
  0
LINE
  5
98D3
  8
3
 62
     0
 10
4749.4464006507333
 20
4696.11824922715
 30
0.0
 11
5656.6850221258092
 21
4696.11824922715
 31
0.0
  0
LINE
  5
98D4
  8
3
 62
     0
 10
5611.6850221258092
 20
6527.4080872271506
 30
0.0
 11
5611.6850221258082
 21
4786.11824922715
 31
0.0
  0
INSERT
  5
98D5
  8
3
 62
     0
  2
_OPEN
 10
5611.6850221258092
 20
6617.4080872271506
 30
0.0
 41
90.0
 42
90.0
 43
90.0
 50
90.0
  0
INSERT
  5
98D6
  8
3
 62
     0
  2
_OPEN
 10
5611.6850221258082
 20
4696.11824922715
 30
0.0
 41
90.0
 42
90.0
 43
90.0
 50
270.0
  0
TEXT
  8
3
  40
135
  5
9910
  62
0
  72
0
  71
0
 10
5229.19
 20
5417.81
 30
0.000000
  1
1921
  0
POINT
  5
98D8
  8
DEFPOINTS
 62
     0
 10
5254.1979261629913
 20
6617.4080872271506
 30
0.0
  0
POINT
  5
98D9
  8
DEFPOINTS
 62
     0
 10
4726.9464006507333
 20
4696.11824922715
 30
0.0
  0
POINT
  5
98DA
  8
DEFPOINTS
 62
     0
 10
5611.6850221258082
 20
4696.11824922715
 30
0.0
  0
ENDBLK
  5
91DF
  8
0
  0
BLOCK
  8
0
  2
*D19
 70
     1
 10
0.0
 20
0.0
 30
0.0
  3
*D19
  1

  0
LINE
  5
9882
  8
3
 62
     0
 10
8392.6376500000006
 20
5683.618249227151
 30
0.0
 11
8392.6376500000006
 21
7443.0877715685137
 31
0.0
  0
LINE
  5
9883
  8
3
 62
     0
 10
7597.6376499999988
 20
7279.4342299658447
 30
0.0
 11
7597.6376499999988
 21
7443.0877715685137
 31
0.0
  0
LINE
  5
9884
  8
3
 62
     0
 10
8302.6376500000006
 20
7398.0877715685137
 30
0.0
 11
7687.6376499999978
 21
7398.0877715685137
 31
0.0
  0
SOLID
  5
9885
  8
3
 62
     0
 10
8302.6376500000006
 20
7413.0877715685137
 30
0.0
 11
8302.6376500000006
 21
7383.0877715685128
 31
0.0
 12
8392.6376500000006
 22
7398.0877715685137
 32
0.0
 13
8392.6376500000006
 23
7398.0877715685137
 33
0.0
  0
SOLID
  5
9886
  8
3
 62
     0
 10
7687.6376499999978
 20
7413.0877715685137
 30
0.0
 11
7687.6376499999978
 21
7383.0877715685128
 31
0.0
 12
7597.6376499999988
 22
7398.0877715685137
 32
0.0
 13
7597.6376499999988
 23
7398.0877715685137
 33
0.0
  0
TEXT
  8
3
  40
135
  5
9911
  62
0
  72
0
  71
0
 10
7735.53
 20
7271.64
 30
0.000000
  1
795
  0
POINT
  5
9888
  8
DEFPOINTS
 62
     0
 10
8392.6376500000006
 20
5661.118249227151
 30
0.0
  0
POINT
  5
9889
  8
DEFPOINTS
 62
     0
 10
7597.6376499999988
 20
7256.9342299658438
 30
0.0
  0
POINT
  5
988A
  8
DEFPOINTS
 62
     0
 10
7597.6376499999988
 20
7398.0877715685137
 30
0.0
  0
ENDBLK
  5
9300
  8
0
  0
BLOCK
  8
0
  2
*D20
 70
     1
 10
0.0
 20
0.0
 30
0.0
  3
*D20
  1

  0
LINE
  5
988B
  8
3
 62
     0
 10
6497.6376499999997
 20
5198.61824922715
 30
0.0
 11
6497.6376499999997
 21
7443.0877715685137
 31
0.0
  0
LINE
  5
988C
  8
3
 62
     0
 10
7507.6376499999978
 20
7398.0877715685137
 30
0.0
 11
6587.6376499999988
 21
7398.0877715685137
 31
0.0
  0
SOLID
  5
988D
  8
3
 62
     0
 10
7507.6376499999978
 20
7413.0877715685137
 30
0.0
 11
7507.6376499999978
 21
7383.0877715685128
 31
0.0
 12
7597.6376499999988
 22
7398.0877715685137
 32
0.0
 13
7597.6376499999988
 23
7398.0877715685137
 33
0.0
  0
SOLID
  5
988E
  8
3
 62
     0
 10
6587.6376499999988
 20
7413.0877715685137
 30
0.0
 11
6587.6376499999988
 21
7383.0877715685128
 31
0.0
 12
6497.6376499999997
 22
7398.0877715685137
 32
0.0
 13
6497.6376499999997
 23
7398.0877715685137
 33
0.0
  0
TEXT
  8
3
  40
135
  5
9912
  62
0
  72
0
  71
0
 10
6777.64
 20
7306.99
 30
0.000000
  1
(1150)
  0
POINT
  5
9890
  8
DEFPOINTS
 62
     0
 10
7597.6376499999988
 20
7087.2867208518537
 30
0.0
  0
POINT
  5
9891
  8
DEFPOINTS
 62
     0
 10
6497.6376499999997
 20
5176.11824922715
 30
0.0
  0
POINT
  5
9892
  8
DEFPOINTS
 62
     0
 10
6497.6376499999997
 20
7398.0877715685137
 30
0.0
  0
ENDBLK
  5
930B
  8
0
  0
BLOCK
  8
0
  2
*D21
 70
     1
 10
0.0
 20
0.0
 30
0.0
  3
*D21
  1

  0
LINE
  5
98E4
  8
3
 62
     0
 10
6937.6376499999988
 20
6641.7122550463973
 30
0.0
 11
6937.6376499999988
 21
7070.7316022055957
 31
0.0
  0
LINE
  5
98E5
  8
3
 62
     0
 10
8257.6376500000006
 20
6641.7122550463973
 30
0.0
 11
8257.6376500000006
 21
7070.7316022055957
 31
0.0
  0
LINE
  5
98E6
  8
3
 62
     0
 10
7027.6376499999988
 20
7025.7316022055966
 30
0.0
 11
8167.6376500000006
 21
7025.7316022055966
 31
0.0
  0
SOLID
  5
98E7
  8
3
 62
     0
 10
7027.6376499999988
 20
7040.7316022055957
 30
0.0
 11
7027.6376499999988
 21
7010.7316022055966
 31
0.0
 12
6937.6376499999988
 22
7025.7316022055966
 32
0.0
 13
6937.6376499999988
 23
7025.7316022055966
 33
0.0
  0
SOLID
  5
98E8
  8
3
 62
     0
 10
8167.6376500000006
 20
7040.7316022055957
 30
0.0
 11
8167.6376500000006
 21
7010.7316022055966
 31
0.0
 12
8257.6376500000006
 22
7025.7316022055966
 32
0.0
 13
8257.6376500000006
 23
7025.7316022055966
 33
0.0
  0
TEXT
  8
3
  40
135
  5
9913
  62
0
  72
0
  71
0
 10
7327.64
 20
6899.28
 30
0.000000
  1
1320
  0
POINT
  5
98EA
  8
DEFPOINTS
 62
     0
 10
6937.6376499999988
 20
6619.2122550463982
 30
0.0
  0
POINT
  5
98EB
  8
DEFPOINTS
 62
     0
 10
8257.6376500000006
 20
6619.2122550463982
 30
0.0
  0
POINT
  5
98EC
  8
DEFPOINTS
 62
     0
 10
8257.6376500000006
 20
7025.7316022055966
 30
0.0
  0
ENDBLK
  5
9317
  8
0
  0
BLOCK
  8
0
  2
*D22
 70
     1
 10
0.0
 20
0.0
 30
0.0
  3
*D22
  1

  0
LINE
  5
9879
  8
3
 62
     0
 10
8415.1376500000006
 20
5596.11824922715
 30
0.0
 11
8822.5519079999995
 21
5596.11824922715
 31
0.0
  0
LINE
  5
987A
  8
3
 62
     0
 10
8415.1376500000006
 20
3796.11824922715
 30
0.0
 11
8822.5519079999995
 21
3796.11824922715
 31
0.0
  0
LINE
  5
987B
  8
3
 62
     0
 10
8777.5519079999995
 20
5506.1182492271491
 30
0.0
 11
8777.5519079999976
 21
3886.11824922715
 31
0.0
  0
SOLID
  5
987C
  8
3
 62
     0
 10
8762.5519079999976
 20
5506.1182492271491
 30
0.0
 11
8792.5519079999995
 21
5506.1182492271491
 31
0.0
 12
8777.5519079999995
 22
5596.11824922715
 32
0.0
 13
8777.5519079999995
 23
5596.11824922715
 33
0.0
  0
SOLID
  5
987D
  8
3
 62
     0
 10
8762.5519079999976
 20
3886.11824922715
 30
0.0
 11
8792.5519079999976
 21
3886.11824922715
 31
0.0
 12
8777.5519079999976
 22
3796.11824922715
 32
0.0
 13
8777.5519079999976
 23
3796.11824922715
 33
0.0
  0
TEXT
  8
3
  40
135
  5
9914
  62
0
  72
0
  71
0
 10
8395.05
 20
4402.88
 30
0.000000
  1
φ1800
  0
POINT
  5
987F
  8
DEFPOINTS
 62
     0
 10
8392.6376500000006
 20
5596.11824922715
 30
0.0
  0
POINT
  5
9880
  8
DEFPOINTS
 62
     0
 10
8392.6376500000006
 20
3796.11824922715
 30
0.0
  0
POINT
  5
9881
  8
DEFPOINTS
 62
     0
 10
8777.5519079999976
 20
3796.11824922715
 30
0.0
  0
ENDBLK
  5
93A4
  8
0
  0
BLOCK
  8
0
  2
*D23
 70
     1
 10
0.0
 20
0.0
 30
0.0
  3
*D23
  1

  0
LINE
  5
98F6
  8
3
 62
     0
 10
4553.1624886969748
 20
3366.11824922715
 30
0.0
 11
5656.6850221258092
 21
3366.1182492271491
 31
0.0
  0
LINE
  5
98F7
  8
3
 62
     0
 10
4553.1624886969748
 20
3196.11824922715
 30
0.0
 11
5656.6850221258092
 21
3196.1182492271491
 31
0.0
  0
LINE
  5
98F8
  8
3
 62
     0
 10
5611.6850221258082
 20
3456.11824922715
 30
0.0
 11
5611.6850221258082
 21
3546.1182492271491
 31
0.0
  0
LINE
  5
98F9
  8
3
 62
     0
 10
5611.6850221258082
 20
3106.1182492271491
 30
0.0
 11
5611.6850221258082
 21
2604.689677798578
 31
0.0
  0
INSERT
  5
98FA
  8
3
 62
     0
  2
_OPEN
 10
5611.6850221258082
 20
3366.1182492271491
 30
0.0
 41
90.0
 42
90.0
 43
90.0
 50
270.0
  0
INSERT
  5
98FB
  8
3
 62
     0
  2
_OPEN
 10
5611.6850221258082
 20
3196.1182492271491
 30
0.0
 41
90.0
 42
90.0
 43
90.0
 50
90.0
  0
TEXT
  8
3
  40
135
  5
9915
  62
0
  72
0
  71
0
 10
5229.19
 20
2571.45
 30
0.000000
  1
170
  0
POINT
  5
98FD
  8
DEFPOINTS
 62
     0
 10
4530.6624886969748
 20
3366.11824922715
 30
0.0
  0
POINT
  5
98FE
  8
DEFPOINTS
 62
     0
 10
4530.6624886969748
 20
3196.11824922715
 30
0.0
  0
POINT
  5
98FF
  8
DEFPOINTS
 62
     0
 10
5611.6850221258082
 20
3196.1182492271491
 30
0.0
  0
ENDBLK
  5
9619
  8
0
  0
ENDSEC
  0
SECTION
  2
ENTITIES
  0
INSERT
  5
8E52
  8
0
  2
YA_N
 10
12518.736613999999
 20
-6524.6833909999987
 30
0.0
  0
INSERT
  5
8E53
  8
0
  2
YA_N
 10
18386.038918999999
 20
2975.8020809999989
 30
0.0
  0
INSERT
  5
8E54
  8
0
  2
YA_N
 10
12518.736613999999
 20
-6524.6833909999987
 30
0.0
  0
INSERT
  5
8E55
  8
0
  2
YA_N
 10
18386.038918999999
 20
2975.8020809999989
 30
0.0
  0
LINE
  5
8E56
  8
1
 10
6486.6376499999997
 20
3516.11824922715
 30
0.0
 11
8336.6376500000006
 21
3516.11824922715
 31
0.0
  0
LINE
  5
8E57
  8
1
 10
6486.6376499999997
 20
3366.11824922715
 30
0.0
 11
8336.6376500000006
 21
3366.11824922715
 31
0.0
  0
LINE
  5
8E58
  8
1
 10
6561.6376499999997
 20
3516.11824922715
 30
0.0
 11
6486.6376499999997
 21
3516.11824922715
 31
0.0
  0
LINE
  5
8E59
  8
1
 10
6561.6376499999997
 20
3366.11824922715
 30
0.0
 11
6486.6376499999997
 21
3366.11824922715
 31
0.0
  0
LINE
  5
8E5A
  8
2
 10
7597.6376499999988
 20
3141.4124062271499
 30
0.0
 11
7597.6376499999988
 21
7004.8976381986722
 31
0.0
  0
LINE
  5
8E5B
  8
1
 10
8257.6376500000006
 20
4705.11824922715
 30
0.0
 11
8257.6376500000006
 21
6619.2122550463964
 31
0.0
  0
LINE
  5
8E5C
  8
1
 10
8392.6376500000006
 20
3731.1182492271491
 30
0.0
 11
8392.6376500000006
 21
5661.118249227151
 31
0.0
  0
LINE
  5
8E5D
  8
1
 10
8257.6376500000006
 20
3516.11824922715
 30
0.0
 11
8257.6376500000006
 21
4687.1182492271491
 31
0.0
  0
LINE
  5
8E5E
  8
1
 10
8261.6376500000006
 20
3366.11824922715
 30
0.0
 11
8336.6376500000006
 21
3366.11824922715
 31
0.0
  0
LINE
  5
8E5F
  8
1
 10
8261.6376500000006
 20
3516.11824922715
 30
0.0
 11
8336.6376500000006
 21
3516.11824922715
 31
0.0
  0
LINE
  5
8E60
  8
1
 10
8257.6376500000006
 20
3796.11824922715
 30
0.0
 11
8392.6376500000006
 21
3796.11824922715
 31
0.0
  0
LINE
  5
8E61
  8
1
 10
8257.6376500000006
 20
5596.11824922715
 30
0.0
 11
8392.6376500000006
 21
5596.11824922715
 31
0.0
  0
LINE
  5
8E62
  8
1
 10
1916.662488696976
 20
9363.5698250355745
 30
0.0
 11
930.66248869697677
 21
9363.5698250355745
 31
0.0
  0
LINE
  5
8E63
  8
1
 10
4530.6624886969739
 20
8163.5698250355763
 30
0.0
 11
930.66248869697642
 21
8163.5698250355763
 31
0.0
  0
LINE
  5
8E64
  8
1
 10
4530.6624886969739
 20
10013.569825035571
 30
0.0
 11
4370.6624886969721
 21
10013.569825035571
 31
0.0
  0
LINE
  5
8E65
  8
2
 10
3470.6624886969748
 20
8109.5040792468944
 30
0.0
 11
3470.6624886969748
 21
10184.023165513179
 31
0.0
  0
LINE
  5
8E66
  8
1
 10
930.66248869697677
 20
8163.5698250355763
 30
0.0
 11
930.66248869697677
 21
9363.5698250355745
 31
0.0
  0
INSERT
  5
8E67
  8
0
  2
YA_N
 10
12518.736613999999
 20
-6524.6833909999987
 30
0.0
  0
LINE
  5
8E68
  8
2
 10
6397.6376499999997
 20
4696.11824922715
 30
0.0
 11
8498.3907209999998
 21
4696.11824922715
 31
0.0
  0
LINE
  5
8E69
  8
1
 10
6497.6376499999978
 20
3581.11824922715
 30
0.0
 11
6497.6376499999997
 21
5176.11824922715
 31
0.0
  0
LINE
  5
8E6A
  8
1
 10
6697.6376499999997
 20
5176.11824922715
 30
0.0
 11
6697.6376499999978
 21
3581.11824922715
 31
0.0
  0
LINE
  5
8E6B
  8
1
 10
6697.6376499999978
 20
3581.11824922715
 30
0.0
 11
6497.6376499999978
 21
3581.11824922715
 31
0.0
  0
LINE
  5
8E6C
  8
1
 10
6657.6376499999988
 20
3716.11824922715
 30
0.0
 11
6657.6376499999988
 21
4046.11824922715
 31
0.0
  0
LINE
  5
8E6D
  8
1
 10
6537.6376499999988
 20
3716.11824922715
 30
0.0
 11
6537.6376499999988
 21
4046.11824922715
 31
0.0
  0
LINE
  5
8E6E
  8
1
 10
6537.6376499999988
 20
5096.11824922715
 30
0.0
 11
6657.6376499999988
 21
5096.11824922715
 31
0.0
  0
LINE
  5
8E6F
  8
1
 10
6657.6376499999988
 20
4296.11824922715
 30
0.0
 11
6537.6376499999988
 21
4296.11824922715
 31
0.0
  0
LINE
  5
8E70
  8
1
 10
6537.6376499999988
 20
4046.11824922715
 30
0.0
 11
6537.6376499999988
 21
5096.11824922715
 31
0.0
  0
LINE
  5
8E71
  8
1
 10
6657.6376499999988
 20
4046.11824922715
 30
0.0
 11
6657.6376499999988
 21
5096.11824922715
 31
0.0
  0
LINE
  5
8E72
  8
2
 10
6597.6376499999997
 20
5141.96624922715
 30
0.0
 11
6597.6376499999988
 21
3480.8141742271509
 31
0.0
  0
LINE
  5
8E73
  8
1
 10
6697.6376499999997
 20
5176.11824922715
 30
0.0
 11
6497.6376499999997
 21
5176.11824922715
 31
0.0
  0
LINE
  5
8E74
  8
2
 10
6463.3366499999984
 20
3866.11824922715
 30
0.0
 11
7258.8748049999967
 21
3866.11824922715
 31
0.0
  0
LINE
  5
8E75
  8
1
 10
6537.6376499999988
 20
4016.11824922715
 30
0.0
 11
6657.6376499999988
 21
4016.11824922715
 31
0.0
  0
LINE
  5
8E76
  8
1
 10
6537.6376499999988
 20
3716.11824922715
 30
0.0
 11
6657.6376499999988
 21
3716.11824922715
 31
0.0
  0
INSERT
  5
8E77
  8
0
  2
YA_N
 10
18386.038918999999
 20
2975.8020809999989
 30
0.0
  0
LINE
  5
8E78
  8
1
 10
6486.6376499999997
 20
3516.11824922715
 30
0.0
 11
6486.6376499999997
 21
3366.11824922715
 31
0.0
  0
LINE
  5
8E79
  8
1
 10
8336.6376500000006
 20
3516.11824922715
 30
0.0
 11
8336.6376500000006
 21
3366.11824922715
 31
0.0
  0
LINE
  5
8E7A
  8
1
 10
6486.6376499999997
 20
3196.11824922715
 30
0.0
 11
8336.6376500000006
 21
3196.11824922715
 31
0.0
  0
LINE
  5
8E7B
  8
1
 10
6486.6376499999997
 20
3346.11824922715
 30
0.0
 11
8336.6376500000006
 21
3346.11824922715
 31
0.0
  0
LINE
  5
8E7C
  8
1
 10
6561.6376499999997
 20
3196.11824922715
 30
0.0
 11
6486.6376499999997
 21
3196.11824922715
 31
0.0
  0
LINE
  5
8E7D
  8
1
 10
6561.6376499999997
 20
3346.11824922715
 30
0.0
 11
6486.6376499999997
 21
3346.11824922715
 31
0.0
  0
LINE
  5
8E7E
  8
1
 10
6486.6376499999997
 20
3346.11824922715
 30
0.0
 11
6486.6376499999997
 21
3196.11824922715
 31
0.0
  0
LINE
  5
8E7F
  8
1
 10
8336.6376500000006
 20
3346.11824922715
 30
0.0
 11
8336.6376500000006
 21
3196.11824922715
 31
0.0
  0
LINE
  5
8E80
  8
2
 10
5000.8064256969783
 20
9274.5698250355745
 30
0.0
 11
2042.2571361713769
 21
9274.5698250355745
 31
0.0
  0
LINE
  5
8E81
  8
1
 10
4635.6624886969767
 20
9934.5698250355763
 30
0.0
 11
1916.662488696976
 21
9934.5698250355781
 31
0.0
  0
LINE
  5
8E82
  8
1
 10
4635.6624886969767
 20
8614.5698250355763
 30
0.0
 11
1916.662488696976
 21
8614.5698250355763
 31
0.0
  0
LINE
  5
8E83
  8
1
 10
4530.6624886969748
 20
8163.5698250355763
 30
0.0
 11
4530.6624886969748
 21
8614.5698250355763
 31
0.0
  0
LINE
  5
8E85
  8
1
 10
1250.662488696976
 20
8214.5698250355745
 30
0.0
 11
1250.662488696976
 21
8334.5698250355745
 31
0.0
  0
LINE
  5
8E86
  8
1
 10
1550.662488696976
 20
8214.5698250355745
 30
0.0
 11
1550.662488696976
 21
8334.5698250355745
 31
0.0
  0
LINE
  5
8E87
  8
1
 10
1400.662488696976
 20
8140.2688250355741
 30
0.0
 11
1400.662488696976
 21
8488.0698250355745
 31
0.0
  0
LINE
  5
8E88
  8
1
 10
3950.6624886969762
 20
8374.5698250355745
 30
0.0
 11
3950.6624886969762
 21
8174.5698250355736
 31
0.0
  0
LINE
  5
8E89
  8
1
 10
3070.6624886969762
 20
8334.5698250355745
 30
0.0
 11
3070.6624886969762
 21
8214.5698250355745
 31
0.0
  0
LINE
  5
8E8A
  8
1
 10
3870.6624886969748
 20
8214.5698250355745
 30
0.0
 11
3870.6624886969748
 21
8334.5698250355745
 31
0.0
  0
LINE
  5
8E8B
  8
1
 10
1115.662488696976
 20
8374.5698250355745
 30
0.0
 11
1115.662488696976
 21
8174.5698250355736
 31
0.0
  0
LINE
  5
8E8C
  8
1
 10
1250.662488696976
 20
8214.5698250355745
 30
0.0
 11
1550.662488696976
 21
8214.5698250355745
 31
0.0
  0
LINE
  5
8E8D
  8
1
 10
1115.662488696976
 20
8174.5698250355736
 30
0.0
 11
3950.6624886969762
 21
8174.5698250355736
 31
0.0
  0
LINE
  5
8E8E
  8
2
 10
3916.5104886969748
 20
8274.5698250355745
 30
0.0
 11
1194.2114446969761
 21
8274.5698250355745
 31
0.0
  0
LINE
  5
8E8F
  8
1
 10
3070.6624886969762
 20
8214.5698250355745
 30
0.0
 11
3870.6624886969748
 21
8214.5698250355745
 31
0.0
  0
LINE
  5
8E90
  8
1
 10
1250.662488696976
 20
8334.5698250355745
 30
0.0
 11
1550.662488696976
 21
8334.5698250355745
 31
0.0
  0
LINE
  5
8E91
  8
1
 10
3950.6624886969762
 20
8374.5698250355745
 30
0.0
 11
1115.662488696976
 21
8374.5698250355745
 31
0.0
  0
LINE
  5
8E92
  8
1
 10
3070.6624886969762
 20
8334.5698250355745
 30
0.0
 11
3870.6624886969748
 21
8334.5698250355745
 31
0.0
  0
LINE
  5
8E93
  8
1
 10
6657.6376499999988
 20
4741.11824922715
 30
0.0
 11
6937.6376499999988
 21
4741.11824922715
 31
0.0
  0
LINE
  5
8E94
  8
1
 10
6657.6376499999988
 20
4651.11824922715
 30
0.0
 11
6937.6376499999988
 21
4651.11824922715
 31
0.0
  0
LINE
  5
8E95
  8
1
 10
1130.662488696976
 20
9313.5698250355763
 30
0.0
 11
1130.662488696976
 21
8461.0698250355763
 31
0.0
  0
LINE
  5
8E96
  8
1
 10
1688.162488696976
 20
8461.0698250355763
 30
0.0
 11
1688.162488696976
 21
9313.5698250355763
 31
0.0
  0
LINE
  5
8E97
  8
2
 10
1400.662488696976
 20
8255.0732440355769
 30
0.0
 11
1400.662488696976
 21
9332.861141035577
 31
0.0
  0
LINE
  5
8E98
  8
1
 10
1130.662488696976
 20
9313.5698250355763
 30
0.0
 11
1688.162488696976
 21
9313.5698250355763
 31
0.0
  0
LINE
  5
8E99
  8
1
 10
1688.162488696976
 20
8461.0698250355763
 30
0.0
 11
1130.662488696976
 21
8461.0698250355763
 31
0.0
  0
LINE
  5
8E9A
  8
1
 10
1315.162488696976
 20
8454.5698250355745
 30
0.0
 11
1486.162488696976
 21
8454.5698250355745
 31
0.0
  0
LINE
  5
8E9B
  8
1
 10
1358.162488696976
 20
8274.5698250355745
 30
0.0
 11
1448.162488696976
 21
8274.5698250355745
 31
0.0
  0
LINE
  5
8E9C
  8
1
 10
1350.662488696976
 20
8444.5698250355745
 30
0.0
 11
1450.662488696976
 21
8444.5698250355745
 31
0.0
  0
LINE
  5
8E9D
  8
1
 10
1358.162488696976
 20
8274.5698250355745
 30
0.0
 11
1358.162488696976
 21
8444.5698250355745
 31
0.0
  0
LINE
  5
8E9E
  8
1
 10
1350.662488696976
 20
8444.5698250355745
 30
0.0
 11
1350.662488696976
 21
8454.5698250355745
 31
0.0
  0
ARC
  5
8E9F
  8
1
 10
1315.162488696976
 20
8456.5698250355745
 30
0.0
 40
2.0
 50
180.0
 51
270.0
  0
LINE
  5
8EA0
  8
1
 10
1313.162488696976
 20
8461.4182000355759
 30
0.0
 11
1313.162488696976
 21
8456.5698250355745
 31
0.0
  0
LINE
  5
8EA1
  8
1
 10
1448.162488696976
 20
8274.5698250355745
 30
0.0
 11
1448.162488696976
 21
8414.5698250355763
 31
0.0
  0
LINE
  5
8EA2
  8
1
 10
1443.162488696976
 20
8274.5698250355745
 30
0.0
 11
1443.162488696976
 21
8439.0698250355745
 31
0.0
  0
LINE
  5
8EA3
  8
1
 10
1450.662488696976
 20
8444.5698250355745
 30
0.0
 11
1450.662488696976
 21
8454.5698250355745
 31
0.0
  0
ARC
  5
8EA4
  8
1
 10
1486.162488696976
 20
8456.5698250355745
 30
0.0
 40
2.0
 50
270.0
 51
0.0
  0
LINE
  5
8EA5
  8
1
 10
1488.162488696976
 20
8461.0698250355763
 30
0.0
 11
1488.162488696976
 21
8456.5698250355745
 31
0.0
  0
LINE
  5
8EA6
  8
1
 10
1443.162488696976
 20
8414.5698250355763
 30
0.0
 11
1448.162488696976
 21
8414.5698250355763
 31
0.0
  0
LINE
  5
8EA7
  8
1
 10
6937.6376499999988
 20
4136.11824922715
 30
0.0
 11
6784.1376499999988
 21
4136.11824922715
 31
0.0
  0
LINE
  5
8EA8
  8
1
 10
6784.1376499999988
 20
3578.61824922715
 30
0.0
 11
6937.6376499999988
 21
3578.61824922715
 31
0.0
  0
LINE
  5
8EA9
  8
1
 10
6784.1376499999988
 20
3578.61824922715
 30
0.0
 11
6784.1376499999988
 21
4136.11824922715
 31
0.0
  0
LINE
  5
8EAA
  8
1
 10
6777.6376499999988
 20
3951.61824922715
 30
0.0
 11
6777.6376499999988
 21
3780.61824922715
 31
0.0
  0
LINE
  5
8EAB
  8
1
 10
6784.4860249999983
 20
3953.61824922715
 30
0.0
 11
6779.6376499999988
 21
3953.61824922715
 31
0.0
  0
ARC
  5
8EAC
  8
1
 10
6779.6376499999988
 20
3951.61824922715
 30
0.0
 40
2.0
 50
90.0
 51
180.0
  0
LINE
  5
8EAD
  8
1
 10
6597.6376499999988
 20
3823.61824922715
 30
0.0
 11
6762.1376499999978
 21
3823.61824922715
 31
0.0
  0
LINE
  5
8EAE
  8
1
 10
6597.6376499999988
 20
3818.6182492271491
 30
0.0
 11
6737.6376499999988
 21
3818.6182492271491
 31
0.0
  0
LINE
  5
8EAF
  8
1
 10
6597.6376499999988
 20
3908.61824922715
 30
0.0
 11
6767.6376499999988
 21
3908.61824922715
 31
0.0
  0
LINE
  5
8EB0
  8
1
 10
6737.6376499999988
 20
3823.61824922715
 30
0.0
 11
6737.6376499999988
 21
3818.6182492271491
 31
0.0
  0
LINE
  5
8EB1
  8
1
 10
6784.1376499999988
 20
3778.61824922715
 30
0.0
 11
6779.6376499999988
 21
3778.61824922715
 31
0.0
  0
ARC
  5
8EB2
  8
1
 10
6779.6376499999988
 20
3780.61824922715
 30
0.0
 40
2.0
 50
180.0
 51
270.0
  0
LINE
  5
8EB3
  8
1
 10
6767.6376499999988
 20
3816.11824922715
 30
0.0
 11
6777.6376499999988
 21
3816.11824922715
 31
0.0
  0
LINE
  5
8EB4
  8
1
 10
6767.6376499999988
 20
3916.11824922715
 30
0.0
 11
6777.6376499999988
 21
3916.11824922715
 31
0.0
  0
LINE
  5
8EB5
  8
1
 10
6767.6376499999988
 20
3916.11824922715
 30
0.0
 11
6767.6376499999988
 21
3816.11824922715
 31
0.0
  0
LINE
  5
8EB6
  8
1
 10
6597.6376499999988
 20
3908.61824922715
 30
0.0
 11
6597.6376499999988
 21
3818.6182492271491
 31
0.0
  0
DIMENSION
  5
8EB7
  8
3
  2
*D3
 10
2410.6624886969762
 20
10320.822061390931
 30
0.0
 11
3463.5912026969759
 21
10320.822061390931
 31
0.0
 70
   128
 13
4530.6624886969739
 23
10013.569825035571
 33
0.0
 14
2410.6624886969762
 24
10013.569825035571
 34
0.0
1001
ACAD
1000
DSTYLE
1002
{
1070
   287
1070
     3
1070
   287
1070
     3
1070
   287
1070
     3
1070
    40
1040
45.0
1070
   143
1040
0.039
1070
   271
1070
     4
1070
   272
1070
     4
1070
   279
1070
     0
1070
   284
1070
     0
1070
   285
1070
     0
1070
   286
1070
     0
1070
   341
1005
8D0F
1070
     6
1000
OPEN
1070
     7
1000
OPEN
1002
}
  0
DIMENSION
  5
8EB8
  8
3
  2
*D4
 10
930.66248869697688
 20
10320.822061390931
 30
0.0
 11
1670.662488696976
 21
10433.322061390931
 31
0.0
 70
     0
 13
2410.6624886969762
 23
10013.569825035571
 33
0.0
 14
930.66248869697677
 24
9363.5698250355745
 34
0.0
1001
ACAD
1000
DSTYLE
1002
{
1070
   287
1070
     3
1070
   287
1070
     3
1070
   287
1070
     3
1070
    40
1040
45.0
1070
   143
1040
0.039
1070
   271
1070
     4
1070
   272
1070
     4
1070
   279
1070
     0
1070
   284
1070
     0
1070
   285
1070
     0
1070
   286
1070
     0
1070
   341
1005
8D0F
1070
     6
1000
OPEN
1070
     7
1000
OPEN
1002
}
  0
DIMENSION
  5
8EB9
  8
3
  2
*D6
 10
688.53044069697728
 20
8163.5698250355763
 30
0.0
 11
688.53044069697614
 21
8757.2817040355767
 31
0.0
 70
   128
 13
930.66248869697677
 23
9363.5698250355745
 33
0.0
 14
930.66248869697677
 24
8163.5698250355763
 34
0.0
 50
90.0
1001
ACAD
1000
DSTYLE
1002
{
1070
   287
1070
     3
1070
   287
1070
     3
1070
   287
1070
     3
1070
    40
1040
45.0
1070
   143
1040
0.039
1070
   271
1070
     4
1070
   272
1070
     4
1070
   279
1070
     0
1070
   284
1070
     0
1070
   285
1070
     0
1070
   286
1070
     0
1070
   341
1005
8D0F
1070
     6
1000
OPEN
1070
     7
1000
OPEN
1002
}
  0
DIMENSION
  5
8EBA
  8
3
  2
*D5
 10
4530.6624886969739
 20
7682.284521137195
 30
0.0
 11
2970.6811446969759
 21
7682.284521137195
 31
0.0
 70
   128
 13
930.66248869697677
 23
8163.5698250355763
 33
0.0
 14
4530.6624886969739
 24
8163.5698250355763
 34
0.0
1001
ACAD
1000
DSTYLE
1002
{
1070
   287
1070
     3
1070
   287
1070
     3
1070
   287
1070
     3
1070
    40
1040
45.0
1070
   143
1040
0.039
1070
   271
1070
     4
1070
   272
1070
     4
1070
   279
1070
     0
1070
   284
1070
     0
1070
   285
1070
     0
1070
   286
1070
     0
1070
   341
1005
8D0F
1070
     6
1000
OPEN
1070
     7
1000
OPEN
1002
}
  0
DIMENSION
  5
8EBB
  8
3
  2
*D13
 10
7597.6376499999988
 20
2723.582059511094
 30
0.0
 11
7064.637444
 21
2723.582059511094
 31
0.0
 70
   128
 13
6486.6376499999997
 23
3196.054669227151
 33
0.0
 14
7597.6376499999988
 24
3141.4124062271499
 34
0.0
1001
ACAD
1000
DSTYLE
1002
{
1070
   287
1070
     3
1070
   287
1070
     3
1070
   287
1070
     3
1070
    40
1040
45.0
1070
   143
1040
0.039
1070
   271
1070
     4
1070
   272
1070
     4
1070
   279
1070
     0
1070
   284
1070
     0
1070
   285
1070
     0
1070
   286
1070
     0
1070
   341
1005
8D0F
1070
     6
1000
OPEN
1070
     7
1000
OPEN
1002
}
  0
DIMENSION
  5
8EBC
  8
3
  2
*D14
 10
8336.6376500000006
 20
2723.582059511094
 30
0.0
 11
7967.1376499999988
 21
2836.082059511094
 31
0.0
 70
     0
 13
7597.6376499999988
 23
3141.4124062271499
 33
0.0
 14
8336.6376500000006
 24
3196.054669227151
 34
0.0
1001
ACAD
1000
DSTYLE
1002
{
1070
   287
1070
     3
1070
   287
1070
     3
1070
   287
1070
     3
1070
    40
1040
45.0
1070
   143
1040
0.039
1070
   271
1070
     4
1070
   272
1070
     4
1070
   279
1070
     0
1070
   284
1070
     0
1070
   285
1070
     0
1070
   286
1070
     0
1070
   341
1005
8D0F
1070
     6
1000
OPEN
1070
     7
1000
OPEN
1002
}
  0
DIMENSION
  5
8EBD
  8
3
  2
*D15
 10
8336.6376500000006
 20
2373.232012947351
 30
0.0
 11
7486.8346590000001
 21
2373.232012947351
 31
0.0
 70
   128
 13
6486.6376499999997
 23
3196.054669227151
 33
0.0
 14
8336.6376500000006
 24
3196.054669227151
 34
0.0
1001
ACAD
1000
DSTYLE
1002
{
1070
   287
1070
     3
1070
   287
1070
     3
1070
   287
1070
     3
1070
    40
1040
45.0
1070
   143
1040
0.039
1070
   271
1070
     4
1070
   272
1070
     4
1070
   279
1070
     0
1070
   284
1070
     0
1070
   285
1070
     0
1070
   286
1070
     0
1070
   341
1005
8D0F
1070
     6
1000
OPEN
1070
     7
1000
OPEN
1002
}
  0
DIMENSION
  5
8EBE
  8
3
  2
*D22
 10
8777.5519079999976
 20
3796.11824922715
 30
0.0
 11
8777.5519079999976
 21
4641.8280002271504
 31
0.0
 70
   128
 13
8392.6376500000006
 23
5596.11824922715
 33
0.0
 14
8392.6376500000006
 24
3796.11824922715
 34
0.0
 50
90.0
1001
ACAD
1000
DSTYLE
1002
{
1070
   287
1070
     3
1070
   287
1070
     3
1070
   287
1070
     3
1070
   287
1070
     3
1070
     3
1000
φ<>
1070
    40
1040
45.0
1070
   143
1040
0.039
1070
   172
1070
     1
1070
   271
1070
     0
1070
   279
1070
     0
1070
   288
1070
     1
1002
}
  0
DIMENSION
  5
8EBF
  8
3
  2
*D19
 10
7597.6376499999988
 20
7398.0877715685137
 30
0.0
 11
8005.5341159999989
 21
7398.0877715685137
 31
0.0
 70
   128
 13
8392.6376500000006
 23
5661.118249227151
 33
0.0
 14
7597.6376499999988
 24
7256.9342299658438
 34
0.0
1001
ACAD
1000
DSTYLE
1002
{
1070
   287
1070
     3
1070
   287
1070
     3
1070
   287
1070
     3
1070
   287
1070
     3
1070
    40
1040
45.0
1070
   143
1040
0.039
1070
   172
1070
     1
1070
   271
1070
     0
1070
   279
1070
     0
1070
   288
1070
     1
1002
}
  0
DIMENSION
  5
8EC0
  8
3
  2
*D20
 10
6497.6376499999997
 20
7398.0877715685137
 30
0.0
 11
7047.6376499999978
 21
7545.9449144256569
 31
0.0
 70
     0
  1
(1150)
 13
7597.6376499999988
 23
7087.2867208518537
 33
0.0
 14
6497.6376499999997
 24
5176.11824922715
 34
0.0
1001
ACAD
1000
DSTYLE
1002
{
1070
   287
1070
     4
1070
   287
1070
     4
1070
   287
1070
     4
1070
   287
1070
     4
1070
    40
1040
45.0
1070
    75
1070
     1
1070
   143
1040
0.039
1070
   172
1070
     1
1070
   271
1070
     0
1070
   279
1070
     1
1070
   288
1070
     1
1002
}
  0
LINE
  5
8EC1
  8
4
 10
8325.0
 20
1775.845221491152
 30
0.0
 11
8325.0
 21
875.84522149115207
 31
0.0
  0
LINE
  5
8EC2
  8
4
 10
5175.0
 20
1775.845221491152
 30
0.0
 11
5175.0
 21
875.84522149115207
 31
0.0
  0
LINE
  5
8EC3
  8
4
 10
2925.0
 20
1775.845221491152
 30
0.0
 11
2925.0
 21
875.84522149115207
 31
0.0
  0
LINE
  5
8EC6
  8
4
 10
2925.0
 20
875.84522149115207
 30
0.0
 11
8325.0
 21
875.84522149115207
 31
0.0
  0
LINE
  5
8EC7
  8
4
 10
2925.0
 20
1325.845221491152
 30
0.0
 11
8325.0
 21
1325.845221491152
 31
0.0
  0
TEXT
  5
8EC8
  8
4
 10
3098.259364
 20
1467.788837491152
 30
0.0
 40
225.0
  1
機器名称
  0
TEXT
  5
8EC9
  8
4
 10
3088.1614769999978
 20
973.24842649115214
 30
0.0
 40
225.0
  1
機器型番
  0
TEXT
  5
8ECA
  8
4
 10
5197.1468830000013
 20
1429.233946491152
 30
0.0
 40
202.49999999999989
  1
ミツヤ多翼送風機
  0
TEXT
  5
8ECB
  8
4
 10
5339.9452300000012
 20
953.06335049115205
 30
0.0
 40
225.0
  1
MF＃11-4
  0
TEXT
  5
8ECD
  8
4
 10
3619.4975020000002
 20
10725.429786000001
 30
0.0
 40
243.0
  1
床置防振ベット
  0
TEXT
  5
8ECE
  8
4
 10
1258.0479374325371
 20
11402.464393
 30
0.0
 40
324.0
  1
ベルト駆動式片吸込両持多翼ファン
 41
1.143750671685607
 72
     5
 11
8224.8620288039092
 21
11402.464393
 31
0.0
  0
LINE
  5
8ECF
  8
4
 10
1125.0
 20
11112.339394000001
 30
0.0
 11
8325.0
 21
11112.339394000001
 31
0.0
  0
LINE
  5
8ED0
  8
4
 10
1125.0
 20
12012.339394000001
 30
0.0
 11
8325.0
 21
12012.339394000001
 31
0.0
  0
LINE
  5
8ED1
  8
4
 10
2925.0
 20
1775.845221491152
 30
0.0
 11
8325.0
 21
1775.845221491152
 31
0.0
  0
LINE
  5
8ED2
  8
4
 10
1125.0
 20
12012.339394000001
 30
0.0
 11
1125.0
 21
11112.339394000001
 31
0.0
  0
TEXT
  5
8ED3
  8
4
 10
1658.1327570000001
 20
10720.437649
 30
0.0
 40
243.0
  1
右回転右横向
  0
TEXT
  5
8ED4
  8
4
 10
6610.3630169999997
 20
12177.274867
 30
0.0
 40
252.0
  1
No.
  0
TEXT
  5
8ED5
  8
4
 10
5900.8322820000003
 20
10725.429786000001
 30
0.0
 40
243.0
  1
縮尺：1/45
  0
LINE
  5
8ED6
  8
4
 10
8325.0
 20
12012.339394000001
 30
0.0
 11
8325.0
 21
11112.339394000001
 31
0.0
  0
LINE
  5
8ED7
  8
4
 10
9450.0
 20
13275.0
 30
0.0
 11
9450.0
 21
13275.0
 31
0.0
  0
LINE
  5
8ED8
  8
4
 10
6482.7784009999996
 20
12065.686124
 30
0.0
 11
6482.7784009999996
 21
12539.93517699999
 31
0.0
  0
LINE
  5
8ED9
  8
4
 10
6482.7784009999996
 20
12539.93517699999
 30
0.0
 11
8325.0
 21
12539.93517699999
 31
0.0
  0
LINE
  5
8EDA
  8
4
 10
8325.0
 20
12539.93517699999
 30
0.0
 11
8325.0
 21
12065.686124
 31
0.0
  0
LINE
  5
8EDB
  8
4
 10
8325.0
 20
12065.686124
 30
0.0
 11
6482.7784009999996
 21
12065.686124
 31
0.0
  0
LINE
  5
8EDC
  8
4
 10
0.0
 20
0.0
 30
0.0
 11
0.0
 21
13275.0
 31
0.0
  0
LINE
  5
8EDD
  8
4
 10
0.0
 20
13275.0
 30
0.0
 11
9450.0
 21
13275.0
 31
0.0
  0
LINE
  5
8EDE
  8
4
 10
9450.0
 20
13275.0
 30
0.0
 11
9450.0
 21
0.0
 31
0.0
  0
LINE
  5
8EDF
  8
4
 10
9450.0
 20
0.0
 30
0.0
 11
0.0
 21
0.0
 31
0.0
  0
LINE
  5
8EE0
  8
1
 10
6937.6376499999988
 20
3516.11824922715
 30
0.0
 11
6937.6376499999988
 21
6619.2122550463982
 31
0.0
  0
DIMENSION
  5
8EE1
  8
3
  2
*D12
 10
4530.6624886969748
 20
2460.3561467642062
 30
0.0
 11
3035.8761266969759
 21
2460.3561467642062
 31
0.0
 70
   128
 13
930.66248869697745
 23
3196.054669227151
 33
0.0
 14
4530.6624886969748
 24
3196.054669227151
 34
0.0
1001
ACAD
1000
DSTYLE
1002
{
1070
   287
1070
     3
1070
   287
1070
     3
1070
   287
1070
     3
1070
    40
1040
45.0
1070
   143
1040
0.039
1070
   271
1070
     4
1070
   272
1070
     4
1070
   279
1070
     0
1070
   284
1070
     0
1070
   285
1070
     0
1070
   286
1070
     0
1070
   341
1005
8D0F
1070
     6
1000
OPEN
1070
     7
1000
OPEN
1002
}
  0
DIMENSION
  5
8EE2
  8
3
  2
*D10
 10
3470.6624886969771
 20
2785.808258764207
 30
0.0
 11
2432.7372136969761
 21
2785.808258764207
 31
0.0
 70
   128
 13
930.66248869697745
 23
3196.054669227151
 33
0.0
 14
3470.6624886969771
 24
3088.468998015067
 34
0.0
1001
ACAD
1000
DSTYLE
1002
{
1070
   287
1070
     3
1070
   287
1070
     3
1070
   287
1070
     3
1070
    40
1040
45.0
1070
   143
1040
0.039
1070
   271
1070
     4
1070
   272
1070
     4
1070
   279
1070
     0
1070
   284
1070
     0
1070
   285
1070
     0
1070
   286
1070
     0
1070
   341
1005
8D0F
1070
     6
1000
OPEN
1070
     7
1000
OPEN
1002
}
  0
LINE
  5
8EE3
  8
1
 10
3618.142297696977
 20
4324.2987962271491
 30
0.0
 11
1455.967416696976
 21
3726.68595422715
 31
0.0
  0
LINE
  5
8EE4
  8
1
 10
3247.538608696977
 20
5028.1058012271506
 30
0.0
 11
1316.991033696977
 21
3990.6135812271509
 31
0.0
  0
LINE
  5
8EE5
  8
1
 10
3657.1764976969771
 20
4253.8376242271479
 30
0.0
 11
1509.462910696976
 21
3608.1212182271502
 31
0.0
  0
LINE
  5
8EE6
  8
1
 10
3211.5281516969771
 20
5100.1602202271497
 30
0.0
 11
1249.501375696977
 21
4101.8093992271488
 31
0.0
  0
LINE
  5
8EE7
  8
1
 10
4530.6624886969748
 20
3516.11824922715
 30
0.0
 11
930.66248869697745
 21
3516.11824922715
 31
0.0
  0
LINE
  5
8EE8
  8
1
 10
4530.6624886969748
 20
3366.11824922715
 30
0.0
 11
930.66248869697745
 21
3366.11824922715
 31
0.0
  0
LINE
  5
8EE9
  8
1
 10
4530.6624886969748
 20
3196.11824922715
 30
0.0
 11
930.66248869697745
 21
3196.11824922715
 31
0.0
  0
LINE
  5
8EEA
  8
1
 10
4530.6624886969748
 20
3346.11824922715
 30
0.0
 11
930.66248869697745
 21
3346.11824922715
 31
0.0
  0
LINE
  5
8EEB
  8
2
 10
1834.183845378619
 20
4696.11824922715
 30
0.0
 11
4726.9464006507333
 21
4696.11824922715
 31
0.0
  0
ARC
  5
8EEC
  8
1
 10
3601.6624886969748
 20
4827.1182492271491
 30
0.0
 40
1685.0
 50
95.387940999999998
 51
180.0
  0
LINE
  5
8EED
  8
1
 10
4570.6624886969767
 20
4767.1182492271491
 30
0.0
 11
4570.6624886969767
 21
6611.2979502271501
 31
0.0
  0
LINE
  5
8EEE
  8
1
 10
4635.6624886969767
 20
4703.11824922715
 30
0.0
 11
4635.6624886969767
 21
6679.1182492271491
 31
0.0
  0
LINE
  5
8EEF
  8
1
 10
4635.4465216969784
 20
6617.4080872271506
 30
0.0
 11
3443.2270876969769
 21
6506.9633352271476
 31
0.0
  0
LINE
  5
8EF0
  8
1
 10
1245.183356696976
 20
3597.92757222715
 30
0.0
 11
1556.1416206969759
 21
3597.92757222715
 31
0.0
  0
LINE
  5
8EF1
  8
2
 10
1063.203524696976
 20
3866.11824922715
 30
0.0
 11
1743.9397106969759
 21
3866.11824922715
 31
0.0
  0
LINE
  5
8EF2
  8
1
 10
1050.6624886969771
 20
3586.11824922715
 30
0.0
 11
1750.6624886969771
 21
3586.11824922715
 31
0.0
  0
ARC
  5
8EF3
  8
1
 10
1400.6624886969771
 20
3866.11824922715
 30
0.0
 40
310.0
 50
300.10230799999988
 51
239.89769200000001
  0
CIRCLE
  5
8EF4
  8
1
 10
1400.6624886969771
 20
3866.11824922715
 30
0.0
 40
150.0
  0
ARC
  5
8EF5
  8
1
 10
1400.6624886969771
 20
3866.11824922715
 30
0.0
 40
280.0
 50
122.67418499999989
 51
292.86573199999992
  0
LINE
  5
8EF6
  8
1
 10
1120.6624886969771
 20
3733.0769022271502
 30
0.0
 11
1120.6624886969771
 21
3586.11824922715
 31
0.0
  0
LINE
  5
8EF7
  8
1
 10
930.66248869697745
 20
3346.11824922715
 30
0.0
 11
930.66248869697745
 21
3196.11824922715
 31
0.0
  0
LINE
  5
8EF8
  8
1
 10
930.66248869697745
 20
3516.11824922715
 30
0.0
 11
930.66248869697745
 21
3366.11824922715
 31
0.0
  0
LINE
  5
8EF9
  8
1
 10
1050.6624886969771
 20
3586.11824922715
 30
0.0
 11
1230.6624886969771
 21
3586.11824922715
 31
0.0
  0
LINE
  5
8EFA
  8
1
 10
1050.6624886969771
 20
3586.11824922715
 30
0.0
 11
1050.6624886969771
 21
3516.11824922715
 31
0.0
  0
LINE
  5
8EFB
  8
1
 10
1680.6624886969771
 20
3733.0769022271502
 30
0.0
 11
1680.6624886969771
 21
3586.11824922715
 31
0.0
  0
LINE
  5
8EFC
  8
2
 10
1400.6624886969771
 20
3443.320319227149
 30
0.0
 11
1400.6624886969771
 21
4348.1171012271507
 31
0.0
  0
LINE
  5
8EFD
  8
1
 10
1750.6624886969771
 20
3586.11824922715
 30
0.0
 11
1750.6624886969771
 21
3516.11824922715
 31
0.0
  0
DIMENSION
  5
8EFE
  8
3
  2
*D11
 10
4530.6624886969748
 20
2785.808258764207
 30
0.0
 11
4000.6624886969771
 21
2898.3082587642061
 31
0.0
 70
     0
 13
3470.6624886969771
 23
3088.468998015067
 33
0.0
 14
4530.6624886969748
 24
3196.054669227151
 34
0.0
1001
ACAD
1000
DSTYLE
1002
{
1070
   287
1070
     3
1070
   287
1070
     3
1070
   287
1070
     3
1070
    40
1040
45.0
1070
   143
1040
0.039
1070
   271
1070
     4
1070
   272
1070
     4
1070
   279
1070
     0
1070
   284
1070
     0
1070
   285
1070
     0
1070
   286
1070
     0
1070
   341
1005
8D0F
1070
     6
1000
OPEN
1070
     7
1000
OPEN
1002
}
  0
ARC
  5
8EFF
  8
1
 10
3360.1624886969762
 20
4585.61824922715
 30
0.0
 40
1181.4999999999991
 50
295.1490593450963
 51
0.0
  0
ARC
  5
8F00
  8
1
 10
3339.6624886969762
 20
4827.1182492271491
 30
0.0
 40
1423.0
 50
180.0
 51
247.11585403247039
  0
LINE
  5
8F01
  8
2
 10
3470.6624886969771
 20
3088.468998015067
 30
0.0
 11
3470.6624886969771
 21
6605.1196802527538
 31
0.0
  0
LINE
  5
8F02
  8
1
 10
4524.3581206969757
 20
4767.1182492271491
 30
0.0
 11
4635.6624886969767
 21
4767.1182492271491
 31
0.0
  0
ARC
  5
8F03
  8
1
 10
3470.661488696976
 20
4696.11824922715
 30
0.0
 40
480.0
 50
292.86573199999992
 51
122.67418499999989
  0
CIRCLE
  5
8F04
  8
1
 10
3470.6624886969771
 20
4696.11824922715
 30
0.0
 40
400.0
  0
ARC
  5
8F05
  8
1
 10
3470.6624886969771
 20
4696.11824922715
 30
0.0
 40
965.0
 50
180.0
 51
180.5343729999999
  0
ARC
  5
8F06
  8
1
 10
3581.1624886969771
 20
4585.61824922715
 30
0.0
 40
960.5
 50
0.0
 51
10.89233500000001
  0
LINE
  5
8F07
  8
1
 10
4530.6624886969748
 20
3346.11824922715
 30
0.0
 11
4530.6624886969748
 21
3196.11824922715
 31
0.0
  0
LINE
  5
8F08
  8
1
 10
4530.6624886969748
 20
3516.11824922715
 30
0.0
 11
4530.6624886969748
 21
3366.11824922715
 31
0.0
  0
DIMENSION
  5
8F09
  8
3
  2
*D7
 10
4635.6624886969767
 20
7143.7320504162926
 30
0.0
 11
2783.1624886969771
 21
7256.2320504162926
 31
0.0
 70
     0
 13
930.66248869697745
 23
3516.11824922715
 33
0.0
 14
4635.6624886969767
 24
6679.1182492271491
 34
0.0
1001
ACAD
1000
DSTYLE
1002
{
1070
   287
1070
     3
1070
   287
1070
     3
1070
   287
1070
     3
1070
    40
1040
45.0
1070
   143
1040
0.039
1070
   271
1070
     4
1070
   272
1070
     4
1070
   279
1070
     0
1070
   284
1070
     0
1070
   285
1070
     0
1070
   286
1070
     0
1070
   341
1005
8D0F
1070
     6
1000
OPEN
1070
     7
1000
OPEN
1002
}
  0
DIMENSION
  5
8F0A
  8
3
  2
*D9
 10
3470.6624886969771
 20
6803.9506352395547
 30
0.0
 11
4053.1624886969762
 21
6916.4506352395547
 31
0.0
 70
     0
 13
4635.6624886969767
 23
6701.6182492271482
 33
0.0
 14
3470.6624886969771
 24
6605.1196802527538
 34
0.0
1001
ACAD
1000
DSTYLE
1002
{
1070
   287
1070
     3
1070
   287
1070
     3
1070
   287
1070
     3
1070
    40
1040
45.0
1070
   143
1040
0.039
1070
   271
1070
     4
1070
   272
1070
     4
1070
   279
1070
     0
1070
   284
1070
     0
1070
   285
1070
     0
1070
   286
1070
     0
1070
   341
1005
8D0F
1070
     6
1000
OPEN
1070
     7
1000
OPEN
1002
}
  0
DIMENSION
  5
8F0B
  8
3
  2
*D8
 10
1916.662488696976
 20
6803.9506352395547
 30
0.0
 11
2693.6624886969762
 21
6916.4506352395547
 31
0.0
 70
     0
 13
3470.6624886969771
 23
6605.1196802527538
 33
0.0
 14
1916.662488696976
 24
4827.1182492271491
 34
0.0
1001
ACAD
1000
DSTYLE
1002
{
1070
   287
1070
     3
1070
   287
1070
     3
1070
   287
1070
     3
1070
    40
1040
45.0
1070
   143
1040
0.039
1070
   271
1070
     4
1070
   272
1070
     4
1070
   279
1070
     0
1070
   284
1070
     0
1070
   285
1070
     0
1070
   286
1070
     0
1070
   341
1005
8D0F
1070
     6
1000
OPEN
1070
     7
1000
OPEN
1002
}
  0
DIMENSION
  5
8F0C
  8
3
  2
*D17
 10
5254.1979261629913
 20
4767.1182492271491
 30
0.0
 11
5141.6979261629904
 21
5692.2631682271513
 31
0.0
 70
     0
  1
1850
 13
4635.4465216969784
 23
6617.4080872271506
 33
0.0
 14
4635.6624886969767
 24
4767.1182492271491
 34
0.0
 50
90.0
1001
ACAD
1000
DSTYLE
1002
{
1070
   287
1070
     3
1070
   287
1070
     3
1070
   287
1070
     3
1070
    40
1040
45.0
1070
   143
1040
0.039
1070
   271
1070
     4
1070
   272
1070
     4
1070
   279
1070
     0
1070
   284
1070
     0
1070
   285
1070
     0
1070
   286
1070
     0
1070
   341
1005
8D0F
1070
     6
1000
OPEN
1070
     7
1000
OPEN
1002
}
  0
DIMENSION
  5
8F0D
  8
3
  2
*D18
 10
5611.6850221258082
 20
4696.11824922715
 30
0.0
 11
5499.1850221258073
 21
5656.7631682271513
 31
0.0
 70
     0
  1
1921
 13
5254.1979261629913
 23
6617.4080872271506
 33
0.0
 14
4726.9464006507333
 24
4696.11824922715
 34
0.0
 50
90.0
1001
ACAD
1000
DSTYLE
1002
{
1070
   287
1070
     3
1070
   287
1070
     3
1070
   287
1070
     3
1070
    40
1040
45.0
1070
   143
1040
0.039
1070
   271
1070
     4
1070
   272
1070
     4
1070
   279
1070
     0
1070
   284
1070
     0
1070
   285
1070
     0
1070
   286
1070
     0
1070
   341
1005
8D0F
1070
     6
1000
OPEN
1070
     7
1000
OPEN
1002
}
  0
DIMENSION
  5
8F0E
  8
3
  2
*D16
 10
5611.6850221258082
 20
3366.1182492271491
 30
0.0
 11
5499.1850221258073
 21
4031.118249227151
 31
0.0
 70
     0
 13
4726.9464006507333
 23
4696.11824922715
 33
0.0
 14
4530.6624886969748
 24
3366.11824922715
 34
0.0
 50
90.0
1001
ACAD
1000
DSTYLE
1002
{
1070
   287
1070
     3
1070
   287
1070
     3
1070
   287
1070
     3
1070
    40
1040
45.0
1070
   143
1040
0.039
1070
   271
1070
     4
1070
   272
1070
     4
1070
   279
1070
     0
1070
   284
1070
     0
1070
   285
1070
     0
1070
   286
1070
     0
1070
   341
1005
8D0F
1070
     6
1000
OPEN
1070
     7
1000
OPEN
1002
}
  0
LINE
  5
8F12
  8
1
 10
4635.6624886969767
 20
8545.5698250355781
 30
0.0
 11
4635.6624886969767
 21
10003.569825035571
 31
0.0
  0
LINE
  5
8F13
  8
1
 10
1916.662488696976
 20
8614.5698250355763
 30
0.0
 11
1916.662488696976
 21
9934.5698250355781
 31
0.0
  0
LINE
  5
8F14
  8
1
 10
2570.6624886969762
 20
9934.5698250355781
 30
0.0
 11
2570.6624886969762
 21
10069.569825035571
 31
0.0
  0
LINE
  5
8F15
  8
1
 10
4370.6624886969721
 20
9934.5698250355763
 30
0.0
 11
4370.6624886969739
 21
10069.569825035571
 31
0.0
  0
LINE
  5
8F16
  8
1
 10
4435.6624886969748
 20
10069.569825035571
 30
0.0
 11
2505.6624886969748
 21
10069.569825035571
 31
0.0
  0
LINE
  5
8F17
  8
1
 10
6937.6376499999988
 20
6619.2122550463982
 30
0.0
 11
8257.6376500000006
 21
6619.2122550463982
 31
0.0
  0
DIMENSION
  5
8F1B
  8
3
  2
*D21
 10
8257.6376500000006
 20
7025.7316022055966
 30
0.0
 11
7597.6376499999997
 21
7138.2316022055966
 31
0.0
 70
     0
 13
6937.6376499999988
 23
6619.2122550463982
 33
0.0
 14
8257.6376500000006
 24
6619.2122550463982
 34
0.0
1001
ACAD
1000
DSTYLE
1002
{
1070
   287
1070
     4
1070
   287
1070
     4
1070
   287
1070
     4
1070
   287
1070
     4
1070
    40
1040
45.0
1070
   143
1040
0.039
1070
   271
1070
     0
1070
   279
1070
     1
1002
}
  0
DIMENSION
  5
8F1C
  8
3
  2
*D2
 10
5392.145554794959
 20
10013.569825035571
 30
0.0
 11
5279.6455547949581
 21
9088.5698250355745
 31
0.0
 70
     0
 13
4530.6624886969739
 23
8163.5698250355763
 33
0.0
 14
4530.6624886969739
 24
10013.569825035571
 34
0.0
 50
90.0
1001
ACAD
1000
DSTYLE
1002
{
1070
   287
1070
     3
1070
   287
1070
     3
1070
   287
1070
     3
1070
    40
1040
45.0
1070
   143
1040
0.039
1070
   271
1070
     4
1070
   272
1070
     4
1070
   279
1070
     0
1070
   284
1070
     0
1070
   285
1070
     0
1070
   286
1070
     0
1070
   341
1005
8D0F
1070
     6
1000
OPEN
1070
     7
1000
OPEN
1002
}
  0
LINE
  5
8F1D
  8
1
 10
1916.662488696976
 20
9288.5698250355763
 30
0.0
 11
930.66248869697677
 21
9288.5698250355763
 31
0.0
  0
LINE
  5
8F1E
  8
1
 10
4530.6624886969739
 20
8238.5698250355745
 30
0.0
 11
3950.6624886969762
 21
8238.5698250355745
 31
0.0
  0
LINE
  5
8F21
  8
1
 10
4530.6624886969739
 20
9938.5698250355763
 30
0.0
 11
2410.6624886969762
 21
9938.5698250355763
 31
0.0
  0
LINE
  5
8F22
  8
1
 10
2570.6624886969762
 20
10013.569825035571
 30
0.0
 11
2410.6624886969762
 21
10013.569825035571
 31
0.0
  0
LINE
  5
8F23
  8
1
 10
1115.662488696976
 20
8238.5698250355745
 30
0.0
 11
930.66248869697642
 21
8238.5698250355745
 31
0.0
  0
LINE
  5
8F24
  8
1
 10
2410.6624886969762
 20
9934.5698250355781
 30
0.0
 11
2410.6624886969762
 21
10013.569825035571
 31
0.0
  0
LINE
  5
8F25
  8
1
 10
2485.6624886969762
 20
9934.5698250355763
 30
0.0
 11
2485.6624886969771
 21
9938.5698250355781
 31
0.0
  0
LINE
  5
8F26
  8
1
 10
4455.6624886969776
 20
9934.5698250355763
 30
0.0
 11
4455.6624886969748
 21
9938.5698250355781
 31
0.0
  0
LINE
  5
8F27
  8
1
 10
4530.6624886969739
 20
9934.5698250355763
 30
0.0
 11
4530.6624886969739
 21
10013.569825035571
 31
0.0
  0
LINE
  5
9319
  8
1
 10
6937.6376499999988
 20
4769.2122550463964
 30
0.0
 11
8257.6376500000006
 21
4769.2122550463964
 31
0.0
  0
LINE
  5
931B
  8
1
 10
6937.6376499999988
 20
4769.2122550463964
 30
0.0
 11
8257.6376500000006
 21
6619.2122550463964
 31
0.0
  0
LINE
  5
931C
  8
1
 10
8257.6376500000006
 20
4769.2122550463964
 30
0.0
 11
6937.6376499999988
 21
6619.2122550463982
 31
0.0
  0
LINE
  5
931D
  8
1
 10
6868.6376499999978
 20
4700.2122550463973
 30
0.0
 11
6868.6376499999978
 21
6688.2122550463992
 31
0.0
  0
LINE
  5
931E
  8
1
 10
8326.6376499999951
 20
4700.2122550463973
 30
0.0
 11
8326.6376499999951
 21
6688.2122550463982
 31
0.0
  0
LINE
  5
931F
  8
1
 10
6868.6376499999978
 20
6688.2122550463992
 30
0.0
 11
8326.6376499999951
 21
6688.2122550463982
 31
0.0
  0
LINE
  5
9320
  8
1
 10
6868.6376499999978
 20
4700.2122550463973
 30
0.0
 11
8326.6376499999951
 21
4700.2122550463973
 31
0.0
  0
DIMENSION
  5
9609
  8
3
  2
*D23
 10
5611.6850221258082
 20
3196.1182492271491
 30
0.0
 11
5499.1850221258073
 21
2810.4039635128652
 31
0.0
 70
     0
 13
4530.6624886969748
 23
3366.11824922715
 33
0.0
 14
4530.6624886969748
 24
3196.11824922715
 34
0.0
 50
90.0
1001
ACAD
1000
DSTYLE
1002
{
1070
   287
1070
     3
1070
   287
1070
     3
1070
    40
1040
45.0
1070
   143
1040
0.039
1070
   271
1070
     4
1070
   272
1070
     4
1070
   279
1070
     0
1070
   284
1070
     0
1070
   285
1070
     0
1070
   286
1070
     0
1070
   341
1005
8D0F
1070
     6
1000
OPEN
1070
     7
1000
OPEN
1002
}
  0
ENDSEC
  0
EOF
