  0
SECTION
  2
HEADER
  9
$ACADVER
  1
AC1009
  9
$INSBASE
 10
0.0
 20
0.0
 30
0.0
  9
$EXTMIN
 10
0.0
 20
0.0
 30
0.0
  9
$EXTMAX
 10
9450.0
 20
13275.0
 30
0.0
  9
$LIMMIN
 10
0.0
 20
0.0
  9
$LIMMAX
 10
297.0
 20
210.0
  9
$ORTHOMODE
 70
     1
  9
$REGENMODE
 70
     1
  9
$FILLMODE
 70
     0
  9
$QTEXTMODE
 70
     0
  9
$MIRRTEXT
 70
     1
  9
$DRAGMODE
 70
     2
  9
$LTSCALE
 40
100.0
  9
$OSMODE
 70
   545
  9
$ATTMODE
 70
     1
  9
$TEXTSIZE
 40
180.0
  9
$TRACEWID
 40
0.05
  9
$TEXTSTYLE
  7
STANDARD
  9
$CLAYER
  8
3
  9
$CELTYPE
  6
BYLAYER
  9
$CECOLOR
 62
   256
  9
$DIMSCALE
 40
45.0
  9
$DIMASZ
 40
2.0
  9
$DIMEXO
 40
0.5
  9
$DIMDLI
 40
10.0
  9
$DIMRND
 40
0.0
  9
$DIMDLE
 40
0.0
  9
$DIMEXE
 40
1.0
  9
$DIMTP
 40
1.0
  9
$DIMTM
 40
1.0
  9
$DIMTXT
 40
3.0
  9
$DIMCEN
 40
0.0
  9
$DIMTSZ
 40
0.0
  9
$DIMTOL
 70
     0
  9
$DIMLIM
 70
     0
  9
$DIMTIH
 70
     0
  9
$DIMTOH
 70
     0
  9
$DIMSE1
 70
     0
  9
$DIMSE2
 70
     0
  9
$DIMTAD
 70
     1
  9
$DIMZIN
 70
     8
  9
$DIMBLK
  1

  9
$DIMASO
 70
     1
  9
$DIMSHO
 70
     1
  9
$DIMPOST
  1

  9
$DIMAPOST
  1

  9
$DIMALT
 70
     0
  9
$DIMALTD
 70
     2
  9
$DIMALTF
 40
0.039
  9
$DIMLFAC
 40
1.0
  9
$DIMTOFL
 70
     0
  9
$DIMTVP
 40
0.0
  9
$DIMTIX
 70
     0
  9
$DIMSOXD
 70
     0
  9
$DIMSAH
 70
     1
  9
$DIMBLK1
  1
OPEN
  9
$DIMBLK2
  1
OPEN
  9
$DIMSTYLE
  2
IGA
  9
$DIMCLRD
 70
     0
  9
$DIMCLRE
 70
     0
  9
$DIMCLRT
 70
     0
  9
$DIMTFAC
 40
10.0
  9
$DIMGAP
 40
1.0
  9
$LUNITS
 70
     2
  9
$LUPREC
 70
     3
  9
$SKETCHINC
 40
0.1
  9
$FILLETRAD
 40
50.0
  9
$AUNITS
 70
     0
  9
$AUPREC
 70
     0
  9
$MENU
  1
acad
  9
$ELEVATION
 40
0.0
  9
$PELEVATION
 40
0.0
  9
$THICKNESS
 40
0.0
  9
$LIMCHECK
 70
     0
  9
$BLIPMODE
 70
     0
  9
$CHAMFERA
 40
0.5
  9
$CHAMFERB
 40
0.5
  9
$SKPOLY
 70
     0
  9
$TDCREATE
 40
2451845.4205035879
  9
$TDUPDATE
 40
2455013.7323356019
  9
$TDINDWG
 40
0.0768776736
  9
$TDUSRTIMER
 40
0.0768773148
  9
$USRTIMER
 70
     1
  9
$ANGBASE
 50
0.0
  9
$ANGDIR
 70
     0
  9
$PDMODE
 70
     0
  9
$PDSIZE
 40
0.0
  9
$PLINEWID
 40
0.0
  9
$COORDS
 70
     2
  9
$SPLFRAME
 70
     0
  9
$SPLINETYPE
 70
     6
  9
$SPLINESEGS
 70
     8
  9
$ATTDIA
 70
     0
  9
$ATTREQ
 70
     1
  9
$HANDLING
 70
 22529
  9
$HANDSEED
  5
A194
  9
$SURFTAB1
 70
     6
  9
$SURFTAB2
 70
     6
  9
$SURFTYPE
 70
     6
  9
$SURFU
 70
     6
  9
$SURFV
 70
     6
  9
$UCSNAME
  2

  9
$UCSORG
 10
0.0
 20
0.0
 30
0.0
  9
$UCSXDIR
 10
1.0
 20
0.0
 30
0.0
  9
$UCSYDIR
 10
0.0
 20
1.0
 30
0.0
  9
$PUCSNAME
  2

  9
$PUCSORG
 10
0.0
 20
0.0
 30
0.0
  9
$PUCSXDIR
 10
1.0
 20
0.0
 30
0.0
  9
$PUCSYDIR
 10
0.0
 20
1.0
 30
0.0
  9
$USERI1
 70
     0
  9
$USERI2
 70
     0
  9
$USERI3
 70
     0
  9
$USERI4
 70
     0
  9
$USERI5
 70
     0
  9
$USERR1
 40
0.0
  9
$USERR2
 40
0.0
  9
$USERR3
 40
0.0
  9
$USERR4
 40
0.0
  9
$USERR5
 40
0.0
  9
$WORLDVIEW
 70
     1
  9
$SHADEDGE
 70
     3
  9
$SHADEDIF
 70
    70
  9
$TILEMODE
 70
     1
  9
$MAXACTVP
 70
    16
  9
$PLIMCHECK
 70
     0
  9
$PEXTMIN
 10
1.0000000000000000E+020
 20
1.0000000000000000E+020
 30
1.0000000000000000E+020
  9
$PEXTMAX
 10
-1.0000000000000000E+020
 20
-1.0000000000000000E+020
 30
-1.0000000000000000E+020
  9
$PLIMMIN
 10
0.0
 20
0.0
  9
$PLIMMAX
 10
12.0
 20
9.0
  9
$UNITMODE
 70
     0
  9
$VISRETAIN
 70
     0
  9
$PLINEGEN
 70
     0
  9
$PSLTSCALE
 70
     1
  0
ENDSEC
  0
SECTION
  2
TABLES
  0
TABLE
  2
VPORT
 70
     2
  0
VPORT
  2
*ACTIVE
 70
     0
 10
0.0
 20
0.0
 11
1.0
 21
1.0
 12
5642.2139554681344
 22
6637.5000309082689
 13
0.0
 23
0.0
 14
10.0
 24
10.0
 15
10.0
 25
10.0
 16
0.0
 26
0.0
 36
1.0
 17
0.0
 27
0.0
 37
0.0
 40
13376.766973576199
 41
1.6307901907356941
 42
50.0
 43
0.0
 44
0.0
 50
0.0
 51
0.0
 71
     0
 72
   100
 73
     1
 74
     0
 75
     0
 76
     0
 77
     0
 78
     0
  0
ENDTAB
  0
TABLE
  2
LTYPE
 70
     2
  0
LTYPE
  2
CONTINUOUS
 70
     0
  3
Solid line
 72
    65
 73
     0
 40
0.0
  0
LTYPE
  2
CENTER
 70
     0
  3
____ _ ____ _ ____ _ ____ _ ____ _ ____ _ ____ 
 72
    65
 73
     4
 40
2.0
 49
1.25
 49
-0.25
 49
0.25
 49
-0.25
  0
ENDTAB
  0
TABLE
  2
LAYER
 70
     6
  0
LAYER
  2
0
 70
     0
 62
     7
  6
CONTINUOUS
  0
LAYER
  2
3
 70
     0
 62
     2
  6
CONTINUOUS
  0
LAYER
  2
2
 70
     0
 62
     3
  6
CENTER
  0
LAYER
  2
1
 70
     0
 62
     4
  6
CONTINUOUS
  0
LAYER
  2
4
 70
     0
 62
     7
  6
CONTINUOUS
  0
LAYER
  2
DEFPOINTS
 70
     0
 62
     7
  6
CONTINUOUS
  0
ENDTAB
  0
TABLE
  2
STYLE
 70
     1
  0
STYLE
  2
STANDARD
 70
     0
 40
0.0
 41
1.0
 50
0.0
 71
     0
 42
180.0
  3
simplex.shx
  4
extfont.shx
  0
ENDTAB
  0
TABLE
  2
VIEW
 70
     0
  0
ENDTAB
  0
TABLE
  2
UCS
 70
     0
  0
ENDTAB
  0
TABLE
  2
APPID
 70
     1
  0
APPID
  2
ACAD
 70
     0
  0
ENDTAB
  0
TABLE
  2
DIMSTYLE
 70
     1
  0
DIMSTYLE
  2
IGA
 70
     0
  3

  4

  5

  6

  7

 40
2.0
 41
2.0
 42
0.5
 43
10.0
 44
1.0
 45
0.0
 46
0.0
 47
1.0
 48
1.0
140
3.0
141
0.0
142
0.0
143
0.03937
144
1.0
145
0.0
146
10.0
147
1.0
 71
     0
 72
     0
 73
     0
 74
     0
 75
     0
 76
     0
 77
     1
 78
     8
170
     0
171
     2
172
     0
173
     1
174
     0
175
     0
176
     0
177
     0
178
     0
  0
ENDTAB
  0
ENDSEC
  0
SECTION
  2
BLOCKS
  0
BLOCK
  8
0
  2
$MODEL_SPACE
 70
     0
 10
0.0
 20
0.0
 30
0.0
  3
$MODEL_SPACE
  1

  0
ENDBLK
  5
8CFA
  8
0
  0
BLOCK
 67
     1
  8
0
  2
$PAPER_SPACE
 70
     0
 10
0.0
 20
0.0
 30
0.0
  3
$PAPER_SPACE
  1

  0
ENDBLK
  5
8CF6
 67
     1
  8
0
  0
BLOCK
  8
0
  2
YA_N
 70
     0
 10
0.0
 20
0.0
 30
0.0
  3
YA_N
  1

  0
ENDBLK
  5
8D0E
  8
0
  0
BLOCK
  8
0
  2
_OPEN
 70
     0
 10
0.0
 20
0.0
 30
0.0
  3
_OPEN
  1

  0
LINE
  5
8D11
  8
0
  6
BYBLOCK
 62
     0
 10
-1.0
 20
0.166667
 30
0.0
 11
0.0
 21
0.0
 31
0.0
  0
LINE
  5
8D12
  8
0
  6
BYBLOCK
 62
     0
 10
0.0
 20
0.0
 30
0.0
 11
-1.0
 21
-0.166667
 31
0.0
  0
LINE
  5
8D13
  8
0
  6
BYBLOCK
 62
     0
 10
0.0
 20
0.0
 30
0.0
 11
-1.0
 21
0.0
 31
0.0
  0
ENDBLK
  5
8D14
  8
0
  0
BLOCK
  8
0
  2
*D2
 70
     1
 10
0.0
 20
0.0
 30
0.0
  3
*D2
  1

  0
LINE
  5
A16B
  8
3
 62
     0
 10
1787.852123945818
 20
8163.5698250355763
 30
0.0
 11
903.86905784783391
 21
8163.5698250355763
 31
0.0
  0
LINE
  5
A16C
  8
3
 62
     0
 10
1787.852123945818
 20
10013.569825035571
 30
0.0
 11
903.86905784783448
 21
10013.569825035571
 31
0.0
  0
LINE
  5
A16D
  8
3
 62
     0
 10
948.86905784783403
 20
8253.5698250355763
 30
0.0
 11
948.86905784783437
 21
9923.5698250355726
 31
0.0
  0
INSERT
  5
A16E
  8
3
 62
     0
  2
_OPEN
 10
948.86905784783403
 20
8163.5698250355763
 30
0.0
 41
90.0
 42
90.0
 43
90.0
 50
270.0
  0
INSERT
  5
A16F
  8
3
 62
     0
  2
_OPEN
 10
948.86905784783437
 20
10013.569825035571
 30
0.0
 41
90.0
 42
90.0
 43
90.0
 50
90.0
  0
TEXT
  8
3
  40
135
  5
A17E
  62
0
  72
0
  71
0
 10
566.369
 20
8849.62
 30
0.000000
  1
1850
  0
POINT
  5
A171
  8
DEFPOINTS
 62
     0
 10
1810.352123945818
 20
8163.5698250355763
 30
0.0
  0
POINT
  5
A172
  8
DEFPOINTS
 62
     0
 10
1810.352123945818
 20
10013.569825035571
 30
0.0
  0
POINT
  5
A173
  8
DEFPOINTS
 62
     0
 10
948.86905784783437
 20
10013.569825035571
 30
0.0
  0
ENDBLK
  5
908C
  8
0
  0
BLOCK
  8
0
  2
*D3
 70
     1
 10
0.0
 20
0.0
 30
0.0
  3
*D3
  1

  0
LINE
  5
A0B8
  8
3
 62
     0
 10
1810.352123945818
 20
10036.069825035571
 30
0.0
 11
1810.352123945818
 21
10365.822061390931
 31
0.0
  0
LINE
  5
A0B9
  8
3
 62
     0
 10
3930.3521239458169
 20
10036.069825035571
 30
0.0
 11
3930.3521239458169
 21
10365.822061390931
 31
0.0
  0
LINE
  5
A0BA
  8
3
 62
     0
 10
1900.352123945818
 20
10320.822061390931
 30
0.0
 11
3840.3521239458169
 21
10320.822061390931
 31
0.0
  0
INSERT
  5
A0BB
  8
3
 62
     0
  2
_OPEN
 10
1810.352123945818
 20
10320.822061390931
 30
0.0
 41
90.0
 42
90.0
 43
90.0
 50
180.0
  0
INSERT
  5
A0BC
  8
3
 62
     0
  2
_OPEN
 10
3930.3521239458169
 20
10320.822061390931
 30
0.0
 41
90.0
 42
90.0
 43
90.0
  0
TEXT
  8
3
  40
135
  5
A17F
  62
0
  72
0
  71
0
 10
2607.42
 20
10194.4
 30
0.000000
  1
2120
  0
POINT
  5
A0BE
  8
DEFPOINTS
 62
     0
 10
1810.352123945818
 20
10013.569825035571
 30
0.0
  0
POINT
  5
A0BF
  8
DEFPOINTS
 62
     0
 10
3930.3521239458169
 20
10013.569825035571
 30
0.0
  0
POINT
  5
A0C0
  8
DEFPOINTS
 62
     0
 10
3930.3521239458169
 20
10320.822061390931
 30
0.0
  0
ENDBLK
  5
9098
  8
0
  0
BLOCK
  8
0
  2
*D4
 70
     1
 10
0.0
 20
0.0
 30
0.0
  3
*D4
  1

  0
LINE
  5
A0C1
  8
3
 62
     0
 10
3930.3521239458169
 20
10036.069825035571
 30
0.0
 11
3930.3521239458169
 21
10365.822061390931
 31
0.0
  0
LINE
  5
A0C2
  8
3
 62
     0
 10
5410.3521239458159
 20
9386.0698250355745
 30
0.0
 11
5410.3521239458159
 21
10365.822061390931
 31
0.0
  0
LINE
  5
A0C3
  8
3
 62
     0
 10
4020.3521239458169
 20
10320.822061390931
 30
0.0
 11
5320.3521239458159
 21
10320.822061390931
 31
0.0
  0
INSERT
  5
A0C4
  8
3
 62
     0
  2
_OPEN
 10
3930.3521239458169
 20
10320.822061390931
 30
0.0
 41
90.0
 42
90.0
 43
90.0
 50
180.0
  0
INSERT
  5
A0C5
  8
3
 62
     0
  2
_OPEN
 10
5410.3521239458159
 20
10320.822061390931
 30
0.0
 41
90.0
 42
90.0
 43
90.0
  0
TEXT
  8
3
  40
135
  5
A180
  62
0
  72
0
  71
0
 10
4400.35
 20
10194.4
 30
0.000000
  1
1480
  0
POINT
  5
A0C7
  8
DEFPOINTS
 62
     0
 10
3930.3521239458169
 20
10013.569825035571
 30
0.0
  0
POINT
  5
A0C8
  8
DEFPOINTS
 62
     0
 10
5410.3521239458159
 20
9363.5698250355745
 30
0.0
  0
POINT
  5
A0C9
  8
DEFPOINTS
 62
     0
 10
5410.3521239458159
 20
10320.822061390931
 30
0.0
  0
ENDBLK
  5
90A4
  8
0
  0
BLOCK
  8
0
  2
*D5
 70
     1
 10
0.0
 20
0.0
 30
0.0
  3
*D5
  1

  0
LINE
  5
A0D3
  8
3
 62
     0
 10
5410.3521239458159
 20
8141.0698250355772
 30
0.0
 11
5410.3521239458159
 21
7637.284521137195
 31
0.0
  0
LINE
  5
A0D4
  8
3
 62
     0
 10
1810.352123945818
 20
8141.0698250355772
 30
0.0
 11
1810.352123945818
 21
7637.284521137195
 31
0.0
  0
LINE
  5
A0D5
  8
3
 62
     0
 10
5320.3521239458159
 20
7682.284521137195
 30
0.0
 11
1900.352123945818
 21
7682.284521137195
 31
0.0
  0
INSERT
  5
A0D6
  8
3
 62
     0
  2
_OPEN
 10
5410.3521239458159
 20
7682.284521137195
 30
0.0
 41
90.0
 42
90.0
 43
90.0
  0
INSERT
  5
A0D7
  8
3
 62
     0
  2
_OPEN
 10
1810.352123945818
 20
7682.284521137195
 30
0.0
 41
90.0
 42
90.0
 43
90.0
 50
180.0
  0
TEXT
  8
3
  40
135
  5
A181
  62
0
  72
0
  71
0
 10
3100.33
 20
7555.83
 30
0.000000
  1
3600
  0
POINT
  5
A0D9
  8
DEFPOINTS
 62
     0
 10
5410.3521239458159
 20
8163.5698250355763
 30
0.0
  0
POINT
  5
A0DA
  8
DEFPOINTS
 62
     0
 10
1810.352123945818
 20
8163.5698250355763
 30
0.0
  0
POINT
  5
A0DB
  8
DEFPOINTS
 62
     0
 10
1810.352123945818
 20
7682.284521137195
 30
0.0
  0
ENDBLK
  5
90B0
  8
0
  0
BLOCK
  8
0
  2
*D6
 70
     1
 10
0.0
 20
0.0
 30
0.0
  3
*D6
  1

  0
LINE
  5
A0CA
  8
3
 62
     0
 10
5432.8521239458169
 20
9363.5698250355745
 30
0.0
 11
5697.4841719458182
 21
9363.5698250355745
 31
0.0
  0
LINE
  5
A0CB
  8
3
 62
     0
 10
5432.8521239458169
 20
8163.5698250355763
 30
0.0
 11
5697.4841719458182
 21
8163.5698250355763
 31
0.0
  0
LINE
  5
A0CC
  8
3
 62
     0
 10
5652.4841719458182
 20
9273.5698250355763
 30
0.0
 11
5652.4841719458182
 21
8253.5698250355763
 31
0.0
  0
INSERT
  5
A0CD
  8
3
 62
     0
  2
_OPEN
 10
5652.4841719458182
 20
9363.5698250355745
 30
0.0
 41
90.0
 42
90.0
 43
90.0
 50
90.0
  0
INSERT
  5
A0CE
  8
3
 62
     0
  2
_OPEN
 10
5652.4841719458182
 20
8163.5698250355763
 30
0.0
 41
90.0
 42
90.0
 43
90.0
 50
270.0
  0
TEXT
  8
3
  40
135
  5
A182
  62
0
  72
0
  71
0
 10
5269.98
 20
8518.33
 30
0.000000
  1
1200
  0
POINT
  5
A0D0
  8
DEFPOINTS
 62
     0
 10
5410.3521239458159
 20
9363.5698250355745
 30
0.0
  0
POINT
  5
A0D1
  8
DEFPOINTS
 62
     0
 10
5410.3521239458159
 20
8163.5698250355763
 30
0.0
  0
POINT
  5
A0D2
  8
DEFPOINTS
 62
     0
 10
5652.4841719458182
 20
8163.5698250355763
 30
0.0
  0
ENDBLK
  5
90BC
  8
0
  0
BLOCK
  8
0
  2
*D7
 70
     1
 10
0.0
 20
0.0
 30
0.0
  3
*D7
  1

  0
LINE
  5
A12C
  8
3
 62
     0
 10
5410.3521239458159
 20
3538.61824922715
 30
0.0
 11
5410.3521239458159
 21
7188.7320504162926
 31
0.0
  0
LINE
  5
A12D
  8
3
 62
     0
 10
1705.3521239458171
 20
6701.6182492271482
 30
0.0
 11
1705.3521239458171
 21
7188.7320504162926
 31
0.0
  0
LINE
  5
A12E
  8
3
 62
     0
 10
5320.3521239458159
 20
7143.7320504162926
 30
0.0
 11
1795.3521239458171
 21
7143.7320504162926
 31
0.0
  0
INSERT
  5
A12F
  8
3
 62
     0
  2
_OPEN
 10
5410.3521239458159
 20
7143.7320504162926
 30
0.0
 41
90.0
 42
90.0
 43
90.0
  0
INSERT
  5
A130
  8
3
 62
     0
  2
_OPEN
 10
1705.3521239458171
 20
7143.7320504162926
 30
0.0
 41
90.0
 42
90.0
 43
90.0
 50
180.0
  0
TEXT
  8
3
  40
135
  5
A183
  62
0
  72
0
  71
0
 10
3287.85
 20
7017.28
 30
0.000000
  1
3705
  0
POINT
  5
A132
  8
DEFPOINTS
 62
     0
 10
5410.3521239458159
 20
3516.11824922715
 30
0.0
  0
POINT
  5
A133
  8
DEFPOINTS
 62
     0
 10
1705.3521239458171
 20
6679.1182492271491
 30
0.0
  0
POINT
  5
A134
  8
DEFPOINTS
 62
     0
 10
1705.3521239458171
 20
7143.7320504162926
 30
0.0
  0
ENDBLK
  5
90C8
  8
0
  0
BLOCK
  8
0
  2
*D8
 70
     1
 10
0.0
 20
0.0
 30
0.0
  3
*D8
  1

  0
LINE
  5
A13E
  8
3
 62
     0
 10
2870.3521239458159
 20
6627.6196802527529
 30
0.0
 11
2870.3521239458159
 21
6848.9506352395547
 31
0.0
  0
LINE
  5
A13F
  8
3
 62
     0
 10
4424.3521239458169
 20
4849.6182492271491
 30
0.0
 11
4424.3521239458169
 21
6848.9506352395547
 31
0.0
  0
LINE
  5
A140
  8
3
 62
     0
 10
2960.3521239458159
 20
6803.9506352395547
 30
0.0
 11
4334.3521239458178
 21
6803.9506352395547
 31
0.0
  0
INSERT
  5
A141
  8
3
 62
     0
  2
_OPEN
 10
2870.3521239458159
 20
6803.9506352395547
 30
0.0
 41
90.0
 42
90.0
 43
90.0
 50
180.0
  0
INSERT
  5
A142
  8
3
 62
     0
  2
_OPEN
 10
4424.3521239458169
 20
6803.9506352395547
 30
0.0
 41
90.0
 42
90.0
 43
90.0
  0
TEXT
  8
3
  40
135
  5
A184
  62
0
  72
0
  71
0
 10
3377.35
 20
6677.50
 30
0.000000
  1
1554
  0
POINT
  5
A144
  8
DEFPOINTS
 62
     0
 10
2870.3521239458159
 20
6605.1196802527538
 30
0.0
  0
POINT
  5
A145
  8
DEFPOINTS
 62
     0
 10
4424.3521239458169
 20
4827.1182492271491
 30
0.0
  0
POINT
  5
A146
  8
DEFPOINTS
 62
     0
 10
4424.3521239458169
 20
6803.9506352395547
 30
0.0
  0
ENDBLK
  5
90D4
  8
0
  0
BLOCK
  8
0
  2
*D9
 70
     1
 10
0.0
 20
0.0
 30
0.0
  3
*D9
  1

  0
LINE
  5
A135
  8
3
 62
     0
 10
1705.3521239458171
 20
6724.1182492271482
 30
0.0
 11
1705.3521239458171
 21
6848.9506352395547
 31
0.0
  0
LINE
  5
A136
  8
3
 62
     0
 10
2870.3521239458159
 20
6627.6196802527529
 30
0.0
 11
2870.3521239458159
 21
6848.9506352395547
 31
0.0
  0
LINE
  5
A137
  8
3
 62
     0
 10
1795.3521239458171
 20
6803.9506352395547
 30
0.0
 11
2780.3521239458159
 21
6803.9506352395547
 31
0.0
  0
INSERT
  5
A138
  8
3
 62
     0
  2
_OPEN
 10
1705.3521239458171
 20
6803.9506352395547
 30
0.0
 41
90.0
 42
90.0
 43
90.0
 50
180.0
  0
INSERT
  5
A139
  8
3
 62
     0
  2
_OPEN
 10
2870.3521239458159
 20
6803.9506352395547
 30
0.0
 41
90.0
 42
90.0
 43
90.0
  0
TEXT
  8
3
  40
135
  5
A185
  62
0
  72
0
  71
0
 10
2017.85
 20
6677.50
 30
0.000000
  1
1165
  0
POINT
  5
A13B
  8
DEFPOINTS
 62
     0
 10
1705.3521239458171
 20
6701.6182492271482
 30
0.0
  0
POINT
  5
A13C
  8
DEFPOINTS
 62
     0
 10
2870.3521239458159
 20
6605.1196802527538
 30
0.0
  0
POINT
  5
A13D
  8
DEFPOINTS
 62
     0
 10
2870.3521239458159
 20
6803.9506352395547
 30
0.0
  0
ENDBLK
  5
90E0
  8
0
  0
BLOCK
  8
0
  2
*D10
 70
     1
 10
0.0
 20
0.0
 30
0.0
  3
*D10
  1

  0
LINE
  5
A11A
  8
3
 62
     0
 10
5410.3521239458159
 20
3173.61824922715
 30
0.0
 11
5410.3521239458159
 21
2570.808258764207
 31
0.0
  0
LINE
  5
A11B
  8
3
 62
     0
 10
2870.3521239458169
 20
3065.968998015067
 30
0.0
 11
2870.3521239458169
 21
2570.808258764207
 31
0.0
  0
LINE
  5
A11C
  8
3
 62
     0
 10
5320.3521239458159
 20
2615.808258764207
 30
0.0
 11
2960.3521239458169
 21
2615.808258764207
 31
0.0
  0
INSERT
  5
A11D
  8
3
 62
     0
  2
_OPEN
 10
5410.3521239458159
 20
2615.808258764207
 30
0.0
 41
90.0
 42
90.0
 43
90.0
  0
INSERT
  5
A11E
  8
3
 62
     0
  2
_OPEN
 10
2870.3521239458169
 20
2615.808258764207
 30
0.0
 41
90.0
 42
90.0
 43
90.0
 50
180.0
  0
TEXT
  8
3
  40
135
  5
A186
  62
0
  72
0
  71
0
 10
3638.28
 20
2489.36
 30
0.000000
  1
2540
  0
POINT
  5
A120
  8
DEFPOINTS
 62
     0
 10
5410.3521239458159
 20
3196.11824922715
 30
0.0
  0
POINT
  5
A121
  8
DEFPOINTS
 62
     0
 10
2870.3521239458169
 20
3088.468998015067
 30
0.0
  0
POINT
  5
A122
  8
DEFPOINTS
 62
     0
 10
2870.3521239458169
 20
2615.808258764207
 30
0.0
  0
ENDBLK
  5
90EC
  8
0
  0
BLOCK
  8
0
  2
*D11
 70
     1
 10
0.0
 20
0.0
 30
0.0
  3
*D11
  1

  0
LINE
  5
A123
  8
3
 62
     0
 10
2870.3521239458169
 20
3065.968998015067
 30
0.0
 11
2870.3521239458169
 21
2570.808258764207
 31
0.0
  0
LINE
  5
A124
  8
3
 62
     0
 10
1810.352123945818
 20
3173.61824922715
 30
0.0
 11
1810.352123945818
 21
2570.808258764207
 31
0.0
  0
LINE
  5
A125
  8
3
 62
     0
 10
2780.3521239458169
 20
2615.808258764207
 30
0.0
 11
1900.3521239458171
 21
2615.808258764207
 31
0.0
  0
INSERT
  5
A126
  8
3
 62
     0
  2
_OPEN
 10
2870.3521239458169
 20
2615.808258764207
 30
0.0
 41
90.0
 42
90.0
 43
90.0
  0
INSERT
  5
A127
  8
3
 62
     0
  2
_OPEN
 10
1810.352123945818
 20
2615.808258764207
 30
0.0
 41
90.0
 42
90.0
 43
90.0
 50
180.0
  0
TEXT
  8
3
  40
135
  5
A187
  62
0
  72
0
  71
0
 10
2070.35
 20
2489.36
 30
0.000000
  1
1060
  0
POINT
  5
A129
  8
DEFPOINTS
 62
     0
 10
2870.3521239458169
 20
3088.468998015067
 30
0.0
  0
POINT
  5
A12A
  8
DEFPOINTS
 62
     0
 10
1810.352123945818
 20
3196.11824922715
 30
0.0
  0
POINT
  5
A12B
  8
DEFPOINTS
 62
     0
 10
1810.352123945818
 20
2615.808258764207
 30
0.0
  0
ENDBLK
  5
90F8
  8
0
  0
BLOCK
  8
0
  2
*D12
 70
     1
 10
0.0
 20
0.0
 30
0.0
  3
*D12
  1

  0
LINE
  5
A111
  8
3
 62
     0
 10
5410.3521239458159
 20
3173.61824922715
 30
0.0
 11
5410.3521239458159
 21
2245.3561467642062
 31
0.0
  0
LINE
  5
A112
  8
3
 62
     0
 10
1810.352123945818
 20
3173.61824922715
 30
0.0
 11
1810.352123945818
 21
2245.3561467642062
 31
0.0
  0
LINE
  5
A113
  8
3
 62
     0
 10
5320.3521239458159
 20
2290.3561467642062
 30
0.0
 11
1900.3521239458171
 21
2290.3561467642062
 31
0.0
  0
INSERT
  5
A114
  8
3
 62
     0
  2
_OPEN
 10
5410.3521239458159
 20
2290.3561467642062
 30
0.0
 41
90.0
 42
90.0
 43
90.0
  0
INSERT
  5
A115
  8
3
 62
     0
  2
_OPEN
 10
1810.352123945818
 20
2290.3561467642062
 30
0.0
 41
90.0
 42
90.0
 43
90.0
 50
180.0
  0
TEXT
  8
3
  40
135
  5
A188
  62
0
  72
0
  71
0
 10
3035.14
 20
2163.91
 30
0.000000
  1
3600
  0
POINT
  5
A117
  8
DEFPOINTS
 62
     0
 10
5410.3521239458159
 20
3196.11824922715
 30
0.0
  0
POINT
  5
A118
  8
DEFPOINTS
 62
     0
 10
1810.352123945818
 20
3196.11824922715
 30
0.0
  0
POINT
  5
A119
  8
DEFPOINTS
 62
     0
 10
1810.352123945818
 20
2290.3561467642062
 30
0.0
  0
ENDBLK
  5
9104
  8
0
  0
BLOCK
  8
0
  2
*D13
 70
     1
 10
0.0
 20
0.0
 30
0.0
  3
*D13
  1

  0
LINE
  5
A0DC
  8
3
 62
     0
 10
6486.6376499999997
 20
3173.61824922715
 30
0.0
 11
6486.6376499999997
 21
2508.582059511094
 31
0.0
  0
LINE
  5
A0DD
  8
3
 62
     0
 10
7597.6376499999988
 20
3137.8522598524719
 30
0.0
 11
7597.6376499999988
 21
2508.582059511094
 31
0.0
  0
LINE
  5
A0DE
  8
3
 62
     0
 10
6576.6376499999988
 20
2553.582059511094
 30
0.0
 11
7507.6376499999978
 21
2553.582059511094
 31
0.0
  0
INSERT
  5
A0DF
  8
3
 62
     0
  2
_OPEN
 10
6486.6376499999997
 20
2553.582059511094
 30
0.0
 41
90.0
 42
90.0
 43
90.0
 50
180.0
  0
INSERT
  5
A0E0
  8
3
 62
     0
  2
_OPEN
 10
7597.6376499999988
 20
2553.582059511094
 30
0.0
 41
90.0
 42
90.0
 43
90.0
  0
TEXT
  8
3
  40
135
  5
A189
  62
0
  72
0
  71
0
 10
6794.64
 20
2427.13
 30
0.000000
  1
1111
  0
POINT
  5
A0E2
  8
DEFPOINTS
 62
     0
 10
6486.6376499999997
 20
3196.11824922715
 30
0.0
  0
POINT
  5
A0E3
  8
DEFPOINTS
 62
     0
 10
7597.6376499999988
 20
3160.3522598524719
 30
0.0
  0
POINT
  5
A0E4
  8
DEFPOINTS
 62
     0
 10
7597.6376499999988
 20
2553.582059511094
 30
0.0
  0
ENDBLK
  5
9146
  8
0
  0
BLOCK
  8
0
  2
*D14
 70
     1
 10
0.0
 20
0.0
 30
0.0
  3
*D14
  1

  0
LINE
  5
A0E5
  8
3
 62
     0
 10
7597.6376499999988
 20
3137.8522598524719
 30
0.0
 11
7597.6376499999988
 21
2508.582059511094
 31
0.0
  0
LINE
  5
A0E6
  8
3
 62
     0
 10
8336.6376500000006
 20
3173.61824922715
 30
0.0
 11
8336.6376500000006
 21
2508.582059511094
 31
0.0
  0
LINE
  5
A0E7
  8
3
 62
     0
 10
7687.6376499999978
 20
2553.582059511094
 30
0.0
 11
8246.6376500000024
 21
2553.582059511094
 31
0.0
  0
INSERT
  5
A0E8
  8
3
 62
     0
  2
_OPEN
 10
7597.6376499999988
 20
2553.582059511094
 30
0.0
 41
90.0
 42
90.0
 43
90.0
 50
180.0
  0
INSERT
  5
A0E9
  8
3
 62
     0
  2
_OPEN
 10
8336.6376500000006
 20
2553.582059511094
 30
0.0
 41
90.0
 42
90.0
 43
90.0
  0
TEXT
  8
3
  40
135
  5
A18A
  62
0
  72
0
  71
0
 10
7697.14
 20
2427.13
 30
0.000000
  1
739
  0
POINT
  5
A0EB
  8
DEFPOINTS
 62
     0
 10
7597.6376499999988
 20
3160.3522598524719
 30
0.0
  0
POINT
  5
A0EC
  8
DEFPOINTS
 62
     0
 10
8336.6376500000006
 20
3196.11824922715
 30
0.0
  0
POINT
  5
A0ED
  8
DEFPOINTS
 62
     0
 10
8336.6376500000006
 20
2553.582059511094
 30
0.0
  0
ENDBLK
  5
9152
  8
0
  0
BLOCK
  8
0
  2
*D15
 70
     1
 10
0.0
 20
0.0
 30
0.0
  3
*D15
  1

  0
LINE
  5
A0EE
  8
3
 62
     0
 10
6486.6376499999997
 20
3173.61824922715
 30
0.0
 11
6486.6376499999997
 21
2158.232012947351
 31
0.0
  0
LINE
  5
A0EF
  8
3
 62
     0
 10
8336.6376500000006
 20
3173.61824922715
 30
0.0
 11
8336.6376500000006
 21
2158.232012947351
 31
0.0
  0
LINE
  5
A0F0
  8
3
 62
     0
 10
6576.6376499999988
 20
2203.232012947351
 30
0.0
 11
8246.6376500000024
 21
2203.232012947351
 31
0.0
  0
INSERT
  5
A0F1
  8
3
 62
     0
  2
_OPEN
 10
6486.6376499999997
 20
2203.232012947351
 30
0.0
 41
90.0
 42
90.0
 43
90.0
 50
180.0
  0
INSERT
  5
A0F2
  8
3
 62
     0
  2
_OPEN
 10
8336.6376500000006
 20
2203.232012947351
 30
0.0
 41
90.0
 42
90.0
 43
90.0
  0
TEXT
  8
3
  40
135
  5
A18B
  62
0
  72
0
  71
0
 10
7216.83
 20
2076.78
 30
0.000000
  1
1850
  0
POINT
  5
A0F4
  8
DEFPOINTS
 62
     0
 10
6486.6376499999997
 20
3196.11824922715
 30
0.0
  0
POINT
  5
A0F5
  8
DEFPOINTS
 62
     0
 10
8336.6376500000006
 20
3196.11824922715
 30
0.0
  0
POINT
  5
A0F6
  8
DEFPOINTS
 62
     0
 10
8336.6376500000006
 20
2203.232012947351
 30
0.0
  0
ENDBLK
  5
915E
  8
0
  0
BLOCK
  8
0
  2
*D16
 70
     1
 10
0.0
 20
0.0
 30
0.0
  3
*D16
  1

  0
LINE
  5
A159
  8
3
 62
     0
 10
1591.56821199206
 20
4696.11824922715
 30
0.0
 11
684.32959051698538
 21
4696.11824922715
 31
0.0
  0
LINE
  5
A15A
  8
3
 62
     0
 10
1787.8521239458171
 20
3366.11824922715
 30
0.0
 11
684.32959051698538
 21
3366.118249227151
 31
0.0
  0
LINE
  5
A15B
  8
3
 62
     0
 10
729.32959051698549
 20
4606.11824922715
 30
0.0
 11
729.32959051698515
 21
3456.11824922715
 31
0.0
  0
INSERT
  5
A15C
  8
3
 62
     0
  2
_OPEN
 10
729.32959051698549
 20
4696.11824922715
 30
0.0
 41
90.0
 42
90.0
 43
90.0
 50
90.0
  0
INSERT
  5
A15D
  8
3
 62
     0
  2
_OPEN
 10
729.32959051698515
 20
3366.118249227151
 30
0.0
 41
90.0
 42
90.0
 43
90.0
 50
270.0
  0
TEXT
  8
3
  40
135
  5
A18C
  62
0
  72
0
  71
0
 10
346.830
 20
3792.17
 30
0.000000
  1
1330
  0
POINT
  5
A15F
  8
DEFPOINTS
 62
     0
 10
1614.06821199206
 20
4696.11824922715
 30
0.0
  0
POINT
  5
A160
  8
DEFPOINTS
 62
     0
 10
1810.352123945818
 20
3366.11824922715
 30
0.0
  0
POINT
  5
A161
  8
DEFPOINTS
 62
     0
 10
729.32959051698515
 20
3366.118249227151
 30
0.0
  0
ENDBLK
  5
9176
  8
0
  0
BLOCK
  8
0
  2
*D17
 70
     1
 10
0.0
 20
0.0
 30
0.0
  3
*D17
  1

  0
LINE
  5
A147
  8
3
 62
     0
 10
1683.0680909458149
 20
6617.4080872271506
 30
0.0
 11
1041.8166864798029
 21
6617.4080872271506
 31
0.0
  0
LINE
  5
A148
  8
3
 62
     0
 10
1682.8521239458159
 20
4767.1182492271491
 30
0.0
 11
1041.8166864798029
 21
4767.1182492271491
 31
0.0
  0
LINE
  5
A149
  8
3
 62
     0
 10
1086.8166864798029
 20
6527.4080872271506
 30
0.0
 11
1086.8166864798029
 21
4857.1182492271482
 31
0.0
  0
INSERT
  5
A14A
  8
3
 62
     0
  2
_OPEN
 10
1086.8166864798029
 20
6617.4080872271506
 30
0.0
 41
90.0
 42
90.0
 43
90.0
 50
90.0
  0
INSERT
  5
A14B
  8
3
 62
     0
  2
_OPEN
 10
1086.8166864798029
 20
4767.1182492271491
 30
0.0
 41
90.0
 42
90.0
 43
90.0
 50
270.0
  0
TEXT
  8
3
  40
135
  5
A18D
  62
0
  72
0
  71
0
 10
704.317
 20
5453.31
 30
0.000000
  1
1850
  0
POINT
  5
A14D
  8
DEFPOINTS
 62
     0
 10
1705.5680909458149
 20
6617.4080872271506
 30
0.0
  0
POINT
  5
A14E
  8
DEFPOINTS
 62
     0
 10
1705.3521239458171
 20
4767.1182492271491
 30
0.0
  0
POINT
  5
A14F
  8
DEFPOINTS
 62
     0
 10
1086.8166864798029
 20
4767.1182492271491
 30
0.0
  0
ENDBLK
  5
91D3
  8
0
  0
BLOCK
  8
0
  2
*D18
 70
     1
 10
0.0
 20
0.0
 30
0.0
  3
*D18
  1

  0
LINE
  5
A150
  8
3
 62
     0
 10
1064.3166864798029
 20
6617.4080872271506
 30
0.0
 11
684.32959051698572
 21
6617.4080872271506
 31
0.0
  0
LINE
  5
A151
  8
3
 62
     0
 10
1591.56821199206
 20
4696.11824922715
 30
0.0
 11
684.32959051698526
 21
4696.11824922715
 31
0.0
  0
LINE
  5
A152
  8
3
 62
     0
 10
729.3295905169856
 20
6527.4080872271506
 30
0.0
 11
729.32959051698515
 21
4786.11824922715
 31
0.0
  0
INSERT
  5
A153
  8
3
 62
     0
  2
_OPEN
 10
729.3295905169856
 20
6617.4080872271506
 30
0.0
 41
90.0
 42
90.0
 43
90.0
 50
90.0
  0
INSERT
  5
A154
  8
3
 62
     0
  2
_OPEN
 10
729.32959051698515
 20
4696.11824922715
 30
0.0
 41
90.0
 42
90.0
 43
90.0
 50
270.0
  0
TEXT
  8
3
  40
135
  5
A18E
  62
0
  72
0
  71
0
 10
346.830
 20
5417.81
 30
0.000000
  1
1921
  0
POINT
  5
A156
  8
DEFPOINTS
 62
     0
 10
1086.8166864798029
 20
6617.4080872271506
 30
0.0
  0
POINT
  5
A157
  8
DEFPOINTS
 62
     0
 10
1614.06821199206
 20
4696.11824922715
 30
0.0
  0
POINT
  5
A158
  8
DEFPOINTS
 62
     0
 10
729.32959051698515
 20
4696.11824922715
 30
0.0
  0
ENDBLK
  5
91DF
  8
0
  0
BLOCK
  8
0
  2
*D19
 70
     1
 10
0.0
 20
0.0
 30
0.0
  3
*D19
  1

  0
LINE
  5
A100
  8
3
 62
     0
 10
8392.6376500000006
 20
5683.618249227151
 30
0.0
 11
8392.6376500000006
 21
7443.0877715685137
 31
0.0
  0
LINE
  5
A101
  8
3
 62
     0
 10
7597.6376499999988
 20
7279.4342299658447
 30
0.0
 11
7597.6376499999988
 21
7443.0877715685137
 31
0.0
  0
LINE
  5
A102
  8
3
 62
     0
 10
8302.6376500000006
 20
7398.0877715685137
 30
0.0
 11
7687.6376499999978
 21
7398.0877715685137
 31
0.0
  0
SOLID
  5
A103
  8
3
 62
     0
 10
8302.6376500000006
 20
7413.0877715685137
 30
0.0
 11
8302.6376500000006
 21
7383.0877715685128
 31
0.0
 12
8392.6376500000006
 22
7398.0877715685137
 32
0.0
 13
8392.6376500000006
 23
7398.0877715685137
 33
0.0
  0
SOLID
  5
A104
  8
3
 62
     0
 10
7687.6376499999978
 20
7413.0877715685137
 30
0.0
 11
7687.6376499999978
 21
7383.0877715685128
 31
0.0
 12
7597.6376499999988
 22
7398.0877715685137
 32
0.0
 13
7597.6376499999988
 23
7398.0877715685137
 33
0.0
  0
TEXT
  8
3
  40
135
  5
A18F
  62
0
  72
0
  71
0
 10
7735.53
 20
7271.64
 30
0.000000
  1
795
  0
POINT
  5
A106
  8
DEFPOINTS
 62
     0
 10
8392.6376500000006
 20
5661.118249227151
 30
0.0
  0
POINT
  5
A107
  8
DEFPOINTS
 62
     0
 10
7597.6376499999988
 20
7256.9342299658438
 30
0.0
  0
POINT
  5
A108
  8
DEFPOINTS
 62
     0
 10
7597.6376499999988
 20
7398.0877715685137
 30
0.0
  0
ENDBLK
  5
9300
  8
0
  0
BLOCK
  8
0
  2
*D20
 70
     1
 10
0.0
 20
0.0
 30
0.0
  3
*D20
  1

  0
LINE
  5
A109
  8
3
 62
     0
 10
6497.6376499999997
 20
5198.61824922715
 30
0.0
 11
6497.6376499999997
 21
7443.0877715685137
 31
0.0
  0
LINE
  5
A10A
  8
3
 62
     0
 10
7507.6376499999978
 20
7398.0877715685137
 30
0.0
 11
6587.6376499999988
 21
7398.0877715685137
 31
0.0
  0
SOLID
  5
A10B
  8
3
 62
     0
 10
7507.6376499999978
 20
7413.0877715685137
 30
0.0
 11
7507.6376499999978
 21
7383.0877715685128
 31
0.0
 12
7597.6376499999988
 22
7398.0877715685137
 32
0.0
 13
7597.6376499999988
 23
7398.0877715685137
 33
0.0
  0
SOLID
  5
A10C
  8
3
 62
     0
 10
6587.6376499999988
 20
7413.0877715685137
 30
0.0
 11
6587.6376499999988
 21
7383.0877715685128
 31
0.0
 12
6497.6376499999997
 22
7398.0877715685137
 32
0.0
 13
6497.6376499999997
 23
7398.0877715685137
 33
0.0
  0
TEXT
  8
3
  40
135
  5
A190
  62
0
  72
0
  71
0
 10
6777.64
 20
7306.99
 30
0.000000
  1
(1150)
  0
POINT
  5
A10E
  8
DEFPOINTS
 62
     0
 10
7597.6376499999988
 20
7087.2867208518537
 30
0.0
  0
POINT
  5
A10F
  8
DEFPOINTS
 62
     0
 10
6497.6376499999997
 20
5176.11824922715
 30
0.0
  0
POINT
  5
A110
  8
DEFPOINTS
 62
     0
 10
6497.6376499999997
 20
7398.0877715685137
 30
0.0
  0
ENDBLK
  5
930B
  8
0
  0
BLOCK
  8
0
  2
*D21
 70
     1
 10
0.0
 20
0.0
 30
0.0
  3
*D21
  1

  0
LINE
  5
A162
  8
3
 62
     0
 10
6937.6376499999988
 20
6641.7122550463973
 30
0.0
 11
6937.6376499999988
 21
7070.7316022055957
 31
0.0
  0
LINE
  5
A163
  8
3
 62
     0
 10
8257.6376500000006
 20
6641.7122550463973
 30
0.0
 11
8257.6376500000006
 21
7070.7316022055957
 31
0.0
  0
LINE
  5
A164
  8
3
 62
     0
 10
7027.6376499999988
 20
7025.7316022055966
 30
0.0
 11
8167.6376500000006
 21
7025.7316022055966
 31
0.0
  0
SOLID
  5
A165
  8
3
 62
     0
 10
7027.6376499999988
 20
7040.7316022055957
 30
0.0
 11
7027.6376499999988
 21
7010.7316022055966
 31
0.0
 12
6937.6376499999988
 22
7025.7316022055966
 32
0.0
 13
6937.6376499999988
 23
7025.7316022055966
 33
0.0
  0
SOLID
  5
A166
  8
3
 62
     0
 10
8167.6376500000006
 20
7040.7316022055957
 30
0.0
 11
8167.6376500000006
 21
7010.7316022055966
 31
0.0
 12
8257.6376500000006
 22
7025.7316022055966
 32
0.0
 13
8257.6376500000006
 23
7025.7316022055966
 33
0.0
  0
TEXT
  8
3
  40
135
  5
A191
  62
0
  72
0
  71
0
 10
7327.64
 20
6899.28
 30
0.000000
  1
1320
  0
POINT
  5
A168
  8
DEFPOINTS
 62
     0
 10
6937.6376499999988
 20
6619.2122550463982
 30
0.0
  0
POINT
  5
A169
  8
DEFPOINTS
 62
     0
 10
8257.6376500000006
 20
6619.2122550463982
 30
0.0
  0
POINT
  5
A16A
  8
DEFPOINTS
 62
     0
 10
8257.6376500000006
 20
7025.7316022055966
 30
0.0
  0
ENDBLK
  5
9317
  8
0
  0
BLOCK
  8
0
  2
*D22
 70
     1
 10
0.0
 20
0.0
 30
0.0
  3
*D22
  1

  0
LINE
  5
A0F7
  8
3
 62
     0
 10
8415.1376500000006
 20
5596.11824922715
 30
0.0
 11
8822.5519079999995
 21
5596.11824922715
 31
0.0
  0
LINE
  5
A0F8
  8
3
 62
     0
 10
8415.1376500000006
 20
3796.11824922715
 30
0.0
 11
8822.5519079999995
 21
3796.11824922715
 31
0.0
  0
LINE
  5
A0F9
  8
3
 62
     0
 10
8777.5519079999995
 20
5506.1182492271491
 30
0.0
 11
8777.5519079999976
 21
3886.11824922715
 31
0.0
  0
SOLID
  5
A0FA
  8
3
 62
     0
 10
8762.5519079999976
 20
5506.1182492271491
 30
0.0
 11
8792.5519079999995
 21
5506.1182492271491
 31
0.0
 12
8777.5519079999995
 22
5596.11824922715
 32
0.0
 13
8777.5519079999995
 23
5596.11824922715
 33
0.0
  0
SOLID
  5
A0FB
  8
3
 62
     0
 10
8762.5519079999976
 20
3886.11824922715
 30
0.0
 11
8792.5519079999976
 21
3886.11824922715
 31
0.0
 12
8777.5519079999976
 22
3796.11824922715
 32
0.0
 13
8777.5519079999976
 23
3796.11824922715
 33
0.0
  0
TEXT
  8
3
  40
135
  5
A192
  62
0
  72
0
  71
0
 10
8395.05
 20
4402.88
 30
0.000000
  1
φ1800
  0
POINT
  5
A0FD
  8
DEFPOINTS
 62
     0
 10
8392.6376500000006
 20
5596.11824922715
 30
0.0
  0
POINT
  5
A0FE
  8
DEFPOINTS
 62
     0
 10
8392.6376500000006
 20
3796.11824922715
 30
0.0
  0
POINT
  5
A0FF
  8
DEFPOINTS
 62
     0
 10
8777.5519079999976
 20
3796.11824922715
 30
0.0
  0
ENDBLK
  5
93A4
  8
0
  0
BLOCK
  8
0
  2
*D23
 70
     1
 10
0.0
 20
0.0
 30
0.0
  3
*D23
  1

  0
LINE
  5
A174
  8
3
 62
     0
 10
1787.8521239458171
 20
3366.11824922715
 30
0.0
 11
684.32959051698538
 21
3366.118249227151
 31
0.0
  0
LINE
  5
A175
  8
3
 62
     0
 10
1787.8521239458171
 20
3196.11824922715
 30
0.0
 11
684.32959051698526
 21
3196.11824922715
 31
0.0
  0
LINE
  5
A176
  8
3
 62
     0
 10
729.32959051698515
 20
3456.11824922715
 30
0.0
 11
729.32959051698515
 21
3546.11824922715
 31
0.0
  0
LINE
  5
A177
  8
3
 62
     0
 10
729.32959051698515
 20
3106.11824922715
 30
0.0
 11
729.32959051698515
 21
3016.11824922715
 31
0.0
  0
TEXT
  8
3
  40
135
  5
A193
  62
0
  72
0
  71
0
 10
427.110
 20
2571.80
 30
0.000000
  1
170
  0
INSERT
  5
A179
  8
3
 62
     0
  2
_OPEN
 10
729.32959051698515
 20
3366.118249227151
 30
0.0
 41
90.0
 42
90.0
 43
90.0
 50
270.0
  0
INSERT
  5
A17A
  8
3
 62
     0
  2
_OPEN
 10
729.32959051698515
 20
3196.11824922715
 30
0.0
 41
90.0
 42
90.0
 43
90.0
 50
90.0
  0
POINT
  5
A17B
  8
DEFPOINTS
 62
     0
 10
1810.352123945818
 20
3366.11824922715
 30
0.0
  0
POINT
  5
A17C
  8
DEFPOINTS
 62
     0
 10
1810.352123945818
 20
3196.11824922715
 30
0.0
  0
POINT
  5
A17D
  8
DEFPOINTS
 62
     0
 10
729.32959051698515
 20
3196.11824922715
 30
0.0
  0
ENDBLK
  5
9C91
  8
0
  0
ENDSEC
  0
SECTION
  2
ENTITIES
  0
INSERT
  5
8E52
  8
0
  2
YA_N
 10
12518.736613999999
 20
-6524.6833909999987
 30
0.0
  0
INSERT
  5
8E53
  8
0
  2
YA_N
 10
18386.038918999999
 20
2975.8020809999989
 30
0.0
  0
INSERT
  5
8E54
  8
0
  2
YA_N
 10
12518.736613999999
 20
-6524.6833909999987
 30
0.0
  0
INSERT
  5
8E55
  8
0
  2
YA_N
 10
18386.038918999999
 20
2975.8020809999989
 30
0.0
  0
LINE
  5
8E56
  8
1
 10
6486.6376499999997
 20
3516.11824922715
 30
0.0
 11
8336.6376500000006
 21
3516.11824922715
 31
0.0
  0
LINE
  5
8E57
  8
1
 10
6486.6376499999997
 20
3366.11824922715
 30
0.0
 11
8336.6376500000006
 21
3366.11824922715
 31
0.0
  0
LINE
  5
8E58
  8
1
 10
6561.6376499999997
 20
3516.11824922715
 30
0.0
 11
6486.6376499999997
 21
3516.11824922715
 31
0.0
  0
LINE
  5
8E59
  8
1
 10
6561.6376499999997
 20
3366.11824922715
 30
0.0
 11
6486.6376499999997
 21
3366.11824922715
 31
0.0
  0
LINE
  5
8E5A
  8
2
 10
7597.6376499999988
 20
3141.4124062271499
 30
0.0
 11
7597.6376499999988
 21
7004.8976381986722
 31
0.0
  0
LINE
  5
8E5B
  8
1
 10
8257.6376500000006
 20
4705.11824922715
 30
0.0
 11
8257.6376500000006
 21
6619.2122550463964
 31
0.0
  0
LINE
  5
8E5C
  8
1
 10
8392.6376500000006
 20
3731.1182492271491
 30
0.0
 11
8392.6376500000006
 21
5661.118249227151
 31
0.0
  0
LINE
  5
8E5D
  8
1
 10
8257.6376500000006
 20
3516.11824922715
 30
0.0
 11
8257.6376500000006
 21
4687.1182492271491
 31
0.0
  0
LINE
  5
8E5E
  8
1
 10
8261.6376500000006
 20
3366.11824922715
 30
0.0
 11
8336.6376500000006
 21
3366.11824922715
 31
0.0
  0
LINE
  5
8E5F
  8
1
 10
8261.6376500000006
 20
3516.11824922715
 30
0.0
 11
8336.6376500000006
 21
3516.11824922715
 31
0.0
  0
LINE
  5
8E60
  8
1
 10
8257.6376500000006
 20
3796.11824922715
 30
0.0
 11
8392.6376500000006
 21
3796.11824922715
 31
0.0
  0
LINE
  5
8E61
  8
1
 10
8257.6376500000006
 20
5596.11824922715
 30
0.0
 11
8392.6376500000006
 21
5596.11824922715
 31
0.0
  0
LINE
  5
8E62
  8
1
 10
4424.3521239458169
 20
9363.5698250355745
 30
0.0
 11
5410.3521239458159
 21
9363.5698250355745
 31
0.0
  0
LINE
  5
8E63
  8
1
 10
1810.352123945818
 20
8163.5698250355763
 30
0.0
 11
5410.3521239458159
 21
8163.5698250355763
 31
0.0
  0
LINE
  5
8E64
  8
1
 10
1810.352123945818
 20
10013.569825035571
 30
0.0
 11
1970.35212394582
 21
10013.569825035571
 31
0.0
  0
LINE
  5
8E65
  8
2
 10
2870.3521239458191
 20
8109.5040792468944
 30
0.0
 11
2870.3521239458191
 21
10184.023165513179
 31
0.0
  0
LINE
  5
8E66
  8
1
 10
5410.3521239458159
 20
8163.5698250355763
 30
0.0
 11
5410.3521239458159
 21
8238.5698250355745
 31
0.0
  0
INSERT
  5
8E67
  8
0
  2
YA_N
 10
12518.736613999999
 20
-6524.6833909999987
 30
0.0
  0
LINE
  5
8E68
  8
2
 10
6397.6376499999997
 20
4696.11824922715
 30
0.0
 11
8498.3907209999998
 21
4696.11824922715
 31
0.0
  0
LINE
  5
8E69
  8
1
 10
6497.6376499999978
 20
3581.11824922715
 30
0.0
 11
6497.6376499999997
 21
5176.11824922715
 31
0.0
  0
LINE
  5
8E6A
  8
1
 10
6697.6376499999997
 20
5176.11824922715
 30
0.0
 11
6697.6376499999978
 21
3581.11824922715
 31
0.0
  0
LINE
  5
8E6B
  8
1
 10
6697.6376499999978
 20
3581.11824922715
 30
0.0
 11
6497.6376499999978
 21
3581.11824922715
 31
0.0
  0
LINE
  5
8E6C
  8
1
 10
6657.6376499999988
 20
3716.11824922715
 30
0.0
 11
6657.6376499999988
 21
4046.11824922715
 31
0.0
  0
LINE
  5
8E6D
  8
1
 10
6537.6376499999988
 20
3716.11824922715
 30
0.0
 11
6537.6376499999988
 21
4046.11824922715
 31
0.0
  0
LINE
  5
8E6E
  8
1
 10
6537.6376499999988
 20
5096.11824922715
 30
0.0
 11
6657.6376499999988
 21
5096.11824922715
 31
0.0
  0
LINE
  5
8E6F
  8
1
 10
6657.6376499999988
 20
4296.11824922715
 30
0.0
 11
6537.6376499999988
 21
4296.11824922715
 31
0.0
  0
LINE
  5
8E70
  8
1
 10
6537.6376499999988
 20
4046.11824922715
 30
0.0
 11
6537.6376499999988
 21
5096.11824922715
 31
0.0
  0
LINE
  5
8E71
  8
1
 10
6657.6376499999988
 20
4046.11824922715
 30
0.0
 11
6657.6376499999988
 21
5096.11824922715
 31
0.0
  0
LINE
  5
8E72
  8
2
 10
6597.6376499999997
 20
5141.96624922715
 30
0.0
 11
6597.6376499999988
 21
3480.8141742271509
 31
0.0
  0
LINE
  5
8E73
  8
1
 10
6697.6376499999997
 20
5176.11824922715
 30
0.0
 11
6497.6376499999997
 21
5176.11824922715
 31
0.0
  0
LINE
  5
8E74
  8
2
 10
6463.3366499999984
 20
3866.11824922715
 30
0.0
 11
7670.8290794020149
 21
3866.11824922715
 31
0.0
  0
LINE
  5
8E75
  8
1
 10
6537.6376499999988
 20
4016.11824922715
 30
0.0
 11
6657.6376499999988
 21
4016.11824922715
 31
0.0
  0
LINE
  5
8E76
  8
1
 10
6537.6376499999988
 20
3716.11824922715
 30
0.0
 11
6657.6376499999988
 21
3716.11824922715
 31
0.0
  0
INSERT
  5
8E77
  8
0
  2
YA_N
 10
18386.038918999999
 20
2975.8020809999989
 30
0.0
  0
LINE
  5
8E78
  8
1
 10
6486.6376499999997
 20
3516.11824922715
 30
0.0
 11
6486.6376499999997
 21
3366.11824922715
 31
0.0
  0
LINE
  5
8E79
  8
1
 10
8336.6376500000006
 20
3516.11824922715
 30
0.0
 11
8336.6376500000006
 21
3366.11824922715
 31
0.0
  0
LINE
  5
8E80
  8
2
 10
1340.208186945815
 20
9274.5698250355745
 30
0.0
 11
4298.7574764714154
 21
9274.5698250355745
 31
0.0
  0
LINE
  5
8E81
  8
1
 10
1705.3521239458171
 20
9934.5698250355763
 30
0.0
 11
4424.3521239458169
 21
9934.5698250355781
 31
0.0
  0
LINE
  5
8E82
  8
1
 10
1705.3521239458171
 20
8614.5698250355763
 30
0.0
 11
4424.3521239458169
 21
8614.5698250355763
 31
0.0
  0
LINE
  5
8E83
  8
1
 10
1810.352123945818
 20
8163.5698250355763
 30
0.0
 11
1810.352123945818
 21
8614.5698250355763
 31
0.0
  0
LINE
  5
8E85
  8
1
 10
5090.3521239458169
 20
8214.5698250355745
 30
0.0
 11
5090.3521239458169
 21
8334.5698250355745
 31
0.0
  0
LINE
  5
8E86
  8
1
 10
4790.3521239458169
 20
8214.5698250355745
 30
0.0
 11
4790.3521239458169
 21
8334.5698250355745
 31
0.0
  0
LINE
  5
8E87
  8
1
 10
4940.3521239458169
 20
8140.2688250355741
 30
0.0
 11
4940.3521239458169
 21
8488.0698250355745
 31
0.0
  0
LINE
  5
8E88
  8
1
 10
2390.3521239458182
 20
8374.5698250355745
 30
0.0
 11
2390.3521239458182
 21
8174.5698250355736
 31
0.0
  0
LINE
  5
8E89
  8
1
 10
3270.3521239458169
 20
8334.5698250355745
 30
0.0
 11
3270.3521239458169
 21
8214.5698250355745
 31
0.0
  0
LINE
  5
8E8A
  8
1
 10
2470.3521239458191
 20
8214.5698250355745
 30
0.0
 11
2470.3521239458191
 21
8334.5698250355745
 31
0.0
  0
LINE
  5
8E8B
  8
1
 10
5225.3521239458169
 20
8374.5698250355745
 30
0.0
 11
5225.3521239458169
 21
8174.5698250355736
 31
0.0
  0
LINE
  5
8E8C
  8
1
 10
5090.3521239458169
 20
8214.5698250355745
 30
0.0
 11
4790.3521239458169
 21
8214.5698250355745
 31
0.0
  0
LINE
  5
8E8D
  8
1
 10
5225.3521239458169
 20
8174.5698250355736
 30
0.0
 11
2390.3521239458182
 21
8174.5698250355736
 31
0.0
  0
LINE
  5
8E8E
  8
2
 10
2424.5041239458169
 20
8274.5698250355745
 30
0.0
 11
5146.803167945819
 21
8274.5698250355745
 31
0.0
  0
LINE
  5
8E8F
  8
1
 10
3270.3521239458169
 20
8214.5698250355745
 30
0.0
 11
2470.3521239458191
 21
8214.5698250355745
 31
0.0
  0
LINE
  5
8E90
  8
1
 10
5090.3521239458169
 20
8334.5698250355745
 30
0.0
 11
4790.3521239458169
 21
8334.5698250355745
 31
0.0
  0
LINE
  5
8E91
  8
1
 10
2390.3521239458182
 20
8374.5698250355745
 30
0.0
 11
5225.3521239458169
 21
8374.5698250355745
 31
0.0
  0
LINE
  5
8E92
  8
1
 10
3270.3521239458169
 20
8334.5698250355745
 30
0.0
 11
2470.3521239458191
 21
8334.5698250355745
 31
0.0
  0
LINE
  5
8E93
  8
1
 10
6657.6376499999988
 20
4741.11824922715
 30
0.0
 11
6937.6376499999988
 21
4741.11824922715
 31
0.0
  0
LINE
  5
8E94
  8
1
 10
6657.6376499999988
 20
4651.11824922715
 30
0.0
 11
6937.6376499999988
 21
4651.11824922715
 31
0.0
  0
LINE
  5
8E95
  8
1
 10
5210.3521239458169
 20
9313.5698250355763
 30
0.0
 11
5210.3521239458169
 21
8461.0698250355763
 31
0.0
  0
LINE
  5
8E96
  8
1
 10
4652.8521239458169
 20
8461.0698250355763
 30
0.0
 11
4652.8521239458169
 21
9313.5698250355763
 31
0.0
  0
LINE
  5
8E97
  8
2
 10
4940.3521239458169
 20
8255.0732440355769
 30
0.0
 11
4940.3521239458169
 21
9332.861141035577
 31
0.0
  0
LINE
  5
8E98
  8
1
 10
5210.3521239458169
 20
9313.5698250355763
 30
0.0
 11
4652.8521239458169
 21
9313.5698250355763
 31
0.0
  0
LINE
  5
8E99
  8
1
 10
4652.8521239458169
 20
8461.0698250355763
 30
0.0
 11
5210.3521239458169
 21
8461.0698250355763
 31
0.0
  0
LINE
  5
8E9A
  8
1
 10
5025.8521239458169
 20
8454.5698250355745
 30
0.0
 11
4854.8521239458169
 21
8454.5698250355745
 31
0.0
  0
LINE
  5
8E9B
  8
1
 10
4982.8521239458169
 20
8274.5698250355745
 30
0.0
 11
4892.8521239458169
 21
8274.5698250355745
 31
0.0
  0
LINE
  5
8E9C
  8
1
 10
4990.3521239458169
 20
8444.5698250355745
 30
0.0
 11
4890.3521239458169
 21
8444.5698250355745
 31
0.0
  0
LINE
  5
8E9D
  8
1
 10
4982.8521239458169
 20
8274.5698250355745
 30
0.0
 11
4982.8521239458169
 21
8444.5698250355745
 31
0.0
  0
LINE
  5
8E9E
  8
1
 10
4990.3521239458169
 20
8444.5698250355745
 30
0.0
 11
4990.3521239458169
 21
8454.5698250355745
 31
0.0
  0
ARC
  5
8E9F
  8
1
 10
5025.8521239458169
 20
8456.5698250355745
 30
0.0
 40
2.0
 50
270.0
 51
0.000000000000007
  0
LINE
  5
8EA0
  8
1
 10
5027.8521239458169
 20
8461.4182000355759
 30
0.0
 11
5027.8521239458169
 21
8456.5698250355745
 31
0.0
  0
LINE
  5
8EA1
  8
1
 10
4892.8521239458169
 20
8274.5698250355745
 30
0.0
 11
4892.8521239458169
 21
8414.5698250355763
 31
0.0
  0
LINE
  5
8EA2
  8
1
 10
4897.8521239458169
 20
8274.5698250355745
 30
0.0
 11
4897.8521239458169
 21
8439.0698250355745
 31
0.0
  0
LINE
  5
8EA3
  8
1
 10
4890.3521239458169
 20
8444.5698250355745
 30
0.0
 11
4890.3521239458169
 21
8454.5698250355745
 31
0.0
  0
ARC
  5
8EA4
  8
1
 10
4854.8521239458169
 20
8456.5698250355745
 30
0.0
 40
2.0
 50
180.0
 51
270.0
  0
LINE
  5
8EA5
  8
1
 10
4852.8521239458169
 20
8461.0698250355763
 30
0.0
 11
4852.8521239458169
 21
8456.5698250355745
 31
0.0
  0
LINE
  5
8EA6
  8
1
 10
4897.8521239458169
 20
8414.5698250355763
 30
0.0
 11
4892.8521239458169
 21
8414.5698250355763
 31
0.0
  0
LINE
  5
8EA7
  8
1
 10
7636.6376499999988
 20
4144.86824922715
 30
0.0
 11
6784.1376499999988
 21
4144.86824922715
 31
0.0
  0
LINE
  5
8EA8
  8
1
 10
6784.1376499999988
 20
3587.36824922715
 30
0.0
 11
7636.6376499999988
 21
3587.36824922715
 31
0.0
  0
LINE
  5
8EA9
  8
1
 10
6784.1376499999988
 20
3587.36824922715
 30
0.0
 11
6784.1376499999988
 21
4144.86824922715
 31
0.0
  0
LINE
  5
8EAA
  8
1
 10
6777.6376499999988
 20
3951.61824922715
 30
0.0
 11
6777.6376499999988
 21
3780.61824922715
 31
0.0
  0
LINE
  5
8EAB
  8
1
 10
6784.4860249999983
 20
3953.61824922715
 30
0.0
 11
6779.6376499999988
 21
3953.61824922715
 31
0.0
  0
ARC
  5
8EAC
  8
1
 10
6779.6376499999988
 20
3951.61824922715
 30
0.0
 40
2.0
 50
90.0
 51
180.0
  0
LINE
  5
8EAD
  8
1
 10
6597.6376499999988
 20
3823.61824922715
 30
0.0
 11
6762.1376499999978
 21
3823.61824922715
 31
0.0
  0
LINE
  5
8EAF
  8
1
 10
6597.6376499999988
 20
3908.61824922715
 30
0.0
 11
6767.6376499999988
 21
3908.61824922715
 31
0.0
  0
LINE
  5
8EB1
  8
1
 10
6784.1376499999988
 20
3778.61824922715
 30
0.0
 11
6779.6376499999988
 21
3778.61824922715
 31
0.0
  0
ARC
  5
8EB2
  8
1
 10
6779.6376499999988
 20
3780.61824922715
 30
0.0
 40
2.0
 50
180.0
 51
270.0
  0
LINE
  5
8EB3
  8
1
 10
6767.6376499999988
 20
3816.11824922715
 30
0.0
 11
6777.6376499999988
 21
3816.11824922715
 31
0.0
  0
LINE
  5
8EB4
  8
1
 10
6767.6376499999988
 20
3916.11824922715
 30
0.0
 11
6777.6376499999988
 21
3916.11824922715
 31
0.0
  0
LINE
  5
8EB5
  8
1
 10
6767.6376499999988
 20
3916.11824922715
 30
0.0
 11
6767.6376499999988
 21
3816.11824922715
 31
0.0
  0
DIMENSION
  5
8EB7
  8
3
  2
*D3
 10
3930.3521239458169
 20
10320.822061390931
 30
0.0
 11
2877.4234099458181
 21
10320.822061390931
 31
0.0
 70
   128
 13
1810.352123945818
 23
10013.569825035571
 33
0.0
 14
3930.3521239458169
 24
10013.569825035571
 34
0.0
 50
180.0
1001
ACAD
1000
DSTYLE
1002
{
1070
   287
1070
     3
1070
   287
1070
     3
1070
   287
1070
     3
1070
   287
1070
     3
1070
   287
1070
     3
1070
   287
1070
     3
1070
    40
1040
45.0
1070
   143
1040
0.039
1070
   271
1070
     4
1070
   272
1070
     4
1070
   279
1070
     0
1070
   284
1070
     0
1070
   285
1070
     0
1070
   286
1070
     0
1070
   341
1005
8D0F
1070
     6
1000
OPEN
1070
     7
1000
OPEN
1002
}
  0
DIMENSION
  5
8EB8
  8
3
  2
*D4
 10
5410.3521239458159
 20
10320.822061390931
 30
0.0
 11
4670.3521239458169
 21
10433.322061390931
 31
0.0
 70
     0
 13
3930.3521239458169
 23
10013.569825035571
 33
0.0
 14
5410.3521239458159
 24
9363.5698250355745
 34
0.0
 50
180.0
1001
ACAD
1000
DSTYLE
1002
{
1070
   287
1070
     3
1070
   287
1070
     3
1070
   287
1070
     3
1070
   287
1070
     3
1070
   287
1070
     3
1070
   287
1070
     3
1070
    40
1040
45.0
1070
   143
1040
0.039
1070
   271
1070
     4
1070
   272
1070
     4
1070
   279
1070
     0
1070
   284
1070
     0
1070
   285
1070
     0
1070
   286
1070
     0
1070
   341
1005
8D0F
1070
     6
1000
OPEN
1070
     7
1000
OPEN
1002
}
  0
DIMENSION
  5
8EB9
  8
3
  2
*D6
 10
5652.4841719458182
 20
8163.5698250355763
 30
0.0
 11
5652.4841719458173
 21
8757.2817040355767
 31
0.0
 70
   128
 13
5410.3521239458159
 23
9363.5698250355745
 33
0.0
 14
5410.3521239458159
 24
8163.5698250355763
 34
0.0
 50
90.0
1001
ACAD
1000
DSTYLE
1002
{
1070
   287
1070
     3
1070
   287
1070
     3
1070
   287
1070
     3
1070
   287
1070
     3
1070
   287
1070
     3
1070
   287
1070
     3
1070
    40
1040
45.0
1070
   143
1040
0.039
1070
   271
1070
     4
1070
   272
1070
     4
1070
   279
1070
     0
1070
   284
1070
     0
1070
   285
1070
     0
1070
   286
1070
     0
1070
   341
1005
8D0F
1070
     6
1000
OPEN
1070
     7
1000
OPEN
1002
}
  0
DIMENSION
  5
8EBA
  8
3
  2
*D5
 10
1810.352123945818
 20
7682.284521137195
 30
0.0
 11
3370.3334679458171
 21
7682.284521137195
 31
0.0
 70
   128
 13
5410.3521239458159
 23
8163.5698250355763
 33
0.0
 14
1810.352123945818
 24
8163.5698250355763
 34
0.0
 50
180.0
1001
ACAD
1000
DSTYLE
1002
{
1070
   287
1070
     3
1070
   287
1070
     3
1070
   287
1070
     3
1070
   287
1070
     3
1070
   287
1070
     3
1070
   287
1070
     3
1070
    40
1040
45.0
1070
   143
1040
0.039
1070
   271
1070
     4
1070
   272
1070
     4
1070
   279
1070
     0
1070
   284
1070
     0
1070
   285
1070
     0
1070
   286
1070
     0
1070
   341
1005
8D0F
1070
     6
1000
OPEN
1070
     7
1000
OPEN
1002
}
  0
DIMENSION
  5
8EBB
  8
3
  2
*D13
 10
7597.6376499999988
 20
2553.582059511094
 30
0.0
 11
7064.637444
 21
2553.582059511094
 31
0.0
 70
   128
 13
6486.6376499999997
 23
3196.11824922715
 33
0.0
 14
7597.6376499999988
 24
3160.3522598524719
 34
0.0
1001
ACAD
1000
DSTYLE
1002
{
1070
   287
1070
     3
1070
   287
1070
     3
1070
   287
1070
     3
1070
   287
1070
     3
1070
   287
1070
     3
1070
   287
1070
     3
1070
    40
1040
45.0
1070
   143
1040
0.039
1070
   271
1070
     4
1070
   272
1070
     4
1070
   279
1070
     0
1070
   284
1070
     0
1070
   285
1070
     0
1070
   286
1070
     0
1070
   341
1005
8D0F
1070
     6
1000
OPEN
1070
     7
1000
OPEN
1002
}
  0
DIMENSION
  5
8EBC
  8
3
  2
*D14
 10
8336.6376500000006
 20
2553.582059511094
 30
0.0
 11
7967.1376499999988
 21
2666.082059511094
 31
0.0
 70
     0
 13
7597.6376499999988
 23
3160.3522598524719
 33
0.0
 14
8336.6376500000006
 24
3196.11824922715
 34
0.0
1001
ACAD
1000
DSTYLE
1002
{
1070
   287
1070
     3
1070
   287
1070
     3
1070
   287
1070
     3
1070
   287
1070
     3
1070
   287
1070
     3
1070
   287
1070
     3
1070
    40
1040
45.0
1070
   143
1040
0.039
1070
   271
1070
     4
1070
   272
1070
     4
1070
   279
1070
     0
1070
   284
1070
     0
1070
   285
1070
     0
1070
   286
1070
     0
1070
   341
1005
8D0F
1070
     6
1000
OPEN
1070
     7
1000
OPEN
1002
}
  0
DIMENSION
  5
8EBD
  8
3
  2
*D15
 10
8336.6376500000006
 20
2203.232012947351
 30
0.0
 11
7486.8346590000001
 21
2203.232012947351
 31
0.0
 70
   128
 13
6486.6376499999997
 23
3196.11824922715
 33
0.0
 14
8336.6376500000006
 24
3196.11824922715
 34
0.0
1001
ACAD
1000
DSTYLE
1002
{
1070
   287
1070
     3
1070
   287
1070
     3
1070
   287
1070
     3
1070
   287
1070
     3
1070
   287
1070
     3
1070
   287
1070
     3
1070
    40
1040
45.0
1070
   143
1040
0.039
1070
   271
1070
     4
1070
   272
1070
     4
1070
   279
1070
     0
1070
   284
1070
     0
1070
   285
1070
     0
1070
   286
1070
     0
1070
   341
1005
8D0F
1070
     6
1000
OPEN
1070
     7
1000
OPEN
1002
}
  0
DIMENSION
  5
8EBE
  8
3
  2
*D22
 10
8777.5519079999976
 20
3796.11824922715
 30
0.0
 11
8777.5519079999976
 21
4641.8280002271504
 31
0.0
 70
   128
 13
8392.6376500000006
 23
5596.11824922715
 33
0.0
 14
8392.6376500000006
 24
3796.11824922715
 34
0.0
 50
90.0
1001
ACAD
1000
DSTYLE
1002
{
1070
   287
1070
     3
1070
   287
1070
     3
1070
   287
1070
     3
1070
   287
1070
     3
1070
   287
1070
     3
1070
   287
1070
     3
1070
   287
1070
     3
1070
     3
1000
φ<>
1070
    40
1040
45.0
1070
   143
1040
0.039
1070
   172
1070
     1
1070
   271
1070
     0
1070
   279
1070
     0
1070
   288
1070
     1
1002
}
  0
DIMENSION
  5
8EBF
  8
3
  2
*D19
 10
7597.6376499999988
 20
7398.0877715685137
 30
0.0
 11
8005.5341159999989
 21
7398.0877715685137
 31
0.0
 70
   128
 13
8392.6376500000006
 23
5661.118249227151
 33
0.0
 14
7597.6376499999988
 24
7256.9342299658438
 34
0.0
1001
ACAD
1000
DSTYLE
1002
{
1070
   287
1070
     3
1070
   287
1070
     3
1070
   287
1070
     3
1070
   287
1070
     3
1070
   287
1070
     3
1070
   287
1070
     3
1070
   287
1070
     3
1070
    40
1040
45.0
1070
   143
1040
0.039
1070
   172
1070
     1
1070
   271
1070
     0
1070
   279
1070
     0
1070
   288
1070
     1
1002
}
  0
DIMENSION
  5
8EC0
  8
3
  2
*D20
 10
6497.6376499999997
 20
7398.0877715685137
 30
0.0
 11
7047.6376499999978
 21
7545.9449144256569
 31
0.0
 70
     0
  1
(1150)
 13
7597.6376499999988
 23
7087.2867208518537
 33
0.0
 14
6497.6376499999997
 24
5176.11824922715
 34
0.0
1001
ACAD
1000
DSTYLE
1002
{
1070
   287
1070
     4
1070
   287
1070
     4
1070
   287
1070
     4
1070
   287
1070
     4
1070
   287
1070
     4
1070
   287
1070
     4
1070
   287
1070
     4
1070
    40
1040
45.0
1070
    75
1070
     1
1070
   143
1040
0.039
1070
   172
1070
     1
1070
   271
1070
     0
1070
   279
1070
     1
1070
   288
1070
     1
1002
}
  0
LINE
  5
8EC1
  8
4
 10
8325.0
 20
1775.845221491152
 30
0.0
 11
8325.0
 21
875.84522149115207
 31
0.0
  0
LINE
  5
8EC2
  8
4
 10
5175.0
 20
1775.845221491152
 30
0.0
 11
5175.0
 21
875.84522149115207
 31
0.0
  0
LINE
  5
8EC3
  8
4
 10
2925.0
 20
1775.845221491152
 30
0.0
 11
2925.0
 21
875.84522149115207
 31
0.0
  0
LINE
  5
8EC6
  8
4
 10
2925.0
 20
875.84522149115207
 30
0.0
 11
8325.0
 21
875.84522149115207
 31
0.0
  0
LINE
  5
8EC7
  8
4
 10
2925.0
 20
1325.845221491152
 30
0.0
 11
8325.0
 21
1325.845221491152
 31
0.0
  0
TEXT
  5
8EC8
  8
4
 10
3098.259364
 20
1467.788837491152
 30
0.0
 40
225.0
  1
機器名称
  0
TEXT
  5
8EC9
  8
4
 10
3088.1614769999978
 20
973.24842649115214
 30
0.0
 40
225.0
  1
機器型番
  0
TEXT
  5
8ECA
  8
4
 10
5197.1468830000013
 20
1429.233946491152
 30
0.0
 40
202.49999999999989
  1
ミツヤ多翼送風機
  0
TEXT
  5
8ECB
  8
4
 10
5339.9452300000012
 20
953.06335049115205
 30
0.0
 40
225.0
  1
MF＃11-4
  0
TEXT
  5
8ECD
  8
4
 10
3693.629000655952
 20
10725.429786000001
 30
0.0
 40
243.0
  1
床置防振ベット
  0
TEXT
  5
8ECE
  8
4
 10
1258.0479374325371
 20
11402.464393
 30
0.0
 40
324.0
  1
ベルト駆動式片吸込両持多翼ファン
 41
1.143750671685607
 72
     5
 11
8224.8620288039092
 21
11402.464393
 31
0.0
  0
LINE
  5
8ECF
  8
4
 10
1125.0
 20
11112.339394000001
 30
0.0
 11
8325.0
 21
11112.339394000001
 31
0.0
  0
LINE
  5
8ED0
  8
4
 10
1125.0
 20
12012.339394000001
 30
0.0
 11
8325.0
 21
12012.339394000001
 31
0.0
  0
LINE
  5
8ED1
  8
4
 10
2925.0
 20
1775.845221491152
 30
0.0
 11
8325.0
 21
1775.845221491152
 31
0.0
  0
LINE
  5
8ED2
  8
4
 10
1125.0
 20
12012.339394000001
 30
0.0
 11
1125.0
 21
11112.339394000001
 31
0.0
  0
TEXT
  5
8ED3
  8
4
 10
1658.1327570000001
 20
10720.437649
 30
0.0
 40
243.0
  1
左回転左横向
  0
TEXT
  5
8ED4
  8
4
 10
6610.3630169999997
 20
12177.274867
 30
0.0
 40
252.0
  1
No.
  0
TEXT
  5
8ED5
  8
4
 10
5900.8322820000003
 20
10725.429786000001
 30
0.0
 40
243.0
  1
縮尺：1/45
  0
LINE
  5
8ED6
  8
4
 10
8325.0
 20
12012.339394000001
 30
0.0
 11
8325.0
 21
11112.339394000001
 31
0.0
  0
LINE
  5
8ED7
  8
4
 10
9450.0
 20
13275.0
 30
0.0
 11
9450.0
 21
13275.0
 31
0.0
  0
LINE
  5
8ED8
  8
4
 10
6482.7784009999996
 20
12065.686124
 30
0.0
 11
6482.7784009999996
 21
12539.93517699999
 31
0.0
  0
LINE
  5
8ED9
  8
4
 10
6482.7784009999996
 20
12539.93517699999
 30
0.0
 11
8325.0
 21
12539.93517699999
 31
0.0
  0
LINE
  5
8EDA
  8
4
 10
8325.0
 20
12539.93517699999
 30
0.0
 11
8325.0
 21
12065.686124
 31
0.0
  0
LINE
  5
8EDB
  8
4
 10
8325.0
 20
12065.686124
 30
0.0
 11
6482.7784009999996
 21
12065.686124
 31
0.0
  0
LINE
  5
8EDC
  8
4
 10
0.0
 20
0.0
 30
0.0
 11
0.0
 21
13275.0
 31
0.0
  0
LINE
  5
8EDD
  8
4
 10
0.0
 20
13275.0
 30
0.0
 11
9450.0
 21
13275.0
 31
0.0
  0
LINE
  5
8EDE
  8
4
 10
9450.0
 20
13275.0
 30
0.0
 11
9450.0
 21
0.0
 31
0.0
  0
LINE
  5
8EDF
  8
4
 10
9450.0
 20
0.0
 30
0.0
 11
0.0
 21
0.0
 31
0.0
  0
LINE
  5
8EE0
  8
1
 10
6937.6376499999988
 20
3516.11824922715
 30
0.0
 11
6937.6376499999978
 21
3587.36824922715
 31
0.0
  0
DIMENSION
  5
8EE1
  8
3
  2
*D12
 10
1810.352123945818
 20
2290.3561467642062
 30
0.0
 11
3305.1384859458158
 21
2290.3561467642062
 31
0.0
 70
   128
 13
5410.3521239458159
 23
3196.11824922715
 33
0.0
 14
1810.352123945818
 24
3196.11824922715
 34
0.0
 50
180.0
1001
ACAD
1000
DSTYLE
1002
{
1070
   287
1070
     3
1070
   287
1070
     3
1070
   287
1070
     3
1070
   287
1070
     3
1070
   287
1070
     3
1070
   287
1070
     3
1070
    40
1040
45.0
1070
   143
1040
0.039
1070
   271
1070
     4
1070
   272
1070
     4
1070
   279
1070
     0
1070
   284
1070
     0
1070
   285
1070
     0
1070
   286
1070
     0
1070
   341
1005
8D0F
1070
     6
1000
OPEN
1070
     7
1000
OPEN
1002
}
  0
DIMENSION
  5
8EE2
  8
3
  2
*D10
 10
2870.3521239458169
 20
2615.808258764207
 30
0.0
 11
3908.277398945816
 21
2615.808258764207
 31
0.0
 70
   128
 13
5410.3521239458159
 23
3196.11824922715
 33
0.0
 14
2870.3521239458169
 24
3088.468998015067
 34
0.0
 50
180.0
1001
ACAD
1000
DSTYLE
1002
{
1070
   287
1070
     3
1070
   287
1070
     3
1070
   287
1070
     3
1070
   287
1070
     3
1070
   287
1070
     3
1070
   287
1070
     3
1070
    40
1040
45.0
1070
   143
1040
0.039
1070
   271
1070
     4
1070
   272
1070
     4
1070
   279
1070
     0
1070
   284
1070
     0
1070
   285
1070
     0
1070
   286
1070
     0
1070
   341
1005
8D0F
1070
     6
1000
OPEN
1070
     7
1000
OPEN
1002
}
  0
LINE
  5
8EE3
  8
1
 10
2722.872314945816
 20
4324.2987962271491
 30
0.0
 11
4885.0471959458173
 21
3726.68595422715
 31
0.0
  0
LINE
  5
8EE4
  8
1
 10
3093.476003945816
 20
5028.1058012271506
 30
0.0
 11
5024.0235789458166
 21
3990.6135812271509
 31
0.0
  0
LINE
  5
8EE5
  8
1
 10
2683.838114945816
 20
4253.8376242271479
 30
0.0
 11
4831.5517019458166
 21
3608.1212182271502
 31
0.0
  0
LINE
  5
8EE6
  8
1
 10
3129.4864609458159
 20
5100.1602202271497
 30
0.0
 11
5091.5132369458142
 21
4101.8093992271488
 31
0.0
  0
LINE
  5
8EE7
  8
1
 10
1810.352123945818
 20
3516.11824922715
 30
0.0
 11
5410.3521239458159
 21
3516.11824922715
 31
0.0
  0
LINE
  5
8EE8
  8
1
 10
1810.352123945818
 20
3366.11824922715
 30
0.0
 11
5410.3521239458159
 21
3366.11824922715
 31
0.0
  0
LINE
  5
8EEB
  8
2
 10
4506.8307672641749
 20
4696.11824922715
 30
0.0
 11
1614.06821199206
 21
4696.11824922715
 31
0.0
  0
ARC
  5
8EEC
  8
1
 10
2739.3521239458169
 20
4827.1182492271491
 30
0.0
 40
1685.0
 50
0.000000000000007
 51
84.612059000000016
  0
LINE
  5
8EED
  8
1
 10
1770.3521239458171
 20
4767.1182492271491
 30
0.0
 11
1770.3521239458171
 21
6611.2979502271501
 31
0.0
  0
LINE
  5
8EEE
  8
1
 10
1705.3521239458171
 20
4703.11824922715
 30
0.0
 11
1705.3521239458171
 21
6679.1182492271491
 31
0.0
  0
LINE
  5
8EEF
  8
1
 10
1705.5680909458149
 20
6617.4080872271506
 30
0.0
 11
2897.7875249458161
 21
6506.9633352271476
 31
0.0
  0
LINE
  5
8EF0
  8
1
 10
5095.8312559458172
 20
3597.92757222715
 30
0.0
 11
4784.8729919458174
 21
3597.92757222715
 31
0.0
  0
LINE
  5
8EF1
  8
2
 10
5277.8110879458163
 20
3866.11824922715
 30
0.0
 11
4597.0749019458153
 21
3866.11824922715
 31
0.0
  0
LINE
  5
8EF2
  8
1
 10
5290.3521239458169
 20
3586.11824922715
 30
0.0
 11
4590.3521239458169
 21
3586.11824922715
 31
0.0
  0
ARC
  5
8EF3
  8
1
 10
4940.3521239458169
 20
3866.11824922715
 30
0.0
 40
310.0
 50
300.10230799999988
 51
239.89769200000009
  0
CIRCLE
  5
8EF4
  8
1
 10
4940.3521239458169
 20
3866.11824922715
 30
0.0
 40
150.0
  0
ARC
  5
8EF5
  8
1
 10
4940.3521239458169
 20
3866.11824922715
 30
0.0
 40
280.0
 50
247.13426799999999
 51
57.325815000000013
  0
LINE
  5
8EF6
  8
1
 10
5220.3521239458169
 20
3733.0769022271502
 30
0.0
 11
5220.3521239458169
 21
3586.11824922715
 31
0.0
  0
LINE
  5
8EF8
  8
1
 10
5410.3521239458159
 20
3516.11824922715
 30
0.0
 11
5410.3521239458159
 21
3366.11824922715
 31
0.0
  0
LINE
  5
8EF9
  8
1
 10
5290.3521239458169
 20
3586.11824922715
 30
0.0
 11
5110.3521239458159
 21
3586.11824922715
 31
0.0
  0
LINE
  5
8EFA
  8
1
 10
5290.3521239458169
 20
3586.11824922715
 30
0.0
 11
5290.3521239458169
 21
3516.11824922715
 31
0.0
  0
LINE
  5
8EFB
  8
1
 10
4660.3521239458159
 20
3733.0769022271502
 30
0.0
 11
4660.3521239458159
 21
3586.11824922715
 31
0.0
  0
LINE
  5
8EFC
  8
2
 10
4940.3521239458169
 20
3443.3203192271499
 30
0.0
 11
4940.3521239458169
 21
4348.1171012271507
 31
0.0
  0
LINE
  5
8EFD
  8
1
 10
4590.3521239458169
 20
3586.11824922715
 30
0.0
 11
4590.3521239458169
 21
3516.11824922715
 31
0.0
  0
DIMENSION
  5
8EFE
  8
3
  2
*D11
 10
1810.352123945818
 20
2615.808258764207
 30
0.0
 11
2340.3521239458169
 21
2728.308258764207
 31
0.0
 70
     0
 13
2870.3521239458169
 23
3088.468998015067
 33
0.0
 14
1810.352123945818
 24
3196.11824922715
 34
0.0
 50
180.0
1001
ACAD
1000
DSTYLE
1002
{
1070
   287
1070
     3
1070
   287
1070
     3
1070
   287
1070
     3
1070
   287
1070
     3
1070
   287
1070
     3
1070
   287
1070
     3
1070
    40
1040
45.0
1070
   143
1040
0.039
1070
   271
1070
     4
1070
   272
1070
     4
1070
   279
1070
     0
1070
   284
1070
     0
1070
   285
1070
     0
1070
   286
1070
     0
1070
   341
1005
8D0F
1070
     6
1000
OPEN
1070
     7
1000
OPEN
1002
}
  0
ARC
  5
8EFF
  8
1
 10
2980.8521239458169
 20
4585.61824922715
 30
0.0
 40
1181.4999999999991
 50
180.0
 51
244.85094065490361
  0
ARC
  5
8F00
  8
1
 10
3001.3521239458169
 20
4827.1182492271491
 30
0.0
 40
1423.0
 50
292.88414596752961
 51
0.000000000000007
  0
LINE
  5
8F01
  8
2
 10
2870.3521239458169
 20
3088.468998015067
 30
0.0
 11
2870.3521239458169
 21
6605.1196802527538
 31
0.0
  0
LINE
  5
8F02
  8
1
 10
1816.6564919458169
 20
4767.1182492271491
 30
0.0
 11
1705.3521239458171
 21
4767.1182492271491
 31
0.0
  0
ARC
  5
8F03
  8
1
 10
2870.3531239458171
 20
4696.11824922715
 30
0.0
 40
480.0
 50
57.325815000000013
 51
247.13426799999999
  0
CIRCLE
  5
8F04
  8
1
 10
2870.3521239458169
 20
4696.11824922715
 30
0.0
 40
400.0
  0
ARC
  5
8F05
  8
1
 10
2870.3521239458169
 20
4696.11824922715
 30
0.0
 40
965.0
 50
359.46562699999998
 51
0.000000000000007
  0
ARC
  5
8F06
  8
1
 10
2759.8521239458169
 20
4585.61824922715
 30
0.0
 40
960.5
 50
169.107665
 51
180.0
  0
LINE
  5
8F08
  8
1
 10
1810.352123945818
 20
3516.11824922715
 30
0.0
 11
1810.352123945818
 21
3366.11824922715
 31
0.0
  0
DIMENSION
  5
8F09
  8
3
  2
*D7
 10
1705.3521239458171
 20
7143.7320504162926
 30
0.0
 11
3557.8521239458159
 21
7256.2320504162926
 31
0.0
 70
     0
 13
5410.3521239458159
 23
3516.11824922715
 33
0.0
 14
1705.3521239458171
 24
6679.1182492271491
 34
0.0
 50
180.0
1001
ACAD
1000
DSTYLE
1002
{
1070
   287
1070
     3
1070
   287
1070
     3
1070
   287
1070
     3
1070
   287
1070
     3
1070
   287
1070
     3
1070
   287
1070
     3
1070
    40
1040
45.0
1070
   143
1040
0.039
1070
   271
1070
     4
1070
   272
1070
     4
1070
   279
1070
     0
1070
   284
1070
     0
1070
   285
1070
     0
1070
   286
1070
     0
1070
   341
1005
8D0F
1070
     6
1000
OPEN
1070
     7
1000
OPEN
1002
}
  0
DIMENSION
  5
8F0A
  8
3
  2
*D9
 10
2870.3521239458159
 20
6803.9506352395547
 30
0.0
 11
2287.8521239458169
 21
6916.4506352395547
 31
0.0
 70
     0
 13
1705.3521239458171
 23
6701.6182492271482
 33
0.0
 14
2870.3521239458159
 24
6605.1196802527538
 34
0.0
 50
180.0
1001
ACAD
1000
DSTYLE
1002
{
1070
   287
1070
     3
1070
   287
1070
     3
1070
   287
1070
     3
1070
   287
1070
     3
1070
   287
1070
     3
1070
   287
1070
     3
1070
    40
1040
45.0
1070
   143
1040
0.039
1070
   271
1070
     4
1070
   272
1070
     4
1070
   279
1070
     0
1070
   284
1070
     0
1070
   285
1070
     0
1070
   286
1070
     0
1070
   341
1005
8D0F
1070
     6
1000
OPEN
1070
     7
1000
OPEN
1002
}
  0
DIMENSION
  5
8F0B
  8
3
  2
*D8
 10
4424.3521239458169
 20
6803.9506352395547
 30
0.0
 11
3647.3521239458169
 21
6916.4506352395547
 31
0.0
 70
     0
 13
2870.3521239458159
 23
6605.1196802527538
 33
0.0
 14
4424.3521239458169
 24
4827.1182492271491
 34
0.0
 50
180.0
1001
ACAD
1000
DSTYLE
1002
{
1070
   287
1070
     3
1070
   287
1070
     3
1070
   287
1070
     3
1070
   287
1070
     3
1070
   287
1070
     3
1070
   287
1070
     3
1070
    40
1040
45.0
1070
   143
1040
0.039
1070
   271
1070
     4
1070
   272
1070
     4
1070
   279
1070
     0
1070
   284
1070
     0
1070
   285
1070
     0
1070
   286
1070
     0
1070
   341
1005
8D0F
1070
     6
1000
OPEN
1070
     7
1000
OPEN
1002
}
  0
DIMENSION
  5
8F0C
  8
3
  2
*D17
 10
1086.8166864798029
 20
4767.1182492271491
 30
0.0
 11
974.31668647980234
 21
5692.2631682271503
 31
0.0
 70
     0
  1
1850
 13
1705.5680909458149
 23
6617.4080872271506
 33
0.0
 14
1705.3521239458171
 24
4767.1182492271491
 34
0.0
 50
90.0
1001
ACAD
1000
DSTYLE
1002
{
1070
   287
1070
     3
1070
   287
1070
     3
1070
   287
1070
     3
1070
   287
1070
     3
1070
   287
1070
     3
1070
   287
1070
     3
1070
    40
1040
45.0
1070
   143
1040
0.039
1070
   271
1070
     4
1070
   272
1070
     4
1070
   279
1070
     0
1070
   284
1070
     0
1070
   285
1070
     0
1070
   286
1070
     0
1070
   341
1005
8D0F
1070
     6
1000
OPEN
1070
     7
1000
OPEN
1002
}
  0
DIMENSION
  5
8F0D
  8
3
  2
*D18
 10
729.32959051698515
 20
4696.11824922715
 30
0.0
 11
616.82959051698458
 21
5656.7631682271513
 31
0.0
 70
     0
  1
1921
 13
1086.8166864798029
 23
6617.4080872271506
 33
0.0
 14
1614.06821199206
 24
4696.11824922715
 34
0.0
 50
90.0
1001
ACAD
1000
DSTYLE
1002
{
1070
   287
1070
     3
1070
   287
1070
     3
1070
   287
1070
     3
1070
   287
1070
     3
1070
   287
1070
     3
1070
   287
1070
     3
1070
    40
1040
45.0
1070
   143
1040
0.039
1070
   271
1070
     4
1070
   272
1070
     4
1070
   279
1070
     0
1070
   284
1070
     0
1070
   285
1070
     0
1070
   286
1070
     0
1070
   341
1005
8D0F
1070
     6
1000
OPEN
1070
     7
1000
OPEN
1002
}
  0
DIMENSION
  5
8F0E
  8
3
  2
*D16
 10
729.32959051698515
 20
3366.118249227151
 30
0.0
 11
616.82959051698469
 21
4031.11824922715
 31
0.0
 70
     0
 13
1614.06821199206
 23
4696.11824922715
 33
0.0
 14
1810.352123945818
 24
3366.11824922715
 34
0.0
 50
90.0
1001
ACAD
1000
DSTYLE
1002
{
1070
   287
1070
     3
1070
   287
1070
     3
1070
   287
1070
     3
1070
   287
1070
     3
1070
   287
1070
     3
1070
   287
1070
     3
1070
    40
1040
45.0
1070
   143
1040
0.039
1070
   271
1070
     4
1070
   272
1070
     4
1070
   279
1070
     0
1070
   284
1070
     0
1070
   285
1070
     0
1070
   286
1070
     0
1070
   341
1005
8D0F
1070
     6
1000
OPEN
1070
     7
1000
OPEN
1002
}
  0
LINE
  5
8F12
  8
1
 10
1705.3521239458171
 20
8545.5698250355781
 30
0.0
 11
1705.3521239458171
 21
10003.569825035571
 31
0.0
  0
LINE
  5
8F13
  8
1
 10
4424.3521239458169
 20
8614.5698250355763
 30
0.0
 11
4424.3521239458169
 21
9934.5698250355781
 31
0.0
  0
LINE
  5
8F14
  8
1
 10
3770.3521239458169
 20
9934.5698250355781
 30
0.0
 11
3770.3521239458169
 21
10069.569825035571
 31
0.0
  0
LINE
  5
8F15
  8
1
 10
1970.35212394582
 20
9934.5698250355763
 30
0.0
 11
1970.352123945818
 21
10069.569825035571
 31
0.0
  0
LINE
  5
8F16
  8
1
 10
1905.352123945818
 20
10069.569825035571
 30
0.0
 11
3835.3521239458191
 21
10069.569825035571
 31
0.0
  0
LINE
  5
8F17
  8
1
 10
6937.6376499999988
 20
6619.2122550463982
 30
0.0
 11
8257.6376500000006
 21
6619.2122550463982
 31
0.0
  0
DIMENSION
  5
8F1B
  8
3
  2
*D21
 10
8257.6376500000006
 20
7025.7316022055966
 30
0.0
 11
7597.6376499999997
 21
7138.2316022055966
 31
0.0
 70
     0
 13
6937.6376499999988
 23
6619.2122550463982
 33
0.0
 14
8257.6376500000006
 24
6619.2122550463982
 34
0.0
1001
ACAD
1000
DSTYLE
1002
{
1070
   287
1070
     4
1070
   287
1070
     4
1070
   287
1070
     4
1070
   287
1070
     4
1070
   287
1070
     4
1070
   287
1070
     4
1070
   287
1070
     4
1070
    40
1040
45.0
1070
   143
1040
0.039
1070
   271
1070
     0
1070
   279
1070
     1
1002
}
  0
DIMENSION
  5
8F1C
  8
3
  2
*D2
 10
948.86905784783437
 20
10013.569825035571
 30
0.0
 11
836.36905784783278
 21
9088.5698250355745
 31
0.0
 70
     0
 13
1810.352123945818
 23
8163.5698250355763
 33
0.0
 14
1810.352123945818
 24
10013.569825035571
 34
0.0
 50
90.0
1001
ACAD
1000
DSTYLE
1002
{
1070
   287
1070
     3
1070
   287
1070
     3
1070
   287
1070
     3
1070
   287
1070
     3
1070
   287
1070
     3
1070
   287
1070
     3
1070
    40
1040
45.0
1070
   143
1040
0.039
1070
   271
1070
     4
1070
   272
1070
     4
1070
   279
1070
     0
1070
   284
1070
     0
1070
   285
1070
     0
1070
   286
1070
     0
1070
   341
1005
8D0F
1070
     6
1000
OPEN
1070
     7
1000
OPEN
1002
}
  0
LINE
  5
8F1D
  8
1
 10
4424.3521239458169
 20
9288.5698250355763
 30
0.0
 11
5410.3521239458159
 21
9288.5698250355763
 31
0.0
  0
LINE
  5
8F1E
  8
1
 10
1810.352123945818
 20
8238.5698250355745
 30
0.0
 11
2390.3521239458182
 21
8238.5698250355745
 31
0.0
  0
LINE
  5
8F21
  8
1
 10
1810.352123945818
 20
9938.5698250355763
 30
0.0
 11
3930.3521239458169
 21
9938.5698250355763
 31
0.0
  0
LINE
  5
8F22
  8
1
 10
3770.3521239458169
 20
10013.569825035571
 30
0.0
 11
3930.3521239458169
 21
10013.569825035571
 31
0.0
  0
LINE
  5
8F23
  8
1
 10
5225.3521239458169
 20
8238.5698250355745
 30
0.0
 11
5410.3521239458159
 21
8238.5698250355745
 31
0.0
  0
LINE
  5
8F24
  8
1
 10
3930.3521239458169
 20
9934.5698250355781
 30
0.0
 11
3930.3521239458169
 21
10013.569825035571
 31
0.0
  0
LINE
  5
8F25
  8
1
 10
3855.3521239458169
 20
9934.5698250355763
 30
0.0
 11
3855.3521239458169
 21
9938.5698250355781
 31
0.0
  0
LINE
  5
8F26
  8
1
 10
1885.3521239458159
 20
9934.5698250355763
 30
0.0
 11
1885.352123945818
 21
9938.5698250355781
 31
0.0
  0
LINE
  5
8F27
  8
1
 10
1810.352123945818
 20
9934.5698250355763
 30
0.0
 11
1810.352123945818
 21
10013.569825035571
 31
0.0
  0
LINE
  5
931D
  8
1
 10
6868.6376499999978
 20
4741.11824922715
 30
0.0
 11
6868.6376499999978
 21
6688.2122550463992
 31
0.0
  0
LINE
  5
931E
  8
1
 10
8326.6376499999951
 20
5596.11824922715
 30
0.0
 11
8326.6376499999951
 21
6688.2122550463982
 31
0.0
  0
LINE
  5
931F
  8
1
 10
6868.6376499999978
 20
6688.2122550463992
 30
0.0
 11
8326.6376499999951
 21
6688.2122550463982
 31
0.0
  0
LINE
  5
9514
  8
1
 10
5410.3521239458159
 20
9288.5698250355781
 30
0.0
 11
5410.3521239458159
 21
9363.5698250355745
 31
0.0
  0
LINE
  5
9C4C
  8
1
 10
1810.352123945818
 20
3346.11824922715
 30
0.0
 11
1810.352123945818
 21
3196.11824922715
 31
0.0
  0
LINE
  5
9C4D
  8
1
 10
5410.3521239458159
 20
3346.11824922715
 30
0.0
 11
5410.3521239458159
 21
3196.11824922715
 31
0.0
  0
LINE
  5
9C4E
  8
1
 10
1810.352123945818
 20
3196.11824922715
 30
0.0
 11
5410.3521239458159
 21
3196.11824922715
 31
0.0
  0
LINE
  5
9C4F
  8
1
 10
1810.352123945818
 20
3346.11824922715
 30
0.0
 11
5410.3521239458159
 21
3346.11824922715
 31
0.0
  0
LINE
  5
9C7D
  8
1
 10
6486.6376499999997
 20
3346.11824922715
 30
0.0
 11
6486.6376499999997
 21
3196.11824922715
 31
0.0
  0
LINE
  5
9C7E
  8
1
 10
6486.6376499999997
 20
3196.11824922715
 30
0.0
 11
8336.6376500000006
 21
3196.11824922715
 31
0.0
  0
LINE
  5
9C7F
  8
1
 10
6486.6376499999997
 20
3346.11824922715
 30
0.0
 11
8336.6376500000006
 21
3346.11824922715
 31
0.0
  0
LINE
  5
9C80
  8
1
 10
8336.6376500000006
 20
3346.11824922715
 30
0.0
 11
8336.6376500000006
 21
3196.11824922715
 31
0.0
  0
DIMENSION
  5
9C81
  8
3
  2
*D23
 10
729.32959051698515
 20
3196.11824922715
 30
0.0
 11
809.61043310240348
 21
2810.750424566631
 31
0.0
 70
   128
 13
1810.352123945818
 23
3366.11824922715
 33
0.0
 14
1810.352123945818
 24
3196.11824922715
 34
0.0
 50
90.0
1001
ACAD
1000
DSTYLE
1002
{
1070
   287
1070
     4
1070
   287
1070
     4
1070
   287
1070
     4
1070
    40
1040
45.0
1070
   143
1040
0.039
1070
   271
1070
     4
1070
   272
1070
     4
1070
   279
1070
     1
1070
   284
1070
     0
1070
   285
1070
     0
1070
   286
1070
     0
1070
   341
1005
8D0F
1070
     6
1000
OPEN
1070
     7
1000
OPEN
1002
}
  0
LINE
  5
A09F
  8
1
 10
7636.6376499999988
 20
3587.36824922715
 30
0.0
 11
7636.6376499999988
 21
4144.86824922715
 31
0.0
  0
LINE
  5
A0A1
  8
1
 10
6937.6376499999978
 20
4144.86824922715
 30
0.0
 11
6937.6376499999988
 21
6619.2122550463982
 31
0.0
  0
ENDSEC
  0
EOF
