  0
SECTION
  2
HEADER
  9
$ACADVER
  1
AC1009
  9
$INSBASE
 10
0.0
 20
0.0
 30
0.0
  9
$EXTMIN
 10
0.0
 20
0.0
 30
0.0
  9
$EXTMAX
 10
10500.0
 20
14750.0
 30
0.0
  9
$LIMMIN
 10
0.0
 20
0.0
  9
$LIMMAX
 10
297.0
 20
210.0
  9
$ORTHOMODE
 70
     0
  9
$REGENMODE
 70
     1
  9
$FILLMODE
 70
     0
  9
$QTEXTMODE
 70
     0
  9
$MIRRTEXT
 70
     1
  9
$DRAGMODE
 70
     2
  9
$LTSCALE
 40
100.0
  9
$OSMODE
 70
    37
  9
$ATTMODE
 70
     1
  9
$TEXTSIZE
 40
180.0
  9
$TRACEWID
 40
0.05
  9
$TEXTSTYLE
  7
STANDARD
  9
$CLAYER
  8
3
  9
$CELTYPE
  6
BYLAYER
  9
$CECOLOR
 62
   256
  9
$DIMSCALE
 40
50.0
  9
$DIMASZ
 40
2.0
  9
$DIMEXO
 40
0.5
  9
$DIMDLI
 40
10.0
  9
$DIMRND
 40
0.0
  9
$DIMDLE
 40
0.0
  9
$DIMEXE
 40
1.0
  9
$DIMTP
 40
1.0
  9
$DIMTM
 40
1.0
  9
$DIMTXT
 40
3.0
  9
$DIMCEN
 40
0.0
  9
$DIMTSZ
 40
0.0
  9
$DIMTOL
 70
     0
  9
$DIMLIM
 70
     0
  9
$DIMTIH
 70
     0
  9
$DIMTOH
 70
     0
  9
$DIMSE1
 70
     0
  9
$DIMSE2
 70
     0
  9
$DIMTAD
 70
     1
  9
$DIMZIN
 70
     8
  9
$DIMBLK
  1

  9
$DIMASO
 70
     1
  9
$DIMSHO
 70
     1
  9
$DIMPOST
  1
(<>)
  9
$DIMAPOST
  1

  9
$DIMALT
 70
     0
  9
$DIMALTD
 70
     2
  9
$DIMALTF
 40
0.039
  9
$DIMLFAC
 40
1.0
  9
$DIMTOFL
 70
     1
  9
$DIMTVP
 40
0.0
  9
$DIMTIX
 70
     0
  9
$DIMSOXD
 70
     0
  9
$DIMSAH
 70
     1
  9
$DIMBLK1
  1
OPEN
  9
$DIMBLK2
  1
OPEN
  9
$DIMSTYLE
  2
IGA
  9
$DIMCLRD
 70
     0
  9
$DIMCLRE
 70
     0
  9
$DIMCLRT
 70
     0
  9
$DIMTFAC
 40
10.0
  9
$DIMGAP
 40
1.0
  9
$LUNITS
 70
     2
  9
$LUPREC
 70
     3
  9
$SKETCHINC
 40
0.1
  9
$FILLETRAD
 40
50.0
  9
$AUNITS
 70
     0
  9
$AUPREC
 70
     0
  9
$MENU
  1
acad
  9
$ELEVATION
 40
0.0
  9
$PELEVATION
 40
0.0
  9
$THICKNESS
 40
0.0
  9
$LIMCHECK
 70
     0
  9
$BLIPMODE
 70
     0
  9
$CHAMFERA
 40
0.5
  9
$CHAMFERB
 40
0.5
  9
$SKPOLY
 70
     0
  9
$TDCREATE
 40
2452326.4454812501
  9
$TDUPDATE
 40
2454953.8310041898
  9
$TDINDWG
 40
0.0650890856
  9
$TDUSRTIMER
 40
0.0650890856
  9
$USRTIMER
 70
     1
  9
$ANGBASE
 50
0.0
  9
$ANGDIR
 70
     0
  9
$PDMODE
 70
     0
  9
$PDSIZE
 40
0.0
  9
$PLINEWID
 40
0.0
  9
$COORDS
 70
     1
  9
$SPLFRAME
 70
     0
  9
$SPLINETYPE
 70
     6
  9
$SPLINESEGS
 70
     8
  9
$ATTDIA
 70
     0
  9
$ATTREQ
 70
     1
  9
$HANDLING
 70
 10241
  9
$HANDSEED
  5
8299
  9
$SURFTAB1
 70
     6
  9
$SURFTAB2
 70
     6
  9
$SURFTYPE
 70
     6
  9
$SURFU
 70
     6
  9
$SURFV
 70
     6
  9
$UCSNAME
  2

  9
$UCSORG
 10
0.0
 20
0.0
 30
0.0
  9
$UCSXDIR
 10
1.0
 20
0.0
 30
0.0
  9
$UCSYDIR
 10
0.0
 20
1.0
 30
0.0
  9
$PUCSNAME
  2

  9
$PUCSORG
 10
0.0
 20
0.0
 30
0.0
  9
$PUCSXDIR
 10
1.0
 20
0.0
 30
0.0
  9
$PUCSYDIR
 10
0.0
 20
1.0
 30
0.0
  9
$USERI1
 70
     0
  9
$USERI2
 70
     0
  9
$USERI3
 70
     0
  9
$USERI4
 70
     0
  9
$USERI5
 70
     0
  9
$USERR1
 40
0.0
  9
$USERR2
 40
0.0
  9
$USERR3
 40
0.0
  9
$USERR4
 40
0.0
  9
$USERR5
 40
0.0
  9
$WORLDVIEW
 70
     1
  9
$SHADEDGE
 70
     3
  9
$SHADEDIF
 70
    70
  9
$TILEMODE
 70
     1
  9
$MAXACTVP
 70
    16
  9
$PLIMCHECK
 70
     0
  9
$PEXTMIN
 10
1.0000000000000000E+020
 20
1.0000000000000000E+020
 30
1.0000000000000000E+020
  9
$PEXTMAX
 10
-1.0000000000000000E+020
 20
-1.0000000000000000E+020
 30
-1.0000000000000000E+020
  9
$PLIMMIN
 10
0.0
 20
0.0
  9
$PLIMMAX
 10
12.0
 20
9.0
  9
$UNITMODE
 70
     0
  9
$VISRETAIN
 70
     0
  9
$PLINEGEN
 70
     0
  9
$PSLTSCALE
 70
     1
  0
ENDSEC
  0
SECTION
  2
TABLES
  0
TABLE
  2
VPORT
 70
     2
  0
VPORT
  2
*ACTIVE
 70
     0
 10
0.0
 20
0.0
 11
1.0
 21
1.0
 12
15069.956616052061
 22
10012.49454014673
 13
0.0
 23
0.0
 14
10.0
 24
10.0
 15
10.0
 25
10.0
 16
0.0
 26
0.0
 36
1.0
 17
0.0
 27
0.0
 37
0.0
 40
20024.989080293471
 41
1.5051150895140659
 42
50.0
 43
0.0
 44
0.0
 50
0.0
 51
0.0
 71
     0
 72
   100
 73
     1
 74
     0
 75
     0
 76
     0
 77
     0
 78
     0
  0
ENDTAB
  0
TABLE
  2
LTYPE
 70
     2
  0
LTYPE
  2
CONTINUOUS
 70
     0
  3
Solid line
 72
    65
 73
     0
 40
0.0
  0
LTYPE
  2
CENTER
 70
     0
  3
____ _ ____ _ ____ _ ____ _ ____ _ ____ _ ____ 
 72
    65
 73
     4
 40
2.0
 49
1.25
 49
-0.25
 49
0.25
 49
-0.25
  0
ENDTAB
  0
TABLE
  2
LAYER
 70
     6
  0
LAYER
  2
0
 70
     0
 62
     7
  6
CONTINUOUS
  0
LAYER
  2
3
 70
     0
 62
     2
  6
CONTINUOUS
  0
LAYER
  2
2
 70
     0
 62
     3
  6
CENTER
  0
LAYER
  2
1
 70
     0
 62
     4
  6
CONTINUOUS
  0
LAYER
  2
4
 70
     0
 62
     7
  6
CONTINUOUS
  0
LAYER
  2
DEFPOINTS
 70
     0
 62
     7
  6
CONTINUOUS
  0
ENDTAB
  0
TABLE
  2
STYLE
 70
     1
  0
STYLE
  2
STANDARD
 70
     0
 40
0.0
 41
1.0
 50
0.0
 71
     0
 42
180.0
  3
simplex.shx
  4
extfont.shx
  0
ENDTAB
  0
TABLE
  2
VIEW
 70
     0
  0
ENDTAB
  0
TABLE
  2
UCS
 70
     0
  0
ENDTAB
  0
TABLE
  2
APPID
 70
     1
  0
APPID
  2
ACAD
 70
     0
  0
ENDTAB
  0
TABLE
  2
DIMSTYLE
 70
     1
  0
DIMSTYLE
  2
IGA
 70
     0
  3

  4

  5

  6
OPEN
  7
OPEN
 40
2.0
 41
2.0
 42
0.5
 43
10.0
 44
1.0
 45
0.0
 46
0.0
 47
1.0
 48
1.0
140
3.0
141
0.0
142
0.0
143
0.03937
144
1.0
145
0.0
146
10.0
147
1.0
 71
     0
 72
     0
 73
     0
 74
     0
 75
     0
 76
     0
 77
     1
 78
     8
170
     0
171
     2
172
     0
173
     1
174
     0
175
     0
176
     0
177
     0
178
     0
  0
ENDTAB
  0
ENDSEC
  0
SECTION
  2
BLOCKS
  0
BLOCK
  8
0
  2
$MODEL_SPACE
 70
     0
 10
0.0
 20
0.0
 30
0.0
  3
$MODEL_SPACE
  1

  0
ENDBLK
  5
1B
  8
0
  0
BLOCK
 67
     1
  8
0
  2
$PAPER_SPACE
 70
     0
 10
0.0
 20
0.0
 30
0.0
  3
$PAPER_SPACE
  1

  0
ENDBLK
  5
18
 67
     1
  8
0
  0
BLOCK
  8
0
  2
_OPEN
 70
     0
 10
0.0
 20
0.0
 30
0.0
  3
_OPEN
  1

  0
LINE
  5
7B8E
  8
0
  6
BYBLOCK
 62
     0
 10
-1.0
 20
0.1666666666666666
 30
0.0
 11
0.0
 21
0.0
 31
0.0
  0
LINE
  5
7B8F
  8
0
  6
BYBLOCK
 62
     0
 10
0.0
 20
0.0
 30
0.0
 11
-1.0
 21
-0.1666666666666666
 31
0.0
  0
LINE
  5
7B90
  8
0
  6
BYBLOCK
 62
     0
 10
0.0
 20
0.0
 30
0.0
 11
-1.0
 21
0.0
 31
0.0
  0
ENDBLK
  5
7B91
  8
0
  0
BLOCK
  8
0
  2
*D1
 70
     1
 10
0.0
 20
0.0
 30
0.0
  3
*D1
  1

  0
LINE
  5
81EB
  8
3
 62
     0
 10
2617.8645637893351
 20
10796.941722032991
 30
0.0
 11
2617.8645637893351
 21
11323.42210295274
 31
0.0
  0
LINE
  5
81EC
  8
3
 62
     0
 10
4517.8645637893533
 20
10796.94172203368
 30
0.0
 11
4517.8645637893533
 21
11323.42210295274
 31
0.0
  0
LINE
  5
81ED
  8
3
 62
     0
 10
2717.8645637893351
 20
11273.42210295274
 30
0.0
 11
4417.8645637893533
 21
11273.42210295274
 31
0.0
  0
INSERT
  5
81EE
  8
3
 62
     0
  2
_OPEN
 10
2617.8645637893351
 20
11273.42210295274
 30
0.0
 41
100.0
 42
100.0
 43
100.0
 50
180.0
  0
INSERT
  5
81EF
  8
3
 62
     0
  2
_OPEN
 10
4517.8645637893533
 20
11273.42210295274
 30
0.0
 41
100.0
 42
100.0
 43
100.0
  0
TEXT
  8
3
  40
150
  5
8287
  62
0
  72
0
  71
0
 10
3259.05
 20
11132.9
 30
0.000000
  1
1900
  0
POINT
  5
81F1
  8
DEFPOINTS
 62
     0
 10
2617.8645637893351
 20
10771.941722032991
 30
0.0
  0
POINT
  5
81F2
  8
DEFPOINTS
 62
     0
 10
4517.8645637893533
 20
10771.94172203368
 30
0.0
  0
POINT
  5
81F3
  8
DEFPOINTS
 62
     0
 10
4517.8645637893533
 20
11273.42210295274
 30
0.0
  0
ENDBLK
  5
7EAC
  8
0
  0
BLOCK
  8
0
  2
*D2
 70
     1
 10
0.0
 20
0.0
 30
0.0
  3
*D2
  1

  0
LINE
  5
81F4
  8
3
 62
     0
 10
5917.8645637898462
 20
9396.9417220341165
 30
0.0
 11
5917.8645637898462
 21
11323.42210295274
 31
0.0
  0
LINE
  5
81F5
  8
3
 62
     0
 10
4617.8645637893524
 20
11273.42210295274
 30
0.0
 11
5817.8645637898462
 21
11273.42210295274
 31
0.0
  0
INSERT
  5
81F6
  8
3
 62
     0
  2
_OPEN
 10
4517.8645637893533
 20
11273.42210295274
 30
0.0
 41
100.0
 42
100.0
 43
100.0
 50
180.0
  0
INSERT
  5
81F7
  8
3
 62
     0
  2
_OPEN
 10
5917.8645637898462
 20
11273.42210295274
 30
0.0
 41
100.0
 42
100.0
 43
100.0
  0
TEXT
  8
3
  40
150
  5
8288
  62
0
  72
0
  71
0
 10
4917.86
 20
11132.9
 30
0.000000
  1
1400
  0
POINT
  5
81F9
  8
DEFPOINTS
 62
     0
 10
4517.8645637893533
 20
10771.94172203368
 30
0.0
  0
POINT
  5
81FA
  8
DEFPOINTS
 62
     0
 10
5917.8645637898462
 20
9371.9417220341165
 30
0.0
  0
POINT
  5
81FB
  8
DEFPOINTS
 62
     0
 10
5917.8645637898462
 20
11273.42210295274
 30
0.0
  0
ENDBLK
  5
7C99
  8
0
  0
BLOCK
  8
0
  2
*D3
 70
     1
 10
0.0
 20
0.0
 30
0.0
  3
*D3
  1

  0
LINE
  5
81FC
  8
3
 62
     0
 10
5942.8645637898462
 20
9371.9417220341165
 30
0.0
 11
6287.7856498112023
 21
9371.9417220341165
 31
0.0
  0
LINE
  5
81FD
  8
3
 62
     0
 10
5942.864563790281
 20
8171.9417220341184
 30
0.0
 11
6287.7856498112023
 21
8171.9417220341156
 31
0.0
  0
LINE
  5
81FE
  8
3
 62
     0
 10
6237.7856498112023
 20
9271.9417220341165
 30
0.0
 11
6237.7856498112023
 21
8271.9417220341147
 31
0.0
  0
INSERT
  5
81FF
  8
3
 62
     0
  2
_OPEN
 10
6237.7856498112023
 20
9371.9417220341165
 30
0.0
 41
100.0
 42
100.0
 43
100.0
 50
90.0
  0
INSERT
  5
8200
  8
3
 62
     0
  2
_OPEN
 10
6237.7856498112023
 20
8171.9417220341156
 30
0.0
 41
100.0
 42
100.0
 43
100.0
 50
270.0
  0
TEXT
  8
3
  40
150
  5
8289
  62
0
  72
0
  71
0
 10
5812.79
 20
8622.32
 30
0.000000
  1
1200
  0
POINT
  5
8202
  8
DEFPOINTS
 62
     0
 10
5917.8645637898462
 20
9371.9417220341165
 30
0.0
  0
POINT
  5
8203
  8
DEFPOINTS
 62
     0
 10
5917.864563790281
 20
8171.9417220341184
 30
0.0
  0
POINT
  5
8204
  8
DEFPOINTS
 62
     0
 10
6237.7856498112023
 20
8171.9417220341156
 30
0.0
  0
ENDBLK
  5
7CAF
  8
0
  0
BLOCK
  8
0
  2
*D4
 70
     1
 10
0.0
 20
0.0
 30
0.0
  3
*D4
  1

  0
LINE
  5
8205
  8
3
 62
     0
 10
2617.8655637902698
 20
8146.941722032996
 30
0.0
 11
2617.8655637902698
 21
7763.5423507865571
 31
0.0
  0
LINE
  5
8206
  8
3
 62
     0
 10
5917.864563790281
 20
8146.9417220341174
 30
0.0
 11
5917.864563790281
 21
7763.5423507865571
 31
0.0
  0
LINE
  5
8207
  8
3
 62
     0
 10
2717.8655637902698
 20
7813.5423507865571
 30
0.0
 11
5817.864563790281
 21
7813.5423507865571
 31
0.0
  0
INSERT
  5
8208
  8
3
 62
     0
  2
_OPEN
 10
2617.8655637902698
 20
7813.5423507865571
 30
0.0
 41
100.0
 42
100.0
 43
100.0
 50
180.0
  0
INSERT
  5
8209
  8
3
 62
     0
  2
_OPEN
 10
5917.864563790281
 20
7813.5423507865571
 30
0.0
 41
100.0
 42
100.0
 43
100.0
  0
TEXT
  8
3
  40
150
  5
828A
  62
0
  72
0
  71
0
 10
3776.17
 20
7673.04
 30
0.000000
  1
3300
  0
POINT
  5
820B
  8
DEFPOINTS
 62
     0
 10
2617.8655637902698
 20
8171.9417220329951
 30
0.0
  0
POINT
  5
820C
  8
DEFPOINTS
 62
     0
 10
5917.864563790281
 20
8171.9417220341184
 30
0.0
  0
POINT
  5
820D
  8
DEFPOINTS
 62
     0
 10
5917.864563790281
 20
7813.5423507865571
 30
0.0
  0
ENDBLK
  5
7CA4
  8
0
  0
BLOCK
  8
0
  2
*D5
 70
     1
 10
0.0
 20
0.0
 30
0.0
  3
*D5
  1

  0
LINE
  5
820E
  8
3
 62
     0
 10
2592.8645637893351
 20
10771.941722032991
 30
0.0
 11
2098.866362759401
 21
10771.941722032991
 31
0.0
  0
LINE
  5
820F
  8
3
 62
     0
 10
2592.8655637902698
 20
8171.9417220329951
 30
0.0
 11
2098.866362759401
 21
8171.9417220329951
 31
0.0
  0
LINE
  5
8210
  8
3
 62
     0
 10
2148.866362759401
 20
10671.941722032991
 30
0.0
 11
2148.866362759401
 21
8271.941722032996
 31
0.0
  0
INSERT
  5
8211
  8
3
 62
     0
  2
_OPEN
 10
2148.866362759401
 20
10771.941722032991
 30
0.0
 41
100.0
 42
100.0
 43
100.0
 50
90.0
  0
INSERT
  5
8212
  8
3
 62
     0
  2
_OPEN
 10
2148.866362759401
 20
8171.9417220329951
 30
0.0
 41
100.0
 42
100.0
 43
100.0
 50
270.0
  0
TEXT
  8
3
  40
150
  5
828B
  62
0
  72
0
  71
0
 10
1723.87
 20
9368.92
 30
0.000000
  1
2600
  0
POINT
  5
8214
  8
DEFPOINTS
 62
     0
 10
2617.8645637893351
 20
10771.941722032991
 30
0.0
  0
POINT
  5
8215
  8
DEFPOINTS
 62
     0
 10
2617.8655637902698
 20
8171.9417220329951
 30
0.0
  0
POINT
  5
8216
  8
DEFPOINTS
 62
     0
 10
2148.866362759401
 20
8171.9417220329951
 30
0.0
  0
ENDBLK
  5
7EA1
  8
0
  0
BLOCK
  8
0
  2
*D6
 70
     1
 10
0.0
 20
0.0
 30
0.0
  3
*D6
  1

  0
LINE
  5
8217
  8
3
 62
     0
 10
2522.8655637917759
 20
5410.9366230997821
 30
0.0
 11
2522.8655637917759
 21
6935.3766025308569
 31
0.0
  0
LINE
  5
8218
  8
3
 62
     0
 10
3567.8645637911318
 20
6601.5072146584635
 30
0.0
 11
3567.8645637911318
 21
6935.3766025308569
 31
0.0
  0
LINE
  5
8219
  8
3
 62
     0
 10
2622.8655637917759
 20
6885.3766025308578
 30
0.0
 11
3467.8645637911318
 21
6885.3766025308578
 31
0.0
  0
INSERT
  5
821A
  8
3
 62
     0
  2
_OPEN
 10
2522.8655637917759
 20
6885.3766025308578
 30
0.0
 41
100.0
 42
100.0
 43
100.0
 50
180.0
  0
INSERT
  5
821B
  8
3
 62
     0
  2
_OPEN
 10
3567.8645637911318
 20
6885.3766025308578
 30
0.0
 41
100.0
 42
100.0
 43
100.0
  0
TEXT
  8
3
  40
150
  5
828C
  62
0
  72
0
  71
0
 10
2693.14
 20
6744.88
 30
0.000000
  1
1045
  0
POINT
  5
821D
  8
DEFPOINTS
 62
     0
 10
2522.8655637917759
 20
5385.936623099783
 30
0.0
  0
POINT
  5
821E
  8
DEFPOINTS
 62
     0
 10
3567.8645637911318
 20
6576.5072146584616
 30
0.0
  0
POINT
  5
821F
  8
DEFPOINTS
 62
     0
 10
3567.8645637911318
 20
6885.3766025308578
 30
0.0
  0
ENDBLK
  5
7F81
  8
0
  0
BLOCK
  8
0
  2
*D7
 70
     1
 10
0.0
 20
0.0
 30
0.0
  3
*D7
  1

  0
LINE
  5
8220
  8
3
 62
     0
 10
4938.8645637917416
 20
5531.9366231001186
 30
0.0
 11
4938.8645637917416
 21
6935.3766025308569
 31
0.0
  0
LINE
  5
8221
  8
3
 62
     0
 10
3667.8645637911318
 20
6885.3766025308578
 30
0.0
 11
4838.8645637917416
 21
6885.3766025308578
 31
0.0
  0
INSERT
  5
8222
  8
3
 62
     0
  2
_OPEN
 10
3567.8645637911318
 20
6885.3766025308578
 30
0.0
 41
100.0
 42
100.0
 43
100.0
 50
180.0
  0
INSERT
  5
8223
  8
3
 62
     0
  2
_OPEN
 10
4938.8645637917416
 20
6885.3766025308578
 30
0.0
 41
100.0
 42
100.0
 43
100.0
  0
TEXT
  8
3
  40
150
  5
828D
  62
0
  72
0
  71
0
 10
3953.36
 20
6744.88
 30
0.000000
  1
1371
  0
POINT
  5
8225
  8
DEFPOINTS
 62
     0
 10
3567.8645637911318
 20
6576.5072146584616
 30
0.0
  0
POINT
  5
8226
  8
DEFPOINTS
 62
     0
 10
4938.8645637917416
 20
5506.9366231001204
 30
0.0
  0
POINT
  5
8227
  8
DEFPOINTS
 62
     0
 10
4938.8645637917416
 20
6885.3766025308578
 30
0.0
  0
ENDBLK
  5
7F96
  8
0
  0
BLOCK
  8
0
  2
*D8
 70
     1
 10
0.0
 20
0.0
 30
0.0
  3
*D8
  1

  0
LINE
  5
8228
  8
3
 62
     0
 10
2497.865563792398
 20
3695.9366230997821
 30
0.0
 11
2199.0807415220188
 21
3695.9366230997821
 31
0.0
  0
LINE
  5
8229
  8
3
 62
     0
 10
2497.8655637918018
 20
5345.9366230997821
 30
0.0
 11
2199.0807415220188
 21
5345.9366230997821
 31
0.0
  0
LINE
  5
822A
  8
3
 62
     0
 10
2249.0807415220188
 20
3795.936623099783
 30
0.0
 11
2249.0807415220188
 21
5245.9366230997821
 31
0.0
  0
INSERT
  5
822B
  8
3
 62
     0
  2
_OPEN
 10
2249.0807415220188
 20
3695.9366230997821
 30
0.0
 41
100.0
 42
100.0
 43
100.0
 50
270.0
  0
INSERT
  5
822C
  8
3
 62
     0
  2
_OPEN
 10
2249.0807415220188
 20
5345.9366230997821
 30
0.0
 41
100.0
 42
100.0
 43
100.0
 50
90.0
  0
TEXT
  8
3
  40
150
  5
828E
  62
0
  72
0
  71
0
 10
1824.08
 20
4239.95
 30
0.000000
  1
1650
  0
POINT
  5
822E
  8
DEFPOINTS
 62
     0
 10
2522.865563792398
 20
3695.9366230997821
 30
0.0
  0
POINT
  5
822F
  8
DEFPOINTS
 62
     0
 10
2522.8655637918018
 20
5345.9366230997821
 30
0.0
  0
POINT
  5
8230
  8
DEFPOINTS
 62
     0
 10
2249.0807415220188
 20
5345.9366230997821
 30
0.0
  0
ENDBLK
  5
7F5E
  8
0
  0
BLOCK
  8
0
  2
*D9
 70
     1
 10
0.0
 20
0.0
 30
0.0
  3
*D9
  1

  0
LINE
  5
8231
  8
3
 62
     0
 10
2497.865563792398
 20
3695.9366230997821
 30
0.0
 11
1916.52785893088
 21
3695.9366230997821
 31
0.0
  0
LINE
  5
8232
  8
3
 62
     0
 10
2435.818180364131
 20
5390.9366230997612
 30
0.0
 11
1916.52785893088
 21
5390.9366230997612
 31
0.0
  0
LINE
  5
8233
  8
3
 62
     0
 10
1966.5278589308809
 20
3795.936623099783
 30
0.0
 11
1966.5278589308809
 21
5290.9366230997612
 31
0.0
  0
INSERT
  5
8234
  8
3
 62
     0
  2
_OPEN
 10
1966.5278589308809
 20
3695.9366230997821
 30
0.0
 41
100.0
 42
100.0
 43
100.0
 50
270.0
  0
INSERT
  5
8235
  8
3
 62
     0
  2
_OPEN
 10
1966.5278589308809
 20
5390.9366230997612
 30
0.0
 41
100.0
 42
100.0
 43
100.0
 50
90.0
  0
TEXT
  8
3
  40
150
  5
828F
  62
0
  72
0
  71
0
 10
1541.53
 20
4239.95
 30
0.000000
  1
1695
  0
POINT
  5
8237
  8
DEFPOINTS
 62
     0
 10
2522.865563792398
 20
3695.9366230997821
 30
0.0
  0
POINT
  5
8238
  8
DEFPOINTS
 62
     0
 10
2460.818180364131
 20
5390.9366230997612
 30
0.0
  0
POINT
  5
8239
  8
DEFPOINTS
 62
     0
 10
1966.5278589308809
 20
5390.9366230997612
 30
0.0
  0
ENDBLK
  5
7F53
  8
0
  0
BLOCK
  8
0
  2
*D10
 70
     1
 10
0.0
 20
0.0
 30
0.0
  3
*D10
  1

  0
LINE
  5
823A
  8
3
 62
     0
 10
2435.818180364131
 20
5390.9366230997612
 30
0.0
 11
1561.7565774732079
 21
5390.9366230997612
 31
0.0
  0
LINE
  5
823B
  8
3
 62
     0
 10
2592.8645637925201
 20
3490.936623099818
 30
0.0
 11
1561.7565774732079
 21
3490.936623099818
 31
0.0
  0
LINE
  5
823C
  8
3
 62
     0
 10
1611.7565774732079
 20
5290.9366230997621
 30
0.0
 11
1611.7565774732079
 21
3590.936623099818
 31
0.0
  0
INSERT
  5
823D
  8
3
 62
     0
  2
_OPEN
 10
1611.7565774732079
 20
5390.9366230997612
 30
0.0
 41
100.0
 42
100.0
 43
100.0
 50
90.0
  0
INSERT
  5
823E
  8
3
 62
     0
  2
_OPEN
 10
1611.7565774732079
 20
3490.936623099818
 30
0.0
 41
100.0
 42
100.0
 43
100.0
 50
270.0
  0
TEXT
  8
3
  40
150
  5
8290
  62
0
  72
0
  71
0
 10
1186.76
 20
4175.44
 30
0.000000
  1
1900
  0
POINT
  5
8240
  8
DEFPOINTS
 62
     0
 10
2460.818180364131
 20
5390.9366230997612
 30
0.0
  0
POINT
  5
8241
  8
DEFPOINTS
 62
     0
 10
2617.8645637925201
 20
3490.936623099818
 30
0.0
  0
POINT
  5
8242
  8
DEFPOINTS
 62
     0
 10
1611.7565774732079
 20
3490.936623099818
 30
0.0
  0
ENDBLK
  5
7FAC
  8
0
  0
BLOCK
  8
0
  2
*D11
 70
     1
 10
0.0
 20
0.0
 30
0.0
  3
*D11
  1

  0
LINE
  5
8243
  8
3
 62
     0
 10
2592.864563792526
 20
3375.936623099818
 30
0.0
 11
1561.7565774732079
 21
3375.936623099818
 31
0.0
  0
LINE
  5
8244
  8
3
 62
     0
 10
2592.8645637925529
 20
3300.936623099818
 30
0.0
 11
1561.7565774732079
 21
3300.936623099818
 31
0.0
  0
LINE
  5
8245
  8
3
 62
     0
 10
1611.7565774732079
 20
3475.936623099818
 30
0.0
 11
1611.7565774732079
 21
3575.936623099818
 31
0.0
  0
LINE
  5
8246
  8
3
 62
     0
 10
1611.7565774732079
 20
3200.936623099818
 30
0.0
 11
1611.7565774732079
 21
2758.0794802426758
 31
0.0
  0
LINE
  5
8247
  8
3
 62
     0
 10
1611.7565774732079
 20
3375.936623099818
 30
0.0
 11
1611.7565774732079
 21
3300.936623099818
 31
0.0
  0
INSERT
  5
8248
  8
3
 62
     0
  2
_DOT
 10
1611.7565774732079
 20
3375.936623099818
 30
0.0
 41
100.0
 42
100.0
 43
100.0
 50
270.0
  0
INSERT
  5
8249
  8
3
 62
     0
  2
_OPEN
 10
1611.7565774732079
 20
3300.936623099818
 30
0.0
 41
100.0
 42
100.0
 43
100.0
 50
90.0
  0
TEXT
  8
3
  40
150
  5
8291
  62
0
  72
0
  71
0
 10
1186.76
 20
2664.01
 30
0.000000
  1
75
  0
POINT
  5
824B
  8
DEFPOINTS
 62
     0
 10
2617.8645637925251
 20
3375.936623099818
 30
0.0
  0
POINT
  5
824C
  8
DEFPOINTS
 62
     0
 10
2617.8645637925529
 20
3300.936623099818
 30
0.0
  0
POINT
  5
824D
  8
DEFPOINTS
 62
     0
 10
1611.7565774732079
 20
3300.936623099818
 30
0.0
  0
ENDBLK
  5
7FB9
  8
0
  0
BLOCK
  8
0
  2
_DOT
 70
     0
 10
0.0
 20
0.0
 30
0.0
  3
_DOT
  1

  0
LINE
  5
7F05
  8
0
  6
BYBLOCK
 62
     0
 10
0.0
 20
0.0
 30
0.0
 11
-1.0
 21
-0.0000000000000284
 31
0.0
  0
POLYLINE
  5
7F06
  8
0
  6
BYBLOCK
 62
     0
 66
     1
 10
0.0
 20
0.0
 30
0.0
 70
     1
 40
0.1666666666666666
 41
0.1666666666666666
  0
VERTEX
  5
8273
  8
0
  6
BYBLOCK
 62
     0
 10
-0.0833333333333286
 20
-0.0000000000000284
 30
0.0
 42
1.0
  0
VERTEX
  5
8274
  8
0
  6
BYBLOCK
 62
     0
 10
0.0833333333333286
 20
-0.0000000000000284
 30
0.0
 42
1.0
  0
SEQEND
  5
8275
  8
0
  6
BYBLOCK
 62
     0
  0
ENDBLK
  5
7D33
  8
0
  0
BLOCK
  8
0
  2
*D13
 70
     1
 10
0.0
 20
0.0
 30
0.0
  3
*D13
  1

  0
LINE
  5
824E
  8
3
 62
     0
 10
9148.764430901776
 20
5355.9366231005306
 30
0.0
 11
9148.764430901776
 21
7153.8580605912648
 31
0.0
  0
LINE
  5
824F
  8
3
 62
     0
 10
7885.5579768992538
 20
7013.8506192487775
 30
0.0
 11
7885.5579768992538
 21
7153.8580605912648
 31
0.0
  0
LINE
  5
8250
  8
3
 62
     0
 10
9248.7644309017778
 20
7103.8580605912657
 30
0.0
 11
9348.7644309017778
 21
7103.8580605912657
 31
0.0
  0
LINE
  5
8251
  8
3
 62
     0
 10
7785.5579768992538
 20
7103.8580605912657
 30
0.0
 11
7685.5579768992538
 21
7103.8580605912657
 31
0.0
  0
LINE
  5
8252
  8
3
 62
     0
 10
9148.764430901776
 20
7103.8580605912657
 30
0.0
 11
7885.5579768992538
 21
7103.8580605912657
 31
0.0
  0
INSERT
  5
8253
  8
3
 62
     0
  2
_OPEN
 10
9148.764430901776
 20
7103.8580605912657
 30
0.0
 41
100.0
 42
100.0
 43
100.0
 50
180.0
  0
INSERT
  5
8254
  8
3
 62
     0
  2
_OPEN
 10
7885.5579768992538
 20
7103.8580605912657
 30
0.0
 41
100.0
 42
100.0
 43
100.0
  0
TEXT
  8
3
  40
150
  5
8292
  62
0
  72
0
  71
0
 10
8081.99
 20
7002.64
 30
0.000000
  1
(1300)
  0
POINT
  5
8256
  8
DEFPOINTS
 62
     0
 10
9148.764430901776
 20
5330.9366231005306
 30
0.0
  0
POINT
  5
8257
  8
DEFPOINTS
 62
     0
 10
7885.5579768992538
 20
6988.8506192487775
 30
0.0
  0
POINT
  5
8258
  8
DEFPOINTS
 62
     0
 10
7885.5579768992538
 20
7103.8580605912657
 30
0.0
  0
ENDBLK
  5
804D
  8
0
  0
BLOCK
  8
0
  2
*D14
 70
     1
 10
0.0
 20
0.0
 30
0.0
  3
*D14
  1

  0
LINE
  5
8259
  8
3
 62
     0
 10
6402.363430901707
 20
5965.9366231002186
 30
0.0
 11
6402.363430901707
 21
7153.8580605912648
 31
0.0
  0
LINE
  5
825A
  8
3
 62
     0
 10
7785.5579768992538
 20
7103.8580605912657
 30
0.0
 11
6502.363430901707
 21
7103.8580605912657
 31
0.0
  0
INSERT
  5
825B
  8
3
 62
     0
  2
_OPEN
 10
7885.5579768992538
 20
7103.8580605912657
 30
0.0
 41
100.0
 42
100.0
 43
100.0
  0
INSERT
  5
825C
  8
3
 62
     0
  2
_OPEN
 10
6402.363430901707
 20
7103.8580605912657
 30
0.0
 41
100.0
 42
100.0
 43
100.0
 50
180.0
  0
TEXT
  8
3
  40
150
  5
8293
  62
0
  72
0
  71
0
 10
6843.96
 20
7088.36
 30
0.000000
  1
MAX
  0
TEXT
  8
3
  40
150
  5
8294
  62
0
  72
0
  71
0
 10
6843.96
 20
6893.36
 30
0.000000
  1
1580
  0
POINT
  5
825E
  8
DEFPOINTS
 62
     0
 10
7885.5579768992538
 20
6988.8506192487775
 30
0.0
  0
POINT
  5
825F
  8
DEFPOINTS
 62
     0
 10
6402.363430901707
 20
5940.9366231002195
 30
0.0
  0
POINT
  5
8260
  8
DEFPOINTS
 62
     0
 10
6402.363430901707
 20
7103.8580605912657
 30
0.0
  0
ENDBLK
  5
8037
  8
0
  0
BLOCK
  8
0
  2
*D15
 70
     1
 10
0.0
 20
0.0
 30
0.0
  3
*D15
  1

  0
LINE
  5
8261
  8
3
 62
     0
 10
8982.7644309016796
 20
6190.9366231005097
 30
0.0
 11
9516.2625062360476
 21
6190.9366231005097
 31
0.0
  0
LINE
  5
8262
  8
3
 62
     0
 10
8982.7644309018633
 20
4590.9366231005088
 30
0.0
 11
9516.2625062360476
 21
4590.9366231005088
 31
0.0
  0
LINE
  5
8263
  8
3
 62
     0
 10
9466.2625062360476
 20
6090.9366231005088
 30
0.0
 11
9466.2625062360476
 21
4690.9366231005088
 31
0.0
  0
INSERT
  5
8264
  8
3
 62
     0
  2
_OPEN
 10
9466.2625062360476
 20
6190.9366231005097
 30
0.0
 41
100.0
 42
100.0
 43
100.0
 50
90.0
  0
INSERT
  5
8265
  8
3
 62
     0
  2
_OPEN
 10
9466.2625062360476
 20
4590.9366231005088
 30
0.0
 41
100.0
 42
100.0
 43
100.0
 50
270.0
  0
TEXT
  8
3
  40
150
  5
8295
  62
0
  72
0
  71
0
 10
9041.26
 20
5088.68
 30
0.000000
  1
φ1600
  0
POINT
  5
8267
  8
DEFPOINTS
 62
     0
 10
8957.7644309016814
 20
6190.9366231005097
 30
0.0
  0
POINT
  5
8268
  8
DEFPOINTS
 62
     0
 10
8957.7644309018615
 20
4590.9366231005088
 30
0.0
  0
POINT
  5
8269
  8
DEFPOINTS
 62
     0
 10
9466.2625062360476
 20
4590.9366231005088
 30
0.0
  0
ENDBLK
  5
7E07
  8
0
  0
BLOCK
  8
0
  2
*D16
 70
     1
 10
0.0
 20
0.0
 30
0.0
  3
*D16
  1

  0
LINE
  5
826A
  8
3
 62
     0
 10
2522.8655637917759
 20
5410.9366230997821
 30
0.0
 11
2522.8655637917759
 21
7245.9283304246501
 31
0.0
  0
LINE
  5
826B
  8
3
 62
     0
 10
5917.8645637924637
 20
3665.936623101009
 30
0.0
 11
5917.8645637924637
 21
7245.9283304246501
 31
0.0
  0
LINE
  5
826C
  8
3
 62
     0
 10
2622.8655637917759
 20
7195.9283304246492
 30
0.0
 11
5817.8645637924647
 21
7195.9283304246492
 31
0.0
  0
INSERT
  5
826D
  8
3
 62
     0
  2
_OPEN
 10
2522.8655637917759
 20
7195.9283304246492
 30
0.0
 41
100.0
 42
100.0
 43
100.0
 50
180.0
  0
INSERT
  5
826E
  8
3
 62
     0
  2
_OPEN
 10
5917.8645637924637
 20
7195.9283304246492
 30
0.0
 41
100.0
 42
100.0
 43
100.0
  0
TEXT
  8
3
  40
150
  5
8296
  62
0
  72
0
  71
0
 10
4040.91
 20
7055.43
 30
0.000000
  1
3395
  0
POINT
  5
8270
  8
DEFPOINTS
 62
     0
 10
2522.8655637917759
 20
5385.936623099783
 30
0.0
  0
POINT
  5
8271
  8
DEFPOINTS
 62
     0
 10
5917.8645637924637
 20
3640.936623101009
 30
0.0
  0
POINT
  5
8272
  8
DEFPOINTS
 62
     0
 10
5917.8645637924637
 20
7195.9283304246492
 30
0.0
  0
ENDBLK
  5
7F8C
  8
0
  0
BLOCK
  8
0
  2
*D17
 70
     1
 10
0.0
 20
0.0
 30
0.0
  3
*D17
  1

  0
LINE
  5
8276
  8
3
 62
     0
 10
3658.8645637918262
 20
6529.9366231002014
 30
0.0
 11
1561.7565774732079
 21
6529.9366231002023
 31
0.0
  0
LINE
  5
8277
  8
3
 62
     0
 10
1611.7565774732079
 20
5490.9366230997621
 30
0.0
 11
1611.7565774732079
 21
6429.9366231002032
 31
0.0
  0
INSERT
  5
8278
  8
3
 62
     0
  2
_OPEN
 10
1611.7565774732079
 20
5390.9366230997612
 30
0.0
 41
100.0
 42
100.0
 43
100.0
 50
270.0
  0
INSERT
  5
8279
  8
3
 62
     0
  2
_OPEN
 10
1611.7565774732079
 20
6529.9366231002023
 30
0.0
 41
100.0
 42
100.0
 43
100.0
 50
90.0
  0
TEXT
  8
3
  40
150
  5
8297
  62
0
  72
0
  71
0
 10
1186.76
 20
5694.94
 30
0.000000
  1
1139
  0
POINT
  5
827B
  8
DEFPOINTS
 62
     0
 10
2460.818180364131
 20
5390.9366230997612
 30
0.0
  0
POINT
  5
827C
  8
DEFPOINTS
 62
     0
 10
3683.8645637918262
 20
6529.9366231002014
 30
0.0
  0
POINT
  5
827D
  8
DEFPOINTS
 62
     0
 10
1611.7565774732079
 20
6529.9366231002023
 30
0.0
  0
ENDBLK
  5
7FD0
  8
0
  0
BLOCK
  8
0
  2
*D18
 70
     1
 10
0.0
 20
0.0
 30
0.0
  3
*D18
  1

  0
LINE
  5
827E
  8
3
 62
     0
 10
6825.5634309016204
 20
6554.9366231002668
 30
0.0
 11
6825.5634309016204
 21
6796.8047186818949
 31
0.0
  0
LINE
  5
827F
  8
3
 62
     0
 10
8945.5579768994485
 20
6554.9366231005088
 30
0.0
 11
8945.5579768994485
 21
6796.8047186818949
 31
0.0
  0
LINE
  5
8280
  8
3
 62
     0
 10
6925.5634309016204
 20
6746.8047186818949
 30
0.0
 11
8845.5579768994467
 21
6746.8047186818949
 31
0.0
  0
INSERT
  5
8281
  8
3
 62
     0
  2
_OPEN
 10
6825.5634309016204
 20
6746.8047186818949
 30
0.0
 41
100.0
 42
100.0
 43
100.0
 50
180.0
  0
INSERT
  5
8282
  8
3
 62
     0
  2
_OPEN
 10
8945.5579768994485
 20
6746.8047186818949
 30
0.0
 41
100.0
 42
100.0
 43
100.0
  0
TEXT
  8
3
  40
150
  5
8298
  62
0
  72
0
  71
0
 10
7587.07
 20
6606.30
 30
0.000000
  1
2120
  0
POINT
  5
8284
  8
DEFPOINTS
 62
     0
 10
6825.5634309016204
 20
6529.9366231002678
 30
0.0
  0
POINT
  5
8285
  8
DEFPOINTS
 62
     0
 10
8945.5579768994485
 20
6529.9366231005097
 30
0.0
  0
POINT
  5
8286
  8
DEFPOINTS
 62
     0
 10
8945.5579768994485
 20
6746.8047186818949
 30
0.0
  0
ENDBLK
  5
8042
  8
0
  0
BLOCK
  8
0
  2
*D19
 70
     1
 10
0.0
 20
0.0
 30
0.0
  3
*D19
  1

  0
LINE
  5
8090
  8
0
  6
BYBLOCK
 62
     0
 10
2617.8645637925529
 20
3370.936623099818
 30
0.0
 11
2617.8645637925529
 21
3012.1458074164539
 31
0.0
  0
LINE
  5
8091
  8
0
  6
BYBLOCK
 62
     0
 10
3567.8645637925538
 20
3370.9366231001618
 30
0.0
 11
3567.8645637925538
 21
3012.1458074164539
 31
0.0
  0
LINE
  5
8092
  8
0
  6
BYBLOCK
 62
     0
 10
2717.8645637925529
 20
3062.1458074164539
 30
0.0
 11
3467.8645637925538
 21
3062.1458074164539
 31
0.0
  0
INSERT
  5
8093
  8
0
  6
BYBLOCK
 62
     0
  2
_OPEN
 10
2617.8645637925529
 20
3062.1458074164539
 30
0.0
 41
100.0
 42
100.0
 43
100.0
 50
180.0
  0
INSERT
  5
8094
  8
0
  6
BYBLOCK
 62
     0
  2
_OPEN
 10
3567.8645637925538
 20
3062.1458074164539
 30
0.0
 41
100.0
 42
100.0
 43
100.0
  0
TEXT
  5
8095
  8
3
 62
     0
 10
2900.0074209354111
 20
3112.1458074164539
 30
0.0
 40
150.0
  1
950
  0
POINT
  5
8096
  8
DEFPOINTS
  6
BYBLOCK
 62
     0
 10
2617.8645637925529
 20
3395.936623099818
 30
0.0
  0
POINT
  5
8097
  8
DEFPOINTS
  6
BYBLOCK
 62
     0
 10
3567.8645637925538
 20
3395.9366231001609
 30
0.0
  0
POINT
  5
8098
  8
DEFPOINTS
  6
BYBLOCK
 62
     0
 10
3567.8645637925538
 20
3062.1458074164539
 30
0.0
  0
ENDBLK
  5
8099
  8
0
  0
BLOCK
  8
0
  2
*D20
 70
     1
 10
0.0
 20
0.0
 30
0.0
  3
*D20
  1

  0
LINE
  5
809D
  8
0
  6
BYBLOCK
 62
     0
 10
3567.8645637925538
 20
3370.9366231001618
 30
0.0
 11
3567.8645637925538
 21
3012.1458074164539
 31
0.0
  0
LINE
  5
809E
  8
0
  6
BYBLOCK
 62
     0
 10
5917.8645637925592
 20
3370.9366231010108
 30
0.0
 11
5917.8645637925592
 21
3012.1458074164539
 31
0.0
  0
LINE
  5
809F
  8
0
  6
BYBLOCK
 62
     0
 10
3667.8645637925538
 20
3062.1458074164539
 30
0.0
 11
5817.8645637925583
 21
3062.1458074164539
 31
0.0
  0
INSERT
  5
80A0
  8
0
  6
BYBLOCK
 62
     0
  2
_OPEN
 10
3567.8645637925538
 20
3062.1458074164539
 30
0.0
 41
100.0
 42
100.0
 43
100.0
 50
180.0
  0
INSERT
  5
80A1
  8
0
  6
BYBLOCK
 62
     0
  2
_OPEN
 10
5917.8645637925592
 20
3062.1458074164539
 30
0.0
 41
100.0
 42
100.0
 43
100.0
  0
TEXT
  5
80A2
  8
3
 62
     0
 10
4478.5788495068427
 20
3112.1458074164539
 30
0.0
 40
150.0
  1
2350
  0
POINT
  5
80A3
  8
DEFPOINTS
  6
BYBLOCK
 62
     0
 10
3567.8645637925538
 20
3395.9366231001609
 30
0.0
  0
POINT
  5
80A4
  8
DEFPOINTS
  6
BYBLOCK
 62
     0
 10
5917.8645637925592
 20
3395.9366231010108
 30
0.0
  0
POINT
  5
80A5
  8
DEFPOINTS
  6
BYBLOCK
 62
     0
 10
5917.8645637925592
 20
3062.1458074164539
 30
0.0
  0
ENDBLK
  5
80A6
  8
0
  0
BLOCK
  8
0
  2
*D21
 70
     1
 10
0.0
 20
0.0
 30
0.0
  3
*D21
  1

  0
LINE
  5
80AA
  8
0
  6
BYBLOCK
 62
     0
 10
6424.5579768999942
 20
3370.9366231002218
 30
0.0
 11
6424.5579768999942
 21
3012.1458074164539
 31
0.0
  0
LINE
  5
80AB
  8
0
  6
BYBLOCK
 62
     0
 10
7885.5579769000233
 20
3370.9366231003869
 30
0.0
 11
7885.5579769000233
 21
3012.1458074164539
 31
0.0
  0
LINE
  5
80AC
  8
0
  6
BYBLOCK
 62
     0
 10
6524.5579768999951
 20
3062.1458074164539
 30
0.0
 11
7785.5579769000224
 21
3062.1458074164539
 31
0.0
  0
INSERT
  5
80AD
  8
0
  6
BYBLOCK
 62
     0
  2
_OPEN
 10
6424.5579768999942
 20
3062.1458074164539
 30
0.0
 41
100.0
 42
100.0
 43
100.0
 50
180.0
  0
INSERT
  5
80AE
  8
0
  6
BYBLOCK
 62
     0
  2
_OPEN
 10
7885.5579769000233
 20
3062.1458074164539
 30
0.0
 41
100.0
 42
100.0
 43
100.0
  0
TEXT
  5
80AF
  8
3
 62
     0
 10
6937.2008340428656
 20
3112.1458074164539
 30
0.0
 40
150.0
  1
1461
  0
POINT
  5
80B0
  8
DEFPOINTS
  6
BYBLOCK
 62
     0
 10
6424.5579768999942
 20
3395.9366231002218
 30
0.0
  0
POINT
  5
80B1
  8
DEFPOINTS
  6
BYBLOCK
 62
     0
 10
7885.5579769000233
 20
3395.9366231003869
 30
0.0
  0
POINT
  5
80B2
  8
DEFPOINTS
  6
BYBLOCK
 62
     0
 10
7885.5579769000233
 20
3062.1458074164539
 30
0.0
  0
ENDBLK
  5
80B3
  8
0
  0
BLOCK
  8
0
  2
*D22
 70
     1
 10
0.0
 20
0.0
 30
0.0
  3
*D22
  1

  0
LINE
  5
80B7
  8
0
  6
BYBLOCK
 62
     0
 10
7885.5579769000233
 20
3370.9366231003869
 30
0.0
 11
7885.5579769000233
 21
3012.1458074164539
 31
0.0
  0
LINE
  5
80B8
  8
0
  6
BYBLOCK
 62
     0
 10
9024.5579768999942
 20
3370.936623100516
 30
0.0
 11
9024.5579768999942
 21
3012.1458074164539
 31
0.0
  0
LINE
  5
80B9
  8
0
  6
BYBLOCK
 62
     0
 10
7985.5579769000233
 20
3062.1458074164539
 30
0.0
 11
8924.5579768999942
 21
3062.1458074164539
 31
0.0
  0
INSERT
  5
80BA
  8
0
  6
BYBLOCK
 62
     0
  2
_OPEN
 10
7885.5579769000233
 20
3062.1458074164539
 30
0.0
 41
100.0
 42
100.0
 43
100.0
 50
180.0
  0
INSERT
  5
80BB
  8
0
  6
BYBLOCK
 62
     0
  2
_OPEN
 10
9024.5579768999942
 20
3062.1458074164539
 30
0.0
 41
100.0
 42
100.0
 43
100.0
  0
TEXT
  5
80BC
  8
3
 62
     0
 10
8222.9151197571518
 20
3112.1458074164539
 30
0.0
 40
150.0
  1
1139
  0
POINT
  5
80BD
  8
DEFPOINTS
  6
BYBLOCK
 62
     0
 10
7885.5579769000233
 20
3395.9366231003869
 30
0.0
  0
POINT
  5
80BE
  8
DEFPOINTS
  6
BYBLOCK
 62
     0
 10
9024.5579768999942
 20
3395.936623100516
 30
0.0
  0
POINT
  5
80BF
  8
DEFPOINTS
  6
BYBLOCK
 62
     0
 10
9024.5579768999942
 20
3062.1458074164539
 30
0.0
  0
ENDBLK
  5
80C0
  8
0
  0
BLOCK
  8
0
  2
_NONE
 70
     0
 10
0.0
 20
0.0
 30
0.0
  3
_NONE
  1

  0
CIRCLE
  5
80D1
  8
0
  6
BYBLOCK
 62
     0
 10
0.0
 20
0.0
 30
0.0
 40
0.25
  0
ENDBLK
  5
80D2
  8
0
  0
BLOCK
  8
0
  2
*D24
 70
     1
 10
0.0
 20
0.0
 30
0.0
  3
*D24
  1

  0
LINE
  5
80F8
  8
0
  6
BYBLOCK
 62
     0
 10
1608.7743419671169
 20
3375.936623099818
 30
0.0
 11
1608.7743419671169
 21
3490.936623099818
 31
0.0
  0
TEXT
  5
80F9
  8
3
 62
     0
 10
1419.488627681402
 20
3037.7223373855318
 30
0.0
 40
150.0
  1
   (115)
 50
90.0
  0
POINT
  5
80FA
  8
DEFPOINTS
  6
BYBLOCK
 62
     0
 10
2617.8645637925251
 20
3375.936623099818
 30
0.0
  0
POINT
  5
80FB
  8
DEFPOINTS
  6
BYBLOCK
 62
     0
 10
2617.8645637925201
 20
3490.936623099818
 30
0.0
  0
POINT
  5
80FC
  8
DEFPOINTS
  6
BYBLOCK
 62
     0
 10
1608.7743419671169
 20
3490.936623099818
 30
0.0
  0
ENDBLK
  5
80FD
  8
0
  0
BLOCK
  8
0
  2
*D25
 70
     1
 10
0.0
 20
0.0
 30
0.0
  3
*D25
  1

  0
LINE
  5
80DE
  8
0
  6
BYBLOCK
 62
     0
 10
2592.8645637925529
 20
3300.936623099818
 30
0.0
 11
1136.7528101840869
 21
3300.936623099818
 31
0.0
  0
LINE
  5
80DF
  8
0
  6
BYBLOCK
 62
     0
 10
3633.8645637918262
 20
6529.9366231002014
 30
0.0
 11
1136.7528101840869
 21
6529.9366231002014
 31
0.0
  0
LINE
  5
80E0
  8
0
  6
BYBLOCK
 62
     0
 10
1186.7528101840869
 20
3400.936623099818
 30
0.0
 11
1186.7528101840869
 21
6429.9366231002014
 31
0.0
  0
INSERT
  5
80E1
  8
0
  6
BYBLOCK
 62
     0
  2
_OPEN
 10
1186.7528101840869
 20
3300.936623099818
 30
0.0
 41
100.0
 42
100.0
 43
100.0
 50
270.0
  0
INSERT
  5
80E2
  8
0
  6
BYBLOCK
 62
     0
  2
_OPEN
 10
1186.7528101840869
 20
6529.9366231002014
 30
0.0
 41
100.0
 42
100.0
 43
100.0
 50
90.0
  0
TEXT
  5
80E3
  8
3
 62
     0
 10
1072.4670958983729
 20
4554.7223373857241
 30
0.0
 40
150.0
  1
(3229)
 50
90.0
  0
POINT
  5
80E4
  8
DEFPOINTS
  6
BYBLOCK
 62
     0
 10
2617.8645637925529
 20
3300.936623099818
 30
0.0
  0
POINT
  5
80E5
  8
DEFPOINTS
  6
BYBLOCK
 62
     0
 10
3658.8645637918262
 20
6529.9366231002014
 30
0.0
  0
POINT
  5
80E6
  8
DEFPOINTS
  6
BYBLOCK
 62
     0
 10
1186.7528101840869
 20
6529.9366231002014
 30
0.0
  0
ENDBLK
  5
80E7
  8
0
  0
ENDSEC
  0
SECTION
  2
ENTITIES
  0
ARC
  5
7ACA
  8
1
 10
5354.3345551970851
 20
3988.62143330451
 30
0.0
 40
280.0
 50
238.69707059411371
 51
45.041632321689868
  0
LINE
  5
7ACC
  8
1
 10
5917.8645637925592
 20
3300.9366231010122
 30
0.0
 11
2617.8645637925529
 21
3300.936623099818
 31
0.0
  0
LINE
  5
7ACD
  8
1
 10
5917.8645637925283
 20
3375.9366231010099
 30
0.0
 11
2617.8645637925251
 21
3375.936623099818
 31
0.0
  0
CIRCLE
  5
7ACE
  8
1
 10
5354.3345551970851
 20
3988.62143330451
 30
0.0
 40
125.0
  0
LINE
  5
7ACF
  8
2
 10
4985.2875152490888
 20
3988.6214333043772
 30
0.0
 11
5704.9617255261328
 21
3988.6214333046369
 31
0.0
  0
LINE
  5
7AD0
  8
1
 10
5509.8136874727888
 20
3720.4307559370941
 30
0.0
 11
5198.8554229215742
 21
3720.4307559369799
 31
0.0
  0
LINE
  5
7AD1
  8
1
 10
5354.3345551971915
 20
3693.5302508704222
 30
0.0
 11
5500.081363907344
 21
3693.5302508704749
 31
0.0
  0
ARC
  5
7AD2
  8
1
 10
5354.3345551970851
 20
3988.62143330451
 30
0.0
 40
310.0
 50
300.1023080683326
 51
239.89769193170881
  0
LINE
  5
7AD3
  8
1
 10
5917.864563792521
 20
3490.9366231010122
 30
0.0
 11
2617.8645637925179
 21
3490.936623099818
 31
0.0
  0
LINE
  5
7AD4
  8
1
 10
5917.8645637924637
 20
3640.936623101009
 30
0.0
 11
2617.864563792466
 21
3640.936623099818
 31
0.0
  0
POINT
  5
7AD6
  8
1
 10
5717.8645637925047
 20
3300.936623100938
 30
0.0
 50
0.0000000000065138
  0
LINE
  5
7AD7
  8
1
 10
5634.3345551971406
 20
3855.5800863480799
 30
0.0
 11
5634.3345551971852
 21
3708.6214333046119
 31
0.0
  0
LINE
  5
7AD8
  8
1
 10
5634.3345551971852
 20
3708.6214333046119
 30
0.0
 11
5524.3345551971852
 21
3708.6214333045709
 31
0.0
  0
LINE
  5
7AD9
  8
1
 10
5634.334555197177
 20
3738.62143330461
 30
0.0
 11
5537.6375829954077
 21
3738.621433304575
 31
0.0
  0
LINE
  5
7ADA
  8
1
 10
5500.0813639073376
 20
3708.6214333045618
 30
0.0
 11
5693.22904775594
 21
3708.6214333046319
 31
0.0
  0
LINE
  5
7AE5
  8
1
 10
5693.22904775594
 20
3708.6214333046319
 30
0.0
 11
5703.967250089916
 21
3640.936623100933
 31
0.0
  0
LINE
  5
7AE6
  8
1
 10
5524.3345551971797
 20
3729.3918053682569
 30
0.0
 11
5524.334555197187
 21
3708.6214333045709
 31
0.0
  0
LINE
  5
7AE8
  8
1
 10
5500.081363907344
 20
3693.5302508704749
 30
0.0
 11
5500.0813639073376
 21
3708.6214333045618
 31
0.0
  0
CIRCLE
  5
7AE9
  8
1
 10
3567.8645637918162
 20
5390.9366231001613
 30
0.0
 40
865.0
  0
CIRCLE
  5
7AEA
  8
1
 10
3567.8645637918162
 20
5390.9366231001613
 30
0.0
 40
800.0
  0
ARC
  5
7AEB
  8
1
 10
3567.864563791798
 20
5390.9366231001613
 30
0.0
 40
550.0
 50
45.041632321689868
 51
238.69707059411371
  0
CIRCLE
  5
7AEC
  8
1
 10
3567.864563791783
 20
5390.9366231001613
 30
0.0
 40
400.0
  0
LINE
  5
7AED
  8
2
 10
3567.8645637925961
 20
3300.9366231001618
 30
0.0
 11
3567.8645637911318
 21
6576.5072146584616
 31
0.0
  0
LINE
  5
7AEE
  8
1
 10
2587.8655637918009
 20
5345.9366230998057
 30
0.0
 11
2587.8655637923962
 21
3701.9409494197348
 31
0.0
  0
LINE
  5
7AEF
  8
1
 10
2528.8655637917759
 20
5410.9366230997821
 30
0.0
 11
2528.8655637924189
 21
3630.936623099783
 31
0.0
  0
LINE
  5
7AF0
  8
1
 10
2522.865563792398
 20
3695.9366230997821
 30
0.0
 11
2522.8655637918018
 21
5345.9366230997821
 31
0.0
  0
ARC
  5
7AF1
  8
1
 10
3451.8645637918262
 20
5274.9366231001186
 30
0.0
 40
1487.0
 50
274.47500000002071
 51
4.4740000000206717
  0
LINE
  5
7AF4
  8
2
 10
2460.818180364131
 20
5390.9366230997612
 30
0.0
 11
5077.8152326989739
 21
5390.9366231007061
 31
0.0
  0
ARC
  5
7AF5
  8
1
 10
3664.8645637917489
 20
5487.936623100195
 30
0.0
 40
1042.0
 50
95.341000000020713
 51
185.3410000000207
  0
ARC
  5
7AF6
  8
1
 10
3683.8645637918262
 20
5274.9366231002014
 30
0.0
 40
1255.0
 50
5.3030000000207886
 51
95.303000000020688
  0
LINE
  5
7AF7
  8
2
 10
5354.334555196815
 20
4372.2536729510985
 30
0.0
 11
5354.3345551975654
 21
3300.936623100808
 31
0.0
  0
LINE
  5
7AF8
  8
1
 10
5074.3345551971343
 20
3855.5800863478621
 30
0.0
 11
5074.334555197187
 21
3708.6214333044081
 31
0.0
  0
LINE
  5
7AF9
  8
1
 10
5208.5877464870364
 20
3708.6214333044568
 30
0.0
 11
5015.440062638434
 21
3708.6214333043858
 31
0.0
  0
LINE
  5
7AFA
  8
1
 10
5171.0315273989436
 20
3738.6214333044431
 30
0.0
 11
5074.3345551971761
 21
3738.6214333044081
 31
0.0
  0
LINE
  5
7AFB
  8
1
 10
5354.3345551971915
 20
3693.5302508704222
 30
0.0
 11
5208.58774648704
 21
3693.5302508703699
 31
0.0
  0
LINE
  5
7AFD
  8
1
 10
5184.3345551971797
 20
3729.3918053681341
 30
0.0
 11
5184.334555197187
 21
3708.6214333044481
 31
0.0
  0
LINE
  5
7AFE
  8
1
 10
5208.58774648704
 20
3693.5302508703699
 30
0.0
 11
5208.5877464870364
 21
3708.6214333044568
 31
0.0
  0
LINE
  5
7B01
  8
1
 10
5015.440062638434
 20
3708.6214333043858
 30
0.0
 11
5004.7018603045062
 21
3640.9366231006802
 31
0.0
  0
LINE
  5
7B09
  8
1
 10
2617.8645637925251
 20
3375.936623099818
 30
0.0
 11
2617.8645637925529
 21
3300.936623099818
 31
0.0
  0
POINT
  5
7B0A
  8
1
 10
2617.8645637925529
 20
3300.936623099818
 30
0.0
 50
0.0000000000065138
  0
LINE
  5
7B0B
  8
1
 10
2522.8655637918018
 20
5345.9366230997821
 30
0.0
 11
2587.8655637918009
 21
5345.9366230998057
 31
0.0
  0
LINE
  5
7B0C
  8
1
 10
2634.8385637918
 20
5345.9366230998239
 30
0.0
 11
2522.8655637918018
 21
5345.9366230997821
 31
0.0
  0
LINE
  5
7B0D
  8
1
 10
2617.864563792466
 20
3640.936623099818
 30
0.0
 11
2617.8645637925201
 21
3490.936623099818
 31
0.0
  0
ARC
  5
7B11
  8
1
 10
3470.864563791748
 20
5487.936623100125
 30
0.0
 40
848.0
 50
186.5680000000207
 51
189.6397541141103
  0
LINE
  5
7B12
  8
1
 10
2522.8655637917759
 20
5410.9366230997821
 30
0.0
 11
2522.8655637918018
 21
5345.9366230997821
 31
0.0
  0
LINE
  5
7B13
  8
1
 10
2522.8655637917759
 20
5410.9366230997821
 30
0.0
 11
2528.8655637917759
 21
5410.9366230997821
 31
0.0
  0
LINE
  5
7B14
  8
1
 10
2522.865563792398
 20
3695.9366230997821
 30
0.0
 11
3567.8645637923601
 21
3792.4676231001599
 31
0.0
  0
LINE
  5
7B15
  8
1
 10
2522.8655637924189
 20
3630.936623099783
 30
0.0
 11
2528.8655637924189
 21
3630.936623099783
 31
0.0
  0
LINE
  5
7B16
  8
1
 10
2522.865563792398
 20
3695.9366230997821
 30
0.0
 11
2522.8655637924189
 21
3630.936623099783
 31
0.0
  0
LINE
  5
7B17
  8
1
 10
5451.9102220140558
 20
8429.7471760363278
 30
0.0
 11
5280.9102220140558
 21
8429.7471760362059
 31
0.0
  0
LINE
  5
7B18
  8
1
 10
5408.9102220141831
 20
8249.7471760362969
 30
0.0
 11
5323.9102220141831
 21
8249.747176036235
 31
0.0
  0
LINE
  5
7B19
  8
1
 10
5416.410222014063
 20
8419.7471760363005
 30
0.0
 11
5316.410222014063
 21
8419.7471760362314
 31
0.0
  0
LINE
  5
7B1A
  8
1
 10
5078.9102220140521
 20
8436.2471760360659
 30
0.0
 11
5646.4102220140521
 21
8436.2471760364624
 31
0.0
  0
LINE
  5
7B1B
  8
1
 10
5646.4102220134519
 20
9288.7471760364624
 30
0.0
 11
5078.9102220134509
 21
9288.747176036064
 31
0.0
  0
LINE
  5
7B1C
  8
1
 10
5646.4102220142613
 20
8149.7471760364133
 30
0.0
 11
3017.8645637906279
 21
8149.7471760351227
 31
0.0
  0
LINE
  5
7B1D
  8
1
 10
5491.4102220142377
 20
8189.7471760363233
 30
0.0
 11
3167.8645637906052
 21
8189.7471760352128
 31
0.0
  0
LINE
  5
7B1E
  8
1
 10
5491.4102220141667
 20
8309.7471760363223
 30
0.0
 11
3167.8645637905338
 21
8309.7471760352146
 31
0.0
  0
LINE
  5
7B1F
  8
1
 10
5917.864563789848
 20
9371.9417220341165
 30
0.0
 11
4938.8645637898489
 21
9371.9417220338819
 31
0.0
  0
LINE
  5
7B20
  8
1
 10
5917.864563790281
 20
8171.9417220341184
 30
0.0
 11
2617.8645637902682
 21
8171.9417220329969
 31
0.0
  0
LINE
  5
7B21
  8
2
 10
5366.4102220142522
 20
8149.747176036276
 30
0.0
 11
5366.4102220134528
 21
9288.7471760362641
 31
0.0
  0
LINE
  5
7B22
  8
1
 10
5491.4102220141667
 20
8309.7471760363078
 30
0.0
 11
5491.4102220142377
 21
8189.7471760363069
 31
0.0
  0
LINE
  5
7B23
  8
1
 10
5646.4102220141394
 20
8356.2370963538033
 30
0.0
 11
5646.4102220142613
 21
8149.7471760363987
 31
0.0
  0
LINE
  5
7B24
  8
1
 10
5646.4102220134519
 20
9288.7471760364624
 30
0.0
 11
5646.4102220140521
 21
8436.2471760364624
 31
0.0
  0
LINE
  5
7B25
  8
1
 10
5917.8645637898462
 20
9371.9417220341184
 30
0.0
 11
5917.864563790281
 21
8171.9417220341184
 31
0.0
  0
LINE
  5
7B26
  8
1
 10
5646.4102220140921
 20
8356.2370963538033
 30
0.0
 11
5501.8746432757735
 21
8356.2370963537178
 31
0.0
  0
LINE
  5
7B27
  8
1
 10
5416.410222014063
 20
8419.7471760363005
 30
0.0
 11
5416.4102220140549
 21
8429.7471760363005
 31
0.0
  0
LINE
  5
7B28
  8
1
 10
5408.9102220141831
 20
8249.7471760362969
 30
0.0
 11
5408.910222014063
 21
8419.7471760362969
 31
0.0
  0
ARC
  5
7B29
  8
1
 10
5451.9102220140539
 20
8431.747176036326
 30
0.0
 40
2.0
 50
270.00000000004019
 51
0.0000000000402492
  0
LINE
  5
7B2A
  8
1
 10
5453.9102220140521
 20
8436.5955510363274
 30
0.0
 11
5453.9102220140539
 21
8431.7471760363278
 31
0.0
  0
LINE
  5
7B2B
  8
2
 10
3567.8645637893778
 20
10696.941722033331
 30
0.0
 11
3567.864563790275
 21
8149.7471760353928
 31
0.0
  0
LINE
  5
7B2C
  8
1
 10
2617.8645637902682
 20
8171.9417220329951
 30
0.0
 11
2617.8645637901259
 21
8572.9417220329979
 31
0.0
  0
LINE
  5
7B2D
  8
1
 10
4517.8645637893824
 20
10692.941722033671
 30
0.0
 11
4517.8645637893533
 21
10771.941722033671
 31
0.0
  0
LINE
  5
7B2E
  8
2
 10
4938.8645637897534
 20
9632.9417220338346
 30
0.0
 11
2305.9327186010742
 21
9632.9417220328833
 31
0.0
  0
LINE
  5
7B2F
  8
1
 10
5241.4102220141667
 20
8309.7471760361586
 30
0.0
 11
5241.4102220142377
 21
8189.7471760361623
 31
0.0
  0
LINE
  5
7B30
  8
1
 10
3967.8645637905338
 20
8309.7471760356839
 30
0.0
 11
3967.8645637906052
 21
8189.7471760356839
 31
0.0
  0
LINE
  5
7B31
  8
1
 10
5078.9102220140521
 20
8436.2471760360659
 30
0.0
 11
5078.9102220134509
 21
9288.747176036064
 31
0.0
  0
LINE
  5
7B32
  8
1
 10
5316.410222014063
 20
8419.7471760362314
 30
0.0
 11
5316.4102220140558
 21
8429.7471760362314
 31
0.0
  0
LINE
  5
7B35
  8
1
 10
5323.9102220141831
 20
8249.747176036235
 30
0.0
 11
5323.910222014063
 21
8419.7471760362369
 31
0.0
  0
ARC
  5
7B36
  8
1
 10
5280.910222014053
 20
8431.7471760362077
 30
0.0
 40
2.0
 50
180.00000000004019
 51
270.00000000004019
  0
LINE
  5
7B37
  8
1
 10
5278.9102220140521
 20
8436.2471760362041
 30
0.0
 11
5278.9102220140539
 21
8431.7471760362023
 31
0.0
  0
LINE
  5
7B38
  8
1
 10
3167.8645637905338
 20
8309.7471760352146
 30
0.0
 11
3167.8645637906052
 21
8189.7471760352128
 31
0.0
  0
LINE
  5
7B39
  8
1
 10
3017.864563790507
 20
8356.2370963525264
 30
0.0
 11
3017.8645637906279
 21
8149.7471760351254
 31
0.0
  0
LINE
  5
7B3A
  8
1
 10
3251.9835828015421
 20
8356.2370963526664
 30
0.0
 11
3017.864563790507
 21
8356.2370963525264
 31
0.0
  0
LINE
  5
7B3B
  8
1
 10
4517.8645637893533
 20
10771.94172203368
 30
0.0
 11
2617.8645637893351
 21
10771.941722032991
 31
0.0
  0
LINE
  5
7B3C
  8
2
 10
9198.6127180860403
 20
5390.936623100537
 30
0.0
 11
6402.3634309017689
 21
5390.9366231002186
 31
0.0
  0
LINE
  5
7B3D
  8
1
 10
8945.5579768996686
 20
5330.9366231005079
 30
0.0
 11
9148.764430901776
 21
5330.9366231005306
 31
0.0
  0
LINE
  5
7B3E
  8
1
 10
8945.5579768997122
 20
5089.8131774701433
 30
0.0
 11
9148.7644309017978
 21
5160.9366231005324
 31
0.0
  0
LINE
  5
7B3F
  8
2
 10
7885.5579768992984
 20
6767.9625270706292
 30
0.0
 11
7885.5579769000433
 21
3300.9366231003878
 31
0.0
  0
LINE
  5
7B41
  8
1
 10
6825.5634309017278
 20
5345.9366231002678
 30
0.0
 11
6825.5634309017923
 21
4271.0426231013371
 31
0.0
  0
LINE
  5
7B42
  8
1
 10
6562.3634309019417
 20
3866.0426231013439
 30
0.0
 11
6562.3634309017234
 21
5790.9366231002377
 31
0.0
  0
LINE
  5
7B43
  8
1
 10
6442.3634309019408
 20
3866.0426231013298
 30
0.0
 11
6442.3634309017234
 21
5790.936623100225
 31
0.0
  0
LINE
  5
7B45
  8
1
 10
6402.3634309019599
 20
3711.0426231013262
 30
0.0
 11
6402.363430901707
 21
5940.9366231002195
 31
0.0
  0
LINE
  5
7B46
  8
1
 10
6757.3634309019681
 20
3640.93662310026
 30
0.0
 11
6757.3634309019599
 21
3703.5426231013362
 31
0.0
  0
LINE
  5
7B48
  8
1
 10
7541.3634309019271
 20
4271.0426231013371
 30
0.0
 11
6688.8634309019271
 21
4271.0426231013371
 31
0.0
  0
LINE
  5
7B4A
  8
1
 10
6688.8634309019271
 20
3703.5426231013362
 30
0.0
 11
7541.363430901928
 21
3703.5426231013362
 31
0.0
  0
LINE
  5
7B53
  8
1
 10
6688.863430901929
 20
3703.5426231013362
 30
0.0
 11
6688.8634309019271
 21
4271.0426231013371
 31
0.0
  0
LINE
  5
7B55
  8
1
 10
6608.853351219349
 20
3711.0426231013962
 30
0.0
 11
6608.8533512193344
 21
3855.5782018397158
 31
0.0
  0
LINE
  5
7B56
  8
1
 10
6608.853351219349
 20
3711.0426231013489
 30
0.0
 11
6402.3634309019462
 21
3711.0426231013262
 31
0.0
  0
LINE
  5
7B58
  8
1
 10
6562.3634309019262
 20
3866.0426231013439
 30
0.0
 11
6442.3634309019271
 21
3866.0426231013298
 31
0.0
  0
LINE
  5
7B59
  8
1
 10
6562.363430901898
 20
4116.0426231013444
 30
0.0
 11
6442.363430901898
 21
4116.0426231013289
 31
0.0
  0
LINE
  5
7B5A
  8
2
 10
7541.3634309019271
 20
3991.0426231014571
 30
0.0
 11
6402.3634309019299
 21
3991.0426231013262
 31
0.0
  0
LINE
  5
7B5B
  8
1
 10
6672.363430901928
 20
4041.0426231013362
 30
0.0
 11
6672.363430901928
 21
3941.0426231013371
 31
0.0
  0
LINE
  5
7B5C
  8
1
 10
6502.363430901929
 20
4033.5426231013362
 30
0.0
 11
6502.3634309019299
 21
3948.5426231013362
 31
0.0
  0
LINE
  5
7B5D
  8
1
 10
6682.3634309019271
 20
4076.5426231013362
 30
0.0
 11
6682.363430901928
 21
3905.5426231013362
 31
0.0
  0
LINE
  5
7B5E
  8
1
 10
6502.3634309019271
 20
3948.5426231013371
 30
0.0
 11
6672.363430901928
 21
3948.5426231013371
 31
0.0
  0
LINE
  5
7B61
  8
1
 10
6688.8634309019271
 20
3903.5426231013371
 30
0.0
 11
6684.363430901928
 21
3903.5426231013371
 31
0.0
  0
ARC
  5
7B62
  8
1
 10
6684.363430901928
 20
3905.5426231013362
 30
0.0
 40
2.0
 50
180.0
 51
270.0
  0
LINE
  5
7B63
  8
1
 10
6672.363430901928
 20
3941.0426231013371
 30
0.0
 11
6682.3634309019271
 21
3941.0426231013371
 31
0.0
  0
LINE
  5
7B64
  8
1
 10
6502.363430901929
 20
4033.5426231013362
 30
0.0
 11
6672.363430901928
 21
4033.5426231013362
 31
0.0
  0
LINE
  5
7B65
  8
1
 10
6689.2118059019276
 20
4078.5426231013371
 30
0.0
 11
6684.363430901928
 21
4078.5426231013371
 31
0.0
  0
ARC
  5
7B66
  8
1
 10
6684.363430901928
 20
4076.5426231013362
 30
0.0
 40
2.0
 50
90.000000000000057
 51
180.0
  0
LINE
  5
7B67
  8
1
 10
6672.363430901928
 20
4041.0426231013362
 30
0.0
 11
6682.363430901928
 21
4041.0426231013362
 31
0.0
  0
LINE
  5
7B68
  8
1
 10
6592.363430901778
 20
5310.9366231002396
 30
0.0
 11
6825.5634309017414
 21
5310.9366231002668
 31
0.0
  0
LINE
  5
7B69
  8
1
 10
6592.363430901798
 20
5130.9366231002396
 30
0.0
 11
6822.3634309018062
 21
5060.937202088774
 31
0.0
  0
LINE
  5
7B6A
  8
1
 10
6562.3634309017634
 20
5445.9366231002368
 30
0.0
 11
6825.5634309017159
 21
5445.9366231002668
 31
0.0
  0
LINE
  5
7B6B
  8
1
 10
6562.3634309017752
 20
5335.9366231002368
 30
0.0
 11
6825.5634309017369
 21
5335.9366231002659
 31
0.0
  0
LINE
  5
7B6C
  8
1
 10
6592.363430901778
 20
5310.9366231002396
 30
0.0
 11
6592.363430901798
 21
5130.9366231002396
 31
0.0
  0
LINE
  5
7B6D
  8
1
 10
6562.3634309018134
 20
4990.9366231002359
 30
0.0
 11
6442.3634309018144
 21
4990.936623100225
 31
0.0
  0
LINE
  5
7B6F
  8
1
 10
7541.3634309019271
 20
4271.0426231013371
 30
0.0
 11
7541.363430901928
 21
3703.5426231013371
 31
0.0
  0
LINE
  5
7B78
  8
1
 10
8945.7311667174654
 20
3695.9366231005092
 30
0.0
 11
6825.5634309018251
 21
3695.9366231002691
 31
0.0
  0
LINE
  5
7B79
  8
1
 10
6608.8533512191098
 20
5940.9366231002423
 30
0.0
 11
6402.363430901707
 21
5940.9366231002195
 31
0.0
  0
LINE
  5
7B7A
  8
1
 10
6562.3634309017216
 20
5790.9366231002377
 30
0.0
 11
6442.3634309017234
 21
5790.936623100225
 31
0.0
  0
LINE
  5
7B7B
  8
1
 10
6608.8533512191379
 20
5706.8176040892076
 30
0.0
 11
6608.8533512191098
 21
5940.9366231002423
 31
0.0
  0
LINE
  5
7B7F
  8
1
 10
9148.764430901776
 20
5330.9366231005306
 30
0.0
 11
9148.7644309017978
 21
5160.9366231005324
 31
0.0
  0
LINE
  5
7B80
  8
1
 10
2522.8645637893601
 20
10757.94172203296
 30
0.0
 11
2522.86456379015
 21
8507.9417220329597
 31
0.0
  0
LINE
  5
7B81
  8
1
 10
4938.8645637893824
 20
10692.941722033829
 30
0.0
 11
4938.8645637901263
 21
8572.9417220338328
 31
0.0
  0
LINE
  5
7B82
  8
1
 10
4938.8645637893824
 20
10692.941722033829
 30
0.0
 11
2522.8645637893819
 21
10692.94172203296
 31
0.0
  0
LINE
  5
7B83
  8
1
 10
4938.8645637901282
 20
8572.9417220338346
 30
0.0
 11
2522.8645637901282
 21
8572.9417220329633
 31
0.0
  0
LINE
  5
7B84
  8
1
 10
2587.8645637893819
 20
10692.94172203298
 30
0.0
 11
2587.8645637901282
 21
8572.9417220329833
 31
0.0
  0
LINE
  5
7B85
  8
1
 10
2528.8645637893601
 20
10757.94172203296
 30
0.0
 11
2522.8645637893569
 21
10757.94172203296
 31
0.0
  0
LINE
  5
7B86
  8
1
 10
2528.86456379015
 20
8507.9417220329633
 30
0.0
 11
2522.86456379015
 21
8507.9417220329615
 31
0.0
  0
LINE
  5
7B87
  8
1
 10
2528.8645637893601
 20
10757.94172203296
 30
0.0
 11
2528.86456379015
 21
8507.9417220329615
 31
0.0
  0
LINE
  5
7B88
  8
1
 10
2617.8645637893642
 20
10692.941722032991
 30
0.0
 11
2617.8645637893351
 21
10771.941722032991
 31
0.0
  0
LINE
  5
7B89
  8
1
 10
3512.8645637901259
 20
8572.941722033318
 30
0.0
 11
3512.8645637902182
 21
8309.7471760353783
 31
0.0
  0
LINE
  5
7B8A
  8
1
 10
3622.8645637901259
 20
8572.9417220333598
 30
0.0
 11
3622.8645637902191
 21
8309.7471760354292
 31
0.0
  0
DIMENSION
  5
7B9E
  8
3
  2
*D1
 10
4517.8645637893533
 20
11273.42210295274
 30
0.0
 11
3559.046473311485
 21
11273.42210295274
 31
0.0
 70
   128
 13
2617.8645637893351
 23
10771.941722032991
 33
0.0
 14
4517.8645637893533
 24
10771.94172203368
 34
0.0
1001
ACAD
1000
DSTYLE
1002
{
1070
   287
1070
     3
1070
   287
1070
     3
1070
    40
1040
50.0
1070
   143
1040
0.039
1070
   172
1070
     1
1070
   271
1070
     0
1070
   279
1070
     0
1070
   288
1070
     1
1002
}
  0
DIMENSION
  5
7BAA
  8
3
  2
*D2
 10
5917.8645637898462
 20
11273.42210295274
 30
0.0
 11
5217.8645637895997
 21
11398.42210295274
 31
0.0
 70
     0
 13
4517.8645637893533
 23
10771.94172203368
 33
0.0
 14
5917.8645637898462
 24
9371.9417220341165
 34
0.0
1001
ACAD
1000
DSTYLE
1002
{
1070
   287
1070
     4
1070
   287
1070
     4
1070
    40
1040
50.0
1070
    75
1070
     1
1070
   143
1040
0.039
1070
   172
1070
     1
1070
   271
1070
     0
1070
   279
1070
     1
1070
   288
1070
     1
1002
}
  0
DIMENSION
  5
7BB7
  8
3
  2
*D3
 10
6237.7856498112023
 20
8171.9417220341156
 30
0.0
 11
6237.7856498112014
 21
8887.8205245850477
 31
0.0
 70
   128
 13
5917.8645637898462
 23
9371.9417220341165
 33
0.0
 14
5917.864563790281
 24
8171.9417220341184
 34
0.0
 50
90.0
1001
ACAD
1000
DSTYLE
1002
{
1070
   287
1070
     3
1070
   287
1070
     3
1070
    40
1040
50.0
1070
   143
1040
0.039
1070
   172
1070
     1
1070
   271
1070
     0
1070
   279
1070
     0
1070
   288
1070
     1
1002
}
  0
DIMENSION
  5
7BC4
  8
3
  2
*D4
 10
5917.864563790281
 20
7813.5423507865571
 30
0.0
 11
4076.169948872644
 21
7813.5423507865571
 31
0.0
 70
   128
 13
2617.8655637902698
 23
8171.9417220329951
 33
0.0
 14
5917.864563790281
 24
8171.9417220341184
 34
0.0
1001
ACAD
1000
DSTYLE
1002
{
1070
   287
1070
     3
1070
   287
1070
     3
1070
    40
1040
50.0
1070
   143
1040
0.039
1070
   172
1070
     1
1070
   271
1070
     0
1070
   279
1070
     0
1070
   288
1070
     1
1002
}
  0
DIMENSION
  5
7BD1
  8
3
  2
*D5
 10
2148.866362759401
 20
8171.9417220329951
 30
0.0
 11
2148.8663627593992
 21
9634.4184690736292
 31
0.0
 70
   128
 13
2617.8645637893351
 23
10771.941722032991
 33
0.0
 14
2617.8655637902698
 24
8171.9417220329951
 34
0.0
 50
90.0
1001
ACAD
1000
DSTYLE
1002
{
1070
   287
1070
     3
1070
   287
1070
     3
1070
    40
1040
50.0
1070
   143
1040
0.039
1070
   172
1070
     1
1070
   271
1070
     0
1070
   279
1070
     0
1070
   288
1070
     1
1002
}
  0
LINE
  5
7CB0
  8
1
 10
5917.8645637925592
 20
3300.9366231010122
 30
0.0
 11
5917.8645637925301
 21
3375.9366231010108
 31
0.0
  0
LINE
  5
7CB1
  8
1
 10
5917.8645637925219
 20
3490.9366231010122
 30
0.0
 11
5917.8645637924637
 21
3640.936623101009
 31
0.0
  0
DIMENSION
  5
7CBF
  8
3
  2
*D6
 10
3567.8645637911318
 20
6885.3766025308578
 30
0.0
 11
2993.1366679592029
 21
6885.3766025308578
 31
0.0
 70
   128
 13
2522.8655637917759
 23
5385.936623099783
 33
0.0
 14
3567.8645637911318
 24
6576.5072146584616
 34
0.0
1001
ACAD
1000
DSTYLE
1002
{
1070
   287
1070
     3
1070
   287
1070
     3
1070
    40
1040
50.0
1070
   143
1040
0.039
1070
   172
1070
     1
1070
   271
1070
     0
1070
   279
1070
     0
1070
   288
1070
     1
1002
}
  0
DIMENSION
  5
7CCB
  8
3
  2
*D7
 10
4938.8645637917416
 20
6885.3766025308578
 30
0.0
 11
4253.3645637914369
 21
7010.3766025308578
 31
0.0
 70
     0
 13
3567.8645637911318
 23
6576.5072146584616
 33
0.0
 14
4938.8645637917416
 24
5506.9366231001204
 34
0.0
1001
ACAD
1000
DSTYLE
1002
{
1070
   287
1070
     4
1070
   287
1070
     4
1070
    40
1040
50.0
1070
    75
1070
     1
1070
   143
1040
0.039
1070
   172
1070
     1
1070
   271
1070
     0
1070
   279
1070
     1
1070
   288
1070
     1
1002
}
  0
DIMENSION
  5
7CD8
  8
3
  2
*D8
 10
2249.0807415220188
 20
5345.9366230997821
 30
0.0
 11
2249.0807415220188
 21
4505.45268452448
 31
0.0
 70
   128
 13
2522.865563792398
 23
3695.9366230997821
 33
0.0
 14
2522.8655637918018
 24
5345.9366230997821
 34
0.0
 50
90.000000000041396
1001
ACAD
1000
DSTYLE
1002
{
1070
   287
1070
     3
1070
   287
1070
     3
1070
    40
1040
50.0
1070
   143
1040
0.039
1070
   172
1070
     1
1070
   271
1070
     0
1070
   279
1070
     0
1070
   288
1070
     1
1002
}
  0
DIMENSION
  5
7CF2
  8
3
  2
*D9
 10
1966.5278589308809
 20
5390.9366230997612
 30
0.0
 11
1966.52785893088
 21
4505.4526845242763
 31
0.0
 70
   128
 13
2522.865563792398
 23
3695.9366230997821
 33
0.0
 14
2460.818180364131
 24
5390.9366230997612
 34
0.0
 50
90.000000000041396
1001
ACAD
1000
DSTYLE
1002
{
1070
   287
1070
     3
1070
   287
1070
     3
1070
    40
1040
50.0
1070
   143
1040
0.039
1070
   172
1070
     1
1070
   271
1070
     0
1070
   279
1070
     0
1070
   288
1070
     1
1002
}
  0
DIMENSION
  5
7CFE
  8
3
  2
*D10
 10
1611.7565774732079
 20
3490.936623099818
 30
0.0
 11
1486.7565774732079
 21
4440.9366230997903
 31
0.0
 70
     0
 13
2460.818180364131
 23
5390.9366230997612
 33
0.0
 14
2617.8645637925201
 24
3490.936623099818
 34
0.0
 50
90.0
1001
ACAD
1000
DSTYLE
1002
{
1070
   287
1070
     3
1070
   287
1070
     3
1070
    40
1040
50.0
1070
   143
1040
0.039
1070
   172
1070
     1
1070
   271
1070
     0
1070
   279
1070
     0
1070
   288
1070
     1
1002
}
  0
DIMENSION
  5
7D1E
  8
3
  2
*D11
 10
1611.7565774732079
 20
3300.936623099818
 30
0.0
 11
1486.7565774732079
 21
2929.5080516712469
 31
0.0
 70
     0
 13
2617.8645637925251
 23
3375.936623099818
 33
0.0
 14
2617.8645637925529
 24
3300.936623099818
 34
0.0
 50
90.0
1001
ACAD
1000
DSTYLE
1002
{
1070
   287
1070
     3
1070
   287
1070
     3
1070
    40
1040
50.0
1070
   143
1040
0.039
1070
   172
1070
     1
1070
   271
1070
     0
1070
   279
1070
     0
1070
   288
1070
     1
1070
     6
1000
DOT
1002
}
  0
LINE
  5
7D6C
  8
1
 10
6825.5634309016204
 20
6529.9366231002687
 30
0.0
 11
6825.5634309017296
 21
5345.9366231002678
 31
0.0
  0
DIMENSION
  5
7DB8
  8
3
  2
*D13
 10
7885.5579768992538
 20
7103.8580605912657
 30
0.0
 11
8381.9865483278245
 21
7103.8580605912657
 31
0.0
 70
   128
  1
(1300)
 13
9148.764430901776
 23
5330.9366231005306
 33
0.0
 14
7885.5579768992538
 24
6988.8506192487775
 34
0.0
1001
ACAD
1000
DSTYLE
1002
{
1070
   287
1070
     3
1070
   287
1070
     3
1070
    40
1040
50.0
1070
   143
1040
0.039
1070
   172
1070
     1
1070
   271
1070
     0
1070
   279
1070
     0
1070
   288
1070
     1
1002
}
  0
DIMENSION
  5
7DC4
  8
3
  2
*D14
 10
6402.363430901707
 20
7103.8580605912657
 30
0.0
 11
7143.9607039004813
 21
7353.8580605912657
 31
0.0
 70
     0
  1
MAX\P1580
 13
7885.5579768992538
 23
6988.8506192487775
 33
0.0
 14
6402.363430901707
 24
5940.9366231002195
 34
0.0
1001
ACAD
1000
DSTYLE
1002
{
1070
   287
1070
     4
1070
   287
1070
     4
1070
    40
1040
50.0
1070
    75
1070
     1
1070
   143
1040
0.039
1070
   172
1070
     1
1070
   271
1070
     0
1070
   279
1070
     1
1070
   288
1070
     1
1002
}
  0
DIMENSION
  5
7DFC
  8
3
  2
*D15
 10
9466.2625062360476
 20
4590.9366231005088
 30
0.0
 11
9466.2625062360476
 21
5354.176211675338
 31
0.0
 70
   128
 13
8957.7644309016814
 23
6190.9366231005097
 33
0.0
 14
8957.7644309018615
 24
4590.9366231005088
 34
0.0
 50
90.0
1001
ACAD
1000
DSTYLE
1002
{
1070
   287
1070
     3
1070
   287
1070
     3
1070
     3
1000
φ<>
1070
    40
1040
50.0
1070
   143
1040
0.039
1070
   172
1070
     1
1070
   271
1070
     0
1070
   279
1070
     0
1070
   288
1070
     1
1002
}
  0
DIMENSION
  5
7E17
  8
3
  2
*D16
 10
5917.8645637924637
 20
7195.9283304246492
 30
0.0
 11
4340.913987879343
 21
7195.9283304246492
 31
0.0
 70
   128
 13
2522.8655637917759
 23
5385.936623099783
 33
0.0
 14
5917.8645637924637
 24
3640.936623101009
 34
0.0
1001
ACAD
1000
DSTYLE
1002
{
1070
   287
1070
     3
1070
   287
1070
     3
1070
    40
1040
50.0
1070
   143
1040
0.039
1070
   172
1070
     1
1070
   271
1070
     0
1070
   279
1070
     0
1070
   288
1070
     1
1002
}
  0
LINE
  5
7EAD
  8
1
 10
6424.557976899956
 20
3640.9366231002218
 30
0.0
 11
6424.5579768999833
 21
3490.9366231002209
 31
0.0
  0
LINE
  5
7EAE
  8
1
 10
9024.557976899956
 20
3640.936623100516
 30
0.0
 11
9024.5579768999887
 21
3490.936623100516
 31
0.0
  0
LINE
  5
7EAF
  8
1
 10
9024.5579768999814
 20
3490.936623100516
 30
0.0
 11
6424.5579768999842
 21
3490.9366231002209
 31
0.0
  0
LINE
  5
7EB0
  8
1
 10
9024.557976899956
 20
3640.936623100516
 30
0.0
 11
6424.5579768999678
 21
3640.9366231002218
 31
0.0
  0
LINE
  5
7EB2
  8
1
 10
9024.5579768999833
 20
3375.936623100516
 30
0.0
 11
6424.557976899986
 21
3375.9366231002209
 31
0.0
  0
LINE
  5
7EB3
  8
1
 10
9024.5579768999942
 20
3300.936623100517
 30
0.0
 11
6424.5579768999942
 21
3300.9366231002218
 31
0.0
  0
LINE
  5
7EB4
  8
1
 10
6424.5579768999869
 20
3375.9366231002209
 30
0.0
 11
6424.5579769000014
 21
3300.9366231002218
 31
0.0
  0
LINE
  5
7EB5
  8
1
 10
9024.5579768999887
 20
3375.936623100516
 30
0.0
 11
9024.5579769000033
 21
3300.936623100517
 31
0.0
  0
LINE
  5
7EE0
  8
4
 10
9250.0
 20
2500.0
 30
0.0
 11
9250.0
 21
1500.0
 31
0.0
  0
LINE
  5
7EE1
  8
4
 10
5750.0
 20
2500.0
 30
0.0
 11
5750.0
 21
1500.0
 31
0.0
  0
LINE
  5
7EE2
  8
4
 10
3250.0
 20
2500.0
 30
0.0
 11
3250.0
 21
1500.0
 31
0.0
  0
LINE
  5
7EE5
  8
4
 10
3250.0
 20
1500.0
 30
0.0
 11
9250.0
 21
1500.0
 31
0.0
  0
LINE
  5
7EE6
  8
4
 10
3250.0
 20
2000.0
 30
0.0
 11
9250.0
 21
2000.0
 31
0.0
  0
TEXT
  5
7EE7
  8
4
 10
3442.5104042345079
 20
2157.7151293330639
 30
0.0
 40
250.0
  1
機器名称
  0
TEXT
  5
7EE8
  8
4
 10
3431.2905301239871
 20
1608.225783660054
 30
0.0
 40
250.0
  1
機器型番
  0
TEXT
  5
7EE9
  8
4
 10
5898.2903601445887
 20
2121.0409636904592
 30
0.0
 40
212.5
  1
ミツヤ多翼送風機
  0
TEXT
  5
7EEA
  8
4
 10
5933.2724779274031
 20
1585.797921399716
 30
0.0
 40
250.0
  1
MF#10-5
  0
TEXT
  5
7EEC
  8
4
 10
3999.827685028838
 20
11917.14420666257
 30
0.0
 40
270.0
  1
床置防振ベット
  0
TEXT
  5
7EED
  8
4
 10
1493.4877664224621
 20
12669.40488099649
 30
0.0
 40
360.0
  1
遠心式両吸込両持多翼ファン
  0
LINE
  5
7EEE
  8
4
 10
1250.0
 20
12347.043771324021
 30
0.0
 11
9250.0
 21
12347.043771324021
 31
0.0
  0
LINE
  5
7EEF
  8
4
 10
1250.0
 20
13347.043771324021
 30
0.0
 11
9250.0
 21
13347.043771324021
 31
0.0
  0
LINE
  5
7EF0
  8
4
 10
3250.0
 20
2500.0
 30
0.0
 11
9250.0
 21
2500.0
 31
0.0
  0
LINE
  5
7EF1
  8
4
 10
1250.0
 20
13347.043771324021
 30
0.0
 11
1250.0
 21
12347.043771324021
 31
0.0
  0
TEXT
  5
7EF2
  8
4
 10
1820.533523815327
 20
11911.59738773171
 30
0.0
 40
270.0
  1
右回転左横向
  0
TEXT
  5
7EF3
  8
4
 10
7344.8477962464494
 20
13530.30540747654
 30
0.0
 40
280.0
  1
No.
  0
TEXT
  5
7EF4
  8
4
 10
6556.4803130000646
 20
11917.14420666257
 30
0.0
 40
270.0
  1
縮尺：1/50
  0
LINE
  5
7EF5
  8
4
 10
9250.0
 20
13347.043771324021
 30
0.0
 11
9250.0
 21
12347.043771324021
 31
0.0
  0
LINE
  5
7EF6
  8
4
 10
10500.0
 20
14750.0
 30
0.0
 11
10500.0
 21
14750.0
 31
0.0
  0
LINE
  5
7EF7
  8
4
 10
7203.0871117993229
 20
13406.317915627
 30
0.0
 11
7203.0871117993229
 21
13933.26130774876
 31
0.0
  0
LINE
  5
7EF8
  8
4
 10
7203.0871117993229
 20
13933.26130774876
 30
0.0
 11
9250.0
 21
13933.26130774876
 31
0.0
  0
LINE
  5
7EF9
  8
4
 10
9250.0
 20
13933.26130774876
 30
0.0
 11
9250.0
 21
13406.317915627
 31
0.0
  0
LINE
  5
7EFA
  8
4
 10
9250.0
 20
13406.317915627
 30
0.0
 11
7203.0871117993229
 21
13406.317915627
 31
0.0
  0
LINE
  5
7EFB
  8
4
 10
0.0
 20
0.0
 30
0.0
 11
0.0
 21
14750.0
 31
0.0
  0
LINE
  5
7EFC
  8
4
 10
0.0
 20
14750.0
 30
0.0
 11
10500.0
 21
14750.0
 31
0.0
  0
LINE
  5
7EFD
  8
4
 10
10500.0
 20
14750.0
 30
0.0
 11
10500.0
 21
0.0
 31
0.0
  0
LINE
  5
7EFE
  8
4
 10
10500.0
 20
0.0
 30
0.0
 11
0.0
 21
0.0
 31
0.0
  0
LINE
  5
7F22
  8
1
 10
5552.1805380390288
 20
4186.7551433926856
 30
0.0
 11
3956.4906015170441
 21
5780.1278393447928
 31
0.0
  0
LINE
  5
7F23
  8
1
 10
3282.1050250118578
 20
4920.9988761631057
 30
0.0
 11
5208.8569718182071
 21
3749.3803985001909
 31
0.0
  0
LINE
  5
7F24
  8
1
 10
5442.854588201335
 20
4076.8778991125541
 30
0.0
 11
3851.1286694053852
 21
5673.3573136859013
 31
0.0
  0
LINE
  5
7F25
  8
1
 10
5289.6262117635069
 20
3881.6736409472942
 30
0.0
 11
3360.797864804334
 21
5048.7036875570711
 31
0.0
  0
DIMENSION
  5
7FD1
  8
3
  2
*D17
 10
1611.7565774732079
 20
6529.9366231002023
 30
0.0
 11
1486.756577473207
 21
5960.4366230999822
 31
0.0
 70
     0
 13
2460.818180364131
 23
5390.9366230997612
 33
0.0
 14
3683.8645637918262
 24
6529.9366231002014
 34
0.0
 50
90.0
1001
ACAD
1000
DSTYLE
1002
{
1070
   287
1070
     4
1070
   287
1070
     4
1070
    40
1040
50.0
1070
    75
1070
     1
1070
   143
1040
0.039
1070
   172
1070
     1
1070
   271
1070
     0
1070
   279
1070
     1
1070
   288
1070
     1
1002
}
  0
LINE
  5
8005
  8
1
 10
6825.5634309018251
 20
3703.5426231013362
 30
0.0
 11
6825.5634309018251
 21
3695.9366231002691
 31
0.0
  0
LINE
  5
8008
  8
1
 10
8945.5579768994485
 20
6529.9366231005097
 30
0.0
 11
8945.5579768999705
 21
3695.9366231005092
 31
0.0
  0
LINE
  5
800A
  8
1
 10
8945.5579768994485
 20
6529.9366231005097
 30
0.0
 11
6825.5634309016204
 21
6529.9366231002678
 31
0.0
  0
DIMENSION
  5
802D
  8
3
  2
*D18
 10
8945.5579768994485
 20
6746.8047186818949
 30
0.0
 11
7887.0732162479544
 21
6746.8047186818949
 31
0.0
 70
   128
 13
6825.5634309016204
 23
6529.9366231002678
 33
0.0
 14
8945.5579768994485
 24
6529.9366231005097
 34
0.0
1001
ACAD
1000
DSTYLE
1002
{
1070
   287
1070
     3
1070
   287
1070
     3
1070
    40
1040
50.0
1070
   143
1040
0.039
1070
   172
1070
     1
1070
   271
1070
     0
1070
   279
1070
     0
1070
   288
1070
     1
1002
}
  0
DIMENSION
  5
809A
  8
3
  2
*D19
 10
3567.8645637925538
 20
2967.1458074164539
 30
0.0
 11
3092.8645637925538
 21
3092.1458074164539
 31
0.0
 12
0.0
 22
-95.0
 32
0.0
 70
     0
 13
2617.8645637925529
 23
3300.936623099818
 33
0.0
 14
3567.8645637925538
 24
3300.9366231001618
 34
0.0
1001
ACAD
1000
DSTYLE
1002
{
1070
   172
1070
     1
1070
    40
1040
50.0
1070
   271
1070
     0
1070
   143
1040
0.039
1002
}
  0
DIMENSION
  5
80A7
  8
3
  2
*D20
 10
5917.8645637925592
 20
2967.1458074164539
 30
0.0
 11
4742.8645637925556
 21
3092.1458074164539
 31
0.0
 12
0.0
 22
-95.0
 32
0.0
 70
     0
 13
3567.8645637925538
 23
3300.9366231001618
 33
0.0
 14
5917.8645637925592
 24
3300.9366231010122
 34
0.0
1001
ACAD
1000
DSTYLE
1002
{
1070
   172
1070
     1
1070
    40
1040
50.0
1070
   271
1070
     0
1070
   143
1040
0.039
1002
}
  0
DIMENSION
  5
80B4
  8
3
  2
*D21
 10
7885.5579769000233
 20
2967.1458074164539
 30
0.0
 11
7155.0579769000087
 21
3092.1458074164539
 31
0.0
 12
0.0
 22
-95.0
 32
0.0
 70
     0
 13
6424.5579768999942
 23
3300.9366231002218
 33
0.0
 14
7885.5579769000233
 24
3300.936623100386
 34
0.0
1001
ACAD
1000
DSTYLE
1002
{
1070
   172
1070
     1
1070
    40
1040
50.0
1070
   271
1070
     0
1070
   143
1040
0.039
1002
}
  0
DIMENSION
  5
80C1
  8
3
  2
*D22
 10
9024.5579768999942
 20
2967.1458074164539
 30
0.0
 11
8455.0579769000087
 21
3092.1458074164539
 31
0.0
 12
0.0
 22
-95.0
 32
0.0
 70
     0
 13
7885.5579769000233
 23
3300.936623100386
 33
0.0
 14
9024.5579768999942
 24
3300.936623100517
 34
0.0
1001
ACAD
1000
DSTYLE
1002
{
1070
   172
1070
     1
1070
    40
1040
50.0
1070
   271
1070
     0
1070
   143
1040
0.039
1002
}
  0
DIMENSION
  5
80DB
  8
3
  2
*D24
 10
1608.7743419671169
 20
3490.936623099818
 30
0.0
 11
1369.488627681402
 21
3433.436623099818
 31
0.0
 70
     0
  1
   <>
 13
2617.8645637925251
 23
3375.936623099818
 33
0.0
 14
2617.8645637925201
 24
3490.936623099818
 34
0.0
 50
90.0
1001
ACAD
1000
DSTYLE
1002
{
1070
   172
1070
     1
1070
    76
1070
     1
1070
    75
1070
     1
1070
    40
1040
50.0
1070
     3
1000
(<>)
1070
   271
1070
     0
1070
     7
1000
_NONE
1070
     6
1000
_NONE
1070
   143
1040
0.039
1002
}
  0
DIMENSION
  5
80E8
  8
3
  2
*D25
 10
1186.7528101840869
 20
6529.9366231002014
 30
0.0
 11
1022.467095898373
 21
4915.4366231000104
 31
0.0
 70
     0
 13
2617.8645637925529
 23
3300.936623099818
 33
0.0
 14
3658.8645637918262
 24
6529.9366231002014
 34
0.0
 50
90.0
1001
ACAD
1000
DSTYLE
1002
{
1070
   172
1070
     1
1070
    40
1040
50.0
1070
     3
1000
(<>)
1070
   271
1070
     0
1070
   143
1040
0.039
1002
}
  0
ENDSEC
  0
EOF
