  0
SECTION
  2
HEADER
  9
$ACADVER
  1
AC1009
  9
$INSBASE
 10
0.0
 20
0.0
 30
0.0
  9
$EXTMIN
 10
0.0
 20
0.0
 30
0.0
  9
$EXTMAX
 10
10500.0
 20
14750.0
 30
0.0
  9
$LIMMIN
 10
0.0
 20
0.0
  9
$LIMMAX
 10
297.0
 20
210.0
  9
$ORTHOMODE
 70
     0
  9
$REGENMODE
 70
     1
  9
$FILLMODE
 70
     0
  9
$QTEXTMODE
 70
     0
  9
$MIRRTEXT
 70
     1
  9
$DRAGMODE
 70
     2
  9
$LTSCALE
 40
100.0
  9
$OSMODE
 70
    37
  9
$ATTMODE
 70
     1
  9
$TEXTSIZE
 40
180.0
  9
$TRACEWID
 40
0.05
  9
$TEXTSTYLE
  7
STANDARD
  9
$CLAYER
  8
3
  9
$CELTYPE
  6
BYLAYER
  9
$CECOLOR
 62
   256
  9
$DIMSCALE
 40
50.0
  9
$DIMASZ
 40
2.0
  9
$DIMEXO
 40
0.5
  9
$DIMDLI
 40
10.0
  9
$DIMRND
 40
0.0
  9
$DIMDLE
 40
0.0
  9
$DIMEXE
 40
1.0
  9
$DIMTP
 40
1.0
  9
$DIMTM
 40
1.0
  9
$DIMTXT
 40
3.0
  9
$DIMCEN
 40
0.0
  9
$DIMTSZ
 40
0.0
  9
$DIMTOL
 70
     0
  9
$DIMLIM
 70
     0
  9
$DIMTIH
 70
     0
  9
$DIMTOH
 70
     0
  9
$DIMSE1
 70
     0
  9
$DIMSE2
 70
     0
  9
$DIMTAD
 70
     1
  9
$DIMZIN
 70
     8
  9
$DIMBLK
  1

  9
$DIMASO
 70
     1
  9
$DIMSHO
 70
     1
  9
$DIMPOST
  1
(<>)
  9
$DIMAPOST
  1

  9
$DIMALT
 70
     0
  9
$DIMALTD
 70
     2
  9
$DIMALTF
 40
0.039
  9
$DIMLFAC
 40
1.0
  9
$DIMTOFL
 70
     1
  9
$DIMTVP
 40
0.0
  9
$DIMTIX
 70
     0
  9
$DIMSOXD
 70
     0
  9
$DIMSAH
 70
     1
  9
$DIMBLK1
  1
NONE
  9
$DIMBLK2
  1
NONE
  9
$DIMSTYLE
  2
IGA
  9
$DIMCLRD
 70
     0
  9
$DIMCLRE
 70
     0
  9
$DIMCLRT
 70
     0
  9
$DIMTFAC
 40
10.0
  9
$DIMGAP
 40
1.0
  9
$LUNITS
 70
     2
  9
$LUPREC
 70
     3
  9
$SKETCHINC
 40
0.1
  9
$FILLETRAD
 40
50.0
  9
$AUNITS
 70
     0
  9
$AUPREC
 70
     0
  9
$MENU
  1
acad
  9
$ELEVATION
 40
0.0
  9
$PELEVATION
 40
0.0
  9
$THICKNESS
 40
0.0
  9
$LIMCHECK
 70
     0
  9
$BLIPMODE
 70
     0
  9
$CHAMFERA
 40
0.0
  9
$CHAMFERB
 40
0.0
  9
$SKPOLY
 70
     0
  9
$TDCREATE
 40
2452326.4454812501
  9
$TDUPDATE
 40
2454953.8307389352
  9
$TDINDWG
 40
0.0605377778
  9
$TDUSRTIMER
 40
0.0605377778
  9
$USRTIMER
 70
     1
  9
$ANGBASE
 50
0.0
  9
$ANGDIR
 70
     0
  9
$PDMODE
 70
     0
  9
$PDSIZE
 40
0.0
  9
$PLINEWID
 40
0.0
  9
$COORDS
 70
     1
  9
$SPLFRAME
 70
     0
  9
$SPLINETYPE
 70
     6
  9
$SPLINESEGS
 70
     8
  9
$ATTDIA
 70
     0
  9
$ATTREQ
 70
     1
  9
$HANDLING
 70
 10241
  9
$HANDSEED
  5
82B8
  9
$SURFTAB1
 70
     6
  9
$SURFTAB2
 70
     6
  9
$SURFTYPE
 70
     6
  9
$SURFU
 70
     6
  9
$SURFV
 70
     6
  9
$UCSNAME
  2

  9
$UCSORG
 10
0.0
 20
0.0
 30
0.0
  9
$UCSXDIR
 10
1.0
 20
0.0
 30
0.0
  9
$UCSYDIR
 10
0.0
 20
1.0
 30
0.0
  9
$PUCSNAME
  2

  9
$PUCSORG
 10
0.0
 20
0.0
 30
0.0
  9
$PUCSXDIR
 10
1.0
 20
0.0
 30
0.0
  9
$PUCSYDIR
 10
0.0
 20
1.0
 30
0.0
  9
$USERI1
 70
     0
  9
$USERI2
 70
     0
  9
$USERI3
 70
     0
  9
$USERI4
 70
     0
  9
$USERI5
 70
     0
  9
$USERR1
 40
0.0
  9
$USERR2
 40
0.0
  9
$USERR3
 40
0.0
  9
$USERR4
 40
0.0
  9
$USERR5
 40
0.0
  9
$WORLDVIEW
 70
     1
  9
$SHADEDGE
 70
     3
  9
$SHADEDIF
 70
    70
  9
$TILEMODE
 70
     1
  9
$MAXACTVP
 70
    16
  9
$PLIMCHECK
 70
     0
  9
$PEXTMIN
 10
1.0000000000000000E+020
 20
1.0000000000000000E+020
 30
1.0000000000000000E+020
  9
$PEXTMAX
 10
-1.0000000000000000E+020
 20
-1.0000000000000000E+020
 30
-1.0000000000000000E+020
  9
$PLIMMIN
 10
0.0
 20
0.0
  9
$PLIMMAX
 10
12.0
 20
9.0
  9
$UNITMODE
 70
     0
  9
$VISRETAIN
 70
     0
  9
$PLINEGEN
 70
     0
  9
$PSLTSCALE
 70
     1
  0
ENDSEC
  0
SECTION
  2
TABLES
  0
TABLE
  2
VPORT
 70
     2
  0
VPORT
  2
*ACTIVE
 70
     0
 10
0.0
 20
0.0
 11
1.0
 21
1.0
 12
15069.956616052061
 22
10012.49454014673
 13
0.0
 23
0.0
 14
10.0
 24
10.0
 15
10.0
 25
10.0
 16
0.0
 26
0.0
 36
1.0
 17
0.0
 27
0.0
 37
0.0
 40
20024.989080293471
 41
1.5051150895140659
 42
50.0
 43
0.0
 44
0.0
 50
0.0
 51
0.0
 71
     0
 72
   100
 73
     1
 74
     0
 75
     0
 76
     0
 77
     0
 78
     0
  0
ENDTAB
  0
TABLE
  2
LTYPE
 70
     2
  0
LTYPE
  2
CONTINUOUS
 70
     0
  3
Solid line
 72
    65
 73
     0
 40
0.0
  0
LTYPE
  2
CENTER
 70
     0
  3
____ _ ____ _ ____ _ ____ _ ____ _ ____ _ ____ 
 72
    65
 73
     4
 40
2.0
 49
1.25
 49
-0.25
 49
0.25
 49
-0.25
  0
ENDTAB
  0
TABLE
  2
LAYER
 70
     6
  0
LAYER
  2
0
 70
     0
 62
     7
  6
CONTINUOUS
  0
LAYER
  2
3
 70
     0
 62
     2
  6
CONTINUOUS
  0
LAYER
  2
2
 70
     0
 62
     3
  6
CENTER
  0
LAYER
  2
1
 70
     0
 62
     4
  6
CONTINUOUS
  0
LAYER
  2
4
 70
     0
 62
     7
  6
CONTINUOUS
  0
LAYER
  2
DEFPOINTS
 70
     0
 62
     7
  6
CONTINUOUS
  0
ENDTAB
  0
TABLE
  2
STYLE
 70
     1
  0
STYLE
  2
STANDARD
 70
     0
 40
0.0
 41
1.0
 50
0.0
 71
     0
 42
180.0
  3
simplex.shx
  4
extfont.shx
  0
ENDTAB
  0
TABLE
  2
VIEW
 70
     0
  0
ENDTAB
  0
TABLE
  2
UCS
 70
     0
  0
ENDTAB
  0
TABLE
  2
APPID
 70
     1
  0
APPID
  2
ACAD
 70
     0
  0
ENDTAB
  0
TABLE
  2
DIMSTYLE
 70
     1
  0
DIMSTYLE
  2
IGA
 70
     0
  3

  4

  5

  6
OPEN
  7
OPEN
 40
2.0
 41
2.0
 42
0.5
 43
10.0
 44
1.0
 45
0.0
 46
0.0
 47
1.0
 48
1.0
140
3.0
141
0.0
142
0.0
143
0.03937
144
1.0
145
0.0
146
10.0
147
1.0
 71
     0
 72
     0
 73
     0
 74
     0
 75
     0
 76
     0
 77
     1
 78
     8
170
     0
171
     2
172
     0
173
     1
174
     0
175
     0
176
     0
177
     0
178
     0
  0
ENDTAB
  0
ENDSEC
  0
SECTION
  2
BLOCKS
  0
BLOCK
  8
0
  2
$MODEL_SPACE
 70
     0
 10
0.0
 20
0.0
 30
0.0
  3
$MODEL_SPACE
  1

  0
ENDBLK
  5
1B
  8
0
  0
BLOCK
 67
     1
  8
0
  2
$PAPER_SPACE
 70
     0
 10
0.0
 20
0.0
 30
0.0
  3
$PAPER_SPACE
  1

  0
ENDBLK
  5
18
 67
     1
  8
0
  0
BLOCK
  8
0
  2
_OPEN
 70
     0
 10
0.0
 20
0.0
 30
0.0
  3
_OPEN
  1

  0
LINE
  5
7B8E
  8
0
  6
BYBLOCK
 62
     0
 10
-1.0
 20
0.1666666666666666
 30
0.0
 11
0.0
 21
0.0
 31
0.0
  0
LINE
  5
7B8F
  8
0
  6
BYBLOCK
 62
     0
 10
0.0
 20
0.0
 30
0.0
 11
-1.0
 21
-0.1666666666666666
 31
0.0
  0
LINE
  5
7B90
  8
0
  6
BYBLOCK
 62
     0
 10
0.0
 20
0.0
 30
0.0
 11
-1.0
 21
0.0
 31
0.0
  0
ENDBLK
  5
7B91
  8
0
  0
BLOCK
  8
0
  2
*D1
 70
     1
 10
0.0
 20
0.0
 30
0.0
  3
*D1
  1

  0
LINE
  5
8216
  8
3
 62
     0
 10
2538.2672892538899
 20
10593.29281086917
 30
0.0
 11
2538.2672892538899
 21
11119.77319178892
 31
0.0
  0
LINE
  5
8217
  8
3
 62
     0
 10
4438.2672892539076
 20
10593.29281086986
 30
0.0
 11
4438.2672892539076
 21
11119.77319178892
 31
0.0
  0
LINE
  5
8218
  8
3
 62
     0
 10
2638.2672892538899
 20
11069.77319178892
 30
0.0
 11
4338.2672892539076
 21
11069.77319178892
 31
0.0
  0
INSERT
  5
8219
  8
3
 62
     0
  2
_OPEN
 10
2538.2672892538899
 20
11069.77319178892
 30
0.0
 41
100.0
 42
100.0
 43
100.0
 50
180.0
  0
INSERT
  5
821A
  8
3
 62
     0
  2
_OPEN
 10
4438.2672892539076
 20
11069.77319178892
 30
0.0
 41
100.0
 42
100.0
 43
100.0
  0
TEXT
  8
3
  40
150
  5
82A7
  62
0
  72
0
  71
0
 10
3179.45
 20
10929.3
 30
0.000000
  1
1900
  0
POINT
  5
821C
  8
DEFPOINTS
 62
     0
 10
2538.2672892538899
 20
10568.29281086917
 30
0.0
  0
POINT
  5
821D
  8
DEFPOINTS
 62
     0
 10
4438.2672892539076
 20
10568.292810869851
 30
0.0
  0
POINT
  5
821E
  8
DEFPOINTS
 62
     0
 10
4438.2672892539076
 20
11069.77319178892
 30
0.0
  0
ENDBLK
  5
7EAC
  8
0
  0
BLOCK
  8
0
  2
*D2
 70
     1
 10
0.0
 20
0.0
 30
0.0
  3
*D2
  1

  0
LINE
  5
821F
  8
3
 62
     0
 10
5838.2672892544006
 20
9193.2928108702945
 30
0.0
 11
5838.2672892544006
 21
11119.77319178892
 31
0.0
  0
LINE
  5
8220
  8
3
 62
     0
 10
4538.2672892539076
 20
11069.77319178892
 30
0.0
 11
5738.2672892544024
 21
11069.77319178892
 31
0.0
  0
INSERT
  5
8221
  8
3
 62
     0
  2
_OPEN
 10
4438.2672892539076
 20
11069.77319178892
 30
0.0
 41
100.0
 42
100.0
 43
100.0
 50
180.0
  0
INSERT
  5
8222
  8
3
 62
     0
  2
_OPEN
 10
5838.2672892544006
 20
11069.77319178892
 30
0.0
 41
100.0
 42
100.0
 43
100.0
  0
TEXT
  8
3
  40
150
  5
82A8
  62
0
  72
0
  71
0
 10
4838.27
 20
10929.3
 30
0.000000
  1
1400
  0
POINT
  5
8224
  8
DEFPOINTS
 62
     0
 10
4438.2672892539076
 20
10568.292810869851
 30
0.0
  0
POINT
  5
8225
  8
DEFPOINTS
 62
     0
 10
5838.2672892544006
 20
9168.2928108702963
 30
0.0
  0
POINT
  5
8226
  8
DEFPOINTS
 62
     0
 10
5838.2672892544006
 20
11069.77319178892
 30
0.0
  0
ENDBLK
  5
7C99
  8
0
  0
BLOCK
  8
0
  2
*D3
 70
     1
 10
0.0
 20
0.0
 30
0.0
  3
*D3
  1

  0
LINE
  5
8227
  8
3
 62
     0
 10
5863.2672892544024
 20
9168.2928108702963
 30
0.0
 11
6208.1883752757567
 21
9168.2928108702963
 31
0.0
  0
LINE
  5
8228
  8
3
 62
     0
 10
5863.2672892548362
 20
7968.2928108702954
 30
0.0
 11
6208.1883752757567
 21
7968.2928108702936
 31
0.0
  0
LINE
  5
8229
  8
3
 62
     0
 10
6158.1883752757576
 20
9068.2928108702945
 30
0.0
 11
6158.1883752757576
 21
8068.2928108702936
 31
0.0
  0
INSERT
  5
822A
  8
3
 62
     0
  2
_OPEN
 10
6158.1883752757576
 20
9168.2928108702963
 30
0.0
 41
100.0
 42
100.0
 43
100.0
 50
90.0
  0
INSERT
  5
822B
  8
3
 62
     0
  2
_OPEN
 10
6158.1883752757576
 20
7968.2928108702936
 30
0.0
 41
100.0
 42
100.0
 43
100.0
 50
270.0
  0
TEXT
  8
3
  40
150
  5
82A9
  62
0
  72
0
  71
0
 10
5733.19
 20
8418.67
 30
0.000000
  1
1200
  0
POINT
  5
822D
  8
DEFPOINTS
 62
     0
 10
5838.2672892544006
 20
9168.2928108702963
 30
0.0
  0
POINT
  5
822E
  8
DEFPOINTS
 62
     0
 10
5838.2672892548371
 20
7968.2928108702954
 30
0.0
  0
POINT
  5
822F
  8
DEFPOINTS
 62
     0
 10
6158.1883752757576
 20
7968.2928108702936
 30
0.0
  0
ENDBLK
  5
7CAF
  8
0
  0
BLOCK
  8
0
  2
*D4
 70
     1
 10
0.0
 20
0.0
 30
0.0
  3
*D4
  1

  0
LINE
  5
8230
  8
3
 62
     0
 10
2538.268289254825
 20
7943.292810869174
 30
0.0
 11
2538.268289254825
 21
7559.8934396227351
 31
0.0
  0
LINE
  5
8231
  8
3
 62
     0
 10
5838.2672892548371
 20
7943.2928108702954
 30
0.0
 11
5838.2672892548371
 21
7559.8934396227351
 31
0.0
  0
LINE
  5
8232
  8
3
 62
     0
 10
2638.268289254825
 20
7609.8934396227351
 30
0.0
 11
5738.2672892548362
 21
7609.8934396227351
 31
0.0
  0
INSERT
  5
8233
  8
3
 62
     0
  2
_OPEN
 10
2538.268289254825
 20
7609.8934396227351
 30
0.0
 41
100.0
 42
100.0
 43
100.0
 50
180.0
  0
INSERT
  5
8234
  8
3
 62
     0
  2
_OPEN
 10
5838.2672892548371
 20
7609.8934396227351
 30
0.0
 41
100.0
 42
100.0
 43
100.0
  0
TEXT
  8
3
  40
150
  5
82AA
  62
0
  72
0
  71
0
 10
3696.57
 20
7469.39
 30
0.000000
  1
3300
  0
POINT
  5
8236
  8
DEFPOINTS
 62
     0
 10
2538.268289254825
 20
7968.292810869174
 30
0.0
  0
POINT
  5
8237
  8
DEFPOINTS
 62
     0
 10
5838.2672892548371
 20
7968.2928108702954
 30
0.0
  0
POINT
  5
8238
  8
DEFPOINTS
 62
     0
 10
5838.2672892548371
 20
7609.8934396227351
 30
0.0
  0
ENDBLK
  5
7CA4
  8
0
  0
BLOCK
  8
0
  2
*D5
 70
     1
 10
0.0
 20
0.0
 30
0.0
  3
*D5
  1

  0
LINE
  5
8239
  8
3
 62
     0
 10
2513.2672892538899
 20
10568.29281086917
 30
0.0
 11
2019.2690882239569
 21
10568.29281086917
 31
0.0
  0
LINE
  5
823A
  8
3
 62
     0
 10
2513.268289254825
 20
7968.292810869174
 30
0.0
 11
2019.269088223956
 21
7968.2928108691758
 31
0.0
  0
LINE
  5
823B
  8
3
 62
     0
 10
2069.2690882239558
 20
10468.29281086917
 30
0.0
 11
2069.2690882239558
 21
8068.292810869174
 31
0.0
  0
INSERT
  5
823C
  8
3
 62
     0
  2
_OPEN
 10
2069.2690882239558
 20
10568.29281086917
 30
0.0
 41
100.0
 42
100.0
 43
100.0
 50
90.0
  0
INSERT
  5
823D
  8
3
 62
     0
  2
_OPEN
 10
2069.2690882239558
 20
7968.292810869174
 30
0.0
 41
100.0
 42
100.0
 43
100.0
 50
270.0
  0
TEXT
  8
3
  40
150
  5
82AB
  62
0
  72
0
  71
0
 10
1644.27
 20
9165.27
 30
0.000000
  1
2600
  0
POINT
  5
823F
  8
DEFPOINTS
 62
     0
 10
2538.2672892538899
 20
10568.29281086917
 30
0.0
  0
POINT
  5
8240
  8
DEFPOINTS
 62
     0
 10
2538.268289254825
 20
7968.292810869174
 30
0.0
  0
POINT
  5
8241
  8
DEFPOINTS
 62
     0
 10
2069.2690882239558
 20
7968.292810869174
 30
0.0
  0
ENDBLK
  5
7EA1
  8
0
  0
BLOCK
  8
0
  2
*D6
 70
     1
 10
0.0
 20
0.0
 30
0.0
  3
*D6
  1

  0
LINE
  5
8242
  8
3
 62
     0
 10
5183.2672892559904
 20
5912.305761730483
 30
0.0
 11
5183.2672892559904
 21
6211.090584000277
 31
0.0
  0
LINE
  5
8243
  8
3
 62
     0
 10
3533.2672892559899
 20
5912.3057617298864
 30
0.0
 11
3533.2672892559899
 21
6211.090584000277
 31
0.0
  0
LINE
  5
8244
  8
3
 62
     0
 10
5083.2672892559904
 20
6161.090584000277
 30
0.0
 11
3633.267289255989
 21
6161.090584000277
 31
0.0
  0
INSERT
  5
8245
  8
3
 62
     0
  2
_OPEN
 10
5183.2672892559904
 20
6161.090584000277
 30
0.0
 41
100.0
 42
100.0
 43
100.0
  0
INSERT
  5
8246
  8
3
 62
     0
  2
_OPEN
 10
3533.2672892559899
 20
6161.090584000277
 30
0.0
 41
100.0
 42
100.0
 43
100.0
 50
180.0
  0
TEXT
  8
3
  40
150
  5
82AC
  62
0
  72
0
  71
0
 10
4073.75
 20
6020.59
 30
0.000000
  1
1650
  0
POINT
  5
8248
  8
DEFPOINTS
 62
     0
 10
5183.2672892559904
 20
5887.3057617304821
 30
0.0
  0
POINT
  5
8249
  8
DEFPOINTS
 62
     0
 10
3533.2672892559899
 20
5887.3057617298846
 30
0.0
  0
POINT
  5
824A
  8
DEFPOINTS
 62
     0
 10
3533.2672892559899
 20
6161.090584000277
 30
0.0
  0
ENDBLK
  5
7F58
  8
0
  0
BLOCK
  8
0
  2
*D7
 70
     1
 10
0.0
 20
0.0
 30
0.0
  3
*D7
  1

  0
LINE
  5
824B
  8
3
 62
     0
 10
5183.2672892559904
 20
5912.305761730483
 30
0.0
 11
5183.2672892559904
 21
6493.6434665914139
 31
0.0
  0
LINE
  5
824C
  8
3
 62
     0
 10
3488.2672892559672
 20
5974.3531451575236
 30
0.0
 11
3488.2672892559672
 21
6493.6434665914139
 31
0.0
  0
LINE
  5
824D
  8
3
 62
     0
 10
5083.2672892559904
 20
6443.6434665914148
 30
0.0
 11
3588.2672892559672
 21
6443.6434665914148
 31
0.0
  0
INSERT
  5
824E
  8
3
 62
     0
  2
_OPEN
 10
5183.2672892559904
 20
6443.6434665914148
 30
0.0
 41
100.0
 42
100.0
 43
100.0
  0
INSERT
  5
824F
  8
3
 62
     0
  2
_OPEN
 10
3488.2672892559672
 20
6443.6434665914148
 30
0.0
 41
100.0
 42
100.0
 43
100.0
 50
180.0
  0
TEXT
  8
3
  40
150
  5
82AD
  62
0
  72
0
  71
0
 10
4073.75
 20
6303.14
 30
0.000000
  1
1695
  0
POINT
  5
8251
  8
DEFPOINTS
 62
     0
 10
5183.2672892559904
 20
5887.3057617304821
 30
0.0
  0
POINT
  5
8252
  8
DEFPOINTS
 62
     0
 10
3488.2672892559672
 20
5949.3531451575227
 30
0.0
  0
POINT
  5
8253
  8
DEFPOINTS
 62
     0
 10
3488.2672892559672
 20
6443.6434665914148
 30
0.0
  0
ENDBLK
  5
7F4D
  8
0
  0
BLOCK
  8
0
  2
*D8
 70
     1
 10
0.0
 20
0.0
 30
0.0
  3
*D8
  1

  0
LINE
  5
8254
  8
3
 62
     0
 10
2356.2209058286862
 20
4842.3067617294419
 30
0.0
 11
1836.930584394795
 21
4842.3067617294428
 31
0.0
  0
LINE
  5
8255
  8
3
 62
     0
 10
2513.267289256893
 20
3442.3067617294992
 30
0.0
 11
1836.930584394795
 21
3442.3067617294992
 31
0.0
  0
LINE
  5
8256
  8
3
 62
     0
 10
1886.930584394795
 20
4742.3067617294437
 30
0.0
 11
1886.930584394795
 21
3542.3067617294992
 31
0.0
  0
INSERT
  5
8257
  8
3
 62
     0
  2
_OPEN
 10
1886.930584394795
 20
4842.3067617294428
 30
0.0
 41
100.0
 42
100.0
 43
100.0
 50
90.0
  0
INSERT
  5
8258
  8
3
 62
     0
  2
_OPEN
 10
1886.930584394795
 20
3442.3067617294992
 30
0.0
 41
100.0
 42
100.0
 43
100.0
 50
270.0
  0
TEXT
  8
3
  40
150
  5
82AE
  62
0
  72
0
  71
0
 10
1461.93
 20
3876.81
 30
0.000000
  1
1400
  0
POINT
  5
825A
  8
DEFPOINTS
 62
     0
 10
2381.2209058286862
 20
4842.3067617294419
 30
0.0
  0
POINT
  5
825B
  8
DEFPOINTS
 62
     0
 10
2538.267289256893
 20
3442.3067617294992
 30
0.0
  0
POINT
  5
825C
  8
DEFPOINTS
 62
     0
 10
1886.930584394795
 20
3442.3067617294992
 30
0.0
  0
ENDBLK
  5
7F63
  8
0
  0
BLOCK
  8
0
  2
*D9
 70
     1
 10
0.0
 20
0.0
 30
0.0
  3
*D9
  1

  0
LINE
  5
825D
  8
3
 62
     0
 10
2513.2672892568989
 20
3327.3067617295001
 30
0.0
 11
1836.930584394795
 21
3327.3067617295001
 31
0.0
  0
LINE
  5
825E
  8
3
 62
     0
 10
2513.2672892569258
 20
3252.3067617294992
 30
0.0
 11
1836.930584394795
 21
3252.3067617294992
 31
0.0
  0
LINE
  5
825F
  8
3
 62
     0
 10
1886.930584394795
 20
3427.3067617295001
 30
0.0
 11
1886.930584394795
 21
3527.3067617295001
 31
0.0
  0
LINE
  5
8260
  8
3
 62
     0
 10
1886.930584394795
 20
3152.3067617295001
 30
0.0
 11
1886.930584394795
 21
2709.449618872357
 31
0.0
  0
LINE
  5
8261
  8
3
 62
     0
 10
1886.930584394795
 20
3327.3067617295001
 30
0.0
 11
1886.930584394795
 21
3252.3067617294992
 31
0.0
  0
INSERT
  5
8262
  8
3
 62
     0
  2
_DOT
 10
1886.930584394795
 20
3327.3067617295001
 30
0.0
 41
100.0
 42
100.0
 43
100.0
 50
270.0
  0
INSERT
  5
8263
  8
3
 62
     0
  2
_OPEN
 10
1886.930584394795
 20
3252.3067617294992
 30
0.0
 41
100.0
 42
100.0
 43
100.0
 50
90.0
  0
TEXT
  8
3
  40
150
  5
82AF
  62
0
  72
0
  71
0
 10
1461.93
 20
2615.38
 30
0.000000
  1
75
  0
POINT
  5
8265
  8
DEFPOINTS
 62
     0
 10
2538.2672892568989
 20
3327.3067617295001
 30
0.0
  0
POINT
  5
8266
  8
DEFPOINTS
 62
     0
 10
2538.2672892569258
 20
3252.3067617294992
 30
0.0
  0
POINT
  5
8267
  8
DEFPOINTS
 62
     0
 10
1886.930584394795
 20
3252.3067617294992
 30
0.0
  0
ENDBLK
  5
7F1F
  8
0
  0
BLOCK
  8
0
  2
_DOT
 70
     0
 10
0.0
 20
0.0
 30
0.0
  3
_DOT
  1

  0
LINE
  5
7F01
  8
0
  6
BYBLOCK
 62
     0
 10
0.0
 20
0.0
 30
0.0
 11
-1.0
 21
-0.0000000000000284
 31
0.0
  0
POLYLINE
  5
7F02
  8
0
  6
BYBLOCK
 62
     0
 66
     1
 10
0.0
 20
0.0
 30
0.0
 70
     1
 40
0.1666666666666666
 41
0.1666666666666666
  0
VERTEX
  5
828B
  8
0
  6
BYBLOCK
 62
     0
 10
-0.0833333333333286
 20
-0.0000000000000284
 30
0.0
 42
1.0
  0
VERTEX
  5
828C
  8
0
  6
BYBLOCK
 62
     0
 10
0.0833333333333286
 20
-0.0000000000000284
 30
0.0
 42
1.0
  0
SEQEND
  5
828D
  8
0
  6
BYBLOCK
 62
     0
  0
ENDBLK
  5
7D33
  8
0
  0
BLOCK
  8
0
  2
*D11
 70
     1
 10
0.0
 20
0.0
 30
0.0
  3
*D11
  1

  0
LINE
  5
8268
  8
3
 62
     0
 10
6825.5634309015486
 20
5912.3057617305067
 30
0.0
 11
6825.5634309015486
 21
6229.3554654501932
 31
0.0
  0
LINE
  5
8269
  8
3
 62
     0
 10
8945.9236523488198
 20
5912.3057617305076
 30
0.0
 11
8945.9236523488198
 21
6229.3554654501932
 31
0.0
  0
LINE
  5
826A
  8
3
 62
     0
 10
6925.5634309015486
 20
6179.3554654501932
 30
0.0
 11
8845.9236523488198
 21
6179.3554654501932
 31
0.0
  0
INSERT
  5
826B
  8
3
 62
     0
  2
_OPEN
 10
6825.5634309015486
 20
6179.3554654501932
 30
0.0
 41
100.0
 42
100.0
 43
100.0
 50
180.0
  0
INSERT
  5
826C
  8
3
 62
     0
  2
_OPEN
 10
8945.9236523488198
 20
6179.3554654501932
 30
0.0
 41
100.0
 42
100.0
 43
100.0
  0
TEXT
  8
3
  40
150
  5
82B0
  62
0
  72
0
  71
0
 10
7585.77
 20
6038.86
 30
0.000000
  1
2120
  0
POINT
  5
826E
  8
DEFPOINTS
 62
     0
 10
6825.5634309015486
 20
5887.3057617305076
 30
0.0
  0
POINT
  5
826F
  8
DEFPOINTS
 62
     0
 10
8945.9236523488198
 20
5887.3057617305094
 30
0.0
  0
POINT
  5
8270
  8
DEFPOINTS
 62
     0
 10
8945.9236523488198
 20
6179.3554654501932
 30
0.0
  0
ENDBLK
  5
7FC7
  8
0
  0
BLOCK
  8
0
  2
*D12
 70
     1
 10
0.0
 20
0.0
 30
0.0
  3
*D12
  1

  0
LINE
  5
8271
  8
3
 62
     0
 10
9148.764430901776
 20
4807.3067617302131
 30
0.0
 11
9148.764430901776
 21
6584.4267631619514
 31
0.0
  0
LINE
  5
8272
  8
3
 62
     0
 10
7885.5579768992557
 20
6444.4193218194659
 30
0.0
 11
7885.5579768992557
 21
6584.4267631619514
 31
0.0
  0
LINE
  5
8273
  8
3
 62
     0
 10
9048.764430901776
 20
6534.4267631619523
 30
0.0
 11
7985.5579768992548
 21
6534.4267631619523
 31
0.0
  0
INSERT
  5
8274
  8
3
 62
     0
  2
_OPEN
 10
9148.764430901776
 20
6534.4267631619523
 30
0.0
 41
100.0
 42
100.0
 43
100.0
  0
INSERT
  5
8275
  8
3
 62
     0
  2
_OPEN
 10
7885.5579768992557
 20
6534.4267631619523
 30
0.0
 41
100.0
 42
100.0
 43
100.0
 50
180.0
  0
TEXT
  8
3
  40
150
  5
82B1
  62
0
  72
0
  71
0
 10
8081.99
 20
6433.21
 30
0.000000
  1
(1300)
  0
POINT
  5
8277
  8
DEFPOINTS
 62
     0
 10
9148.764430901776
 20
4782.3067617302131
 30
0.0
  0
POINT
  5
8278
  8
DEFPOINTS
 62
     0
 10
7885.5579768992557
 20
6419.419321819465
 30
0.0
  0
POINT
  5
8279
  8
DEFPOINTS
 62
     0
 10
7885.5579768992557
 20
6534.4267631619523
 30
0.0
  0
ENDBLK
  5
7FDC
  8
0
  0
BLOCK
  8
0
  2
*D13
 70
     1
 10
0.0
 20
0.0
 30
0.0
  3
*D13
  1

  0
LINE
  5
827A
  8
3
 62
     0
 10
6402.363430901707
 20
5417.3067617299012
 30
0.0
 11
6402.363430901707
 21
6584.4267631619514
 31
0.0
  0
LINE
  5
827B
  8
3
 62
     0
 10
7785.5579768992548
 20
6534.4267631619523
 30
0.0
 11
6502.363430901707
 21
6534.4267631619523
 31
0.0
  0
INSERT
  5
827C
  8
3
 62
     0
  2
_OPEN
 10
7885.5579768992557
 20
6534.4267631619523
 30
0.0
 41
100.0
 42
100.0
 43
100.0
  0
INSERT
  5
827D
  8
3
 62
     0
  2
_OPEN
 10
6402.363430901707
 20
6534.4267631619523
 30
0.0
 41
100.0
 42
100.0
 43
100.0
 50
180.0
  0
TEXT
  8
3
  40
150
  5
82B2
  62
0
  72
0
  71
0
 10
6843.96
 20
6518.93
 30
0.000000
  1
MAX
  0
TEXT
  8
3
  40
150
  5
82B3
  62
0
  72
0
  71
0
 10
6843.96
 20
6323.93
 30
0.000000
  1
1580
  0
POINT
  5
827F
  8
DEFPOINTS
 62
     0
 10
7885.5579768992557
 20
6419.419321819465
 30
0.0
  0
POINT
  5
8280
  8
DEFPOINTS
 62
     0
 10
6402.363430901707
 20
5392.3067617299012
 30
0.0
  0
POINT
  5
8281
  8
DEFPOINTS
 62
     0
 10
6402.363430901707
 20
6534.4267631619523
 30
0.0
  0
ENDBLK
  5
7FD1
  8
0
  0
BLOCK
  8
0
  2
*D14
 70
     1
 10
0.0
 20
0.0
 30
0.0
  3
*D14
  1

  0
LINE
  5
8282
  8
3
 62
     0
 10
8982.7644309016796
 20
5642.3067617301913
 30
0.0
 11
9516.2625062360476
 21
5642.3067617301913
 31
0.0
  0
LINE
  5
8283
  8
3
 62
     0
 10
8982.7644309018633
 20
4042.3067617301899
 30
0.0
 11
9516.2625062360457
 21
4042.3067617301899
 31
0.0
  0
LINE
  5
8284
  8
3
 62
     0
 10
9466.2625062360476
 20
5542.3067617301913
 30
0.0
 11
9466.2625062360476
 21
4142.3067617301913
 31
0.0
  0
INSERT
  5
8285
  8
3
 62
     0
  2
_OPEN
 10
9466.2625062360476
 20
5642.3067617301913
 30
0.0
 41
100.0
 42
100.0
 43
100.0
 50
90.0
  0
INSERT
  5
8286
  8
3
 62
     0
  2
_OPEN
 10
9466.2625062360476
 20
4042.3067617301899
 30
0.0
 41
100.0
 42
100.0
 43
100.0
 50
270.0
  0
TEXT
  8
3
  40
150
  5
82B4
  62
0
  72
0
  71
0
 10
9041.26
 20
4540.05
 30
0.000000
  1
φ1600
  0
POINT
  5
8288
  8
DEFPOINTS
 62
     0
 10
8957.7644309016814
 20
5642.3067617301913
 30
0.0
  0
POINT
  5
8289
  8
DEFPOINTS
 62
     0
 10
8957.7644309018615
 20
4042.3067617301899
 30
0.0
  0
POINT
  5
828A
  8
DEFPOINTS
 62
     0
 10
9466.2625062360476
 20
4042.3067617301899
 30
0.0
  0
ENDBLK
  5
7E07
  8
0
  0
BLOCK
  8
0
  2
*D15
 70
     1
 10
0.0
 20
0.0
 30
0.0
  3
*D15
  1

  0
LINE
  5
828E
  8
3
 62
     0
 10
3443.267289255989
 20
5887.3057617298628
 30
0.0
 11
1836.930584394795
 21
5887.3057617298646
 31
0.0
  0
LINE
  5
828F
  8
3
 62
     0
 10
1886.930584394795
 20
4942.3067617294437
 30
0.0
 11
1886.930584394795
 21
5787.3057617298637
 31
0.0
  0
INSERT
  5
8290
  8
3
 62
     0
  2
_OPEN
 10
1886.930584394795
 20
4842.3067617294428
 30
0.0
 41
100.0
 42
100.0
 43
100.0
 50
270.0
  0
INSERT
  5
8291
  8
3
 62
     0
  2
_OPEN
 10
1886.930584394795
 20
5887.3057617298646
 30
0.0
 41
100.0
 42
100.0
 43
100.0
 50
90.0
  0
TEXT
  8
3
  40
150
  5
82B5
  62
0
  72
0
  71
0
 10
1461.93
 20
5099.31
 30
0.000000
  1
1045
  0
POINT
  5
8293
  8
DEFPOINTS
 62
     0
 10
2381.2209058286862
 20
4842.3067617294419
 30
0.0
  0
POINT
  5
8294
  8
DEFPOINTS
 62
     0
 10
3468.267289255989
 20
5887.3057617298628
 30
0.0
  0
POINT
  5
8295
  8
DEFPOINTS
 62
     0
 10
1886.930584394795
 20
5887.3057617298646
 30
0.0
  0
ENDBLK
  5
7F6E
  8
0
  0
BLOCK
  8
0
  2
*D16
 70
     1
 10
0.0
 20
0.0
 30
0.0
  3
*D16
  1

  0
LINE
  5
8296
  8
3
 62
     0
 10
2349.2672892564092
 20
4751.306761729913
 30
0.0
 11
2349.2672892564092
 21
6493.6434665914139
 31
0.0
  0
LINE
  5
8297
  8
3
 62
     0
 10
3388.2672892559672
 20
6443.6434665914148
 30
0.0
 11
2449.2672892564092
 21
6443.6434665914148
 31
0.0
  0
INSERT
  5
8298
  8
3
 62
     0
  2
_OPEN
 10
3488.2672892559672
 20
6443.6434665914148
 30
0.0
 41
100.0
 42
100.0
 43
100.0
  0
INSERT
  5
8299
  8
3
 62
     0
  2
_OPEN
 10
2349.2672892564092
 20
6443.6434665914148
 30
0.0
 41
100.0
 42
100.0
 43
100.0
 50
180.0
  0
TEXT
  8
3
  40
150
  5
82B6
  62
0
  72
0
  71
0
 10
2618.77
 20
6303.14
 30
0.000000
  1
1139
  0
POINT
  5
829B
  8
DEFPOINTS
 62
     0
 10
3488.2672892559672
 20
5949.3531451575227
 30
0.0
  0
POINT
  5
829C
  8
DEFPOINTS
 62
     0
 10
2349.2672892564092
 20
4726.306761729913
 30
0.0
  0
POINT
  5
829D
  8
DEFPOINTS
 62
     0
 10
2349.2672892564092
 20
6443.6434665914148
 30
0.0
  0
ENDBLK
  5
7F7A
  8
0
  0
BLOCK
  8
0
  2
*D17
 70
     1
 10
0.0
 20
0.0
 30
0.0
  3
*D17
  1

  0
LINE
  5
829E
  8
3
 62
     0
 10
2349.2672892564092
 20
4776.3067617299121
 30
0.0
 11
2349.2672892564092
 21
6825.7592063520642
 31
0.0
  0
LINE
  5
829F
  8
3
 62
     0
 10
5838.267289256838
 20
3617.3067617306911
 30
0.0
 11
5838.267289256838
 21
6825.7592063520642
 31
0.0
  0
LINE
  5
82A0
  8
3
 62
     0
 10
2449.2672892564092
 20
6775.7592063520651
 30
0.0
 11
5738.267289256838
 21
6775.7592063520651
 31
0.0
  0
INSERT
  5
82A1
  8
3
 62
     0
  2
_OPEN
 10
2349.2672892564092
 20
6775.7592063520651
 30
0.0
 41
100.0
 42
100.0
 43
100.0
 50
180.0
  0
INSERT
  5
82A2
  8
3
 62
     0
  2
_OPEN
 10
5838.267289256838
 20
6775.7592063520651
 30
0.0
 41
100.0
 42
100.0
 43
100.0
  0
TEXT
  8
3
  40
150
  5
82B7
  62
0
  72
0
  71
0
 10
3778.67
 20
6635.26
 30
0.000000
  1
3489
  0
POINT
  5
82A4
  8
DEFPOINTS
 62
     0
 10
2349.2672892564092
 20
4751.306761729913
 30
0.0
  0
POINT
  5
82A5
  8
DEFPOINTS
 62
     0
 10
5838.267289256838
 20
3592.306761730692
 30
0.0
  0
POINT
  5
82A6
  8
DEFPOINTS
 62
     0
 10
5838.267289256838
 20
6775.7592063520651
 30
0.0
  0
ENDBLK
  5
7FA1
  8
0
  0
BLOCK
  8
0
  2
*D18
 70
     1
 10
0.0
 20
0.0
 30
0.0
  3
*D18
  1

  0
LINE
  5
8006
  8
0
  6
BYBLOCK
 62
     0
 10
2538.2672892569258
 20
3322.3067617294992
 30
0.0
 11
2538.2672892569258
 21
3014.7397877300209
 31
0.0
  0
LINE
  5
8007
  8
0
  6
BYBLOCK
 62
     0
 10
3488.2626458432628
 20
3322.3067617298429
 30
0.0
 11
3488.2626458432628
 21
3014.7397877300209
 31
0.0
  0
LINE
  5
8008
  8
0
  6
BYBLOCK
 62
     0
 10
2638.2672892569258
 20
3064.7397877300209
 30
0.0
 11
3388.2626458432619
 21
3064.7397877300209
 31
0.0
  0
INSERT
  5
8009
  8
0
  6
BYBLOCK
 62
     0
  2
_OPEN
 10
2538.2672892569258
 20
3064.7397877300209
 30
0.0
 41
100.0
 42
100.0
 43
100.0
 50
180.0
  0
INSERT
  5
800A
  8
0
  6
BYBLOCK
 62
     0
  2
_OPEN
 10
3488.2626458432628
 20
3064.7397877300209
 30
0.0
 41
100.0
 42
100.0
 43
100.0
  0
TEXT
  5
800B
  8
3
 62
     0
 10
2820.4078246929512
 20
3114.7397877300209
 30
0.0
 40
150.0
  1
950
  0
POINT
  5
800C
  8
DEFPOINTS
  6
BYBLOCK
 62
     0
 10
2538.2672892569258
 20
3347.3067617294992
 30
0.0
  0
POINT
  5
800D
  8
DEFPOINTS
  6
BYBLOCK
 62
     0
 10
3488.2626458432628
 20
3347.3067617298429
 30
0.0
  0
POINT
  5
800E
  8
DEFPOINTS
  6
BYBLOCK
 62
     0
 10
3488.2626458432628
 20
3064.7397877300209
 30
0.0
  0
ENDBLK
  5
800F
  8
0
  0
BLOCK
  8
0
  2
*D19
 70
     1
 10
0.0
 20
0.0
 30
0.0
  3
*D19
  1

  0
LINE
  5
8013
  8
0
  6
BYBLOCK
 62
     0
 10
3488.2626458432628
 20
3322.3067617298429
 30
0.0
 11
3488.2626458432628
 21
3014.7397877300209
 31
0.0
  0
LINE
  5
8014
  8
0
  6
BYBLOCK
 62
     0
 10
5838.2672892569317
 20
3322.3067617306929
 30
0.0
 11
5838.2672892569317
 21
3014.7397877300209
 31
0.0
  0
LINE
  5
8015
  8
0
  6
BYBLOCK
 62
     0
 10
3588.2626458432628
 20
3064.7397877300209
 30
0.0
 11
5738.2672892569308
 21
3064.7397877300209
 31
0.0
  0
INSERT
  5
8016
  8
0
  6
BYBLOCK
 62
     0
  2
_OPEN
 10
3488.2626458432628
 20
3064.7397877300209
 30
0.0
 41
100.0
 42
100.0
 43
100.0
 50
180.0
  0
INSERT
  5
8017
  8
0
  6
BYBLOCK
 62
     0
  2
_OPEN
 10
5838.2672892569317
 20
3064.7397877300209
 30
0.0
 41
100.0
 42
100.0
 43
100.0
  0
TEXT
  5
8018
  8
3
 62
     0
 10
4398.9792532643824
 20
3114.7397877300209
 30
0.0
 40
150.0
  1
2350
  0
POINT
  5
8019
  8
DEFPOINTS
  6
BYBLOCK
 62
     0
 10
3488.2626458432628
 20
3347.3067617298429
 30
0.0
  0
POINT
  5
801A
  8
DEFPOINTS
  6
BYBLOCK
 62
     0
 10
5838.2672892569317
 20
3347.3067617306929
 30
0.0
  0
POINT
  5
801B
  8
DEFPOINTS
  6
BYBLOCK
 62
     0
 10
5838.2672892569317
 20
3064.7397877300209
 30
0.0
  0
ENDBLK
  5
801C
  8
0
  0
BLOCK
  8
0
  2
*D20
 70
     1
 10
0.0
 20
0.0
 30
0.0
  3
*D20
  1

  0
LINE
  5
8020
  8
0
  6
BYBLOCK
 62
     0
 10
6424.5579768999178
 20
3319.8855719332232
 30
0.0
 11
6424.5579768999178
 21
3014.7397877300209
 31
0.0
  0
LINE
  5
8021
  8
0
  6
BYBLOCK
 62
     0
 10
7885.5579768999378
 20
3319.8855719333892
 30
0.0
 11
7885.5579768999378
 21
3014.7397877300209
 31
0.0
  0
LINE
  5
8022
  8
0
  6
BYBLOCK
 62
     0
 10
6524.5579768999178
 20
3064.7397877300209
 30
0.0
 11
7785.5579768999369
 21
3064.7397877300209
 31
0.0
  0
INSERT
  5
8023
  8
0
  6
BYBLOCK
 62
     0
  2
_OPEN
 10
6424.5579768999178
 20
3064.7397877300209
 30
0.0
 41
100.0
 42
100.0
 43
100.0
 50
180.0
  0
INSERT
  5
8024
  8
0
  6
BYBLOCK
 62
     0
  2
_OPEN
 10
7885.5579768999378
 20
3064.7397877300209
 30
0.0
 41
100.0
 42
100.0
 43
100.0
  0
TEXT
  5
8025
  8
3
 62
     0
 10
6937.2008340427847
 20
3114.7397877300209
 30
0.0
 40
150.0
  1
1461
  0
POINT
  5
8026
  8
DEFPOINTS
  6
BYBLOCK
 62
     0
 10
6424.5579768999178
 20
3344.8855719332232
 30
0.0
  0
POINT
  5
8027
  8
DEFPOINTS
  6
BYBLOCK
 62
     0
 10
7885.5579768999378
 20
3344.8855719333892
 30
0.0
  0
POINT
  5
8028
  8
DEFPOINTS
  6
BYBLOCK
 62
     0
 10
7885.5579768999378
 20
3064.7397877300209
 30
0.0
  0
ENDBLK
  5
8029
  8
0
  0
BLOCK
  8
0
  2
*D21
 70
     1
 10
0.0
 20
0.0
 30
0.0
  3
*D21
  1

  0
LINE
  5
802D
  8
0
  6
BYBLOCK
 62
     0
 10
7885.5579768999378
 20
3319.8855719333892
 30
0.0
 11
7885.5579768999378
 21
3014.7397877300209
 31
0.0
  0
LINE
  5
802E
  8
0
  6
BYBLOCK
 62
     0
 10
9024.5579768999178
 20
3319.8855719335179
 30
0.0
 11
9024.5579768999178
 21
3014.7397877300209
 31
0.0
  0
LINE
  5
802F
  8
0
  6
BYBLOCK
 62
     0
 10
7985.5579768999369
 20
3064.7397877300209
 30
0.0
 11
8924.5579768999196
 21
3064.7397877300209
 31
0.0
  0
INSERT
  5
8030
  8
0
  6
BYBLOCK
 62
     0
  2
_OPEN
 10
7885.5579768999378
 20
3064.7397877300209
 30
0.0
 41
100.0
 42
100.0
 43
100.0
 50
180.0
  0
INSERT
  5
8031
  8
0
  6
BYBLOCK
 62
     0
  2
_OPEN
 10
9024.5579768999178
 20
3064.7397877300209
 30
0.0
 41
100.0
 42
100.0
 43
100.0
  0
TEXT
  5
8032
  8
3
 62
     0
 10
8222.9151197570718
 20
3114.7397877300209
 30
0.0
 40
150.0
  1
1139
  0
POINT
  5
8033
  8
DEFPOINTS
  6
BYBLOCK
 62
     0
 10
7885.5579768999378
 20
3344.8855719333892
 30
0.0
  0
POINT
  5
8034
  8
DEFPOINTS
  6
BYBLOCK
 62
     0
 10
9024.5579768999178
 20
3344.885571933517
 30
0.0
  0
POINT
  5
8035
  8
DEFPOINTS
  6
BYBLOCK
 62
     0
 10
9024.5579768999178
 20
3064.7397877300209
 30
0.0
  0
ENDBLK
  5
8036
  8
0
  0
BLOCK
  8
0
  2
_NONE
 70
     0
 10
0.0
 20
0.0
 30
0.0
  3
_NONE
  1

  0
CIRCLE
  5
8049
  8
0
  6
BYBLOCK
 62
     0
 10
0.0
 20
0.0
 30
0.0
 40
0.25
  0
ENDBLK
  5
804A
  8
0
  0
BLOCK
  8
0
  2
*D23
 70
     1
 10
0.0
 20
0.0
 30
0.0
  3
*D23
  1

  0
LINE
  5
8063
  8
0
  6
BYBLOCK
 62
     0
 10
1885.873592656666
 20
3327.3067617295001
 30
0.0
 11
1885.873592656666
 21
3442.3067617294992
 31
0.0
  0
TEXT
  5
8064
  8
3
 62
     0
 10
1696.5878783709511
 20
2989.0924760152138
 30
0.0
 40
150.0
  1
   (115)
 50
90.0
  0
POINT
  5
8065
  8
DEFPOINTS
  6
BYBLOCK
 62
     0
 10
2538.2672892568989
 20
3327.3067617295001
 30
0.0
  0
POINT
  5
8066
  8
DEFPOINTS
  6
BYBLOCK
 62
     0
 10
2538.267289256893
 20
3442.3067617294992
 30
0.0
  0
POINT
  5
8067
  8
DEFPOINTS
  6
BYBLOCK
 62
     0
 10
1885.873592656666
 20
3442.3067617294992
 30
0.0
  0
ENDBLK
  5
8068
  8
0
  0
BLOCK
  8
0
  2
*D24
 70
     1
 10
0.0
 20
0.0
 30
0.0
  3
*D24
  1

  0
LINE
  5
806B
  8
0
  6
BYBLOCK
 62
     0
 10
2513.2672892569258
 20
3252.3067617294992
 30
0.0
 11
1431.7939593609331
 21
3252.3067617294992
 31
0.0
  0
LINE
  5
806C
  8
0
  6
BYBLOCK
 62
     0
 10
3418.267289255989
 20
5887.3057617298628
 30
0.0
 11
1431.7939593609331
 21
5887.3057617298628
 31
0.0
  0
LINE
  5
806D
  8
0
  6
BYBLOCK
 62
     0
 10
1481.7939593609331
 20
3252.3067617294992
 30
0.0
 11
1481.7939593609331
 21
5887.3057617298628
 31
0.0
  0
TEXT
  5
806E
  8
3
 62
     0
 10
1367.5082450752191
 20
4209.0919760153956
 30
0.0
 40
150.0
  1
(2635)
 50
90.0
  0
POINT
  5
806F
  8
DEFPOINTS
  6
BYBLOCK
 62
     0
 10
2538.2672892569258
 20
3252.3067617294992
 30
0.0
  0
POINT
  5
8070
  8
DEFPOINTS
  6
BYBLOCK
 62
     0
 10
3443.267289255989
 20
5887.3057617298628
 30
0.0
  0
POINT
  5
8071
  8
DEFPOINTS
  6
BYBLOCK
 62
     0
 10
1481.7939593609331
 20
5887.3057617298628
 30
0.0
  0
ENDBLK
  5
8072
  8
0
  0
ENDSEC
  0
SECTION
  2
ENTITIES
  0
LINE
  5
7AC9
  8
1
 10
5409.4234612127739
 20
4185.4699472923858
 30
0.0
 11
3752.8294296250078
 21
5324.4964276120099
 31
0.0
  0
ARC
  5
7ACA
  8
1
 10
5274.7372806614576
 20
3939.9915719341911
 30
0.0
 40
280.0
 50
253.30026975113219
 51
61.247823465623263
  0
LINE
  5
7ACB
  8
1
 10
3681.6035696953368
 20
5192.479694244641
 30
0.0
 11
5335.1548682986459
 21
4049.4206133450648
 31
0.0
  0
LINE
  5
7ACC
  8
1
 10
5838.2672892569317
 20
3252.3067617306929
 30
0.0
 11
2538.2672892569258
 21
3252.3067617294992
 31
0.0
  0
LINE
  5
7ACD
  8
1
 10
5838.2672892569017
 20
3327.306761730692
 30
0.0
 11
2538.2672892568989
 21
3327.3067617295001
 31
0.0
  0
CIRCLE
  5
7ACE
  8
1
 10
5274.7372806614576
 20
3939.9915719341911
 30
0.0
 40
125.0
  0
LINE
  5
7ACF
  8
2
 10
4905.6902407134621
 20
3939.9915719340579
 30
0.0
 11
5625.3644509905062
 21
3939.991571934318
 31
0.0
  0
LINE
  5
7AD0
  8
1
 10
5430.2164129371631
 20
3671.8008945667748
 30
0.0
 11
5119.2581483859467
 21
3671.8008945666629
 31
0.0
  0
LINE
  5
7AD1
  8
1
 10
5274.7372806615649
 20
3644.9003895001042
 30
0.0
 11
5420.4840893717183
 21
3644.9003895001561
 31
0.0
  0
ARC
  5
7AD2
  8
1
 10
5274.7372806614576
 20
3939.9915719341911
 30
0.0
 40
310.0
 50
300.1023080683326
 51
239.89769193170881
  0
LINE
  5
7AD3
  8
1
 10
5838.2672892568944
 20
3442.3067617306929
 30
0.0
 11
2538.2672892568912
 21
3442.3067617294992
 31
0.0
  0
LINE
  5
7AD4
  8
1
 10
5838.267289256838
 20
3592.306761730692
 30
0.0
 11
2538.2672892568389
 21
3592.3067617294992
 31
0.0
  0
POINT
  5
7AD6
  8
1
 10
5638.267289256878
 20
3252.3067617306201
 30
0.0
 50
0.0000000000065138
  0
LINE
  5
7AD7
  8
1
 10
5554.737280661514
 20
3806.950224977762
 30
0.0
 11
5554.7372806615595
 21
3659.991571934293
 31
0.0
  0
LINE
  5
7AD8
  8
1
 10
5554.7372806615595
 20
3659.991571934293
 30
0.0
 11
5444.7372806615595
 21
3659.991571934253
 31
0.0
  0
LINE
  5
7AD9
  8
1
 10
5554.7372806615504
 20
3689.9915719342921
 30
0.0
 11
5458.040308459782
 21
3689.9915719342571
 31
0.0
  0
LINE
  5
7ADA
  8
1
 10
5420.484089371711
 20
3659.9915719342439
 30
0.0
 11
5613.6317732203133
 21
3659.991571934313
 31
0.0
  0
LINE
  5
7AE5
  8
1
 10
5613.6317732203133
 20
3659.991571934313
 30
0.0
 11
5624.3699755542884
 21
3592.3067617306151
 31
0.0
  0
LINE
  5
7AE6
  8
1
 10
5444.7372806615531
 20
3680.761943997938
 30
0.0
 11
5444.7372806615604
 21
3659.991571934253
 31
0.0
  0
LINE
  5
7AE8
  8
1
 10
5420.4840893717183
 20
3644.9003895001561
 30
0.0
 11
5420.484089371711
 21
3659.9915719342439
 31
0.0
  0
CIRCLE
  5
7AE9
  8
1
 10
3488.2672892563719
 20
4842.3067617298429
 30
0.0
 40
865.0
  0
CIRCLE
  5
7AEA
  8
1
 10
3488.2672892563719
 20
4842.3067617298429
 30
0.0
 40
800.0
  0
ARC
  5
7AEB
  8
1
 10
3488.2672892563528
 20
4842.3067617298429
 30
0.0
 40
550.0
 50
61.247823465623263
 51
257.51175660079991
  0
CIRCLE
  5
7AEC
  8
1
 10
3488.2672892563378
 20
4842.3067617298429
 30
0.0
 40
400.0
  0
LINE
  5
7AED
  8
2
 10
3488.2735698341949
 20
3252.3067617298439
 30
0.0
 11
3487.9656928405889
 21
5929.7453073013967
 31
0.0
  0
LINE
  5
7AEE
  8
1
 10
3533.2672892560131
 20
5822.3057617298864
 30
0.0
 11
5177.2629629360827
 21
5822.3057617304803
 31
0.0
  0
LINE
  5
7AEF
  8
1
 10
3468.2672892559922
 20
5881.3057617298637
 30
0.0
 11
5248.2672892559931
 21
5881.3057617305076
 31
0.0
  0
LINE
  5
7AF0
  8
1
 10
5183.2672892559904
 20
5887.3057617304821
 30
0.0
 11
3533.2672892559899
 21
5887.3057617298846
 31
0.0
  0
ARC
  5
7AF1
  8
1
 10
3604.2672892563228
 20
4958.306761729913
 30
0.0
 40
1487.0
 50
293.27366203938891
 51
355.52500000002061
  0
LINE
  5
7AF2
  8
1
 10
5214.1902817446953
 20
3666.6162604626302
 30
0.0
 11
3368.7749412834892
 21
4305.0551890559
 31
0.0
  0
LINE
  5
7AF4
  8
2
 10
2381.2209058286862
 20
4842.3067617294419
 30
0.0
 11
5238.5131918030929
 21
4842.306761730475
 31
0.0
  0
ARC
  5
7AF5
  8
1
 10
3391.2672892564019
 20
4745.3067617298348
 30
0.0
 40
1042.0
 50
84.659000000020697
 51
174.65900000002071
  0
ARC
  5
7AF6
  8
1
 10
3604.2672892564101
 20
4726.306761729913
 30
0.0
 40
1255.0
 50
174.69700000002069
 51
244.63346346993549
  0
LINE
  5
7AF7
  8
2
 10
5274.7372806612102
 20
4387.7475469608098
 30
0.0
 11
5274.7372806619196
 21
3252.3067617304891
 31
0.0
  0
LINE
  5
7AF8
  8
1
 10
4994.7372806615076
 20
3806.9502249775442
 30
0.0
 11
4994.7372806615604
 21
3659.9915719340888
 31
0.0
  0
LINE
  5
7AF9
  8
1
 10
5128.9904719514088
 20
3659.9915719341379
 30
0.0
 11
4935.8427881028074
 21
3659.9915719340679
 31
0.0
  0
LINE
  5
7AFA
  8
1
 10
5091.4342528633169
 20
3689.9915719341252
 30
0.0
 11
4994.7372806615494
 21
3689.9915719340888
 31
0.0
  0
LINE
  5
7AFB
  8
1
 10
5274.7372806615649
 20
3644.9003895001042
 30
0.0
 11
5128.9904719514143
 21
3644.900389500051
 31
0.0
  0
LINE
  5
7AFD
  8
1
 10
5104.7372806615531
 20
3680.7619439978162
 30
0.0
 11
5104.7372806615604
 21
3659.9915719341302
 31
0.0
  0
LINE
  5
7AFE
  8
1
 10
5128.9904719514143
 20
3644.900389500051
 30
0.0
 11
5128.9904719514088
 21
3659.9915719341379
 31
0.0
  0
LINE
  5
7B01
  8
1
 10
4935.8427881028074
 20
3659.9915719340679
 30
0.0
 11
4925.1045857688814
 21
3592.3067617303618
 31
0.0
  0
LINE
  5
7B09
  8
1
 10
2538.2672892568989
 20
3327.3067617295001
 30
0.0
 11
2538.2672892569258
 21
3252.3067617294992
 31
0.0
  0
POINT
  5
7B0A
  8
1
 10
2538.2672892569258
 20
3252.3067617294992
 30
0.0
 50
0.0000000000065138
  0
LINE
  5
7B0B
  8
1
 10
3533.2672892559899
 20
5887.3057617298846
 30
0.0
 11
3533.2672892560131
 21
5822.3057617298864
 31
0.0
  0
LINE
  5
7B0C
  8
1
 10
3533.267289256029
 20
5775.3327617298874
 30
0.0
 11
3533.2672892559899
 21
5887.3057617298846
 31
0.0
  0
LINE
  5
7B0D
  8
1
 10
2538.2672892568389
 20
3592.3067617294992
 30
0.0
 11
2538.267289256893
 21
3442.3067617294992
 31
0.0
  0
POINT
  5
7B0E
  8
1
 10
2538.2672892568989
 20
3327.3067617295001
 30
0.0
 50
0.0000000000065138
  0
POINT
  5
7B0F
  8
1
 10
2538.2672892568912
 20
3442.3067617294992
 30
0.0
 50
0.0000000000065138
  0
POINT
  5
7B10
  8
1
 10
2538.2672892568989
 20
3327.3067617295001
 30
0.0
 50
0.0000000000065138
  0
ARC
  5
7B11
  8
1
 10
3391.267289256331
 20
4939.3067617298357
 30
0.0
 40
848.0
 50
80.360245885931107
 51
83.432000000020693
  0
LINE
  5
7B12
  8
1
 10
3468.267289255989
 20
5887.3057617298628
 30
0.0
 11
3533.2672892559899
 21
5887.3057617298846
 31
0.0
  0
LINE
  5
7B13
  8
1
 10
3468.267289255989
 20
5887.3057617298628
 30
0.0
 11
3468.2672892559922
 21
5881.3057617298637
 31
0.0
  0
LINE
  5
7B14
  8
1
 10
5183.2672892559904
 20
5887.3057617304821
 30
0.0
 11
5086.7362892563669
 21
4842.3067617304496
 31
0.0
  0
LINE
  5
7B15
  8
1
 10
5248.2672892559895
 20
5887.3057617305076
 30
0.0
 11
5248.2672892559931
 21
5881.3057617305076
 31
0.0
  0
LINE
  5
7B16
  8
1
 10
5183.2672892559904
 20
5887.3057617304821
 30
0.0
 11
5248.2672892559895
 21
5887.3057617305076
 31
0.0
  0
LINE
  5
7B17
  8
1
 10
5372.312947478611
 20
8226.0982648725039
 30
0.0
 11
5201.312947478611
 21
8226.0982648723839
 31
0.0
  0
LINE
  5
7B18
  8
1
 10
5329.3129474787384
 20
8046.0982648724739
 30
0.0
 11
5244.3129474787384
 21
8046.0982648724121
 31
0.0
  0
LINE
  5
7B19
  8
1
 10
5336.8129474786192
 20
8216.0982648724785
 30
0.0
 11
5236.8129474786183
 21
8216.0982648724093
 31
0.0
  0
LINE
  5
7B1A
  8
1
 10
4999.3129474786074
 20
8232.598264872242
 30
0.0
 11
5566.8129474786083
 21
8232.5982648726404
 31
0.0
  0
LINE
  5
7B1B
  8
1
 10
5566.8129474780071
 20
9085.0982648726385
 30
0.0
 11
5183.2672892544279
 21
9085.0982648723693
 31
0.0
  0
LINE
  5
7B1C
  8
1
 10
5566.8129474788157
 20
7946.0982648725922
 30
0.0
 11
2938.2672892551832
 21
7946.0982648713007
 31
0.0
  0
LINE
  5
7B1D
  8
1
 10
5411.8129474787929
 20
7986.0982648725003
 30
0.0
 11
3088.26728925516
 21
7986.0982648713907
 31
0.0
  0
LINE
  5
7B1E
  8
1
 10
5411.812947478722
 20
8106.0982648725003
 30
0.0
 11
3088.2672892550891
 21
8106.0982648713889
 31
0.0
  0
LINE
  5
7B1F
  8
1
 10
5838.2672892544033
 20
9168.2928108702963
 30
0.0
 11
5183.2672892543987
 21
9168.2928108701381
 31
0.0
  0
LINE
  5
7B20
  8
1
 10
5838.2672892548371
 20
7968.2928108702954
 30
0.0
 11
2538.267289254823
 21
7968.2928108691758
 31
0.0
  0
LINE
  5
7B21
  8
2
 10
5286.8129474787329
 20
7946.0982648724548
 30
0.0
 11
5286.8129474780062
 21
9085.0982648724403
 31
0.0
  0
LINE
  5
7B22
  8
1
 10
5411.812947478722
 20
8106.0982648724848
 30
0.0
 11
5411.8129474787929
 21
7986.0982648724848
 31
0.0
  0
LINE
  5
7B23
  8
1
 10
5566.8129474786947
 20
8152.5881851899821
 30
0.0
 11
5566.8129474788157
 21
7946.0982648725776
 31
0.0
  0
LINE
  5
7B24
  8
1
 10
5566.8129474780071
 20
9085.0982648726385
 30
0.0
 11
5566.8129474786083
 21
8232.5982648726404
 31
0.0
  0
LINE
  5
7B25
  8
1
 10
5838.2672892544006
 20
9168.2928108702963
 30
0.0
 11
5838.2672892548371
 21
7968.2928108702954
 31
0.0
  0
LINE
  5
7B26
  8
1
 10
5566.8129474786483
 20
8152.5881851899821
 30
0.0
 11
5422.2773687403278
 21
8152.5881851898957
 31
0.0
  0
LINE
  5
7B27
  8
1
 10
5336.8129474786192
 20
8216.0982648724785
 30
0.0
 11
5336.812947478611
 21
8226.0982648724785
 31
0.0
  0
LINE
  5
7B28
  8
1
 10
5329.3129474787384
 20
8046.0982648724739
 30
0.0
 11
5329.3129474786183
 21
8216.0982648724766
 31
0.0
  0
ARC
  5
7B29
  8
1
 10
5372.3129474786092
 20
8228.0982648725058
 30
0.0
 40
2.0
 50
270.00000000004019
 51
0.0000000000402492
  0
LINE
  5
7B2A
  8
1
 10
5374.3129474786074
 20
8232.9466398725071
 30
0.0
 11
5374.3129474786092
 21
8228.0982648725058
 31
0.0
  0
LINE
  5
7B2B
  8
2
 10
3488.2672892538831
 20
10636.02226490483
 30
0.0
 11
3488.267289254733
 21
7946.0982648715708
 31
0.0
  0
LINE
  5
7B2C
  8
1
 10
2538.267289254823
 20
7968.2928108691722
 30
0.0
 11
2538.2672892546811
 21
8369.292810869174
 31
0.0
  0
LINE
  5
7B2D
  8
1
 10
4438.2672892539395
 20
10489.29281086986
 30
0.0
 11
4438.2672892539076
 21
10568.292810869851
 31
0.0
  0
LINE
  5
7B2E
  8
2
 10
5183.2672892543069
 20
9429.2928108701308
 30
0.0
 11
2226.335444065629
 21
9429.2928108690612
 31
0.0
  0
LINE
  5
7B2F
  8
1
 10
5161.812947478722
 20
8106.0982648723384
 30
0.0
 11
5161.8129474787929
 21
7986.0982648723384
 31
0.0
  0
LINE
  5
7B30
  8
1
 10
3888.2672892550891
 20
8106.09826487186
 30
0.0
 11
3888.26728925516
 21
7986.0982648718618
 31
0.0
  0
LINE
  5
7B31
  8
1
 10
4999.3129474786074
 20
8232.598264872242
 30
0.0
 11
4999.3129474785101
 21
8369.2928108700653
 31
0.0
  0
LINE
  5
7B32
  8
1
 10
5236.8129474786183
 20
8216.0982648724093
 30
0.0
 11
5236.812947478611
 21
8226.0982648724093
 31
0.0
  0
LINE
  5
7B35
  8
1
 10
5244.3129474787384
 20
8046.0982648724121
 30
0.0
 11
5244.3129474786183
 21
8216.0982648724112
 31
0.0
  0
ARC
  5
7B36
  8
1
 10
5201.3129474786092
 20
8228.0982648723839
 30
0.0
 40
2.0
 50
180.00000000004019
 51
270.00000000004019
  0
LINE
  5
7B37
  8
1
 10
5199.3129474786074
 20
8232.5982648723821
 30
0.0
 11
5199.3129474786101
 21
8228.0982648723821
 31
0.0
  0
LINE
  5
7B38
  8
1
 10
3088.2672892550891
 20
8106.0982648713889
 30
0.0
 11
3088.26728925516
 21
7986.0982648713907
 31
0.0
  0
LINE
  5
7B39
  8
1
 10
2938.2672892550622
 20
8152.5881851887061
 30
0.0
 11
2938.2672892551832
 21
7946.0982648713043
 31
0.0
  0
LINE
  5
7B3A
  8
1
 10
3172.3863082660969
 20
8152.5881851888453
 30
0.0
 11
2938.2672892550622
 21
8152.5881851887061
 31
0.0
  0
LINE
  5
7B3B
  8
1
 10
4438.2672892539076
 20
10568.292810869851
 30
0.0
 11
2538.2672892538899
 21
10568.29281086917
 31
0.0
  0
LINE
  5
7B3C
  8
2
 10
9198.6127180860403
 20
4842.3067617302186
 30
0.0
 11
6402.3634309017589
 21
4842.3067617299012
 31
0.0
  0
LINE
  5
7B3D
  8
1
 10
8949.4501525659161
 20
4782.3067617301904
 30
0.0
 11
9148.764430901776
 21
4782.3067617302131
 31
0.0
  0
LINE
  5
7B3E
  8
1
 10
8949.5211745139168
 20
4542.5704584099458
 30
0.0
 11
9148.7644309017978
 21
4612.3067617302131
 31
0.0
  0
LINE
  5
7B3F
  8
2
 10
7885.5579768992957
 20
6198.5312296413167
 30
0.0
 11
7885.5579768999596
 21
3249.8855719333892
 31
0.0
  0
LINE
  5
7B40
  8
1
 10
8946.2197833382343
 20
4887.3067617301904
 30
0.0
 11
8945.9236523488198
 21
5887.3057617305076
 31
0.0
  0
LINE
  5
7B41
  8
1
 10
6825.5634309017269
 20
4842.3067617299503
 30
0.0
 11
6825.5634309015486
 21
5887.3057617305076
 31
0.0
  0
LINE
  5
7B42
  8
1
 10
6562.363430901858
 20
3814.9915719343462
 30
0.0
 11
6562.3634309017234
 21
5242.3067617299203
 31
0.0
  0
LINE
  5
7B43
  8
1
 10
6442.363430901858
 20
3814.9915719343312
 30
0.0
 11
6442.3634309017234
 21
5242.3067617299057
 31
0.0
  0
LINE
  5
7B45
  8
1
 10
6402.3634309018762
 20
3659.991571934328
 30
0.0
 11
6402.363430901707
 21
5392.3067617299012
 31
0.0
  0
LINE
  5
7B46
  8
1
 10
6757.3634309016497
 20
5887.3057617305058
 30
0.0
 11
6757.3634309016588
 21
5822.3057617305076
 31
0.0
  0
LINE
  5
7B47
  8
1
 10
9013.7644309016578
 20
5822.3057617305067
 30
0.0
 11
9013.7644309016505
 21
5887.3057617305058
 31
0.0
  0
LINE
  5
7B48
  8
1
 10
7541.3634309018425
 20
4219.9915719343389
 30
0.0
 11
6688.8634309018444
 21
4219.9915719343389
 31
0.0
  0
LINE
  5
7B4A
  8
1
 10
6688.8634309018444
 20
3652.491571934338
 30
0.0
 11
7541.3634309018453
 21
3652.491571934338
 31
0.0
  0
LINE
  5
7B53
  8
1
 10
6688.8634309018462
 20
3652.491571934338
 30
0.0
 11
6688.8634309018444
 21
4219.9915719343389
 31
0.0
  0
LINE
  5
7B54
  8
1
 10
6825.5634309018997
 20
3589.922935119766
 30
0.0
 11
6825.5634309018888
 21
3652.491571934338
 31
0.0
  0
LINE
  5
7B55
  8
1
 10
6608.8533512192662
 20
3659.9915719343971
 30
0.0
 11
6608.8533512192489
 21
3804.5271506727181
 31
0.0
  0
LINE
  5
7B56
  8
1
 10
6608.8533512192662
 20
3659.9915719343512
 30
0.0
 11
6402.3634309018607
 21
3659.991571934328
 31
0.0
  0
LINE
  5
7B58
  8
1
 10
6562.3634309018444
 20
3814.9915719343462
 30
0.0
 11
6442.3634309018444
 21
3814.9915719343312
 31
0.0
  0
LINE
  5
7B59
  8
1
 10
6562.3634309018153
 20
4064.9915719343462
 30
0.0
 11
6442.3634309018144
 21
4064.9915719343312
 31
0.0
  0
LINE
  5
7B5A
  8
2
 10
7541.3634309018425
 20
3939.991571934459
 30
0.0
 11
6402.3634309018489
 21
3939.991571934328
 31
0.0
  0
LINE
  5
7B5B
  8
1
 10
6672.3634309018453
 20
3989.991571934338
 30
0.0
 11
6672.3634309018425
 21
3889.9915719343389
 31
0.0
  0
LINE
  5
7B5C
  8
1
 10
6502.3634309018444
 20
3982.4915719343389
 30
0.0
 11
6502.3634309018462
 21
3897.4915719343389
 31
0.0
  0
LINE
  5
7B5D
  8
1
 10
6682.3634309018425
 20
4025.491571934338
 30
0.0
 11
6682.3634309018444
 21
3854.4915719343389
 31
0.0
  0
LINE
  5
7B5E
  8
1
 10
6502.3634309018425
 20
3897.4915719343389
 30
0.0
 11
6672.3634309018453
 21
3897.4915719343389
 31
0.0
  0
LINE
  5
7B61
  8
1
 10
6688.8634309018444
 20
3852.4915719343389
 30
0.0
 11
6684.3634309018444
 21
3852.4915719343389
 31
0.0
  0
ARC
  5
7B62
  8
1
 10
6684.3634309018444
 20
3854.4915719343389
 30
0.0
 40
2.0
 50
180.0
 51
270.0
  0
LINE
  5
7B63
  8
1
 10
6672.3634309018425
 20
3889.9915719343389
 30
0.0
 11
6682.3634309018425
 21
3889.9915719343389
 31
0.0
  0
LINE
  5
7B64
  8
1
 10
6502.3634309018444
 20
3982.4915719343389
 30
0.0
 11
6672.3634309018453
 21
3982.4915719343389
 31
0.0
  0
LINE
  5
7B65
  8
1
 10
6689.2118059018449
 20
4027.4915719343398
 30
0.0
 11
6684.3634309018444
 21
4027.491571934338
 31
0.0
  0
ARC
  5
7B66
  8
1
 10
6684.3634309018444
 20
4025.491571934338
 30
0.0
 40
2.0
 50
90.000000000000057
 51
180.0
  0
LINE
  5
7B67
  8
1
 10
6672.3634309018453
 20
3989.991571934338
 30
0.0
 11
6682.3634309018444
 21
3989.991571934338
 31
0.0
  0
LINE
  5
7B68
  8
1
 10
6592.363430901778
 20
4762.3067617299221
 30
0.0
 11
6825.5634309017414
 21
4762.3067617299484
 31
0.0
  0
LINE
  5
7B69
  8
1
 10
6592.363430901798
 20
4582.3067617299221
 30
0.0
 11
6822.3634309018062
 21
4512.3073407184547
 31
0.0
  0
LINE
  5
7B6A
  8
1
 10
6562.3634309017634
 20
4897.3067617299184
 30
0.0
 11
6825.5634309017159
 21
4897.3067617299494
 31
0.0
  0
LINE
  5
7B6B
  8
1
 10
6562.3634309017752
 20
4787.3067617299184
 30
0.0
 11
6825.5634309017369
 21
4787.3067617299484
 31
0.0
  0
LINE
  5
7B6C
  8
1
 10
6592.363430901778
 20
4762.3067617299221
 30
0.0
 11
6592.363430901798
 21
4582.3067617299221
 31
0.0
  0
LINE
  5
7B6D
  8
1
 10
6562.3634309018134
 20
4442.3067617299184
 30
0.0
 11
6442.3634309018144
 21
4442.3067617299057
 31
0.0
  0
LINE
  5
7B6F
  8
1
 10
7541.3634309018425
 20
4219.9915719343389
 30
0.0
 11
7541.3634309018453
 21
3652.4915719343389
 31
0.0
  0
LINE
  5
7B79
  8
1
 10
6608.8533512191098
 20
5392.3067617299239
 30
0.0
 11
6402.363430901707
 21
5392.3067617299012
 31
0.0
  0
LINE
  5
7B7A
  8
1
 10
6562.3634309017216
 20
5242.3067617299203
 30
0.0
 11
6442.3634309017234
 21
5242.3067617299057
 31
0.0
  0
LINE
  5
7B7B
  8
1
 10
6608.8533512191379
 20
5158.1877427188901
 30
0.0
 11
6608.8533512191098
 21
5392.3067617299239
 31
0.0
  0
LINE
  5
7B7F
  8
1
 10
9148.764430901776
 20
4782.3067617302131
 30
0.0
 11
9148.7644309017978
 21
4612.3067617302131
 31
0.0
  0
LINE
  5
7B81
  8
1
 10
5183.2672892539349
 20
10489.29281087012
 30
0.0
 11
5183.2672892546789
 21
8369.2928108701253
 31
0.0
  0
LINE
  5
7B88
  8
1
 10
2538.267289253919
 20
10489.29281086917
 30
0.0
 11
2538.2672892538899
 21
10568.29281086917
 31
0.0
  0
LINE
  5
7B89
  8
1
 10
3433.2672892546811
 20
8369.2928108694941
 30
0.0
 11
3433.2672892547739
 21
8106.0982648715553
 31
0.0
  0
LINE
  5
7B8A
  8
1
 10
3543.267289254683
 20
8369.2928108695378
 30
0.0
 11
3543.2672892547739
 21
8106.0982648716081
 31
0.0
  0
DIMENSION
  5
7B9E
  8
3
  2
*D1
 10
4438.2672892539076
 20
11069.77319178892
 30
0.0
 11
3479.4491987760412
 21
11069.77319178892
 31
0.0
 70
   128
 13
2538.2672892538899
 23
10568.29281086917
 33
0.0
 14
4438.2672892539076
 24
10568.292810869851
 34
0.0
1001
ACAD
1000
DSTYLE
1002
{
1070
   287
1070
     3
1070
   287
1070
     3
1070
    40
1040
50.0
1070
   143
1040
0.039
1070
   172
1070
     1
1070
   271
1070
     0
1070
   279
1070
     0
1070
   288
1070
     1
1002
}
  0
DIMENSION
  5
7BAA
  8
3
  2
*D2
 10
5838.2672892544006
 20
11069.77319178892
 30
0.0
 11
5138.267289254155
 21
11194.77319178892
 31
0.0
 70
     0
 13
4438.2672892539076
 23
10568.292810869851
 33
0.0
 14
5838.2672892544006
 24
9168.2928108702963
 34
0.0
1001
ACAD
1000
DSTYLE
1002
{
1070
   287
1070
     4
1070
   287
1070
     4
1070
    40
1040
50.0
1070
    75
1070
     1
1070
   143
1040
0.039
1070
   172
1070
     1
1070
   271
1070
     0
1070
   279
1070
     1
1070
   288
1070
     1
1002
}
  0
DIMENSION
  5
7BB7
  8
3
  2
*D3
 10
6158.1883752757576
 20
7968.2928108702936
 30
0.0
 11
6158.1883752757567
 21
8684.1716134212256
 31
0.0
 70
   128
 13
5838.2672892544006
 23
9168.2928108702963
 33
0.0
 14
5838.2672892548371
 24
7968.2928108702954
 34
0.0
 50
90.0
1001
ACAD
1000
DSTYLE
1002
{
1070
   287
1070
     3
1070
   287
1070
     3
1070
    40
1040
50.0
1070
   143
1040
0.039
1070
   172
1070
     1
1070
   271
1070
     0
1070
   279
1070
     0
1070
   288
1070
     1
1002
}
  0
DIMENSION
  5
7BC4
  8
3
  2
*D4
 10
5838.2672892548371
 20
7609.8934396227351
 30
0.0
 11
3996.5726743371988
 21
7609.8934396227351
 31
0.0
 70
   128
 13
2538.268289254825
 23
7968.292810869174
 33
0.0
 14
5838.2672892548371
 24
7968.2928108702954
 34
0.0
1001
ACAD
1000
DSTYLE
1002
{
1070
   287
1070
     3
1070
   287
1070
     3
1070
    40
1040
50.0
1070
   143
1040
0.039
1070
   172
1070
     1
1070
   271
1070
     0
1070
   279
1070
     0
1070
   288
1070
     1
1002
}
  0
DIMENSION
  5
7BD1
  8
3
  2
*D5
 10
2069.2690882239558
 20
7968.292810869174
 30
0.0
 11
2069.2690882239549
 21
9430.7695579098072
 31
0.0
 70
   128
 13
2538.2672892538899
 23
10568.29281086917
 33
0.0
 14
2538.268289254825
 24
7968.292810869174
 34
0.0
 50
90.0
1001
ACAD
1000
DSTYLE
1002
{
1070
   287
1070
     3
1070
   287
1070
     3
1070
    40
1040
50.0
1070
   143
1040
0.039
1070
   172
1070
     1
1070
   271
1070
     0
1070
   279
1070
     0
1070
   288
1070
     1
1002
}
  0
LINE
  5
7CB0
  8
1
 10
5838.2672892569317
 20
3252.3067617306929
 30
0.0
 11
5838.2672892569026
 21
3327.306761730692
 31
0.0
  0
LINE
  5
7CB1
  8
1
 10
5838.2672892568953
 20
3442.3067617306929
 30
0.0
 11
5838.267289256838
 21
3592.306761730692
 31
0.0
  0
DIMENSION
  5
7CD8
  8
3
  2
*D6
 10
3533.2672892559899
 20
6161.090584000277
 30
0.0
 11
4373.7512278310933
 21
6161.090584000277
 31
0.0
 70
   128
 13
5183.2672892559904
 23
5887.3057617304821
 33
0.0
 14
3533.2672892559899
 24
5887.3057617298846
 34
0.0
1001
ACAD
1000
DSTYLE
1002
{
1070
   287
1070
     3
1070
   287
1070
     3
1070
    40
1040
50.0
1070
   143
1040
0.039
1070
   172
1070
     1
1070
   271
1070
     0
1070
   279
1070
     0
1070
   288
1070
     1
1002
}
  0
DIMENSION
  5
7CF2
  8
3
  2
*D7
 10
3488.2672892559672
 20
6443.6434665914148
 30
0.0
 11
4373.7512278310933
 21
6443.6434665914148
 31
0.0
 70
   128
 13
5183.2672892559904
 23
5887.3057617304821
 33
0.0
 14
3488.2672892559672
 24
5949.3531451575227
 34
0.0
1001
ACAD
1000
DSTYLE
1002
{
1070
   287
1070
     3
1070
   287
1070
     3
1070
    40
1040
50.0
1070
   143
1040
0.039
1070
   172
1070
     1
1070
   271
1070
     0
1070
   279
1070
     0
1070
   288
1070
     1
1002
}
  0
DIMENSION
  5
7CFE
  8
3
  2
*D8
 10
1886.930584394795
 20
3442.3067617294992
 30
0.0
 11
1761.9305843947941
 21
4142.306761729471
 31
0.0
 70
     0
 13
2381.2209058286862
 23
4842.3067617294419
 33
0.0
 14
2538.267289256893
 24
3442.3067617294992
 34
0.0
 50
90.0
1001
ACAD
1000
DSTYLE
1002
{
1070
   287
1070
     3
1070
   287
1070
     3
1070
    40
1040
50.0
1070
   143
1040
0.039
1070
   172
1070
     1
1070
   271
1070
     0
1070
   279
1070
     0
1070
   288
1070
     1
1002
}
  0
DIMENSION
  5
7D1E
  8
3
  2
*D9
 10
1886.930584394795
 20
3252.3067617294992
 30
0.0
 11
1761.9305843947941
 21
2880.8781903009281
 31
0.0
 70
     0
 13
2538.2672892568989
 23
3327.3067617295001
 33
0.0
 14
2538.2672892569258
 24
3252.3067617294992
 34
0.0
 50
90.0
1001
ACAD
1000
DSTYLE
1002
{
1070
   287
1070
     3
1070
   287
1070
     3
1070
    40
1040
50.0
1070
   143
1040
0.039
1070
   172
1070
     1
1070
   271
1070
     0
1070
   279
1070
     0
1070
   288
1070
     1
1070
     6
1000
DOT
1002
}
  0
LINE
  5
7D6C
  8
1
 10
6825.5634309017942
 20
4219.9915719343389
 30
0.0
 11
6825.5634309017278
 21
4842.3067617299503
 31
0.0
  0
DIMENSION
  5
7DAB
  8
3
  2
*D11
 10
8945.9236523488198
 20
6179.3554654501932
 30
0.0
 11
7885.7656599216143
 21
6179.3554654501932
 31
0.0
 70
   128
 13
6825.5634309015486
 23
5887.3057617305076
 33
0.0
 14
8945.9236523488198
 24
5887.3057617305094
 34
0.0
1001
ACAD
1000
DSTYLE
1002
{
1070
   287
1070
     3
1070
   287
1070
     3
1070
    40
1040
50.0
1070
   143
1040
0.039
1070
   172
1070
     1
1070
   271
1070
     0
1070
   279
1070
     0
1070
   288
1070
     1
1002
}
  0
DIMENSION
  5
7DB8
  8
3
  2
*D12
 10
7885.5579768992557
 20
6534.4267631619523
 30
0.0
 11
8381.9865483278263
 21
6534.4267631619523
 31
0.0
 70
   128
  1
(1300)
 13
9148.764430901776
 23
4782.3067617302131
 33
0.0
 14
7885.5579768992557
 24
6419.419321819465
 34
0.0
1001
ACAD
1000
DSTYLE
1002
{
1070
   287
1070
     3
1070
   287
1070
     3
1070
    40
1040
50.0
1070
   143
1040
0.039
1070
   172
1070
     1
1070
   271
1070
     0
1070
   279
1070
     0
1070
   288
1070
     1
1002
}
  0
DIMENSION
  5
7DC4
  8
3
  2
*D13
 10
6402.363430901707
 20
6534.4267631619523
 30
0.0
 11
7143.9607039004813
 21
6784.4267631619523
 31
0.0
 70
     0
  1
MAX\P1580
 13
7885.5579768992557
 23
6419.419321819465
 33
0.0
 14
6402.363430901707
 24
5392.3067617299012
 34
0.0
1001
ACAD
1000
DSTYLE
1002
{
1070
   287
1070
     4
1070
   287
1070
     4
1070
    40
1040
50.0
1070
    75
1070
     1
1070
   143
1040
0.039
1070
   172
1070
     1
1070
   271
1070
     0
1070
   279
1070
     1
1070
   288
1070
     1
1002
}
  0
DIMENSION
  5
7DFC
  8
3
  2
*D14
 10
9466.2625062360476
 20
4042.3067617301899
 30
0.0
 11
9466.2625062360476
 21
4805.5463503050196
 31
0.0
 70
   128
 13
8957.7644309016814
 23
5642.3067617301913
 33
0.0
 14
8957.7644309018615
 24
4042.3067617301899
 34
0.0
 50
90.0
1001
ACAD
1000
DSTYLE
1002
{
1070
   287
1070
     3
1070
   287
1070
     3
1070
     3
1000
φ<>
1070
    40
1040
50.0
1070
   143
1040
0.039
1070
   172
1070
     1
1070
   271
1070
     0
1070
   279
1070
     0
1070
   288
1070
     1
1002
}
  0
LINE
  5
7E0A
  8
1
 10
8946.2197833382343
 20
4887.3067617301904
 30
0.0
 11
8946.2197833382324
 21
3590.1205273364521
 31
0.0
  0
LINE
  5
7EAD
  8
1
 10
6424.5579768998732
 20
3589.8855719332241
 30
0.0
 11
6424.5579768998987
 21
3439.8855719332241
 31
0.0
  0
LINE
  5
7EAE
  8
1
 10
9024.5579768998723
 20
3589.8855719335179
 30
0.0
 11
9024.5579768999032
 21
3439.8855719335179
 31
0.0
  0
LINE
  5
7EAF
  8
1
 10
9024.5579768998996
 20
3439.8855719335179
 30
0.0
 11
6424.5579768999014
 21
3439.8855719332241
 31
0.0
  0
LINE
  5
7EB0
  8
1
 10
9024.5579768998723
 20
3589.8855719335179
 30
0.0
 11
6424.5579768998832
 21
3589.8855719332241
 31
0.0
  0
LINE
  5
7EB2
  8
1
 10
9024.5579768999014
 20
3324.8855719335179
 30
0.0
 11
6424.5579768999023
 21
3324.8855719332241
 31
0.0
  0
LINE
  5
7EB3
  8
1
 10
9024.5579768999105
 20
3249.8855719335179
 30
0.0
 11
6424.5579768999114
 21
3249.8855719332241
 31
0.0
  0
LINE
  5
7EB4
  8
1
 10
6424.5579768999041
 20
3324.8855719332241
 30
0.0
 11
6424.5579768999178
 21
3249.8855719332232
 31
0.0
  0
LINE
  5
7EB5
  8
1
 10
9024.5579768999069
 20
3324.8855719335179
 30
0.0
 11
9024.5579768999178
 21
3249.8855719335179
 31
0.0
  0
LINE
  5
7EE0
  8
4
 10
9250.0
 20
1994.4441593799129
 30
0.0
 11
9250.0
 21
994.44415937991278
 31
0.0
  0
LINE
  5
7EE1
  8
4
 10
5750.0
 20
1994.4441593799129
 30
0.0
 11
5750.0
 21
994.44415937991278
 31
0.0
  0
LINE
  5
7EE2
  8
4
 10
3250.0
 20
1994.4441593799129
 30
0.0
 11
3250.0
 21
994.44415937991278
 31
0.0
  0
LINE
  5
7EE5
  8
4
 10
3250.0
 20
994.44415937991278
 30
0.0
 11
9250.0
 21
994.44415937991278
 31
0.0
  0
LINE
  5
7EE6
  8
4
 10
3250.0
 20
1494.444159379912
 30
0.0
 11
9250.0
 21
1494.444159379912
 31
0.0
  0
TEXT
  5
7EE7
  8
4
 10
3442.5104042345079
 20
1652.1592887129771
 30
0.0
 40
250.0
  1
機器名称
  0
TEXT
  5
7EE8
  8
4
 10
3431.2905301239871
 20
1102.6699430399669
 30
0.0
 40
250.0
  1
機器型番
  0
TEXT
  5
7EE9
  8
4
 10
5898.2903601445887
 20
1615.4851230703721
 30
0.0
 40
212.5
  1
ミツヤ多翼送風機
  0
TEXT
  5
7EEA
  8
4
 10
5933.2724779274031
 20
1080.2420807796291
 30
0.0
 40
250.0
  1
MF#10-5
  0
TEXT
  5
7EEC
  8
4
 10
3999.827685028838
 20
11917.14420666257
 30
0.0
 40
270.0
  1
床置防振ベット
  0
TEXT
  5
7EED
  8
4
 10
1493.4877664224621
 20
12669.40488099649
 30
0.0
 40
360.0
  1
遠心式両吸込両持多翼ファン
  0
LINE
  5
7EEE
  8
4
 10
1250.0
 20
12347.043771324021
 30
0.0
 11
9250.0
 21
12347.043771324021
 31
0.0
  0
LINE
  5
7EEF
  8
4
 10
1250.0
 20
13347.043771324021
 30
0.0
 11
9250.0
 21
13347.043771324021
 31
0.0
  0
LINE
  5
7EF0
  8
4
 10
3250.0
 20
1994.4441593799129
 30
0.0
 11
9250.0
 21
1994.4441593799129
 31
0.0
  0
LINE
  5
7EF1
  8
4
 10
1250.0
 20
13347.043771324021
 30
0.0
 11
1250.0
 21
12347.043771324021
 31
0.0
  0
TEXT
  5
7EF2
  8
4
 10
1820.533523815327
 20
11911.59738773171
 30
0.0
 40
270.0
  1
左回転上向
  0
TEXT
  5
7EF3
  8
4
 10
7344.8477962464494
 20
13530.30540747654
 30
0.0
 40
280.0
  1
No.
  0
TEXT
  5
7EF4
  8
4
 10
6556.4803130000646
 20
11917.14420666257
 30
0.0
 40
270.0
  1
縮尺：1/50
  0
LINE
  5
7EF5
  8
4
 10
9250.0
 20
13347.043771324021
 30
0.0
 11
9250.0
 21
12347.043771324021
 31
0.0
  0
LINE
  5
7EF6
  8
4
 10
10500.0
 20
14750.0
 30
0.0
 11
10500.0
 21
14750.0
 31
0.0
  0
LINE
  5
7EF7
  8
4
 10
7203.0871117993229
 20
13406.317915627
 30
0.0
 11
7203.0871117993229
 21
13933.26130774876
 31
0.0
  0
LINE
  5
7EF8
  8
4
 10
7203.0871117993229
 20
13933.26130774876
 30
0.0
 11
9250.0
 21
13933.26130774876
 31
0.0
  0
LINE
  5
7EF9
  8
4
 10
9250.0
 20
13933.26130774876
 30
0.0
 11
9250.0
 21
13406.317915627
 31
0.0
  0
LINE
  5
7EFA
  8
4
 10
9250.0
 20
13406.317915627
 30
0.0
 11
7203.0871117993229
 21
13406.317915627
 31
0.0
  0
LINE
  5
7EFB
  8
4
 10
0.0
 20
0.0
 30
0.0
 11
0.0
 21
14750.0
 31
0.0
  0
LINE
  5
7EFC
  8
4
 10
0.0
 20
14750.0
 30
0.0
 11
10500.0
 21
14750.0
 31
0.0
  0
LINE
  5
7EFD
  8
4
 10
10500.0
 20
14750.0
 30
0.0
 11
10500.0
 21
0.0
 31
0.0
  0
LINE
  5
7EFE
  8
4
 10
10500.0
 20
0.0
 30
0.0
 11
0.0
 21
0.0
 31
0.0
  0
LINE
  5
7F42
  8
1
 10
5234.2476962800638
 20
3821.7308702762789
 30
0.0
 11
3358.7006192358772
 21
4463.8725164245207
 31
0.0
  0
DIMENSION
  5
7F6F
  8
3
  2
*D15
 10
1886.930584394795
 20
5887.3057617298646
 30
0.0
 11
1761.930584394793
 21
5364.8062617296537
 31
0.0
 70
     0
 13
2381.2209058286862
 23
4842.3067617294419
 33
0.0
 14
3468.267289255989
 24
5887.3057617298628
 34
0.0
 50
90.0
1001
ACAD
1000
DSTYLE
1002
{
1070
   287
1070
     4
1070
   287
1070
     4
1070
    40
1040
50.0
1070
    75
1070
     1
1070
   143
1040
0.039
1070
   172
1070
     1
1070
   271
1070
     0
1070
   279
1070
     1
1070
   288
1070
     1
1002
}
  0
DIMENSION
  5
7F7B
  8
3
  2
*D16
 10
2349.2672892564092
 20
6443.6434665914148
 30
0.0
 11
2918.7672892561891
 21
6568.6434665914148
 31
0.0
 70
     0
 13
3488.2672892559672
 23
5949.3531451575227
 33
0.0
 14
2349.2672892564092
 24
4726.306761729913
 34
0.0
1001
ACAD
1000
DSTYLE
1002
{
1070
   287
1070
     4
1070
   287
1070
     4
1070
    40
1040
50.0
1070
    75
1070
     1
1070
   143
1040
0.039
1070
   172
1070
     1
1070
   271
1070
     0
1070
   279
1070
     1
1070
   288
1070
     1
1002
}
  0
DIMENSION
  5
7FA2
  8
3
  2
*D17
 10
5838.267289256838
 20
6775.7592063520651
 30
0.0
 11
4078.6680687054468
 21
6775.7592063520651
 31
0.0
 70
   128
 13
2349.2672892564092
 23
4751.306761729913
 33
0.0
 14
5838.267289256838
 24
3592.306761730692
 34
0.0
1001
ACAD
1000
DSTYLE
1002
{
1070
   287
1070
     3
1070
   287
1070
     3
1070
    40
1040
50.0
1070
   143
1040
0.039
1070
   172
1070
     1
1070
   271
1070
     0
1070
   279
1070
     0
1070
   288
1070
     1
1002
}
  0
LINE
  5
7FA4
  8
1
 10
6757.3634309016506
 20
5887.3057617305076
 30
0.0
 11
9013.7644309016505
 21
5887.3057617305094
 31
0.0
  0
LINE
  5
7FA5
  8
1
 10
6757.3634309016588
 20
5822.3057617305076
 30
0.0
 11
9013.7644309016578
 21
5822.3057617305067
 31
0.0
  0
LINE
  5
7FA6
  8
1
 10
6757.3634309016506
 20
5881.3057617305076
 30
0.0
 11
9013.7644309016505
 21
5881.3057617305094
 31
0.0
  0
LINE
  5
7FDF
  8
1
 10
2349.2672892539349
 20
10489.292810869099
 30
0.0
 11
2349.267289254683
 21
8369.2928108691103
 31
0.0
  0
LINE
  5
7FE1
  8
1
 10
3533.267289253934
 20
10489.29281086954
 30
0.0
 11
3533.2672892546789
 21
8369.2928108695451
 31
0.0
  0
LINE
  5
7FE6
  8
1
 10
5183.2672892546789
 20
8369.2928108701326
 30
0.0
 11
2349.2672892546821
 21
8369.2928108691103
 31
0.0
  0
LINE
  5
7FE7
  8
1
 10
5183.2672892539358
 20
10489.29281087012
 30
0.0
 11
2349.2672892539349
 21
10489.292810869099
 31
0.0
  0
LINE
  5
7FE8
  8
1
 10
5183.2672892539349
 20
10489.29281087012
 30
0.0
 11
3533.2672892546789
 21
8369.2928108695342
 31
0.0
  0
LINE
  5
7FE9
  8
1
 10
3533.267289253934
 20
10489.292810869531
 30
0.0
 11
5183.2672892546789
 21
8369.2928108701308
 31
0.0
  0
DIMENSION
  5
8010
  8
3
  2
*D18
 10
3488.2626458432619
 20
2969.73978773002
 30
0.0
 11
3013.2649675500938
 21
3094.73978773002
 31
0.0
 12
0.0
 22
-95.0
 32
0.0
 70
     0
 13
2538.2672892569258
 23
3252.3067617294992
 33
0.0
 14
3488.2626458432619
 24
3252.3067617298429
 34
0.0
1001
ACAD
1000
DSTYLE
1002
{
1070
   172
1070
     1
1070
    40
1040
50.0
1070
   271
1070
     0
1070
   143
1040
0.039
1002
}
  0
DIMENSION
  5
801D
  8
3
  2
*D19
 10
5838.2672892569317
 20
2969.73978773002
 30
0.0
 11
4663.264967550097
 21
3094.73978773002
 31
0.0
 12
0.0
 22
-95.0
 32
0.0
 70
     0
 13
3488.2626458432619
 23
3252.3067617298429
 33
0.0
 14
5838.2672892569317
 24
3252.3067617306929
 34
0.0
1001
ACAD
1000
DSTYLE
1002
{
1070
   172
1070
     1
1070
    40
1040
50.0
1070
   271
1070
     0
1070
   143
1040
0.039
1002
}
  0
DIMENSION
  5
802A
  8
3
  2
*D20
 10
7885.5579768999378
 20
2969.73978773002
 30
0.0
 11
7155.0579768999287
 21
3094.73978773002
 31
0.0
 12
0.0
 22
-95.0
 32
0.0
 70
     0
 13
6424.5579768999178
 23
3249.8855719332232
 33
0.0
 14
7885.5579768999378
 24
3249.8855719333892
 34
0.0
1001
ACAD
1000
DSTYLE
1002
{
1070
   172
1070
     1
1070
    40
1040
50.0
1070
   271
1070
     0
1070
   143
1040
0.039
1002
}
  0
DIMENSION
  5
8037
  8
3
  2
*D21
 10
9024.5579768999178
 20
2969.73978773002
 30
0.0
 11
8455.0579768999287
 21
3094.73978773002
 31
0.0
 12
0.0
 22
-95.0
 32
0.0
 70
     0
 13
7885.5579768999378
 23
3249.8855719333892
 33
0.0
 14
9024.5579768999178
 24
3249.8855719335179
 34
0.0
1001
ACAD
1000
DSTYLE
1002
{
1070
   172
1070
     1
1070
    40
1040
50.0
1070
   271
1070
     0
1070
   143
1040
0.039
1002
}
  0
DIMENSION
  5
8053
  8
3
  2
*D23
 10
1885.873592656666
 20
3442.3067617294992
 30
0.0
 11
1646.5878783709511
 21
3384.8067617294992
 31
0.0
 70
     0
  1
   <>
 13
2538.2672892568989
 23
3327.3067617295001
 33
0.0
 14
2538.267289256893
 24
3442.3067617294992
 34
0.0
 50
90.0
1001
ACAD
1000
DSTYLE
1002
{
1070
   172
1070
     1
1070
    76
1070
     1
1070
    75
1070
     1
1070
    40
1040
50.0
1070
     3
1000
(<>)
1070
   271
1070
     0
1070
     7
1000
_NONE
1070
     6
1000
_NONE
1070
   143
1040
0.039
1002
}
  0
DIMENSION
  5
8073
  8
3
  2
*D24
 10
1481.7939593609331
 20
5887.3057617298628
 30
0.0
 11
1317.5082450752191
 21
4569.8062617296819
 31
0.0
 70
     0
 13
2538.2672892569258
 23
3252.3067617294992
 33
0.0
 14
3443.267289255989
 24
5887.3057617298628
 34
0.0
 50
90.0
1001
ACAD
1000
DSTYLE
1002
{
1070
   172
1070
     1
1070
    40
1040
50.0
1070
     3
1000
(<>)
1070
   271
1070
     0
1070
     7
1000
_NONE
1070
     6
1000
_NONE
1070
   143
1040
0.039
1002
}
  0
ENDSEC
  0
EOF
