  0
SECTION
  2
HEADER
  9
$ACADVER
  1
AC1009
  9
$INSBASE
 10
0.0
 20
0.0
 30
0.0
  9
$EXTMIN
 10
0.0
 20
0.0
 30
0.0
  9
$EXTMAX
 10
10500.0
 20
14750.0
 30
0.0
  9
$LIMMIN
 10
0.0
 20
0.0
  9
$LIMMAX
 10
297.0
 20
210.0
  9
$ORTHOMODE
 70
     0
  9
$REGENMODE
 70
     1
  9
$FILLMODE
 70
     0
  9
$QTEXTMODE
 70
     0
  9
$MIRRTEXT
 70
     1
  9
$DRAGMODE
 70
     2
  9
$LTSCALE
 40
100.0
  9
$OSMODE
 70
    37
  9
$ATTMODE
 70
     1
  9
$TEXTSIZE
 40
180.0
  9
$TRACEWID
 40
0.05
  9
$TEXTSTYLE
  7
STANDARD
  9
$CLAYER
  8
3
  9
$CELTYPE
  6
BYLAYER
  9
$CECOLOR
 62
   256
  9
$DIMSCALE
 40
50.0
  9
$DIMASZ
 40
2.0
  9
$DIMEXO
 40
0.5
  9
$DIMDLI
 40
10.0
  9
$DIMRND
 40
0.0
  9
$DIMDLE
 40
0.0
  9
$DIMEXE
 40
1.0
  9
$DIMTP
 40
1.0
  9
$DIMTM
 40
1.0
  9
$DIMTXT
 40
3.0
  9
$DIMCEN
 40
0.0
  9
$DIMTSZ
 40
0.0
  9
$DIMTOL
 70
     0
  9
$DIMLIM
 70
     0
  9
$DIMTIH
 70
     0
  9
$DIMTOH
 70
     0
  9
$DIMSE1
 70
     0
  9
$DIMSE2
 70
     0
  9
$DIMTAD
 70
     1
  9
$DIMZIN
 70
     8
  9
$DIMBLK
  1

  9
$DIMASO
 70
     1
  9
$DIMSHO
 70
     1
  9
$DIMPOST
  1

  9
$DIMAPOST
  1

  9
$DIMALT
 70
     0
  9
$DIMALTD
 70
     2
  9
$DIMALTF
 40
0.039
  9
$DIMLFAC
 40
1.0
  9
$DIMTOFL
 70
     1
  9
$DIMTVP
 40
0.0
  9
$DIMTIX
 70
     0
  9
$DIMSOXD
 70
     0
  9
$DIMSAH
 70
     1
  9
$DIMBLK1
  1
OPEN
  9
$DIMBLK2
  1
OPEN
  9
$DIMSTYLE
  2
IGA
  9
$DIMCLRD
 70
     0
  9
$DIMCLRE
 70
     0
  9
$DIMCLRT
 70
     0
  9
$DIMTFAC
 40
10.0
  9
$DIMGAP
 40
1.0
  9
$LUNITS
 70
     2
  9
$LUPREC
 70
     3
  9
$SKETCHINC
 40
0.1
  9
$FILLETRAD
 40
50.0
  9
$AUNITS
 70
     0
  9
$AUPREC
 70
     0
  9
$MENU
  1
acad
  9
$ELEVATION
 40
0.0
  9
$PELEVATION
 40
0.0
  9
$THICKNESS
 40
0.0
  9
$LIMCHECK
 70
     0
  9
$BLIPMODE
 70
     0
  9
$CHAMFERA
 40
0.0
  9
$CHAMFERB
 40
0.0
  9
$SKPOLY
 70
     0
  9
$TDCREATE
 40
2452326.4454812501
  9
$TDUPDATE
 40
2454953.8301411569
  9
$TDINDWG
 40
0.0677240278
  9
$TDUSRTIMER
 40
0.0677240278
  9
$USRTIMER
 70
     1
  9
$ANGBASE
 50
0.0
  9
$ANGDIR
 70
     0
  9
$PDMODE
 70
     0
  9
$PDSIZE
 40
0.0
  9
$PLINEWID
 40
0.0
  9
$COORDS
 70
     1
  9
$SPLFRAME
 70
     0
  9
$SPLINETYPE
 70
     6
  9
$SPLINESEGS
 70
     8
  9
$ATTDIA
 70
     0
  9
$ATTREQ
 70
     1
  9
$HANDLING
 70
 10241
  9
$HANDSEED
  5
8340
  9
$SURFTAB1
 70
     6
  9
$SURFTAB2
 70
     6
  9
$SURFTYPE
 70
     6
  9
$SURFU
 70
     6
  9
$SURFV
 70
     6
  9
$UCSNAME
  2

  9
$UCSORG
 10
0.0
 20
0.0
 30
0.0
  9
$UCSXDIR
 10
1.0
 20
0.0
 30
0.0
  9
$UCSYDIR
 10
0.0
 20
1.0
 30
0.0
  9
$PUCSNAME
  2

  9
$PUCSORG
 10
0.0
 20
0.0
 30
0.0
  9
$PUCSXDIR
 10
1.0
 20
0.0
 30
0.0
  9
$PUCSYDIR
 10
0.0
 20
1.0
 30
0.0
  9
$USERI1
 70
     0
  9
$USERI2
 70
     0
  9
$USERI3
 70
     0
  9
$USERI4
 70
     0
  9
$USERI5
 70
     0
  9
$USERR1
 40
0.0
  9
$USERR2
 40
0.0
  9
$USERR3
 40
0.0
  9
$USERR4
 40
0.0
  9
$USERR5
 40
0.0
  9
$WORLDVIEW
 70
     1
  9
$SHADEDGE
 70
     3
  9
$SHADEDIF
 70
    70
  9
$TILEMODE
 70
     1
  9
$MAXACTVP
 70
    16
  9
$PLIMCHECK
 70
     0
  9
$PEXTMIN
 10
1.0000000000000000E+020
 20
1.0000000000000000E+020
 30
1.0000000000000000E+020
  9
$PEXTMAX
 10
-1.0000000000000000E+020
 20
-1.0000000000000000E+020
 30
-1.0000000000000000E+020
  9
$PLIMMIN
 10
0.0
 20
0.0
  9
$PLIMMAX
 10
12.0
 20
9.0
  9
$UNITMODE
 70
     0
  9
$VISRETAIN
 70
     0
  9
$PLINEGEN
 70
     0
  9
$PSLTSCALE
 70
     1
  0
ENDSEC
  0
SECTION
  2
TABLES
  0
TABLE
  2
VPORT
 70
     2
  0
VPORT
  2
*ACTIVE
 70
     0
 10
0.0
 20
0.0
 11
1.0
 21
1.0
 12
15069.956616052061
 22
10012.49454014673
 13
0.0
 23
0.0
 14
10.0
 24
10.0
 15
10.0
 25
10.0
 16
0.0
 26
0.0
 36
1.0
 17
0.0
 27
0.0
 37
0.0
 40
20024.989080293471
 41
1.5051150895140659
 42
50.0
 43
0.0
 44
0.0
 50
0.0
 51
0.0
 71
     0
 72
   100
 73
     1
 74
     0
 75
     0
 76
     0
 77
     0
 78
     0
  0
ENDTAB
  0
TABLE
  2
LTYPE
 70
     2
  0
LTYPE
  2
CONTINUOUS
 70
     0
  3
Solid line
 72
    65
 73
     0
 40
0.0
  0
LTYPE
  2
CENTER
 70
     0
  3
____ _ ____ _ ____ _ ____ _ ____ _ ____ _ ____ 
 72
    65
 73
     4
 40
2.0
 49
1.25
 49
-0.25
 49
0.25
 49
-0.25
  0
ENDTAB
  0
TABLE
  2
LAYER
 70
     6
  0
LAYER
  2
0
 70
     0
 62
     7
  6
CONTINUOUS
  0
LAYER
  2
3
 70
     0
 62
     2
  6
CONTINUOUS
  0
LAYER
  2
2
 70
     0
 62
     3
  6
CENTER
  0
LAYER
  2
1
 70
     0
 62
     4
  6
CONTINUOUS
  0
LAYER
  2
4
 70
     0
 62
     7
  6
CONTINUOUS
  0
LAYER
  2
DEFPOINTS
 70
     0
 62
     7
  6
CONTINUOUS
  0
ENDTAB
  0
TABLE
  2
STYLE
 70
     1
  0
STYLE
  2
STANDARD
 70
     0
 40
0.0
 41
1.0
 50
0.0
 71
     0
 42
180.0
  3
simplex.shx
  4
extfont.shx
  0
ENDTAB
  0
TABLE
  2
VIEW
 70
     0
  0
ENDTAB
  0
TABLE
  2
UCS
 70
     0
  0
ENDTAB
  0
TABLE
  2
APPID
 70
     1
  0
APPID
  2
ACAD
 70
     0
  0
ENDTAB
  0
TABLE
  2
DIMSTYLE
 70
     1
  0
DIMSTYLE
  2
IGA
 70
     0
  3

  4

  5

  6
OPEN
  7
OPEN
 40
2.0
 41
2.0
 42
0.5
 43
10.0
 44
1.0
 45
0.0
 46
0.0
 47
1.0
 48
1.0
140
3.0
141
0.0
142
0.0
143
0.03937
144
1.0
145
0.0
146
10.0
147
1.0
 71
     0
 72
     0
 73
     0
 74
     0
 75
     0
 76
     0
 77
     1
 78
     8
170
     0
171
     2
172
     0
173
     1
174
     0
175
     0
176
     0
177
     0
178
     0
  0
ENDTAB
  0
ENDSEC
  0
SECTION
  2
BLOCKS
  0
BLOCK
  8
0
  2
$MODEL_SPACE
 70
     0
 10
0.0
 20
0.0
 30
0.0
  3
$MODEL_SPACE
  1

  0
ENDBLK
  5
1B
  8
0
  0
BLOCK
 67
     1
  8
0
  2
$PAPER_SPACE
 70
     0
 10
0.0
 20
0.0
 30
0.0
  3
$PAPER_SPACE
  1

  0
ENDBLK
  5
18
 67
     1
  8
0
  0
BLOCK
  8
0
  2
_OPEN
 70
     0
 10
0.0
 20
0.0
 30
0.0
  3
_OPEN
  1

  0
LINE
  5
7B8E
  8
0
  6
BYBLOCK
 62
     0
 10
-1.0
 20
0.1666666666666666
 30
0.0
 11
0.0
 21
0.0
 31
0.0
  0
LINE
  5
7B8F
  8
0
  6
BYBLOCK
 62
     0
 10
0.0
 20
0.0
 30
0.0
 11
-1.0
 21
-0.1666666666666666
 31
0.0
  0
LINE
  5
7B90
  8
0
  6
BYBLOCK
 62
     0
 10
0.0
 20
0.0
 30
0.0
 11
-1.0
 21
0.0
 31
0.0
  0
ENDBLK
  5
7B91
  8
0
  0
BLOCK
  8
0
  2
*D1
 70
     1
 10
0.0
 20
0.0
 30
0.0
  3
*D1
  1

  0
LINE
  5
82AD
  8
3
 62
     0
 10
4714.158367992768
 20
10624.39387775079
 30
0.0
 11
4714.158367992768
 21
11150.874258669881
 31
0.0
  0
LINE
  5
82AE
  8
3
 62
     0
 10
2814.1583679927498
 20
10624.393877750141
 30
0.0
 11
2814.1583679927498
 21
11150.874258669881
 31
0.0
  0
LINE
  5
82AF
  8
3
 62
     0
 10
4614.1583679927689
 20
11100.874258669881
 30
0.0
 11
2914.1583679927512
 21
11100.874258669881
 31
0.0
  0
INSERT
  5
82B0
  8
3
 62
     0
  2
_OPEN
 10
4714.158367992768
 20
11100.874258669881
 30
0.0
 41
100.0
 42
100.0
 43
100.0
  0
INSERT
  5
82B1
  8
3
 62
     0
  2
_OPEN
 10
2814.1583679927498
 20
11100.874258669881
 30
0.0
 41
100.0
 42
100.0
 43
100.0
 50
180.0
  0
TEXT
  8
3
  40
150
  5
8330
  62
0
  72
0
  71
0
 10
3472.98
 20
10960.4
 30
0.000000
  1
1900
  0
POINT
  5
82B3
  8
DEFPOINTS
 62
     0
 10
4714.158367992768
 20
10599.39387775079
 30
0.0
  0
POINT
  5
82B4
  8
DEFPOINTS
 62
     0
 10
2814.1583679927498
 20
10599.393877750141
 30
0.0
  0
POINT
  5
82B5
  8
DEFPOINTS
 62
     0
 10
2814.1583679927498
 20
11100.874258669881
 30
0.0
  0
ENDBLK
  5
8088
  8
0
  0
BLOCK
  8
0
  2
*D2
 70
     1
 10
0.0
 20
0.0
 30
0.0
  3
*D2
  1

  0
LINE
  5
82B6
  8
3
 62
     0
 10
1414.1583679932439
 20
9224.3938777495896
 30
0.0
 11
1414.1583679932451
 21
11150.874258668209
 31
0.0
  0
LINE
  5
82B7
  8
3
 62
     0
 10
2714.1583679927498
 20
11100.87425866822
 30
0.0
 11
1514.1583679932439
 21
11100.87425866822
 31
0.0
  0
INSERT
  5
82B8
  8
3
 62
     0
  2
_OPEN
 10
2814.1583679927498
 20
11100.87425866822
 30
0.0
 41
100.0
 42
100.0
 43
100.0
  0
INSERT
  5
82B9
  8
3
 62
     0
  2
_OPEN
 10
1414.1583679932451
 20
11100.87425866822
 30
0.0
 41
100.0
 42
100.0
 43
100.0
 50
180.0
  0
TEXT
  8
3
  40
150
  5
8331
  62
0
  72
0
  71
0
 10
1814.16
 20
10960.4
 30
0.000000
  1
1400
  0
POINT
  5
82BB
  8
DEFPOINTS
 62
     0
 10
2814.1583679927498
 20
10599.393877750141
 30
0.0
  0
POINT
  5
82BC
  8
DEFPOINTS
 62
     0
 10
1414.1583679932439
 20
9199.3938777495896
 30
0.0
  0
POINT
  5
82BD
  8
DEFPOINTS
 62
     0
 10
1414.1583679932451
 20
11100.87425866822
 30
0.0
  0
ENDBLK
  5
809D
  8
0
  0
BLOCK
  8
0
  2
*D3
 70
     1
 10
0.0
 20
0.0
 30
0.0
  3
*D3
  1

  0
LINE
  5
82BE
  8
3
 62
     0
 10
1389.1583679932439
 20
9199.3938777495896
 30
0.0
 11
1044.237281972232
 21
9199.3938777495896
 31
0.0
  0
LINE
  5
82BF
  8
3
 62
     0
 10
1389.1583679936559
 20
7999.3938777495914
 30
0.0
 11
1044.237281972232
 21
7999.3938777495914
 31
0.0
  0
LINE
  5
82C0
  8
3
 62
     0
 10
1094.2372819722329
 20
9099.3938777495896
 30
0.0
 11
1094.237281972232
 21
8099.3938777495914
 31
0.0
  0
INSERT
  5
82C1
  8
3
 62
     0
  2
_OPEN
 10
1094.2372819722329
 20
9199.3938777495896
 30
0.0
 41
100.0
 42
100.0
 43
100.0
 50
90.0
  0
INSERT
  5
82C2
  8
3
 62
     0
  2
_OPEN
 10
1094.237281972232
 20
7999.3938777495914
 30
0.0
 41
100.0
 42
100.0
 43
100.0
 50
270.0
  0
TEXT
  8
3
  40
150
  5
8332
  62
0
  72
0
  71
0
 10
669.237
 20
8449.77
 30
0.000000
  1
1200
  0
POINT
  5
82C4
  8
DEFPOINTS
 62
     0
 10
1414.1583679932439
 20
9199.3938777495896
 30
0.0
  0
POINT
  5
82C5
  8
DEFPOINTS
 62
     0
 10
1414.1583679936559
 20
7999.3938777495914
 30
0.0
  0
POINT
  5
82C6
  8
DEFPOINTS
 62
     0
 10
1094.237281972232
 20
7999.3938777495914
 30
0.0
  0
ENDBLK
  5
807D
  8
0
  0
BLOCK
  8
0
  2
*D4
 70
     1
 10
0.0
 20
0.0
 30
0.0
  3
*D4
  1

  0
LINE
  5
82C7
  8
3
 62
     0
 10
4714.1573679936673
 20
7974.3938777507983
 30
0.0
 11
4714.1573679936673
 21
7590.9945065033298
 31
0.0
  0
LINE
  5
82C8
  8
3
 62
     0
 10
1414.1583679936559
 20
7974.3938777495914
 30
0.0
 11
1414.1583679936559
 21
7590.9945065033298
 31
0.0
  0
LINE
  5
82C9
  8
3
 62
     0
 10
4614.1573679936682
 20
7640.9945065033298
 30
0.0
 11
1514.1583679936559
 21
7640.9945065033298
 31
0.0
  0
INSERT
  5
82CA
  8
3
 62
     0
  2
_OPEN
 10
4714.1573679936673
 20
7640.9945065033298
 30
0.0
 41
100.0
 42
100.0
 43
100.0
  0
INSERT
  5
82CB
  8
3
 62
     0
  2
_OPEN
 10
1414.1583679936559
 20
7640.9945065033298
 30
0.0
 41
100.0
 42
100.0
 43
100.0
 50
180.0
  0
TEXT
  8
3
  40
150
  5
8333
  62
0
  72
0
  71
0
 10
2955.85
 20
7500.49
 30
0.000000
  1
3300
  0
POINT
  5
82CD
  8
DEFPOINTS
 62
     0
 10
4714.1573679936673
 20
7999.3938777507974
 30
0.0
  0
POINT
  5
82CE
  8
DEFPOINTS
 62
     0
 10
1414.1583679936559
 20
7999.3938777495914
 30
0.0
  0
POINT
  5
82CF
  8
DEFPOINTS
 62
     0
 10
1414.1583679936559
 20
7640.9945065033298
 30
0.0
  0
ENDBLK
  5
7FF9
  8
0
  0
BLOCK
  8
0
  2
*D5
 70
     1
 10
0.0
 20
0.0
 30
0.0
  3
*D5
  1

  0
LINE
  5
82D0
  8
3
 62
     0
 10
4739.1583679927689
 20
10599.39387775079
 30
0.0
 11
5377.1896312444451
 21
10599.39387775079
 31
0.0
  0
LINE
  5
82D1
  8
3
 62
     0
 10
4739.1573679936682
 20
7999.3938777507974
 30
0.0
 11
5377.1896312444442
 21
7999.3938777507974
 31
0.0
  0
LINE
  5
82D2
  8
3
 62
     0
 10
5327.1896312444451
 20
10499.39387775079
 30
0.0
 11
5327.1896312444442
 21
8099.3938777507974
 31
0.0
  0
INSERT
  5
82D3
  8
3
 62
     0
  2
_OPEN
 10
5327.1896312444451
 20
10599.39387775079
 30
0.0
 41
100.0
 42
100.0
 43
100.0
 50
90.0
  0
INSERT
  5
82D4
  8
3
 62
     0
  2
_OPEN
 10
5327.1896312444442
 20
7999.3938777507974
 30
0.0
 41
100.0
 42
100.0
 43
100.0
 50
270.0
  0
TEXT
  8
3
  40
150
  5
8334
  62
0
  72
0
  71
0
 10
4902.19
 20
9196.37
 30
0.000000
  1
2600
  0
POINT
  5
82D6
  8
DEFPOINTS
 62
     0
 10
4714.158367992768
 20
10599.39387775079
 30
0.0
  0
POINT
  5
82D7
  8
DEFPOINTS
 62
     0
 10
4714.1573679936673
 20
7999.3938777507974
 30
0.0
  0
POINT
  5
82D8
  8
DEFPOINTS
 62
     0
 10
5327.1896312444442
 20
7999.3938777507974
 30
0.0
  0
ENDBLK
  5
80A8
  8
0
  0
BLOCK
  8
0
  2
*D6
 70
     1
 10
0.0
 20
0.0
 30
0.0
  3
*D6
  1

  0
LINE
  5
82D9
  8
3
 62
     0
 10
2069.1583679940318
 20
5928.085840573247
 30
0.0
 11
2069.1583679940318
 21
6226.8706628436121
 31
0.0
  0
LINE
  5
82DA
  8
3
 62
     0
 10
3719.1583679940318
 20
5928.0858405738136
 30
0.0
 11
3719.1583679940318
 21
6226.8706628436121
 31
0.0
  0
LINE
  5
82DB
  8
3
 62
     0
 10
2169.1583679940318
 20
6176.8706628436121
 30
0.0
 11
3619.1583679940318
 21
6176.8706628436121
 31
0.0
  0
INSERT
  5
82DC
  8
3
 62
     0
  2
_OPEN
 10
2069.1583679940318
 20
6176.8706628436121
 30
0.0
 41
100.0
 42
100.0
 43
100.0
 50
180.0
  0
INSERT
  5
82DD
  8
3
 62
     0
  2
_OPEN
 10
3719.1583679940318
 20
6176.8706628436121
 30
0.0
 41
100.0
 42
100.0
 43
100.0
  0
TEXT
  8
3
  40
150
  5
8335
  62
0
  72
0
  71
0
 10
2578.67
 20
6036.37
 30
0.000000
  1
1650
  0
POINT
  5
82DF
  8
DEFPOINTS
 62
     0
 10
2069.1583679940318
 20
5903.085840573247
 30
0.0
  0
POINT
  5
82E0
  8
DEFPOINTS
 62
     0
 10
3719.1583679940318
 20
5903.0858405738136
 30
0.0
  0
POINT
  5
82E1
  8
DEFPOINTS
 62
     0
 10
3719.1583679940318
 20
6176.8706628436121
 30
0.0
  0
ENDBLK
  5
8067
  8
0
  0
BLOCK
  8
0
  2
*D7
 70
     1
 10
0.0
 20
0.0
 30
0.0
  3
*D7
  1

  0
LINE
  5
82E2
  8
3
 62
     0
 10
2069.1583679940318
 20
5928.085840573247
 30
0.0
 11
2069.1583679940318
 21
6509.4235454347508
 31
0.0
  0
LINE
  5
82E3
  8
3
 62
     0
 10
3764.1583679940122
 20
5990.1332240014845
 30
0.0
 11
3764.1583679940122
 21
6509.4235454347508
 31
0.0
  0
LINE
  5
82E4
  8
3
 62
     0
 10
2169.1583679940318
 20
6459.4235454347508
 30
0.0
 11
3664.1583679940122
 21
6459.4235454347508
 31
0.0
  0
INSERT
  5
82E5
  8
3
 62
     0
  2
_OPEN
 10
2069.1583679940318
 20
6459.4235454347508
 30
0.0
 41
100.0
 42
100.0
 43
100.0
 50
180.0
  0
INSERT
  5
82E6
  8
3
 62
     0
  2
_OPEN
 10
3764.1583679940122
 20
6459.4235454347508
 30
0.0
 41
100.0
 42
100.0
 43
100.0
  0
TEXT
  8
3
  40
150
  5
8336
  62
0
  72
0
  71
0
 10
2578.67
 20
6318.92
 30
0.000000
  1
1695
  0
POINT
  5
82E8
  8
DEFPOINTS
 62
     0
 10
2069.1583679940318
 20
5903.085840573247
 30
0.0
  0
POINT
  5
82E9
  8
DEFPOINTS
 62
     0
 10
3764.1583679940122
 20
5965.1332240014826
 30
0.0
  0
POINT
  5
82EA
  8
DEFPOINTS
 62
     0
 10
3764.1583679940122
 20
6459.4235454347508
 30
0.0
  0
ENDBLK
  5
8072
  8
0
  0
BLOCK
  8
0
  2
*D8
 70
     1
 10
0.0
 20
0.0
 30
0.0
  3
*D8
  1

  0
LINE
  5
82EB
  8
3
 62
     0
 10
4896.2047514220731
 20
4858.0868405741849
 30
0.0
 11
5415.495072856952
 21
4858.0868405741849
 31
0.0
  0
LINE
  5
82EC
  8
3
 62
     0
 10
4739.1583679948526
 20
3458.0868405741298
 30
0.0
 11
5415.495072856952
 21
3458.0868405741298
 31
0.0
  0
LINE
  5
82ED
  8
3
 62
     0
 10
5365.495072856952
 20
4758.086840574184
 30
0.0
 11
5365.495072856952
 21
3558.0868405741298
 31
0.0
  0
INSERT
  5
82EE
  8
3
 62
     0
  2
_OPEN
 10
5365.495072856952
 20
4858.0868405741849
 30
0.0
 41
100.0
 42
100.0
 43
100.0
 50
90.0
  0
INSERT
  5
82EF
  8
3
 62
     0
  2
_OPEN
 10
5365.495072856952
 20
3458.0868405741298
 30
0.0
 41
100.0
 42
100.0
 43
100.0
 50
270.0
  0
TEXT
  8
3
  40
150
  5
8337
  62
0
  72
0
  71
0
 10
4940.50
 20
3892.59
 30
0.000000
  1
1400
  0
POINT
  5
82F1
  8
DEFPOINTS
 62
     0
 10
4871.2047514220731
 20
4858.0868405741849
 30
0.0
  0
POINT
  5
82F2
  8
DEFPOINTS
 62
     0
 10
4714.1583679948544
 20
3458.0868405741298
 30
0.0
  0
POINT
  5
82F3
  8
DEFPOINTS
 62
     0
 10
5365.495072856952
 20
3458.0868405741298
 30
0.0
  0
ENDBLK
  5
8046
  8
0
  0
BLOCK
  8
0
  2
*D9
 70
     1
 10
0.0
 20
0.0
 30
0.0
  3
*D9
  1

  0
LINE
  5
82F4
  8
3
 62
     0
 10
6825.5634309015486
 20
5928.0858405744684
 30
0.0
 11
6825.5634309015486
 21
6245.135544294154
 31
0.0
  0
LINE
  5
82F5
  8
3
 62
     0
 10
8945.9236523488198
 20
5928.0858405744684
 30
0.0
 11
8945.9236523488198
 21
6245.135544294154
 31
0.0
  0
LINE
  5
82F6
  8
3
 62
     0
 10
6925.5634309015486
 20
6195.1355442941531
 30
0.0
 11
8845.9236523488198
 21
6195.1355442941531
 31
0.0
  0
INSERT
  5
82F7
  8
3
 62
     0
  2
_OPEN
 10
6825.5634309015486
 20
6195.1355442941531
 30
0.0
 41
100.0
 42
100.0
 43
100.0
 50
180.0
  0
INSERT
  5
82F8
  8
3
 62
     0
  2
_OPEN
 10
8945.9236523488198
 20
6195.1355442941531
 30
0.0
 41
100.0
 42
100.0
 43
100.0
  0
TEXT
  8
3
  40
150
  5
8338
  62
0
  72
0
  71
0
 10
7585.77
 20
6054.64
 30
0.000000
  1
2120
  0
POINT
  5
82FA
  8
DEFPOINTS
 62
     0
 10
6825.5634309015486
 20
5903.0858405744666
 30
0.0
  0
POINT
  5
82FB
  8
DEFPOINTS
 62
     0
 10
8945.9236523488198
 20
5903.0858405744693
 30
0.0
  0
POINT
  5
82FC
  8
DEFPOINTS
 62
     0
 10
8945.9236523488198
 20
6195.1355442941531
 30
0.0
  0
ENDBLK
  5
7FC7
  8
0
  0
BLOCK
  8
0
  2
*D10
 70
     1
 10
0.0
 20
0.0
 30
0.0
  3
*D10
  1

  0
LINE
  5
82FD
  8
3
 62
     0
 10
9148.764430901776
 20
4823.086840574173
 30
0.0
 11
9148.764430901776
 21
6600.2068420059122
 31
0.0
  0
LINE
  5
82FE
  8
3
 62
     0
 10
7885.5579768992557
 20
6460.1994006634259
 30
0.0
 11
7885.5579768992557
 21
6600.2068420059122
 31
0.0
  0
LINE
  5
82FF
  8
3
 62
     0
 10
9048.764430901776
 20
6550.2068420059122
 30
0.0
 11
7985.5579768992548
 21
6550.2068420059122
 31
0.0
  0
INSERT
  5
8300
  8
3
 62
     0
  2
_OPEN
 10
9148.764430901776
 20
6550.2068420059122
 30
0.0
 41
100.0
 42
100.0
 43
100.0
  0
INSERT
  5
8301
  8
3
 62
     0
  2
_OPEN
 10
7885.5579768992557
 20
6550.2068420059122
 30
0.0
 41
100.0
 42
100.0
 43
100.0
 50
180.0
  0
TEXT
  8
3
  40
150
  5
8339
  62
0
  72
0
  71
0
 10
8081.99
 20
6448.99
 30
0.000000
  1
(1300)
  0
POINT
  5
8303
  8
DEFPOINTS
 62
     0
 10
9148.764430901776
 20
4798.086840574173
 30
0.0
  0
POINT
  5
8304
  8
DEFPOINTS
 62
     0
 10
7885.5579768992557
 20
6435.199400663425
 30
0.0
  0
POINT
  5
8305
  8
DEFPOINTS
 62
     0
 10
7885.5579768992557
 20
6550.2068420059122
 30
0.0
  0
ENDBLK
  5
7FDC
  8
0
  0
BLOCK
  8
0
  2
*D11
 70
     1
 10
0.0
 20
0.0
 30
0.0
  3
*D11
  1

  0
LINE
  5
8306
  8
3
 62
     0
 10
6402.363430901707
 20
5433.0868405738611
 30
0.0
 11
6402.363430901707
 21
6600.2068420059122
 31
0.0
  0
LINE
  5
8307
  8
3
 62
     0
 10
7785.5579768992548
 20
6550.2068420059122
 30
0.0
 11
6502.363430901707
 21
6550.2068420059122
 31
0.0
  0
INSERT
  5
8308
  8
3
 62
     0
  2
_OPEN
 10
7885.5579768992557
 20
6550.2068420059122
 30
0.0
 41
100.0
 42
100.0
 43
100.0
  0
INSERT
  5
8309
  8
3
 62
     0
  2
_OPEN
 10
6402.363430901707
 20
6550.2068420059122
 30
0.0
 41
100.0
 42
100.0
 43
100.0
 50
180.0
  0
TEXT
  8
3
  40
150
  5
833A
  62
0
  72
0
  71
0
 10
6843.96
 20
6534.71
 30
0.000000
  1
MAX
  0
TEXT
  8
3
  40
150
  5
833B
  62
0
  72
0
  71
0
 10
6843.96
 20
6339.71
 30
0.000000
  1
1580
  0
POINT
  5
830B
  8
DEFPOINTS
 62
     0
 10
7885.5579768992557
 20
6435.199400663425
 30
0.0
  0
POINT
  5
830C
  8
DEFPOINTS
 62
     0
 10
6402.363430901707
 20
5408.086840573862
 30
0.0
  0
POINT
  5
830D
  8
DEFPOINTS
 62
     0
 10
6402.363430901707
 20
6550.2068420059122
 30
0.0
  0
ENDBLK
  5
7FD1
  8
0
  0
BLOCK
  8
0
  2
*D12
 70
     1
 10
0.0
 20
0.0
 30
0.0
  3
*D12
  1

  0
LINE
  5
830E
  8
3
 62
     0
 10
8982.7644309016796
 20
5658.0868405741512
 30
0.0
 11
9516.2625062360476
 21
5658.0868405741512
 31
0.0
  0
LINE
  5
830F
  8
3
 62
     0
 10
8982.7644309018633
 20
4058.0868405741512
 30
0.0
 11
9516.2625062360457
 21
4058.0868405741512
 31
0.0
  0
LINE
  5
8310
  8
3
 62
     0
 10
9466.2625062360476
 20
5558.0868405741512
 30
0.0
 11
9466.2625062360476
 21
4158.0868405741512
 31
0.0
  0
INSERT
  5
8311
  8
3
 62
     0
  2
_OPEN
 10
9466.2625062360476
 20
5658.0868405741512
 30
0.0
 41
100.0
 42
100.0
 43
100.0
 50
90.0
  0
INSERT
  5
8312
  8
3
 62
     0
  2
_OPEN
 10
9466.2625062360476
 20
4058.0868405741512
 30
0.0
 41
100.0
 42
100.0
 43
100.0
 50
270.0
  0
TEXT
  8
3
  40
150
  5
833C
  62
0
  72
0
  71
0
 10
9041.26
 20
4555.83
 30
0.000000
  1
φ1600
  0
POINT
  5
8314
  8
DEFPOINTS
 62
     0
 10
8957.7644309016814
 20
5658.0868405741512
 30
0.0
  0
POINT
  5
8315
  8
DEFPOINTS
 62
     0
 10
8957.7644309018615
 20
4058.0868405741512
 30
0.0
  0
POINT
  5
8316
  8
DEFPOINTS
 62
     0
 10
9466.2625062360476
 20
4058.0868405741512
 30
0.0
  0
ENDBLK
  5
7E07
  8
0
  0
BLOCK
  8
0
  2
*D13
 70
     1
 10
0.0
 20
0.0
 30
0.0
  3
*D13
  1

  0
LINE
  5
8317
  8
3
 62
     0
 10
3809.1583679940318
 20
5903.0858405738381
 30
0.0
 11
5415.4950728552276
 21
5903.0858405738381
 31
0.0
  0
LINE
  5
8318
  8
3
 62
     0
 10
5365.4950728552276
 20
4958.0868405741858
 30
0.0
 11
5365.4950728552276
 21
5803.0858405738391
 31
0.0
  0
INSERT
  5
8319
  8
3
 62
     0
  2
_OPEN
 10
5365.4950728552276
 20
4858.0868405741849
 30
0.0
 41
100.0
 42
100.0
 43
100.0
 50
270.0
  0
INSERT
  5
831A
  8
3
 62
     0
  2
_OPEN
 10
5365.4950728552276
 20
5903.0858405738381
 30
0.0
 41
100.0
 42
100.0
 43
100.0
 50
90.0
  0
TEXT
  8
3
  40
150
  5
833D
  62
0
  72
0
  71
0
 10
4940.50
 20
5115.09
 30
0.000000
  1
1045
  0
POINT
  5
831C
  8
DEFPOINTS
 62
     0
 10
4871.2047514220731
 20
4858.0868405741849
 30
0.0
  0
POINT
  5
831D
  8
DEFPOINTS
 62
     0
 10
3784.1583679940318
 20
5903.0858405738381
 30
0.0
  0
POINT
  5
831E
  8
DEFPOINTS
 62
     0
 10
5365.4950728552276
 20
5903.0858405738381
 30
0.0
  0
ENDBLK
  5
800E
  8
0
  0
BLOCK
  8
0
  2
*D14
 70
     1
 10
0.0
 20
0.0
 30
0.0
  3
*D14
  1

  0
LINE
  5
831F
  8
3
 62
     0
 10
4903.1583679944324
 20
4767.086840574676
 30
0.0
 11
4903.1583679944324
 21
6509.4235454361788
 31
0.0
  0
LINE
  5
8320
  8
3
 62
     0
 10
3864.1583679940122
 20
6459.4235454361788
 30
0.0
 11
4803.1583679944324
 21
6459.4235454361788
 31
0.0
  0
INSERT
  5
8321
  8
3
 62
     0
  2
_OPEN
 10
3764.1583679940122
 20
6459.4235454361788
 30
0.0
 41
100.0
 42
100.0
 43
100.0
 50
180.0
  0
INSERT
  5
8322
  8
3
 62
     0
  2
_OPEN
 10
4903.1583679944324
 20
6459.4235454361788
 30
0.0
 41
100.0
 42
100.0
 43
100.0
  0
TEXT
  8
3
  40
150
  5
833E
  62
0
  72
0
  71
0
 10
4033.66
 20
6318.92
 30
0.000000
  1
1139
  0
POINT
  5
8324
  8
DEFPOINTS
 62
     0
 10
3764.1583679940122
 20
5965.1332240014826
 30
0.0
  0
POINT
  5
8325
  8
DEFPOINTS
 62
     0
 10
4903.1583679944324
 20
4742.086840574676
 30
0.0
  0
POINT
  5
8326
  8
DEFPOINTS
 62
     0
 10
4903.1583679944324
 20
6459.4235454361788
 30
0.0
  0
ENDBLK
  5
8018
  8
0
  0
BLOCK
  8
0
  2
*D15
 70
     1
 10
0.0
 20
0.0
 30
0.0
  3
*D15
  1

  0
LINE
  5
8327
  8
3
 62
     0
 10
4903.1583679944142
 20
4792.0868405746769
 30
0.0
 11
4903.1583679944142
 21
6841.5392851956067
 31
0.0
  0
LINE
  5
8328
  8
3
 62
     0
 10
1414.158367994801
 20
3633.0868405729939
 30
0.0
 11
1414.1583679948019
 21
6841.5392851956067
 31
0.0
  0
LINE
  5
8329
  8
3
 62
     0
 10
4803.1583679944142
 20
6791.5392851956067
 30
0.0
 11
1514.158367994801
 21
6791.5392851956067
 31
0.0
  0
INSERT
  5
832A
  8
3
 62
     0
  2
_OPEN
 10
4903.1583679944142
 20
6791.5392851956067
 30
0.0
 41
100.0
 42
100.0
 43
100.0
  0
INSERT
  5
832B
  8
3
 62
     0
  2
_OPEN
 10
1414.1583679948019
 20
6791.5392851956067
 30
0.0
 41
100.0
 42
100.0
 43
100.0
 50
180.0
  0
TEXT
  8
3
  40
150
  5
833F
  62
0
  72
0
  71
0
 10
2873.76
 20
6651.04
 30
0.000000
  1
3489
  0
POINT
  5
832D
  8
DEFPOINTS
 62
     0
 10
4903.1583679944142
 20
4767.086840574676
 30
0.0
  0
POINT
  5
832E
  8
DEFPOINTS
 62
     0
 10
1414.158367994801
 20
3608.0868405729939
 30
0.0
  0
POINT
  5
832F
  8
DEFPOINTS
 62
     0
 10
1414.1583679948019
 20
6791.5392851956067
 30
0.0
  0
ENDBLK
  5
802E
  8
0
  0
BLOCK
  8
0
  2
*D16
 70
     1
 10
0.0
 20
0.0
 30
0.0
  3
*D16
  1

  0
LINE
  5
818C
  8
0
  6
BYBLOCK
 62
     0
 10
1414.1583679948519
 20
3433.0868405729962
 30
0.0
 11
1414.1583679948519
 21
3089.0572641524882
 31
0.0
  0
LINE
  5
818D
  8
0
  6
BYBLOCK
 62
     0
 10
3764.1739353994162
 20
3433.0868405738029
 30
0.0
 11
3764.1739353994162
 21
3089.0572641524882
 31
0.0
  0
LINE
  5
818E
  8
0
  6
BYBLOCK
 62
     0
 10
1514.1583679948519
 20
3139.0572641524882
 30
0.0
 11
3664.1739353994162
 21
3139.0572641524882
 31
0.0
  0
INSERT
  5
818F
  8
0
  6
BYBLOCK
 62
     0
  2
_OPEN
 10
1414.1583679948519
 20
3139.0572641524882
 30
0.0
 41
100.0
 42
100.0
 43
100.0
 50
180.0
  0
INSERT
  5
8190
  8
0
  6
BYBLOCK
 62
     0
  2
_OPEN
 10
3764.1739353994162
 20
3139.0572641524882
 30
0.0
 41
100.0
 42
100.0
 43
100.0
  0
TEXT
  5
8191
  8
3
 62
     0
 10
2324.8804374114202
 20
3189.0572641524882
 30
0.0
 40
150.0
  1
2350
  0
POINT
  5
8192
  8
DEFPOINTS
  6
BYBLOCK
 62
     0
 10
1414.1583679948519
 20
3458.0868405729962
 30
0.0
  0
POINT
  5
8193
  8
DEFPOINTS
  6
BYBLOCK
 62
     0
 10
3764.1739353994162
 20
3458.0868405738038
 30
0.0
  0
POINT
  5
8194
  8
DEFPOINTS
  6
BYBLOCK
 62
     0
 10
3764.1739353994162
 20
3139.0572641524882
 30
0.0
  0
ENDBLK
  5
8195
  8
0
  0
BLOCK
  8
0
  2
*D17
 70
     1
 10
0.0
 20
0.0
 30
0.0
  3
*D17
  1

  0
LINE
  5
8199
  8
0
  6
BYBLOCK
 62
     0
 10
3764.1739353994162
 20
3433.0868405738029
 30
0.0
 11
3764.1739353994162
 21
3089.0572641524882
 31
0.0
  0
LINE
  5
819A
  8
0
  6
BYBLOCK
 62
     0
 10
4714.1583679948544
 20
3433.0868405741298
 30
0.0
 11
4714.1583679948544
 21
3089.0572641524882
 31
0.0
  0
LINE
  5
819B
  8
0
  6
BYBLOCK
 62
     0
 10
3864.1739353994162
 20
3139.0572641524882
 30
0.0
 11
4614.1583679948526
 21
3139.0572641524882
 31
0.0
  0
INSERT
  5
819C
  8
0
  6
BYBLOCK
 62
     0
  2
_OPEN
 10
3764.1739353994162
 20
3139.0572641524882
 30
0.0
 41
100.0
 42
100.0
 43
100.0
 50
180.0
  0
INSERT
  5
819D
  8
0
  6
BYBLOCK
 62
     0
  2
_OPEN
 10
4714.1583679948544
 20
3139.0572641524882
 30
0.0
 41
100.0
 42
100.0
 43
100.0
  0
TEXT
  5
819E
  8
3
 62
     0
 10
4046.3090088399908
 20
3189.0572641524882
 30
0.0
 40
150.0
  1
950
  0
POINT
  5
819F
  8
DEFPOINTS
  6
BYBLOCK
 62
     0
 10
3764.1739353994162
 20
3458.0868405738038
 30
0.0
  0
POINT
  5
81A0
  8
DEFPOINTS
  6
BYBLOCK
 62
     0
 10
4714.1583679948544
 20
3458.0868405741298
 30
0.0
  0
POINT
  5
81A1
  8
DEFPOINTS
  6
BYBLOCK
 62
     0
 10
4714.1583679948544
 20
3139.0572641524882
 30
0.0
  0
ENDBLK
  5
81A2
  8
0
  0
BLOCK
  8
0
  2
*D18
 70
     1
 10
0.0
 20
0.0
 30
0.0
  3
*D18
  1

  0
LINE
  5
81A6
  8
0
  6
BYBLOCK
 62
     0
 10
6424.5579768998987
 20
3433.0868405734991
 30
0.0
 11
6424.5579768998987
 21
3089.0572641524882
 31
0.0
  0
LINE
  5
81A7
  8
0
  6
BYBLOCK
 62
     0
 10
7885.557976899915
 20
3433.0868405736642
 30
0.0
 11
7885.557976899915
 21
3089.0572641524882
 31
0.0
  0
LINE
  5
81A8
  8
0
  6
BYBLOCK
 62
     0
 10
6524.5579768998987
 20
3139.0572641524882
 30
0.0
 11
7785.557976899915
 21
3139.0572641524882
 31
0.0
  0
INSERT
  5
81A9
  8
0
  6
BYBLOCK
 62
     0
  2
_OPEN
 10
6424.5579768998987
 20
3139.0572641524882
 30
0.0
 41
100.0
 42
100.0
 43
100.0
 50
180.0
  0
INSERT
  5
81AA
  8
0
  6
BYBLOCK
 62
     0
  2
_OPEN
 10
7885.557976899915
 20
3139.0572641524882
 30
0.0
 41
100.0
 42
100.0
 43
100.0
  0
TEXT
  5
81AB
  8
3
 62
     0
 10
6937.2008340427637
 20
3189.0572641524882
 30
0.0
 40
150.0
  1
1461
  0
POINT
  5
81AC
  8
DEFPOINTS
  6
BYBLOCK
 62
     0
 10
6424.5579768998987
 20
3458.0868405734991
 30
0.0
  0
POINT
  5
81AD
  8
DEFPOINTS
  6
BYBLOCK
 62
     0
 10
7885.557976899915
 20
3458.0868405736642
 30
0.0
  0
POINT
  5
81AE
  8
DEFPOINTS
  6
BYBLOCK
 62
     0
 10
7885.557976899915
 20
3139.0572641524882
 30
0.0
  0
ENDBLK
  5
81AF
  8
0
  0
BLOCK
  8
0
  2
*D19
 70
     1
 10
0.0
 20
0.0
 30
0.0
  3
*D19
  1

  0
LINE
  5
81B3
  8
0
  6
BYBLOCK
 62
     0
 10
7885.557976899915
 20
3433.0868405736642
 30
0.0
 11
7885.557976899915
 21
3089.0572641524882
 31
0.0
  0
LINE
  5
81B4
  8
0
  6
BYBLOCK
 62
     0
 10
9024.5579768999014
 20
3433.0868405737929
 30
0.0
 11
9024.5579768999014
 21
3089.0572641524882
 31
0.0
  0
LINE
  5
81B5
  8
0
  6
BYBLOCK
 62
     0
 10
7985.557976899915
 20
3139.0572641524882
 30
0.0
 11
8924.5579768999032
 21
3139.0572641524882
 31
0.0
  0
INSERT
  5
81B6
  8
0
  6
BYBLOCK
 62
     0
  2
_OPEN
 10
7885.557976899915
 20
3139.0572641524882
 30
0.0
 41
100.0
 42
100.0
 43
100.0
 50
180.0
  0
INSERT
  5
81B7
  8
0
  6
BYBLOCK
 62
     0
  2
_OPEN
 10
9024.5579768999014
 20
3139.0572641524882
 30
0.0
 41
100.0
 42
100.0
 43
100.0
  0
TEXT
  5
81B8
  8
3
 62
     0
 10
8222.9151197570518
 20
3189.0572641524882
 30
0.0
 40
150.0
  1
1139
  0
POINT
  5
81B9
  8
DEFPOINTS
  6
BYBLOCK
 62
     0
 10
7885.557976899915
 20
3458.0868405736642
 30
0.0
  0
POINT
  5
81BA
  8
DEFPOINTS
  6
BYBLOCK
 62
     0
 10
9024.5579768999014
 20
3458.0868405737929
 30
0.0
  0
POINT
  5
81BB
  8
DEFPOINTS
  6
BYBLOCK
 62
     0
 10
9024.5579768999014
 20
3139.0572641524882
 30
0.0
  0
ENDBLK
  5
81BC
  8
0
  0
BLOCK
  8
0
  2
*D20
 70
     1
 10
0.0
 20
0.0
 30
0.0
  3
*D20
  1

  0
LINE
  5
81CD
  8
0
  6
BYBLOCK
 62
     0
 10
4739.1583679948526
 20
3458.0868405741298
 30
0.0
 11
5739.733758183691
 21
3458.0868405741298
 31
0.0
  0
LINE
  5
81CE
  8
0
  6
BYBLOCK
 62
     0
 10
3834.1583679940318
 20
5903.0858405738381
 30
0.0
 11
5739.733758183691
 21
5903.0858405738381
 31
0.0
  0
LINE
  5
81CF
  8
0
  6
BYBLOCK
 62
     0
 10
5689.733758183691
 20
3558.0868405741298
 30
0.0
 11
5689.733758183691
 21
5803.0858405738391
 31
0.0
  0
INSERT
  5
81D0
  8
0
  6
BYBLOCK
 62
     0
  2
_OPEN
 10
5689.733758183691
 20
3458.0868405741298
 30
0.0
 41
100.0
 42
100.0
 43
100.0
 50
270.0
  0
INSERT
  5
81D1
  8
0
  6
BYBLOCK
 62
     0
  2
_OPEN
 10
5689.733758183691
 20
5903.0858405738381
 30
0.0
 41
100.0
 42
100.0
 43
100.0
 50
90.0
  0
TEXT
  5
81D2
  8
3
 62
     0
 10
5639.733758183691
 20
4416.3006262882682
 30
0.0
 40
150.0
  1
2445
 50
90.0
  0
POINT
  5
81D3
  8
DEFPOINTS
  6
BYBLOCK
 62
     0
 10
4714.1583679948544
 20
3458.0868405741298
 30
0.0
  0
POINT
  5
81D4
  8
DEFPOINTS
  6
BYBLOCK
 62
     0
 10
3809.1583679940331
 20
5903.0858405738381
 30
0.0
  0
POINT
  5
81D5
  8
DEFPOINTS
  6
BYBLOCK
 62
     0
 10
5689.733758183691
 20
5903.0858405738381
 30
0.0
  0
ENDBLK
  5
81D6
  8
0
  0
ENDSEC
  0
SECTION
  2
ENTITIES
  0
LINE
  5
7AC9
  8
1
 10
1843.002196038447
 20
4201.2500261349896
 30
0.0
 11
3499.5962276254108
 21
5340.2765064557834
 31
0.0
  0
ARC
  5
7ACA
  8
1
 10
1977.6883765899361
 20
3955.7716507768919
 30
0.0
 40
280.0
 50
118.7521765344171
 51
286.69973024890811
  0
LINE
  5
7ACB
  8
1
 10
3570.822087555176
 20
5208.2597730884636
 30
0.0
 11
1917.2707889526721
 21
4065.2006921877228
 31
0.0
  0
CIRCLE
  5
7ACE
  8
1
 10
1977.6883765899361
 20
3955.7716507768919
 30
0.0
 40
125.0
  0
LINE
  5
7ACF
  8
2
 10
2346.7354165379329
 20
3955.7716507770192
 30
0.0
 11
1627.0612062608891
 21
3955.7716507767718
 31
0.0
  0
LINE
  5
7AD0
  8
1
 10
1822.2092443144229
 20
3687.5809734093659
 30
0.0
 11
2133.167508865637
 21
3687.5809734094719
 31
0.0
  0
LINE
  5
7AD1
  8
1
 10
1977.6883765900379
 20
3660.680468342804
 30
0.0
 11
1831.941567879886
 21
3660.680468342754
 31
0.0
  0
ARC
  5
7AD2
  8
1
 10
1977.6883765899361
 20
3955.7716507768919
 30
0.0
 40
310.0
 50
300.10230806833158
 51
239.8976919317077
  0
LINE
  5
7AD3
  8
1
 10
1414.1583679948519
 20
3458.0868405729962
 30
0.0
 11
4714.1583679948553
 21
3458.0868405741298
 31
0.0
  0
LINE
  5
7AD7
  8
1
 10
1697.688376589975
 20
3822.730303820264
 30
0.0
 11
1697.6883765900341
 21
3675.7716507767968
 31
0.0
  0
LINE
  5
7AD8
  8
1
 10
1697.6883765900341
 20
3675.7716507767968
 30
0.0
 11
1807.6883765900341
 21
3675.7716507768332
 31
0.0
  0
LINE
  5
7AD9
  8
1
 10
1697.6883765900211
 20
3705.771650776795
 30
0.0
 11
1794.3853487917891
 21
3705.7716507768282
 31
0.0
  0
LINE
  5
7ADA
  8
1
 10
1831.9415678798809
 20
3675.7716507768419
 30
0.0
 11
1638.793884031279
 21
3675.7716507767741
 31
0.0
  0
LINE
  5
7AE5
  8
1
 10
1638.793884031279
 20
3675.7716507767741
 30
0.0
 11
1628.0556816973501
 21
3608.0868405730671
 31
0.0
  0
LINE
  5
7AE6
  8
1
 10
1807.688376590025
 20
3696.5420228405192
 30
0.0
 11
1807.6883765900329
 21
3675.7716507768332
 31
0.0
  0
LINE
  5
7AE8
  8
1
 10
1831.941567879886
 20
3660.680468342754
 30
0.0
 11
1831.9415678798809
 21
3675.7716507768419
 31
0.0
  0
CIRCLE
  5
7AE9
  8
1
 10
3764.1583679943869
 20
4858.0868405738038
 30
0.0
 40
865.0
  0
CIRCLE
  5
7AEA
  8
1
 10
3764.1583679943869
 20
4858.0868405738038
 30
0.0
 40
800.0
  0
ARC
  5
7AEB
  8
1
 10
3764.158367994406
 20
4858.0868405738038
 30
0.0
 40
550.0
 50
282.48824339924039
 51
118.7521765344171
  0
CIRCLE
  5
7AEC
  8
1
 10
3764.1583679944201
 20
4858.0868405738038
 30
0.0
 40
400.0
  0
LINE
  5
7AED
  8
2
 10
3764.1739353994162
 20
3458.0868405738038
 30
0.0
 11
3764.4599644094028
 21
5945.5253861453584
 31
0.0
  0
LINE
  5
7AEE
  8
1
 10
3719.1583679940541
 20
5838.0858405738136
 30
0.0
 11
2075.162694313984
 21
5838.0858405732488
 31
0.0
  0
LINE
  5
7AEF
  8
1
 10
3784.1583679940341
 20
5897.0858405738381
 30
0.0
 11
2004.1583679940341
 21
5897.0858405732251
 31
0.0
  0
LINE
  5
7AF0
  8
1
 10
2069.1583679940318
 20
5903.085840573247
 30
0.0
 11
3719.1583679940318
 21
5903.0858405738136
 31
0.0
  0
ARC
  5
7AF1
  8
1
 10
3648.1583679943519
 20
4974.0868405737911
 30
0.0
 40
1487.0
 50
184.47500000001969
 51
246.72633796065151
  0
LINE
  5
7AF2
  8
1
 10
2038.2353755068921
 20
3682.3963393053732
 30
0.0
 11
3883.6507159676489
 21
4320.8352678999436
 31
0.0
  0
LINE
  5
7AF4
  8
2
 10
4871.2047514220731
 20
4858.0868405741849
 30
0.0
 11
2013.9124654476659
 21
4858.0868405732008
 31
0.0
  0
ARC
  5
7AF5
  8
1
 10
3861.1583679944251
 20
4761.0868405738629
 30
0.0
 40
1042.0
 50
5.3410000000197071
 51
95.341000000019704
  0
ARC
  5
7AF6
  8
1
 10
3648.158367994431
 20
4742.0868405737911
 30
0.0
 40
1255.0
 50
295.3665365301049
 51
5.3030000000196793
  0
LINE
  5
7AF7
  8
2
 10
1977.688376589869
 20
4403.527625803511
 30
0.0
 11
1977.6883765899449
 21
3458.0868405731899
 31
0.0
  0
LINE
  5
7AF8
  8
1
 10
2257.6883765899811
 20
3822.7303038204409
 30
0.0
 11
2257.6883765900329
 21
3675.7716507769869
 31
0.0
  0
LINE
  5
7AF9
  8
1
 10
2123.435185300184
 20
3675.7716507769419
 30
0.0
 11
2316.5828691487859
 21
3675.7716507770069
 31
0.0
  0
LINE
  5
7AFA
  8
1
 10
2160.9914043882541
 20
3705.7716507769542
 30
0.0
 11
2257.688376590022
 21
3705.7716507769869
 31
0.0
  0
LINE
  5
7AFB
  8
1
 10
1977.6883765900379
 20
3660.680468342804
 30
0.0
 11
2123.4351853001899
 21
3660.6804683428541
 31
0.0
  0
LINE
  5
7AFD
  8
1
 10
2147.6883765900252
 20
3696.5420228406351
 30
0.0
 11
2147.688376590032
 21
3675.7716507769492
 31
0.0
  0
LINE
  5
7AFE
  8
1
 10
2123.4351853001899
 20
3660.6804683428541
 30
0.0
 11
2123.435185300184
 21
3675.7716507769419
 31
0.0
  0
LINE
  5
7B01
  8
1
 10
2316.5828691487859
 20
3675.7716507770069
 30
0.0
 11
2327.321071482761
 21
3608.0868405733081
 31
0.0
  0
LINE
  5
7B0B
  8
1
 10
3719.1583679940318
 20
5903.0858405738136
 30
0.0
 11
3719.1583679940541
 21
5838.0858405738136
 31
0.0
  0
LINE
  5
7B0C
  8
1
 10
3719.1583679940718
 20
5791.1128405738154
 30
0.0
 11
3719.1583679940318
 21
5903.0858405738136
 31
0.0
  0
LINE
  5
7B0D
  8
1
 10
4714.1583679948017
 20
3608.0868405741298
 30
0.0
 11
4714.1583679948544
 21
3458.0868405741298
 31
0.0
  0
ARC
  5
7B11
  8
1
 10
3861.1583679943592
 20
4955.0868405738656
 30
0.0
 40
848.0
 50
96.568000000019723
 51
99.639754114109309
  0
LINE
  5
7B12
  8
1
 10
3784.1583679940318
 20
5903.0858405738381
 30
0.0
 11
3719.1583679940318
 21
5903.0858405738136
 31
0.0
  0
LINE
  5
7B13
  8
1
 10
3784.1583679940318
 20
5903.0858405738381
 30
0.0
 11
3784.1583679940341
 21
5897.0858405738381
 31
0.0
  0
LINE
  5
7B14
  8
1
 10
2069.1583679940318
 20
5903.085840573247
 30
0.0
 11
2165.6893679943919
 21
4858.0868405732826
 31
0.0
  0
LINE
  5
7B15
  8
1
 10
2004.1583679940341
 20
5903.0858405732261
 30
0.0
 11
2004.1583679940341
 21
5897.0858405732251
 31
0.0
  0
LINE
  5
7B16
  8
1
 10
2069.1583679940318
 20
5903.085840573247
 30
0.0
 11
2004.1583679940341
 21
5903.0858405732261
 31
0.0
  0
LINE
  5
7B17
  8
1
 10
1880.112709769699
 20
8257.1993317521301
 30
0.0
 11
2051.1127097696999
 21
8257.1993317521301
 31
0.0
  0
LINE
  5
7B18
  8
1
 10
1923.112709769699
 20
8077.199331752131
 30
0.0
 11
2008.1127097696999
 21
8077.1993317521283
 31
0.0
  0
LINE
  5
7B19
  8
1
 10
1915.6127097696999
 20
8247.1993317521283
 30
0.0
 11
2015.612709769699
 21
8247.1993317521283
 31
0.0
  0
LINE
  5
7B1A
  8
1
 10
2253.112709769699
 20
8263.6993317521301
 30
0.0
 11
1685.612709769699
 21
8263.6993317521283
 31
0.0
  0
LINE
  5
7B1B
  8
1
 10
1685.6127097696981
 20
9116.1993317521301
 30
0.0
 11
2069.1583679932769
 21
9116.1993317521301
 31
0.0
  0
LINE
  5
7B1C
  8
1
 10
1685.612709769691
 20
7977.1993317520792
 30
0.0
 11
4314.1583679933237
 21
7977.199331752643
 31
0.0
  0
LINE
  5
7B1D
  8
1
 10
1840.6127097696869
 20
8017.1993317520992
 30
0.0
 11
4164.1583679933192
 21
8017.1993317526258
 31
0.0
  0
LINE
  5
7B1E
  8
1
 10
1840.6127097696731
 20
8137.1993317520983
 30
0.0
 11
4164.1583679933055
 21
8137.1993317526267
 31
0.0
  0
LINE
  5
7B1F
  8
1
 10
1414.1583679932421
 20
9199.3938777495896
 30
0.0
 11
2069.158367993246
 21
9199.3938777498952
 31
0.0
  0
LINE
  5
7B20
  8
1
 10
1414.1583679936559
 20
7999.3938777495914
 30
0.0
 11
4714.1583679936693
 21
7999.3938777507974
 31
0.0
  0
LINE
  5
7B21
  8
2
 10
1965.6127097696999
 20
7977.199331752141
 30
0.0
 11
1965.6127097696969
 21
9116.1993317521301
 31
0.0
  0
LINE
  5
7B22
  8
1
 10
1840.6127097696731
 20
8137.1993317520837
 30
0.0
 11
1840.6127097696869
 21
8017.1993317520846
 31
0.0
  0
LINE
  5
7B23
  8
1
 10
1685.6127097696681
 20
8183.6892520694682
 30
0.0
 11
1685.612709769691
 21
7977.1993317520646
 31
0.0
  0
LINE
  5
7B24
  8
1
 10
1685.6127097696981
 20
9116.1993317521301
 30
0.0
 11
1685.612709769699
 21
8263.6993317521283
 31
0.0
  0
LINE
  5
7B25
  8
1
 10
1414.1583679932439
 20
9199.3938777495914
 30
0.0
 11
1414.1583679936559
 21
7999.3938777495914
 31
0.0
  0
LINE
  5
7B26
  8
1
 10
1685.6127097697149
 20
8183.6892520694682
 30
0.0
 11
1830.148288508035
 21
8183.6892520694864
 31
0.0
  0
LINE
  5
7B27
  8
1
 10
1915.6127097696999
 20
8247.1993317521283
 30
0.0
 11
1915.6127097696999
 21
8257.1993317521301
 31
0.0
  0
LINE
  5
7B28
  8
1
 10
1923.112709769699
 20
8077.199331752131
 30
0.0
 11
1923.112709769699
 21
8247.1993317521283
 31
0.0
  0
ARC
  5
7B29
  8
1
 10
1880.112709769701
 20
8259.1993317521301
 30
0.0
 40
2.0
 50
180.00000000000011
 51
270.00000000000011
  0
LINE
  5
7B2A
  8
1
 10
1878.112709769699
 20
8264.0477067521297
 30
0.0
 11
1878.1127097696999
 21
8259.1993317521301
 31
0.0
  0
LINE
  5
7B2B
  8
2
 10
3764.158367992728
 20
10667.12333178579
 30
0.0
 11
3764.1583679935711
 21
7977.1993317525239
 31
0.0
  0
LINE
  5
7B2C
  8
1
 10
4714.1583679936693
 20
7999.3938777507956
 30
0.0
 11
4714.1583679935293
 21
8400.3938777507974
 31
0.0
  0
LINE
  5
7B2D
  8
1
 10
2814.1583679927762
 20
10520.393877750141
 30
0.0
 11
2814.1583679927498
 21
10599.393877750141
 31
0.0
  0
LINE
  5
7B2E
  8
2
 10
2069.158367993155
 20
9460.3938777498879
 30
0.0
 11
5026.090213181833
 21
9460.3938777509084
 31
0.0
  0
LINE
  5
7B2F
  8
1
 10
2090.6127097696731
 20
8137.1993317521119
 30
0.0
 11
2090.6127097696881
 21
8017.199331752111
 31
0.0
  0
LINE
  5
7B30
  8
1
 10
3364.158367993306
 20
8137.1993317525312
 30
0.0
 11
3364.158367993321
 21
8017.1993317525339
 31
0.0
  0
LINE
  5
7B31
  8
1
 10
2253.112709769699
 20
8263.6993317521301
 30
0.0
 11
2253.112709769699
 21
8400.3938777499552
 31
0.0
  0
LINE
  5
7B32
  8
1
 10
2015.612709769699
 20
8247.1993317521283
 30
0.0
 11
2015.612709769699
 21
8257.1993317521301
 31
0.0
  0
LINE
  5
7B35
  8
1
 10
2008.1127097696999
 20
8077.1993317521301
 30
0.0
 11
2008.1127097696999
 21
8247.1993317521283
 31
0.0
  0
ARC
  5
7B36
  8
1
 10
2051.1127097697008
 20
8259.1993317521301
 30
0.0
 40
2.0
 50
270.00000000000011
 51
0.0000000000001579
  0
LINE
  5
7B37
  8
1
 10
2053.112709769699
 20
8263.6993317521301
 30
0.0
 11
2053.1127097696999
 21
8259.1993317521301
 31
0.0
  0
LINE
  5
7B38
  8
1
 10
4164.1583679933055
 20
8137.1993317526267
 30
0.0
 11
4164.1583679933192
 21
8017.1993317526258
 31
0.0
  0
LINE
  5
7B39
  8
1
 10
4314.158367993301
 20
8183.6892520700494
 30
0.0
 11
4314.1583679933237
 21
7977.1993317526467
 31
0.0
  0
LINE
  5
7B3A
  8
1
 10
4080.039348982265
 20
8183.6892520700221
 30
0.0
 11
4314.158367993301
 21
8183.6892520700494
 31
0.0
  0
LINE
  5
7B3B
  8
1
 10
2814.1583679927498
 20
10599.393877750141
 30
0.0
 11
4714.158367992768
 21
10599.39387775079
 31
0.0
  0
LINE
  5
7B3C
  8
2
 10
9198.6127180860403
 20
4858.0868405741794
 30
0.0
 11
6402.3634309017607
 21
4858.0868405738611
 31
0.0
  0
LINE
  5
7B3D
  8
1
 10
8949.4501525659161
 20
4798.0868405741503
 30
0.0
 11
9148.764430901776
 21
4798.086840574173
 31
0.0
  0
LINE
  5
7B3E
  8
1
 10
8949.5211745139168
 20
4558.3505372539066
 30
0.0
 11
9148.7644309017978
 21
4628.0868405741721
 31
0.0
  0
LINE
  5
7B3F
  8
2
 10
7885.5579768992957
 20
6214.3113084852757
 30
0.0
 11
7885.557976899915
 21
3458.0868405736642
 31
0.0
  0
LINE
  5
7B40
  8
1
 10
8946.2197833382343
 20
4903.0868405741494
 30
0.0
 11
8945.9236523488198
 21
5903.0858405744666
 31
0.0
  0
LINE
  5
7B41
  8
1
 10
6825.5634309017269
 20
4858.0868405739102
 30
0.0
 11
6825.5634309015486
 21
5903.0858405744666
 31
0.0
  0
LINE
  5
7B42
  8
1
 10
6562.363430901858
 20
3830.7716507783048
 30
0.0
 11
6562.3634309017234
 21
5258.0868405738793
 31
0.0
  0
LINE
  5
7B43
  8
1
 10
6442.363430901858
 20
3830.771650778292
 30
0.0
 11
6442.3634309017234
 21
5258.0868405738656
 31
0.0
  0
LINE
  5
7B44
  8
1
 10
8957.7644309018688
 20
3993.0868405741512
 30
0.0
 11
8957.7644309016723
 21
5723.0868405741512
 31
0.0
  0
LINE
  5
7B45
  8
1
 10
6402.3634309018762
 20
3675.771650778287
 30
0.0
 11
6402.363430901707
 21
5408.086840573862
 31
0.0
  0
LINE
  5
7B46
  8
1
 10
6757.3634309016497
 20
5903.0858405744657
 30
0.0
 11
6757.3634309016588
 21
5838.0858405744684
 31
0.0
  0
LINE
  5
7B47
  8
1
 10
9013.7644309016578
 20
5838.0858405744666
 30
0.0
 11
9013.7644309016505
 21
5903.0858405744657
 31
0.0
  0
LINE
  5
7B48
  8
1
 10
6825.5634309017942
 20
4235.7716507782989
 30
0.0
 11
6688.8634309018444
 21
4235.7716507782989
 31
0.0
  0
LINE
  5
7B4A
  8
1
 10
6688.8634309018444
 20
3668.271650778298
 30
0.0
 11
6825.5634309018551
 21
3668.271650778298
 31
0.0
  0
LINE
  5
7B53
  8
1
 10
6688.8634309018462
 20
3668.271650778298
 30
0.0
 11
6688.8634309018444
 21
4235.7716507782989
 31
0.0
  0
LINE
  5
7B55
  8
1
 10
6608.8533512192662
 20
3675.7716507783571
 30
0.0
 11
6608.8533512192489
 21
3820.307229516678
 31
0.0
  0
LINE
  5
7B56
  8
1
 10
6608.8533512192662
 20
3675.7716507783111
 30
0.0
 11
6402.3634309018607
 21
3675.771650778287
 31
0.0
  0
LINE
  5
7B58
  8
1
 10
6562.3634309018444
 20
3830.7716507783048
 30
0.0
 11
6442.3634309018444
 21
3830.771650778292
 31
0.0
  0
LINE
  5
7B59
  8
1
 10
6562.3634309018153
 20
4080.7716507783048
 30
0.0
 11
6442.3634309018144
 21
4080.771650778292
 31
0.0
  0
LINE
  5
7B5A
  8
2
 10
6825.5634309018224
 20
3955.7716507783362
 30
0.0
 11
6402.3634309018489
 21
3955.7716507782879
 31
0.0
  0
LINE
  5
7B5B
  8
1
 10
6672.3634309018453
 20
4005.771650778298
 30
0.0
 11
6672.3634309018425
 21
3905.7716507782989
 31
0.0
  0
LINE
  5
7B5C
  8
1
 10
6502.3634309018444
 20
3998.271650778298
 30
0.0
 11
6502.3634309018462
 21
3913.271650778298
 31
0.0
  0
LINE
  5
7B5D
  8
1
 10
6682.3634309018425
 20
4041.271650778297
 30
0.0
 11
6682.3634309018444
 21
3870.2716507782989
 31
0.0
  0
LINE
  5
7B5E
  8
1
 10
6502.3634309018425
 20
3913.271650778298
 30
0.0
 11
6672.3634309018453
 21
3913.2716507782989
 31
0.0
  0
LINE
  5
7B61
  8
1
 10
6688.8634309018444
 20
3868.2716507782989
 30
0.0
 11
6684.3634309018444
 21
3868.2716507782989
 31
0.0
  0
ARC
  5
7B62
  8
1
 10
6684.3634309018444
 20
3870.2716507782989
 30
0.0
 40
2.0
 50
180.0
 51
270.0
  0
LINE
  5
7B63
  8
1
 10
6672.3634309018425
 20
3905.7716507782989
 30
0.0
 11
6682.3634309018425
 21
3905.7716507782989
 31
0.0
  0
LINE
  5
7B64
  8
1
 10
6502.3634309018444
 20
3998.271650778298
 30
0.0
 11
6672.3634309018453
 21
3998.271650778298
 31
0.0
  0
LINE
  5
7B65
  8
1
 10
6689.2118059018449
 20
4043.2716507782989
 30
0.0
 11
6684.3634309018444
 21
4043.271650778298
 31
0.0
  0
ARC
  5
7B66
  8
1
 10
6684.3634309018444
 20
4041.271650778297
 30
0.0
 40
2.0
 50
90.000000000000057
 51
180.0
  0
LINE
  5
7B67
  8
1
 10
6672.3634309018453
 20
4005.771650778298
 30
0.0
 11
6682.3634309018444
 21
4005.771650778298
 31
0.0
  0
LINE
  5
7B68
  8
1
 10
6592.363430901778
 20
4778.086840573882
 30
0.0
 11
6825.5634309017414
 21
4778.0868405739084
 31
0.0
  0
LINE
  5
7B69
  8
1
 10
6592.363430901798
 20
4598.0868405738811
 30
0.0
 11
6822.3634309018062
 21
4528.0874195624156
 31
0.0
  0
LINE
  5
7B6A
  8
1
 10
6562.3634309017634
 20
4913.0868405738784
 30
0.0
 11
6825.5634309017159
 21
4913.0868405739093
 31
0.0
  0
LINE
  5
7B6B
  8
1
 10
6562.3634309017752
 20
4803.0868405738793
 30
0.0
 11
6825.5634309017369
 21
4803.0868405739084
 31
0.0
  0
LINE
  5
7B6C
  8
1
 10
6592.363430901778
 20
4778.086840573882
 30
0.0
 11
6592.363430901798
 21
4598.0868405738811
 31
0.0
  0
LINE
  5
7B6D
  8
1
 10
6562.3634309018134
 20
4458.0868405738784
 30
0.0
 11
6442.3634309018144
 21
4458.0868405738647
 31
0.0
  0
LINE
  5
7B75
  8
1
 10
8957.7644309018688
 20
3993.0868405741512
 30
0.0
 11
8948.7644309018688
 21
3993.0868405741498
 31
0.0
  0
LINE
  5
7B76
  8
1
 10
8957.7644309018615
 20
4058.0868405741512
 30
0.0
 11
8948.7644309018615
 21
4058.0868405741512
 31
0.0
  0
LINE
  5
7B79
  8
1
 10
6608.8533512191098
 20
5408.0868405738838
 30
0.0
 11
6402.363430901707
 21
5408.086840573862
 31
0.0
  0
LINE
  5
7B7A
  8
1
 10
6562.3634309017216
 20
5258.0868405738793
 30
0.0
 11
6442.3634309017234
 21
5258.0868405738656
 31
0.0
  0
LINE
  5
7B7B
  8
1
 10
6608.8533512191379
 20
5173.9678215628501
 30
0.0
 11
6608.8533512191098
 21
5408.0868405738838
 31
0.0
  0
LINE
  5
7B7D
  8
1
 10
8948.7644309016741
 20
5723.0868405741512
 30
0.0
 11
8957.7644309016723
 21
5723.0868405741512
 31
0.0
  0
LINE
  5
7B7E
  8
1
 10
8957.7644309016814
 20
5658.0868405741512
 30
0.0
 11
8945.5654309016772
 21
5658.0868405741494
 31
0.0
  0
LINE
  5
7B7F
  8
1
 10
9148.764430901776
 20
4798.086840574173
 30
0.0
 11
9148.7644309017978
 21
4628.0868405741721
 31
0.0
  0
LINE
  5
7B81
  8
1
 10
2069.1583679927799
 20
10520.393877749881
 30
0.0
 11
2069.1583679935311
 21
8400.3938777498843
 31
0.0
  0
LINE
  5
7B88
  8
1
 10
4714.1583679927953
 20
10520.39387775079
 30
0.0
 11
4714.158367992768
 21
10599.39387775079
 31
0.0
  0
LINE
  5
7B89
  8
1
 10
3819.1583679935279
 20
8400.3938777504882
 30
0.0
 11
3819.1583679936211
 21
8137.1993317525466
 31
0.0
  0
LINE
  5
7B8A
  8
1
 10
3709.158367993527
 20
8400.3938777504572
 30
0.0
 11
3709.1583679936211
 21
8137.1993317525239
 31
0.0
  0
DIMENSION
  5
7B9E
  8
3
  2
*D1
 10
2814.1583679927498
 20
11100.874258669881
 30
0.0
 11
3772.9764584702639
 21
11100.874258669881
 31
0.0
 70
   128
 13
4714.158367992768
 23
10599.39387775079
 33
0.0
 14
2814.1583679927498
 24
10599.393877750141
 34
0.0
 50
0.0000000000403677
1001
ACAD
1000
DSTYLE
1002
{
1070
   287
1070
     3
1070
   287
1070
     3
1070
    40
1040
50.0
1070
   143
1040
0.039
1070
   172
1070
     1
1070
   271
1070
     0
1070
   279
1070
     0
1070
   288
1070
     1
1002
}
  0
DIMENSION
  5
7BAA
  8
3
  2
*D2
 10
1414.1583679932451
 20
11100.87425866822
 30
0.0
 11
2114.1583679929968
 21
11225.87425866822
 31
0.0
 70
     0
 13
2814.1583679927498
 23
10599.393877750141
 33
0.0
 14
1414.1583679932439
 24
9199.3938777495896
 34
0.0
 50
0.0000000000403677
1001
ACAD
1000
DSTYLE
1002
{
1070
   287
1070
     4
1070
   287
1070
     4
1070
    40
1040
50.0
1070
    75
1070
     1
1070
   143
1040
0.039
1070
   172
1070
     1
1070
   271
1070
     0
1070
   279
1070
     1
1070
   288
1070
     1
1002
}
  0
DIMENSION
  5
7BB7
  8
3
  2
*D3
 10
1094.237281972232
 20
7999.3938777495914
 30
0.0
 11
1094.2372819722309
 21
8715.2726803002934
 31
0.0
 70
   128
 13
1414.1583679932439
 23
9199.3938777495896
 33
0.0
 14
1414.1583679936559
 24
7999.3938777495914
 34
0.0
 50
270.00000000004042
1001
ACAD
1000
DSTYLE
1002
{
1070
   287
1070
     3
1070
   287
1070
     3
1070
    40
1040
50.0
1070
   143
1040
0.039
1070
   172
1070
     1
1070
   271
1070
     0
1070
   279
1070
     0
1070
   288
1070
     1
1002
}
  0
DIMENSION
  5
7BC4
  8
3
  2
*D4
 10
1414.1583679936559
 20
7640.9945065033298
 30
0.0
 11
3255.852982911545
 21
7640.9945065033298
 31
0.0
 70
   128
 13
4714.1573679936673
 23
7999.3938777507974
 33
0.0
 14
1414.1583679936559
 24
7999.3938777495914
 34
0.0
 50
0.0000000000403677
1001
ACAD
1000
DSTYLE
1002
{
1070
   287
1070
     3
1070
   287
1070
     3
1070
    40
1040
50.0
1070
   143
1040
0.039
1070
   172
1070
     1
1070
   271
1070
     0
1070
   279
1070
     0
1070
   288
1070
     1
1002
}
  0
DIMENSION
  5
7BD1
  8
3
  2
*D5
 10
5327.1896312444442
 20
7999.3938777507974
 30
0.0
 11
5327.1896312444442
 21
9461.8706247917617
 31
0.0
 70
   128
 13
4714.158367992768
 23
10599.39387775079
 33
0.0
 14
4714.1573679936673
 24
7999.3938777507974
 34
0.0
 50
270.00000000004042
1001
ACAD
1000
DSTYLE
1002
{
1070
   287
1070
     3
1070
   287
1070
     3
1070
    40
1040
50.0
1070
   143
1040
0.039
1070
   172
1070
     1
1070
   271
1070
     0
1070
   279
1070
     0
1070
   288
1070
     1
1002
}
  0
LINE
  5
7CB1
  8
1
 10
1414.1583679948519
 20
3458.0868405729962
 30
0.0
 11
1414.158367994801
 21
3608.0868405729939
 31
0.0
  0
DIMENSION
  5
7CD8
  8
3
  2
*D6
 10
3719.1583679940318
 20
6176.8706628436121
 30
0.0
 11
2878.6744294187351
 21
6176.8706628436121
 31
0.0
 70
   128
 13
2069.1583679940318
 23
5903.085840573247
 33
0.0
 14
3719.1583679940318
 24
5903.0858405738136
 34
0.0
 50
0.0000000000403677
1001
ACAD
1000
DSTYLE
1002
{
1070
   287
1070
     3
1070
   287
1070
     3
1070
    40
1040
50.0
1070
   143
1040
0.039
1070
   172
1070
     1
1070
   271
1070
     0
1070
   279
1070
     0
1070
   288
1070
     1
1002
}
  0
DIMENSION
  5
7CF2
  8
3
  2
*D7
 10
3764.1583679940122
 20
6459.4235454347508
 30
0.0
 11
2878.674429418536
 21
6459.4235454347508
 31
0.0
 70
   128
 13
2069.1583679940318
 23
5903.085840573247
 33
0.0
 14
3764.1583679940122
 24
5965.1332240014826
 34
0.0
 50
0.0000000000403677
1001
ACAD
1000
DSTYLE
1002
{
1070
   287
1070
     3
1070
   287
1070
     3
1070
    40
1040
50.0
1070
   143
1040
0.039
1070
   172
1070
     1
1070
   271
1070
     0
1070
   279
1070
     0
1070
   288
1070
     1
1002
}
  0
DIMENSION
  5
7CFE
  8
3
  2
*D8
 10
5365.495072856952
 20
3458.0868405741298
 30
0.0
 11
5240.4950728569511
 21
4158.0868405741576
 31
0.0
 70
     0
 13
4871.2047514220731
 23
4858.0868405741849
 33
0.0
 14
4714.1583679948544
 24
3458.0868405741298
 34
0.0
 50
270.00000000004042
1001
ACAD
1000
DSTYLE
1002
{
1070
   287
1070
     3
1070
   287
1070
     3
1070
    40
1040
50.0
1070
   143
1040
0.039
1070
   172
1070
     1
1070
   271
1070
     0
1070
   279
1070
     0
1070
   288
1070
     1
1002
}
  0
LINE
  5
7D6C
  8
1
 10
6825.5634309018596
 20
3608.086840573545
 30
0.0
 11
6825.5634309017278
 21
4858.0868405739102
 31
0.0
  0
DIMENSION
  5
7DAB
  8
3
  2
*D9
 10
8945.9236523488198
 20
6195.1355442941531
 30
0.0
 11
7885.7656599216143
 21
6195.1355442941531
 31
0.0
 70
   128
 13
6825.5634309015486
 23
5903.0858405744666
 33
0.0
 14
8945.9236523488198
 24
5903.0858405744693
 34
0.0
1001
ACAD
1000
DSTYLE
1002
{
1070
   287
1070
     3
1070
   287
1070
     3
1070
    40
1040
50.0
1070
   143
1040
0.039
1070
   172
1070
     1
1070
   271
1070
     0
1070
   279
1070
     0
1070
   288
1070
     1
1002
}
  0
DIMENSION
  5
7DB8
  8
3
  2
*D10
 10
7885.5579768992557
 20
6550.2068420059122
 30
0.0
 11
8381.9865483278263
 21
6550.2068420059122
 31
0.0
 70
   128
  1
(1300)
 13
9148.764430901776
 23
4798.086840574173
 33
0.0
 14
7885.5579768992557
 24
6435.199400663425
 34
0.0
1001
ACAD
1000
DSTYLE
1002
{
1070
   287
1070
     3
1070
   287
1070
     3
1070
    40
1040
50.0
1070
   143
1040
0.039
1070
   172
1070
     1
1070
   271
1070
     0
1070
   279
1070
     0
1070
   288
1070
     1
1002
}
  0
DIMENSION
  5
7DC4
  8
3
  2
*D11
 10
6402.363430901707
 20
6550.2068420059122
 30
0.0
 11
7143.9607039004813
 21
6800.2068420059122
 31
0.0
 70
     0
  1
MAX\P1580
 13
7885.5579768992557
 23
6435.199400663425
 33
0.0
 14
6402.363430901707
 24
5408.086840573862
 34
0.0
1001
ACAD
1000
DSTYLE
1002
{
1070
   287
1070
     4
1070
   287
1070
     4
1070
    40
1040
50.0
1070
    75
1070
     1
1070
   143
1040
0.039
1070
   172
1070
     1
1070
   271
1070
     0
1070
   279
1070
     1
1070
   288
1070
     1
1002
}
  0
DIMENSION
  5
7DFC
  8
3
  2
*D12
 10
9466.2625062360476
 20
4058.0868405741512
 30
0.0
 11
9466.2625062360476
 21
4821.3264291489786
 31
0.0
 70
   128
 13
8957.7644309016814
 23
5658.0868405741512
 33
0.0
 14
8957.7644309018615
 24
4058.0868405741512
 34
0.0
 50
90.0
1001
ACAD
1000
DSTYLE
1002
{
1070
   287
1070
     3
1070
   287
1070
     3
1070
     3
1000
φ<>
1070
    40
1040
50.0
1070
   143
1040
0.039
1070
   172
1070
     1
1070
   271
1070
     0
1070
   279
1070
     0
1070
   288
1070
     1
1002
}
  0
LINE
  5
7E0A
  8
1
 10
8946.2197833382343
 20
4903.0868405741494
 30
0.0
 11
8946.2197833382324
 21
3608.086840573786
 31
0.0
  0
LINE
  5
7EAD
  8
1
 10
6424.5579768998714
 20
3608.0868405734991
 30
0.0
 11
6424.5579768998987
 21
3458.0868405734991
 31
0.0
  0
LINE
  5
7EAE
  8
1
 10
9024.5579768998723
 20
3608.0868405737938
 30
0.0
 11
9024.5579768999014
 21
3458.0868405737929
 31
0.0
  0
LINE
  5
7EB0
  8
1
 10
9024.5579768998723
 20
3608.0868405737938
 30
0.0
 11
6424.5579768998823
 21
3608.0868405734982
 31
0.0
  0
LINE
  5
7EE0
  8
4
 10
9250.0
 20
2500.0
 30
0.0
 11
9250.0
 21
1500.0
 31
0.0
  0
LINE
  5
7EE1
  8
4
 10
5750.0
 20
2500.0
 30
0.0
 11
5750.0
 21
1500.0
 31
0.0
  0
LINE
  5
7EE2
  8
4
 10
3250.0
 20
2500.0
 30
0.0
 11
3250.0
 21
1500.0
 31
0.0
  0
LINE
  5
7EE5
  8
4
 10
3250.0
 20
1500.0
 30
0.0
 11
9250.0
 21
1500.0
 31
0.0
  0
LINE
  5
7EE6
  8
4
 10
3250.0
 20
2000.0
 30
0.0
 11
9250.0
 21
2000.0
 31
0.0
  0
TEXT
  5
7EE7
  8
4
 10
3442.5104042345079
 20
2157.7151293330639
 30
0.0
 40
250.0
  1
機器名称
  0
TEXT
  5
7EE8
  8
4
 10
3431.2905301239871
 20
1608.225783660054
 30
0.0
 40
250.0
  1
機器型番
  0
TEXT
  5
7EE9
  8
4
 10
5898.2903601445887
 20
2121.0409636904592
 30
0.0
 40
212.5
  1
ミツヤ多翼送風機
  0
TEXT
  5
7EEA
  8
4
 10
5933.2724779274031
 20
1585.797921399716
 30
0.0
 40
250.0
  1
MF#10-5
  0
TEXT
  5
7EEC
  8
4
 10
3999.827685028838
 20
11917.14420666257
 30
0.0
 40
270.0
  1
床置ベット
  0
TEXT
  5
7EED
  8
4
 10
1493.4877664224621
 20
12669.40488099649
 30
0.0
 40
360.0
  1
遠心式両吸込両持多翼ファン
  0
LINE
  5
7EEE
  8
4
 10
1250.0
 20
12347.043771324021
 30
0.0
 11
9250.0
 21
12347.043771324021
 31
0.0
  0
LINE
  5
7EEF
  8
4
 10
1250.0
 20
13347.043771324021
 30
0.0
 11
9250.0
 21
13347.043771324021
 31
0.0
  0
LINE
  5
7EF0
  8
4
 10
3250.0
 20
2500.0
 30
0.0
 11
9250.0
 21
2500.0
 31
0.0
  0
LINE
  5
7EF1
  8
4
 10
1250.0
 20
13347.043771324021
 30
0.0
 11
1250.0
 21
12347.043771324021
 31
0.0
  0
TEXT
  5
7EF2
  8
4
 10
1820.533523815327
 20
11911.59738773171
 30
0.0
 40
270.0
  1
右回転上向
  0
TEXT
  5
7EF3
  8
4
 10
7344.8477962464494
 20
13530.30540747654
 30
0.0
 40
280.0
  1
No.
  0
TEXT
  5
7EF4
  8
4
 10
6556.4803130000646
 20
11917.14420666257
 30
0.0
 40
270.0
  1
縮尺：1/50
  0
LINE
  5
7EF5
  8
4
 10
9250.0
 20
13347.043771324021
 30
0.0
 11
9250.0
 21
12347.043771324021
 31
0.0
  0
LINE
  5
7EF6
  8
4
 10
10500.0
 20
14750.0
 30
0.0
 11
10500.0
 21
14750.0
 31
0.0
  0
LINE
  5
7EF7
  8
4
 10
7203.0871117993229
 20
13406.317915627
 30
0.0
 11
7203.0871117993229
 21
13933.26130774876
 31
0.0
  0
LINE
  5
7EF8
  8
4
 10
7203.0871117993229
 20
13933.26130774876
 30
0.0
 11
9250.0
 21
13933.26130774876
 31
0.0
  0
LINE
  5
7EF9
  8
4
 10
9250.0
 20
13933.26130774876
 30
0.0
 11
9250.0
 21
13406.317915627
 31
0.0
  0
LINE
  5
7EFA
  8
4
 10
9250.0
 20
13406.317915627
 30
0.0
 11
7203.0871117993229
 21
13406.317915627
 31
0.0
  0
LINE
  5
7EFB
  8
4
 10
0.0
 20
0.0
 30
0.0
 11
0.0
 21
14750.0
 31
0.0
  0
LINE
  5
7EFC
  8
4
 10
0.0
 20
14750.0
 30
0.0
 11
10500.0
 21
14750.0
 31
0.0
  0
LINE
  5
7EFD
  8
4
 10
10500.0
 20
14750.0
 30
0.0
 11
10500.0
 21
0.0
 31
0.0
  0
LINE
  5
7EFE
  8
4
 10
10500.0
 20
0.0
 30
0.0
 11
0.0
 21
0.0
 31
0.0
  0
LINE
  5
7F42
  8
1
 10
2018.1779609714149
 20
3837.5109491190069
 30
0.0
 11
3893.725038015149
 21
4479.6525952685724
 31
0.0
  0
DIMENSION
  5
7F6F
  8
3
  2
*D13
 10
5365.4950728552276
 20
5903.0858405738381
 30
0.0
 11
5240.4950728552258
 21
5380.586340574012
 31
0.0
 70
     0
 13
4871.2047514220731
 23
4858.0868405741849
 33
0.0
 14
3784.1583679940318
 24
5903.0858405738381
 34
0.0
 50
270.00000000004042
1001
ACAD
1000
DSTYLE
1002
{
1070
   287
1070
     4
1070
   287
1070
     4
1070
    40
1040
50.0
1070
    75
1070
     1
1070
   143
1040
0.039
1070
   172
1070
     1
1070
   271
1070
     0
1070
   279
1070
     1
1070
   288
1070
     1
1002
}
  0
DIMENSION
  5
7F7B
  8
3
  2
*D14
 10
4903.1583679944324
 20
6459.4235454361788
 30
0.0
 11
4333.6583679942214
 21
6584.4235454361788
 31
0.0
 70
     0
 13
3764.1583679940122
 23
5965.1332240014826
 33
0.0
 14
4903.1583679944324
 24
4742.086840574676
 34
0.0
 50
0.0000000000403677
1001
ACAD
1000
DSTYLE
1002
{
1070
   287
1070
     4
1070
   287
1070
     4
1070
    40
1040
50.0
1070
    75
1070
     1
1070
   143
1040
0.039
1070
   172
1070
     1
1070
   271
1070
     0
1070
   279
1070
     1
1070
   288
1070
     1
1002
}
  0
DIMENSION
  5
7FA2
  8
3
  2
*D15
 10
1414.1583679948019
 20
6791.5392851956067
 30
0.0
 11
3173.7575885439492
 21
6791.5392851956067
 31
0.0
 70
   128
 13
4903.1583679944142
 23
4767.086840574676
 33
0.0
 14
1414.158367994801
 24
3608.0868405729939
 34
0.0
 50
0.0000000000403677
1001
ACAD
1000
DSTYLE
1002
{
1070
   287
1070
     3
1070
   287
1070
     3
1070
    40
1040
50.0
1070
   143
1040
0.039
1070
   172
1070
     1
1070
   271
1070
     0
1070
   279
1070
     0
1070
   288
1070
     1
1002
}
  0
LINE
  5
7FA4
  8
1
 10
6757.3634309016506
 20
5903.0858405744666
 30
0.0
 11
9013.7644309016505
 21
5903.0858405744693
 31
0.0
  0
LINE
  5
7FA5
  8
1
 10
6757.3634309016588
 20
5838.0858405744684
 30
0.0
 11
9013.7644309016578
 21
5838.0858405744666
 31
0.0
  0
LINE
  5
7FA6
  8
1
 10
6757.3634309016506
 20
5897.0858405744684
 30
0.0
 11
9013.7644309016505
 21
5897.0858405744693
 31
0.0
  0
LINE
  5
7FDF
  8
1
 10
4903.1583679927789
 20
10520.393877750859
 30
0.0
 11
4903.1583679935256
 21
8400.3938777508665
 31
0.0
  0
LINE
  5
7FE1
  8
1
 10
3719.1583679927799
 20
10520.39387775047
 30
0.0
 11
3719.1583679935311
 21
8400.3938777504663
 31
0.0
  0
LINE
  5
7FE6
  8
1
 10
2069.1583679935311
 20
8400.3938777498915
 30
0.0
 11
4903.1583679935266
 21
8400.3938777508665
 31
0.0
  0
LINE
  5
7FE7
  8
1
 10
2069.1583679927799
 20
10520.393877749881
 30
0.0
 11
4903.1583679927789
 21
10520.393877750859
 31
0.0
  0
LINE
  5
7FE8
  8
1
 10
2069.1583679927799
 20
10520.393877749881
 30
0.0
 11
3719.1583679935311
 21
8400.3938777504554
 31
0.0
  0
LINE
  5
7FE9
  8
1
 10
3719.1583679927799
 20
10520.39387775045
 30
0.0
 11
2069.1583679935311
 21
8400.3938777498897
 31
0.0
  0
LINE
  5
8127
  8
1
 10
4714.1583679948017
 20
3608.0868405741298
 30
0.0
 11
1414.158367994801
 21
3608.0868405729939
 31
0.0
  0
LINE
  5
8129
  8
1
 10
6424.5579768998987
 20
3458.0868405734991
 30
0.0
 11
9024.5579768999014
 21
3458.0868405737929
 31
0.0
  0
DIMENSION
  5
8196
  8
3
  2
*D16
 10
3764.1739353994162
 20
3139.0572641524882
 30
0.0
 11
2589.166151697134
 21
3264.0572641524882
 31
0.0
 70
     0
 13
1414.1583679948519
 23
3458.0868405729962
 33
0.0
 14
3764.1739353994162
 24
3458.0868405738038
 34
0.0
1001
ACAD
1000
DSTYLE
1002
{
1070
   172
1070
     1
1070
    40
1040
50.0
1070
   271
1070
     0
1070
   143
1040
0.039
1002
}
  0
DIMENSION
  5
81A3
  8
3
  2
*D17
 10
4714.1583679948544
 20
3139.0572641524882
 30
0.0
 11
4239.1661516971344
 21
3264.0572641524882
 31
0.0
 70
     0
 13
3764.1739353994162
 23
3458.0868405738038
 33
0.0
 14
4714.1583679948544
 24
3458.0868405741298
 34
0.0
1001
ACAD
1000
DSTYLE
1002
{
1070
   172
1070
     1
1070
    40
1040
50.0
1070
   271
1070
     0
1070
   143
1040
0.039
1002
}
  0
DIMENSION
  5
81B0
  8
3
  2
*D18
 10
7885.557976899915
 20
3139.0572641524882
 30
0.0
 11
7155.0579768999069
 21
3264.0572641524882
 31
0.0
 70
     0
 13
6424.5579768998987
 23
3458.0868405734991
 33
0.0
 14
7885.557976899915
 24
3458.0868405736642
 34
0.0
1001
ACAD
1000
DSTYLE
1002
{
1070
   172
1070
     1
1070
    40
1040
50.0
1070
   271
1070
     0
1070
   143
1040
0.039
1002
}
  0
DIMENSION
  5
81BD
  8
3
  2
*D19
 10
9024.5579768999014
 20
3139.0572641524882
 30
0.0
 11
8455.0579768999087
 21
3264.0572641524882
 31
0.0
 70
     0
 13
7885.557976899915
 23
3458.0868405736642
 33
0.0
 14
9024.5579768999014
 24
3458.0868405737929
 34
0.0
1001
ACAD
1000
DSTYLE
1002
{
1070
   172
1070
     1
1070
    40
1040
50.0
1070
   271
1070
     0
1070
   143
1040
0.039
1002
}
  0
DIMENSION
  5
81D7
  8
3
  2
*D20
 10
5689.733758183691
 20
5903.0858405738381
 30
0.0
 11
5564.733758183691
 21
4680.5863405739838
 31
0.0
 70
     0
 13
4714.1583679948544
 23
3458.0868405741298
 33
0.0
 14
3809.1583679940331
 24
5903.0858405738381
 34
0.0
 50
90.0
1001
ACAD
1000
DSTYLE
1002
{
1070
   172
1070
     1
1070
    40
1040
50.0
1070
   271
1070
     0
1070
   143
1040
0.039
1002
}
  0
ENDSEC
  0
EOF
