  0
SECTION
  2
HEADER
  9
$ACADVER
  1
AC1009
  9
$INSBASE
 10
0.0
 20
0.0
 30
0.0
  9
$EXTMIN
 10
0.0
 20
0.0
 30
0.0
  9
$EXTMAX
 10
10500.0
 20
14750.0
 30
0.0
  9
$LIMMIN
 10
0.0
 20
0.0
  9
$LIMMAX
 10
297.0
 20
210.0
  9
$ORTHOMODE
 70
     0
  9
$REGENMODE
 70
     1
  9
$FILLMODE
 70
     0
  9
$QTEXTMODE
 70
     0
  9
$MIRRTEXT
 70
     1
  9
$DRAGMODE
 70
     2
  9
$LTSCALE
 40
100.0
  9
$OSMODE
 70
    37
  9
$ATTMODE
 70
     1
  9
$TEXTSIZE
 40
180.0
  9
$TRACEWID
 40
0.05
  9
$TEXTSTYLE
  7
STANDARD
  9
$CLAYER
  8
3
  9
$CELTYPE
  6
BYLAYER
  9
$CECOLOR
 62
   256
  9
$DIMSCALE
 40
50.0
  9
$DIMASZ
 40
2.0
  9
$DIMEXO
 40
0.5
  9
$DIMDLI
 40
10.0
  9
$DIMRND
 40
0.0
  9
$DIMDLE
 40
0.0
  9
$DIMEXE
 40
1.0
  9
$DIMTP
 40
1.0
  9
$DIMTM
 40
1.0
  9
$DIMTXT
 40
3.0
  9
$DIMCEN
 40
0.0
  9
$DIMTSZ
 40
0.0
  9
$DIMTOL
 70
     0
  9
$DIMLIM
 70
     0
  9
$DIMTIH
 70
     0
  9
$DIMTOH
 70
     0
  9
$DIMSE1
 70
     0
  9
$DIMSE2
 70
     0
  9
$DIMTAD
 70
     1
  9
$DIMZIN
 70
     8
  9
$DIMBLK
  1

  9
$DIMASO
 70
     1
  9
$DIMSHO
 70
     1
  9
$DIMPOST
  1

  9
$DIMAPOST
  1

  9
$DIMALT
 70
     0
  9
$DIMALTD
 70
     2
  9
$DIMALTF
 40
0.039
  9
$DIMLFAC
 40
1.0
  9
$DIMTOFL
 70
     1
  9
$DIMTVP
 40
0.0
  9
$DIMTIX
 70
     0
  9
$DIMSOXD
 70
     0
  9
$DIMSAH
 70
     1
  9
$DIMBLK1
  1
OPEN
  9
$DIMBLK2
  1
OPEN
  9
$DIMSTYLE
  2
IGA
  9
$DIMCLRD
 70
     0
  9
$DIMCLRE
 70
     0
  9
$DIMCLRT
 70
     0
  9
$DIMTFAC
 40
10.0
  9
$DIMGAP
 40
1.0
  9
$LUNITS
 70
     2
  9
$LUPREC
 70
     3
  9
$SKETCHINC
 40
0.1
  9
$FILLETRAD
 40
50.0
  9
$AUNITS
 70
     0
  9
$AUPREC
 70
     0
  9
$MENU
  1
acad
  9
$ELEVATION
 40
0.0
  9
$PELEVATION
 40
0.0
  9
$THICKNESS
 40
0.0
  9
$LIMCHECK
 70
     0
  9
$BLIPMODE
 70
     0
  9
$CHAMFERA
 40
0.0
  9
$CHAMFERB
 40
0.0
  9
$SKPOLY
 70
     0
  9
$TDCREATE
 40
2452326.4454812501
  9
$TDUPDATE
 40
2454953.8300791429
  9
$TDINDWG
 40
0.0637400694
  9
$TDUSRTIMER
 40
0.0637400694
  9
$USRTIMER
 70
     1
  9
$ANGBASE
 50
0.0
  9
$ANGDIR
 70
     0
  9
$PDMODE
 70
     0
  9
$PDSIZE
 40
0.0
  9
$PLINEWID
 40
0.0
  9
$COORDS
 70
     1
  9
$SPLFRAME
 70
     0
  9
$SPLINETYPE
 70
     6
  9
$SPLINESEGS
 70
     8
  9
$ATTDIA
 70
     0
  9
$ATTREQ
 70
     1
  9
$HANDLING
 70
 10241
  9
$HANDSEED
  5
8256
  9
$SURFTAB1
 70
     6
  9
$SURFTAB2
 70
     6
  9
$SURFTYPE
 70
     6
  9
$SURFU
 70
     6
  9
$SURFV
 70
     6
  9
$UCSNAME
  2

  9
$UCSORG
 10
0.0
 20
0.0
 30
0.0
  9
$UCSXDIR
 10
1.0
 20
0.0
 30
0.0
  9
$UCSYDIR
 10
0.0
 20
1.0
 30
0.0
  9
$PUCSNAME
  2

  9
$PUCSORG
 10
0.0
 20
0.0
 30
0.0
  9
$PUCSXDIR
 10
1.0
 20
0.0
 30
0.0
  9
$PUCSYDIR
 10
0.0
 20
1.0
 30
0.0
  9
$USERI1
 70
     0
  9
$USERI2
 70
     0
  9
$USERI3
 70
     0
  9
$USERI4
 70
     0
  9
$USERI5
 70
     0
  9
$USERR1
 40
0.0
  9
$USERR2
 40
0.0
  9
$USERR3
 40
0.0
  9
$USERR4
 40
0.0
  9
$USERR5
 40
0.0
  9
$WORLDVIEW
 70
     1
  9
$SHADEDGE
 70
     3
  9
$SHADEDIF
 70
    70
  9
$TILEMODE
 70
     1
  9
$MAXACTVP
 70
    16
  9
$PLIMCHECK
 70
     0
  9
$PEXTMIN
 10
1.0000000000000000E+020
 20
1.0000000000000000E+020
 30
1.0000000000000000E+020
  9
$PEXTMAX
 10
-1.0000000000000000E+020
 20
-1.0000000000000000E+020
 30
-1.0000000000000000E+020
  9
$PLIMMIN
 10
0.0
 20
0.0
  9
$PLIMMAX
 10
12.0
 20
9.0
  9
$UNITMODE
 70
     0
  9
$VISRETAIN
 70
     0
  9
$PLINEGEN
 70
     0
  9
$PSLTSCALE
 70
     1
  0
ENDSEC
  0
SECTION
  2
TABLES
  0
TABLE
  2
VPORT
 70
     2
  0
VPORT
  2
*ACTIVE
 70
     0
 10
0.0
 20
0.0
 11
1.0
 21
1.0
 12
15069.956616052061
 22
10012.49454014673
 13
0.0
 23
0.0
 14
10.0
 24
10.0
 15
10.0
 25
10.0
 16
0.0
 26
0.0
 36
1.0
 17
0.0
 27
0.0
 37
0.0
 40
20024.989080293471
 41
1.5051150895140659
 42
50.0
 43
0.0
 44
0.0
 50
0.0
 51
0.0
 71
     0
 72
   100
 73
     1
 74
     0
 75
     0
 76
     0
 77
     0
 78
     0
  0
ENDTAB
  0
TABLE
  2
LTYPE
 70
     2
  0
LTYPE
  2
CONTINUOUS
 70
     0
  3
Solid line
 72
    65
 73
     0
 40
0.0
  0
LTYPE
  2
CENTER
 70
     0
  3
____ _ ____ _ ____ _ ____ _ ____ _ ____ _ ____ 
 72
    65
 73
     4
 40
2.0
 49
1.25
 49
-0.25
 49
0.25
 49
-0.25
  0
ENDTAB
  0
TABLE
  2
LAYER
 70
     6
  0
LAYER
  2
0
 70
     0
 62
     7
  6
CONTINUOUS
  0
LAYER
  2
3
 70
     0
 62
     2
  6
CONTINUOUS
  0
LAYER
  2
2
 70
     0
 62
     3
  6
CENTER
  0
LAYER
  2
1
 70
     0
 62
     4
  6
CONTINUOUS
  0
LAYER
  2
4
 70
     0
 62
     7
  6
CONTINUOUS
  0
LAYER
  2
DEFPOINTS
 70
     0
 62
     7
  6
CONTINUOUS
  0
ENDTAB
  0
TABLE
  2
STYLE
 70
     1
  0
STYLE
  2
STANDARD
 70
     0
 40
0.0
 41
1.0
 50
0.0
 71
     0
 42
180.0
  3
simplex.shx
  4
extfont.shx
  0
ENDTAB
  0
TABLE
  2
VIEW
 70
     0
  0
ENDTAB
  0
TABLE
  2
UCS
 70
     0
  0
ENDTAB
  0
TABLE
  2
APPID
 70
     1
  0
APPID
  2
ACAD
 70
     0
  0
ENDTAB
  0
TABLE
  2
DIMSTYLE
 70
     1
  0
DIMSTYLE
  2
IGA
 70
     0
  3

  4

  5

  6
OPEN
  7
OPEN
 40
2.0
 41
2.0
 42
0.5
 43
10.0
 44
1.0
 45
0.0
 46
0.0
 47
1.0
 48
1.0
140
3.0
141
0.0
142
0.0
143
0.03937
144
1.0
145
0.0
146
10.0
147
1.0
 71
     0
 72
     0
 73
     0
 74
     0
 75
     0
 76
     0
 77
     1
 78
     8
170
     0
171
     2
172
     0
173
     1
174
     0
175
     0
176
     0
177
     0
178
     0
  0
ENDTAB
  0
ENDSEC
  0
SECTION
  2
BLOCKS
  0
BLOCK
  8
0
  2
$MODEL_SPACE
 70
     0
 10
0.0
 20
0.0
 30
0.0
  3
$MODEL_SPACE
  1

  0
ENDBLK
  5
1B
  8
0
  0
BLOCK
 67
     1
  8
0
  2
$PAPER_SPACE
 70
     0
 10
0.0
 20
0.0
 30
0.0
  3
$PAPER_SPACE
  1

  0
ENDBLK
  5
18
 67
     1
  8
0
  0
BLOCK
  8
0
  2
_OPEN
 70
     0
 10
0.0
 20
0.0
 30
0.0
  3
_OPEN
  1

  0
LINE
  5
7B8E
  8
0
  6
BYBLOCK
 62
     0
 10
-1.0
 20
0.1666666666666666
 30
0.0
 11
0.0
 21
0.0
 31
0.0
  0
LINE
  5
7B8F
  8
0
  6
BYBLOCK
 62
     0
 10
0.0
 20
0.0
 30
0.0
 11
-1.0
 21
-0.1666666666666666
 31
0.0
  0
LINE
  5
7B90
  8
0
  6
BYBLOCK
 62
     0
 10
0.0
 20
0.0
 30
0.0
 11
-1.0
 21
0.0
 31
0.0
  0
ENDBLK
  5
7B91
  8
0
  0
BLOCK
  8
0
  2
*D1
 70
     1
 10
0.0
 20
0.0
 30
0.0
  3
*D1
  1

  0
LINE
  5
81C3
  8
3
 62
     0
 10
4700.3178899282184
 20
10796.94172203366
 30
0.0
 11
4700.3178899282184
 21
11323.422102952751
 31
0.0
  0
LINE
  5
81C4
  8
3
 62
     0
 10
2800.3178899282002
 20
10796.941722033011
 30
0.0
 11
2800.3178899282002
 21
11323.422102952751
 31
0.0
  0
LINE
  5
81C5
  8
3
 62
     0
 10
4600.3178899282184
 20
11273.422102952751
 30
0.0
 11
2900.3178899282002
 21
11273.422102952751
 31
0.0
  0
INSERT
  5
81C6
  8
3
 62
     0
  2
_OPEN
 10
4700.3178899282184
 20
11273.422102952751
 30
0.0
 41
100.0
 42
100.0
 43
100.0
  0
INSERT
  5
81C7
  8
3
 62
     0
  2
_OPEN
 10
2800.3178899282002
 20
11273.422102952751
 30
0.0
 41
100.0
 42
100.0
 43
100.0
 50
180.0
  0
TEXT
  8
3
  40
150
  5
8246
  62
0
  72
0
  71
0
 10
3459.14
 20
11132.9
 30
0.000000
  1
1900
  0
POINT
  5
81C9
  8
DEFPOINTS
 62
     0
 10
4700.3178899282184
 20
10771.94172203366
 30
0.0
  0
POINT
  5
81CA
  8
DEFPOINTS
 62
     0
 10
2800.3178899282002
 20
10771.941722033011
 30
0.0
  0
POINT
  5
81CB
  8
DEFPOINTS
 62
     0
 10
2800.3178899282002
 20
11273.422102952751
 30
0.0
  0
ENDBLK
  5
7FA8
  8
0
  0
BLOCK
  8
0
  2
*D2
 70
     1
 10
0.0
 20
0.0
 30
0.0
  3
*D2
  1

  0
LINE
  5
81CC
  8
3
 62
     0
 10
1400.3178899286941
 20
9396.9417220324594
 30
0.0
 11
1400.3178899286941
 21
11323.42210295109
 31
0.0
  0
LINE
  5
81CD
  8
3
 62
     0
 10
2700.3178899282002
 20
11273.422102951081
 30
0.0
 11
1500.3178899286941
 21
11273.422102951081
 31
0.0
  0
INSERT
  5
81CE
  8
3
 62
     0
  2
_OPEN
 10
2800.3178899282002
 20
11273.422102951081
 30
0.0
 41
100.0
 42
100.0
 43
100.0
  0
INSERT
  5
81CF
  8
3
 62
     0
  2
_OPEN
 10
1400.3178899286941
 20
11273.422102951081
 30
0.0
 41
100.0
 42
100.0
 43
100.0
 50
180.0
  0
TEXT
  8
3
  40
150
  5
8247
  62
0
  72
0
  71
0
 10
1800.32
 20
11132.9
 30
0.000000
  1
1400
  0
POINT
  5
81D1
  8
DEFPOINTS
 62
     0
 10
2800.3178899282002
 20
10771.941722033011
 30
0.0
  0
POINT
  5
81D2
  8
DEFPOINTS
 62
     0
 10
1400.3178899286941
 20
9371.9417220324594
 30
0.0
  0
POINT
  5
81D3
  8
DEFPOINTS
 62
     0
 10
1400.3178899286941
 20
11273.422102951081
 30
0.0
  0
ENDBLK
  5
7F92
  8
0
  0
BLOCK
  8
0
  2
*D3
 70
     1
 10
0.0
 20
0.0
 30
0.0
  3
*D3
  1

  0
LINE
  5
81D4
  8
3
 62
     0
 10
1375.3178899286941
 20
9371.9417220324594
 30
0.0
 11
1030.3968039076799
 21
9371.9417220324594
 31
0.0
  0
LINE
  5
81D5
  8
3
 62
     0
 10
1375.3178899291049
 20
8171.9417220324603
 30
0.0
 11
1030.3968039076799
 21
8171.9417220324603
 31
0.0
  0
LINE
  5
81D6
  8
3
 62
     0
 10
1080.3968039076799
 20
9271.9417220324594
 30
0.0
 11
1080.3968039076799
 21
8271.9417220324613
 31
0.0
  0
INSERT
  5
81D7
  8
3
 62
     0
  2
_OPEN
 10
1080.3968039076799
 20
9371.9417220324594
 30
0.0
 41
100.0
 42
100.0
 43
100.0
 50
90.0
  0
INSERT
  5
81D8
  8
3
 62
     0
  2
_OPEN
 10
1080.3968039076799
 20
8171.9417220324603
 30
0.0
 41
100.0
 42
100.0
 43
100.0
 50
270.0
  0
TEXT
  8
3
  40
150
  5
8248
  62
0
  72
0
  71
0
 10
655.397
 20
8622.32
 30
0.000000
  1
1200
  0
POINT
  5
81DA
  8
DEFPOINTS
 62
     0
 10
1400.3178899286941
 20
9371.9417220324594
 30
0.0
  0
POINT
  5
81DB
  8
DEFPOINTS
 62
     0
 10
1400.3178899291049
 20
8171.9417220324603
 30
0.0
  0
POINT
  5
81DC
  8
DEFPOINTS
 62
     0
 10
1080.3968039076799
 20
8171.9417220324603
 30
0.0
  0
ENDBLK
  5
7FBE
  8
0
  0
BLOCK
  8
0
  2
*D4
 70
     1
 10
0.0
 20
0.0
 30
0.0
  3
*D4
  1

  0
LINE
  5
81DD
  8
3
 62
     0
 10
4700.316889929115
 20
8146.9417220336636
 30
0.0
 11
4700.316889929115
 21
7763.5423507861988
 31
0.0
  0
LINE
  5
81DE
  8
3
 62
     0
 10
1400.3178899291049
 20
8146.9417220324603
 30
0.0
 11
1400.3178899291049
 21
7763.5423507861988
 31
0.0
  0
LINE
  5
81DF
  8
3
 62
     0
 10
4600.316889929114
 20
7813.5423507861988
 30
0.0
 11
1500.3178899291049
 21
7813.5423507861988
 31
0.0
  0
INSERT
  5
81E0
  8
3
 62
     0
  2
_OPEN
 10
4700.316889929115
 20
7813.5423507861988
 30
0.0
 41
100.0
 42
100.0
 43
100.0
  0
INSERT
  5
81E1
  8
3
 62
     0
  2
_OPEN
 10
1400.3178899291049
 20
7813.5423507861988
 30
0.0
 41
100.0
 42
100.0
 43
100.0
 50
180.0
  0
TEXT
  8
3
  40
150
  5
8249
  62
0
  72
0
  71
0
 10
2942.01
 20
7673.04
 30
0.000000
  1
3300
  0
POINT
  5
81E3
  8
DEFPOINTS
 62
     0
 10
4700.316889929115
 20
8171.9417220336654
 30
0.0
  0
POINT
  5
81E4
  8
DEFPOINTS
 62
     0
 10
1400.3178899291049
 20
8171.9417220324603
 30
0.0
  0
POINT
  5
81E5
  8
DEFPOINTS
 62
     0
 10
1400.3178899291049
 20
7813.5423507861988
 30
0.0
  0
ENDBLK
  5
7F9D
  8
0
  0
BLOCK
  8
0
  2
*D5
 70
     1
 10
0.0
 20
0.0
 30
0.0
  3
*D5
  1

  0
LINE
  5
81E6
  8
3
 62
     0
 10
4725.3178899282184
 20
10771.94172203366
 30
0.0
 11
5306.6662911837266
 21
10771.94172203366
 31
0.0
  0
LINE
  5
81E7
  8
3
 62
     0
 10
4725.316889929114
 20
8171.9417220336654
 30
0.0
 11
5306.6662911837248
 21
8171.9417220336654
 31
0.0
  0
LINE
  5
81E8
  8
3
 62
     0
 10
5256.6662911837257
 20
10671.94172203366
 30
0.0
 11
5256.6662911837257
 21
8271.9417220336636
 31
0.0
  0
INSERT
  5
81E9
  8
3
 62
     0
  2
_OPEN
 10
5256.6662911837257
 20
10771.94172203366
 30
0.0
 41
100.0
 42
100.0
 43
100.0
 50
90.0
  0
INSERT
  5
81EA
  8
3
 62
     0
  2
_OPEN
 10
5256.6662911837257
 20
8171.9417220336654
 30
0.0
 41
100.0
 42
100.0
 43
100.0
 50
270.0
  0
TEXT
  8
3
  40
150
  5
824A
  62
0
  72
0
  71
0
 10
4831.67
 20
9368.92
 30
0.000000
  1
2600
  0
POINT
  5
81EC
  8
DEFPOINTS
 62
     0
 10
4700.3178899282184
 20
10771.94172203366
 30
0.0
  0
POINT
  5
81ED
  8
DEFPOINTS
 62
     0
 10
4700.316889929115
 20
8171.9417220336654
 30
0.0
  0
POINT
  5
81EE
  8
DEFPOINTS
 62
     0
 10
5256.6662911837257
 20
8171.9417220336654
 30
0.0
  0
ENDBLK
  5
7FE1
  8
0
  0
BLOCK
  8
0
  2
*D6
 70
     1
 10
0.0
 20
0.0
 30
0.0
  3
*D6
  1

  0
LINE
  5
81EF
  8
3
 62
     0
 10
4795.3168899295697
 20
6307.2870539992082
 30
0.0
 11
4795.3168899295697
 21
6681.1564418716489
 31
0.0
  0
LINE
  5
81F0
  8
3
 62
     0
 10
3750.3178899295572
 20
6347.2870539988508
 30
0.0
 11
3750.3178899295572
 21
6681.1564418716489
 31
0.0
  0
LINE
  5
81F1
  8
3
 62
     0
 10
4695.3168899295697
 20
6631.1564418716489
 30
0.0
 11
3850.3178899295572
 21
6631.1564418716489
 31
0.0
  0
INSERT
  5
81F2
  8
3
 62
     0
  2
_OPEN
 10
4795.3168899295697
 20
6631.1564418716489
 30
0.0
 41
100.0
 42
100.0
 43
100.0
  0
INSERT
  5
81F3
  8
3
 62
     0
  2
_OPEN
 10
3750.3178899295572
 20
6631.1564418716489
 30
0.0
 41
100.0
 42
100.0
 43
100.0
 50
180.0
  0
TEXT
  8
3
  40
150
  5
824B
  62
0
  72
0
  71
0
 10
4025.05
 20
6490.66
 30
0.000000
  1
1045
  0
POINT
  5
81F5
  8
DEFPOINTS
 62
     0
 10
4795.3168899295697
 20
6282.2870539992082
 30
0.0
  0
POINT
  5
81F6
  8
DEFPOINTS
 62
     0
 10
3750.3178899295572
 20
6322.2870539988498
 30
0.0
  0
POINT
  5
81F7
  8
DEFPOINTS
 62
     0
 10
3750.3178899295572
 20
6631.1564418716489
 30
0.0
  0
ENDBLK
  5
7F53
  8
0
  0
BLOCK
  8
0
  2
*D7
 70
     1
 10
0.0
 20
0.0
 30
0.0
  3
*D7
  1

  0
LINE
  5
81F8
  8
3
 62
     0
 10
2379.3178899301338
 20
4663.2870539978403
 30
0.0
 11
2379.3178899301338
 21
6681.1564418702774
 31
0.0
  0
LINE
  5
81F9
  8
3
 62
     0
 10
3650.3178899295558
 20
6631.1564418702774
 30
0.0
 11
2479.3178899301338
 21
6631.1564418702774
 31
0.0
  0
INSERT
  5
81FA
  8
3
 62
     0
  2
_OPEN
 10
3750.3178899295572
 20
6631.1564418702774
 30
0.0
 41
100.0
 42
100.0
 43
100.0
  0
INSERT
  5
81FB
  8
3
 62
     0
  2
_OPEN
 10
2379.3178899301338
 20
6631.1564418702774
 30
0.0
 41
100.0
 42
100.0
 43
100.0
 50
180.0
  0
TEXT
  8
3
  40
150
  5
824C
  62
0
  72
0
  71
0
 10
2764.82
 20
6490.66
 30
0.000000
  1
1371
  0
POINT
  5
81FD
  8
DEFPOINTS
 62
     0
 10
3750.3178899295572
 20
6322.2870539988498
 30
0.0
  0
POINT
  5
81FE
  8
DEFPOINTS
 62
     0
 10
2379.3178899301338
 20
4638.2870539978403
 30
0.0
  0
POINT
  5
81FF
  8
DEFPOINTS
 62
     0
 10
2379.3178899301338
 20
6631.1564418702774
 30
0.0
  0
ENDBLK
  5
7F88
  8
0
  0
BLOCK
  8
0
  2
*D8
 70
     1
 10
0.0
 20
0.0
 30
0.0
  3
*D8
  1

  0
LINE
  5
8200
  8
3
 62
     0
 10
4820.3168899295906
 20
6217.2870539992082
 30
0.0
 11
5119.1017121999557
 21
6217.2870539992082
 31
0.0
  0
LINE
  5
8201
  8
3
 62
     0
 10
4820.3168899301581
 20
4567.2870539992082
 30
0.0
 11
5119.1017121999557
 21
4567.2870539992082
 31
0.0
  0
LINE
  5
8202
  8
3
 62
     0
 10
5069.1017121999548
 20
6117.2870539992082
 30
0.0
 11
5069.1017121999548
 21
4667.2870539992082
 31
0.0
  0
INSERT
  5
8203
  8
3
 62
     0
  2
_OPEN
 10
5069.1017121999557
 20
6217.2870539992082
 30
0.0
 41
100.0
 42
100.0
 43
100.0
 50
90.0
  0
INSERT
  5
8204
  8
3
 62
     0
  2
_OPEN
 10
5069.1017121999548
 20
4567.2870539992082
 30
0.0
 41
100.0
 42
100.0
 43
100.0
 50
270.0
  0
TEXT
  8
3
  40
150
  5
824D
  62
0
  72
0
  71
0
 10
4644.10
 20
5142.27
 30
0.000000
  1
1650
  0
POINT
  5
8206
  8
DEFPOINTS
 62
     0
 10
4795.3168899295906
 20
6217.2870539992082
 30
0.0
  0
POINT
  5
8207
  8
DEFPOINTS
 62
     0
 10
4795.3168899301572
 20
4567.2870539992082
 30
0.0
  0
POINT
  5
8208
  8
DEFPOINTS
 62
     0
 10
5069.1017121999548
 20
4567.2870539992082
 30
0.0
  0
ENDBLK
  5
7F69
  8
0
  0
BLOCK
  8
0
  2
*D9
 70
     1
 10
0.0
 20
0.0
 30
0.0
  3
*D9
  1

  0
LINE
  5
8209
  8
3
 62
     0
 10
4820.3168899295906
 20
6217.2870539992082
 30
0.0
 11
5401.6545947910963
 21
6217.2870539992082
 31
0.0
  0
LINE
  5
820A
  8
3
 62
     0
 10
4882.3642733578272
 20
4522.28705399923
 30
0.0
 11
5401.6545947910954
 21
4522.28705399923
 31
0.0
  0
LINE
  5
820B
  8
3
 62
     0
 10
5351.6545947910954
 20
6117.2870539992082
 30
0.0
 11
5351.6545947910954
 21
4622.28705399923
 31
0.0
  0
INSERT
  5
820C
  8
3
 62
     0
  2
_OPEN
 10
5351.6545947910963
 20
6217.2870539992082
 30
0.0
 41
100.0
 42
100.0
 43
100.0
 50
90.0
  0
INSERT
  5
820D
  8
3
 62
     0
  2
_OPEN
 10
5351.6545947910954
 20
4522.28705399923
 30
0.0
 41
100.0
 42
100.0
 43
100.0
 50
270.0
  0
TEXT
  8
3
  40
150
  5
824E
  62
0
  72
0
  71
0
 10
4926.65
 20
5142.27
 30
0.000000
  1
1695
  0
POINT
  5
820F
  8
DEFPOINTS
 62
     0
 10
4795.3168899295906
 20
6217.2870539992082
 30
0.0
  0
POINT
  5
8210
  8
DEFPOINTS
 62
     0
 10
4857.3642733578272
 20
4522.28705399923
 30
0.0
  0
POINT
  5
8211
  8
DEFPOINTS
 62
     0
 10
5351.6545947910954
 20
4522.28705399923
 30
0.0
  0
ENDBLK
  5
7F74
  8
0
  0
BLOCK
  8
0
  2
*D10
 70
     1
 10
0.0
 20
0.0
 30
0.0
  3
*D10
  1

  0
LINE
  5
8212
  8
3
 62
     0
 10
4725.3178899305258
 20
3352.3930539991752
 30
0.0
 11
5401.6545947925424
 21
3352.3930539991752
 31
0.0
  0
LINE
  5
8213
  8
3
 62
     0
 10
5351.6545947925424
 20
4422.2870539992291
 30
0.0
 11
5351.6545947925424
 21
3452.3930539991761
 31
0.0
  0
INSERT
  5
8214
  8
3
 62
     0
  2
_OPEN
 10
5351.6545947925424
 20
4522.28705399923
 30
0.0
 41
100.0
 42
100.0
 43
100.0
 50
90.0
  0
INSERT
  5
8215
  8
3
 62
     0
  2
_OPEN
 10
5351.6545947925424
 20
3352.3930539991752
 30
0.0
 41
100.0
 42
100.0
 43
100.0
 50
270.0
  0
TEXT
  8
3
  40
150
  5
824F
  62
0
  72
0
  71
0
 10
4926.65
 20
3671.84
 30
0.000000
  1
1170
  0
POINT
  5
8217
  8
DEFPOINTS
 62
     0
 10
4857.3642733578272
 20
4522.28705399923
 30
0.0
  0
POINT
  5
8218
  8
DEFPOINTS
 62
     0
 10
4700.3178899305258
 20
3352.3930539991752
 30
0.0
  0
POINT
  5
8219
  8
DEFPOINTS
 62
     0
 10
5351.6545947925424
 20
3352.3930539991752
 30
0.0
  0
ENDBLK
  5
7F7E
  8
0
  0
BLOCK
  8
0
  2
*D11
 70
     1
 10
0.0
 20
0.0
 30
0.0
  3
*D11
  1

  0
LINE
  5
821A
  8
3
 62
     0
 10
6825.5634309014413
 20
6242.2870539989553
 30
0.0
 11
6825.5634309014413
 21
6571.5538473185734
 31
0.0
  0
LINE
  5
821B
  8
3
 62
     0
 10
8945.7311667170798
 20
6242.2870539991964
 30
0.0
 11
8945.7311667170798
 21
6571.5538473185734
 31
0.0
  0
LINE
  5
821C
  8
3
 62
     0
 10
6925.5634309014413
 20
6521.5538473185734
 30
0.0
 11
8845.7311667170798
 21
6521.5538473185734
 31
0.0
  0
INSERT
  5
821D
  8
3
 62
     0
  2
_OPEN
 10
6825.5634309014413
 20
6521.5538473185734
 30
0.0
 41
100.0
 42
100.0
 43
100.0
 50
180.0
  0
INSERT
  5
821E
  8
3
 62
     0
  2
_OPEN
 10
8945.7311667170798
 20
6521.5538473185734
 30
0.0
 41
100.0
 42
100.0
 43
100.0
  0
TEXT
  8
3
  40
150
  5
8250
  62
0
  72
0
  71
0
 10
7585.77
 20
6381.05
 30
0.000000
  1
2120
  0
POINT
  5
8220
  8
DEFPOINTS
 62
     0
 10
6825.5634309014413
 20
6217.2870539989553
 30
0.0
  0
POINT
  5
8221
  8
DEFPOINTS
 62
     0
 10
8945.7311667170798
 20
6217.2870539991964
 30
0.0
  0
POINT
  5
8222
  8
DEFPOINTS
 62
     0
 10
8945.7311667170798
 20
6521.5538473185734
 30
0.0
  0
ENDBLK
  5
7FF6
  8
0
  0
BLOCK
  8
0
  2
*D12
 70
     1
 10
0.0
 20
0.0
 30
0.0
  3
*D12
  1

  0
LINE
  5
8223
  8
3
 62
     0
 10
9148.764430901776
 20
4487.28705399922
 30
0.0
 11
9148.764430901776
 21
6926.6251450303316
 31
0.0
  0
LINE
  5
8224
  8
3
 62
     0
 10
7885.5579768992557
 20
6786.6177036878453
 30
0.0
 11
7885.5579768992557
 21
6926.6251450303316
 31
0.0
  0
LINE
  5
8225
  8
3
 62
     0
 10
9048.764430901776
 20
6876.6251450303307
 30
0.0
 11
7985.5579768992548
 21
6876.6251450303307
 31
0.0
  0
INSERT
  5
8226
  8
3
 62
     0
  2
_OPEN
 10
9148.764430901776
 20
6876.6251450303307
 30
0.0
 41
100.0
 42
100.0
 43
100.0
  0
INSERT
  5
8227
  8
3
 62
     0
  2
_OPEN
 10
7885.5579768992557
 20
6876.6251450303307
 30
0.0
 41
100.0
 42
100.0
 43
100.0
 50
180.0
  0
TEXT
  8
3
  40
150
  5
8251
  62
0
  72
0
  71
0
 10
8081.99
 20
6775.41
 30
0.000000
  1
(1300)
  0
POINT
  5
8229
  8
DEFPOINTS
 62
     0
 10
9148.764430901776
 20
4462.28705399922
 30
0.0
  0
POINT
  5
822A
  8
DEFPOINTS
 62
     0
 10
7885.5579768992557
 20
6761.6177036878453
 30
0.0
  0
POINT
  5
822B
  8
DEFPOINTS
 62
     0
 10
7885.5579768992557
 20
6876.6251450303307
 30
0.0
  0
ENDBLK
  5
8001
  8
0
  0
BLOCK
  8
0
  2
*D13
 70
     1
 10
0.0
 20
0.0
 30
0.0
  3
*D13
  1

  0
LINE
  5
822C
  8
3
 62
     0
 10
6402.363430901707
 20
5097.287053998908
 30
0.0
 11
6402.363430901707
 21
6926.6251450303316
 31
0.0
  0
LINE
  5
822D
  8
3
 62
     0
 10
7785.5579768992548
 20
6876.6251450303307
 30
0.0
 11
6502.363430901707
 21
6876.6251450303307
 31
0.0
  0
INSERT
  5
822E
  8
3
 62
     0
  2
_OPEN
 10
7885.5579768992557
 20
6876.6251450303307
 30
0.0
 41
100.0
 42
100.0
 43
100.0
  0
INSERT
  5
822F
  8
3
 62
     0
  2
_OPEN
 10
6402.363430901707
 20
6876.6251450303307
 30
0.0
 41
100.0
 42
100.0
 43
100.0
 50
180.0
  0
TEXT
  8
3
  40
150
  5
8252
  62
0
  72
0
  71
0
 10
6843.96
 20
6861.13
 30
0.000000
  1
MAX
  0
TEXT
  8
3
  40
150
  5
8253
  62
0
  72
0
  71
0
 10
6843.96
 20
6666.13
 30
0.000000
  1
1580
  0
POINT
  5
8231
  8
DEFPOINTS
 62
     0
 10
7885.5579768992557
 20
6761.6177036878453
 30
0.0
  0
POINT
  5
8232
  8
DEFPOINTS
 62
     0
 10
6402.363430901707
 20
5072.287053998908
 30
0.0
  0
POINT
  5
8233
  8
DEFPOINTS
 62
     0
 10
6402.363430901707
 20
6876.6251450303307
 30
0.0
  0
ENDBLK
  5
7FEB
  8
0
  0
BLOCK
  8
0
  2
*D14
 70
     1
 10
0.0
 20
0.0
 30
0.0
  3
*D14
  1

  0
LINE
  5
8234
  8
3
 62
     0
 10
8982.7644309016796
 20
5322.2870539991982
 30
0.0
 11
9516.2625062360476
 21
5322.2870539991982
 31
0.0
  0
LINE
  5
8235
  8
3
 62
     0
 10
8982.7644309018633
 20
3722.2870539991982
 30
0.0
 11
9516.2625062360457
 21
3722.2870539991982
 31
0.0
  0
LINE
  5
8236
  8
3
 62
     0
 10
9466.2625062360476
 20
5222.2870539991982
 30
0.0
 11
9466.2625062360476
 21
3822.2870539991982
 31
0.0
  0
INSERT
  5
8237
  8
3
 62
     0
  2
_OPEN
 10
9466.2625062360476
 20
5322.2870539991982
 30
0.0
 41
100.0
 42
100.0
 43
100.0
 50
90.0
  0
INSERT
  5
8238
  8
3
 62
     0
  2
_OPEN
 10
9466.2625062360476
 20
3722.2870539991982
 30
0.0
 41
100.0
 42
100.0
 43
100.0
 50
270.0
  0
TEXT
  8
3
  40
150
  5
8254
  62
0
  72
0
  71
0
 10
9041.26
 20
4220.03
 30
0.000000
  1
φ1600
  0
POINT
  5
823A
  8
DEFPOINTS
 62
     0
 10
8957.7644309016814
 20
5322.2870539991982
 30
0.0
  0
POINT
  5
823B
  8
DEFPOINTS
 62
     0
 10
8957.7644309018615
 20
3722.2870539991982
 30
0.0
  0
POINT
  5
823C
  8
DEFPOINTS
 62
     0
 10
9466.2625062360476
 20
3722.2870539991982
 30
0.0
  0
ENDBLK
  5
7E07
  8
0
  0
BLOCK
  8
0
  2
*D15
 70
     1
 10
0.0
 20
0.0
 30
0.0
  3
*D15
  1

  0
LINE
  5
823D
  8
3
 62
     0
 10
4795.3168899295697
 20
6307.2870539992082
 30
0.0
 11
4795.3168899295697
 21
6991.7081697644899
 31
0.0
  0
LINE
  5
823E
  8
3
 62
     0
 10
1400.317889930476
 20
3527.3930539980411
 30
0.0
 11
1400.3178899304769
 21
6991.7081697644899
 31
0.0
  0
LINE
  5
823F
  8
3
 62
     0
 10
4695.3168899295697
 20
6941.7081697644899
 30
0.0
 11
1500.317889930476
 21
6941.7081697644899
 31
0.0
  0
INSERT
  5
8240
  8
3
 62
     0
  2
_OPEN
 10
4795.3168899295697
 20
6941.7081697644899
 30
0.0
 41
100.0
 42
100.0
 43
100.0
  0
INSERT
  5
8241
  8
3
 62
     0
  2
_OPEN
 10
1400.3178899304769
 20
6941.7081697644899
 30
0.0
 41
100.0
 42
100.0
 43
100.0
 50
180.0
  0
TEXT
  8
3
  40
150
  5
8255
  62
0
  72
0
  71
0
 10
2677.27
 20
6801.21
 30
0.000000
  1
3395
  0
POINT
  5
8243
  8
DEFPOINTS
 62
     0
 10
4795.3168899295697
 20
6282.2870539992082
 30
0.0
  0
POINT
  5
8244
  8
DEFPOINTS
 62
     0
 10
1400.317889930476
 20
3502.3930539980411
 30
0.0
  0
POINT
  5
8245
  8
DEFPOINTS
 62
     0
 10
1400.3178899304769
 20
6941.7081697644899
 30
0.0
  0
ENDBLK
  5
7F3B
  8
0
  0
BLOCK
  8
0
  2
*D16
 70
     1
 10
0.0
 20
0.0
 30
0.0
  3
*D16
  1

  0
LINE
  5
80AF
  8
0
  6
BYBLOCK
 62
     0
 10
1400.317889930524
 20
3327.393053998042
 30
0.0
 11
1400.317889930524
 21
2985.5231864126472
 31
0.0
  0
LINE
  5
80B0
  8
0
  6
BYBLOCK
 62
     0
 10
3750.3178899305258
 20
3327.3930539988501
 30
0.0
 11
3750.3178899305258
 21
2985.5231864126472
 31
0.0
  0
LINE
  5
80B1
  8
0
  6
BYBLOCK
 62
     0
 10
1500.317889930524
 20
3035.5231864126472
 30
0.0
 11
3650.3178899305258
 21
3035.5231864126472
 31
0.0
  0
INSERT
  5
80B2
  8
0
  6
BYBLOCK
 62
     0
  2
_OPEN
 10
1400.317889930524
 20
3035.5231864126472
 30
0.0
 41
100.0
 42
100.0
 43
100.0
 50
180.0
  0
INSERT
  5
80B3
  8
0
  6
BYBLOCK
 62
     0
  2
_OPEN
 10
3750.3178899305258
 20
3035.5231864126472
 30
0.0
 41
100.0
 42
100.0
 43
100.0
  0
TEXT
  5
80B4
  8
3
 62
     0
 10
2311.0321756448111
 20
3085.5231864126472
 30
0.0
 40
150.0
  1
2350
  0
POINT
  5
80B5
  8
DEFPOINTS
  6
BYBLOCK
 62
     0
 10
1400.317889930524
 20
3352.393053998042
 30
0.0
  0
POINT
  5
80B6
  8
DEFPOINTS
  6
BYBLOCK
 62
     0
 10
3750.3178899305258
 20
3352.3930539988501
 30
0.0
  0
POINT
  5
80B7
  8
DEFPOINTS
  6
BYBLOCK
 62
     0
 10
3750.3178899305258
 20
3035.5231864126472
 30
0.0
  0
ENDBLK
  5
80B8
  8
0
  0
BLOCK
  8
0
  2
*D17
 70
     1
 10
0.0
 20
0.0
 30
0.0
  3
*D17
  1

  0
LINE
  5
80BC
  8
0
  6
BYBLOCK
 62
     0
 10
3750.3178899305258
 20
3327.3930539988501
 30
0.0
 11
3750.3178899305258
 21
2985.5231864126472
 31
0.0
  0
LINE
  5
80BD
  8
0
  6
BYBLOCK
 62
     0
 10
4700.3178899305258
 20
3327.3930539991761
 30
0.0
 11
4700.3178899305258
 21
2985.5231864126472
 31
0.0
  0
LINE
  5
80BE
  8
0
  6
BYBLOCK
 62
     0
 10
3850.3178899305258
 20
3035.5231864126472
 30
0.0
 11
4600.3178899305258
 21
3035.5231864126472
 31
0.0
  0
INSERT
  5
80BF
  8
0
  6
BYBLOCK
 62
     0
  2
_OPEN
 10
3750.3178899305258
 20
3035.5231864126472
 30
0.0
 41
100.0
 42
100.0
 43
100.0
 50
180.0
  0
INSERT
  5
80C0
  8
0
  6
BYBLOCK
 62
     0
  2
_OPEN
 10
4700.3178899305258
 20
3035.5231864126472
 30
0.0
 41
100.0
 42
100.0
 43
100.0
  0
TEXT
  5
80C1
  8
3
 62
     0
 10
4032.4607470733831
 20
3085.5231864126472
 30
0.0
 40
150.0
  1
950
  0
POINT
  5
80C2
  8
DEFPOINTS
  6
BYBLOCK
 62
     0
 10
3750.3178899305258
 20
3352.3930539988501
 30
0.0
  0
POINT
  5
80C3
  8
DEFPOINTS
  6
BYBLOCK
 62
     0
 10
4700.3178899305258
 20
3352.3930539991752
 30
0.0
  0
POINT
  5
80C4
  8
DEFPOINTS
  6
BYBLOCK
 62
     0
 10
4700.3178899305258
 20
3035.5231864126472
 30
0.0
  0
ENDBLK
  5
80C5
  8
0
  0
BLOCK
  8
0
  2
*D18
 70
     1
 10
0.0
 20
0.0
 30
0.0
  3
*D18
  1

  0
LINE
  5
80C9
  8
0
  6
BYBLOCK
 62
     0
 10
6424.5579768998987
 20
3327.2870539989099
 30
0.0
 11
6424.5579768998987
 21
2985.5231864126472
 31
0.0
  0
LINE
  5
80CA
  8
0
  6
BYBLOCK
 62
     0
 10
7885.5579768999169
 20
3327.2870539990759
 30
0.0
 11
7885.5579768999169
 21
2985.5231864126472
 31
0.0
  0
LINE
  5
80CB
  8
0
  6
BYBLOCK
 62
     0
 10
6524.5579768998987
 20
3035.5231864126472
 30
0.0
 11
7785.5579768999178
 21
3035.5231864126472
 31
0.0
  0
INSERT
  5
80CC
  8
0
  6
BYBLOCK
 62
     0
  2
_OPEN
 10
6424.5579768998987
 20
3035.5231864126472
 30
0.0
 41
100.0
 42
100.0
 43
100.0
 50
180.0
  0
INSERT
  5
80CD
  8
0
  6
BYBLOCK
 62
     0
  2
_OPEN
 10
7885.5579768999169
 20
3035.5231864126472
 30
0.0
 41
100.0
 42
100.0
 43
100.0
  0
TEXT
  5
80CE
  8
3
 62
     0
 10
6937.2008340427656
 20
3085.5231864126472
 30
0.0
 40
150.0
  1
1461
  0
POINT
  5
80CF
  8
DEFPOINTS
  6
BYBLOCK
 62
     0
 10
6424.5579768998987
 20
3352.2870539989099
 30
0.0
  0
POINT
  5
80D0
  8
DEFPOINTS
  6
BYBLOCK
 62
     0
 10
7885.5579768999169
 20
3352.2870539990759
 30
0.0
  0
POINT
  5
80D1
  8
DEFPOINTS
  6
BYBLOCK
 62
     0
 10
7885.5579768999169
 20
3035.5231864126472
 30
0.0
  0
ENDBLK
  5
80D2
  8
0
  0
BLOCK
  8
0
  2
*D19
 70
     1
 10
0.0
 20
0.0
 30
0.0
  3
*D19
  1

  0
LINE
  5
80D6
  8
0
  6
BYBLOCK
 62
     0
 10
7885.5579768999169
 20
3327.2870539990759
 30
0.0
 11
7885.5579768999169
 21
2985.5231864126472
 31
0.0
  0
LINE
  5
80D7
  8
0
  6
BYBLOCK
 62
     0
 10
9024.5579768998996
 20
3327.287053999205
 30
0.0
 11
9024.5579768998996
 21
2985.5231864126472
 31
0.0
  0
LINE
  5
80D8
  8
0
  6
BYBLOCK
 62
     0
 10
7985.5579768999178
 20
3035.5231864126472
 30
0.0
 11
8924.5579768998996
 21
3035.5231864126472
 31
0.0
  0
INSERT
  5
80D9
  8
0
  6
BYBLOCK
 62
     0
  2
_OPEN
 10
7885.5579768999169
 20
3035.5231864126472
 30
0.0
 41
100.0
 42
100.0
 43
100.0
 50
180.0
  0
INSERT
  5
80DA
  8
0
  6
BYBLOCK
 62
     0
  2
_OPEN
 10
9024.5579768998996
 20
3035.5231864126472
 30
0.0
 41
100.0
 42
100.0
 43
100.0
  0
TEXT
  5
80DB
  8
3
 62
     0
 10
8222.9151197570518
 20
3085.5231864126472
 30
0.0
 40
150.0
  1
1139
  0
POINT
  5
80DC
  8
DEFPOINTS
  6
BYBLOCK
 62
     0
 10
7885.5579768999169
 20
3352.2870539990759
 30
0.0
  0
POINT
  5
80DD
  8
DEFPOINTS
  6
BYBLOCK
 62
     0
 10
9024.5579768998996
 20
3352.287053999205
 30
0.0
  0
POINT
  5
80DE
  8
DEFPOINTS
  6
BYBLOCK
 62
     0
 10
9024.5579768998996
 20
3035.5231864126472
 30
0.0
  0
ENDBLK
  5
80DF
  8
0
  0
BLOCK
  8
0
  2
*D20
 70
     1
 10
0.0
 20
0.0
 30
0.0
  3
*D20
  1

  0
LINE
  5
80E3
  8
0
  6
BYBLOCK
 62
     0
 10
4725.3178899305258
 20
3352.3930539991752
 30
0.0
 11
5713.3210130838916
 21
3352.3930539991752
 31
0.0
  0
LINE
  5
80E4
  8
0
  6
BYBLOCK
 62
     0
 10
4845.3168899295906
 20
6217.2870539992082
 30
0.0
 11
5713.3210130838916
 21
6217.2870539992082
 31
0.0
  0
LINE
  5
80E5
  8
0
  6
BYBLOCK
 62
     0
 10
5663.3210130838916
 20
3452.3930539991761
 30
0.0
 11
5663.3210130838916
 21
6117.2870539992082
 31
0.0
  0
INSERT
  5
80E6
  8
0
  6
BYBLOCK
 62
     0
  2
_OPEN
 10
5663.3210130838916
 20
3352.3930539991752
 30
0.0
 41
100.0
 42
100.0
 43
100.0
 50
270.0
  0
INSERT
  5
80E7
  8
0
  6
BYBLOCK
 62
     0
  2
_OPEN
 10
5663.3210130838916
 20
6217.2870539992082
 30
0.0
 41
100.0
 42
100.0
 43
100.0
 50
90.0
  0
TEXT
  5
80E8
  8
3
 62
     0
 10
5613.3210130838934
 20
4520.5543397134779
 30
0.0
 40
150.0
  1
2865
 50
90.0
  0
POINT
  5
80E9
  8
DEFPOINTS
  6
BYBLOCK
 62
     0
 10
4700.3178899305258
 20
3352.3930539991752
 30
0.0
  0
POINT
  5
80EA
  8
DEFPOINTS
  6
BYBLOCK
 62
     0
 10
4820.3168899295906
 20
6217.2870539992082
 30
0.0
  0
POINT
  5
80EB
  8
DEFPOINTS
  6
BYBLOCK
 62
     0
 10
5663.3210130838916
 20
6217.2870539992082
 30
0.0
  0
ENDBLK
  5
80EC
  8
0
  0
ENDSEC
  0
SECTION
  2
ENTITIES
  0
LINE
  5
7AC9
  8
1
 10
1829.1617179741199
 20
4095.5562395600382
 30
0.0
 11
3485.7557495611659
 21
5004.4767198808304
 31
0.0
  0
ARC
  5
7ACA
  8
1
 10
1963.847898525609
 20
3850.0778642019382
 30
0.0
 40
280.0
 50
118.7521765344171
 51
286.69973024890811
  0
LINE
  5
7ACB
  8
1
 10
3556.9816094909288
 20
4872.4599865135106
 30
0.0
 11
1903.430310888346
 21
3959.50690561277
 31
0.0
  0
CIRCLE
  5
7ACE
  8
1
 10
1963.847898525609
 20
3850.0778642019382
 30
0.0
 40
125.0
  0
LINE
  5
7ACF
  8
2
 10
2332.8949384736052
 20
3850.0778642020659
 30
0.0
 11
1613.2207281965609
 21
3850.0778642018199
 31
0.0
  0
LINE
  5
7AD0
  8
1
 10
1808.368766250095
 20
3581.8871868344122
 30
0.0
 11
2119.3270308013111
 21
3581.8871868345191
 31
0.0
  0
LINE
  5
7AD1
  8
1
 10
1963.84789852571
 20
3554.9866817678512
 30
0.0
 11
1818.1010898155589
 21
3554.9866817678012
 31
0.0
  0
ARC
  5
7AD2
  8
1
 10
1963.847898525609
 20
3850.0778642019382
 30
0.0
 40
310.0
 50
300.10230806833158
 51
239.8976919317077
  0
LINE
  5
7AD3
  8
1
 10
1400.317889930524
 20
3352.393053998042
 30
0.0
 11
4700.3178899305267
 21
3352.3930539991752
 31
0.0
  0
LINE
  5
7AD4
  8
1
 10
1400.317889930476
 20
3502.3930539980411
 30
0.0
 11
4700.3178899304748
 21
3502.3930539991761
 31
0.0
  0
LINE
  5
7AD7
  8
1
 10
1683.847898525647
 20
3717.0365172453112
 30
0.0
 11
1683.8478985257079
 21
3570.0778642018431
 31
0.0
  0
LINE
  5
7AD8
  8
1
 10
1683.8478985257079
 20
3570.0778642018431
 30
0.0
 11
1793.847898525707
 21
3570.0778642018809
 31
0.0
  0
LINE
  5
7AD9
  8
1
 10
1683.847898525695
 20
3600.0778642018431
 30
0.0
 11
1780.544870727462
 21
3600.0778642018749
 31
0.0
  0
LINE
  5
7ADA
  8
1
 10
1818.101089815553
 20
3570.077864201889
 30
0.0
 11
1624.9534059669529
 21
3570.0778642018208
 31
0.0
  0
LINE
  5
7AE5
  8
1
 10
1624.9534059669529
 20
3570.0778642018208
 30
0.0
 11
1614.215203633024
 21
3502.3930539981152
 31
0.0
  0
LINE
  5
7AE6
  8
1
 10
1793.847898525697
 20
3590.8482362655659
 30
0.0
 11
1793.847898525705
 21
3570.0778642018809
 31
0.0
  0
LINE
  5
7AE8
  8
1
 10
1818.1010898155589
 20
3554.9866817678012
 30
0.0
 11
1818.101089815553
 21
3570.077864201889
 31
0.0
  0
CIRCLE
  5
7AE9
  8
1
 10
3750.3178899301411
 20
4522.2870539988508
 30
0.0
 40
865.0
  0
CIRCLE
  5
7AEA
  8
1
 10
3750.3178899301411
 20
4522.2870539988508
 30
0.0
 40
800.0
  0
ARC
  5
7AEB
  8
1
 10
3750.3178899301602
 20
4522.2870539988508
 30
0.0
 40
550.0
 50
282.48824339924028
 51
118.7521765344171
  0
CIRCLE
  5
7AEC
  8
1
 10
3750.3178899301752
 20
4522.2870539988508
 30
0.0
 40
400.0
  0
LINE
  5
7AED
  8
2
 10
3750.3178899305258
 20
3352.3930539988501
 30
0.0
 11
3750.3178899295572
 21
6322.2870539988498
 31
0.0
  0
LINE
  5
7AEE
  8
1
 10
4730.3168899301572
 20
4567.2870539991864
 30
0.0
 11
4730.3168899295933
 21
6211.2827276792568
 31
0.0
  0
LINE
  5
7AEF
  8
1
 10
4789.3168899301809
 20
4502.2870539992082
 30
0.0
 11
4789.3168899295706
 21
6282.2870539992082
 31
0.0
  0
LINE
  5
7AF0
  8
1
 10
4795.3168899295906
 20
6217.2870539992082
 30
0.0
 11
4795.3168899301572
 21
4567.2870539992082
 31
0.0
  0
ARC
  5
7AF1
  8
1
 10
3866.3178899301352
 20
4638.287053998888
 30
0.0
 40
1487.0
 50
94.475000000019705
 51
184.4740000000196
  0
LINE
  5
7AF2
  8
1
 10
2024.394897442565
 20
3576.7025527304199
 30
0.0
 11
3869.24949494561
 21
3985.299835036938
 31
0.0
  0
LINE
  5
7AF3
  8
1
 10
1990.5547140902941
 20
3727.9642040226058
 30
0.0
 11
3835.7796997371638
 21
4131.5233414249788
 31
0.0
  0
LINE
  5
7AF4
  8
2
 10
4857.3642733578272
 20
4522.28705399923
 30
0.0
 11
2240.3672210229829
 21
4522.2870539983323
 31
0.0
  0
ARC
  5
7AF5
  8
1
 10
3653.3178899302061
 20
4425.2870539988162
 30
0.0
 40
1042.0
 50
297.66285256821419
 51
5.3410000000196778
  0
ARC
  5
7AF6
  8
1
 10
3634.3178899301352
 20
4638.2870539988107
 30
0.0
 40
1255.0
 50
185.30300000001969
 51
244.83605684376161
  0
LINE
  5
7AF7
  8
2
 10
1963.847898525609
 20
4233.7101038485262
 30
0.0
 11
1963.8478985256099
 21
3352.3930539982362
 31
0.0
  0
LINE
  5
7AF8
  8
1
 10
2243.8478985256552
 20
3717.036517245489
 30
0.0
 11
2243.8478985257052
 21
3570.0778642020332
 31
0.0
  0
LINE
  5
7AF9
  8
1
 10
2109.5947072358558
 20
3570.0778642019882
 30
0.0
 11
2302.7423910844582
 21
3570.0778642020541
 31
0.0
  0
LINE
  5
7AFA
  8
1
 10
2147.1509263239268
 20
3600.0778642020032
 30
0.0
 11
2243.8478985256952
 21
3600.0778642020341
 31
0.0
  0
LINE
  5
7AFB
  8
1
 10
1963.84789852571
 20
3554.9866817678512
 30
0.0
 11
2109.5947072358622
 21
3554.9866817679008
 31
0.0
  0
LINE
  5
7AFD
  8
1
 10
2133.8478985256979
 20
3590.8482362656819
 30
0.0
 11
2133.8478985257052
 21
3570.0778642019968
 31
0.0
  0
LINE
  5
7AFE
  8
1
 10
2109.5947072358622
 20
3554.9866817679008
 30
0.0
 11
2109.5947072358558
 21
3570.0778642019882
 31
0.0
  0
LINE
  5
7B01
  8
1
 10
2302.7423910844582
 20
3570.0778642020541
 30
0.0
 11
2313.4805934184342
 21
3502.3930539983539
 31
0.0
  0
LINE
  5
7B0B
  8
1
 10
4795.3168899301572
 20
4567.2870539992082
 30
0.0
 11
4730.3168899301572
 21
4567.2870539991864
 31
0.0
  0
LINE
  5
7B0C
  8
1
 10
4683.3438899301591
 20
4567.2870539991691
 30
0.0
 11
4795.3168899301572
 21
4567.2870539992082
 31
0.0
  0
LINE
  5
7B0D
  8
1
 10
4700.3178899304748
 20
3502.3930539991761
 30
0.0
 11
4700.3178899305258
 21
3352.3930539991752
 31
0.0
  0
POINT
  5
7B0F
  8
1
 10
4700.3178899305267
 20
3352.3930539991752
 30
0.0
 50
0.0000000000065138
  0
ARC
  5
7B11
  8
1
 10
3847.3178899302079
 20
4425.2870539988817
 30
0.0
 40
848.0
 50
6.5680000000196737
 51
9.6397541141092749
  0
LINE
  5
7B12
  8
1
 10
4795.31688993018
 20
4502.2870539992082
 30
0.0
 11
4795.3168899301572
 21
4567.2870539992082
 31
0.0
  0
LINE
  5
7B13
  8
1
 10
4795.31688993018
 20
4502.2870539992082
 30
0.0
 11
4789.3168899301809
 21
4502.2870539992082
 31
0.0
  0
LINE
  5
7B14
  8
1
 10
4795.3168899295906
 20
6217.2870539992082
 30
0.0
 11
3750.3178899296258
 21
6120.756053998849
 31
0.0
  0
LINE
  5
7B15
  8
1
 10
4795.3168899295697
 20
6282.2870539992082
 30
0.0
 11
4789.3168899295706
 21
6282.2870539992082
 31
0.0
  0
LINE
  5
7B16
  8
1
 10
4795.3168899295906
 20
6217.2870539992082
 30
0.0
 11
4795.3168899295697
 21
6282.2870539992082
 31
0.0
  0
LINE
  5
7B17
  8
1
 10
1866.272231705148
 20
8429.7471760349981
 30
0.0
 11
2037.272231705148
 21
8429.7471760349981
 31
0.0
  0
LINE
  5
7B18
  8
1
 10
1909.2722317051471
 20
8249.7471760349981
 30
0.0
 11
1994.2722317051471
 21
8249.7471760349963
 31
0.0
  0
LINE
  5
7B19
  8
1
 10
1901.7722317051471
 20
8419.7471760349981
 30
0.0
 11
2001.7722317051471
 21
8419.7471760349981
 31
0.0
  0
LINE
  5
7B1A
  8
1
 10
2239.2722317051471
 20
8436.2471760349963
 30
0.0
 11
1671.7722317051459
 21
8436.2471760349963
 31
0.0
  0
LINE
  5
7B1B
  8
1
 10
1671.7722317051459
 20
9288.7471760349963
 30
0.0
 11
2239.2722317051462
 21
9288.7471760349981
 31
0.0
  0
LINE
  5
7B1C
  8
1
 10
1671.7722317051389
 20
8149.7471760349481
 30
0.0
 11
4300.3178899287732
 21
8149.7471760355111
 31
0.0
  0
LINE
  5
7B1D
  8
1
 10
1826.7722317051359
 20
8189.7471760349663
 30
0.0
 11
4150.3178899287686
 21
8189.7471760354938
 31
0.0
  0
LINE
  5
7B1E
  8
1
 10
1826.7722317051209
 20
8309.7471760349672
 30
0.0
 11
4150.3178899287541
 21
8309.7471760354947
 31
0.0
  0
LINE
  5
7B1F
  8
1
 10
1400.317889928692
 20
9371.9417220324594
 30
0.0
 11
2379.3178899286909
 21
9371.941722032916
 31
0.0
  0
LINE
  5
7B20
  8
1
 10
1400.3178899291049
 20
8171.9417220324603
 30
0.0
 11
4700.317889929117
 21
8171.9417220336654
 31
0.0
  0
LINE
  5
7B21
  8
2
 10
1951.7722317051489
 20
8149.7471760350063
 30
0.0
 11
1951.772231705145
 21
9288.7471760349963
 31
0.0
  0
LINE
  5
7B22
  8
1
 10
1826.7722317051209
 20
8309.7471760349526
 30
0.0
 11
1826.7722317051359
 21
8189.7471760349517
 31
0.0
  0
LINE
  5
7B23
  8
1
 10
1671.7722317051159
 20
8356.2370963523372
 30
0.0
 11
1671.7722317051389
 21
8149.7471760349326
 31
0.0
  0
LINE
  5
7B24
  8
1
 10
1671.7722317051459
 20
9288.7471760349963
 30
0.0
 11
1671.7722317051459
 21
8436.2471760349963
 31
0.0
  0
LINE
  5
7B25
  8
1
 10
1400.3178899286941
 20
9371.9417220324613
 30
0.0
 11
1400.3178899291049
 21
8171.9417220324603
 31
0.0
  0
LINE
  5
7B26
  8
1
 10
1671.772231705163
 20
8356.2370963523372
 30
0.0
 11
1816.307810443483
 21
8356.2370963523535
 31
0.0
  0
LINE
  5
7B27
  8
1
 10
1901.7722317051471
 20
8419.7471760349981
 30
0.0
 11
1901.772231705148
 21
8429.7471760349981
 31
0.0
  0
LINE
  5
7B28
  8
1
 10
1909.2722317051471
 20
8249.7471760349981
 30
0.0
 11
1909.2722317051471
 21
8419.7471760349981
 31
0.0
  0
ARC
  5
7B29
  8
1
 10
1866.272231705148
 20
8431.7471760349981
 30
0.0
 40
2.0
 50
180.00000000000011
 51
270.00000000000011
  0
LINE
  5
7B2A
  8
1
 10
1864.2722317051459
 20
8436.5955510349977
 30
0.0
 11
1864.272231705148
 21
8431.7471760349981
 31
0.0
  0
LINE
  5
7B2B
  8
2
 10
3750.317889928227
 20
10696.941722033331
 30
0.0
 11
3750.3178899291238
 21
8149.7471760353928
 31
0.0
  0
LINE
  5
7B2C
  8
1
 10
4700.317889929117
 20
8171.9417220336627
 30
0.0
 11
4700.3178899289769
 21
8572.9417220336654
 31
0.0
  0
LINE
  5
7B2D
  8
1
 10
2800.3178899282261
 20
10692.941722033011
 30
0.0
 11
2800.3178899282002
 21
10771.941722033011
 31
0.0
  0
LINE
  5
7B2E
  8
2
 10
2379.3178899286008
 20
9632.9417220328669
 30
0.0
 11
4860.3402385316758
 21
9632.9417220337218
 31
0.0
  0
LINE
  5
7B2F
  8
1
 10
2076.7722317051221
 20
8309.7471760349799
 30
0.0
 11
2076.7722317051362
 21
8189.7471760349817
 31
0.0
  0
LINE
  5
7B30
  8
1
 10
3350.317889928755
 20
8309.7471760353983
 30
0.0
 11
3350.3178899287691
 21
8189.747176035401
 31
0.0
  0
LINE
  5
7B31
  8
1
 10
2239.2722317051471
 20
8436.2471760349963
 30
0.0
 11
2239.2722317051462
 21
9288.7471760349981
 31
0.0
  0
LINE
  5
7B32
  8
1
 10
2001.7722317051471
 20
8419.7471760349981
 30
0.0
 11
2001.772231705148
 21
8429.7471760349981
 31
0.0
  0
LINE
  5
7B35
  8
1
 10
1994.2722317051471
 20
8249.7471760349963
 30
0.0
 11
1994.272231705148
 21
8419.7471760349981
 31
0.0
  0
ARC
  5
7B36
  8
1
 10
2037.272231705148
 20
8431.7471760349981
 30
0.0
 40
2.0
 50
270.00000000000011
 51
0.0000000000001283
  0
LINE
  5
7B37
  8
1
 10
2039.2722317051471
 20
8436.2471760349963
 30
0.0
 11
2039.272231705148
 21
8431.7471760349981
 31
0.0
  0
LINE
  5
7B38
  8
1
 10
4150.3178899287541
 20
8309.7471760354947
 30
0.0
 11
4150.3178899287686
 21
8189.7471760354938
 31
0.0
  0
LINE
  5
7B39
  8
1
 10
4300.3178899287486
 20
8356.2370963529156
 30
0.0
 11
4300.3178899287732
 21
8149.747176035512
 31
0.0
  0
LINE
  5
7B3A
  8
1
 10
4066.1988709177131
 20
8356.2370963528901
 30
0.0
 11
4300.3178899287486
 21
8356.2370963529156
 31
0.0
  0
LINE
  5
7B3B
  8
1
 10
2800.3178899282002
 20
10771.941722033011
 30
0.0
 11
4700.3178899282184
 21
10771.94172203366
 31
0.0
  0
LINE
  5
7B3C
  8
2
 10
9198.6127180860403
 20
4522.2870539992246
 30
0.0
 11
6402.363430901768
 21
4522.2870539989071
 31
0.0
  0
LINE
  5
7B3D
  8
1
 10
8945.5579768997013
 20
4462.2870539991973
 30
0.0
 11
9148.764430901776
 21
4462.28705399922
 31
0.0
  0
LINE
  5
7B3E
  8
1
 10
8945.5579768997468
 20
4221.1636083688427
 30
0.0
 11
9148.7644309017978
 21
4292.28705399922
 31
0.0
  0
LINE
  5
7B3F
  8
2
 10
7885.5579768992957
 20
6540.729611509696
 30
0.0
 11
7885.5579768999169
 21
3352.2870539990759
 31
0.0
  0
LINE
  5
7B42
  8
1
 10
6562.363430901858
 20
3727.3930540000329
 30
0.0
 11
6562.3634309017234
 21
4922.2870539989262
 31
0.0
  0
LINE
  5
7B43
  8
1
 10
6442.363430901858
 20
3727.3930540000192
 30
0.0
 11
6442.3634309017234
 21
4922.2870539989117
 31
0.0
  0
LINE
  5
7B45
  8
1
 10
6402.3634309018762
 20
3572.3930540000151
 30
0.0
 11
6402.363430901707
 21
5072.287053998908
 31
0.0
  0
LINE
  5
7B48
  8
1
 10
6825.5634309017923
 20
4132.3930540000247
 30
0.0
 11
6688.8634309018444
 21
4132.3930540000247
 31
0.0
  0
LINE
  5
7B4A
  8
1
 10
6688.8634309018444
 20
3564.8930540000251
 30
0.0
 11
6825.5634309018869
 21
3564.8930540000251
 31
0.0
  0
LINE
  5
7B4F
  8
1
 10
8946.2197833382343
 20
4567.2870539991964
 30
0.0
 11
6825.5634309017196
 21
4567.2870539989553
 31
0.0
  0
LINE
  5
7B53
  8
1
 10
6688.8634309018462
 20
3564.8930540000251
 30
0.0
 11
6688.8634309018444
 21
4132.3930540000247
 31
0.0
  0
LINE
  5
7B55
  8
1
 10
6608.8533512192662
 20
3572.3930540000852
 30
0.0
 11
6608.8533512192489
 21
3716.9286327384052
 31
0.0
  0
LINE
  5
7B56
  8
1
 10
6608.8533512192662
 20
3572.3930540000379
 30
0.0
 11
6402.3634309018607
 21
3572.3930540000151
 31
0.0
  0
LINE
  5
7B58
  8
1
 10
6562.3634309018444
 20
3727.3930540000329
 30
0.0
 11
6442.3634309018444
 21
3727.3930540000192
 31
0.0
  0
LINE
  5
7B59
  8
1
 10
6562.3634309018153
 20
3977.3930540000329
 30
0.0
 11
6442.3634309018144
 21
3977.3930540000192
 31
0.0
  0
LINE
  5
7B5A
  8
2
 10
6825.5634309018387
 20
3852.3930540000638
 30
0.0
 11
6402.3634309018425
 21
3852.3930540000151
 31
0.0
  0
LINE
  5
7B5B
  8
1
 10
6672.3634309018453
 20
3902.3930540000251
 30
0.0
 11
6672.3634309018425
 21
3802.393054000026
 31
0.0
  0
LINE
  5
7B5C
  8
1
 10
6502.3634309018444
 20
3894.8930540000251
 30
0.0
 11
6502.3634309018444
 21
3809.893054000026
 31
0.0
  0
LINE
  5
7B5D
  8
1
 10
6682.3634309018425
 20
3937.8930540000251
 30
0.0
 11
6682.3634309018444
 21
3766.893054000026
 31
0.0
  0
LINE
  5
7B5E
  8
1
 10
6502.3634309018425
 20
3809.893054000026
 30
0.0
 11
6672.3634309018453
 21
3809.893054000026
 31
0.0
  0
LINE
  5
7B61
  8
1
 10
6688.8634309018444
 20
3764.893054000026
 30
0.0
 11
6684.3634309018444
 21
3764.893054000026
 31
0.0
  0
ARC
  5
7B62
  8
1
 10
6684.3634309018444
 20
3766.893054000026
 30
0.0
 40
2.0
 50
180.0
 51
270.0
  0
LINE
  5
7B63
  8
1
 10
6672.3634309018425
 20
3802.393054000026
 30
0.0
 11
6682.3634309018425
 21
3802.393054000026
 31
0.0
  0
LINE
  5
7B64
  8
1
 10
6502.3634309018444
 20
3894.8930540000251
 30
0.0
 11
6672.3634309018453
 21
3894.8930540000251
 31
0.0
  0
LINE
  5
7B65
  8
1
 10
6689.2118059018449
 20
3939.893054000026
 30
0.0
 11
6684.3634309018444
 21
3939.8930540000251
 31
0.0
  0
ARC
  5
7B66
  8
1
 10
6684.3634309018444
 20
3937.8930540000251
 30
0.0
 40
2.0
 50
90.000000000000057
 51
180.0
  0
LINE
  5
7B67
  8
1
 10
6672.3634309018453
 20
3902.3930540000251
 30
0.0
 11
6682.3634309018444
 21
3902.3930540000251
 31
0.0
  0
LINE
  5
7B68
  8
1
 10
6592.363430901778
 20
4442.287053998929
 30
0.0
 11
6825.5634309017414
 21
4442.2870539989553
 31
0.0
  0
LINE
  5
7B69
  8
1
 10
6592.363430901798
 20
4262.287053998929
 30
0.0
 11
6822.3634309018062
 21
4192.2876329874616
 31
0.0
  0
LINE
  5
7B6A
  8
1
 10
6562.3634309017634
 20
4577.2870539989253
 30
0.0
 11
6825.5634309017178
 21
4577.2870539989553
 31
0.0
  0
LINE
  5
7B6B
  8
1
 10
6562.3634309017752
 20
4467.2870539989262
 30
0.0
 11
6825.5634309017369
 21
4467.2870539989553
 31
0.0
  0
LINE
  5
7B6C
  8
1
 10
6592.363430901778
 20
4442.287053998929
 30
0.0
 11
6592.363430901798
 21
4262.287053998929
 31
0.0
  0
LINE
  5
7B6D
  8
1
 10
6562.3634309018134
 20
4122.2870539989253
 30
0.0
 11
6442.3634309018144
 21
4122.2870539989117
 31
0.0
  0
LINE
  5
7B73
  8
1
 10
9024.5654309020792
 20
3502.5293996575838
 30
0.0
 11
8949.7346208739473
 21
3502.529399657577
 31
0.0
  0
LINE
  5
7B78
  8
1
 10
8945.7311667170798
 20
6217.2870539991964
 30
0.0
 11
6825.5634309014413
 21
6217.2870539989553
 31
0.0
  0
LINE
  5
7B79
  8
1
 10
6608.8533512191098
 20
5072.2870539989299
 30
0.0
 11
6402.363430901707
 21
5072.287053998908
 31
0.0
  0
LINE
  5
7B7A
  8
1
 10
6562.3634309017216
 20
4922.2870539989262
 30
0.0
 11
6442.3634309017234
 21
4922.2870539989117
 31
0.0
  0
LINE
  5
7B7B
  8
1
 10
6608.8533512191379
 20
4838.168034987897
 30
0.0
 11
6608.8533512191098
 21
5072.2870539989299
 31
0.0
  0
LINE
  5
7B7F
  8
1
 10
9148.764430901776
 20
4462.28705399922
 30
0.0
 11
9148.7644309017978
 21
4292.28705399922
 31
0.0
  0
LINE
  5
7B80
  8
1
 10
4795.317889928202
 20
10757.9417220337
 30
0.0
 11
4795.3178899289978
 21
8507.9417220336964
 31
0.0
  0
LINE
  5
7B81
  8
1
 10
2379.317889928227
 20
10692.94172203286
 30
0.0
 11
2379.3178899289769
 21
8572.9417220328669
 31
0.0
  0
LINE
  5
7B82
  8
1
 10
2379.317889928227
 20
10692.94172203286
 30
0.0
 11
4795.3178899282257
 21
10692.941722033691
 31
0.0
  0
LINE
  5
7B83
  8
1
 10
2379.3178899289751
 20
8572.9417220328687
 30
0.0
 11
4795.3178899289751
 21
8572.9417220336982
 31
0.0
  0
LINE
  5
7B84
  8
1
 10
4730.3178899282257
 20
10692.941722033671
 30
0.0
 11
4730.3178899289751
 21
8572.9417220336763
 31
0.0
  0
LINE
  5
7B85
  8
1
 10
4789.3178899282011
 20
10757.941722033691
 30
0.0
 11
4795.3178899282047
 21
10757.9417220337
 31
0.0
  0
LINE
  5
7B86
  8
1
 10
4789.3178899289978
 20
8507.9417220336945
 30
0.0
 11
4795.3178899289978
 21
8507.9417220336964
 31
0.0
  0
LINE
  5
7B87
  8
1
 10
4789.3178899282011
 20
10757.941722033691
 30
0.0
 11
4789.3178899289978
 21
8507.9417220336927
 31
0.0
  0
LINE
  5
7B88
  8
1
 10
4700.3178899282439
 20
10692.94172203366
 30
0.0
 11
4700.3178899282184
 21
10771.94172203366
 31
0.0
  0
LINE
  5
7B89
  8
1
 10
3805.3178899289769
 20
8572.9417220333544
 30
0.0
 11
3805.3178899290692
 21
8309.7471760354147
 31
0.0
  0
LINE
  5
7B8A
  8
1
 10
3695.317889928976
 20
8572.941722033318
 30
0.0
 11
3695.3178899290701
 21
8309.7471760353892
 31
0.0
  0
DIMENSION
  5
7B9E
  8
3
  2
*D1
 10
2800.3178899282002
 20
11273.422102952751
 30
0.0
 11
3759.1359804057138
 21
11273.422102952751
 31
0.0
 70
   128
 13
4700.3178899282184
 23
10771.94172203366
 33
0.0
 14
2800.3178899282002
 24
10771.941722033011
 34
0.0
 50
0.0000000000403677
1001
ACAD
1000
DSTYLE
1002
{
1070
   287
1070
     3
1070
   287
1070
     3
1070
    40
1040
50.0
1070
   143
1040
0.039
1070
   172
1070
     1
1070
   271
1070
     0
1070
   279
1070
     0
1070
   288
1070
     1
1002
}
  0
DIMENSION
  5
7BAA
  8
3
  2
*D2
 10
1400.3178899286941
 20
11273.422102951081
 30
0.0
 11
2100.3178899284471
 21
11398.42210295109
 31
0.0
 70
     0
 13
2800.3178899282002
 23
10771.941722033011
 33
0.0
 14
1400.3178899286941
 24
9371.9417220324594
 34
0.0
 50
0.0000000000403677
1001
ACAD
1000
DSTYLE
1002
{
1070
   287
1070
     4
1070
   287
1070
     4
1070
    40
1040
50.0
1070
    75
1070
     1
1070
   143
1040
0.039
1070
   172
1070
     1
1070
   271
1070
     0
1070
   279
1070
     1
1070
   288
1070
     1
1002
}
  0
DIMENSION
  5
7BB7
  8
3
  2
*D3
 10
1080.3968039076799
 20
8171.9417220324603
 30
0.0
 11
1080.396803907679
 21
8887.820524583165
 31
0.0
 70
   128
 13
1400.3178899286941
 23
9371.9417220324594
 33
0.0
 14
1400.3178899291049
 24
8171.9417220324603
 34
0.0
 50
270.00000000004042
1001
ACAD
1000
DSTYLE
1002
{
1070
   287
1070
     3
1070
   287
1070
     3
1070
    40
1040
50.0
1070
   143
1040
0.039
1070
   172
1070
     1
1070
   271
1070
     0
1070
   279
1070
     0
1070
   288
1070
     1
1002
}
  0
DIMENSION
  5
7BC4
  8
3
  2
*D4
 10
1400.3178899291049
 20
7813.5423507861988
 30
0.0
 11
3242.0125048469931
 21
7813.5423507861988
 31
0.0
 70
   128
 13
4700.316889929115
 23
8171.9417220336654
 33
0.0
 14
1400.3178899291049
 24
8171.9417220324603
 34
0.0
 50
0.0000000000403677
1001
ACAD
1000
DSTYLE
1002
{
1070
   287
1070
     3
1070
   287
1070
     3
1070
    40
1040
50.0
1070
   143
1040
0.039
1070
   172
1070
     1
1070
   271
1070
     0
1070
   279
1070
     0
1070
   288
1070
     1
1002
}
  0
DIMENSION
  5
7BD1
  8
3
  2
*D5
 10
5256.6662911837257
 20
8171.9417220336654
 30
0.0
 11
5256.6662911837248
 21
9634.4184690746315
 31
0.0
 70
   128
 13
4700.3178899282184
 23
10771.94172203366
 33
0.0
 14
4700.316889929115
 24
8171.9417220336654
 34
0.0
 50
270.00000000004042
1001
ACAD
1000
DSTYLE
1002
{
1070
   287
1070
     3
1070
   287
1070
     3
1070
    40
1040
50.0
1070
   143
1040
0.039
1070
   172
1070
     1
1070
   271
1070
     0
1070
   279
1070
     0
1070
   288
1070
     1
1002
}
  0
LINE
  5
7CB1
  8
1
 10
1400.317889930524
 20
3352.393053998042
 30
0.0
 11
1400.317889930476
 21
3502.3930539980411
 31
0.0
  0
DIMENSION
  5
7CBF
  8
3
  2
*D6
 10
3750.3178899295572
 20
6631.1564418716489
 30
0.0
 11
4325.0457857612673
 21
6631.1564418716489
 31
0.0
 70
   128
 13
4795.3168899295697
 23
6282.2870539992082
 33
0.0
 14
3750.3178899295572
 24
6322.2870539988498
 34
0.0
 50
0.0000000000403677
1001
ACAD
1000
DSTYLE
1002
{
1070
   287
1070
     3
1070
   287
1070
     3
1070
    40
1040
50.0
1070
   143
1040
0.039
1070
   172
1070
     1
1070
   271
1070
     0
1070
   279
1070
     0
1070
   288
1070
     1
1002
}
  0
DIMENSION
  5
7CCB
  8
3
  2
*D7
 10
2379.3178899301338
 20
6631.1564418702774
 30
0.0
 11
3064.8178899298459
 21
6756.1564418702774
 31
0.0
 70
     0
 13
3750.3178899295572
 23
6322.2870539988498
 33
0.0
 14
2379.3178899301338
 24
4638.2870539978403
 34
0.0
 50
0.0000000000403677
1001
ACAD
1000
DSTYLE
1002
{
1070
   287
1070
     4
1070
   287
1070
     4
1070
    40
1040
50.0
1070
    75
1070
     1
1070
   143
1040
0.039
1070
   172
1070
     1
1070
   271
1070
     0
1070
   279
1070
     1
1070
   288
1070
     1
1002
}
  0
DIMENSION
  5
7CD8
  8
3
  2
*D8
 10
5069.1017121999548
 20
4567.2870539992082
 30
0.0
 11
5069.1017121999548
 21
5407.7709925745057
 31
0.0
 70
   128
 13
4795.3168899295906
 23
6217.2870539992082
 33
0.0
 14
4795.3168899301572
 24
4567.2870539992082
 34
0.0
 50
270.00000000004042
1001
ACAD
1000
DSTYLE
1002
{
1070
   287
1070
     3
1070
   287
1070
     3
1070
    40
1040
50.0
1070
   143
1040
0.039
1070
   172
1070
     1
1070
   271
1070
     0
1070
   279
1070
     0
1070
   288
1070
     1
1002
}
  0
DIMENSION
  5
7CF2
  8
3
  2
*D9
 10
5351.6545947910954
 20
4522.28705399923
 30
0.0
 11
5351.6545947910927
 21
5407.7709925747049
 31
0.0
 70
   128
 13
4795.3168899295906
 23
6217.2870539992082
 33
0.0
 14
4857.3642733578272
 24
4522.28705399923
 34
0.0
 50
270.00000000004042
1001
ACAD
1000
DSTYLE
1002
{
1070
   287
1070
     3
1070
   287
1070
     3
1070
    40
1040
50.0
1070
   143
1040
0.039
1070
   172
1070
     1
1070
   271
1070
     0
1070
   279
1070
     0
1070
   288
1070
     1
1002
}
  0
DIMENSION
  5
7CFE
  8
3
  2
*D10
 10
5351.6545947925424
 20
3352.3930539991752
 30
0.0
 11
5226.6545947925424
 21
3937.3400539992031
 31
0.0
 70
     0
 13
4857.3642733578272
 23
4522.28705399923
 33
0.0
 14
4700.3178899305258
 24
3352.3930539991752
 34
0.0
 50
270.00000000004042
1001
ACAD
1000
DSTYLE
1002
{
1070
   287
1070
     4
1070
   287
1070
     4
1070
    40
1040
50.0
1070
    75
1070
     1
1070
   143
1040
0.039
1070
   172
1070
     1
1070
   271
1070
     0
1070
   279
1070
     1
1070
   288
1070
     1
1002
}
  0
LINE
  5
7D6C
  8
1
 10
6825.5634309018969
 20
3502.2870539989558
 30
0.0
 11
6825.5634309014449
 21
6217.2870539989553
 31
0.0
  0
DIMENSION
  5
7DAB
  8
3
  2
*D11
 10
8945.7311667170798
 20
6521.5538473185734
 30
0.0
 11
7885.7656599216143
 21
6521.5538473185734
 31
0.0
 70
   128
 13
6825.5634309014413
 23
6217.2870539989553
 33
0.0
 14
8945.7311667170798
 24
6217.2870539991964
 34
0.0
1001
ACAD
1000
DSTYLE
1002
{
1070
   287
1070
     3
1070
   287
1070
     3
1070
    40
1040
50.0
1070
   143
1040
0.039
1070
   172
1070
     1
1070
   271
1070
     0
1070
   279
1070
     0
1070
   288
1070
     1
1002
}
  0
DIMENSION
  5
7DB8
  8
3
  2
*D12
 10
7885.5579768992557
 20
6876.6251450303307
 30
0.0
 11
8381.9865483278263
 21
6876.6251450303307
 31
0.0
 70
   128
  1
(1300)
 13
9148.764430901776
 23
4462.28705399922
 33
0.0
 14
7885.5579768992557
 24
6761.6177036878453
 34
0.0
1001
ACAD
1000
DSTYLE
1002
{
1070
   287
1070
     3
1070
   287
1070
     3
1070
    40
1040
50.0
1070
   143
1040
0.039
1070
   172
1070
     1
1070
   271
1070
     0
1070
   279
1070
     0
1070
   288
1070
     1
1002
}
  0
DIMENSION
  5
7DC4
  8
3
  2
*D13
 10
6402.363430901707
 20
6876.6251450303307
 30
0.0
 11
7143.9607039004813
 21
7126.6251450303307
 31
0.0
 70
     0
  1
MAX\P1580
 13
7885.5579768992557
 23
6761.6177036878453
 33
0.0
 14
6402.363430901707
 24
5072.287053998908
 34
0.0
1001
ACAD
1000
DSTYLE
1002
{
1070
   287
1070
     4
1070
   287
1070
     4
1070
    40
1040
50.0
1070
    75
1070
     1
1070
   143
1040
0.039
1070
   172
1070
     1
1070
   271
1070
     0
1070
   279
1070
     1
1070
   288
1070
     1
1002
}
  0
DIMENSION
  5
7DFC
  8
3
  2
*D14
 10
9466.2625062360476
 20
3722.2870539991982
 30
0.0
 11
9466.2625062360476
 21
4485.5266425740274
 31
0.0
 70
   128
 13
8957.7644309016814
 23
5322.2870539991982
 33
0.0
 14
8957.7644309018615
 24
3722.2870539991982
 34
0.0
 50
90.0
1001
ACAD
1000
DSTYLE
1002
{
1070
   287
1070
     3
1070
   287
1070
     3
1070
     3
1000
φ<>
1070
    40
1040
50.0
1070
   143
1040
0.039
1070
   172
1070
     1
1070
   271
1070
     0
1070
   279
1070
     0
1070
   288
1070
     1
1002
}
  0
LINE
  5
7E08
  8
1
 10
8945.7311667170798
 20
6217.2870539991964
 30
0.0
 11
6825.5634309017178
 21
4567.2870539989553
 31
0.0
  0
LINE
  5
7E09
  8
1
 10
6825.5634309014413
 20
6217.2870539989553
 30
0.0
 11
8946.2197833382343
 21
4567.2870539991964
 31
0.0
  0
DIMENSION
  5
7E17
  8
3
  2
*D15
 10
1400.3178899304769
 20
6941.7081697644899
 30
0.0
 11
2977.2684658409089
 21
6941.7081697644899
 31
0.0
 70
   128
 13
4795.3168899295697
 23
6282.2870539992082
 33
0.0
 14
1400.317889930476
 24
3502.3930539980411
 34
0.0
 50
0.0000000000403677
1001
ACAD
1000
DSTYLE
1002
{
1070
   287
1070
     3
1070
   287
1070
     3
1070
    40
1040
50.0
1070
   143
1040
0.039
1070
   172
1070
     1
1070
   271
1070
     0
1070
   279
1070
     0
1070
   288
1070
     1
1002
}
  0
LINE
  5
7EAD
  8
1
 10
6424.5579768998732
 20
3502.2870539989108
 30
0.0
 11
6424.5579768998987
 21
3352.2870539989099
 31
0.0
  0
LINE
  5
7EAE
  8
1
 10
9024.5579768998723
 20
3502.2870539992059
 30
0.0
 11
9024.5579768999032
 21
3352.287053999205
 31
0.0
  0
LINE
  5
7EAF
  8
1
 10
9024.5579768998996
 20
3352.287053999205
 30
0.0
 11
6424.5579768999014
 21
3352.2870539989099
 31
0.0
  0
LINE
  5
7EB0
  8
1
 10
9024.5579768998723
 20
3502.2870539992059
 30
0.0
 11
6424.5579768998832
 21
3502.2870539989108
 31
0.0
  0
LINE
  5
7EE0
  8
4
 10
9250.0
 20
1989.2179510540079
 30
0.0
 11
9250.0
 21
989.21795105400827
 31
0.0
  0
LINE
  5
7EE1
  8
4
 10
5750.0
 20
1989.2179510540079
 30
0.0
 11
5750.0
 21
989.21795105400827
 31
0.0
  0
LINE
  5
7EE2
  8
4
 10
3250.0
 20
1989.2179510540079
 30
0.0
 11
3250.0
 21
989.21795105400827
 31
0.0
  0
LINE
  5
7EE5
  8
4
 10
3250.0
 20
989.21795105400815
 30
0.0
 11
9250.0
 21
989.21795105400815
 31
0.0
  0
LINE
  5
7EE6
  8
4
 10
3250.0
 20
1489.2179510540079
 30
0.0
 11
9250.0
 21
1489.2179510540079
 31
0.0
  0
TEXT
  5
7EE7
  8
4
 10
3442.5104042345079
 20
1646.9330803870721
 30
0.0
 40
250.0
  1
機器名称
  0
TEXT
  5
7EE8
  8
4
 10
3431.2905301239871
 20
1097.443734714062
 30
0.0
 40
250.0
  1
機器型番
  0
TEXT
  5
7EE9
  8
4
 10
5898.2903601445887
 20
1610.258914744466
 30
0.0
 40
212.5
  1
ミツヤ多翼送風機
  0
TEXT
  5
7EEA
  8
4
 10
5933.2724779274031
 20
1075.015872453725
 30
0.0
 40
250.0
  1
MF#10-5
  0
TEXT
  5
7EEC
  8
4
 10
3999.827685028838
 20
11917.14420666257
 30
0.0
 40
270.0
  1
床置ベット
  0
TEXT
  5
7EED
  8
4
 10
1493.4877664224621
 20
12669.40488099649
 30
0.0
 40
360.0
  1
遠心式両吸込両持多翼ファン
  0
LINE
  5
7EEE
  8
4
 10
1250.0
 20
12347.043771324021
 30
0.0
 11
9250.0
 21
12347.043771324021
 31
0.0
  0
LINE
  5
7EEF
  8
4
 10
1250.0
 20
13347.043771324021
 30
0.0
 11
9250.0
 21
13347.043771324021
 31
0.0
  0
LINE
  5
7EF0
  8
4
 10
3250.0
 20
1989.2179510540079
 30
0.0
 11
9250.0
 21
1989.2179510540079
 31
0.0
  0
LINE
  5
7EF1
  8
4
 10
1250.0
 20
13347.043771324021
 30
0.0
 11
1250.0
 21
12347.043771324021
 31
0.0
  0
TEXT
  5
7EF2
  8
4
 10
1820.533523815327
 20
11911.59738773171
 30
0.0
 40
270.0
  1
右回転右横向
  0
TEXT
  5
7EF3
  8
4
 10
7344.8477962464494
 20
13530.30540747654
 30
0.0
 40
280.0
  1
No.
  0
TEXT
  5
7EF4
  8
4
 10
6556.4803130000646
 20
11917.14420666257
 30
0.0
 40
270.0
  1
縮尺：1/50
  0
LINE
  5
7EF5
  8
4
 10
9250.0
 20
13347.043771324021
 30
0.0
 11
9250.0
 21
12347.043771324021
 31
0.0
  0
LINE
  5
7EF6
  8
4
 10
10500.0
 20
14750.0
 30
0.0
 11
10500.0
 21
14750.0
 31
0.0
  0
LINE
  5
7EF7
  8
4
 10
7203.0871117993229
 20
13406.317915627
 30
0.0
 11
7203.0871117993229
 21
13933.26130774876
 31
0.0
  0
LINE
  5
7EF8
  8
4
 10
7203.0871117993229
 20
13933.26130774876
 30
0.0
 11
9250.0
 21
13933.26130774876
 31
0.0
  0
LINE
  5
7EF9
  8
4
 10
9250.0
 20
13933.26130774876
 30
0.0
 11
9250.0
 21
13406.317915627
 31
0.0
  0
LINE
  5
7EFA
  8
4
 10
9250.0
 20
13406.317915627
 30
0.0
 11
7203.0871117993229
 21
13406.317915627
 31
0.0
  0
LINE
  5
7EFB
  8
4
 10
0.0
 20
0.0
 30
0.0
 11
0.0
 21
14750.0
 31
0.0
  0
LINE
  5
7EFC
  8
4
 10
0.0
 20
14750.0
 30
0.0
 11
10500.0
 21
14750.0
 31
0.0
  0
LINE
  5
7EFD
  8
4
 10
10500.0
 20
14750.0
 30
0.0
 11
10500.0
 21
0.0
 31
0.0
  0
LINE
  5
7EFE
  8
4
 10
10500.0
 20
0.0
 30
0.0
 11
0.0
 21
0.0
 31
0.0
  0
LINE
  5
7FD5
  8
1
 10
8945.5579768993557
 20
6217.2870539991964
 30
0.0
 11
8945.5579768998923
 21
3502.2870539991968
 31
0.0
  0
DIMENSION
  5
80B9
  8
3
  2
*D16
 10
3750.3178899305258
 20
3035.5231864126472
 30
0.0
 11
2575.3178899305249
 21
3160.5231864126472
 31
0.0
 70
     0
 13
1400.317889930524
 23
3352.393053998042
 33
0.0
 14
3750.3178899305258
 24
3352.3930539988501
 34
0.0
1001
ACAD
1000
DSTYLE
1002
{
1070
   172
1070
     1
1070
    40
1040
50.0
1070
   271
1070
     0
1070
   143
1040
0.039
1002
}
  0
DIMENSION
  5
80C6
  8
3
  2
*D17
 10
4700.3178899305258
 20
3035.5231864126472
 30
0.0
 11
4225.3178899305258
 21
3160.5231864126472
 31
0.0
 70
     0
 13
3750.3178899305258
 23
3352.3930539988501
 33
0.0
 14
4700.3178899305258
 24
3352.3930539991752
 34
0.0
1001
ACAD
1000
DSTYLE
1002
{
1070
   172
1070
     1
1070
    40
1040
50.0
1070
   271
1070
     0
1070
   143
1040
0.039
1002
}
  0
DIMENSION
  5
80D3
  8
3
  2
*D18
 10
7885.5579768999169
 20
3035.5231864126472
 30
0.0
 11
7155.0579768999078
 21
3160.5231864126472
 31
0.0
 70
     0
 13
6424.5579768998987
 23
3352.2870539989099
 33
0.0
 14
7885.5579768999169
 24
3352.2870539990759
 34
0.0
1001
ACAD
1000
DSTYLE
1002
{
1070
   172
1070
     1
1070
    40
1040
50.0
1070
   271
1070
     0
1070
   143
1040
0.039
1002
}
  0
DIMENSION
  5
80E0
  8
3
  2
*D19
 10
9024.5579768998996
 20
3035.5231864126472
 30
0.0
 11
8455.0579768999087
 21
3160.5231864126472
 31
0.0
 70
     0
 13
7885.5579768999169
 23
3352.2870539990759
 33
0.0
 14
9024.5579768998996
 24
3352.287053999205
 34
0.0
1001
ACAD
1000
DSTYLE
1002
{
1070
   172
1070
     1
1070
    40
1040
50.0
1070
   271
1070
     0
1070
   143
1040
0.039
1002
}
  0
DIMENSION
  5
80ED
  8
3
  2
*D20
 10
5663.3210130838916
 20
6217.2870539992082
 30
0.0
 11
5538.3210130838916
 21
4784.8400539991917
 31
0.0
 70
     0
 13
4700.3178899305258
 23
3352.3930539991752
 33
0.0
 14
4820.3168899295906
 24
6217.2870539992082
 34
0.0
 50
90.0
1001
ACAD
1000
DSTYLE
1002
{
1070
   172
1070
     1
1070
    40
1040
50.0
1070
   271
1070
     0
1070
   143
1040
0.039
1002
}
  0
ENDSEC
  0
EOF
