  0
SECTION
  2
HEADER
  9
$ACADVER
  1
AC1009
  9
$INSBASE
 10
0.0
 20
0.0
 30
0.0
  9
$EXTMIN
 10
0.0
 20
0.0
 30
0.0
  9
$EXTMAX
 10
10500.0
 20
14750.0
 30
0.0
  9
$LIMMIN
 10
0.0
 20
0.0
  9
$LIMMAX
 10
297.0
 20
210.0
  9
$ORTHOMODE
 70
     0
  9
$REGENMODE
 70
     1
  9
$FILLMODE
 70
     0
  9
$QTEXTMODE
 70
     0
  9
$MIRRTEXT
 70
     1
  9
$DRAGMODE
 70
     2
  9
$LTSCALE
 40
100.0
  9
$OSMODE
 70
    37
  9
$ATTMODE
 70
     1
  9
$TEXTSIZE
 40
180.0
  9
$TRACEWID
 40
0.05
  9
$TEXTSTYLE
  7
STANDARD
  9
$CLAYER
  8
3
  9
$CELTYPE
  6
BYLAYER
  9
$CECOLOR
 62
   256
  9
$DIMSCALE
 40
50.0
  9
$DIMASZ
 40
2.0
  9
$DIMEXO
 40
0.5
  9
$DIMDLI
 40
10.0
  9
$DIMRND
 40
0.0
  9
$DIMDLE
 40
0.0
  9
$DIMEXE
 40
1.0
  9
$DIMTP
 40
1.0
  9
$DIMTM
 40
1.0
  9
$DIMTXT
 40
3.0
  9
$DIMCEN
 40
0.0
  9
$DIMTSZ
 40
0.0
  9
$DIMTOL
 70
     0
  9
$DIMLIM
 70
     0
  9
$DIMTIH
 70
     0
  9
$DIMTOH
 70
     0
  9
$DIMSE1
 70
     0
  9
$DIMSE2
 70
     0
  9
$DIMTAD
 70
     1
  9
$DIMZIN
 70
     8
  9
$DIMBLK
  1

  9
$DIMASO
 70
     1
  9
$DIMSHO
 70
     1
  9
$DIMPOST
  1

  9
$DIMAPOST
  1

  9
$DIMALT
 70
     0
  9
$DIMALTD
 70
     2
  9
$DIMALTF
 40
0.039
  9
$DIMLFAC
 40
1.0
  9
$DIMTOFL
 70
     1
  9
$DIMTVP
 40
0.0
  9
$DIMTIX
 70
     0
  9
$DIMSOXD
 70
     0
  9
$DIMSAH
 70
     1
  9
$DIMBLK1
  1
OPEN
  9
$DIMBLK2
  1
OPEN
  9
$DIMSTYLE
  2
IGA
  9
$DIMCLRD
 70
     0
  9
$DIMCLRE
 70
     0
  9
$DIMCLRT
 70
     0
  9
$DIMTFAC
 40
10.0
  9
$DIMGAP
 40
1.0
  9
$LUNITS
 70
     2
  9
$LUPREC
 70
     3
  9
$SKETCHINC
 40
0.1
  9
$FILLETRAD
 40
50.0
  9
$AUNITS
 70
     0
  9
$AUPREC
 70
     0
  9
$MENU
  1
acad
  9
$ELEVATION
 40
0.0
  9
$PELEVATION
 40
0.0
  9
$THICKNESS
 40
0.0
  9
$LIMCHECK
 70
     0
  9
$BLIPMODE
 70
     0
  9
$CHAMFERA
 40
0.0
  9
$CHAMFERB
 40
0.0
  9
$SKPOLY
 70
     0
  9
$TDCREATE
 40
2452326.4454812501
  9
$TDUPDATE
 40
2454953.8300162149
  9
$TDINDWG
 40
0.0712064815
  9
$TDUSRTIMER
 40
0.0712064815
  9
$USRTIMER
 70
     1
  9
$ANGBASE
 50
0.0
  9
$ANGDIR
 70
     0
  9
$PDMODE
 70
     0
  9
$PDSIZE
 40
0.0
  9
$PLINEWID
 40
0.0
  9
$COORDS
 70
     1
  9
$SPLFRAME
 70
     0
  9
$SPLINETYPE
 70
     6
  9
$SPLINESEGS
 70
     8
  9
$ATTDIA
 70
     0
  9
$ATTREQ
 70
     1
  9
$HANDLING
 70
 10241
  9
$HANDSEED
  5
837A
  9
$SURFTAB1
 70
     6
  9
$SURFTAB2
 70
     6
  9
$SURFTYPE
 70
     6
  9
$SURFU
 70
     6
  9
$SURFV
 70
     6
  9
$UCSNAME
  2

  9
$UCSORG
 10
0.0
 20
0.0
 30
0.0
  9
$UCSXDIR
 10
1.0
 20
0.0
 30
0.0
  9
$UCSYDIR
 10
0.0
 20
1.0
 30
0.0
  9
$PUCSNAME
  2

  9
$PUCSORG
 10
0.0
 20
0.0
 30
0.0
  9
$PUCSXDIR
 10
1.0
 20
0.0
 30
0.0
  9
$PUCSYDIR
 10
0.0
 20
1.0
 30
0.0
  9
$USERI1
 70
     0
  9
$USERI2
 70
     0
  9
$USERI3
 70
     0
  9
$USERI4
 70
     0
  9
$USERI5
 70
     0
  9
$USERR1
 40
0.0
  9
$USERR2
 40
0.0
  9
$USERR3
 40
0.0
  9
$USERR4
 40
0.0
  9
$USERR5
 40
0.0
  9
$WORLDVIEW
 70
     1
  9
$SHADEDGE
 70
     3
  9
$SHADEDIF
 70
    70
  9
$TILEMODE
 70
     1
  9
$MAXACTVP
 70
    16
  9
$PLIMCHECK
 70
     0
  9
$PEXTMIN
 10
1.0000000000000000E+020
 20
1.0000000000000000E+020
 30
1.0000000000000000E+020
  9
$PEXTMAX
 10
-1.0000000000000000E+020
 20
-1.0000000000000000E+020
 30
-1.0000000000000000E+020
  9
$PLIMMIN
 10
0.0
 20
0.0
  9
$PLIMMAX
 10
12.0
 20
9.0
  9
$UNITMODE
 70
     0
  9
$VISRETAIN
 70
     0
  9
$PLINEGEN
 70
     0
  9
$PSLTSCALE
 70
     1
  0
ENDSEC
  0
SECTION
  2
TABLES
  0
TABLE
  2
VPORT
 70
     2
  0
VPORT
  2
*ACTIVE
 70
     0
 10
0.0
 20
0.0
 11
1.0
 21
1.0
 12
15069.956616052061
 22
10012.49454014673
 13
0.0
 23
0.0
 14
10.0
 24
10.0
 15
10.0
 25
10.0
 16
0.0
 26
0.0
 36
1.0
 17
0.0
 27
0.0
 37
0.0
 40
20024.989080293471
 41
1.5051150895140659
 42
50.0
 43
0.0
 44
0.0
 50
0.0
 51
0.0
 71
     0
 72
   100
 73
     1
 74
     0
 75
     0
 76
     0
 77
     0
 78
     0
  0
ENDTAB
  0
TABLE
  2
LTYPE
 70
     2
  0
LTYPE
  2
CONTINUOUS
 70
     0
  3
Solid line
 72
    65
 73
     0
 40
0.0
  0
LTYPE
  2
CENTER
 70
     0
  3
____ _ ____ _ ____ _ ____ _ ____ _ ____ _ ____ 
 72
    65
 73
     4
 40
2.0
 49
1.25
 49
-0.25
 49
0.25
 49
-0.25
  0
ENDTAB
  0
TABLE
  2
LAYER
 70
     6
  0
LAYER
  2
0
 70
     0
 62
     7
  6
CONTINUOUS
  0
LAYER
  2
3
 70
     0
 62
     2
  6
CONTINUOUS
  0
LAYER
  2
2
 70
     0
 62
     3
  6
CENTER
  0
LAYER
  2
1
 70
     0
 62
     4
  6
CONTINUOUS
  0
LAYER
  2
4
 70
     0
 62
     7
  6
CONTINUOUS
  0
LAYER
  2
DEFPOINTS
 70
     0
 62
     7
  6
CONTINUOUS
  0
ENDTAB
  0
TABLE
  2
STYLE
 70
     1
  0
STYLE
  2
STANDARD
 70
     0
 40
0.0
 41
1.0
 50
0.0
 71
     0
 42
180.0
  3
simplex.shx
  4
extfont.shx
  0
ENDTAB
  0
TABLE
  2
VIEW
 70
     0
  0
ENDTAB
  0
TABLE
  2
UCS
 70
     0
  0
ENDTAB
  0
TABLE
  2
APPID
 70
     1
  0
APPID
  2
ACAD
 70
     0
  0
ENDTAB
  0
TABLE
  2
DIMSTYLE
 70
     1
  0
DIMSTYLE
  2
IGA
 70
     0
  3

  4

  5

  6
OPEN
  7
OPEN
 40
2.0
 41
2.0
 42
0.5
 43
10.0
 44
1.0
 45
0.0
 46
0.0
 47
1.0
 48
1.0
140
3.0
141
0.0
142
0.0
143
0.03937
144
1.0
145
0.0
146
10.0
147
1.0
 71
     0
 72
     0
 73
     0
 74
     0
 75
     0
 76
     0
 77
     1
 78
     8
170
     0
171
     2
172
     0
173
     1
174
     0
175
     0
176
     0
177
     0
178
     0
  0
ENDTAB
  0
ENDSEC
  0
SECTION
  2
BLOCKS
  0
BLOCK
  8
0
  2
$MODEL_SPACE
 70
     0
 10
0.0
 20
0.0
 30
0.0
  3
$MODEL_SPACE
  1

  0
ENDBLK
  5
1B
  8
0
  0
BLOCK
 67
     1
  8
0
  2
$PAPER_SPACE
 70
     0
 10
0.0
 20
0.0
 30
0.0
  3
$PAPER_SPACE
  1

  0
ENDBLK
  5
18
 67
     1
  8
0
  0
BLOCK
  8
0
  2
_OPEN
 70
     0
 10
0.0
 20
0.0
 30
0.0
  3
_OPEN
  1

  0
LINE
  5
7B8E
  8
0
  6
BYBLOCK
 62
     0
 10
-1.0
 20
0.1666666666666666
 30
0.0
 11
0.0
 21
0.0
 31
0.0
  0
LINE
  5
7B8F
  8
0
  6
BYBLOCK
 62
     0
 10
0.0
 20
0.0
 30
0.0
 11
-1.0
 21
-0.1666666666666666
 31
0.0
  0
LINE
  5
7B90
  8
0
  6
BYBLOCK
 62
     0
 10
0.0
 20
0.0
 30
0.0
 11
-1.0
 21
0.0
 31
0.0
  0
ENDBLK
  5
7B91
  8
0
  0
BLOCK
  8
0
  2
*D1
 70
     1
 10
0.0
 20
0.0
 30
0.0
  3
*D1
  1

  0
LINE
  5
82D8
  8
3
 62
     0
 10
4535.7826201966573
 20
10796.94172203366
 30
0.0
 11
4535.7826201966573
 21
11323.422102952751
 31
0.0
  0
LINE
  5
82D9
  8
3
 62
     0
 10
2635.7826201966391
 20
10796.941722033011
 30
0.0
 11
2635.7826201966391
 21
11323.422102952751
 31
0.0
  0
LINE
  5
82DA
  8
3
 62
     0
 10
4435.7826201966573
 20
11273.422102952751
 30
0.0
 11
2735.7826201966391
 21
11273.422102952751
 31
0.0
  0
INSERT
  5
82DB
  8
3
 62
     0
  2
_OPEN
 10
4535.7826201966573
 20
11273.422102952751
 30
0.0
 41
100.0
 42
100.0
 43
100.0
  0
INSERT
  5
82DC
  8
3
 62
     0
  2
_OPEN
 10
2635.7826201966391
 20
11273.422102952751
 30
0.0
 41
100.0
 42
100.0
 43
100.0
 50
180.0
  0
TEXT
  8
3
  40
150
  5
8369
  62
0
  72
0
  71
0
 10
3294.60
 20
11132.9
 30
0.000000
  1
1900
  0
POINT
  5
82DE
  8
DEFPOINTS
 62
     0
 10
4535.7826201966573
 20
10771.94172203366
 30
0.0
  0
POINT
  5
82DF
  8
DEFPOINTS
 62
     0
 10
2635.7826201966391
 20
10771.941722033011
 30
0.0
  0
POINT
  5
82E0
  8
DEFPOINTS
 62
     0
 10
2635.7826201966391
 20
11273.422102952751
 30
0.0
  0
ENDBLK
  5
80F6
  8
0
  0
BLOCK
  8
0
  2
*D2
 70
     1
 10
0.0
 20
0.0
 30
0.0
  3
*D2
  1

  0
LINE
  5
82E1
  8
3
 62
     0
 10
1235.7826201971329
 20
9396.9417220324613
 30
0.0
 11
1235.7826201971329
 21
11323.42210295109
 31
0.0
  0
LINE
  5
82E2
  8
3
 62
     0
 10
2535.7826201966391
 20
11273.42210295109
 30
0.0
 11
1335.7826201971329
 21
11273.42210295109
 31
0.0
  0
INSERT
  5
82E3
  8
3
 62
     0
  2
_OPEN
 10
2635.7826201966391
 20
11273.42210295109
 30
0.0
 41
100.0
 42
100.0
 43
100.0
  0
INSERT
  5
82E4
  8
3
 62
     0
  2
_OPEN
 10
1235.7826201971329
 20
11273.42210295109
 30
0.0
 41
100.0
 42
100.0
 43
100.0
 50
180.0
  0
TEXT
  8
3
  40
150
  5
836A
  62
0
  72
0
  71
0
 10
1635.78
 20
11132.9
 30
0.000000
  1
1400
  0
POINT
  5
82E6
  8
DEFPOINTS
 62
     0
 10
2635.7826201966391
 20
10771.941722033011
 30
0.0
  0
POINT
  5
82E7
  8
DEFPOINTS
 62
     0
 10
1235.7826201971329
 20
9371.9417220324613
 30
0.0
  0
POINT
  5
82E8
  8
DEFPOINTS
 62
     0
 10
1235.7826201971329
 20
11273.42210295109
 30
0.0
  0
ENDBLK
  5
8116
  8
0
  0
BLOCK
  8
0
  2
*D3
 70
     1
 10
0.0
 20
0.0
 30
0.0
  3
*D3
  1

  0
LINE
  5
82E9
  8
3
 62
     0
 10
1210.7826201971329
 20
9371.9417220324613
 30
0.0
 11
865.86153417612115
 21
9371.9417220324613
 31
0.0
  0
LINE
  5
82EA
  8
3
 62
     0
 10
1210.782620197544
 20
8171.9417220324603
 30
0.0
 11
865.86153417612081
 21
8171.9417220324603
 31
0.0
  0
LINE
  5
82EB
  8
3
 62
     0
 10
915.86153417612115
 20
9271.9417220324613
 30
0.0
 11
915.86153417612081
 21
8271.9417220324613
 31
0.0
  0
INSERT
  5
82EC
  8
3
 62
     0
  2
_OPEN
 10
915.86153417612115
 20
9371.9417220324613
 30
0.0
 41
100.0
 42
100.0
 43
100.0
 50
90.0
  0
INSERT
  5
82ED
  8
3
 62
     0
  2
_OPEN
 10
915.86153417612081
 20
8171.9417220324603
 30
0.0
 41
100.0
 42
100.0
 43
100.0
 50
270.0
  0
TEXT
  8
3
  40
150
  5
836B
  62
0
  72
0
  71
0
 10
490.862
 20
8622.32
 30
0.000000
  1
1200
  0
POINT
  5
82EF
  8
DEFPOINTS
 62
     0
 10
1235.7826201971329
 20
9371.9417220324613
 30
0.0
  0
POINT
  5
82F0
  8
DEFPOINTS
 62
     0
 10
1235.782620197544
 20
8171.9417220324603
 30
0.0
  0
POINT
  5
82F1
  8
DEFPOINTS
 62
     0
 10
915.86153417612081
 20
8171.9417220324603
 30
0.0
  0
ENDBLK
  5
8121
  8
0
  0
BLOCK
  8
0
  2
*D4
 70
     1
 10
0.0
 20
0.0
 30
0.0
  3
*D4
  1

  0
LINE
  5
82F2
  8
3
 62
     0
 10
4535.7816201975538
 20
8146.9417220336636
 30
0.0
 11
4535.7816201975538
 21
7763.5423507861988
 31
0.0
  0
LINE
  5
82F3
  8
3
 62
     0
 10
1235.782620197544
 20
8146.9417220324603
 30
0.0
 11
1235.782620197544
 21
7763.5423507861988
 31
0.0
  0
LINE
  5
82F4
  8
3
 62
     0
 10
4435.7816201975547
 20
7813.5423507861988
 30
0.0
 11
1335.782620197544
 21
7813.5423507861988
 31
0.0
  0
INSERT
  5
82F5
  8
3
 62
     0
  2
_OPEN
 10
4535.7816201975538
 20
7813.5423507861988
 30
0.0
 41
100.0
 42
100.0
 43
100.0
  0
INSERT
  5
82F6
  8
3
 62
     0
  2
_OPEN
 10
1235.782620197544
 20
7813.5423507861988
 30
0.0
 41
100.0
 42
100.0
 43
100.0
 50
180.0
  0
TEXT
  8
3
  40
150
  5
836C
  62
0
  72
0
  71
0
 10
2777.48
 20
7673.04
 30
0.000000
  1
3300
  0
POINT
  5
82F8
  8
DEFPOINTS
 62
     0
 10
4535.7816201975538
 20
8171.9417220336654
 30
0.0
  0
POINT
  5
82F9
  8
DEFPOINTS
 62
     0
 10
1235.782620197544
 20
8171.9417220324603
 30
0.0
  0
POINT
  5
82FA
  8
DEFPOINTS
 62
     0
 10
1235.782620197544
 20
7813.5423507861988
 30
0.0
  0
ENDBLK
  5
8101
  8
0
  0
BLOCK
  8
0
  2
*D5
 70
     1
 10
0.0
 20
0.0
 30
0.0
  3
*D5
  1

  0
LINE
  5
82FB
  8
3
 62
     0
 10
4560.7826201966573
 20
10771.94172203366
 30
0.0
 11
5211.5631652696402
 21
10771.94172203366
 31
0.0
  0
LINE
  5
82FC
  8
3
 62
     0
 10
4560.7816201975547
 20
8171.9417220336654
 30
0.0
 11
5211.5631652696393
 21
8171.9417220336654
 31
0.0
  0
LINE
  5
82FD
  8
3
 62
     0
 10
5161.5631652696402
 20
10671.94172203366
 30
0.0
 11
5161.5631652696393
 21
8271.9417220336636
 31
0.0
  0
INSERT
  5
82FE
  8
3
 62
     0
  2
_OPEN
 10
5161.5631652696402
 20
10771.94172203366
 30
0.0
 41
100.0
 42
100.0
 43
100.0
 50
90.0
  0
INSERT
  5
82FF
  8
3
 62
     0
  2
_OPEN
 10
5161.5631652696393
 20
8171.9417220336654
 30
0.0
 41
100.0
 42
100.0
 43
100.0
 50
270.0
  0
TEXT
  8
3
  40
150
  5
836D
  62
0
  72
0
  71
0
 10
4736.56
 20
9368.92
 30
0.000000
  1
2600
  0
POINT
  5
8301
  8
DEFPOINTS
 62
     0
 10
4535.7826201966573
 20
10771.94172203366
 30
0.0
  0
POINT
  5
8302
  8
DEFPOINTS
 62
     0
 10
4535.7816201975538
 20
8171.9417220336654
 30
0.0
  0
POINT
  5
8303
  8
DEFPOINTS
 62
     0
 10
5161.5631652696393
 20
8171.9417220336654
 30
0.0
  0
ENDBLK
  5
812C
  8
0
  0
BLOCK
  8
0
  2
*D6
 70
     1
 10
0.0
 20
0.0
 30
0.0
  3
*D6
  1

  0
LINE
  5
8304
  8
3
 62
     0
 10
4630.7816201980131
 20
5410.9366231005197
 30
0.0
 11
4630.7816201980131
 21
6935.3766025312634
 31
0.0
  0
LINE
  5
8305
  8
3
 62
     0
 10
3585.7826201978178
 20
6601.5072146584635
 30
0.0
 11
3585.7826201978178
 21
6935.3766025312634
 31
0.0
  0
LINE
  5
8306
  8
3
 62
     0
 10
4530.7816201980131
 20
6885.3766025312634
 30
0.0
 11
3685.7826201978178
 21
6885.3766025312634
 31
0.0
  0
INSERT
  5
8307
  8
3
 62
     0
  2
_OPEN
 10
4630.7816201980131
 20
6885.3766025312634
 30
0.0
 41
100.0
 42
100.0
 43
100.0
  0
INSERT
  5
8308
  8
3
 62
     0
  2
_OPEN
 10
3585.7826201978178
 20
6885.3766025312634
 30
0.0
 41
100.0
 42
100.0
 43
100.0
 50
180.0
  0
TEXT
  8
3
  40
150
  5
836E
  62
0
  72
0
  71
0
 10
3860.51
 20
6744.88
 30
0.000000
  1
1045
  0
POINT
  5
830A
  8
DEFPOINTS
 62
     0
 10
4630.7816201980131
 20
5385.9366231005197
 30
0.0
  0
POINT
  5
830B
  8
DEFPOINTS
 62
     0
 10
3585.7826201978178
 20
6576.5072146584616
 30
0.0
  0
POINT
  5
830C
  8
DEFPOINTS
 62
     0
 10
3585.7826201978178
 20
6885.3766025312634
 30
0.0
  0
ENDBLK
  5
807D
  8
0
  0
BLOCK
  8
0
  2
*D7
 70
     1
 10
0.0
 20
0.0
 30
0.0
  3
*D7
  1

  0
LINE
  5
830D
  8
3
 62
     0
 10
2214.7826201979619
 20
5531.9366230991518
 30
0.0
 11
2214.7826201979619
 21
6935.3766025298919
 31
0.0
  0
LINE
  5
830E
  8
3
 62
     0
 10
3485.7826201978169
 20
6885.3766025298919
 30
0.0
 11
2314.7826201979619
 21
6885.3766025298919
 31
0.0
  0
INSERT
  5
830F
  8
3
 62
     0
  2
_OPEN
 10
3585.7826201978178
 20
6885.3766025298919
 30
0.0
 41
100.0
 42
100.0
 43
100.0
  0
INSERT
  5
8310
  8
3
 62
     0
  2
_OPEN
 10
2214.7826201979619
 20
6885.3766025298919
 30
0.0
 41
100.0
 42
100.0
 43
100.0
 50
180.0
  0
TEXT
  8
3
  40
150
  5
836F
  62
0
  72
0
  71
0
 10
2600.28
 20
6744.88
 30
0.000000
  1
1371
  0
POINT
  5
8312
  8
DEFPOINTS
 62
     0
 10
3585.7826201978178
 20
6576.5072146584616
 30
0.0
  0
POINT
  5
8313
  8
DEFPOINTS
 62
     0
 10
2214.7826201979619
 20
5506.9366230991527
 30
0.0
  0
POINT
  5
8314
  8
DEFPOINTS
 62
     0
 10
2214.7826201979619
 20
6885.3766025298919
 30
0.0
  0
ENDBLK
  5
80E1
  8
0
  0
BLOCK
  8
0
  2
*D8
 70
     1
 10
0.0
 20
0.0
 30
0.0
  3
*D8
  1

  0
LINE
  5
8315
  8
3
 62
     0
 10
4655.7816201985806
 20
3695.9366231005201
 30
0.0
 11
4954.5664424683919
 21
3695.9366231005201
 31
0.0
  0
LINE
  5
8316
  8
3
 62
     0
 10
4655.7816201980149
 20
5345.9366231005188
 30
0.0
 11
4954.5664424683919
 21
5345.9366231005188
 31
0.0
  0
LINE
  5
8317
  8
3
 62
     0
 10
4904.5664424683919
 20
3795.9366231005201
 30
0.0
 11
4904.5664424683919
 21
5245.9366231005188
 31
0.0
  0
INSERT
  5
8318
  8
3
 62
     0
  2
_OPEN
 10
4904.5664424683919
 20
3695.9366231005201
 30
0.0
 41
100.0
 42
100.0
 43
100.0
 50
270.0
  0
INSERT
  5
8319
  8
3
 62
     0
  2
_OPEN
 10
4904.5664424683919
 20
5345.9366231005188
 30
0.0
 41
100.0
 42
100.0
 43
100.0
 50
90.0
  0
TEXT
  8
3
  40
150
  5
8370
  62
0
  72
0
  71
0
 10
4479.57
 20
4239.95
 30
0.000000
  1
1650
  0
POINT
  5
831B
  8
DEFPOINTS
 62
     0
 10
4630.7816201985815
 20
3695.9366231005201
 30
0.0
  0
POINT
  5
831C
  8
DEFPOINTS
 62
     0
 10
4630.7816201980158
 20
5345.9366231005188
 30
0.0
  0
POINT
  5
831D
  8
DEFPOINTS
 62
     0
 10
4904.5664424683919
 20
5345.9366231005188
 30
0.0
  0
ENDBLK
  5
80CC
  8
0
  0
BLOCK
  8
0
  2
*D9
 70
     1
 10
0.0
 20
0.0
 30
0.0
  3
*D9
  1

  0
LINE
  5
831E
  8
3
 62
     0
 10
4655.7816201985806
 20
3695.9366231005201
 30
0.0
 11
5237.1193250595306
 21
3695.9366231005201
 31
0.0
  0
LINE
  5
831F
  8
3
 62
     0
 10
4717.8290036256549
 20
5390.9366231005397
 30
0.0
 11
5237.1193250595306
 21
5390.9366231005397
 31
0.0
  0
LINE
  5
8320
  8
3
 62
     0
 10
5187.1193250595297
 20
3795.9366231005201
 30
0.0
 11
5187.1193250595297
 21
5290.9366231005406
 31
0.0
  0
INSERT
  5
8321
  8
3
 62
     0
  2
_OPEN
 10
5187.1193250595297
 20
3695.9366231005201
 30
0.0
 41
100.0
 42
100.0
 43
100.0
 50
270.0
  0
INSERT
  5
8322
  8
3
 62
     0
  2
_OPEN
 10
5187.1193250595297
 20
5390.9366231005397
 30
0.0
 41
100.0
 42
100.0
 43
100.0
 50
90.0
  0
TEXT
  8
3
  40
150
  5
8371
  62
0
  72
0
  71
0
 10
4762.12
 20
4239.95
 30
0.000000
  1
1695
  0
POINT
  5
8324
  8
DEFPOINTS
 62
     0
 10
4630.7816201985815
 20
3695.9366231005201
 30
0.0
  0
POINT
  5
8325
  8
DEFPOINTS
 62
     0
 10
4692.8290036256549
 20
5390.9366231005397
 30
0.0
  0
POINT
  5
8326
  8
DEFPOINTS
 62
     0
 10
5187.1193250595297
 20
5390.9366231005397
 30
0.0
  0
ENDBLK
  5
80D7
  8
0
  0
BLOCK
  8
0
  2
*D10
 70
     1
 10
0.0
 20
0.0
 30
0.0
  3
*D10
  1

  0
LINE
  5
8327
  8
3
 62
     0
 10
4717.8290036256549
 20
5390.9366231005433
 30
0.0
 11
5591.8906065179171
 21
5390.9366231005433
 31
0.0
  0
LINE
  5
8328
  8
3
 62
     0
 10
4560.7826201986036
 20
3490.9366231004879
 30
0.0
 11
5591.8906065179171
 21
3490.9366231004869
 31
0.0
  0
LINE
  5
8329
  8
3
 62
     0
 10
5541.8906065179171
 20
5290.9366231005433
 30
0.0
 11
5541.8906065179171
 21
3590.9366231004869
 31
0.0
  0
INSERT
  5
832A
  8
3
 62
     0
  2
_OPEN
 10
5541.8906065179171
 20
5390.9366231005433
 30
0.0
 41
100.0
 42
100.0
 43
100.0
 50
90.0
  0
INSERT
  5
832B
  8
3
 62
     0
  2
_OPEN
 10
5541.8906065179171
 20
3490.9366231004869
 30
0.0
 41
100.0
 42
100.0
 43
100.0
 50
270.0
  0
TEXT
  8
3
  40
150
  5
8372
  62
0
  72
0
  71
0
 10
5116.89
 20
4175.44
 30
0.000000
  1
1900
  0
POINT
  5
832D
  8
DEFPOINTS
 62
     0
 10
4692.8290036256549
 20
5390.9366231005433
 30
0.0
  0
POINT
  5
832E
  8
DEFPOINTS
 62
     0
 10
4535.7826201986036
 20
3490.9366231004879
 30
0.0
  0
POINT
  5
832F
  8
DEFPOINTS
 62
     0
 10
5541.8906065179171
 20
3490.9366231004869
 30
0.0
  0
ENDBLK
  5
80A8
  8
0
  0
BLOCK
  8
0
  2
_DOT
 70
     0
 10
0.0
 20
0.0
 30
0.0
  3
_DOT
  1

  0
LINE
  5
7F05
  8
0
  6
BYBLOCK
 62
     0
 10
0.0
 20
0.0
 30
0.0
 11
-1.0
 21
-0.0000000000000284
 31
0.0
  0
POLYLINE
  5
7F06
  8
0
  6
BYBLOCK
 62
     0
 66
     1
 10
0.0
 20
0.0
 30
0.0
 70
     1
 40
0.1666666666666666
 41
0.1666666666666666
  0
VERTEX
  5
8355
  8
0
  6
BYBLOCK
 62
     0
 10
-0.0833333333333286
 20
-0.0000000000000284
 30
0.0
 42
1.0
  0
VERTEX
  5
8356
  8
0
  6
BYBLOCK
 62
     0
 10
0.0833333333333286
 20
-0.0000000000000284
 30
0.0
 42
1.0
  0
SEQEND
  5
8357
  8
0
  6
BYBLOCK
 62
     0
  0
ENDBLK
  5
7D33
  8
0
  0
BLOCK
  8
0
  2
*D12
 70
     1
 10
0.0
 20
0.0
 30
0.0
  3
*D12
  1

  0
LINE
  5
8330
  8
3
 62
     0
 10
9352.5815253946184
 20
5355.9366231005306
 30
0.0
 11
9352.5815253946184
 21
7153.8580605912648
 31
0.0
  0
LINE
  5
8331
  8
3
 62
     0
 10
8089.3750713920963
 20
7013.8506192487775
 30
0.0
 11
8089.3750713920963
 21
7153.8580605912648
 31
0.0
  0
LINE
  5
8332
  8
3
 62
     0
 10
9452.5815253946184
 20
7103.8580605912657
 30
0.0
 11
9552.5815253946203
 21
7103.8580605912657
 31
0.0
  0
LINE
  5
8333
  8
3
 62
     0
 10
7989.3750713920963
 20
7103.8580605912657
 30
0.0
 11
7889.3750713920963
 21
7103.8580605912657
 31
0.0
  0
LINE
  5
8334
  8
3
 62
     0
 10
9352.5815253946184
 20
7103.8580605912657
 30
0.0
 11
8089.3750713920963
 21
7103.8580605912657
 31
0.0
  0
INSERT
  5
8335
  8
3
 62
     0
  2
_OPEN
 10
9352.5815253946184
 20
7103.8580605912657
 30
0.0
 41
100.0
 42
100.0
 43
100.0
 50
180.0
  0
INSERT
  5
8336
  8
3
 62
     0
  2
_OPEN
 10
8089.3750713920963
 20
7103.8580605912657
 30
0.0
 41
100.0
 42
100.0
 43
100.0
  0
TEXT
  8
3
  40
150
  5
8373
  62
0
  72
0
  71
0
 10
8285.80
 20
7002.64
 30
0.000000
  1
(1300)
  0
POINT
  5
8338
  8
DEFPOINTS
 62
     0
 10
9352.5815253946184
 20
5330.9366231005306
 30
0.0
  0
POINT
  5
8339
  8
DEFPOINTS
 62
     0
 10
8089.3750713920963
 20
6988.8506192487775
 30
0.0
  0
POINT
  5
833A
  8
DEFPOINTS
 62
     0
 10
8089.3750713920963
 20
7103.8580605912657
 30
0.0
  0
ENDBLK
  5
804D
  8
0
  0
BLOCK
  8
0
  2
*D13
 70
     1
 10
0.0
 20
0.0
 30
0.0
  3
*D13
  1

  0
LINE
  5
833B
  8
3
 62
     0
 10
6606.1805253945486
 20
5965.9366231002186
 30
0.0
 11
6606.1805253945486
 21
7153.8580605912648
 31
0.0
  0
LINE
  5
833C
  8
3
 62
     0
 10
7989.3750713920963
 20
7103.8580605912657
 30
0.0
 11
6706.1805253945486
 21
7103.8580605912657
 31
0.0
  0
INSERT
  5
833D
  8
3
 62
     0
  2
_OPEN
 10
8089.3750713920963
 20
7103.8580605912657
 30
0.0
 41
100.0
 42
100.0
 43
100.0
  0
INSERT
  5
833E
  8
3
 62
     0
  2
_OPEN
 10
6606.1805253945486
 20
7103.8580605912657
 30
0.0
 41
100.0
 42
100.0
 43
100.0
 50
180.0
  0
TEXT
  8
3
  40
150
  5
8374
  62
0
  72
0
  71
0
 10
7047.78
 20
7088.36
 30
0.000000
  1
MAX
  0
TEXT
  8
3
  40
150
  5
8375
  62
0
  72
0
  71
0
 10
7047.78
 20
6893.36
 30
0.000000
  1
1580
  0
POINT
  5
8340
  8
DEFPOINTS
 62
     0
 10
8089.3750713920963
 20
6988.8506192487775
 30
0.0
  0
POINT
  5
8341
  8
DEFPOINTS
 62
     0
 10
6606.1805253945486
 20
5940.9366231002195
 30
0.0
  0
POINT
  5
8342
  8
DEFPOINTS
 62
     0
 10
6606.1805253945486
 20
7103.8580605912657
 30
0.0
  0
ENDBLK
  5
8037
  8
0
  0
BLOCK
  8
0
  2
*D14
 70
     1
 10
0.0
 20
0.0
 30
0.0
  3
*D14
  1

  0
LINE
  5
8343
  8
3
 62
     0
 10
9186.581525394522
 20
6190.9366231005097
 30
0.0
 11
9720.07960072889
 21
6190.9366231005097
 31
0.0
  0
LINE
  5
8344
  8
3
 62
     0
 10
9186.5815253947057
 20
4590.9366231005088
 30
0.0
 11
9720.07960072889
 21
4590.9366231005088
 31
0.0
  0
LINE
  5
8345
  8
3
 62
     0
 10
9670.07960072889
 20
6090.9366231005088
 30
0.0
 11
9670.07960072889
 21
4690.9366231005088
 31
0.0
  0
INSERT
  5
8346
  8
3
 62
     0
  2
_OPEN
 10
9670.07960072889
 20
6190.9366231005097
 30
0.0
 41
100.0
 42
100.0
 43
100.0
 50
90.0
  0
INSERT
  5
8347
  8
3
 62
     0
  2
_OPEN
 10
9670.07960072889
 20
4590.9366231005088
 30
0.0
 41
100.0
 42
100.0
 43
100.0
 50
270.0
  0
TEXT
  8
3
  40
150
  5
8376
  62
0
  72
0
  71
0
 10
9245.08
 20
5088.68
 30
0.000000
  1
φ1600
  0
POINT
  5
8349
  8
DEFPOINTS
 62
     0
 10
9161.581525394522
 20
6190.9366231005097
 30
0.0
  0
POINT
  5
834A
  8
DEFPOINTS
 62
     0
 10
9161.5815253947057
 20
4590.9366231005088
 30
0.0
  0
POINT
  5
834B
  8
DEFPOINTS
 62
     0
 10
9670.07960072889
 20
4590.9366231005088
 30
0.0
  0
ENDBLK
  5
7E07
  8
0
  0
BLOCK
  8
0
  2
*D15
 70
     1
 10
0.0
 20
0.0
 30
0.0
  3
*D15
  1

  0
LINE
  5
834C
  8
3
 62
     0
 10
4630.7816201980131
 20
5410.9366231005197
 30
0.0
 11
4630.7816201980131
 21
7245.9283304241044
 31
0.0
  0
LINE
  5
834D
  8
3
 62
     0
 10
1235.782620198554
 20
3665.9366230993551
 30
0.0
 11
1235.782620198554
 21
7245.9283304241044
 31
0.0
  0
LINE
  5
834E
  8
3
 62
     0
 10
4530.7816201980131
 20
7195.9283304241044
 30
0.0
 11
1335.782620198554
 21
7195.9283304241044
 31
0.0
  0
INSERT
  5
834F
  8
3
 62
     0
  2
_OPEN
 10
4630.7816201980131
 20
7195.9283304241044
 30
0.0
 41
100.0
 42
100.0
 43
100.0
  0
INSERT
  5
8350
  8
3
 62
     0
  2
_OPEN
 10
1235.782620198554
 20
7195.9283304241044
 30
0.0
 41
100.0
 42
100.0
 43
100.0
 50
180.0
  0
TEXT
  8
3
  40
150
  5
8377
  62
0
  72
0
  71
0
 10
2512.73
 20
7055.43
 30
0.000000
  1
3395
  0
POINT
  5
8352
  8
DEFPOINTS
 62
     0
 10
4630.7816201980131
 20
5385.9366231005197
 30
0.0
  0
POINT
  5
8353
  8
DEFPOINTS
 62
     0
 10
1235.782620198554
 20
3640.9366230993551
 30
0.0
  0
POINT
  5
8354
  8
DEFPOINTS
 62
     0
 10
1235.782620198554
 20
7195.9283304241044
 30
0.0
  0
ENDBLK
  5
8072
  8
0
  0
BLOCK
  8
0
  2
*D16
 70
     1
 10
0.0
 20
0.0
 30
0.0
  3
*D16
  1

  0
LINE
  5
8358
  8
3
 62
     0
 10
3494.7826201971561
 20
6529.9366231001204
 30
0.0
 11
5591.8906065157744
 21
6529.9366231001204
 31
0.0
  0
LINE
  5
8359
  8
3
 62
     0
 10
5541.8906065157744
 20
5490.9366231005433
 30
0.0
 11
5541.8906065157744
 21
6429.9366231001204
 31
0.0
  0
INSERT
  5
835A
  8
3
 62
     0
  2
_OPEN
 10
5541.8906065157744
 20
5390.9366231005433
 30
0.0
 41
100.0
 42
100.0
 43
100.0
 50
270.0
  0
INSERT
  5
835B
  8
3
 62
     0
  2
_OPEN
 10
5541.8906065157744
 20
6529.9366231001204
 30
0.0
 41
100.0
 42
100.0
 43
100.0
 50
90.0
  0
TEXT
  8
3
  40
150
  5
8378
  62
0
  72
0
  71
0
 10
5116.89
 20
5694.94
 30
0.000000
  1
1139
  0
POINT
  5
835D
  8
DEFPOINTS
 62
     0
 10
4692.8290036256549
 20
5390.9366231005433
 30
0.0
  0
POINT
  5
835E
  8
DEFPOINTS
 62
     0
 10
3469.7826201971561
 20
6529.9366231001204
 30
0.0
  0
POINT
  5
835F
  8
DEFPOINTS
 62
     0
 10
5541.8906065157744
 20
6529.9366231001204
 30
0.0
  0
ENDBLK
  5
8092
  8
0
  0
BLOCK
  8
0
  2
*D17
 70
     1
 10
0.0
 20
0.0
 30
0.0
  3
*D17
  1

  0
LINE
  5
8360
  8
3
 62
     0
 10
7029.380525394462
 20
6554.9366231002668
 30
0.0
 11
7029.380525394462
 21
6796.8047186818949
 31
0.0
  0
LINE
  5
8361
  8
3
 62
     0
 10
9149.3750713922891
 20
6554.9366231005088
 30
0.0
 11
9149.3750713922891
 21
6796.8047186818949
 31
0.0
  0
LINE
  5
8362
  8
3
 62
     0
 10
7129.3805253944629
 20
6746.8047186818949
 30
0.0
 11
9049.3750713922891
 21
6746.8047186818949
 31
0.0
  0
INSERT
  5
8363
  8
3
 62
     0
  2
_OPEN
 10
7029.380525394462
 20
6746.8047186818949
 30
0.0
 41
100.0
 42
100.0
 43
100.0
 50
180.0
  0
INSERT
  5
8364
  8
3
 62
     0
  2
_OPEN
 10
9149.3750713922891
 20
6746.8047186818949
 30
0.0
 41
100.0
 42
100.0
 43
100.0
  0
TEXT
  8
3
  40
150
  5
8379
  62
0
  72
0
  71
0
 10
7790.89
 20
6606.30
 30
0.000000
  1
2120
  0
POINT
  5
8366
  8
DEFPOINTS
 62
     0
 10
7029.380525394462
 20
6529.9366231002678
 30
0.0
  0
POINT
  5
8367
  8
DEFPOINTS
 62
     0
 10
9149.3750713922891
 20
6529.9366231005097
 30
0.0
  0
POINT
  5
8368
  8
DEFPOINTS
 62
     0
 10
9149.3750713922891
 20
6746.8047186818949
 30
0.0
  0
ENDBLK
  5
8042
  8
0
  0
BLOCK
  8
0
  2
_NONE
 70
     0
 10
0.0
 20
0.0
 30
0.0
  3
_NONE
  1

  0
CIRCLE
  5
818E
  8
0
  6
BYBLOCK
 62
     0
 10
0.0
 20
0.0
 30
0.0
 40
0.25
  0
ENDBLK
  5
818F
  8
0
  0
BLOCK
  8
0
  2
*D19
 70
     1
 10
0.0
 20
0.0
 30
0.0
  3
*D19
  1

  0
LINE
  5
81BE
  8
0
  6
BYBLOCK
 62
     0
 10
1235.7826201986029
 20
3465.9366230993542
 30
0.0
 11
1235.7826201986029
 21
3117.3298124035932
 31
0.0
  0
LINE
  5
81BF
  8
0
  6
BYBLOCK
 62
     0
 10
3585.7826201986122
 20
3465.9366231001609
 30
0.0
 11
3585.7826201986122
 21
3117.3298124035932
 31
0.0
  0
LINE
  5
81C0
  8
0
  6
BYBLOCK
 62
     0
 10
1335.7826201986029
 20
3167.3298124035932
 30
0.0
 11
3485.7826201986122
 21
3167.3298124035932
 31
0.0
  0
INSERT
  5
81C1
  8
0
  6
BYBLOCK
 62
     0
  2
_OPEN
 10
1235.7826201986029
 20
3167.3298124035932
 30
0.0
 41
100.0
 42
100.0
 43
100.0
 50
180.0
  0
INSERT
  5
81C2
  8
0
  6
BYBLOCK
 62
     0
  2
_OPEN
 10
3585.7826201986122
 20
3167.3298124035932
 30
0.0
 41
100.0
 42
100.0
 43
100.0
  0
TEXT
  5
81C3
  8
3
 62
     0
 10
2146.496905912893
 20
3217.3298124035941
 30
0.0
 40
150.0
  1
2350
  0
POINT
  5
81C4
  8
DEFPOINTS
  6
BYBLOCK
 62
     0
 10
1235.7826201986029
 20
3490.9366230993542
 30
0.0
  0
POINT
  5
81C5
  8
DEFPOINTS
  6
BYBLOCK
 62
     0
 10
3585.7826201986122
 20
3490.9366231001609
 30
0.0
  0
POINT
  5
81C6
  8
DEFPOINTS
  6
BYBLOCK
 62
     0
 10
3585.7826201986122
 20
3167.3298124035932
 30
0.0
  0
ENDBLK
  5
81C7
  8
0
  0
BLOCK
  8
0
  2
*D20
 70
     1
 10
0.0
 20
0.0
 30
0.0
  3
*D20
  1

  0
LINE
  5
81CB
  8
0
  6
BYBLOCK
 62
     0
 10
3585.7826201986122
 20
3465.9366231001609
 30
0.0
 11
3585.7826201986122
 21
3117.3298124035932
 31
0.0
  0
LINE
  5
81CC
  8
0
  6
BYBLOCK
 62
     0
 10
4535.7826201986036
 20
3465.9366231004879
 30
0.0
 11
4535.7826201986036
 21
3117.3298124035932
 31
0.0
  0
LINE
  5
81CD
  8
0
  6
BYBLOCK
 62
     0
 10
3685.7826201986122
 20
3167.3298124035932
 30
0.0
 11
4435.7826201986036
 21
3167.3298124035932
 31
0.0
  0
INSERT
  5
81CE
  8
0
  6
BYBLOCK
 62
     0
  2
_OPEN
 10
3585.7826201986122
 20
3167.3298124035932
 30
0.0
 41
100.0
 42
100.0
 43
100.0
 50
180.0
  0
INSERT
  5
81CF
  8
0
  6
BYBLOCK
 62
     0
  2
_OPEN
 10
4535.7826201986036
 20
3167.3298124035932
 30
0.0
 41
100.0
 42
100.0
 43
100.0
  0
TEXT
  5
81D0
  8
3
 62
     0
 10
3867.925477341465
 20
3217.3298124035941
 30
0.0
 40
150.0
  1
950
  0
POINT
  5
81D1
  8
DEFPOINTS
  6
BYBLOCK
 62
     0
 10
3585.7826201986122
 20
3490.9366231001609
 30
0.0
  0
POINT
  5
81D2
  8
DEFPOINTS
  6
BYBLOCK
 62
     0
 10
4535.7826201986036
 20
3490.9366231004879
 30
0.0
  0
POINT
  5
81D3
  8
DEFPOINTS
  6
BYBLOCK
 62
     0
 10
4535.7826201986036
 20
3167.3298124035932
 30
0.0
  0
ENDBLK
  5
81D4
  8
0
  0
BLOCK
  8
0
  2
*D21
 70
     1
 10
0.0
 20
0.0
 30
0.0
  3
*D21
  1

  0
LINE
  5
81D8
  8
0
  6
BYBLOCK
 62
     0
 10
6628.3750713928266
 20
3465.9366231002218
 30
0.0
 11
6628.3750713928266
 21
3117.3298124035932
 31
0.0
  0
LINE
  5
81D9
  8
0
  6
BYBLOCK
 62
     0
 10
8089.3750713928421
 20
3465.9366231003878
 30
0.0
 11
8089.3750713928421
 21
3117.3298124035932
 31
0.0
  0
LINE
  5
81DA
  8
0
  6
BYBLOCK
 62
     0
 10
6728.3750713928266
 20
3167.3298124035932
 30
0.0
 11
7989.3750713928421
 21
3167.3298124035932
 31
0.0
  0
INSERT
  5
81DB
  8
0
  6
BYBLOCK
 62
     0
  2
_OPEN
 10
6628.3750713928266
 20
3167.3298124035932
 30
0.0
 41
100.0
 42
100.0
 43
100.0
 50
180.0
  0
INSERT
  5
81DC
  8
0
  6
BYBLOCK
 62
     0
  2
_OPEN
 10
8089.3750713928421
 20
3167.3298124035932
 30
0.0
 41
100.0
 42
100.0
 43
100.0
  0
TEXT
  5
81DD
  8
3
 62
     0
 10
7141.0179285356917
 20
3217.3298124035941
 30
0.0
 40
150.0
  1
1461
  0
POINT
  5
81DE
  8
DEFPOINTS
  6
BYBLOCK
 62
     0
 10
6628.3750713928266
 20
3490.9366231002218
 30
0.0
  0
POINT
  5
81DF
  8
DEFPOINTS
  6
BYBLOCK
 62
     0
 10
8089.3750713928421
 20
3490.9366231003878
 30
0.0
  0
POINT
  5
81E0
  8
DEFPOINTS
  6
BYBLOCK
 62
     0
 10
8089.3750713928421
 20
3167.3298124035932
 30
0.0
  0
ENDBLK
  5
81E1
  8
0
  0
BLOCK
  8
0
  2
*D22
 70
     1
 10
0.0
 20
0.0
 30
0.0
  3
*D22
  1

  0
LINE
  5
81E5
  8
0
  6
BYBLOCK
 62
     0
 10
8089.3750713928421
 20
3465.9366231003878
 30
0.0
 11
8089.3750713928421
 21
3117.3298124035932
 31
0.0
  0
LINE
  5
81E6
  8
0
  6
BYBLOCK
 62
     0
 10
9228.3750713928293
 20
3465.936623100517
 30
0.0
 11
9228.3750713928293
 21
3117.3298124035932
 31
0.0
  0
LINE
  5
81E7
  8
0
  6
BYBLOCK
 62
     0
 10
8189.375071392843
 20
3167.3298124035932
 30
0.0
 11
9128.3750713928293
 21
3167.3298124035932
 31
0.0
  0
INSERT
  5
81E8
  8
0
  6
BYBLOCK
 62
     0
  2
_OPEN
 10
8089.3750713928421
 20
3167.3298124035932
 30
0.0
 41
100.0
 42
100.0
 43
100.0
 50
180.0
  0
INSERT
  5
81E9
  8
0
  6
BYBLOCK
 62
     0
  2
_OPEN
 10
9228.3750713928293
 20
3167.3298124035932
 30
0.0
 41
100.0
 42
100.0
 43
100.0
  0
TEXT
  5
81EA
  8
3
 62
     0
 10
8426.7322142499779
 20
3217.3298124035941
 30
0.0
 40
150.0
  1
1139
  0
POINT
  5
81EB
  8
DEFPOINTS
  6
BYBLOCK
 62
     0
 10
8089.3750713928421
 20
3490.9366231003878
 30
0.0
  0
POINT
  5
81EC
  8
DEFPOINTS
  6
BYBLOCK
 62
     0
 10
9228.3750713928293
 20
3490.936623100517
 30
0.0
  0
POINT
  5
81ED
  8
DEFPOINTS
  6
BYBLOCK
 62
     0
 10
9228.3750713928293
 20
3167.3298124035932
 30
0.0
  0
ENDBLK
  5
81EE
  8
0
  0
BLOCK
  8
0
  2
*D23
 70
     1
 10
0.0
 20
0.0
 30
0.0
  3
*D23
  1

  0
LINE
  5
81F2
  8
0
  6
BYBLOCK
 62
     0
 10
4560.7826201986036
 20
3490.9366231004879
 30
0.0
 11
5935.3272457424528
 21
3490.9366231004879
 31
0.0
  0
LINE
  5
81F3
  8
0
  6
BYBLOCK
 62
     0
 10
3519.7826201971561
 20
6529.9366231001204
 30
0.0
 11
5935.3272457424528
 21
6529.9366231001204
 31
0.0
  0
LINE
  5
81F4
  8
0
  6
BYBLOCK
 62
     0
 10
5885.3272457424537
 20
3590.9366231004879
 30
0.0
 11
5885.3272457424537
 21
6429.9366231001204
 31
0.0
  0
INSERT
  5
81F5
  8
0
  6
BYBLOCK
 62
     0
  2
_OPEN
 10
5885.3272457424537
 20
3490.9366231004879
 30
0.0
 41
100.0
 42
100.0
 43
100.0
 50
270.0
  0
INSERT
  5
81F6
  8
0
  6
BYBLOCK
 62
     0
  2
_OPEN
 10
5885.3272457424537
 20
6529.9366231001204
 30
0.0
 41
100.0
 42
100.0
 43
100.0
 50
90.0
  0
TEXT
  5
81F7
  8
3
 62
     0
 10
5835.3272457424537
 20
4749.7223373860179
 30
0.0
 40
150.0
  1
3039
 50
90.0
  0
POINT
  5
81F8
  8
DEFPOINTS
  6
BYBLOCK
 62
     0
 10
4535.7826201986036
 20
3490.9366231004879
 30
0.0
  0
POINT
  5
81F9
  8
DEFPOINTS
  6
BYBLOCK
 62
     0
 10
3494.7826201971561
 20
6529.9366231001204
 30
0.0
  0
POINT
  5
81FA
  8
DEFPOINTS
  6
BYBLOCK
 62
     0
 10
5885.3272457424537
 20
6529.9366231001204
 30
0.0
  0
ENDBLK
  5
81FB
  8
0
  0
ENDSEC
  0
SECTION
  2
ENTITIES
  0
ARC
  5
7ACA
  8
1
 10
1799.312628793688
 20
3988.6214333032508
 30
0.0
 40
280.0
 50
134.95836767835041
 51
301.30292940592659
  0
CIRCLE
  5
7ACE
  8
1
 10
1799.312628793688
 20
3988.6214333032508
 30
0.0
 40
125.0
  0
LINE
  5
7ACF
  8
2
 10
2168.3596687416839
 20
3988.6214333033781
 30
0.0
 11
1448.685458464641
 21
3988.6214333031312
 31
0.0
  0
LINE
  5
7AD0
  8
1
 10
1643.8334965181739
 20
3720.4307559357262
 30
0.0
 11
1954.7917610693889
 21
3720.4307559358308
 31
0.0
  0
LINE
  5
7AD1
  8
1
 10
1799.3126287937901
 20
3693.5302508691639
 30
0.0
 11
1653.5658200836381
 21
3693.5302508691129
 31
0.0
  0
ARC
  5
7AD2
  8
1
 10
1799.312628793688
 20
3988.6214333032508
 30
0.0
 40
310.0
 50
300.10230806833158
 51
239.8976919317077
  0
LINE
  5
7AD3
  8
1
 10
1235.7826201986029
 20
3490.9366230993542
 30
0.0
 11
4535.7826201986063
 21
3490.9366231004879
 31
0.0
  0
LINE
  5
7AD4
  8
1
 10
1235.782620198554
 20
3640.9366230993551
 30
0.0
 11
4535.7826201985536
 21
3640.9366231004879
 31
0.0
  0
LINE
  5
7AD7
  8
1
 10
1519.3126287937271
 20
3855.5800863466229
 30
0.0
 11
1519.312628793786
 21
3708.6214333031548
 31
0.0
  0
LINE
  5
7AD8
  8
1
 10
1519.312628793786
 20
3708.6214333031548
 30
0.0
 11
1629.312628793786
 21
3708.621433303193
 31
0.0
  0
LINE
  5
7AD9
  8
1
 10
1519.312628793773
 20
3738.621433303153
 30
0.0
 11
1616.0096009955409
 21
3738.621433303188
 31
0.0
  0
LINE
  5
7ADA
  8
1
 10
1653.5658200836331
 20
3708.6214333031999
 30
0.0
 11
1460.4181362350309
 21
3708.6214333031348
 31
0.0
  0
LINE
  5
7AE5
  8
1
 10
1460.4181362350309
 20
3708.6214333031348
 30
0.0
 11
1449.6799339011029
 21
3640.9366230994278
 31
0.0
  0
LINE
  5
7AE6
  8
1
 10
1629.3126287937771
 20
3729.3918053668781
 30
0.0
 11
1629.3126287937839
 21
3708.621433303193
 31
0.0
  0
LINE
  5
7AE8
  8
1
 10
1653.5658200836381
 20
3693.5302508691129
 30
0.0
 11
1653.5658200836331
 21
3708.6214333031999
 31
0.0
  0
CIRCLE
  5
7AE9
  8
1
 10
3585.7826201979692
 20
5390.9366231001632
 30
0.0
 40
865.0
  0
CIRCLE
  5
7AEA
  8
1
 10
3585.7826201979692
 20
5390.9366231001632
 30
0.0
 40
800.0
  0
ARC
  5
7AEB
  8
1
 10
3585.7826201979879
 20
5390.9366231001632
 30
0.0
 40
550.0
 50
301.3029294059267
 51
134.95836767835041
  0
CIRCLE
  5
7AEC
  8
1
 10
3585.782620198002
 20
5390.9366231001632
 30
0.0
 40
400.0
  0
LINE
  5
7AED
  8
2
 10
3585.7826201986122
 20
3490.9366231001609
 30
0.0
 11
3585.7826201978178
 21
6576.5072146584616
 31
0.0
  0
LINE
  5
7AEE
  8
1
 10
4565.7816201980149
 20
5345.9366231004969
 30
0.0
 11
4565.7816201985797
 21
3701.9409494204269
 31
0.0
  0
LINE
  5
7AEF
  8
1
 10
4624.7816201979949
 20
5410.936623100516
 30
0.0
 11
4624.7816201986061
 21
3630.936623100517
 31
0.0
  0
LINE
  5
7AF0
  8
1
 10
4630.7816201985815
 20
3695.9366231005201
 30
0.0
 11
4630.7816201980158
 21
5345.9366231005188
 31
0.0
  0
ARC
  5
7AF1
  8
1
 10
3701.7826201980411
 20
5274.9366231002014
 30
0.0
 40
1487.0
 50
175.52600000001971
 51
265.52500000001959
  0
LINE
  5
7AF4
  8
2
 10
4692.8290036256549
 20
5390.9366231005397
 30
0.0
 11
2075.831951290811
 21
5390.936623099642
 31
0.0
  0
ARC
  5
7AF5
  8
1
 10
3488.7826201979678
 20
5487.9366231001268
 30
0.0
 40
1042.0
 50
354.6590000000196
 51
84.659000000019674
  0
ARC
  5
7AF6
  8
1
 10
3469.7826201980401
 20
5274.9366231001213
 30
0.0
 40
1255.0
 50
84.697000000019685
 51
174.6970000000195
  0
LINE
  5
7AF7
  8
2
 10
1799.312628793688
 20
4372.2536729498379
 30
0.0
 11
1799.31262879369
 21
3490.9366230995479
 31
0.0
  0
LINE
  5
7AF8
  8
1
 10
2079.3126287937339
 20
3855.5800863467989
 30
0.0
 11
2079.3126287937839
 21
3708.6214333033458
 31
0.0
  0
LINE
  5
7AF9
  8
1
 10
1945.0594375039359
 20
3708.6214333032999
 30
0.0
 11
2138.2071213525369
 21
3708.6214333033658
 31
0.0
  0
LINE
  5
7AFA
  8
1
 10
1982.615656592006
 20
3738.6214333033131
 30
0.0
 11
2079.312628793773
 21
3738.6214333033449
 31
0.0
  0
LINE
  5
7AFB
  8
1
 10
1799.3126287937901
 20
3693.5302508691639
 30
0.0
 11
1945.059437503942
 21
3693.530250869213
 31
0.0
  0
LINE
  5
7AFD
  8
1
 10
1969.3126287937771
 20
3729.391805366994
 30
0.0
 11
1969.3126287937839
 21
3708.6214333033099
 31
0.0
  0
LINE
  5
7AFE
  8
1
 10
1945.059437503942
 20
3693.530250869213
 30
0.0
 11
1945.0594375039359
 21
3708.6214333032999
 31
0.0
  0
LINE
  5
7B01
  8
1
 10
2138.2071213525369
 20
3708.6214333033658
 30
0.0
 11
2148.9453236865129
 21
3640.9366230996679
 31
0.0
  0
LINE
  5
7B0B
  8
1
 10
4630.7816201980158
 20
5345.9366231005188
 30
0.0
 11
4565.7816201980149
 21
5345.9366231004969
 31
0.0
  0
LINE
  5
7B0C
  8
1
 10
4518.8086201980177
 20
5345.9366231004806
 30
0.0
 11
4630.7816201980158
 21
5345.9366231005188
 31
0.0
  0
LINE
  5
7B0D
  8
1
 10
4535.7826201985536
 20
3640.9366231004879
 30
0.0
 11
4535.7826201986036
 21
3490.9366231004879
 31
0.0
  0
ARC
  5
7B11
  8
1
 10
3682.7826201979692
 20
5487.9366231001941
 30
0.0
 40
848.0
 50
350.36024588593011
 51
353.43200000001963
  0
LINE
  5
7B12
  8
1
 10
4630.7816201979949
 20
5410.9366231005197
 30
0.0
 11
4630.7816201980158
 21
5345.9366231005188
 31
0.0
  0
LINE
  5
7B13
  8
1
 10
4630.7816201979949
 20
5410.9366231005197
 30
0.0
 11
4624.7816201979949
 21
5410.936623100516
 31
0.0
  0
LINE
  5
7B14
  8
1
 10
4630.7816201985815
 20
3695.9366231005201
 30
0.0
 11
3585.7826201985508
 21
3792.4676231001608
 31
0.0
  0
LINE
  5
7B15
  8
1
 10
4630.7816201986061
 20
3630.9366231005201
 30
0.0
 11
4624.7816201986061
 21
3630.936623100517
 31
0.0
  0
LINE
  5
7B16
  8
1
 10
4630.7816201985815
 20
3695.9366231005201
 30
0.0
 11
4630.7816201986061
 21
3630.9366231005201
 31
0.0
  0
LINE
  5
7B17
  8
1
 10
1701.7369619735871
 20
8429.7471760349981
 30
0.0
 11
1872.7369619735871
 21
8429.7471760349981
 31
0.0
  0
LINE
  5
7B18
  8
1
 10
1744.7369619735871
 20
8249.7471760349981
 30
0.0
 11
1829.7369619735871
 21
8249.7471760349981
 31
0.0
  0
LINE
  5
7B19
  8
1
 10
1737.2369619735871
 20
8419.7471760349981
 30
0.0
 11
1837.2369619735871
 21
8419.7471760349981
 31
0.0
  0
LINE
  5
7B1A
  8
1
 10
2074.7369619735869
 20
8436.2471760349963
 30
0.0
 11
1507.2369619735871
 21
8436.2471760349963
 31
0.0
  0
LINE
  5
7B1B
  8
1
 10
1507.2369619735859
 20
9288.7471760349981
 30
0.0
 11
2074.7369619735859
 21
9288.7471760349981
 31
0.0
  0
LINE
  5
7B1C
  8
1
 10
1507.23696197358
 20
8149.7471760349481
 30
0.0
 11
4135.782620197213
 21
8149.7471760355111
 31
0.0
  0
LINE
  5
7B1D
  8
1
 10
1662.2369619735739
 20
8189.7471760349663
 30
0.0
 11
3985.7826201972089
 21
8189.7471760354938
 31
0.0
  0
LINE
  5
7B1E
  8
1
 10
1662.2369619735621
 20
8309.7471760349654
 30
0.0
 11
3985.7826201971939
 21
8309.7471760354965
 31
0.0
  0
LINE
  5
7B1F
  8
1
 10
1235.7826201971311
 20
9371.9417220324613
 30
0.0
 11
2214.7826201971311
 21
9371.941722032916
 31
0.0
  0
LINE
  5
7B20
  8
1
 10
1235.782620197544
 20
8171.9417220324603
 30
0.0
 11
4535.7826201975568
 21
8171.9417220336663
 31
0.0
  0
LINE
  5
7B21
  8
2
 10
1787.236961973588
 20
8149.7471760350081
 30
0.0
 11
1787.2369619735859
 21
9288.7471760349981
 31
0.0
  0
LINE
  5
7B22
  8
1
 10
1662.2369619735621
 20
8309.7471760349508
 30
0.0
 11
1662.2369619735739
 21
8189.7471760349517
 31
0.0
  0
LINE
  5
7B23
  8
1
 10
1507.2369619735559
 20
8356.237096352339
 30
0.0
 11
1507.23696197358
 21
8149.7471760349326
 31
0.0
  0
LINE
  5
7B24
  8
1
 10
1507.2369619735859
 20
9288.7471760349981
 30
0.0
 11
1507.2369619735871
 21
8436.2471760349963
 31
0.0
  0
LINE
  5
7B25
  8
1
 10
1235.7826201971329
 20
9371.9417220324613
 30
0.0
 11
1235.782620197544
 21
8171.9417220324603
 31
0.0
  0
LINE
  5
7B26
  8
1
 10
1507.236961973603
 20
8356.237096352339
 30
0.0
 11
1651.7725407119231
 21
8356.2370963523535
 31
0.0
  0
LINE
  5
7B27
  8
1
 10
1737.2369619735871
 20
8419.7471760349981
 30
0.0
 11
1737.2369619735871
 21
8429.7471760349981
 31
0.0
  0
LINE
  5
7B28
  8
1
 10
1744.7369619735871
 20
8249.7471760349981
 30
0.0
 11
1744.7369619735871
 21
8419.7471760349981
 31
0.0
  0
ARC
  5
7B29
  8
1
 10
1701.736961973588
 20
8431.7471760349981
 30
0.0
 40
2.0
 50
180.00000000000011
 51
270.00000000000011
  0
LINE
  5
7B2A
  8
1
 10
1699.7369619735871
 20
8436.5955510349995
 30
0.0
 11
1699.736961973588
 21
8431.7471760349981
 31
0.0
  0
LINE
  5
7B2B
  8
2
 10
3585.7826201966659
 20
10696.941722033331
 30
0.0
 11
3585.782620197564
 21
8149.7471760353919
 31
0.0
  0
LINE
  5
7B2C
  8
1
 10
4535.7826201975568
 20
8171.9417220336627
 30
0.0
 11
4535.7826201974167
 21
8572.9417220336654
 31
0.0
  0
LINE
  5
7B2D
  8
1
 10
2635.782620196665
 20
10692.941722033011
 30
0.0
 11
2635.7826201966391
 21
10771.941722033011
 31
0.0
  0
LINE
  5
7B2E
  8
2
 10
2214.7826201970411
 20
9632.9417220328687
 30
0.0
 11
4736.120418574279
 21
9632.94172203374
 31
0.0
  0
LINE
  5
7B2F
  8
1
 10
1912.2369619735621
 20
8309.7471760349799
 30
0.0
 11
1912.2369619735739
 21
8189.7471760349817
 31
0.0
  0
LINE
  5
7B30
  8
1
 10
3185.7826201971948
 20
8309.7471760354019
 30
0.0
 11
3185.7826201972071
 21
8189.747176035401
 31
0.0
  0
LINE
  5
7B31
  8
1
 10
2074.7369619735869
 20
8436.2471760349963
 30
0.0
 11
2074.7369619735859
 21
9288.7471760349981
 31
0.0
  0
LINE
  5
7B32
  8
1
 10
1837.2369619735871
 20
8419.7471760349981
 30
0.0
 11
1837.2369619735871
 21
8429.7471760349981
 31
0.0
  0
LINE
  5
7B35
  8
1
 10
1829.7369619735871
 20
8249.7471760349981
 30
0.0
 11
1829.7369619735871
 21
8419.7471760349981
 31
0.0
  0
ARC
  5
7B36
  8
1
 10
1872.736961973588
 20
8431.7471760349981
 30
0.0
 40
2.0
 50
270.00000000000011
 51
0.0000000000001347
  0
LINE
  5
7B37
  8
1
 10
1874.7369619735871
 20
8436.2471760349963
 30
0.0
 11
1874.736961973588
 21
8431.7471760349981
 31
0.0
  0
LINE
  5
7B38
  8
1
 10
3985.7826201971939
 20
8309.7471760354965
 30
0.0
 11
3985.7826201972089
 21
8189.7471760354938
 31
0.0
  0
LINE
  5
7B39
  8
1
 10
4135.7826201971893
 20
8356.2370963529174
 30
0.0
 11
4135.782620197213
 21
8149.747176035512
 31
0.0
  0
LINE
  5
7B3A
  8
1
 10
3901.6636011861528
 20
8356.2370963528901
 30
0.0
 11
4135.7826201971893
 21
8356.2370963529174
 31
0.0
  0
LINE
  5
7B3B
  8
1
 10
2635.7826201966391
 20
10771.941722033011
 30
0.0
 11
4535.7826201966573
 21
10771.94172203366
 31
0.0
  0
LINE
  5
7B3C
  8
2
 10
9402.4298125788828
 20
5390.936623100537
 30
0.0
 11
6606.1805253946122
 21
5390.9366231002195
 31
0.0
  0
LINE
  5
7B3D
  8
1
 10
9149.3750713925092
 20
5330.9366231005097
 30
0.0
 11
9352.5815253946184
 21
5330.9366231005306
 31
0.0
  0
LINE
  5
7B3E
  8
1
 10
9149.3750713925529
 20
5089.8131774701424
 30
0.0
 11
9352.5815253946384
 21
5160.9366231005324
 31
0.0
  0
LINE
  5
7B3F
  8
2
 10
8089.3750713921399
 20
6767.9625270706292
 30
0.0
 11
8089.3750713928421
 21
3490.9366231003878
 31
0.0
  0
LINE
  5
7B41
  8
1
 10
7029.380525394502
 20
6529.9366231002678
 30
0.0
 11
7029.3805253946666
 21
3695.9366231002691
 31
0.0
  0
LINE
  5
7B42
  8
1
 10
6766.1805253947841
 20
3866.0426231013439
 30
0.0
 11
6766.1805253945658
 21
5790.9366231002377
 31
0.0
  0
LINE
  5
7B43
  8
1
 10
6646.1805253947841
 20
3866.0426231013289
 30
0.0
 11
6646.1805253945658
 21
5790.936623100225
 31
0.0
  0
LINE
  5
7B45
  8
1
 10
6606.1805253948023
 20
3711.0426231013262
 30
0.0
 11
6606.1805253945486
 21
5940.9366231002195
 31
0.0
  0
LINE
  5
7B48
  8
1
 10
7029.3805253946348
 20
4271.0426231013371
 30
0.0
 11
6892.6805253947687
 21
4271.0426231013371
 31
0.0
  0
LINE
  5
7B4A
  8
1
 10
6892.6805253947687
 20
3703.5426231013371
 30
0.0
 11
7029.3805253946666
 21
3703.5426231013362
 31
0.0
  0
LINE
  5
7B4F
  8
1
 10
9149.3750713925074
 20
5345.9366231005088
 30
0.0
 11
7029.380525394572
 21
5345.9366231002678
 31
0.0
  0
LINE
  5
7B53
  8
1
 10
6892.6805253947723
 20
3703.5426231013371
 30
0.0
 11
6892.6805253947687
 21
4271.0426231013371
 31
0.0
  0
LINE
  5
7B55
  8
1
 10
6812.6704457121923
 20
3711.0426231013948
 30
0.0
 11
6812.6704457121759
 21
3855.5782018397158
 31
0.0
  0
LINE
  5
7B56
  8
1
 10
6812.6704457121923
 20
3711.0426231013498
 30
0.0
 11
6606.1805253947878
 21
3711.0426231013262
 31
0.0
  0
LINE
  5
7B58
  8
1
 10
6766.1805253947687
 20
3866.0426231013439
 30
0.0
 11
6646.1805253947696
 21
3866.0426231013289
 31
0.0
  0
LINE
  5
7B59
  8
1
 10
6766.1805253947414
 20
4116.0426231013444
 30
0.0
 11
6646.1805253947396
 21
4116.0426231013289
 31
0.0
  0
LINE
  5
7B5A
  8
2
 10
7029.3805253946502
 20
3991.0426231013739
 30
0.0
 11
6606.1805253947714
 21
3991.0426231013248
 31
0.0
  0
LINE
  5
7B5B
  8
1
 10
6876.1805253947714
 20
4041.0426231013371
 30
0.0
 11
6876.1805253947696
 21
3941.0426231013371
 31
0.0
  0
LINE
  5
7B5C
  8
1
 10
6706.1805253947714
 20
4033.5426231013371
 30
0.0
 11
6706.1805253947723
 21
3948.5426231013371
 31
0.0
  0
LINE
  5
7B5D
  8
1
 10
6886.1805253947687
 20
4076.5426231013371
 30
0.0
 11
6886.1805253947696
 21
3905.5426231013371
 31
0.0
  0
LINE
  5
7B5E
  8
1
 10
6706.1805253947696
 20
3948.5426231013371
 30
0.0
 11
6876.1805253947687
 21
3948.5426231013371
 31
0.0
  0
LINE
  5
7B61
  8
1
 10
6892.6805253947687
 20
3903.5426231013371
 30
0.0
 11
6888.1805253947696
 21
3903.5426231013371
 31
0.0
  0
ARC
  5
7B62
  8
1
 10
6888.1805253947696
 20
3905.5426231013371
 30
0.0
 40
2.0
 50
180.0
 51
270.0
  0
LINE
  5
7B63
  8
1
 10
6876.1805253947696
 20
3941.0426231013371
 30
0.0
 11
6886.1805253947687
 21
3941.0426231013371
 31
0.0
  0
LINE
  5
7B64
  8
1
 10
6706.1805253947714
 20
4033.5426231013371
 30
0.0
 11
6876.1805253947714
 21
4033.5426231013371
 31
0.0
  0
LINE
  5
7B65
  8
1
 10
6893.028900394771
 20
4078.5426231013371
 30
0.0
 11
6888.1805253947696
 21
4078.5426231013371
 31
0.0
  0
ARC
  5
7B66
  8
1
 10
6888.1805253947696
 20
4076.5426231013371
 30
0.0
 40
2.0
 50
90.000000000000057
 51
180.0
  0
LINE
  5
7B67
  8
1
 10
6876.1805253947714
 20
4041.0426231013371
 30
0.0
 11
6886.1805253947696
 21
4041.0426231013371
 31
0.0
  0
LINE
  5
7B68
  8
1
 10
6796.1805253946213
 20
5310.9366231002396
 30
0.0
 11
7029.3805253945729
 21
5310.9366231002659
 31
0.0
  0
LINE
  5
7B69
  8
1
 10
6796.1805253946413
 20
5130.9366231002396
 30
0.0
 11
7029.3805253945884
 21
5059.9632971008059
 31
0.0
  0
LINE
  5
7B6A
  8
1
 10
6766.1805253946059
 20
5445.9366231002368
 30
0.0
 11
7029.3805253945593
 21
5445.9366231002668
 31
0.0
  0
LINE
  5
7B6B
  8
1
 10
6766.1805253946168
 20
5335.9366231002368
 30
0.0
 11
7029.3805253945729
 21
5335.9366231002659
 31
0.0
  0
LINE
  5
7B6C
  8
1
 10
6796.1805253946213
 20
5310.9366231002396
 30
0.0
 11
6796.1805253946413
 21
5130.9366231002396
 31
0.0
  0
LINE
  5
7B6D
  8
1
 10
6766.1805253946559
 20
4990.9366231002359
 30
0.0
 11
6646.1805253946559
 21
4990.936623100225
 31
0.0
  0
LINE
  5
7B78
  8
1
 10
9149.5482612103078
 20
3695.9366231005092
 30
0.0
 11
7029.3805253946666
 21
3695.9366231002691
 31
0.0
  0
LINE
  5
7B79
  8
1
 10
6812.6704457119531
 20
5940.9366231002423
 30
0.0
 11
6606.1805253945486
 21
5940.9366231002195
 31
0.0
  0
LINE
  5
7B7A
  8
1
 10
6766.180525394564
 20
5790.9366231002377
 30
0.0
 11
6646.1805253945658
 21
5790.936623100225
 31
0.0
  0
LINE
  5
7B7B
  8
1
 10
6812.6704457119786
 20
5706.8176040892076
 30
0.0
 11
6812.6704457119531
 21
5940.9366231002423
 31
0.0
  0
LINE
  5
7B7F
  8
1
 10
9352.5815253946184
 20
5330.9366231005306
 30
0.0
 11
9352.5815253946384
 21
5160.9366231005324
 31
0.0
  0
LINE
  5
7B80
  8
1
 10
4630.7826201966418
 20
10757.9417220337
 30
0.0
 11
4630.7826201974394
 21
8507.9417220336964
 31
0.0
  0
LINE
  5
7B81
  8
1
 10
2214.782620196665
 20
10692.94172203286
 30
0.0
 11
2214.7826201974158
 21
8572.9417220328651
 31
0.0
  0
LINE
  5
7B82
  8
1
 10
2214.782620196665
 20
10692.94172203286
 30
0.0
 11
4630.7826201966654
 21
10692.9417220337
 31
0.0
  0
LINE
  5
7B83
  8
1
 10
2214.782620197414
 20
8572.9417220328687
 30
0.0
 11
4630.7826201974149
 21
8572.9417220336982
 31
0.0
  0
LINE
  5
7B84
  8
1
 10
4565.7826201966664
 20
10692.941722033671
 30
0.0
 11
4565.7826201974149
 21
8572.9417220336763
 31
0.0
  0
LINE
  5
7B85
  8
1
 10
4624.7826201966418
 20
10757.941722033691
 30
0.0
 11
4630.7826201966454
 21
10757.9417220337
 31
0.0
  0
LINE
  5
7B86
  8
1
 10
4624.7826201974376
 20
8507.9417220336945
 30
0.0
 11
4630.7826201974394
 21
8507.9417220336964
 31
0.0
  0
LINE
  5
7B87
  8
1
 10
4624.7826201966418
 20
10757.941722033691
 30
0.0
 11
4624.7826201974376
 21
8507.9417220336945
 31
0.0
  0
LINE
  5
7B88
  8
1
 10
4535.7826201966827
 20
10692.94172203366
 30
0.0
 11
4535.7826201966573
 21
10771.94172203366
 31
0.0
  0
LINE
  5
7B89
  8
1
 10
3640.7826201974158
 20
8572.9417220333544
 30
0.0
 11
3640.782620197509
 21
8309.7471760354165
 31
0.0
  0
LINE
  5
7B8A
  8
1
 10
3530.7826201974158
 20
8572.9417220333198
 30
0.0
 11
3530.782620197509
 21
8309.7471760353928
 31
0.0
  0
DIMENSION
  5
7B9E
  8
3
  2
*D1
 10
2635.7826201966391
 20
11273.422102952751
 30
0.0
 11
3594.6007106741531
 21
11273.422102952751
 31
0.0
 70
   128
 13
4535.7826201966573
 23
10771.94172203366
 33
0.0
 14
2635.7826201966391
 24
10771.941722033011
 34
0.0
 50
0.0000000000403677
1001
ACAD
1000
DSTYLE
1002
{
1070
   287
1070
     3
1070
   287
1070
     3
1070
    40
1040
50.0
1070
   143
1040
0.039
1070
   172
1070
     1
1070
   271
1070
     0
1070
   279
1070
     0
1070
   288
1070
     1
1002
}
  0
DIMENSION
  5
7BAA
  8
3
  2
*D2
 10
1235.7826201971329
 20
11273.42210295109
 30
0.0
 11
1935.7826201968851
 21
11398.42210295109
 31
0.0
 70
     0
 13
2635.7826201966391
 23
10771.941722033011
 33
0.0
 14
1235.7826201971329
 24
9371.9417220324613
 34
0.0
 50
0.0000000000403677
1001
ACAD
1000
DSTYLE
1002
{
1070
   287
1070
     4
1070
   287
1070
     4
1070
    40
1040
50.0
1070
    75
1070
     1
1070
   143
1040
0.039
1070
   172
1070
     1
1070
   271
1070
     0
1070
   279
1070
     1
1070
   288
1070
     1
1002
}
  0
DIMENSION
  5
7BB7
  8
3
  2
*D3
 10
915.86153417612081
 20
8171.9417220324603
 30
0.0
 11
915.86153417611956
 21
8887.8205245831668
 31
0.0
 70
   128
 13
1235.7826201971329
 23
9371.9417220324613
 33
0.0
 14
1235.782620197544
 24
8171.9417220324603
 34
0.0
 50
270.00000000004042
1001
ACAD
1000
DSTYLE
1002
{
1070
   287
1070
     3
1070
   287
1070
     3
1070
    40
1040
50.0
1070
   143
1040
0.039
1070
   172
1070
     1
1070
   271
1070
     0
1070
   279
1070
     0
1070
   288
1070
     1
1002
}
  0
DIMENSION
  5
7BC4
  8
3
  2
*D4
 10
1235.782620197544
 20
7813.5423507861988
 30
0.0
 11
3077.4772351154329
 21
7813.5423507861988
 31
0.0
 70
   128
 13
4535.7816201975538
 23
8171.9417220336654
 33
0.0
 14
1235.782620197544
 24
8171.9417220324603
 34
0.0
 50
0.0000000000403677
1001
ACAD
1000
DSTYLE
1002
{
1070
   287
1070
     3
1070
   287
1070
     3
1070
    40
1040
50.0
1070
   143
1040
0.039
1070
   172
1070
     1
1070
   271
1070
     0
1070
   279
1070
     0
1070
   288
1070
     1
1002
}
  0
DIMENSION
  5
7BD1
  8
3
  2
*D5
 10
5161.5631652696393
 20
8171.9417220336654
 30
0.0
 11
5161.5631652696384
 21
9634.4184690746315
 31
0.0
 70
   128
 13
4535.7826201966573
 23
10771.94172203366
 33
0.0
 14
4535.7816201975538
 24
8171.9417220336654
 34
0.0
 50
270.00000000004042
1001
ACAD
1000
DSTYLE
1002
{
1070
   287
1070
     3
1070
   287
1070
     3
1070
    40
1040
50.0
1070
   143
1040
0.039
1070
   172
1070
     1
1070
   271
1070
     0
1070
   279
1070
     0
1070
   288
1070
     1
1002
}
  0
LINE
  5
7CB1
  8
1
 10
1235.782620198602
 20
3490.9366230993542
 30
0.0
 11
1235.782620198554
 21
3640.9366230993551
 31
0.0
  0
DIMENSION
  5
7CBF
  8
3
  2
*D6
 10
3585.7826201978178
 20
6885.3766025312634
 30
0.0
 11
4160.5105160295288
 21
6885.3766025312634
 31
0.0
 70
   128
 13
4630.7816201980131
 23
5385.9366231005197
 33
0.0
 14
3585.7826201978178
 24
6576.5072146584616
 34
0.0
 50
0.0000000000403677
1001
ACAD
1000
DSTYLE
1002
{
1070
   287
1070
     3
1070
   287
1070
     3
1070
    40
1040
50.0
1070
   143
1040
0.039
1070
   172
1070
     1
1070
   271
1070
     0
1070
   279
1070
     0
1070
   288
1070
     1
1002
}
  0
DIMENSION
  5
7CCB
  8
3
  2
*D7
 10
2214.7826201979619
 20
6885.3766025298919
 30
0.0
 11
2900.2826201978901
 21
7010.3766025298919
 31
0.0
 70
     0
 13
3585.7826201978178
 23
6576.5072146584616
 33
0.0
 14
2214.7826201979619
 24
5506.9366230991527
 34
0.0
 50
0.0000000000403677
1001
ACAD
1000
DSTYLE
1002
{
1070
   287
1070
     4
1070
   287
1070
     4
1070
    40
1040
50.0
1070
    75
1070
     1
1070
   143
1040
0.039
1070
   172
1070
     1
1070
   271
1070
     0
1070
   279
1070
     1
1070
   288
1070
     1
1002
}
  0
DIMENSION
  5
7CD8
  8
3
  2
*D8
 10
4904.5664424683919
 20
5345.9366231005188
 30
0.0
 11
4904.566442468391
 21
4505.4526845254086
 31
0.0
 70
   128
 13
4630.7816201985815
 23
3695.9366231005201
 33
0.0
 14
4630.7816201980158
 24
5345.9366231005188
 34
0.0
 50
269.99999999999892
1001
ACAD
1000
DSTYLE
1002
{
1070
   287
1070
     3
1070
   287
1070
     3
1070
    40
1040
50.0
1070
   143
1040
0.039
1070
   172
1070
     1
1070
   271
1070
     0
1070
   279
1070
     0
1070
   288
1070
     1
1002
}
  0
DIMENSION
  5
7CF2
  8
3
  2
*D9
 10
5187.1193250595297
 20
5390.9366231005397
 30
0.0
 11
5187.1193250595297
 21
4505.452684525404
 31
0.0
 70
   128
 13
4630.7816201985815
 23
3695.9366231005201
 33
0.0
 14
4692.8290036256549
 24
5390.9366231005397
 34
0.0
 50
269.99999999999892
1001
ACAD
1000
DSTYLE
1002
{
1070
   287
1070
     3
1070
   287
1070
     3
1070
    40
1040
50.0
1070
   143
1040
0.039
1070
   172
1070
     1
1070
   271
1070
     0
1070
   279
1070
     0
1070
   288
1070
     1
1002
}
  0
DIMENSION
  5
7CFE
  8
3
  2
*D10
 10
5541.8906065179171
 20
3490.9366231004869
 30
0.0
 11
5416.8906065179162
 21
4440.9366231005151
 31
0.0
 70
     0
 13
4692.8290036256549
 23
5390.9366231005433
 33
0.0
 14
4535.7826201986036
 24
3490.9366231004879
 34
0.0
 50
270.00000000004042
1001
ACAD
1000
DSTYLE
1002
{
1070
   287
1070
     3
1070
   287
1070
     3
1070
    40
1040
50.0
1070
   143
1040
0.039
1070
   172
1070
     1
1070
   271
1070
     0
1070
   279
1070
     0
1070
   288
1070
     1
1002
}
  0
DIMENSION
  5
7DB8
  8
3
  2
*D12
 10
8089.3750713920963
 20
7103.8580605912657
 30
0.0
 11
8585.8036428206688
 21
7103.8580605912657
 31
0.0
 70
   128
  1
(1300)
 13
9352.5815253946184
 23
5330.9366231005306
 33
0.0
 14
8089.3750713920963
 24
6988.8506192487775
 34
0.0
1001
ACAD
1000
DSTYLE
1002
{
1070
   287
1070
     3
1070
   287
1070
     3
1070
    40
1040
50.0
1070
   143
1040
0.039
1070
   172
1070
     1
1070
   271
1070
     0
1070
   279
1070
     0
1070
   288
1070
     1
1002
}
  0
DIMENSION
  5
7DC4
  8
3
  2
*D13
 10
6606.1805253945486
 20
7103.8580605912657
 30
0.0
 11
7347.7777983933229
 21
7353.8580605912657
 31
0.0
 70
     0
  1
MAX\P1580
 13
8089.3750713920963
 23
6988.8506192487775
 33
0.0
 14
6606.1805253945486
 24
5940.9366231002195
 34
0.0
1001
ACAD
1000
DSTYLE
1002
{
1070
   287
1070
     4
1070
   287
1070
     4
1070
    40
1040
50.0
1070
    75
1070
     1
1070
   143
1040
0.039
1070
   172
1070
     1
1070
   271
1070
     0
1070
   279
1070
     1
1070
   288
1070
     1
1002
}
  0
DIMENSION
  5
7DFC
  8
3
  2
*D14
 10
9670.07960072889
 20
4590.9366231005088
 30
0.0
 11
9670.07960072889
 21
5354.176211675338
 31
0.0
 70
   128
 13
9161.581525394522
 23
6190.9366231005097
 33
0.0
 14
9161.5815253947057
 24
4590.9366231005088
 34
0.0
 50
90.0
1001
ACAD
1000
DSTYLE
1002
{
1070
   287
1070
     3
1070
   287
1070
     3
1070
     3
1000
φ<>
1070
    40
1040
50.0
1070
   143
1040
0.039
1070
   172
1070
     1
1070
   271
1070
     0
1070
   279
1070
     0
1070
   288
1070
     1
1002
}
  0
LINE
  5
7E08
  8
1
 10
9149.5482612103078
 20
3695.9366231005092
 30
0.0
 11
7029.3805253945711
 21
5345.9366231002678
 31
0.0
  0
LINE
  5
7E09
  8
1
 10
7029.3805253946666
 20
3695.9366231002668
 30
0.0
 11
9149.3750713925074
 21
5345.9366231005088
 31
0.0
  0
DIMENSION
  5
7E17
  8
3
  2
*D15
 10
1235.782620198554
 20
7195.9283304241044
 30
0.0
 11
2812.73319610917
 21
7195.9283304241044
 31
0.0
 70
   128
 13
4630.7816201980131
 23
5385.9366231005197
 33
0.0
 14
1235.782620198554
 24
3640.9366230993551
 34
0.0
 50
0.0000000000403677
1001
ACAD
1000
DSTYLE
1002
{
1070
   287
1070
     3
1070
   287
1070
     3
1070
    40
1040
50.0
1070
   143
1040
0.039
1070
   172
1070
     1
1070
   271
1070
     0
1070
   279
1070
     0
1070
   288
1070
     1
1002
}
  0
LINE
  5
7EAD
  8
1
 10
6628.3750713927993
 20
3640.9366231002218
 30
0.0
 11
6628.3750713928257
 21
3490.9366231002218
 31
0.0
  0
LINE
  5
7EAE
  8
1
 10
9228.3750713927984
 20
3640.936623100517
 30
0.0
 11
9228.3750713928293
 21
3490.936623100517
 31
0.0
  0
LINE
  5
7EAF
  8
1
 10
9228.3750713928257
 20
3490.936623100517
 30
0.0
 11
6628.3750713928266
 21
3490.9366231002218
 31
0.0
  0
LINE
  5
7EE0
  8
4
 10
9250.0
 20
1989.2179510540079
 30
0.0
 11
9250.0
 21
989.21795105400827
 31
0.0
  0
LINE
  5
7EE1
  8
4
 10
5750.0
 20
1989.2179510540079
 30
0.0
 11
5750.0
 21
989.21795105400827
 31
0.0
  0
LINE
  5
7EE2
  8
4
 10
3250.0
 20
1989.2179510540079
 30
0.0
 11
3250.0
 21
989.21795105400827
 31
0.0
  0
LINE
  5
7EE5
  8
4
 10
3250.0
 20
989.21795105400815
 30
0.0
 11
9250.0
 21
989.21795105400815
 31
0.0
  0
LINE
  5
7EE6
  8
4
 10
3250.0
 20
1489.2179510540079
 30
0.0
 11
9250.0
 21
1489.2179510540079
 31
0.0
  0
TEXT
  5
7EE7
  8
4
 10
3442.5104042345079
 20
1646.9330803870721
 30
0.0
 40
250.0
  1
機器名称
  0
TEXT
  5
7EE8
  8
4
 10
3431.2905301239871
 20
1097.443734714062
 30
0.0
 40
250.0
  1
機器型番
  0
TEXT
  5
7EE9
  8
4
 10
5898.2903601445887
 20
1610.258914744466
 30
0.0
 40
212.5
  1
ミツヤ多翼送風機
  0
TEXT
  5
7EEA
  8
4
 10
5933.2724779274031
 20
1075.015872453725
 30
0.0
 40
250.0
  1
MF#10-5
  0
TEXT
  5
7EEC
  8
4
 10
3999.827685028838
 20
11917.14420666257
 30
0.0
 40
270.0
  1
床置ベット
  0
TEXT
  5
7EED
  8
4
 10
1493.4877664224621
 20
12669.40488099649
 30
0.0
 40
360.0
  1
遠心式両吸込両持多翼ファン
  0
LINE
  5
7EEE
  8
4
 10
1250.0
 20
12347.043771324021
 30
0.0
 11
9250.0
 21
12347.043771324021
 31
0.0
  0
LINE
  5
7EEF
  8
4
 10
1250.0
 20
13347.043771324021
 30
0.0
 11
9250.0
 21
13347.043771324021
 31
0.0
  0
LINE
  5
7EF0
  8
4
 10
3250.0
 20
1989.2179510540079
 30
0.0
 11
9250.0
 21
1989.2179510540079
 31
0.0
  0
LINE
  5
7EF1
  8
4
 10
1250.0
 20
13347.043771324021
 30
0.0
 11
1250.0
 21
12347.043771324021
 31
0.0
  0
TEXT
  5
7EF2
  8
4
 10
1820.533523815327
 20
11911.59738773171
 30
0.0
 40
270.0
  1
左回転右横向
  0
TEXT
  5
7EF3
  8
4
 10
7344.8477962464494
 20
13530.30540747654
 30
0.0
 40
280.0
  1
No.
  0
TEXT
  5
7EF4
  8
4
 10
6556.4803130000646
 20
11917.14420666257
 30
0.0
 40
270.0
  1
縮尺：1/50
  0
LINE
  5
7EF5
  8
4
 10
9250.0
 20
13347.043771324021
 30
0.0
 11
9250.0
 21
12347.043771324021
 31
0.0
  0
LINE
  5
7EF6
  8
4
 10
10500.0
 20
14750.0
 30
0.0
 11
10500.0
 21
14750.0
 31
0.0
  0
LINE
  5
7EF7
  8
4
 10
7203.0871117993229
 20
13406.317915627
 30
0.0
 11
7203.0871117993229
 21
13933.26130774876
 31
0.0
  0
LINE
  5
7EF8
  8
4
 10
7203.0871117993229
 20
13933.26130774876
 30
0.0
 11
9250.0
 21
13933.26130774876
 31
0.0
  0
LINE
  5
7EF9
  8
4
 10
9250.0
 20
13933.26130774876
 30
0.0
 11
9250.0
 21
13406.317915627
 31
0.0
  0
LINE
  5
7EFA
  8
4
 10
9250.0
 20
13406.317915627
 30
0.0
 11
7203.0871117993229
 21
13406.317915627
 31
0.0
  0
LINE
  5
7EFB
  8
4
 10
0.0
 20
0.0
 30
0.0
 11
0.0
 21
14750.0
 31
0.0
  0
LINE
  5
7EFC
  8
4
 10
0.0
 20
14750.0
 30
0.0
 11
10500.0
 21
14750.0
 31
0.0
  0
LINE
  5
7EFD
  8
4
 10
10500.0
 20
14750.0
 30
0.0
 11
10500.0
 21
0.0
 31
0.0
  0
LINE
  5
7EFE
  8
4
 10
10500.0
 20
0.0
 30
0.0
 11
0.0
 21
0.0
 31
0.0
  0
LINE
  5
7F22
  8
1
 10
1601.466645951605
 20
4186.7551433912868
 30
0.0
 11
3197.156582472468
 21
5780.12783934452
 31
0.0
  0
LINE
  5
7F23
  8
1
 10
3871.5421589782568
 20
4920.9988761633076
 30
0.0
 11
1944.7902121727359
 21
3749.3803984990332
 31
0.0
  0
LINE
  5
7F24
  8
1
 10
1710.792595789376
 20
4076.8778991112331
 30
0.0
 11
3302.5185145842011
 21
5673.3573136857021
 31
0.0
  0
LINE
  5
7F25
  8
1
 10
1864.020972227343
 20
3881.6736409460809
 30
0.0
 11
3792.8493191856919
 21
5048.7036875572167
 31
0.0
  0
DIMENSION
  5
7FD1
  8
3
  2
*D16
 10
5541.8906065157744
 20
6529.9366231001204
 30
0.0
 11
5416.8906065157726
 21
5960.4366231003314
 31
0.0
 70
     0
 13
4692.8290036256549
 23
5390.9366231005433
 33
0.0
 14
3469.7826201971561
 24
6529.9366231001204
 34
0.0
 50
270.00000000004042
1001
ACAD
1000
DSTYLE
1002
{
1070
   287
1070
     4
1070
   287
1070
     4
1070
    40
1040
50.0
1070
    75
1070
     1
1070
   143
1040
0.039
1070
   172
1070
     1
1070
   271
1070
     0
1070
   279
1070
     1
1070
   288
1070
     1
1002
}
  0
LINE
  5
8005
  8
1
 10
7029.3805253946666
 20
3703.5426231013362
 30
0.0
 11
7029.3805253946666
 21
3695.9366231002691
 31
0.0
  0
LINE
  5
800A
  8
1
 10
9149.3750713922891
 20
6529.9366231005097
 30
0.0
 11
7029.380525394462
 21
6529.9366231002678
 31
0.0
  0
DIMENSION
  5
802D
  8
3
  2
*D17
 10
9149.3750713922891
 20
6746.8047186818949
 30
0.0
 11
8090.8903107407959
 21
6746.8047186818949
 31
0.0
 70
   128
 13
7029.380525394462
 23
6529.9366231002678
 33
0.0
 14
9149.3750713922891
 24
6529.9366231005097
 34
0.0
1001
ACAD
1000
DSTYLE
1002
{
1070
   287
1070
     3
1070
   287
1070
     3
1070
    40
1040
50.0
1070
   143
1040
0.039
1070
   172
1070
     1
1070
   271
1070
     0
1070
   279
1070
     0
1070
   288
1070
     1
1002
}
  0
LINE
  5
812F
  8
1
 10
9228.3750713927984
 20
3640.936623100517
 30
0.0
 11
6628.3750713928102
 21
3640.9366231002218
 31
0.0
  0
LINE
  5
8131
  8
1
 10
9149.3750713922873
 20
6529.9366231005097
 30
0.0
 11
9149.3750713928148
 21
3695.9366231005092
 31
0.0
  0
DIMENSION
  5
81C8
  8
3
  2
*D19
 10
3585.7826201986122
 20
3167.3298124035932
 30
0.0
 11
2410.7826201986081
 21
3292.3298124035932
 31
0.0
 70
     0
 13
1235.7826201986029
 23
3490.9366230993542
 33
0.0
 14
3585.7826201986122
 24
3490.9366231001609
 34
0.0
1001
ACAD
1000
DSTYLE
1002
{
1070
   172
1070
     1
1070
    40
1040
50.0
1070
   271
1070
     0
1070
   143
1040
0.039
1002
}
  0
DIMENSION
  5
81D5
  8
3
  2
*D20
 10
4535.7826201986036
 20
3167.3298124035932
 30
0.0
 11
4060.7826201986072
 21
3292.3298124035932
 31
0.0
 70
     0
 13
3585.7826201986122
 23
3490.9366231001609
 33
0.0
 14
4535.7826201986036
 24
3490.9366231004879
 34
0.0
1001
ACAD
1000
DSTYLE
1002
{
1070
   172
1070
     1
1070
    40
1040
50.0
1070
   271
1070
     0
1070
   143
1040
0.039
1002
}
  0
DIMENSION
  5
81E2
  8
3
  2
*D21
 10
8089.3750713928421
 20
3167.3298124035932
 30
0.0
 11
7358.8750713928348
 21
3292.3298124035932
 31
0.0
 70
     0
 13
6628.3750713928266
 23
3490.9366231002218
 33
0.0
 14
8089.3750713928421
 24
3490.9366231003878
 34
0.0
1001
ACAD
1000
DSTYLE
1002
{
1070
   172
1070
     1
1070
    40
1040
50.0
1070
   271
1070
     0
1070
   143
1040
0.039
1002
}
  0
DIMENSION
  5
81EF
  8
3
  2
*D22
 10
9228.3750713928293
 20
3167.3298124035932
 30
0.0
 11
8658.8750713928366
 21
3292.3298124035932
 31
0.0
 70
     0
 13
8089.3750713928421
 23
3490.9366231003878
 33
0.0
 14
9228.3750713928293
 24
3490.936623100517
 34
0.0
1001
ACAD
1000
DSTYLE
1002
{
1070
   172
1070
     1
1070
    40
1040
50.0
1070
   271
1070
     0
1070
   143
1040
0.039
1002
}
  0
DIMENSION
  5
81FC
  8
3
  2
*D23
 10
5885.3272457424537
 20
6529.9366231001204
 30
0.0
 11
5760.3272457424537
 21
5010.4366231003041
 31
0.0
 70
     0
 13
4535.7826201986036
 23
3490.9366231004879
 33
0.0
 14
3494.7826201971561
 24
6529.9366231001204
 34
0.0
 50
90.0
1001
ACAD
1000
DSTYLE
1002
{
1070
   172
1070
     1
1070
    40
1040
50.0
1070
   271
1070
     0
1070
   143
1040
0.039
1002
}
  0
ENDSEC
  0
EOF
