  0
SECTION
  2
HEADER
  9
$ACADVER
  1
AC1009
  9
$INSBASE
 10
0.0
 20
0.0
 30
0.0
  9
$EXTMIN
 10
0.0
 20
0.0
 30
0.0
  9
$EXTMAX
 10
10500.0
 20
14750.0
 30
0.0
  9
$LIMMIN
 10
0.0
 20
0.0
  9
$LIMMAX
 10
297.0
 20
210.0
  9
$ORTHOMODE
 70
     0
  9
$REGENMODE
 70
     1
  9
$FILLMODE
 70
     0
  9
$QTEXTMODE
 70
     0
  9
$MIRRTEXT
 70
     1
  9
$DRAGMODE
 70
     2
  9
$LTSCALE
 40
100.0
  9
$OSMODE
 70
    37
  9
$ATTMODE
 70
     1
  9
$TEXTSIZE
 40
180.0
  9
$TRACEWID
 40
0.05
  9
$TEXTSTYLE
  7
STANDARD
  9
$CLAYER
  8
3
  9
$CELTYPE
  6
BYLAYER
  9
$CECOLOR
 62
   256
  9
$DIMSCALE
 40
50.0
  9
$DIMASZ
 40
2.0
  9
$DIMEXO
 40
0.5
  9
$DIMDLI
 40
10.0
  9
$DIMRND
 40
0.0
  9
$DIMDLE
 40
0.0
  9
$DIMEXE
 40
1.0
  9
$DIMTP
 40
1.0
  9
$DIMTM
 40
1.0
  9
$DIMTXT
 40
3.0
  9
$DIMCEN
 40
0.0
  9
$DIMTSZ
 40
0.0
  9
$DIMTOL
 70
     0
  9
$DIMLIM
 70
     0
  9
$DIMTIH
 70
     0
  9
$DIMTOH
 70
     0
  9
$DIMSE1
 70
     0
  9
$DIMSE2
 70
     0
  9
$DIMTAD
 70
     1
  9
$DIMZIN
 70
     8
  9
$DIMBLK
  1

  9
$DIMASO
 70
     1
  9
$DIMSHO
 70
     1
  9
$DIMPOST
  1

  9
$DIMAPOST
  1

  9
$DIMALT
 70
     0
  9
$DIMALTD
 70
     2
  9
$DIMALTF
 40
0.039
  9
$DIMLFAC
 40
1.0
  9
$DIMTOFL
 70
     1
  9
$DIMTVP
 40
0.0
  9
$DIMTIX
 70
     0
  9
$DIMSOXD
 70
     0
  9
$DIMSAH
 70
     1
  9
$DIMBLK1
  1
OPEN
  9
$DIMBLK2
  1
OPEN
  9
$DIMSTYLE
  2
IGA
  9
$DIMCLRD
 70
     0
  9
$DIMCLRE
 70
     0
  9
$DIMCLRT
 70
     0
  9
$DIMTFAC
 40
10.0
  9
$DIMGAP
 40
1.0
  9
$LUNITS
 70
     2
  9
$LUPREC
 70
     3
  9
$SKETCHINC
 40
0.1
  9
$FILLETRAD
 40
50.0
  9
$AUNITS
 70
     0
  9
$AUPREC
 70
     0
  9
$MENU
  1
acad
  9
$ELEVATION
 40
0.0
  9
$PELEVATION
 40
0.0
  9
$THICKNESS
 40
0.0
  9
$LIMCHECK
 70
     0
  9
$BLIPMODE
 70
     0
  9
$CHAMFERA
 40
0.5
  9
$CHAMFERB
 40
0.5
  9
$SKPOLY
 70
     0
  9
$TDCREATE
 40
2452326.4454812501
  9
$TDUPDATE
 40
2454953.8298896528
  9
$TDINDWG
 40
0.0482472222
  9
$TDUSRTIMER
 40
0.0482472222
  9
$USRTIMER
 70
     1
  9
$ANGBASE
 50
0.0
  9
$ANGDIR
 70
     0
  9
$PDMODE
 70
     0
  9
$PDSIZE
 40
0.0
  9
$PLINEWID
 40
0.0
  9
$COORDS
 70
     1
  9
$SPLFRAME
 70
     0
  9
$SPLINETYPE
 70
     6
  9
$SPLINESEGS
 70
     8
  9
$ATTDIA
 70
     0
  9
$ATTREQ
 70
     1
  9
$HANDLING
 70
 10241
  9
$HANDSEED
  5
8150
  9
$SURFTAB1
 70
     6
  9
$SURFTAB2
 70
     6
  9
$SURFTYPE
 70
     6
  9
$SURFU
 70
     6
  9
$SURFV
 70
     6
  9
$UCSNAME
  2

  9
$UCSORG
 10
0.0
 20
0.0
 30
0.0
  9
$UCSXDIR
 10
1.0
 20
0.0
 30
0.0
  9
$UCSYDIR
 10
0.0
 20
1.0
 30
0.0
  9
$PUCSNAME
  2

  9
$PUCSORG
 10
0.0
 20
0.0
 30
0.0
  9
$PUCSXDIR
 10
1.0
 20
0.0
 30
0.0
  9
$PUCSYDIR
 10
0.0
 20
1.0
 30
0.0
  9
$USERI1
 70
     0
  9
$USERI2
 70
     0
  9
$USERI3
 70
     0
  9
$USERI4
 70
     0
  9
$USERI5
 70
     0
  9
$USERR1
 40
0.0
  9
$USERR2
 40
0.0
  9
$USERR3
 40
0.0
  9
$USERR4
 40
0.0
  9
$USERR5
 40
0.0
  9
$WORLDVIEW
 70
     1
  9
$SHADEDGE
 70
     3
  9
$SHADEDIF
 70
    70
  9
$TILEMODE
 70
     1
  9
$MAXACTVP
 70
    16
  9
$PLIMCHECK
 70
     0
  9
$PEXTMIN
 10
1.0000000000000000E+020
 20
1.0000000000000000E+020
 30
1.0000000000000000E+020
  9
$PEXTMAX
 10
-1.0000000000000000E+020
 20
-1.0000000000000000E+020
 30
-1.0000000000000000E+020
  9
$PLIMMIN
 10
0.0
 20
0.0
  9
$PLIMMAX
 10
12.0
 20
9.0
  9
$UNITMODE
 70
     0
  9
$VISRETAIN
 70
     0
  9
$PLINEGEN
 70
     0
  9
$PSLTSCALE
 70
     1
  0
ENDSEC
  0
SECTION
  2
TABLES
  0
TABLE
  2
VPORT
 70
     2
  0
VPORT
  2
*ACTIVE
 70
     0
 10
0.0
 20
0.0
 11
1.0
 21
1.0
 12
15069.956616052061
 22
10012.49454014673
 13
0.0
 23
0.0
 14
10.0
 24
10.0
 15
10.0
 25
10.0
 16
0.0
 26
0.0
 36
1.0
 17
0.0
 27
0.0
 37
0.0
 40
20024.989080293471
 41
1.5051150895140659
 42
50.0
 43
0.0
 44
0.0
 50
0.0
 51
0.0
 71
     0
 72
   100
 73
     1
 74
     0
 75
     0
 76
     0
 77
     0
 78
     0
  0
ENDTAB
  0
TABLE
  2
LTYPE
 70
     2
  0
LTYPE
  2
CONTINUOUS
 70
     0
  3
Solid line
 72
    65
 73
     0
 40
0.0
  0
LTYPE
  2
CENTER
 70
     0
  3
____ _ ____ _ ____ _ ____ _ ____ _ ____ _ ____ 
 72
    65
 73
     4
 40
2.0
 49
1.25
 49
-0.25
 49
0.25
 49
-0.25
  0
ENDTAB
  0
TABLE
  2
LAYER
 70
     6
  0
LAYER
  2
0
 70
     0
 62
     7
  6
CONTINUOUS
  0
LAYER
  2
3
 70
     0
 62
     2
  6
CONTINUOUS
  0
LAYER
  2
2
 70
     0
 62
     3
  6
CENTER
  0
LAYER
  2
1
 70
     0
 62
     4
  6
CONTINUOUS
  0
LAYER
  2
4
 70
     0
 62
     7
  6
CONTINUOUS
  0
LAYER
  2
DEFPOINTS
 70
     0
 62
     7
  6
CONTINUOUS
  0
ENDTAB
  0
TABLE
  2
STYLE
 70
     1
  0
STYLE
  2
STANDARD
 70
     0
 40
0.0
 41
1.0
 50
0.0
 71
     0
 42
180.0
  3
simplex.shx
  4
extfont.shx
  0
ENDTAB
  0
TABLE
  2
VIEW
 70
     0
  0
ENDTAB
  0
TABLE
  2
UCS
 70
     0
  0
ENDTAB
  0
TABLE
  2
APPID
 70
     1
  0
APPID
  2
ACAD
 70
     0
  0
ENDTAB
  0
TABLE
  2
DIMSTYLE
 70
     1
  0
DIMSTYLE
  2
IGA
 70
     0
  3

  4

  5

  6
OPEN
  7
OPEN
 40
2.0
 41
2.0
 42
0.5
 43
10.0
 44
1.0
 45
0.0
 46
0.0
 47
1.0
 48
1.0
140
3.0
141
0.0
142
0.0
143
0.03937
144
1.0
145
0.0
146
10.0
147
1.0
 71
     0
 72
     0
 73
     0
 74
     0
 75
     0
 76
     0
 77
     1
 78
     8
170
     0
171
     2
172
     0
173
     1
174
     0
175
     0
176
     0
177
     0
178
     0
  0
ENDTAB
  0
ENDSEC
  0
SECTION
  2
BLOCKS
  0
BLOCK
  8
0
  2
$MODEL_SPACE
 70
     0
 10
0.0
 20
0.0
 30
0.0
  3
$MODEL_SPACE
  1

  0
ENDBLK
  5
1B
  8
0
  0
BLOCK
 67
     1
  8
0
  2
$PAPER_SPACE
 70
     0
 10
0.0
 20
0.0
 30
0.0
  3
$PAPER_SPACE
  1

  0
ENDBLK
  5
18
 67
     1
  8
0
  0
BLOCK
  8
0
  2
_OPEN
 70
     0
 10
0.0
 20
0.0
 30
0.0
  3
_OPEN
  1

  0
LINE
  5
7B8E
  8
0
  6
BYBLOCK
 62
     0
 10
-1.0
 20
0.1666666666666666
 30
0.0
 11
0.0
 21
0.0
 31
0.0
  0
LINE
  5
7B8F
  8
0
  6
BYBLOCK
 62
     0
 10
0.0
 20
0.0
 30
0.0
 11
-1.0
 21
-0.1666666666666666
 31
0.0
  0
LINE
  5
7B90
  8
0
  6
BYBLOCK
 62
     0
 10
0.0
 20
0.0
 30
0.0
 11
-1.0
 21
0.0
 31
0.0
  0
ENDBLK
  5
7B91
  8
0
  0
BLOCK
  8
0
  2
*D1
 70
     1
 10
0.0
 20
0.0
 30
0.0
  3
*D1
  1

  0
LINE
  5
80BA
  8
3
 62
     0
 10
2421.800394985818
 20
10796.941722032991
 30
0.0
 11
2421.800394985818
 21
11323.42210295274
 31
0.0
  0
LINE
  5
80BB
  8
3
 62
     0
 10
4321.8003949858348
 20
10796.94172203368
 30
0.0
 11
4321.8003949858348
 21
11323.42210295274
 31
0.0
  0
LINE
  5
80BC
  8
3
 62
     0
 10
2521.800394985818
 20
11273.42210295274
 30
0.0
 11
4221.8003949858357
 21
11273.42210295274
 31
0.0
  0
INSERT
  5
80BD
  8
3
 62
     0
  2
_OPEN
 10
2421.800394985818
 20
11273.42210295274
 30
0.0
 41
100.0
 42
100.0
 43
100.0
 50
180.0
  0
INSERT
  5
80BE
  8
3
 62
     0
  2
_OPEN
 10
4321.8003949858348
 20
11273.42210295274
 30
0.0
 41
100.0
 42
100.0
 43
100.0
  0
TEXT
  8
3
  40
150
  5
8140
  62
0
  72
0
  71
0
 10
3062.98
 20
11132.9
 30
0.000000
  1
1900
  0
POINT
  5
80C0
  8
DEFPOINTS
 62
     0
 10
2421.800394985818
 20
10771.941722032991
 30
0.0
  0
POINT
  5
80C1
  8
DEFPOINTS
 62
     0
 10
4321.8003949858348
 20
10771.94172203368
 30
0.0
  0
POINT
  5
80C2
  8
DEFPOINTS
 62
     0
 10
4321.8003949858348
 20
11273.42210295274
 30
0.0
  0
ENDBLK
  5
7EAC
  8
0
  0
BLOCK
  8
0
  2
*D2
 70
     1
 10
0.0
 20
0.0
 30
0.0
  3
*D2
  1

  0
LINE
  5
80C3
  8
3
 62
     0
 10
5721.8003949863278
 20
9396.9417220341165
 30
0.0
 11
5721.8003949863278
 21
11323.42210295274
 31
0.0
  0
LINE
  5
80C4
  8
3
 62
     0
 10
4421.8003949858357
 20
11273.42210295274
 30
0.0
 11
5621.8003949863287
 21
11273.42210295274
 31
0.0
  0
INSERT
  5
80C5
  8
3
 62
     0
  2
_OPEN
 10
4321.8003949858348
 20
11273.42210295274
 30
0.0
 41
100.0
 42
100.0
 43
100.0
 50
180.0
  0
INSERT
  5
80C6
  8
3
 62
     0
  2
_OPEN
 10
5721.8003949863278
 20
11273.42210295274
 30
0.0
 41
100.0
 42
100.0
 43
100.0
  0
TEXT
  8
3
  40
150
  5
8141
  62
0
  72
0
  71
0
 10
4721.80
 20
11132.9
 30
0.000000
  1
1400
  0
POINT
  5
80C8
  8
DEFPOINTS
 62
     0
 10
4321.8003949858348
 20
10771.94172203368
 30
0.0
  0
POINT
  5
80C9
  8
DEFPOINTS
 62
     0
 10
5721.8003949863278
 20
9371.9417220341165
 30
0.0
  0
POINT
  5
80CA
  8
DEFPOINTS
 62
     0
 10
5721.8003949863278
 20
11273.42210295274
 30
0.0
  0
ENDBLK
  5
7C99
  8
0
  0
BLOCK
  8
0
  2
*D3
 70
     1
 10
0.0
 20
0.0
 30
0.0
  3
*D3
  1

  0
LINE
  5
80CB
  8
3
 62
     0
 10
5746.8003949863287
 20
9371.9417220341165
 30
0.0
 11
6091.7214810076839
 21
9371.9417220341165
 31
0.0
  0
LINE
  5
80CC
  8
3
 62
     0
 10
5746.8003949867634
 20
8171.9417220341184
 30
0.0
 11
6091.7214810076839
 21
8171.9417220341184
 31
0.0
  0
LINE
  5
80CD
  8
3
 62
     0
 10
6041.7214810076848
 20
9271.9417220341165
 30
0.0
 11
6041.7214810076848
 21
8271.9417220341147
 31
0.0
  0
INSERT
  5
80CE
  8
3
 62
     0
  2
_OPEN
 10
6041.7214810076848
 20
9371.9417220341165
 30
0.0
 41
100.0
 42
100.0
 43
100.0
 50
90.0
  0
INSERT
  5
80CF
  8
3
 62
     0
  2
_OPEN
 10
6041.7214810076848
 20
8171.9417220341184
 30
0.0
 41
100.0
 42
100.0
 43
100.0
 50
270.0
  0
TEXT
  8
3
  40
150
  5
8142
  62
0
  72
0
  71
0
 10
5616.72
 20
8622.32
 30
0.000000
  1
1200
  0
POINT
  5
80D1
  8
DEFPOINTS
 62
     0
 10
5721.8003949863278
 20
9371.9417220341165
 30
0.0
  0
POINT
  5
80D2
  8
DEFPOINTS
 62
     0
 10
5721.8003949867643
 20
8171.9417220341184
 30
0.0
  0
POINT
  5
80D3
  8
DEFPOINTS
 62
     0
 10
6041.7214810076848
 20
8171.9417220341184
 30
0.0
  0
ENDBLK
  5
7CAF
  8
0
  0
BLOCK
  8
0
  2
*D4
 70
     1
 10
0.0
 20
0.0
 30
0.0
  3
*D4
  1

  0
LINE
  5
80D4
  8
3
 62
     0
 10
2421.8013949867518
 20
8146.941722032996
 30
0.0
 11
2421.8013949867518
 21
7763.5423507865571
 31
0.0
  0
LINE
  5
80D5
  8
3
 62
     0
 10
5721.8003949867643
 20
8146.9417220341174
 30
0.0
 11
5721.8003949867643
 21
7763.5423507865571
 31
0.0
  0
LINE
  5
80D6
  8
3
 62
     0
 10
2521.8013949867518
 20
7813.5423507865571
 30
0.0
 11
5621.8003949867634
 21
7813.5423507865571
 31
0.0
  0
INSERT
  5
80D7
  8
3
 62
     0
  2
_OPEN
 10
2421.8013949867518
 20
7813.5423507865571
 30
0.0
 41
100.0
 42
100.0
 43
100.0
 50
180.0
  0
INSERT
  5
80D8
  8
3
 62
     0
  2
_OPEN
 10
5721.8003949867643
 20
7813.5423507865571
 30
0.0
 41
100.0
 42
100.0
 43
100.0
  0
TEXT
  8
3
  40
150
  5
8143
  62
0
  72
0
  71
0
 10
3580.11
 20
7673.04
 30
0.000000
  1
3300
  0
POINT
  5
80DA
  8
DEFPOINTS
 62
     0
 10
2421.8013949867518
 20
8171.9417220329951
 30
0.0
  0
POINT
  5
80DB
  8
DEFPOINTS
 62
     0
 10
5721.8003949867643
 20
8171.9417220341184
 30
0.0
  0
POINT
  5
80DC
  8
DEFPOINTS
 62
     0
 10
5721.8003949867643
 20
7813.5423507865571
 30
0.0
  0
ENDBLK
  5
7CA4
  8
0
  0
BLOCK
  8
0
  2
*D5
 70
     1
 10
0.0
 20
0.0
 30
0.0
  3
*D5
  1

  0
LINE
  5
80DD
  8
3
 62
     0
 10
2396.800394985818
 20
10771.941722032991
 30
0.0
 11
1902.8021939558839
 21
10771.941722032991
 31
0.0
  0
LINE
  5
80DE
  8
3
 62
     0
 10
2396.8013949867518
 20
8171.9417220329951
 30
0.0
 11
1902.802193955883
 21
8171.9417220329969
 31
0.0
  0
LINE
  5
80DF
  8
3
 62
     0
 10
1952.802193955883
 20
10671.941722032991
 30
0.0
 11
1952.802193955883
 21
8271.941722032996
 31
0.0
  0
INSERT
  5
80E0
  8
3
 62
     0
  2
_OPEN
 10
1952.8021939558839
 20
10771.941722032991
 30
0.0
 41
100.0
 42
100.0
 43
100.0
 50
90.0
  0
INSERT
  5
80E1
  8
3
 62
     0
  2
_OPEN
 10
1952.802193955883
 20
8171.9417220329969
 30
0.0
 41
100.0
 42
100.0
 43
100.0
 50
270.0
  0
TEXT
  8
3
  40
150
  5
8144
  62
0
  72
0
  71
0
 10
1527.80
 20
9368.92
 30
0.000000
  1
2600
  0
POINT
  5
80E3
  8
DEFPOINTS
 62
     0
 10
2421.800394985818
 20
10771.941722032991
 30
0.0
  0
POINT
  5
80E4
  8
DEFPOINTS
 62
     0
 10
2421.8013949867518
 20
8171.9417220329951
 30
0.0
  0
POINT
  5
80E5
  8
DEFPOINTS
 62
     0
 10
1952.802193955883
 20
8171.9417220329969
 30
0.0
  0
ENDBLK
  5
7EA1
  8
0
  0
BLOCK
  8
0
  2
*D6
 70
     1
 10
0.0
 20
0.0
 30
0.0
  3
*D6
  1

  0
LINE
  5
80E6
  8
3
 62
     0
 10
2326.801394987629
 20
6307.2870539984724
 30
0.0
 11
2326.801394987629
 21
6681.1564418712442
 31
0.0
  0
LINE
  5
80E7
  8
3
 62
     0
 10
3371.8003949876138
 20
6347.2870539988498
 30
0.0
 11
3371.8003949876138
 21
6681.1564418712442
 31
0.0
  0
LINE
  5
80E8
  8
3
 62
     0
 10
2426.801394987629
 20
6631.1564418712442
 30
0.0
 11
3271.8003949876138
 21
6631.1564418712442
 31
0.0
  0
INSERT
  5
80E9
  8
3
 62
     0
  2
_OPEN
 10
2326.801394987629
 20
6631.1564418712442
 30
0.0
 41
100.0
 42
100.0
 43
100.0
 50
180.0
  0
INSERT
  5
80EA
  8
3
 62
     0
  2
_OPEN
 10
3371.8003949876138
 20
6631.1564418712442
 30
0.0
 41
100.0
 42
100.0
 43
100.0
  0
TEXT
  8
3
  40
150
  5
8145
  62
0
  72
0
  71
0
 10
2497.07
 20
6490.66
 30
0.000000
  1
1045
  0
POINT
  5
80EC
  8
DEFPOINTS
 62
     0
 10
2326.801394987629
 20
6282.2870539984706
 30
0.0
  0
POINT
  5
80ED
  8
DEFPOINTS
 62
     0
 10
3371.8003949876138
 20
6322.2870539988498
 30
0.0
  0
POINT
  5
80EE
  8
DEFPOINTS
 62
     0
 10
3371.8003949876138
 20
6631.1564418712442
 30
0.0
  0
ENDBLK
  5
7CBE
  8
0
  0
BLOCK
  8
0
  2
*D7
 70
     1
 10
0.0
 20
0.0
 30
0.0
  3
*D7
  1

  0
LINE
  5
80EF
  8
3
 62
     0
 10
4742.8003949882241
 20
4663.287053998808
 30
0.0
 11
4742.8003949882241
 21
6681.1564418712442
 31
0.0
  0
LINE
  5
80F0
  8
3
 62
     0
 10
3471.8003949876152
 20
6631.1564418712442
 30
0.0
 11
4642.8003949882232
 21
6631.1564418712442
 31
0.0
  0
INSERT
  5
80F1
  8
3
 62
     0
  2
_OPEN
 10
3371.8003949876138
 20
6631.1564418712442
 30
0.0
 41
100.0
 42
100.0
 43
100.0
 50
180.0
  0
INSERT
  5
80F2
  8
3
 62
     0
  2
_OPEN
 10
4742.8003949882241
 20
6631.1564418712442
 30
0.0
 41
100.0
 42
100.0
 43
100.0
  0
TEXT
  8
3
  40
150
  5
8146
  62
0
  72
0
  71
0
 10
3757.30
 20
6490.66
 30
0.000000
  1
1371
  0
POINT
  5
80F4
  8
DEFPOINTS
 62
     0
 10
3371.8003949876138
 20
6322.2870539988498
 30
0.0
  0
POINT
  5
80F5
  8
DEFPOINTS
 62
     0
 10
4742.8003949882241
 20
4638.287053998808
 30
0.0
  0
POINT
  5
80F6
  8
DEFPOINTS
 62
     0
 10
4742.8003949882241
 20
6631.1564418712442
 30
0.0
  0
ENDBLK
  5
7CCA
  8
0
  0
BLOCK
  8
0
  2
*D8
 70
     1
 10
0.0
 20
0.0
 30
0.0
  3
*D8
  1

  0
LINE
  5
80F7
  8
3
 62
     0
 10
2301.8013949876549
 20
6217.2870539984733
 30
0.0
 11
2003.0165727178619
 21
6217.2870539984733
 31
0.0
  0
LINE
  5
80F8
  8
3
 62
     0
 10
2301.8013949882511
 20
4567.2870539984733
 30
0.0
 11
2003.016572717861
 21
4567.2870539984742
 31
0.0
  0
LINE
  5
80F9
  8
3
 62
     0
 10
2053.016572717861
 20
6117.2870539984733
 30
0.0
 11
2053.016572717861
 21
4667.2870539984742
 31
0.0
  0
INSERT
  5
80FA
  8
3
 62
     0
  2
_OPEN
 10
2053.016572717861
 20
6217.2870539984733
 30
0.0
 41
100.0
 42
100.0
 43
100.0
 50
90.0
  0
INSERT
  5
80FB
  8
3
 62
     0
  2
_OPEN
 10
2053.016572717861
 20
4567.2870539984733
 30
0.0
 41
100.0
 42
100.0
 43
100.0
 50
270.0
  0
TEXT
  8
3
  40
150
  5
8147
  62
0
  72
0
  71
0
 10
1628.02
 20
5142.27
 30
0.000000
  1
1650
  0
POINT
  5
80FD
  8
DEFPOINTS
 62
     0
 10
2326.8013949876549
 20
6217.2870539984733
 30
0.0
  0
POINT
  5
80FE
  8
DEFPOINTS
 62
     0
 10
2326.8013949882511
 20
4567.2870539984733
 30
0.0
  0
POINT
  5
80FF
  8
DEFPOINTS
 62
     0
 10
2053.016572717861
 20
4567.2870539984733
 30
0.0
  0
ENDBLK
  5
7CD7
  8
0
  0
BLOCK
  8
0
  2
*D9
 70
     1
 10
0.0
 20
0.0
 30
0.0
  3
*D9
  1

  0
LINE
  5
8100
  8
3
 62
     0
 10
2301.8013949876549
 20
6217.2870539984733
 30
0.0
 11
1720.4636901267229
 21
6217.2870539984733
 31
0.0
  0
LINE
  5
8101
  8
3
 62
     0
 10
2239.754011560613
 20
4522.2870539984488
 30
0.0
 11
1720.463690126722
 21
4522.2870539984497
 31
0.0
  0
LINE
  5
8102
  8
3
 62
     0
 10
1770.4636901267229
 20
6117.2870539984742
 30
0.0
 11
1770.4636901267229
 21
4622.2870539984506
 31
0.0
  0
INSERT
  5
8103
  8
3
 62
     0
  2
_OPEN
 10
1770.4636901267229
 20
6217.2870539984733
 30
0.0
 41
100.0
 42
100.0
 43
100.0
 50
90.0
  0
INSERT
  5
8104
  8
3
 62
     0
  2
_OPEN
 10
1770.4636901267229
 20
4522.2870539984497
 30
0.0
 41
100.0
 42
100.0
 43
100.0
 50
270.0
  0
TEXT
  8
3
  40
150
  5
8148
  62
0
  72
0
  71
0
 10
1345.46
 20
5142.27
 30
0.000000
  1
1695
  0
POINT
  5
8106
  8
DEFPOINTS
 62
     0
 10
2326.8013949876549
 20
6217.2870539984733
 30
0.0
  0
POINT
  5
8107
  8
DEFPOINTS
 62
     0
 10
2264.754011560613
 20
4522.2870539984488
 30
0.0
  0
POINT
  5
8108
  8
DEFPOINTS
 62
     0
 10
1770.4636901267229
 20
4522.2870539984497
 30
0.0
  0
ENDBLK
  5
7CF1
  8
0
  0
BLOCK
  8
0
  2
*D10
 70
     1
 10
0.0
 20
0.0
 30
0.0
  3
*D10
  1

  0
LINE
  5
8109
  8
3
 62
     0
 10
2396.8003949887379
 20
3352.3930539985058
 30
0.0
 11
1720.463690126722
 21
3352.3930539985058
 31
0.0
  0
LINE
  5
810A
  8
3
 62
     0
 10
1770.463690126722
 20
4422.2870539984497
 30
0.0
 11
1770.463690126722
 21
3452.3930539985058
 31
0.0
  0
INSERT
  5
810B
  8
3
 62
     0
  2
_OPEN
 10
1770.463690126722
 20
4522.2870539984497
 30
0.0
 41
100.0
 42
100.0
 43
100.0
 50
90.0
  0
INSERT
  5
810C
  8
3
 62
     0
  2
_OPEN
 10
1770.463690126722
 20
3352.3930539985058
 30
0.0
 41
100.0
 42
100.0
 43
100.0
 50
270.0
  0
TEXT
  8
3
  40
150
  5
8149
  62
0
  72
0
  71
0
 10
1345.46
 20
3671.84
 30
0.000000
  1
1170
  0
POINT
  5
810E
  8
DEFPOINTS
 62
     0
 10
2264.754011560613
 20
4522.2870539984488
 30
0.0
  0
POINT
  5
810F
  8
DEFPOINTS
 62
     0
 10
2421.8003949887379
 20
3352.3930539985058
 30
0.0
  0
POINT
  5
8110
  8
DEFPOINTS
 62
     0
 10
1770.463690126722
 20
3352.3930539985058
 30
0.0
  0
ENDBLK
  5
7E88
  8
0
  0
BLOCK
  8
0
  2
_DOT
 70
     0
 10
0.0
 20
0.0
 30
0.0
  3
_DOT
  1

  0
LINE
  5
7F05
  8
0
  6
BYBLOCK
 62
     0
 10
0.0
 20
0.0
 30
0.0
 11
-1.0
 21
-0.0000000000000284
 31
0.0
  0
POLYLINE
  5
7F06
  8
0
  6
BYBLOCK
 62
     0
 66
     1
 10
0.0
 20
0.0
 30
0.0
 70
     1
 40
0.1666666666666666
 41
0.1666666666666666
  0
VERTEX
  5
813D
  8
0
  6
BYBLOCK
 62
     0
 10
-0.0833333333333286
 20
-0.0000000000000284
 30
0.0
 42
1.0
  0
VERTEX
  5
813E
  8
0
  6
BYBLOCK
 62
     0
 10
0.0833333333333286
 20
-0.0000000000000284
 30
0.0
 42
1.0
  0
SEQEND
  5
813F
  8
0
  6
BYBLOCK
 62
     0
  0
ENDBLK
  5
7D33
  8
0
  0
BLOCK
  8
0
  2
*D12
 70
     1
 10
0.0
 20
0.0
 30
0.0
  3
*D12
  1

  0
LINE
  5
8111
  8
3
 62
     0
 10
6825.5634309014413
 20
6242.2870539989553
 30
0.0
 11
6825.5634309014413
 21
6513.3684146924652
 31
0.0
  0
LINE
  5
8112
  8
3
 62
     0
 10
8945.7311667170798
 20
6242.2870539991964
 30
0.0
 11
8945.7311667170798
 21
6513.3684146924652
 31
0.0
  0
LINE
  5
8113
  8
3
 62
     0
 10
6925.5634309014413
 20
6463.3684146924652
 30
0.0
 11
8845.7311667170798
 21
6463.3684146924652
 31
0.0
  0
INSERT
  5
8114
  8
3
 62
     0
  2
_OPEN
 10
6825.5634309014413
 20
6463.3684146924652
 30
0.0
 41
100.0
 42
100.0
 43
100.0
 50
180.0
  0
INSERT
  5
8115
  8
3
 62
     0
  2
_OPEN
 10
8945.7311667170798
 20
6463.3684146924652
 30
0.0
 41
100.0
 42
100.0
 43
100.0
  0
TEXT
  8
3
  40
150
  5
814A
  62
0
  72
0
  71
0
 10
7585.77
 20
6322.87
 30
0.000000
  1
2120
  0
POINT
  5
8117
  8
DEFPOINTS
 62
     0
 10
6825.5634309014413
 20
6217.2870539989553
 30
0.0
  0
POINT
  5
8118
  8
DEFPOINTS
 62
     0
 10
8945.7311667170798
 20
6217.2870539991964
 30
0.0
  0
POINT
  5
8119
  8
DEFPOINTS
 62
     0
 10
8945.7311667170798
 20
6463.3684146924652
 30
0.0
  0
ENDBLK
  5
7DAA
  8
0
  0
BLOCK
  8
0
  2
*D13
 70
     1
 10
0.0
 20
0.0
 30
0.0
  3
*D13
  1

  0
LINE
  5
811A
  8
3
 62
     0
 10
9148.764430901776
 20
4487.28705399922
 30
0.0
 11
9148.764430901776
 21
6868.4397124042216
 31
0.0
  0
LINE
  5
811B
  8
3
 62
     0
 10
7885.5579768992557
 20
6728.4322710617362
 30
0.0
 11
7885.5579768992557
 21
6868.4397124042216
 31
0.0
  0
LINE
  5
811C
  8
3
 62
     0
 10
9048.764430901776
 20
6818.4397124042216
 30
0.0
 11
7985.5579768992548
 21
6818.4397124042216
 31
0.0
  0
INSERT
  5
811D
  8
3
 62
     0
  2
_OPEN
 10
9148.764430901776
 20
6818.4397124042216
 30
0.0
 41
100.0
 42
100.0
 43
100.0
  0
INSERT
  5
811E
  8
3
 62
     0
  2
_OPEN
 10
7885.5579768992557
 20
6818.4397124042216
 30
0.0
 41
100.0
 42
100.0
 43
100.0
 50
180.0
  0
TEXT
  8
3
  40
150
  5
814B
  62
0
  72
0
  71
0
 10
8081.99
 20
6717.23
 30
0.000000
  1
(1300)
  0
POINT
  5
8120
  8
DEFPOINTS
 62
     0
 10
9148.764430901776
 20
4462.28705399922
 30
0.0
  0
POINT
  5
8121
  8
DEFPOINTS
 62
     0
 10
7885.5579768992557
 20
6703.4322710617362
 30
0.0
  0
POINT
  5
8122
  8
DEFPOINTS
 62
     0
 10
7885.5579768992557
 20
6818.4397124042216
 30
0.0
  0
ENDBLK
  5
7DEF
  8
0
  0
BLOCK
  8
0
  2
*D14
 70
     1
 10
0.0
 20
0.0
 30
0.0
  3
*D14
  1

  0
LINE
  5
8123
  8
3
 62
     0
 10
6402.363430901707
 20
5097.287053998908
 30
0.0
 11
6402.363430901707
 21
6868.4397124042216
 31
0.0
  0
LINE
  5
8124
  8
3
 62
     0
 10
7785.5579768992548
 20
6818.4397124042216
 30
0.0
 11
6502.363430901707
 21
6818.4397124042216
 31
0.0
  0
INSERT
  5
8125
  8
3
 62
     0
  2
_OPEN
 10
7885.5579768992557
 20
6818.4397124042216
 30
0.0
 41
100.0
 42
100.0
 43
100.0
  0
INSERT
  5
8126
  8
3
 62
     0
  2
_OPEN
 10
6402.363430901707
 20
6818.4397124042216
 30
0.0
 41
100.0
 42
100.0
 43
100.0
 50
180.0
  0
TEXT
  8
3
  40
150
  5
814C
  62
0
  72
0
  71
0
 10
6843.96
 20
6802.94
 30
0.000000
  1
MAX
  0
TEXT
  8
3
  40
150
  5
814D
  62
0
  72
0
  71
0
 10
6843.96
 20
6607.94
 30
0.000000
  1
1580
  0
POINT
  5
8128
  8
DEFPOINTS
 62
     0
 10
7885.5579768992557
 20
6703.4322710617362
 30
0.0
  0
POINT
  5
8129
  8
DEFPOINTS
 62
     0
 10
6402.363430901707
 20
5072.287053998908
 30
0.0
  0
POINT
  5
812A
  8
DEFPOINTS
 62
     0
 10
6402.363430901707
 20
6818.4397124042216
 30
0.0
  0
ENDBLK
  5
7DE4
  8
0
  0
BLOCK
  8
0
  2
*D15
 70
     1
 10
0.0
 20
0.0
 30
0.0
  3
*D15
  1

  0
LINE
  5
812B
  8
3
 62
     0
 10
8982.7644309016796
 20
5322.2870539991982
 30
0.0
 11
9516.2625062360476
 21
5322.2870539991982
 31
0.0
  0
LINE
  5
812C
  8
3
 62
     0
 10
8982.7644309018633
 20
3722.2870539991982
 30
0.0
 11
9516.2625062360457
 21
3722.2870539991982
 31
0.0
  0
LINE
  5
812D
  8
3
 62
     0
 10
9466.2625062360476
 20
5222.2870539991982
 30
0.0
 11
9466.2625062360476
 21
3822.2870539991982
 31
0.0
  0
INSERT
  5
812E
  8
3
 62
     0
  2
_OPEN
 10
9466.2625062360476
 20
5322.2870539991982
 30
0.0
 41
100.0
 42
100.0
 43
100.0
 50
90.0
  0
INSERT
  5
812F
  8
3
 62
     0
  2
_OPEN
 10
9466.2625062360476
 20
3722.2870539991982
 30
0.0
 41
100.0
 42
100.0
 43
100.0
 50
270.0
  0
TEXT
  8
3
  40
150
  5
814E
  62
0
  72
0
  71
0
 10
9041.26
 20
4220.03
 30
0.000000
  1
φ1600
  0
POINT
  5
8131
  8
DEFPOINTS
 62
     0
 10
8957.7644309016814
 20
5322.2870539991982
 30
0.0
  0
POINT
  5
8132
  8
DEFPOINTS
 62
     0
 10
8957.7644309018615
 20
3722.2870539991982
 30
0.0
  0
POINT
  5
8133
  8
DEFPOINTS
 62
     0
 10
9466.2625062360476
 20
3722.2870539991982
 30
0.0
  0
ENDBLK
  5
7E07
  8
0
  0
BLOCK
  8
0
  2
*D16
 70
     1
 10
0.0
 20
0.0
 30
0.0
  3
*D16
  1

  0
LINE
  5
8134
  8
3
 62
     0
 10
2326.801394987629
 20
6307.2870539984724
 30
0.0
 11
2326.801394987629
 21
6991.7081697650356
 31
0.0
  0
LINE
  5
8135
  8
3
 62
     0
 10
5721.8003949886834
 20
3527.3930539996982
 30
0.0
 11
5721.8003949886834
 21
6991.7081697650356
 31
0.0
  0
LINE
  5
8136
  8
3
 62
     0
 10
2426.801394987629
 20
6941.7081697650356
 30
0.0
 11
5621.8003949886834
 21
6941.7081697650356
 31
0.0
  0
INSERT
  5
8137
  8
3
 62
     0
  2
_OPEN
 10
2326.801394987629
 20
6941.7081697650356
 30
0.0
 41
100.0
 42
100.0
 43
100.0
 50
180.0
  0
INSERT
  5
8138
  8
3
 62
     0
  2
_OPEN
 10
5721.8003949886834
 20
6941.7081697650356
 30
0.0
 41
100.0
 42
100.0
 43
100.0
  0
TEXT
  8
3
  40
150
  5
814F
  62
0
  72
0
  71
0
 10
3844.85
 20
6801.21
 30
0.000000
  1
3395
  0
POINT
  5
813A
  8
DEFPOINTS
 62
     0
 10
2326.801394987629
 20
6282.2870539984706
 30
0.0
  0
POINT
  5
813B
  8
DEFPOINTS
 62
     0
 10
5721.8003949886834
 20
3502.3930539996991
 30
0.0
  0
POINT
  5
813C
  8
DEFPOINTS
 62
     0
 10
5721.8003949886834
 20
6941.7081697650356
 30
0.0
  0
ENDBLK
  5
7E16
  8
0
  0
BLOCK
  8
0
  2
_NONE
 70
     0
 10
0.0
 20
0.0
 30
0.0
  3
_NONE
  1

  0
CIRCLE
  5
7F79
  8
0
  6
BYBLOCK
 62
     0
 10
0.0
 20
0.0
 30
0.0
 40
0.25
  0
ENDBLK
  5
7F7A
  8
0
  0
BLOCK
  8
0
  2
*D18
 70
     1
 10
0.0
 20
0.0
 30
0.0
  3
*D18
  1

  0
LINE
  5
7FA9
  8
0
  6
BYBLOCK
 62
     0
 10
2421.8003949887379
 20
3327.3930539985058
 30
0.0
 11
2421.8003949887379
 21
2976.7265903197331
 31
0.0
  0
LINE
  5
7FAA
  8
0
  6
BYBLOCK
 62
     0
 10
3371.8003949887402
 20
3327.3930539988501
 30
0.0
 11
3371.8003949887402
 21
2976.7265903197331
 31
0.0
  0
LINE
  5
7FAB
  8
0
  6
BYBLOCK
 62
     0
 10
2521.8003949887379
 20
3026.7265903197331
 30
0.0
 11
3271.8003949887402
 21
3026.7265903197331
 31
0.0
  0
INSERT
  5
7FAC
  8
0
  6
BYBLOCK
 62
     0
  2
_OPEN
 10
2421.8003949887379
 20
3026.7265903197331
 30
0.0
 41
100.0
 42
100.0
 43
100.0
 50
180.0
  0
INSERT
  5
7FAD
  8
0
  6
BYBLOCK
 62
     0
  2
_OPEN
 10
3371.8003949887402
 20
3026.7265903197331
 30
0.0
 41
100.0
 42
100.0
 43
100.0
  0
TEXT
  5
7FAE
  8
3
 62
     0
 10
2703.9432521315971
 20
3076.7265903197331
 30
0.0
 40
150.0
  1
950
  0
POINT
  5
7FAF
  8
DEFPOINTS
  6
BYBLOCK
 62
     0
 10
2421.8003949887379
 20
3352.3930539985058
 30
0.0
  0
POINT
  5
7FB0
  8
DEFPOINTS
  6
BYBLOCK
 62
     0
 10
3371.8003949887402
 20
3352.3930539988501
 30
0.0
  0
POINT
  5
7FB1
  8
DEFPOINTS
  6
BYBLOCK
 62
     0
 10
3371.8003949887402
 20
3026.7265903197331
 30
0.0
  0
ENDBLK
  5
7FB2
  8
0
  0
BLOCK
  8
0
  2
*D19
 70
     1
 10
0.0
 20
0.0
 30
0.0
  3
*D19
  1

  0
LINE
  5
7FB6
  8
0
  6
BYBLOCK
 62
     0
 10
3371.8003949887402
 20
3327.3930539988501
 30
0.0
 11
3371.8003949887402
 21
2976.7265903197331
 31
0.0
  0
LINE
  5
7FB7
  8
0
  6
BYBLOCK
 62
     0
 10
5721.8003949887407
 20
3327.3930539997
 30
0.0
 11
5721.8003949887407
 21
2976.7265903197331
 31
0.0
  0
LINE
  5
7FB8
  8
0
  6
BYBLOCK
 62
     0
 10
3471.8003949887411
 20
3026.7265903197331
 30
0.0
 11
5621.8003949887407
 21
3026.7265903197331
 31
0.0
  0
INSERT
  5
7FB9
  8
0
  6
BYBLOCK
 62
     0
  2
_OPEN
 10
3371.8003949887402
 20
3026.7265903197331
 30
0.0
 41
100.0
 42
100.0
 43
100.0
 50
180.0
  0
INSERT
  5
7FBA
  8
0
  6
BYBLOCK
 62
     0
  2
_OPEN
 10
5721.8003949887407
 20
3026.7265903197331
 30
0.0
 41
100.0
 42
100.0
 43
100.0
  0
TEXT
  5
7FBB
  8
3
 62
     0
 10
4282.5146807030269
 20
3076.7265903197331
 30
0.0
 40
150.0
  1
2350
  0
POINT
  5
7FBC
  8
DEFPOINTS
  6
BYBLOCK
 62
     0
 10
3371.8003949887402
 20
3352.3930539988501
 30
0.0
  0
POINT
  5
7FBD
  8
DEFPOINTS
  6
BYBLOCK
 62
     0
 10
5721.8003949887407
 20
3352.3930539997
 30
0.0
  0
POINT
  5
7FBE
  8
DEFPOINTS
  6
BYBLOCK
 62
     0
 10
5721.8003949887407
 20
3026.7265903197331
 30
0.0
  0
ENDBLK
  5
7FBF
  8
0
  0
BLOCK
  8
0
  2
*D20
 70
     1
 10
0.0
 20
0.0
 30
0.0
  3
*D20
  1

  0
LINE
  5
7FC3
  8
0
  6
BYBLOCK
 62
     0
 10
6424.5579768999014
 20
3327.2870539989099
 30
0.0
 11
6424.5579768999014
 21
2976.7265903197331
 31
0.0
  0
LINE
  5
7FC4
  8
0
  6
BYBLOCK
 62
     0
 10
7885.5579768999223
 20
3327.2870539990772
 30
0.0
 11
7885.5579768999223
 21
2976.7265903197331
 31
0.0
  0
LINE
  5
7FC5
  8
0
  6
BYBLOCK
 62
     0
 10
6524.5579768999014
 20
3026.7265903197331
 30
0.0
 11
7785.5579768999223
 21
3026.7265903197331
 31
0.0
  0
INSERT
  5
7FC6
  8
0
  6
BYBLOCK
 62
     0
  2
_OPEN
 10
6424.5579768999014
 20
3026.7265903197331
 30
0.0
 41
100.0
 42
100.0
 43
100.0
 50
180.0
  0
INSERT
  5
7FC7
  8
0
  6
BYBLOCK
 62
     0
  2
_OPEN
 10
7885.5579768999223
 20
3026.7265903197331
 30
0.0
 41
100.0
 42
100.0
 43
100.0
  0
TEXT
  5
7FC8
  8
3
 62
     0
 10
6937.2008340427674
 20
3076.7265903197331
 30
0.0
 40
150.0
  1
1461
  0
POINT
  5
7FC9
  8
DEFPOINTS
  6
BYBLOCK
 62
     0
 10
6424.5579768999014
 20
3352.2870539989099
 30
0.0
  0
POINT
  5
7FCA
  8
DEFPOINTS
  6
BYBLOCK
 62
     0
 10
7885.5579768999223
 20
3352.2870539990772
 30
0.0
  0
POINT
  5
7FCB
  8
DEFPOINTS
  6
BYBLOCK
 62
     0
 10
7885.5579768999223
 20
3026.7265903197331
 30
0.0
  0
ENDBLK
  5
7FCC
  8
0
  0
BLOCK
  8
0
  2
*D21
 70
     1
 10
0.0
 20
0.0
 30
0.0
  3
*D21
  1

  0
LINE
  5
7FD0
  8
0
  6
BYBLOCK
 62
     0
 10
7885.5579768999223
 20
3327.2870539990772
 30
0.0
 11
7885.5579768999223
 21
2976.7265903197331
 31
0.0
  0
LINE
  5
7FD1
  8
0
  6
BYBLOCK
 62
     0
 10
9024.5579768999032
 20
3327.287053999205
 30
0.0
 11
9024.5579768999032
 21
2976.7265903197331
 31
0.0
  0
LINE
  5
7FD2
  8
0
  6
BYBLOCK
 62
     0
 10
7985.5579768999223
 20
3026.7265903197331
 30
0.0
 11
8924.5579768999032
 21
3026.7265903197331
 31
0.0
  0
INSERT
  5
7FD3
  8
0
  6
BYBLOCK
 62
     0
  2
_OPEN
 10
7885.5579768999223
 20
3026.7265903197331
 30
0.0
 41
100.0
 42
100.0
 43
100.0
 50
180.0
  0
INSERT
  5
7FD4
  8
0
  6
BYBLOCK
 62
     0
  2
_OPEN
 10
9024.5579768999032
 20
3026.7265903197331
 30
0.0
 41
100.0
 42
100.0
 43
100.0
  0
TEXT
  5
7FD5
  8
3
 62
     0
 10
8222.9151197570554
 20
3076.7265903197331
 30
0.0
 40
150.0
  1
1139
  0
POINT
  5
7FD6
  8
DEFPOINTS
  6
BYBLOCK
 62
     0
 10
7885.5579768999223
 20
3352.2870539990772
 30
0.0
  0
POINT
  5
7FD7
  8
DEFPOINTS
  6
BYBLOCK
 62
     0
 10
9024.5579768999032
 20
3352.287053999205
 30
0.0
  0
POINT
  5
7FD8
  8
DEFPOINTS
  6
BYBLOCK
 62
     0
 10
9024.5579768999032
 20
3026.7265903197331
 30
0.0
  0
ENDBLK
  5
7FD9
  8
0
  0
BLOCK
  8
0
  2
*D22
 70
     1
 10
0.0
 20
0.0
 30
0.0
  3
*D22
  1

  0
LINE
  5
7FDD
  8
0
  6
BYBLOCK
 62
     0
 10
2396.8003949887379
 20
3352.3930539985058
 30
0.0
 11
1407.5365563514929
 21
3352.3930539985058
 31
0.0
  0
LINE
  5
7FDE
  8
0
  6
BYBLOCK
 62
     0
 10
2276.8013949876549
 20
6217.2870539984733
 30
0.0
 11
1407.5365563514929
 21
6217.2870539984733
 31
0.0
  0
LINE
  5
7FDF
  8
0
  6
BYBLOCK
 62
     0
 10
1457.5365563514929
 20
3452.3930539985058
 30
0.0
 11
1457.5365563514929
 21
6117.2870539984733
 31
0.0
  0
INSERT
  5
7FE0
  8
0
  6
BYBLOCK
 62
     0
  2
_OPEN
 10
1457.5365563514929
 20
3352.3930539985058
 30
0.0
 41
100.0
 42
100.0
 43
100.0
 50
270.0
  0
INSERT
  5
7FE1
  8
0
  6
BYBLOCK
 62
     0
  2
_OPEN
 10
1457.5365563514929
 20
6217.2870539984733
 30
0.0
 41
100.0
 42
100.0
 43
100.0
 50
90.0
  0
TEXT
  5
7FE2
  8
3
 62
     0
 10
1407.5365563514929
 20
4520.554339712774
 30
0.0
 40
150.0
  1
2865
 50
90.0
  0
POINT
  5
7FE3
  8
DEFPOINTS
  6
BYBLOCK
 62
     0
 10
2421.8003949887379
 20
3352.3930539985058
 30
0.0
  0
POINT
  5
7FE4
  8
DEFPOINTS
  6
BYBLOCK
 62
     0
 10
2301.8013949876549
 20
6217.2870539984733
 30
0.0
  0
POINT
  5
7FE5
  8
DEFPOINTS
  6
BYBLOCK
 62
     0
 10
1457.5365563514929
 20
6217.2870539984733
 30
0.0
  0
ENDBLK
  5
7FE6
  8
0
  0
ENDSEC
  0
SECTION
  2
ENTITIES
  0
LINE
  5
7AC9
  8
1
 10
5292.956566944621
 20
4095.5562395613929
 30
0.0
 11
3636.362535356935
 21
5004.4767198810168
 31
0.0
  0
ARC
  5
7ACA
  8
1
 10
5158.2703863933039
 20
3850.0778642031992
 30
0.0
 40
280.0
 50
253.30026975113219
 51
61.247823465623263
  0
LINE
  5
7ACB
  8
1
 10
3565.136675427264
 20
4872.4599865136479
 30
0.0
 11
5218.6879740304912
 21
3959.5069056140728
 31
0.0
  0
CIRCLE
  5
7ACE
  8
1
 10
5158.2703863933039
 20
3850.0778642031992
 30
0.0
 40
125.0
  0
LINE
  5
7ACF
  8
2
 10
4789.2233464453066
 20
3850.077864203065
 30
0.0
 11
5508.8975567223506
 21
3850.0778642033251
 31
0.0
  0
LINE
  5
7AD0
  8
1
 10
5313.7495186690066
 20
3581.887186835781
 30
0.0
 11
5002.7912541177911
 21
3581.88718683567
 31
0.0
  0
LINE
  5
7AD1
  8
1
 10
5158.2703863934112
 20
3554.9866817691109
 30
0.0
 11
5304.0171951035627
 21
3554.9866817691632
 31
0.0
  0
ARC
  5
7AD2
  8
1
 10
5158.2703863933039
 20
3850.0778642031992
 30
0.0
 40
310.0
 50
300.1023080683326
 51
239.89769193170881
  0
LINE
  5
7AD3
  8
1
 10
5721.8003949887398
 20
3352.3930539997
 30
0.0
 11
2421.8003949887361
 21
3352.3930539985058
 31
0.0
  0
LINE
  5
7AD4
  8
1
 10
5721.8003949886834
 20
3502.3930539996991
 30
0.0
 11
2421.8003949886838
 21
3502.3930539985058
 31
0.0
  0
LINE
  5
7AD7
  8
1
 10
5438.2703863933593
 20
3717.0365172467691
 30
0.0
 11
5438.2703863934039
 21
3570.0778642033001
 31
0.0
  0
LINE
  5
7AD8
  8
1
 10
5438.2703863934039
 20
3570.0778642033001
 30
0.0
 11
5328.2703863934039
 21
3570.0778642032601
 31
0.0
  0
LINE
  5
7AD9
  8
1
 10
5438.2703863933939
 20
3600.0778642032992
 30
0.0
 11
5341.5734141916282
 21
3600.0778642032651
 31
0.0
  0
LINE
  5
7ADA
  8
1
 10
5304.0171951035582
 20
3570.077864203251
 30
0.0
 11
5497.1648789521578
 21
3570.0778642033192
 31
0.0
  0
LINE
  5
7AE5
  8
1
 10
5497.1648789521578
 20
3570.0778642033192
 30
0.0
 11
5507.9030812861338
 21
3502.3930539996209
 31
0.0
  0
LINE
  5
7AE6
  8
1
 10
5328.2703863933984
 20
3590.8482362669461
 30
0.0
 11
5328.2703863934048
 21
3570.0778642032601
 31
0.0
  0
LINE
  5
7AE8
  8
1
 10
5304.0171951035627
 20
3554.9866817691632
 30
0.0
 11
5304.0171951035582
 21
3570.077864203251
 31
0.0
  0
CIRCLE
  5
7AE9
  8
1
 10
3371.8003949882982
 20
4522.2870539988498
 30
0.0
 40
865.0
  0
CIRCLE
  5
7AEA
  8
1
 10
3371.8003949882982
 20
4522.2870539988498
 30
0.0
 40
800.0
  0
ARC
  5
7AEB
  8
1
 10
3371.80039498828
 20
4522.2870539988498
 30
0.0
 40
550.0
 50
61.247823465623263
 51
257.51175660079991
  0
CIRCLE
  5
7AEC
  8
1
 10
3371.8003949882659
 20
4522.2870539988498
 30
0.0
 40
400.0
  0
LINE
  5
7AED
  8
2
 10
3371.8003949887402
 20
3352.3930539988501
 30
0.0
 11
3371.8003949876138
 21
6322.2870539988498
 31
0.0
  0
LINE
  5
7AEE
  8
1
 10
2391.8013949882511
 20
4567.287053998496
 30
0.0
 11
2391.8013949876558
 21
6211.2827276785656
 31
0.0
  0
LINE
  5
7AEF
  8
1
 10
2332.8013949882729
 20
4502.2870539984751
 30
0.0
 11
2332.801394987629
 21
6282.287053998476
 31
0.0
  0
LINE
  5
7AF0
  8
1
 10
2326.8013949876549
 20
6217.2870539984733
 30
0.0
 11
2326.8013949882511
 21
4567.2870539984733
 31
0.0
  0
ARC
  5
7AF1
  8
1
 10
3255.8003949882241
 20
4638.287053998808
 30
0.0
 40
1487.0
 50
355.5260000000207
 51
85.525000000020668
  0
LINE
  5
7AF2
  8
1
 10
5097.7233874765407
 20
3576.7025527316368
 30
0.0
 11
3252.8687899732081
 21
3985.299835036853
 31
0.0
  0
LINE
  5
7AF3
  8
1
 10
5131.5635708287055
 20
3727.964204023845
 30
0.0
 11
3286.3385851815501
 21
4131.5233414249196
 31
0.0
  0
LINE
  5
7AF4
  8
2
 10
2264.754011560613
 20
4522.2870539984488
 30
0.0
 11
4881.7510638954573
 21
4522.2870539993946
 31
0.0
  0
ARC
  5
7AF5
  8
1
 10
3468.8003949883018
 20
4425.2870539988853
 30
0.0
 40
1042.0
 50
174.65900000002071
 51
242.3371474318262
  0
ARC
  5
7AF6
  8
1
 10
3487.8003949882241
 20
4638.2870539988926
 30
0.0
 40
1255.0
 50
295.16394315627872
 51
354.69700000002058
  0
LINE
  5
7AF7
  8
2
 10
5158.2703863930337
 20
4233.7101038497858
 30
0.0
 11
5158.2703863936549
 21
3352.3930539994949
 31
0.0
  0
LINE
  5
7AF8
  8
1
 10
4878.270386393353
 20
3717.0365172465508
 30
0.0
 11
4878.2703863934057
 21
3570.0778642030959
 31
0.0
  0
LINE
  5
7AF9
  8
1
 10
5012.5235776832533
 20
3570.0778642031451
 30
0.0
 11
4819.3758938346527
 21
3570.077864203075
 31
0.0
  0
LINE
  5
7AFA
  8
1
 10
4974.9673585951623
 20
3600.0778642031319
 30
0.0
 11
4878.2703863933948
 21
3600.0778642030969
 31
0.0
  0
LINE
  5
7AFB
  8
1
 10
5158.2703863934112
 20
3554.9866817691109
 30
0.0
 11
5012.5235776832596
 21
3554.9866817690581
 31
0.0
  0
LINE
  5
7AFD
  8
1
 10
4988.2703863933993
 20
3590.8482362668228
 30
0.0
 11
4988.2703863934057
 21
3570.077864203136
 31
0.0
  0
LINE
  5
7AFE
  8
1
 10
5012.5235776832596
 20
3554.9866817690581
 30
0.0
 11
5012.5235776832533
 21
3570.0778642031451
 31
0.0
  0
LINE
  5
7B01
  8
1
 10
4819.3758938346527
 20
3570.077864203075
 30
0.0
 11
4808.6376915007249
 21
3502.3930539993689
 31
0.0
  0
LINE
  5
7B0B
  8
1
 10
2326.8013949882511
 20
4567.2870539984733
 30
0.0
 11
2391.8013949882511
 21
4567.287053998496
 31
0.0
  0
LINE
  5
7B0C
  8
1
 10
2438.7743949882502
 20
4567.2870539985124
 30
0.0
 11
2326.8013949882511
 21
4567.2870539984733
 31
0.0
  0
LINE
  5
7B0D
  8
1
 10
2421.8003949886838
 20
3502.3930539985058
 30
0.0
 11
2421.8003949887379
 21
3352.3930539985058
 31
0.0
  0
POINT
  5
7B0F
  8
1
 10
2421.8003949887361
 20
3352.3930539985058
 30
0.0
 50
0.0000000000065138
  0
ARC
  5
7B11
  8
1
 10
3274.8003949883
 20
4425.2870539988144
 30
0.0
 40
848.0
 50
170.36024588593111
 51
173.43200000002071
  0
LINE
  5
7B12
  8
1
 10
2326.8013949882729
 20
4502.2870539984724
 30
0.0
 11
2326.8013949882511
 21
4567.2870539984733
 31
0.0
  0
LINE
  5
7B13
  8
1
 10
2326.8013949882729
 20
4502.2870539984724
 30
0.0
 11
2332.8013949882729
 21
4502.2870539984751
 31
0.0
  0
LINE
  5
7B14
  8
1
 10
2326.8013949876549
 20
6217.2870539984733
 30
0.0
 11
3371.800394987687
 21
6120.756053998849
 31
0.0
  0
LINE
  5
7B15
  8
1
 10
2326.801394987629
 20
6282.2870539984706
 30
0.0
 11
2332.801394987629
 21
6282.287053998476
 31
0.0
  0
LINE
  5
7B16
  8
1
 10
2326.8013949876549
 20
6217.2870539984733
 30
0.0
 11
2326.801394987629
 21
6282.2870539984706
 31
0.0
  0
LINE
  5
7B17
  8
1
 10
5255.8460532105391
 20
8429.7471760363278
 30
0.0
 11
5084.8460532105382
 21
8429.7471760362059
 31
0.0
  0
LINE
  5
7B18
  8
1
 10
5212.8460532106646
 20
8249.7471760362969
 30
0.0
 11
5127.8460532106646
 21
8249.747176036235
 31
0.0
  0
LINE
  5
7B19
  8
1
 10
5220.3460532105446
 20
8419.7471760363005
 30
0.0
 11
5120.3460532105446
 21
8419.7471760362314
 31
0.0
  0
LINE
  5
7B1A
  8
1
 10
4882.8460532105346
 20
8436.2471760360659
 30
0.0
 11
5450.3460532105346
 21
8436.2471760364624
 31
0.0
  0
LINE
  5
7B1B
  8
1
 10
5450.3460532099343
 20
9288.7471760364624
 30
0.0
 11
4882.8460532099343
 21
9288.747176036064
 31
0.0
  0
LINE
  5
7B1C
  8
1
 10
5450.3460532107429
 20
8149.7471760364133
 30
0.0
 11
2821.8003949871108
 21
8149.7471760351227
 31
0.0
  0
LINE
  5
7B1D
  8
1
 10
5295.3460532107201
 20
8189.7471760363233
 30
0.0
 11
2971.8003949870872
 21
8189.7471760352128
 31
0.0
  0
LINE
  5
7B1E
  8
1
 10
5295.3460532106492
 20
8309.7471760363223
 30
0.0
 11
2971.8003949870158
 21
8309.7471760352146
 31
0.0
  0
LINE
  5
7B1F
  8
1
 10
5721.8003949863314
 20
9371.9417220341165
 30
0.0
 11
4742.8003949863296
 21
9371.9417220338819
 31
0.0
  0
LINE
  5
7B20
  8
1
 10
5721.8003949867643
 20
8171.9417220341184
 30
0.0
 11
2421.8003949867511
 21
8171.9417220329969
 31
0.0
  0
LINE
  5
7B21
  8
2
 10
5170.3460532107347
 20
8149.747176036276
 30
0.0
 11
5170.3460532099343
 21
9288.7471760362641
 31
0.0
  0
LINE
  5
7B22
  8
1
 10
5295.3460532106492
 20
8309.7471760363078
 30
0.0
 11
5295.3460532107201
 21
8189.7471760363069
 31
0.0
  0
LINE
  5
7B23
  8
1
 10
5450.3460532106219
 20
8356.2370963538033
 30
0.0
 11
5450.3460532107429
 21
8149.7471760363987
 31
0.0
  0
LINE
  5
7B24
  8
1
 10
5450.3460532099343
 20
9288.7471760364624
 30
0.0
 11
5450.3460532105346
 21
8436.2471760364624
 31
0.0
  0
LINE
  5
7B25
  8
1
 10
5721.8003949863278
 20
9371.9417220341184
 30
0.0
 11
5721.8003949867643
 21
8171.9417220341184
 31
0.0
  0
LINE
  5
7B26
  8
1
 10
5450.3460532105746
 20
8356.2370963538033
 30
0.0
 11
5305.810474472255
 21
8356.2370963537178
 31
0.0
  0
LINE
  5
7B27
  8
1
 10
5220.3460532105446
 20
8419.7471760363005
 30
0.0
 11
5220.3460532105382
 21
8429.7471760363005
 31
0.0
  0
LINE
  5
7B28
  8
1
 10
5212.8460532106646
 20
8249.7471760362969
 30
0.0
 11
5212.8460532105464
 21
8419.7471760362969
 31
0.0
  0
ARC
  5
7B29
  8
1
 10
5255.8460532105364
 20
8431.747176036326
 30
0.0
 40
2.0
 50
270.00000000004019
 51
0.0000000000402492
  0
LINE
  5
7B2A
  8
1
 10
5257.8460532105346
 20
8436.5955510363274
 30
0.0
 11
5257.8460532105373
 21
8431.7471760363278
 31
0.0
  0
LINE
  5
7B2B
  8
2
 10
3371.8003949858612
 20
10696.941722033331
 30
0.0
 11
3371.800394986758
 21
8149.7471760353928
 31
0.0
  0
LINE
  5
7B2C
  8
1
 10
2421.8003949867511
 20
8171.9417220329951
 30
0.0
 11
2421.8003949866079
 21
8572.9417220329979
 31
0.0
  0
LINE
  5
7B2D
  8
1
 10
4321.8003949858639
 20
10692.941722033671
 30
0.0
 11
4321.8003949858348
 21
10771.941722033671
 31
0.0
  0
LINE
  5
7B2E
  8
2
 10
4742.8003949862368
 20
9632.9417220338346
 30
0.0
 11
2109.8685497975562
 21
9632.9417220328833
 31
0.0
  0
LINE
  5
7B2F
  8
1
 10
5045.3460532106492
 20
8309.7471760361586
 30
0.0
 11
5045.3460532107201
 21
8189.7471760361623
 31
0.0
  0
LINE
  5
7B30
  8
1
 10
3771.8003949870158
 20
8309.7471760356839
 30
0.0
 11
3771.8003949870872
 21
8189.7471760356839
 31
0.0
  0
LINE
  5
7B31
  8
1
 10
4882.8460532105346
 20
8436.2471760360659
 30
0.0
 11
4882.8460532099343
 21
9288.747176036064
 31
0.0
  0
LINE
  5
7B32
  8
1
 10
5120.3460532105446
 20
8419.7471760362314
 30
0.0
 11
5120.3460532105382
 21
8429.7471760362314
 31
0.0
  0
LINE
  5
7B35
  8
1
 10
5127.8460532106646
 20
8249.747176036235
 30
0.0
 11
5127.8460532105446
 21
8419.747176036235
 31
0.0
  0
ARC
  5
7B36
  8
1
 10
5084.8460532105373
 20
8431.7471760362077
 30
0.0
 40
2.0
 50
180.00000000004019
 51
270.00000000004019
  0
LINE
  5
7B37
  8
1
 10
5082.8460532105337
 20
8436.2471760362041
 30
0.0
 11
5082.8460532105373
 21
8431.7471760362023
 31
0.0
  0
LINE
  5
7B38
  8
1
 10
2971.8003949870158
 20
8309.7471760352146
 30
0.0
 11
2971.8003949870872
 21
8189.7471760352128
 31
0.0
  0
LINE
  5
7B39
  8
1
 10
2821.8003949869881
 20
8356.2370963525264
 30
0.0
 11
2821.8003949871108
 21
8149.7471760351254
 31
0.0
  0
LINE
  5
7B3A
  8
1
 10
3055.9194139980241
 20
8356.2370963526664
 30
0.0
 11
2821.8003949869881
 21
8356.2370963525264
 31
0.0
  0
LINE
  5
7B3B
  8
1
 10
4321.8003949858348
 20
10771.94172203368
 30
0.0
 11
2421.800394985818
 21
10771.941722032991
 31
0.0
  0
LINE
  5
7B3C
  8
2
 10
9198.6127180860403
 20
4522.2870539992246
 30
0.0
 11
6330.751461325699
 21
4522.287053998899
 31
0.0
  0
LINE
  5
7B3D
  8
1
 10
8949.4501525659161
 20
4462.2870539991973
 30
0.0
 11
9148.764430901776
 21
4462.28705399922
 31
0.0
  0
LINE
  5
7B3E
  8
1
 10
8949.5211745139168
 20
4222.5507506789527
 30
0.0
 11
9148.7644309017978
 21
4292.28705399922
 31
0.0
  0
LINE
  5
7B3F
  8
2
 10
7885.5579768992957
 20
6482.5441788835869
 30
0.0
 11
7885.5579768999223
 21
3352.2870539990772
 31
0.0
  0
LINE
  5
7B40
  8
1
 10
8946.5351631573412
 20
3502.2870539991959
 30
0.0
 11
8945.7311667170798
 21
6217.2870539991964
 31
0.0
  0
LINE
  5
7B41
  8
1
 10
6825.5634309017178
 20
4567.2870539989553
 30
0.0
 11
6825.5634309014413
 21
6217.2870539989553
 31
0.0
  0
LINE
  5
7B42
  8
1
 10
6562.363430901858
 20
3727.3930540000329
 30
0.0
 11
6562.3634309017234
 21
4922.2870539989262
 31
0.0
  0
LINE
  5
7B43
  8
1
 10
6442.363430901858
 20
3727.3930540000192
 30
0.0
 11
6442.3634309017234
 21
4922.2870539989117
 31
0.0
  0
LINE
  5
7B45
  8
1
 10
6402.3634309018762
 20
3572.3930540000151
 30
0.0
 11
6402.363430901707
 21
5072.287053998908
 31
0.0
  0
LINE
  5
7B48
  8
1
 10
7541.3634309018425
 20
4132.3930540000274
 30
0.0
 11
6688.8634309018444
 21
4132.3930540000247
 31
0.0
  0
LINE
  5
7B4A
  8
1
 10
6688.8634309018444
 20
3564.8930540000251
 30
0.0
 11
7541.3634309018453
 21
3564.8930540000251
 31
0.0
  0
LINE
  5
7B53
  8
1
 10
6688.8634309018462
 20
3564.8930540000251
 30
0.0
 11
6688.8634309018444
 21
4132.3930540000247
 31
0.0
  0
LINE
  5
7B54
  8
1
 10
6825.5634309018997
 20
3502.3244171854531
 30
0.0
 11
6825.5634309018888
 21
3564.8930540000251
 31
0.0
  0
LINE
  5
7B55
  8
1
 10
6608.8533512192662
 20
3572.3930540000852
 30
0.0
 11
6608.8533512192489
 21
3716.9286327384052
 31
0.0
  0
LINE
  5
7B56
  8
1
 10
6608.8533512192662
 20
3572.3930540000379
 30
0.0
 11
6402.3634309018607
 21
3572.3930540000151
 31
0.0
  0
LINE
  5
7B58
  8
1
 10
6562.3634309018444
 20
3727.3930540000329
 30
0.0
 11
6442.3634309018444
 21
3727.3930540000192
 31
0.0
  0
LINE
  5
7B59
  8
1
 10
6562.3634309018153
 20
3977.3930540000329
 30
0.0
 11
6442.3634309018144
 21
3977.3930540000192
 31
0.0
  0
LINE
  5
7B5A
  8
2
 10
7595.3536997464107
 20
3852.393054000152
 30
0.0
 11
6320.9783481428258
 21
3852.3930540000051
 31
0.0
  0
LINE
  5
7B5B
  8
1
 10
6672.3634309018453
 20
3902.3930540000251
 30
0.0
 11
6672.3634309018425
 21
3802.393054000026
 31
0.0
  0
LINE
  5
7B5C
  8
1
 10
6502.3634309018444
 20
3894.8930540000251
 30
0.0
 11
6502.3634309018444
 21
3804.893054000026
 31
0.0
  0
LINE
  5
7B5D
  8
1
 10
6682.3634309018425
 20
3937.8930540000251
 30
0.0
 11
6682.3634309018444
 21
3766.893054000026
 31
0.0
  0
LINE
  5
7B5E
  8
1
 10
6502.3634309018425
 20
3809.893054000026
 30
0.0
 11
6666.8634309018425
 21
3809.893054000026
 31
0.0
  0
LINE
  5
7B5F
  8
1
 10
6502.3634309018444
 20
3804.893054000026
 30
0.0
 11
6642.3634309018453
 21
3804.893054000026
 31
0.0
  0
LINE
  5
7B60
  8
1
 10
6642.3634309018444
 20
3809.893054000026
 30
0.0
 11
6642.3634309018453
 21
3804.893054000026
 31
0.0
  0
LINE
  5
7B61
  8
1
 10
6688.8634309018444
 20
3764.893054000026
 30
0.0
 11
6684.3634309018444
 21
3764.893054000026
 31
0.0
  0
ARC
  5
7B62
  8
1
 10
6684.3634309018444
 20
3766.893054000026
 30
0.0
 40
2.0
 50
180.0
 51
270.0
  0
LINE
  5
7B63
  8
1
 10
6672.3634309018425
 20
3802.393054000026
 30
0.0
 11
6682.3634309018425
 21
3802.393054000026
 31
0.0
  0
LINE
  5
7B64
  8
1
 10
6502.3634309018444
 20
3894.8930540000251
 30
0.0
 11
6672.3634309018453
 21
3894.8930540000251
 31
0.0
  0
LINE
  5
7B65
  8
1
 10
6689.2118059018449
 20
3939.893054000026
 30
0.0
 11
6684.3634309018444
 21
3939.8930540000251
 31
0.0
  0
ARC
  5
7B66
  8
1
 10
6684.3634309018444
 20
3937.8930540000251
 30
0.0
 40
2.0
 50
90.000000000000057
 51
180.0
  0
LINE
  5
7B67
  8
1
 10
6672.3634309018453
 20
3902.3930540000251
 30
0.0
 11
6682.3634309018444
 21
3902.3930540000251
 31
0.0
  0
LINE
  5
7B68
  8
1
 10
6592.363430901778
 20
4442.287053998929
 30
0.0
 11
6825.5634309017414
 21
4442.2870539989553
 31
0.0
  0
LINE
  5
7B69
  8
1
 10
6592.363430901798
 20
4262.287053998929
 30
0.0
 11
6822.3634309018062
 21
4192.2876329874616
 31
0.0
  0
LINE
  5
7B6A
  8
1
 10
6562.3634309017634
 20
4577.2870539989253
 30
0.0
 11
6825.5634309017159
 21
4577.2870539989553
 31
0.0
  0
LINE
  5
7B6B
  8
1
 10
6562.3634309017752
 20
4467.2870539989262
 30
0.0
 11
6825.5634309017369
 21
4467.2870539989553
 31
0.0
  0
LINE
  5
7B6C
  8
1
 10
6592.363430901778
 20
4442.287053998929
 30
0.0
 11
6592.363430901798
 21
4262.287053998929
 31
0.0
  0
LINE
  5
7B6D
  8
1
 10
6562.3634309018134
 20
4122.2870539989253
 30
0.0
 11
6442.3634309018144
 21
4122.2870539989117
 31
0.0
  0
LINE
  5
7B6F
  8
1
 10
7541.3634309018425
 20
4132.3930540000274
 30
0.0
 11
7541.3634309018453
 21
3564.893054000026
 31
0.0
  0
LINE
  5
7B78
  8
1
 10
8945.7311667170798
 20
6217.2870539991964
 30
0.0
 11
6825.5634309014413
 21
6217.2870539989553
 31
0.0
  0
LINE
  5
7B79
  8
1
 10
6608.8533512191098
 20
5072.2870539989299
 30
0.0
 11
6402.363430901707
 21
5072.287053998908
 31
0.0
  0
LINE
  5
7B7A
  8
1
 10
6562.3634309017216
 20
4922.2870539989262
 30
0.0
 11
6442.3634309017234
 21
4922.2870539989117
 31
0.0
  0
LINE
  5
7B7B
  8
1
 10
6608.8533512191379
 20
4838.168034987897
 30
0.0
 11
6608.8533512191098
 21
5072.2870539989299
 31
0.0
  0
LINE
  5
7B7F
  8
1
 10
9148.764430901776
 20
4462.28705399922
 30
0.0
 11
9148.7644309017978
 21
4292.28705399922
 31
0.0
  0
LINE
  5
7B80
  8
1
 10
2326.800394985843
 20
10757.94172203296
 30
0.0
 11
2326.800394986632
 21
8507.9417220329597
 31
0.0
  0
LINE
  5
7B81
  8
1
 10
4742.8003949858648
 20
10692.941722033829
 30
0.0
 11
4742.8003949866079
 21
8572.9417220338328
 31
0.0
  0
LINE
  5
7B82
  8
1
 10
4742.8003949858648
 20
10692.941722033829
 30
0.0
 11
2326.8003949858639
 21
10692.94172203296
 31
0.0
  0
LINE
  5
7B83
  8
1
 10
4742.8003949866106
 20
8572.9417220338346
 30
0.0
 11
2326.8003949866102
 21
8572.9417220329633
 31
0.0
  0
LINE
  5
7B84
  8
1
 10
2391.8003949858639
 20
10692.94172203298
 30
0.0
 11
2391.8003949866102
 21
8572.9417220329833
 31
0.0
  0
LINE
  5
7B85
  8
1
 10
2332.800394985843
 20
10757.94172203296
 30
0.0
 11
2326.8003949858389
 21
10757.94172203296
 31
0.0
  0
LINE
  5
7B86
  8
1
 10
2332.800394986632
 20
8507.9417220329633
 30
0.0
 11
2326.800394986632
 21
8507.9417220329615
 31
0.0
  0
LINE
  5
7B87
  8
1
 10
2332.800394985843
 20
10757.94172203296
 30
0.0
 11
2332.800394986632
 21
8507.9417220329615
 31
0.0
  0
LINE
  5
7B88
  8
1
 10
2421.8003949858471
 20
10692.941722032991
 30
0.0
 11
2421.800394985818
 21
10771.941722032991
 31
0.0
  0
LINE
  5
7B89
  8
1
 10
3316.8003949866088
 20
8572.941722033318
 30
0.0
 11
3316.8003949867011
 21
8309.7471760353783
 31
0.0
  0
LINE
  5
7B8A
  8
1
 10
3426.8003949866088
 20
8572.9417220333598
 30
0.0
 11
3426.8003949867011
 21
8309.7471760354292
 31
0.0
  0
DIMENSION
  5
7B9E
  8
3
  2
*D1
 10
4321.8003949858348
 20
11273.42210295274
 30
0.0
 11
3362.9823045079679
 21
11273.42210295274
 31
0.0
 70
   128
 13
2421.800394985818
 23
10771.941722032991
 33
0.0
 14
4321.8003949858348
 24
10771.94172203368
 34
0.0
1001
ACAD
1000
DSTYLE
1002
{
1070
   287
1070
     3
1070
   287
1070
     3
1070
    40
1040
50.0
1070
   143
1040
0.039
1070
   172
1070
     1
1070
   271
1070
     0
1070
   279
1070
     0
1070
   288
1070
     1
1002
}
  0
DIMENSION
  5
7BAA
  8
3
  2
*D2
 10
5721.8003949863278
 20
11273.42210295274
 30
0.0
 11
5021.8003949860822
 21
11398.42210295274
 31
0.0
 70
     0
 13
4321.8003949858348
 23
10771.94172203368
 33
0.0
 14
5721.8003949863278
 24
9371.9417220341165
 34
0.0
1001
ACAD
1000
DSTYLE
1002
{
1070
   287
1070
     4
1070
   287
1070
     4
1070
    40
1040
50.0
1070
    75
1070
     1
1070
   143
1040
0.039
1070
   172
1070
     1
1070
   271
1070
     0
1070
   279
1070
     1
1070
   288
1070
     1
1002
}
  0
DIMENSION
  5
7BB7
  8
3
  2
*D3
 10
6041.7214810076848
 20
8171.9417220341184
 30
0.0
 11
6041.7214810076839
 21
8887.8205245850477
 31
0.0
 70
   128
 13
5721.8003949863278
 23
9371.9417220341165
 33
0.0
 14
5721.8003949867643
 24
8171.9417220341184
 34
0.0
 50
90.0
1001
ACAD
1000
DSTYLE
1002
{
1070
   287
1070
     3
1070
   287
1070
     3
1070
    40
1040
50.0
1070
   143
1040
0.039
1070
   172
1070
     1
1070
   271
1070
     0
1070
   279
1070
     0
1070
   288
1070
     1
1002
}
  0
DIMENSION
  5
7BC4
  8
3
  2
*D4
 10
5721.8003949867643
 20
7813.5423507865571
 30
0.0
 11
3880.105780069126
 21
7813.5423507865571
 31
0.0
 70
   128
 13
2421.8013949867518
 23
8171.9417220329951
 33
0.0
 14
5721.8003949867643
 24
8171.9417220341184
 34
0.0
1001
ACAD
1000
DSTYLE
1002
{
1070
   287
1070
     3
1070
   287
1070
     3
1070
    40
1040
50.0
1070
   143
1040
0.039
1070
   172
1070
     1
1070
   271
1070
     0
1070
   279
1070
     0
1070
   288
1070
     1
1002
}
  0
DIMENSION
  5
7BD1
  8
3
  2
*D5
 10
1952.802193955883
 20
8171.9417220329969
 30
0.0
 11
1952.8021939558821
 21
9634.4184690736292
 31
0.0
 70
   128
 13
2421.800394985818
 23
10771.941722032991
 33
0.0
 14
2421.8013949867518
 24
8171.9417220329951
 34
0.0
 50
90.0
1001
ACAD
1000
DSTYLE
1002
{
1070
   287
1070
     3
1070
   287
1070
     3
1070
    40
1040
50.0
1070
   143
1040
0.039
1070
   172
1070
     1
1070
   271
1070
     0
1070
   279
1070
     0
1070
   288
1070
     1
1002
}
  0
LINE
  5
7CB1
  8
1
 10
5721.8003949887407
 20
3352.3930539997
 30
0.0
 11
5721.8003949886834
 21
3502.3930539996991
 31
0.0
  0
DIMENSION
  5
7CBF
  8
3
  2
*D6
 10
3371.8003949876138
 20
6631.1564418712442
 30
0.0
 11
2797.0724991556849
 21
6631.1564418712442
 31
0.0
 70
   128
 13
2326.801394987629
 23
6282.2870539984706
 33
0.0
 14
3371.8003949876138
 24
6322.2870539988498
 34
0.0
1001
ACAD
1000
DSTYLE
1002
{
1070
   287
1070
     3
1070
   287
1070
     3
1070
    40
1040
50.0
1070
   143
1040
0.039
1070
   172
1070
     1
1070
   271
1070
     0
1070
   279
1070
     0
1070
   288
1070
     1
1002
}
  0
DIMENSION
  5
7CCB
  8
3
  2
*D7
 10
4742.8003949882241
 20
6631.1564418712442
 30
0.0
 11
4057.3003949879189
 21
6756.1564418712442
 31
0.0
 70
     0
 13
3371.8003949876138
 23
6322.2870539988498
 33
0.0
 14
4742.8003949882241
 24
4638.287053998808
 34
0.0
1001
ACAD
1000
DSTYLE
1002
{
1070
   287
1070
     4
1070
   287
1070
     4
1070
    40
1040
50.0
1070
    75
1070
     1
1070
   143
1040
0.039
1070
   172
1070
     1
1070
   271
1070
     0
1070
   279
1070
     1
1070
   288
1070
     1
1002
}
  0
DIMENSION
  5
7CD8
  8
3
  2
*D8
 10
2053.016572717861
 20
4567.2870539984733
 30
0.0
 11
2053.016572717861
 21
5407.7709925735762
 31
0.0
 70
   128
 13
2326.8013949876549
 23
6217.2870539984733
 33
0.0
 14
2326.8013949882511
 24
4567.2870539984733
 34
0.0
 50
90.0
1001
ACAD
1000
DSTYLE
1002
{
1070
   287
1070
     3
1070
   287
1070
     3
1070
    40
1040
50.0
1070
   143
1040
0.039
1070
   172
1070
     1
1070
   271
1070
     0
1070
   279
1070
     0
1070
   288
1070
     1
1002
}
  0
DIMENSION
  5
7CF2
  8
3
  2
*D9
 10
1770.4636901267229
 20
4522.2870539984497
 30
0.0
 11
1770.463690126722
 21
5407.7709925735762
 31
0.0
 70
   128
 13
2326.8013949876549
 23
6217.2870539984733
 33
0.0
 14
2264.754011560613
 24
4522.2870539984488
 34
0.0
 50
90.0
1001
ACAD
1000
DSTYLE
1002
{
1070
   287
1070
     3
1070
   287
1070
     3
1070
    40
1040
50.0
1070
   143
1040
0.039
1070
   172
1070
     1
1070
   271
1070
     0
1070
   279
1070
     0
1070
   288
1070
     1
1002
}
  0
DIMENSION
  5
7CFE
  8
3
  2
*D10
 10
1770.463690126722
 20
3352.3930539985058
 30
0.0
 11
1645.4636901267211
 21
3937.3400539984782
 31
0.0
 70
     0
 13
2264.754011560613
 23
4522.2870539984488
 33
0.0
 14
2421.8003949887379
 24
3352.3930539985058
 34
0.0
 50
90.0
1001
ACAD
1000
DSTYLE
1002
{
1070
   287
1070
     4
1070
   287
1070
     4
1070
    40
1040
50.0
1070
    75
1070
     1
1070
   143
1040
0.039
1070
   172
1070
     1
1070
   271
1070
     0
1070
   279
1070
     1
1070
   288
1070
     1
1002
}
  0
LINE
  5
7D6C
  8
1
 10
6825.5634309017942
 20
4132.3930540000247
 30
0.0
 11
6825.5634309017196
 21
4567.2870539989553
 31
0.0
  0
DIMENSION
  5
7DAB
  8
3
  2
*D12
 10
8945.7311667170798
 20
6463.3684146924652
 30
0.0
 11
7885.7656599216143
 21
6463.3684146924652
 31
0.0
 70
   128
 13
6825.5634309014413
 23
6217.2870539989553
 33
0.0
 14
8945.7311667170798
 24
6217.2870539991964
 34
0.0
1001
ACAD
1000
DSTYLE
1002
{
1070
   287
1070
     3
1070
   287
1070
     3
1070
    40
1040
50.0
1070
   143
1040
0.039
1070
   172
1070
     1
1070
   271
1070
     0
1070
   279
1070
     0
1070
   288
1070
     1
1002
}
  0
DIMENSION
  5
7DB8
  8
3
  2
*D13
 10
7885.5579768992557
 20
6818.4397124042216
 30
0.0
 11
8381.9865483278263
 21
6818.4397124042216
 31
0.0
 70
   128
  1
(1300)
 13
9148.764430901776
 23
4462.28705399922
 33
0.0
 14
7885.5579768992557
 24
6703.4322710617362
 34
0.0
1001
ACAD
1000
DSTYLE
1002
{
1070
   287
1070
     3
1070
   287
1070
     3
1070
    40
1040
50.0
1070
   143
1040
0.039
1070
   172
1070
     1
1070
   271
1070
     0
1070
   279
1070
     0
1070
   288
1070
     1
1002
}
  0
DIMENSION
  5
7DC4
  8
3
  2
*D14
 10
6402.363430901707
 20
6818.4397124042216
 30
0.0
 11
7143.9607039004813
 21
7068.4397124042216
 31
0.0
 70
     0
  1
MAX\P1580
 13
7885.5579768992557
 23
6703.4322710617362
 33
0.0
 14
6402.363430901707
 24
5072.287053998908
 34
0.0
1001
ACAD
1000
DSTYLE
1002
{
1070
   287
1070
     4
1070
   287
1070
     4
1070
    40
1040
50.0
1070
    75
1070
     1
1070
   143
1040
0.039
1070
   172
1070
     1
1070
   271
1070
     0
1070
   279
1070
     1
1070
   288
1070
     1
1002
}
  0
DIMENSION
  5
7DFC
  8
3
  2
*D15
 10
9466.2625062360476
 20
3722.2870539991982
 30
0.0
 11
9466.2625062360476
 21
4485.5266425740274
 31
0.0
 70
   128
 13
8957.7644309016814
 23
5322.2870539991982
 33
0.0
 14
8957.7644309018615
 24
3722.2870539991982
 34
0.0
 50
90.0
1001
ACAD
1000
DSTYLE
1002
{
1070
   287
1070
     3
1070
   287
1070
     3
1070
     3
1000
φ<>
1070
    40
1040
50.0
1070
   143
1040
0.039
1070
   172
1070
     1
1070
   271
1070
     0
1070
   279
1070
     0
1070
   288
1070
     1
1002
}
  0
DIMENSION
  5
7E17
  8
3
  2
*D16
 10
5721.8003949886834
 20
6941.7081697650356
 30
0.0
 11
4144.8498190758246
 21
6941.7081697650356
 31
0.0
 70
   128
 13
2326.801394987629
 23
6282.2870539984706
 33
0.0
 14
5721.8003949886834
 24
3502.3930539996991
 34
0.0
1001
ACAD
1000
DSTYLE
1002
{
1070
   287
1070
     3
1070
   287
1070
     3
1070
    40
1040
50.0
1070
   143
1040
0.039
1070
   172
1070
     1
1070
   271
1070
     0
1070
   279
1070
     0
1070
   288
1070
     1
1002
}
  0
LINE
  5
7EAD
  8
1
 10
6424.5579768998732
 20
3502.2870539989108
 30
0.0
 11
6424.5579768998987
 21
3352.2870539989099
 31
0.0
  0
LINE
  5
7EAE
  8
1
 10
9024.5579768998723
 20
3502.2870539992059
 30
0.0
 11
9024.5579768999032
 21
3352.287053999205
 31
0.0
  0
LINE
  5
7EAF
  8
1
 10
9024.5579768998996
 20
3352.287053999205
 30
0.0
 11
6424.5579768999014
 21
3352.2870539989099
 31
0.0
  0
LINE
  5
7EB0
  8
1
 10
9024.5579768998723
 20
3502.2870539992059
 30
0.0
 11
6424.5579768998832
 21
3502.2870539989108
 31
0.0
  0
LINE
  5
7EE0
  8
4
 10
9250.0
 20
1996.089362242426
 30
0.0
 11
9250.0
 21
996.08936224242632
 31
0.0
  0
LINE
  5
7EE1
  8
4
 10
5750.0
 20
1996.089362242426
 30
0.0
 11
5750.0
 21
996.08936224242632
 31
0.0
  0
LINE
  5
7EE2
  8
4
 10
3250.0
 20
1996.089362242426
 30
0.0
 11
3250.0
 21
996.08936224242632
 31
0.0
  0
LINE
  5
7EE5
  8
4
 10
3250.0
 20
996.08936224242632
 30
0.0
 11
9250.0
 21
996.08936224242632
 31
0.0
  0
LINE
  5
7EE6
  8
4
 10
3250.0
 20
1496.089362242426
 30
0.0
 11
9250.0
 21
1496.089362242426
 31
0.0
  0
TEXT
  5
7EE7
  8
4
 10
3442.5104042345079
 20
1653.8044915754911
 30
0.0
 40
250.0
  1
機器名称
  0
TEXT
  5
7EE8
  8
4
 10
3431.2905301239871
 20
1104.3151459024809
 30
0.0
 40
250.0
  1
機器型番
  0
TEXT
  5
7EE9
  8
4
 10
5898.2903601445887
 20
1617.1303259328849
 30
0.0
 40
212.5
  1
ミツヤ多翼送風機
  0
TEXT
  5
7EEA
  8
4
 10
5933.2724779274031
 20
1081.8872836421431
 30
0.0
 40
250.0
  1
MF#10-5
  0
TEXT
  5
7EEC
  8
4
 10
3999.827685028838
 20
11917.14420666257
 30
0.0
 40
270.0
  1
床置ベット
  0
TEXT
  5
7EED
  8
4
 10
1493.4877664224621
 20
12669.40488099649
 30
0.0
 40
360.0
  1
遠心式両吸込両持多翼ファン
  0
LINE
  5
7EEE
  8
4
 10
1250.0
 20
12347.043771324021
 30
0.0
 11
9250.0
 21
12347.043771324021
 31
0.0
  0
LINE
  5
7EEF
  8
4
 10
1250.0
 20
13347.043771324021
 30
0.0
 11
9250.0
 21
13347.043771324021
 31
0.0
  0
LINE
  5
7EF0
  8
4
 10
3250.0
 20
1996.089362242426
 30
0.0
 11
9250.0
 21
1996.089362242426
 31
0.0
  0
LINE
  5
7EF1
  8
4
 10
1250.0
 20
13347.043771324021
 30
0.0
 11
1250.0
 21
12347.043771324021
 31
0.0
  0
TEXT
  5
7EF2
  8
4
 10
1820.533523815327
 20
11911.59738773171
 30
0.0
 40
270.0
  1
左回転左横向
  0
TEXT
  5
7EF3
  8
4
 10
7344.8477962464494
 20
13530.30540747654
 30
0.0
 40
280.0
  1
No.
  0
TEXT
  5
7EF4
  8
4
 10
6556.4803130000646
 20
11917.14420666257
 30
0.0
 40
270.0
  1
縮尺：1/50
  0
LINE
  5
7EF5
  8
4
 10
9250.0
 20
13347.043771324021
 30
0.0
 11
9250.0
 21
12347.043771324021
 31
0.0
  0
LINE
  5
7EF6
  8
4
 10
10500.0
 20
14750.0
 30
0.0
 11
10500.0
 21
14750.0
 31
0.0
  0
LINE
  5
7EF7
  8
4
 10
7203.0871117993229
 20
13406.317915627
 30
0.0
 11
7203.0871117993229
 21
13933.26130774876
 31
0.0
  0
LINE
  5
7EF8
  8
4
 10
7203.0871117993229
 20
13933.26130774876
 30
0.0
 11
9250.0
 21
13933.26130774876
 31
0.0
  0
LINE
  5
7EF9
  8
4
 10
9250.0
 20
13933.26130774876
 30
0.0
 11
9250.0
 21
13406.317915627
 31
0.0
  0
LINE
  5
7EFA
  8
4
 10
9250.0
 20
13406.317915627
 30
0.0
 11
7203.0871117993229
 21
13406.317915627
 31
0.0
  0
LINE
  5
7EFB
  8
4
 10
0.0
 20
0.0
 30
0.0
 11
0.0
 21
14750.0
 31
0.0
  0
LINE
  5
7EFC
  8
4
 10
0.0
 20
14750.0
 30
0.0
 11
10500.0
 21
14750.0
 31
0.0
  0
LINE
  5
7EFD
  8
4
 10
10500.0
 20
14750.0
 30
0.0
 11
10500.0
 21
0.0
 31
0.0
  0
LINE
  5
7EFE
  8
4
 10
10500.0
 20
0.0
 30
0.0
 11
0.0
 21
0.0
 31
0.0
  0
DIMENSION
  5
7FB3
  8
3
  2
*D18
 10
3371.8003949887402
 20
3026.7265903197331
 30
0.0
 11
2896.8003949887388
 21
3151.7265903197331
 31
0.0
 70
     0
 13
2421.8003949887379
 23
3352.3930539985058
 33
0.0
 14
3371.8003949887402
 24
3352.3930539988501
 34
0.0
1001
ACAD
1000
DSTYLE
1002
{
1070
   172
1070
     1
1070
    40
1040
50.0
1070
   271
1070
     0
1070
   143
1040
0.039
1002
}
  0
DIMENSION
  5
7FC0
  8
3
  2
*D19
 10
5721.8003949887407
 20
3026.7265903197331
 30
0.0
 11
4546.8003949887407
 21
3151.7265903197331
 31
0.0
 70
     0
 13
3371.8003949887402
 23
3352.3930539988501
 33
0.0
 14
5721.8003949887407
 24
3352.3930539997
 34
0.0
1001
ACAD
1000
DSTYLE
1002
{
1070
   172
1070
     1
1070
    40
1040
50.0
1070
   271
1070
     0
1070
   143
1040
0.039
1002
}
  0
DIMENSION
  5
7FCD
  8
3
  2
*D20
 10
7885.5579768999223
 20
3026.7265903197331
 30
0.0
 11
7155.0579768999096
 21
3151.7265903197331
 31
0.0
 70
     0
 13
6424.5579768999014
 23
3352.2870539989099
 33
0.0
 14
7885.5579768999223
 24
3352.2870539990772
 34
0.0
1001
ACAD
1000
DSTYLE
1002
{
1070
   172
1070
     1
1070
    40
1040
50.0
1070
   271
1070
     0
1070
   143
1040
0.039
1002
}
  0
DIMENSION
  5
7FDA
  8
3
  2
*D21
 10
9024.5579768999032
 20
3026.7265903197331
 30
0.0
 11
8455.0579768999123
 21
3151.7265903197331
 31
0.0
 70
     0
 13
7885.5579768999223
 23
3352.2870539990772
 33
0.0
 14
9024.5579768999032
 24
3352.287053999205
 34
0.0
1001
ACAD
1000
DSTYLE
1002
{
1070
   172
1070
     1
1070
    40
1040
50.0
1070
   271
1070
     0
1070
   143
1040
0.039
1002
}
  0
DIMENSION
  5
7FE7
  8
3
  2
*D22
 10
1457.5365563514929
 20
6217.2870539984733
 30
0.0
 11
1332.5365563514929
 21
4784.8400539984887
 31
0.0
 70
     0
 13
2421.8003949887379
 23
3352.3930539985058
 33
0.0
 14
2301.8013949876549
 24
6217.2870539984733
 34
0.0
 50
90.0
1001
ACAD
1000
DSTYLE
1002
{
1070
   172
1070
     1
1070
    40
1040
50.0
1070
   271
1070
     0
1070
   143
1040
0.039
1002
}
  0
ENDSEC
  0
EOF
