  0
SECTION
  2
HEADER
  9
$ACADVER
  1
AC1009
  9
$INSBASE
 10
0.0
 20
0.0
 30
0.0
  9
$EXTMIN
 10
0.0
 20
0.0
 30
0.0
  9
$EXTMAX
 10
9450.0
 20
13275.0
 30
0.0
  9
$LIMMIN
 10
0.0
 20
0.0
  9
$LIMMAX
 10
297.0
 20
210.0
  9
$ORTHOMODE
 70
     0
  9
$REGENMODE
 70
     1
  9
$FILLMODE
 70
     0
  9
$QTEXTMODE
 70
     0
  9
$MIRRTEXT
 70
     1
  9
$DRAGMODE
 70
     2
  9
$LTSCALE
 40
100.0
  9
$OSMODE
 70
   545
  9
$ATTMODE
 70
     1
  9
$TEXTSIZE
 40
180.0
  9
$TRACEWID
 40
0.05
  9
$TEXTSTYLE
  7
STANDARD
  9
$CLAYER
  8
1
  9
$CELTYPE
  6
BYLAYER
  9
$CECOLOR
 62
   256
  9
$DIMSCALE
 40
45.0
  9
$DIMASZ
 40
2.0
  9
$DIMEXO
 40
0.5
  9
$DIMDLI
 40
10.0
  9
$DIMRND
 40
0.0
  9
$DIMDLE
 40
0.0
  9
$DIMEXE
 40
1.0
  9
$DIMTP
 40
1.0
  9
$DIMTM
 40
1.0
  9
$DIMTXT
 40
3.0
  9
$DIMCEN
 40
0.0
  9
$DIMTSZ
 40
0.0
  9
$DIMTOL
 70
     0
  9
$DIMLIM
 70
     0
  9
$DIMTIH
 70
     0
  9
$DIMTOH
 70
     0
  9
$DIMSE1
 70
     0
  9
$DIMSE2
 70
     0
  9
$DIMTAD
 70
     1
  9
$DIMZIN
 70
     8
  9
$DIMBLK
  1

  9
$DIMASO
 70
     1
  9
$DIMSHO
 70
     1
  9
$DIMPOST
  1

  9
$DIMAPOST
  1

  9
$DIMALT
 70
     0
  9
$DIMALTD
 70
     2
  9
$DIMALTF
 40
0.039
  9
$DIMLFAC
 40
1.0
  9
$DIMTOFL
 70
     1
  9
$DIMTVP
 40
0.0
  9
$DIMTIX
 70
     0
  9
$DIMSOXD
 70
     0
  9
$DIMSAH
 70
     1
  9
$DIMBLK1
  1
OPEN
  9
$DIMBLK2
  1
OPEN
  9
$DIMSTYLE
  2
IGA
  9
$DIMCLRD
 70
     0
  9
$DIMCLRE
 70
     0
  9
$DIMCLRT
 70
     0
  9
$DIMTFAC
 40
10.0
  9
$DIMGAP
 40
1.0
  9
$LUNITS
 70
     2
  9
$LUPREC
 70
     3
  9
$SKETCHINC
 40
0.1
  9
$FILLETRAD
 40
50.0
  9
$AUNITS
 70
     0
  9
$AUPREC
 70
     0
  9
$MENU
  1
acad
  9
$ELEVATION
 40
0.0
  9
$PELEVATION
 40
0.0
  9
$THICKNESS
 40
0.0
  9
$LIMCHECK
 70
     0
  9
$BLIPMODE
 70
     0
  9
$CHAMFERA
 40
0.5
  9
$CHAMFERB
 40
0.5
  9
$SKPOLY
 70
     0
  9
$TDCREATE
 40
2451488.4188589109
  9
$TDUPDATE
 40
2455013.7312290161
  9
$TDINDWG
 40
0.0183011806
  9
$TDUSRTIMER
 40
0.0183011806
  9
$USRTIMER
 70
     1
  9
$ANGBASE
 50
0.0
  9
$ANGDIR
 70
     0
  9
$PDMODE
 70
     0
  9
$PDSIZE
 40
0.0
  9
$PLINEWID
 40
0.0
  9
$COORDS
 70
     2
  9
$SPLFRAME
 70
     0
  9
$SPLINETYPE
 70
     6
  9
$SPLINESEGS
 70
     8
  9
$ATTDIA
 70
     0
  9
$ATTREQ
 70
     1
  9
$HANDLING
 70
 22529
  9
$HANDSEED
  5
8083
  9
$SURFTAB1
 70
     6
  9
$SURFTAB2
 70
     6
  9
$SURFTYPE
 70
     6
  9
$SURFU
 70
     6
  9
$SURFV
 70
     6
  9
$UCSNAME
  2

  9
$UCSORG
 10
0.0
 20
0.0
 30
0.0
  9
$UCSXDIR
 10
1.0
 20
0.0
 30
0.0
  9
$UCSYDIR
 10
0.0
 20
1.0
 30
0.0
  9
$PUCSNAME
  2

  9
$PUCSORG
 10
0.0
 20
0.0
 30
0.0
  9
$PUCSXDIR
 10
1.0
 20
0.0
 30
0.0
  9
$PUCSYDIR
 10
0.0
 20
1.0
 30
0.0
  9
$USERI1
 70
     0
  9
$USERI2
 70
     0
  9
$USERI3
 70
     0
  9
$USERI4
 70
     0
  9
$USERI5
 70
     0
  9
$USERR1
 40
0.0
  9
$USERR2
 40
0.0
  9
$USERR3
 40
0.0
  9
$USERR4
 40
0.0
  9
$USERR5
 40
0.0
  9
$WORLDVIEW
 70
     1
  9
$SHADEDGE
 70
     3
  9
$SHADEDIF
 70
    70
  9
$TILEMODE
 70
     1
  9
$MAXACTVP
 70
    16
  9
$PLIMCHECK
 70
     0
  9
$PEXTMIN
 10
1.0000000000000000E+020
 20
1.0000000000000000E+020
 30
1.0000000000000000E+020
  9
$PEXTMAX
 10
-1.0000000000000000E+020
 20
-1.0000000000000000E+020
 30
-1.0000000000000000E+020
  9
$PLIMMIN
 10
0.0
 20
0.0
  9
$PLIMMAX
 10
12.0
 20
9.0
  9
$UNITMODE
 70
     0
  9
$VISRETAIN
 70
     0
  9
$PLINEGEN
 70
     0
  9
$PSLTSCALE
 70
     1
  0
ENDSEC
  0
SECTION
  2
TABLES
  0
TABLE
  2
VPORT
 70
     2
  0
VPORT
  2
*ACTIVE
 70
     0
 10
0.0
 20
0.0
 11
1.0
 21
1.0
 12
5642.2139554681344
 22
6637.5000309082689
 13
0.0
 23
0.0
 14
10.0
 24
10.0
 15
10.0
 25
10.0
 16
0.0
 26
0.0
 36
1.0
 17
0.0
 27
0.0
 37
0.0
 40
13376.766973576199
 41
1.6307901907356941
 42
50.0
 43
0.0
 44
0.0
 50
0.0
 51
0.0
 71
     0
 72
   100
 73
     1
 74
     0
 75
     0
 76
     0
 77
     0
 78
     0
  0
ENDTAB
  0
TABLE
  2
LTYPE
 70
     2
  0
LTYPE
  2
CONTINUOUS
 70
     0
  3
Solid line
 72
    65
 73
     0
 40
0.0
  0
LTYPE
  2
CENTER
 70
     0
  3
____ _ ____ _ ____ _ ____ _ ____ _ ____ _ ____ 
 72
    65
 73
     4
 40
2.0
 49
1.25
 49
-0.25
 49
0.25
 49
-0.25
  0
ENDTAB
  0
TABLE
  2
LAYER
 70
     6
  0
LAYER
  2
0
 70
     0
 62
     7
  6
CONTINUOUS
  0
LAYER
  2
3
 70
     0
 62
     2
  6
CONTINUOUS
  0
LAYER
  2
2
 70
     0
 62
     3
  6
CENTER
  0
LAYER
  2
1
 70
     0
 62
     4
  6
CONTINUOUS
  0
LAYER
  2
4
 70
     0
 62
     7
  6
CONTINUOUS
  0
LAYER
  2
DEFPOINTS
 70
     0
 62
     7
  6
CONTINUOUS
  0
ENDTAB
  0
TABLE
  2
STYLE
 70
     1
  0
STYLE
  2
STANDARD
 70
     0
 40
0.0
 41
1.0
 50
0.0
 71
     0
 42
180.0
  3
simplex.shx
  4
extfont.shx
  0
ENDTAB
  0
TABLE
  2
VIEW
 70
     0
  0
ENDTAB
  0
TABLE
  2
UCS
 70
     0
  0
ENDTAB
  0
TABLE
  2
APPID
 70
     1
  0
APPID
  2
ACAD
 70
     0
  0
ENDTAB
  0
TABLE
  2
DIMSTYLE
 70
     2
  0
DIMSTYLE
  2
IGA
 70
     0
  3

  4

  5

  6
OPEN
  7
OPEN
 40
2.0
 41
2.0
 42
0.5
 43
10.0
 44
1.0
 45
0.0
 46
0.0
 47
1.0
 48
1.0
140
3.0
141
0.0
142
0.0
143
0.03937
144
1.0
145
0.0
146
10.0
147
1.0
 71
     0
 72
     0
 73
     0
 74
     0
 75
     0
 76
     0
 77
     1
 78
     8
170
     0
171
     2
172
     0
173
     1
174
     0
175
     0
176
     0
177
     0
178
     0
  0
DIMSTYLE
  2
MATSU
 70
     0
  3

  4

  5

  6
OPEN
  7
OPEN
 40
1.0
 41
2.0
 42
1.0
 43
10.0
 44
1.0
 45
0.0
 46
0.0
 47
0.0
 48
0.0
140
3.0
141
0.0
142
0.0
143
0.03937
144
1.0
145
0.0
146
1.0
147
0.5
 71
     0
 72
     0
 73
     0
 74
     0
 75
     0
 76
     0
 77
     1
 78
     8
170
     0
171
     2
172
     1
173
     1
174
     0
175
     0
176
   256
177
   256
178
   256
  0
ENDTAB
  0
ENDSEC
  0
SECTION
  2
BLOCKS
  0
BLOCK
  8
0
  2
$MODEL_SPACE
 70
     0
 10
0.0
 20
0.0
 30
0.0
  3
$MODEL_SPACE
  1

  0
ENDBLK
  5
1B
  8
0
  0
BLOCK
 67
     1
  8
0
  2
$PAPER_SPACE
 70
     0
 10
0.0
 20
0.0
 30
0.0
  3
$PAPER_SPACE
  1

  0
ENDBLK
  5
18
 67
     1
  8
0
  0
BLOCK
  8
0
  2
_OPEN
 70
     0
 10
0.0
 20
0.0
 30
0.0
  3
_OPEN
  1

  0
LINE
  5
79FD
  8
0
  6
BYBLOCK
 62
     0
 10
-1.0
 20
0.1666666666666666
 30
0.0
 11
0.0
 21
0.0
 31
0.0
  0
LINE
  5
79FE
  8
0
  6
BYBLOCK
 62
     0
 10
0.0
 20
0.0
 30
0.0
 11
-1.0
 21
-0.1666666666666666
 31
0.0
  0
LINE
  5
79FF
  8
0
  6
BYBLOCK
 62
     0
 10
0.0
 20
0.0
 30
0.0
 11
-1.0
 21
0.0
 31
0.0
  0
ENDBLK
  5
7A01
  8
0
  0
BLOCK
  8
0
  2
YA_N
 70
     0
 10
0.0
 20
0.0
 30
0.0
  3
YA_N
  1

  0
ENDBLK
  5
7A0C
  8
0
  0
BLOCK
  8
0
  2
*D2
 70
     1
 10
0.0
 20
0.0
 30
0.0
  3
*D2
  1

  0
LINE
  5
7E5B
  8
0
  6
BYBLOCK
 10
8824.0942784290382
 20
2458.3020352693911
 30
0.0
 11
9379.1576285189658
 21
2458.3020352693911
 31
0.0
  0
LINE
  5
7E5C
  8
0
  6
BYBLOCK
 10
8824.0942784290382
 20
858.30303526939144
 30
0.0
 11
9379.1576285189658
 21
858.30303526939144
 31
0.0
  0
LINE
  5
7E5D
  8
0
  6
BYBLOCK
 10
9339.1576285189658
 20
2378.3020352693911
 30
0.0
 11
9339.1576285189658
 21
938.30303526939122
 31
0.0
  0
INSERT
  5
7E5E
  8
0
  6
BYBLOCK
  2
_OPEN
 10
9339.1576285189658
 20
2458.3020352693911
 30
0.0
 41
80.0
 42
80.0
 43
80.0
 50
90.0
  0
INSERT
  5
7E5F
  8
0
  6
BYBLOCK
  2
_OPEN
 10
9339.1576285189658
 20
858.30303526939144
 30
0.0
 41
80.0
 42
80.0
 43
80.0
 50
270.0
  0
TEXT
  5
7E60
  8
1
 10
9319.1576285189658
 20
1398.302535269391
 30
0.0
 40
120.0
  1
φ1600
 50
90.0
  0
POINT
  5
7E61
  8
DEFPOINTS
  6
BYBLOCK
 62
     0
 10
8784.0942784290382
 20
2458.3020352693911
 30
0.0
  0
POINT
  5
7E62
  8
DEFPOINTS
  6
BYBLOCK
 62
     0
 10
8784.0942784290382
 20
858.30303526939144
 30
0.0
  0
POINT
  5
7E63
  8
DEFPOINTS
  6
BYBLOCK
 62
     0
 10
9339.1576285189658
 20
858.30303526939144
 30
0.0
  0
ENDBLK
  5
7E64
  8
0
  0
BLOCK
  8
0
  2
*D3
 70
     1
 10
0.0
 20
0.0
 30
0.0
  3
*D3
  1

  0
LINE
  5
7E66
  8
0
  6
BYBLOCK
 10
8060.0902784290356
 20
3073.7283665668519
 30
0.0
 11
8060.0902784290356
 21
3191.2661509505051
 31
0.0
  0
LINE
  5
7E67
  8
0
  6
BYBLOCK
 10
8784.0942784290382
 20
2563.3020352693911
 30
0.0
 11
8784.0942784290382
 21
3191.2661509505051
 31
0.0
  0
LINE
  5
7E68
  8
0
  6
BYBLOCK
 10
8140.0902784290383
 20
3151.2661509505051
 30
0.0
 11
8704.0942784290364
 21
3151.2661509505051
 31
0.0
  0
INSERT
  5
7E69
  8
0
  6
BYBLOCK
  2
_OPEN
 10
8060.0902784290356
 20
3151.2661509505051
 30
0.0
 41
80.0
 42
80.0
 43
80.0
 50
180.0
  0
INSERT
  5
7E6A
  8
0
  6
BYBLOCK
  2
_OPEN
 10
8784.0942784290382
 20
3151.2661509505051
 30
0.0
 41
80.0
 42
80.0
 43
80.0
  0
TEXT
  5
7E6B
  8
1
 10
8261.9103351409522
 20
3171.2661509505051
 30
0.0
 40
120.0
  1
725
  0
POINT
  5
7E6C
  8
DEFPOINTS
  6
BYBLOCK
 62
     0
 10
8060.0902784290356
 20
3033.7283665668529
 30
0.0
  0
POINT
  5
7E6D
  8
DEFPOINTS
  6
BYBLOCK
 62
     0
 10
8784.0942784290382
 20
2523.3020352693911
 30
0.0
  0
POINT
  5
7E6E
  8
DEFPOINTS
  6
BYBLOCK
 62
     0
 10
8784.0942784290382
 20
3151.2661509505051
 30
0.0
  0
ENDBLK
  5
7E6F
  8
0
  0
BLOCK
  8
0
  2
*D4
 70
     1
 10
0.0
 20
0.0
 30
0.0
  3
*D4
  1

  0
LINE
  5
7E71
  8
0
  6
BYBLOCK
 10
2321.5321198872039
 20
1658.3060077953701
 30
0.0
 11
1754.0798496289599
 21
1658.3060077953701
 31
0.0
  0
LINE
  5
7E72
  8
0
  6
BYBLOCK
 10
2426.3438663592242
 20
2703.306007795371
 30
0.0
 11
1754.0798496289599
 21
2703.306007795371
 31
0.0
  0
LINE
  5
7E73
  8
0
  6
BYBLOCK
 10
1794.0798496289599
 20
1738.3060077953701
 30
0.0
 11
1794.0798496289599
 21
2623.3060077953701
 31
0.0
  0
INSERT
  5
7E74
  8
0
  6
BYBLOCK
  2
_OPEN
 10
1794.0798496289599
 20
1658.3060077953701
 30
0.0
 41
80.0
 42
80.0
 43
80.0
 50
270.0
  0
INSERT
  5
7E75
  8
0
  6
BYBLOCK
  2
_OPEN
 10
1794.0798496289599
 20
2703.306007795371
 30
0.0
 41
80.0
 42
80.0
 43
80.0
 50
90.0
  0
TEXT
  5
7E76
  8
1
 10
1774.079849628961
 20
1980.8060077953701
 30
0.0
 40
120.0
  1
1045
 50
90.0
  0
POINT
  5
7E77
  8
DEFPOINTS
  6
BYBLOCK
 62
     0
 10
2361.5321198872039
 20
1658.3060077953701
 30
0.0
  0
POINT
  5
7E78
  8
DEFPOINTS
  6
BYBLOCK
 62
     0
 10
2466.3438663592242
 20
2703.306007795371
 30
0.0
  0
POINT
  5
7E79
  8
DEFPOINTS
  6
BYBLOCK
 62
     0
 10
1794.0798496289599
 20
2703.306007795371
 30
0.0
  0
ENDBLK
  5
7E7A
  8
0
  0
BLOCK
  8
0
  2
*D5
 70
     1
 10
0.0
 20
0.0
 30
0.0
  3
*D5
  1

  0
LINE
  5
7E7C
  8
0
  6
BYBLOCK
 10
5176.3448663592362
 20
123.3080077959966
 30
0.0
 11
5176.3448663592362
 21
-186.94817959587539
 31
0.0
  0
LINE
  5
7E7D
  8
0
  6
BYBLOCK
 10
4226.344866359228
 20
-32.471665328283962
 30
0.0
 11
4226.344866359228
 21
-186.94817959587539
 31
0.0
  0
LINE
  5
7E7E
  8
0
  6
BYBLOCK
 10
5096.3448663592353
 20
-146.94817959587539
 30
0.0
 11
4306.344866359228
 21
-146.94817959587539
 31
0.0
  0
INSERT
  5
7E7F
  8
0
  6
BYBLOCK
  2
_OPEN
 10
5176.3448663592362
 20
-146.94817959587539
 30
0.0
 41
80.0
 42
80.0
 43
80.0
  0
INSERT
  5
7E80
  8
0
  6
BYBLOCK
  2
_OPEN
 10
4226.344866359228
 20
-146.94817959587539
 30
0.0
 41
80.0
 42
80.0
 43
80.0
 50
180.0
  0
TEXT
  5
7E81
  8
1
 10
4547.059152073517
 20
-126.9481795958754
 30
0.0
 40
120.0
  1
950
  0
POINT
  5
7E82
  8
DEFPOINTS
  6
BYBLOCK
 62
     0
 10
5176.3448663592362
 20
163.30800779599659
 30
0.0
  0
POINT
  5
7E83
  8
DEFPOINTS
  6
BYBLOCK
 62
     0
 10
4226.344866359228
 20
7.5283346717160384
 30
0.0
  0
POINT
  5
7E84
  8
DEFPOINTS
  6
BYBLOCK
 62
     0
 10
4226.344866359228
 20
-146.94817959587539
 30
0.0
  0
ENDBLK
  5
7E85
  8
0
  0
BLOCK
  8
0
  2
*D6
 70
     1
 10
0.0
 20
0.0
 30
0.0
  3
*D6
  1

  0
LINE
  5
803D
  8
3
 10
1645.9135381509841
 20
3392.220613737542
 30
0.0
 11
1645.9135381509841
 21
3081.966426346316
 31
0.0
  0
LINE
  5
803E
  8
3
 10
3715.9135381509841
 20
3121.9664263463151
 30
0.0
 11
1725.9135381509841
 21
3121.9664263463151
 31
0.0
  0
INSERT
  5
803F
  8
3
  2
_OPEN
 10
3795.9135381509832
 20
3121.9664263463151
 30
0.0
 41
80.0
 42
80.0
 43
80.0
  0
INSERT
  5
8040
  8
3
  2
_OPEN
 10
1645.9135381509841
 20
3121.9664263463151
 30
0.0
 41
80.0
 42
80.0
 43
80.0
 50
180.0
  0
TEXT
  8
3
  40
120
  5
807B
  72
0
  71
0
 10
2480.91
 20
2989.57
 30
0.000000
  1
2150
  0
POINT
  5
8042
  8
DEFPOINTS
 62
     0
 10
3795.9135381509832
 20
3276.442940613907
 30
0.0
  0
POINT
  5
8043
  8
DEFPOINTS
 62
     0
 10
1645.9135381509841
 20
3432.220613737541
 30
0.0
  0
POINT
  5
8044
  8
DEFPOINTS
 62
     0
 10
1645.9135381509841
 20
3121.9664263463151
 30
0.0
  0
ENDBLK
  5
7E8F
  8
0
  0
BLOCK
  8
0
  2
*D7
 70
     1
 10
0.0
 20
0.0
 30
0.0
  3
*D7
  1

  0
LINE
  5
7E9C
  8
0
  6
BYBLOCK
 10
2531.3438663592242
 20
2743.3060077953701
 30
0.0
 11
2531.3438663592242
 21
3106.7561605023138
 31
0.0
  0
LINE
  5
7E9D
  8
0
  6
BYBLOCK
 10
4181.3438663592242
 20
2743.3060077953701
 30
0.0
 11
4181.3438663592242
 21
3106.7561605023138
 31
0.0
  0
LINE
  5
7E9E
  8
0
  6
BYBLOCK
 10
2611.3438663592242
 20
3066.7561605023152
 30
0.0
 11
4101.3438663592242
 21
3066.7561605023152
 31
0.0
  0
INSERT
  5
7E9F
  8
0
  6
BYBLOCK
  2
_OPEN
 10
2531.3438663592242
 20
3066.7561605023152
 30
0.0
 41
80.0
 42
80.0
 43
80.0
 50
180.0
  0
INSERT
  5
7EA0
  8
0
  6
BYBLOCK
  2
_OPEN
 10
4181.3438663592242
 20
3066.7561605023152
 30
0.0
 41
80.0
 42
80.0
 43
80.0
  0
TEXT
  5
7EA1
  8
1
 10
3156.3438663592242
 20
3086.7561605023138
 30
0.0
 40
120.0
  1
1650
  0
POINT
  5
7EA2
  8
DEFPOINTS
  6
BYBLOCK
 62
     0
 10
2531.3438663592242
 20
2703.306007795371
 30
0.0
  0
POINT
  5
7EA3
  8
DEFPOINTS
  6
BYBLOCK
 62
     0
 10
4181.3438663592242
 20
2703.306007795371
 30
0.0
  0
POINT
  5
7EA4
  8
DEFPOINTS
  6
BYBLOCK
 62
     0
 10
4181.3438663592242
 20
3066.7561605023152
 30
0.0
  0
ENDBLK
  5
7EA5
  8
0
  0
BLOCK
  8
0
  2
*D8
 70
     1
 10
0.0
 20
0.0
 30
0.0
  3
*D8
  1

  0
LINE
  5
7EA7
  8
0
  6
BYBLOCK
 10
2531.344866359228
 20
2743.3060077953701
 30
0.0
 11
2531.344866359228
 21
3352.1326071693552
 31
0.0
  0
LINE
  5
7EA8
  8
0
  6
BYBLOCK
 10
4226.344866359228
 20
2861.3797138352738
 30
0.0
 11
4226.344866359228
 21
3352.1326071693552
 31
0.0
  0
LINE
  5
7EA9
  8
0
  6
BYBLOCK
 10
2611.344866359228
 20
3312.1326071693538
 30
0.0
 11
4146.3448663592271
 21
3312.1326071693538
 31
0.0
  0
INSERT
  5
7EAA
  8
0
  6
BYBLOCK
  2
_OPEN
 10
2531.344866359228
 20
3312.1326071693538
 30
0.0
 41
80.0
 42
80.0
 43
80.0
 50
180.0
  0
INSERT
  5
7EAB
  8
0
  6
BYBLOCK
  2
_OPEN
 10
4226.344866359228
 20
3312.1326071693538
 30
0.0
 41
80.0
 42
80.0
 43
80.0
  0
TEXT
  5
7EAC
  8
1
 10
3178.844866359228
 20
3332.1326071693538
 30
0.0
 40
120.0
  1
1695
  0
POINT
  5
7EAD
  8
DEFPOINTS
  6
BYBLOCK
 62
     0
 10
2531.344866359228
 20
2703.306007795371
 30
0.0
  0
POINT
  5
7EAE
  8
DEFPOINTS
  6
BYBLOCK
 62
     0
 10
4226.344866359228
 20
2821.3797138352752
 30
0.0
  0
POINT
  5
7EAF
  8
DEFPOINTS
  6
BYBLOCK
 62
     0
 10
4226.344866359228
 20
3312.1326071693538
 30
0.0
  0
ENDBLK
  5
7EB0
  8
0
  0
BLOCK
  8
0
  2
*D9
 70
     1
 10
0.0
 20
0.0
 30
0.0
  3
*D9
  1

  0
LINE
  5
7EB2
  8
0
  6
BYBLOCK
 10
7470.0902784290374
 20
2743.3060352693919
 30
0.0
 11
7470.0902784290374
 21
2899.007692488427
 31
0.0
  0
LINE
  5
7EB3
  8
0
  6
BYBLOCK
 10
8650.0902784290447
 20
2743.3060352693942
 30
0.0
 11
8650.0902784290447
 21
2899.007692488427
 31
0.0
  0
LINE
  5
7EB4
  8
0
  6
BYBLOCK
 10
7550.0902784290383
 20
2859.007692488427
 30
0.0
 11
8570.0902784290447
 21
2859.007692488427
 31
0.0
  0
INSERT
  5
7EB5
  8
0
  6
BYBLOCK
  2
_OPEN
 10
7470.0902784290374
 20
2859.007692488427
 30
0.0
 41
80.0
 42
80.0
 43
80.0
 50
180.0
  0
INSERT
  5
7EB6
  8
0
  6
BYBLOCK
  2
_OPEN
 10
8650.0902784290447
 20
2859.007692488427
 30
0.0
 41
80.0
 42
80.0
 43
80.0
  0
TEXT
  5
7EB7
  8
1
 10
7871.5188498576117
 20
2879.007692488427
 30
0.0
 40
120.0
  1
1180
  0
POINT
  5
7EB8
  8
DEFPOINTS
  6
BYBLOCK
 62
     0
 10
7470.0902784290374
 20
2703.3060352693919
 30
0.0
  0
POINT
  5
7EB9
  8
DEFPOINTS
  6
BYBLOCK
 62
     0
 10
8650.0902784290447
 20
2703.3060352693942
 30
0.0
  0
POINT
  5
7EBA
  8
DEFPOINTS
  6
BYBLOCK
 62
     0
 10
8650.0902784290447
 20
2859.007692488427
 30
0.0
  0
ENDBLK
  5
7EBB
  8
0
  0
BLOCK
  8
0
  2
*D10
 70
     1
 10
0.0
 20
0.0
 30
0.0
  3
*D10
  1

  0
LINE
  5
7EBD
  8
0
  6
BYBLOCK
 10
8729.0902784290392
 20
123.3050352699983
 30
0.0
 11
8729.0902784290392
 21
-189.69699646478779
 31
0.0
  0
LINE
  5
7EBE
  8
0
  6
BYBLOCK
 10
8060.0902784290356
 20
-109.78656750572
 30
0.0
 11
8060.0902784290356
 21
-189.69699646478779
 31
0.0
  0
LINE
  5
7EBF
  8
0
  6
BYBLOCK
 10
8649.0902784290374
 20
-149.69699646478779
 30
0.0
 11
8140.0902784290383
 21
-149.69699646478779
 31
0.0
  0
INSERT
  5
7EC0
  8
0
  6
BYBLOCK
  2
_OPEN
 10
8729.0902784290392
 20
-149.69699646478779
 30
0.0
 41
80.0
 42
80.0
 43
80.0
  0
INSERT
  5
7EC1
  8
0
  6
BYBLOCK
  2
_OPEN
 10
8060.0902784290356
 20
-149.69699646478779
 30
0.0
 41
80.0
 42
80.0
 43
80.0
 50
180.0
  0
TEXT
  5
7EC2
  8
1
 10
8243.161707000465
 20
-129.69699646478779
 30
0.0
 40
120.0
  1
669
  0
POINT
  5
7EC3
  8
DEFPOINTS
  6
BYBLOCK
 62
     0
 10
8729.0902784290392
 20
163.30503526999831
 30
0.0
  0
POINT
  5
7EC4
  8
DEFPOINTS
  6
BYBLOCK
 62
     0
 10
8060.0902784290356
 20
-69.786567505720086
 30
0.0
  0
POINT
  5
7EC5
  8
DEFPOINTS
  6
BYBLOCK
 62
     0
 10
8060.0902784290356
 20
-149.69699646478779
 30
0.0
  0
ENDBLK
  5
7EC6
  8
0
  0
BLOCK
  8
0
  2
*D11
 70
     1
 10
0.0
 20
0.0
 30
0.0
  3
*D11
  1

  0
LINE
  5
8045
  8
3
 10
6347.0735138575837
 20
3392.2206412115638
 30
0.0
 11
6347.0735138575837
 21
3079.2176094774031
 31
0.0
  0
LINE
  5
8046
  8
3
 10
7198.0735138575828
 20
3119.2176094774031
 30
0.0
 11
6427.0735138575837
 21
3119.2176094774031
 31
0.0
  0
INSERT
  5
8047
  8
3
  2
_OPEN
 10
7278.0735138575837
 20
3119.2176094774031
 30
0.0
 41
80.0
 42
80.0
 43
80.0
  0
INSERT
  5
8048
  8
3
  2
_OPEN
 10
6347.0735138575837
 20
3119.2176094774031
 30
0.0
 41
80.0
 42
80.0
 43
80.0
 50
180.0
  0
TEXT
  8
3
  40
120
  5
807C
  72
0
  71
0
 10
6572.57
 20
2986.82
 30
0.000000
  1
931
  0
POINT
  5
804A
  8
DEFPOINTS
 62
     0
 10
7278.0735138575837
 20
3199.1280384364709
 30
0.0
  0
POINT
  5
804B
  8
DEFPOINTS
 62
     0
 10
6347.0735138575837
 20
3432.2206412115638
 30
0.0
  0
POINT
  5
804C
  8
DEFPOINTS
 62
     0
 10
6347.0735138575837
 20
3119.2176094774031
 30
0.0
  0
ENDBLK
  5
7ED0
  8
0
  0
BLOCK
  8
0
  2
*D12
 70
     1
 10
0.0
 20
0.0
 30
0.0
  3
*D12
  1

  0
LINE
  5
804D
  8
3
 10
6298.0735138575837
 20
5447.2206412115829
 30
0.0
 11
6298.0735138575837
 21
6460.1807568926961
 31
0.0
  0
LINE
  5
804E
  8
3
 10
7198.0735138575828
 20
6420.180756892697
 30
0.0
 11
6378.0735138575837
 21
6420.180756892697
 31
0.0
  0
INSERT
  5
804F
  8
3
  2
_OPEN
 10
7278.0735138575837
 20
6420.180756892697
 30
0.0
 41
80.0
 42
80.0
 43
80.0
  0
INSERT
  5
8050
  8
3
  2
_OPEN
 10
6298.0735138575837
 20
6420.180756892697
 30
0.0
 41
80.0
 42
80.0
 43
80.0
 50
180.0
  0
TEXT
  8
3
  40
120
  5
807D
  72
0
  71
0
 10
6548.07
 20
6387.78
 30
0.000000
  1
MAX
  0
TEXT
  8
3
  40
120
  5
807E
  72
0
  71
0
 10
6548.07
 20
6231.78
 30
0.000000
  1
1080
  0
POINT
  5
8052
  8
DEFPOINTS
 62
     0
 10
7278.0735138575837
 20
6302.6429725090438
 30
0.0
  0
POINT
  5
8053
  8
DEFPOINTS
 62
     0
 10
6298.0735138575837
 20
5407.220641211582
 30
0.0
  0
POINT
  5
8054
  8
DEFPOINTS
 62
     0
 10
6298.0735138575837
 20
6420.180756892697
 30
0.0
  0
ENDBLK
  5
800F
  8
0
  0
BLOCK
  8
0
  2
*D13
 70
     1
 10
0.0
 20
0.0
 30
0.0
  3
*D13
  1

  0
LINE
  5
7EE7
  8
0
  6
BYBLOCK
 10
2076.3448663592239
 20
7235.4692128658189
 30
0.0
 11
2076.3448663592239
 21
8011.7858555691837
 31
0.0
  0
LINE
  5
7EE8
  8
0
  6
BYBLOCK
 10
3276.3448663592271
 20
7735.4692128658216
 30
0.0
 11
3276.3448663592271
 21
8011.7858555691837
 31
0.0
  0
LINE
  5
7EE9
  8
0
  6
BYBLOCK
 10
2156.3448663592239
 20
7971.7858555691864
 30
0.0
 11
3196.344866359228
 21
7971.7858555691864
 31
0.0
  0
INSERT
  5
7EEA
  8
0
  6
BYBLOCK
  2
_OPEN
 10
2076.3448663592239
 20
7971.7858555691864
 30
0.0
 41
80.0
 42
80.0
 43
80.0
 50
180.0
  0
INSERT
  5
7EEB
  8
0
  6
BYBLOCK
  2
_OPEN
 10
3276.3448663592271
 20
7971.7858555691864
 30
0.0
 41
80.0
 42
80.0
 43
80.0
  0
TEXT
  5
7EEC
  8
1
 10
2476.3448663592262
 20
7991.7858555691846
 30
0.0
 40
120.0
  1
1200
  0
POINT
  5
7EED
  8
DEFPOINTS
  6
BYBLOCK
 62
     0
 10
2076.3448663592239
 20
7195.4692128658198
 30
0.0
  0
POINT
  5
7EEE
  8
DEFPOINTS
  6
BYBLOCK
 62
     0
 10
3276.3448663592271
 20
7695.4692128658207
 30
0.0
  0
POINT
  5
7EEF
  8
DEFPOINTS
  6
BYBLOCK
 62
     0
 10
3276.3448663592271
 20
7971.7858555691864
 30
0.0
  0
ENDBLK
  5
7EF0
  8
0
  0
BLOCK
  8
0
  2
*D14
 70
     1
 10
0.0
 20
0.0
 30
0.0
  3
*D14
  1

  0
LINE
  5
8055
  8
3
 10
4745.9135381509841
 20
9749.895304237114
 30
0.0
 11
4745.9135381509841
 21
10026.21194694047
 31
0.0
  0
LINE
  5
8056
  8
3
 10
2925.9135381509841
 20
9986.2119469404788
 30
0.0
 11
4665.9135381509832
 21
9986.2119469404788
 31
0.0
  0
INSERT
  5
8057
  8
3
  2
_OPEN
 10
2845.9135381509841
 20
9986.2119469404788
 30
0.0
 41
80.0
 42
80.0
 43
80.0
 50
180.0
  0
INSERT
  5
8058
  8
3
  2
_OPEN
 10
4745.9135381509841
 20
9986.2119469404788
 30
0.0
 41
80.0
 42
80.0
 43
80.0
  0
TEXT
  8
3
  40
120
  5
807F
  72
0
  71
0
 10
3555.91
 20
9853.81
 30
0.000000
  1
1900
  0
POINT
  5
805A
  8
DEFPOINTS
 62
     0
 10
2845.9135381509841
 20
9709.895304237114
 30
0.0
  0
POINT
  5
805B
  8
DEFPOINTS
 62
     0
 10
4745.9135381509841
 20
9709.895304237114
 30
0.0
  0
POINT
  5
805C
  8
DEFPOINTS
 62
     0
 10
4745.9135381509841
 20
9986.2119469404788
 30
0.0
  0
ENDBLK
  5
7EFA
  8
0
  0
BLOCK
  8
0
  2
*D15
 70
     1
 10
0.0
 20
0.0
 30
0.0
  3
*D15
  1

  0
LINE
  5
7EFC
  8
0
  6
BYBLOCK
 10
2036.3448663592239
 20
7195.4692128658198
 30
0.0
 11
1698.638833766908
 21
7195.4692128658198
 31
0.0
  0
LINE
  5
7EFD
  8
0
  6
BYBLOCK
 10
2036.3448663592239
 20
6095.469212865818
 30
0.0
 11
1698.638833766908
 21
6095.469212865818
 31
0.0
  0
LINE
  5
7EFE
  8
0
  6
BYBLOCK
 10
1738.638833766908
 20
7115.4692128658198
 30
0.0
 11
1738.638833766908
 21
6175.4692128658189
 31
0.0
  0
INSERT
  5
7EFF
  8
0
  6
BYBLOCK
  2
_OPEN
 10
1738.638833766908
 20
7195.4692128658198
 30
0.0
 41
80.0
 42
80.0
 43
80.0
 50
90.0
  0
INSERT
  5
7F00
  8
0
  6
BYBLOCK
  2
_OPEN
 10
1738.638833766908
 20
6095.469212865818
 30
0.0
 41
80.0
 42
80.0
 43
80.0
 50
270.0
  0
TEXT
  5
7F01
  8
1
 10
1718.638833766908
 20
6456.8977842943896
 30
0.0
 40
120.0
  1
1100
 50
90.0
  0
POINT
  5
7F02
  8
DEFPOINTS
  6
BYBLOCK
 62
     0
 10
2076.3448663592239
 20
7195.4692128658198
 30
0.0
  0
POINT
  5
7F03
  8
DEFPOINTS
  6
BYBLOCK
 62
     0
 10
2076.3448663592239
 20
6095.469212865818
 30
0.0
  0
POINT
  5
7F04
  8
DEFPOINTS
  6
BYBLOCK
 62
     0
 10
1738.638833766908
 20
6095.469212865818
 30
0.0
  0
ENDBLK
  5
7F05
  8
0
  0
BLOCK
  8
0
  2
*D16
 70
     1
 10
0.0
 20
0.0
 30
0.0
  3
*D16
  1

  0
LINE
  5
7F07
  8
0
  6
BYBLOCK
 10
5216.3448663592289
 20
7695.4692128658198
 30
0.0
 11
5646.296273281986
 21
7695.4692128658198
 31
0.0
  0
LINE
  5
7F08
  8
0
  6
BYBLOCK
 10
5216.3448663592289
 20
6095.469212865818
 30
0.0
 11
5646.296273281986
 21
6095.469212865818
 31
0.0
  0
LINE
  5
7F09
  8
0
  6
BYBLOCK
 10
5606.2962732819869
 20
7615.4692128658198
 30
0.0
 11
5606.2962732819869
 21
6175.4692128658189
 31
0.0
  0
INSERT
  5
7F0A
  8
0
  6
BYBLOCK
  2
_OPEN
 10
5606.2962732819869
 20
7695.4692128658198
 30
0.0
 41
80.0
 42
80.0
 43
80.0
 50
90.0
  0
INSERT
  5
7F0B
  8
0
  6
BYBLOCK
  2
_OPEN
 10
5606.2962732819869
 20
6095.469212865818
 30
0.0
 41
80.0
 42
80.0
 43
80.0
 50
270.0
  0
TEXT
  5
7F0C
  8
1
 10
5586.2962732819879
 20
6695.4692128658198
 30
0.0
 40
120.0
  1
1600
 50
90.0
  0
POINT
  5
7F0D
  8
DEFPOINTS
  6
BYBLOCK
 62
     0
 10
5176.344866359228
 20
7695.4692128658198
 30
0.0
  0
POINT
  5
7F0E
  8
DEFPOINTS
  6
BYBLOCK
 62
     0
 10
5176.344866359228
 20
6095.469212865818
 30
0.0
  0
POINT
  5
7F0F
  8
DEFPOINTS
  6
BYBLOCK
 62
     0
 10
5606.2962732819869
 20
6095.469212865818
 30
0.0
  0
ENDBLK
  5
7F10
  8
0
  0
BLOCK
  8
0
  2
*D17
 70
     1
 10
0.0
 20
0.0
 30
0.0
  3
*D17
  1

  0
LINE
  5
7F12
  8
0
  6
BYBLOCK
 10
2076.3448663592239
 20
6055.4692128658189
 30
0.0
 11
2076.3448663592239
 21
5572.4766448570854
 31
0.0
  0
LINE
  5
7F13
  8
0
  6
BYBLOCK
 10
5176.344866359228
 20
6055.4692128658189
 30
0.0
 11
5176.344866359228
 21
5572.4766448570854
 31
0.0
  0
LINE
  5
7F14
  8
0
  6
BYBLOCK
 10
2156.3448663592239
 20
5612.4766448570854
 30
0.0
 11
5096.344866359228
 21
5612.4766448570854
 31
0.0
  0
INSERT
  5
7F15
  8
0
  6
BYBLOCK
  2
_OPEN
 10
2076.3448663592239
 20
5612.4766448570854
 30
0.0
 41
80.0
 42
80.0
 43
80.0
 50
180.0
  0
INSERT
  5
7F16
  8
0
  6
BYBLOCK
  2
_OPEN
 10
5176.344866359228
 20
5612.4766448570854
 30
0.0
 41
80.0
 42
80.0
 43
80.0
  0
TEXT
  5
7F17
  8
1
 10
3426.3448663592262
 20
5632.4766448570854
 30
0.0
 40
120.0
  1
3100
  0
POINT
  5
7F18
  8
DEFPOINTS
  6
BYBLOCK
 62
     0
 10
2076.3448663592239
 20
6095.469212865818
 30
0.0
  0
POINT
  5
7F19
  8
DEFPOINTS
  6
BYBLOCK
 62
     0
 10
5176.344866359228
 20
6095.469212865818
 30
0.0
  0
POINT
  5
7F1A
  8
DEFPOINTS
  6
BYBLOCK
 62
     0
 10
5176.344866359228
 20
5612.4766448570854
 30
0.0
  0
ENDBLK
  5
7F1B
  8
0
  0
BLOCK
  8
0
  2
*D18
 70
     1
 10
0.0
 20
0.0
 30
0.0
  3
*D18
  1

  0
LINE
  5
805D
  8
3
 10
1605.9135381509871
 20
3527.220613737562
 30
0.0
 11
1323.648521420716
 21
3527.220613737562
 31
0.0
  0
LINE
  5
805E
  8
3
 10
1363.6485214207171
 20
4847.2206137375624
 30
0.0
 11
1363.6485214207171
 21
3607.220613737562
 31
0.0
  0
INSERT
  5
805F
  8
3
  2
_OPEN
 10
1363.6485214207171
 20
4927.2206137375624
 30
0.0
 41
80.0
 42
80.0
 43
80.0
 50
90.0
  0
INSERT
  5
8060
  8
3
  2
_OPEN
 10
1363.6485214207171
 20
3527.220613737562
 30
0.0
 41
80.0
 42
80.0
 43
80.0
 50
270.0
  0
TEXT
  8
3
  40
120
  5
8080
  72
0
  71
0
 10
1043.65
 20
4014.82
 30
0.000000
  1
1400
  0
POINT
  5
8062
  8
DEFPOINTS
 62
     0
 10
1931.1007916789599
 20
4927.2206137375624
 30
0.0
  0
POINT
  5
8063
  8
DEFPOINTS
 62
     0
 10
1645.9135381509871
 20
3527.220613737562
 30
0.0
  0
POINT
  5
8064
  8
DEFPOINTS
 62
     0
 10
1363.6485214207171
 20
3527.220613737562
 30
0.0
  0
ENDBLK
  5
7F25
  8
0
  0
BLOCK
  8
0
  2
*D19
 70
     1
 10
0.0
 20
0.0
 30
0.0
  3
*D19
  1

  0
LINE
  5
7FDE
  8
0
  6
BYBLOCK
 62
     0
 10
1623.4135381509871
 20
3527.220613737562
 30
0.0
 11
1318.648521420716
 21
3527.220613737562
 31
0.0
  0
LINE
  5
7FDF
  8
0
  6
BYBLOCK
 62
     0
 10
1623.4135381509841
 20
3507.220613737562
 30
0.0
 11
1318.648521420716
 21
3507.220613737562
 31
0.0
  0
LINE
  5
7FE0
  8
0
  6
BYBLOCK
 62
     0
 10
1363.6485214207171
 20
3617.220613737562
 30
0.0
 11
1363.6485214207171
 21
3707.220613737562
 31
0.0
  0
LINE
  5
7FE1
  8
0
  6
BYBLOCK
 62
     0
 10
1363.6485214207171
 20
3417.220613737562
 30
0.0
 11
1363.6485214207171
 21
3327.220613737562
 31
0.0
  0
TEXT
  5
7FE2
  8
1
 62
     0
 10
1247.2199499921439
 20
3467.0450110065599
 30
0.0
 40
135.0
  1
(20)
 50
90.0
  0
LINE
  5
7FE3
  8
0
  6
BYBLOCK
 62
     0
 10
1363.6485214207171
 20
3527.220613737562
 30
0.0
 11
1363.6485214207171
 21
3507.220613737562
 31
0.0
  0
INSERT
  5
7FE4
  8
0
  6
BYBLOCK
 62
     0
  2
_OPEN
 10
1363.6485214207171
 20
3527.220613737562
 30
0.0
 41
90.0
 42
90.0
 43
90.0
 50
270.0
  0
INSERT
  5
7FE5
  8
0
  6
BYBLOCK
 62
     0
  2
_DOT
 10
1363.6485214207171
 20
3507.220613737562
 30
0.0
 41
90.0
 42
90.0
 43
90.0
 50
90.0
  0
POINT
  5
7FE6
  8
DEFPOINTS
  6
BYBLOCK
 62
     0
 10
1645.9135381509871
 20
3527.220613737562
 30
0.0
  0
POINT
  5
7FE7
  8
DEFPOINTS
  6
BYBLOCK
 62
     0
 10
1645.9135381509841
 20
3507.220613737562
 30
0.0
  0
POINT
  5
7FE8
  8
DEFPOINTS
  6
BYBLOCK
 62
     0
 10
1363.6485214207171
 20
3507.220613737562
 30
0.0
  0
ENDBLK
  5
7FE9
  8
0
  0
BLOCK
  8
0
  2
*D20
 70
     1
 10
0.0
 20
0.0
 30
0.0
  3
*D20
  1

  0
LINE
  5
8065
  8
3
 62
     0
 10
1623.4135381509841
 20
3507.220613737562
 30
0.0
 11
1318.648521420716
 21
3507.220613737562
 31
0.0
  0
LINE
  5
8066
  8
3
 62
     0
 10
1623.4135381509841
 20
3432.220613737562
 30
0.0
 11
1318.648521420716
 21
3432.220613737562
 31
0.0
  0
LINE
  5
8067
  8
3
 62
     0
 10
1363.6485214207171
 20
3597.220613737562
 30
0.0
 11
1363.6485214207171
 21
3687.220613737562
 31
0.0
  0
LINE
  5
8068
  8
3
 62
     0
 10
1363.6485214207171
 20
3342.220613737562
 30
0.0
 11
1363.6485214207171
 21
2943.649185166134
 31
0.0
  0
LINE
  5
8069
  8
3
 62
     0
 10
1363.6485214207171
 20
3507.220613737562
 30
0.0
 11
1363.6485214207171
 21
3432.220613737562
 31
0.0
  0
INSERT
  5
806A
  8
3
 62
     0
  2
_DOT
 10
1363.6485214207171
 20
3507.220613737562
 30
0.0
 41
90.0
 42
90.0
 43
90.0
 50
270.0
  0
INSERT
  5
806B
  8
3
 62
     0
  2
_OPEN
 10
1363.6485214207171
 20
3432.220613737562
 30
0.0
 41
90.0
 42
90.0
 43
90.0
 50
90.0
  0
TEXT
  8
3
  40
135
  5
8081
  62
0
  72
0
  71
0
 10
981.149
 20
2858.98
 30
0.000000
  1
75
  0
POINT
  5
806D
  8
DEFPOINTS
 62
     0
 10
1645.9135381509841
 20
3507.220613737562
 30
0.0
  0
POINT
  5
806E
  8
DEFPOINTS
 62
     0
 10
1645.9135381509841
 20
3432.220613737562
 30
0.0
  0
POINT
  5
806F
  8
DEFPOINTS
 62
     0
 10
1363.6485214207171
 20
3432.220613737562
 30
0.0
  0
ENDBLK
  5
7FF6
  8
0
  0
BLOCK
  8
0
  2
*D21
 70
     1
 10
0.0
 20
0.0
 30
0.0
  3
*D21
  1

  0
LINE
  5
7F40
  8
0
  6
BYBLOCK
 10
2386.3438663592242
 20
2703.306007795371
 30
0.0
 11
1373.897670836941
 21
2703.306007795371
 31
0.0
  0
LINE
  5
7F41
  8
0
  6
BYBLOCK
 10
2036.344866359228
 20
163.30600779537141
 30
0.0
 11
1373.897670836941
 21
163.30600779537141
 31
0.0
  0
LINE
  5
7F42
  8
0
  6
BYBLOCK
 10
1413.897670836941
 20
2623.3060077953701
 30
0.0
 11
1413.897670836941
 21
243.30600779537141
 31
0.0
  0
INSERT
  5
7F43
  8
0
  6
BYBLOCK
  2
_OPEN
 10
1413.897670836941
 20
2703.306007795371
 30
0.0
 41
80.0
 42
80.0
 43
80.0
 50
90.0
  0
INSERT
  5
7F44
  8
0
  6
BYBLOCK
  2
_OPEN
 10
1413.897670836941
 20
163.30600779537141
 30
0.0
 41
80.0
 42
80.0
 43
80.0
 50
270.0
  0
TEXT
  5
7F45
  8
1
 10
1393.897670836941
 20
1221.877436366799
 30
0.0
 40
120.0
  1
2540
 50
90.0
  0
POINT
  5
7F46
  8
DEFPOINTS
  6
BYBLOCK
 62
     0
 10
2426.3438663592242
 20
2703.306007795371
 30
0.0
  0
POINT
  5
7F47
  8
DEFPOINTS
  6
BYBLOCK
 62
     0
 10
2076.344866359228
 20
163.30600779537141
 30
0.0
  0
POINT
  5
7F48
  8
DEFPOINTS
  6
BYBLOCK
 62
     0
 10
1413.897670836941
 20
163.30600779537141
 30
0.0
  0
ENDBLK
  5
7F49
  8
0
  0
BLOCK
  8
0
  2
*D22
 70
     1
 10
0.0
 20
0.0
 30
0.0
  3
*D22
  1

  0
LINE
  5
8070
  8
3
 10
4934.9135381509841
 20
4851.2196137375659
 30
0.0
 11
4934.9135381509841
 21
6621.0472131115448
 31
0.0
  0
LINE
  5
8071
  8
3
 10
3875.9135381509841
 20
6581.0472131115457
 30
0.0
 11
4854.9135381509841
 21
6581.0472131115457
 31
0.0
  0
INSERT
  5
8072
  8
3
  2
_OPEN
 10
3795.9135381509832
 20
6581.0472131115457
 30
0.0
 41
80.0
 42
80.0
 43
80.0
 50
180.0
  0
INSERT
  5
8073
  8
3
  2
_OPEN
 10
4934.9135381509841
 20
6581.0472131115457
 30
0.0
 41
80.0
 42
80.0
 43
80.0
  0
TEXT
  8
3
  40
120
  5
8082
  72
0
  71
0
 10
4125.41
 20
6448.65
 30
0.000000
  1
1139
  0
POINT
  5
8075
  8
DEFPOINTS
 62
     0
 10
3795.9135381509832
 20
6090.2943197774657
 30
0.0
  0
POINT
  5
8076
  8
DEFPOINTS
 62
     0
 10
4934.9135381509841
 20
4811.2196137375649
 30
0.0
  0
POINT
  5
8077
  8
DEFPOINTS
 62
     0
 10
4934.9135381509841
 20
6581.0472131115457
 30
0.0
  0
ENDBLK
  5
7F53
  8
0
  0
BLOCK
  8
0
  2
*D23
 70
     1
 10
0.0
 20
0.0
 30
0.0
  3
*D23
  1

  0
LINE
  5
7F55
  8
0
  6
BYBLOCK
 10
5365.344866359228
 20
1582.3050077953731
 30
0.0
 11
5365.344866359228
 21
3631.8763123590938
 31
0.0
  0
LINE
  5
7F56
  8
0
  6
BYBLOCK
 10
2076.3448663592312
 20
448.3060077953711
 30
0.0
 11
2076.3448663592312
 21
3631.8763123590938
 31
0.0
  0
LINE
  5
7F57
  8
0
  6
BYBLOCK
 10
5285.344866359228
 20
3591.8763123590938
 30
0.0
 11
2156.3448663592312
 21
3591.8763123590938
 31
0.0
  0
INSERT
  5
7F58
  8
0
  6
BYBLOCK
  2
_OPEN
 10
5365.344866359228
 20
3591.8763123590938
 30
0.0
 41
80.0
 42
80.0
 43
80.0
  0
INSERT
  5
7F59
  8
0
  6
BYBLOCK
  2
_OPEN
 10
2076.3448663592312
 20
3591.8763123590938
 30
0.0
 41
80.0
 42
80.0
 43
80.0
 50
180.0
  0
TEXT
  5
7F5A
  8
1
 10
3512.273437787801
 20
3611.8763123590938
 30
0.0
 40
120.0
  1
3289
  0
POINT
  5
7F5B
  8
DEFPOINTS
  6
BYBLOCK
 62
     0
 10
5365.344866359228
 20
1542.3050077953731
 30
0.0
  0
POINT
  5
7F5C
  8
DEFPOINTS
  6
BYBLOCK
 62
     0
 10
2076.3448663592312
 20
408.30600779537122
 30
0.0
  0
POINT
  5
7F5D
  8
DEFPOINTS
  6
BYBLOCK
 62
     0
 10
2076.3448663592312
 20
3591.8763123590938
 30
0.0
  0
ENDBLK
  5
7F5E
  8
0
  0
BLOCK
  8
0
  2
_DOT
 70
     0
 10
0.0
 20
0.0
 30
0.0
  3
_DOT
  1

  0
POLYLINE
  5
7FF9
  8
0
  6
BYBLOCK
 62
     0
 66
     1
 10
0.0
 20
0.0
 30
0.0
 70
     1
 40
0.25
 41
0.25
  0
VERTEX
  5
8078
  8
0
  6
BYBLOCK
 62
     0
 10
-0.125
 20
0.0
 30
0.0
 42
1.0
  0
VERTEX
  5
8079
  8
0
  6
BYBLOCK
 62
     0
 10
0.125
 20
0.0
 30
0.0
 42
1.0
  0
SEQEND
  5
807A
  8
0
  6
BYBLOCK
 62
     0
  0
LINE
  5
7FFD
  8
0
  6
BYBLOCK
 62
     0
 10
-0.25
 20
0.0
 30
0.0
 11
-1.0
 21
0.0
 31
0.0
  0
ENDBLK
  5
7FDC
  8
0
  0
ENDSEC
  0
SECTION
  2
ENTITIES
  0
INSERT
  5
7C3E
  8
0
  2
YA_N
 10
-30556.328503526522
 20
2382.329216003578
 30
0.0
  0
LINE
  5
7C40
  8
1
 10
6488.0735138575837
 20
5407.220641211582
 30
0.0
 11
6298.0735138575837
 21
5407.220641211582
 31
0.0
  0
LINE
  5
7C41
  8
1
 10
6488.0726611587306
 20
3777.2210330932762
 30
0.0
 11
6298.072513857579
 21
3777.2210330932762
 31
0.0
  0
LINE
  5
7C42
  8
1
 10
6298.072513857579
 20
3777.2210330932762
 30
0.0
 11
6298.0735138575837
 21
5407.220641211582
 31
0.0
  0
LINE
  5
7C43
  8
2
 10
6739.3651905008446
 20
3997.2210330932771
 30
0.0
 11
6255.316513857586
 21
3997.2210330932771
 31
0.0
  0
LINE
  5
7C44
  8
1
 10
6348.0725138575799
 20
3847.2210330932762
 30
0.0
 11
6448.0725138575808
 21
3847.2210330932762
 31
0.0
  0
LINE
  5
7C45
  8
1
 10
6348.0725138575799
 20
3847.2210330932762
 30
0.0
 11
6348.0725138575799
 21
4147.2210330932758
 31
0.0
  0
LINE
  5
7C46
  8
1
 10
6448.0725138575808
 20
3847.2210330932762
 30
0.0
 11
6448.0725138575808
 21
4147.2210330932758
 31
0.0
  0
LINE
  5
7C47
  8
1
 10
6448.0725138575808
 20
4147.2210330932758
 30
0.0
 11
6348.0725138575799
 21
4147.2210330932758
 31
0.0
  0
LINE
  5
7C48
  8
1
 10
6448.0735138575828
 20
5327.220641211582
 30
0.0
 11
6448.0735138575828
 21
4527.2196412115818
 31
0.0
  0
LINE
  5
7C49
  8
1
 10
6448.0735138575828
 20
4527.2196412115818
 30
0.0
 11
6348.0735138575837
 21
4527.2196412115818
 31
0.0
  0
LINE
  5
7C4A
  8
1
 10
6348.0735138575837
 20
4527.2196412115818
 30
0.0
 11
6348.0735138575837
 21
5327.220641211582
 31
0.0
  0
LINE
  5
7C4B
  8
1
 10
6348.0735138575837
 20
5327.220641211582
 30
0.0
 11
6448.0735138575828
 21
5327.220641211582
 31
0.0
  0
LINE
  5
7C4C
  8
1
 10
7868.0735138575837
 20
4127.2176412115823
 30
0.0
 11
8002.0775138575827
 21
4127.2176412115823
 31
0.0
  0
LINE
  5
7C4D
  8
1
 10
8002.0775138575827
 20
5727.2166412115821
 30
0.0
 11
7868.0735138575837
 21
5727.2166412115821
 31
0.0
  0
LINE
  5
7C4E
  8
1
 10
8002.0775138575827
 20
5792.2166412115821
 30
0.0
 11
8002.0775138575827
 21
5727.2166412115821
 31
0.0
  0
LINE
  5
7C4F
  8
1
 10
8002.0775138575827
 20
4062.2176412115818
 30
0.0
 11
8002.0775138575827
 21
4127.2176412115823
 31
0.0
  0
LINE
  5
7C50
  8
1
 10
6684.8725138575828
 20
3677.2206412122068
 30
0.0
 11
6347.0725138575799
 21
3677.2206412122068
 31
0.0
  0
LINE
  5
7C51
  8
1
 10
6422.0725138575799
 20
3677.2206412122068
 30
0.0
 11
6347.0725138575799
 21
3677.2206412122068
 31
0.0
  0
LINE
  5
7C52
  8
1
 10
8002.0775138575827
 20
4062.2176412115818
 30
0.0
 11
8002.0775138575827
 21
5792.2166412115821
 31
0.0
  0
LINE
  5
7C53
  8
1
 10
7872.0735138575828
 20
3527.2196880871779
 30
0.0
 11
6347.0725138575799
 21
3527.2206412122059
 31
0.0
  0
LINE
  5
7C54
  8
1
 10
6448.0735138575828
 20
4977.2166412115821
 30
0.0
 11
6688.0730465204324
 21
4977.2166412115821
 31
0.0
  0
LINE
  5
7C55
  8
1
 10
6448.0735138575828
 20
4877.2186412115807
 30
0.0
 11
6688.0729962701153
 21
4877.2186412115807
 31
0.0
  0
LINE
  5
7C57
  8
1
 10
6688.0725138575799
 20
3677.2206412122068
 30
0.0
 11
6347.0725138575799
 21
3677.2206412122068
 31
0.0
  0
LINE
  5
7C58
  8
1
 10
7947.0735138575828
 20
3677.2206412122068
 30
0.0
 11
6347.0725138575799
 21
3677.2206412122068
 31
0.0
  0
LINE
  5
7C59
  8
1
 10
7872.0735138575828
 20
3527.2196412122071
 30
0.0
 11
7947.0735138575828
 21
3527.2196412122071
 31
0.0
  0
LINE
  5
7C5A
  8
2
 10
7278.0735138575837
 20
3199.1280384364709
 30
0.0
 11
7278.0735138575837
 21
6103.6921905251929
 31
0.0
  0
LINE
  5
7C5B
  8
2
 10
8070.5375636406534
 20
4927.2206412115847
 30
0.0
 11
6298.3585138575791
 21
4927.220641211582
 31
0.0
  0
LINE
  5
7C5C
  8
1
 10
6488.0726611587306
 20
3777.2210330932762
 30
0.0
 11
6488.0735138575837
 21
5407.220641211582
 31
0.0
  0
POINT
  5
7C5D
  8
1
 10
6298.0735138575837
 20
5407.220641211582
 30
0.0
  0
LINE
  5
7C5E
  8
1
 10
3750.9125381509798
 20
5907.2206137375606
 30
0.0
 11
2106.9178902985868
 21
5907.2206137375679
 31
0.0
  0
LINE
  5
7C5F
  8
1
 10
3750.9125381509798
 20
5972.2206137375624
 30
0.0
 11
2100.9125381509798
 21
5972.2206137375624
 31
0.0
  0
ARC
  5
7C60
  8
1
 10
3679.9135381509841
 20
5043.2206137375606
 30
0.0
 40
1487.0
 50
184.4739999999999
 51
274.47427879634552
  0
LINE
  5
7C61
  8
2
 10
1995.9135381509841
 20
3334.005613738208
 30
0.0
 11
1995.9135381509841
 21
4438.7541279840807
 31
0.0
  0
LINE
  5
7C62
  8
1
 10
1995.9135381509841
 20
3712.2206137382068
 30
0.0
 11
1995.9136865365731
 21
4282.2210330932767
 31
0.0
  0
ARC
  5
7C63
  8
1
 10
1995.9136865365731
 20
3997.2210330932771
 30
0.0
 40
280.0
 50
298.69199912720882
 51
241.3080008727911
  0
LINE
  5
7C64
  8
1
 10
1683.3092807798159
 20
3747.2210330932762
 30
0.0
 11
1872.5878180600989
 21
3747.2210330932771
 31
0.0
  0
LINE
  5
7C65
  8
2
 10
2416.249443198546
 20
3997.2210330932771
 30
0.0
 11
1659.3237753847461
 21
3997.2210330932771
 31
0.0
  0
LINE
  5
7C66
  8
1
 10
1752.913686536572
 20
3747.2210330932771
 30
0.0
 11
1752.913686536572
 21
3858.1131612814988
 31
0.0
  0
LINE
  5
7C67
  8
1
 10
1670.9136865365731
 20
3677.2210492216691
 30
0.0
 11
1683.3092807798159
 21
3747.2210330932762
 31
0.0
  0
LINE
  5
7C68
  8
1
 10
2238.9136865365731
 20
3747.2210330932771
 30
0.0
 11
2238.9136865365731
 21
3858.1131612814988
 31
0.0
  0
LINE
  5
7C69
  8
1
 10
2130.34196841011
 20
3751.6013330842388
 30
0.0
 11
1861.4854046630351
 21
3751.6013330842388
 31
0.0
  0
LINE
  5
7C6A
  8
1
 10
2119.2395550130459
 20
3733.8752563519738
 30
0.0
 11
1995.9136865365731
 21
3733.8752563519738
 31
0.0
  0
LINE
  5
7C6B
  8
1
 10
1872.5878180600989
 20
3733.8752563519738
 30
0.0
 11
1995.9136865365731
 21
3733.8752563519738
 31
0.0
  0
LINE
  5
7C6C
  8
1
 10
1852.913686536572
 20
3756.4908937255582
 30
0.0
 11
1852.913686536572
 21
3747.2210330932771
 31
0.0
  0
LINE
  5
7C6D
  8
1
 10
1872.5878180600989
 20
3747.2210330932762
 30
0.0
 11
1872.5878180600989
 21
3733.8752563519738
 31
0.0
  0
LINE
  5
7C6E
  8
1
 10
2308.5180922933359
 20
3747.2210330932762
 30
0.0
 11
2119.2395550130459
 21
3747.2210330932771
 31
0.0
  0
LINE
  5
7C6F
  8
1
 10
2138.9136865365722
 20
3756.4908937255582
 30
0.0
 11
2138.9136865365722
 21
3747.2210330932771
 31
0.0
  0
LINE
  5
7C70
  8
1
 10
2119.2395550130459
 20
3747.2210330932762
 30
0.0
 11
2119.2395550130459
 21
3733.8752563519738
 31
0.0
  0
LINE
  5
7C71
  8
1
 10
2138.9136865365722
 20
3756.4908937255582
 30
0.0
 11
2138.9136865365722
 21
3747.2210330932771
 31
0.0
  0
LINE
  5
7C72
  8
1
 10
2238.9136865365731
 20
3747.2210330932771
 30
0.0
 11
2138.9136865365722
 21
3747.2210330932771
 31
0.0
  0
LINE
  5
7C73
  8
1
 10
2320.9136865365722
 20
3677.2210492216691
 30
0.0
 11
2308.5180922933359
 21
3747.2210330932762
 31
0.0
  0
CIRCLE
  5
7C74
  8
1
 10
1995.9136865365731
 20
3997.2210330932771
 30
0.0
 40
150.0
  0
LINE
  5
7C75
  8
1
 10
2100.9125381509798
 20
5972.2206137375624
 30
0.0
 11
2035.91253815098
 21
5972.2206137375624
 31
0.0
  0
ARC
  5
7C76
  8
1
 10
3679.9135381509841
 20
4811.2196137375649
 30
0.0
 40
1255.0
 50
275.30358042285371
 51
5.3030000000000479
  0
ARC
  5
7C77
  8
1
 10
3892.9135381509841
 20
4830.2196137375649
 30
0.0
 40
1042.0
 50
5.3409999999999771
 51
95.341999999999985
  0
CIRCLE
  5
7C78
  8
1
 10
3795.9135381509832
 20
4927.2206137375624
 30
0.0
 40
800.0
  0
CIRCLE
  5
7C79
  8
1
 10
3795.9135381509832
 20
4927.2206137375633
 30
0.0
 40
400.0
  0
CIRCLE
  5
7C7A
  8
1
 10
3795.9135381509832
 20
4927.2206137375624
 30
0.0
 40
865.0
  0
ARC
  5
7C7B
  8
1
 10
3892.9135381509841
 20
5024.2206137375606
 30
0.0
 40
848.0
 50
96.569000000000017
 51
99.639822647560692
  0
LINE
  5
7C7C
  8
1
 10
3750.9125381509798
 20
5860.2467592611347
 30
0.0
 11
3750.9125381509798
 21
5972.2206137375624
 31
0.0
  0
LINE
  5
7C7D
  8
1
 10
3750.9125381509798
 20
5972.2206137375624
 30
0.0
 11
3750.9125381509798
 21
5907.2206137375606
 31
0.0
  0
LINE
  5
7C7E
  8
1
 10
3815.9125381509798
 20
5972.2206137375624
 30
0.0
 11
3750.9125381509798
 21
5972.2206137375624
 31
0.0
  0
LINE
  5
7C7F
  8
1
 10
7943.073513857591
 20
5972.2206412115847
 30
0.0
 11
6613.0735138575774
 21
5972.2206412115829
 31
0.0
  0
LINE
  5
7C80
  8
1
 10
6688.0725138575799
 20
3677.2206412122068
 30
0.0
 11
6688.0730440098632
 21
4972.2206412115829
 31
0.0
  0
LINE
  5
7C81
  8
1
 10
7868.0735138575837
 20
3677.2206412122068
 30
0.0
 11
7868.0735138575837
 21
4904.9206412115827
 31
0.0
  0
LINE
  5
7C82
  8
1
 10
7947.0735138575828
 20
3507.2196412122039
 30
0.0
 11
6347.0725013575866
 21
3507.2206412122109
 31
0.0
  0
LINE
  5
7C83
  8
1
 10
7947.0735138575828
 20
3432.2196412121889
 30
0.0
 11
6347.0724544826217
 21
3432.2206412122259
 31
0.0
  0
LINE
  5
7C84
  8
1
 10
7947.0735138575828
 20
3432.2196412121889
 30
0.0
 11
7947.0735138575828
 21
3507.2196412122039
 31
0.0
  0
ARC
  5
7C85
  8
1
 10
3795.9135381509832
 20
4927.2206137375633
 30
0.0
 40
480.0
 50
283.51374930575912
 51
118.9873723062171
  0
ARC
  5
7C86
  8
1
 10
1995.9136865365731
 20
3997.2210330932771
 30
0.0
 40
220.0
 50
118.9873723062171
 51
283.51374930575912
  0
LINE
  5
7C87
  8
1
 10
3563.2974516828249
 20
5347.0893507450191
 30
0.0
 11
1889.297980238669
 21
4189.6608708883596
 31
0.0
  0
LINE
  5
7C88
  8
1
 10
3603.8971029860249
 20
5278.1190158806039
 30
0.0
 11
1923.9075233497131
 21
4128.8079338969183
 31
0.0
  0
LINE
  5
7C89
  8
1
 10
3891.4153004584368
 20
4538.7886204669621
 30
0.0
 11
2031.726847401864
 21
3851.5590356168009
 31
0.0
  0
LINE
  5
7C8A
  8
1
 10
2047.322999959986
 20
3783.311981173229
 30
0.0
 11
3908.0793128929649
 21
4460.5099550029126
 31
0.0
  0
INSERT
  5
7C8B
  8
0
  2
YA_N
 10
-496702.32618677447
 20
-121551.67132969839
 30
0.0
 41
60.0
 42
60.0
 43
60.0
  0
INSERT
  5
7C8C
  8
0
  2
YA_N
 10
-496702.32618677447
 20
-121551.67132969839
 30
0.0
 41
60.0
 42
60.0
 43
60.0
  0
INSERT
  5
7C8D
  8
0
  2
YA_N
 10
-496702.32618677447
 20
-121551.67132969839
 30
0.0
 41
60.0
 42
60.0
 43
60.0
  0
INSERT
  5
7C8E
  8
0
  2
YA_N
 10
-496702.32618677447
 20
-121551.67132969839
 30
0.0
 41
60.0
 42
60.0
 43
60.0
  0
INSERT
  5
7C8F
  8
0
  2
YA_N
 10
-476500.77885112283
 20
-35939.260309160607
 30
0.0
 41
60.0
 42
60.0
 43
60.0
  0
INSERT
  5
7C90
  8
0
  2
YA_N
 10
-496702.32618677447
 20
-121551.67132969839
 30
0.0
 41
60.0
 42
60.0
 43
60.0
  0
INSERT
  5
7C91
  8
0
  2
YA_N
 10
-491302.32618677459
 20
-117051.67132969839
 30
0.0
 41
960.0
 42
960.0
 43
960.0
  0
INSERT
  5
7C92
  8
0
  2
YA_N
 10
-301367.98055138462
 20
-30557.448474749559
 30
0.0
 41
60.0
 42
60.0
 43
60.0
  0
INSERT
  5
7C93
  8
0
  2
YA_N
 10
-301367.98055138462
 20
-30557.448474749559
 30
0.0
 41
60.0
 42
60.0
 43
60.0
  0
INSERT
  5
7C94
  8
0
  2
YA_N
 10
-281166.43321573292
 20
55054.962545788279
 30
0.0
 41
60.0
 42
60.0
 43
60.0
  0
INSERT
  5
7C95
  8
0
  2
YA_N
 10
-241054.30173798249
 20
141645.05652589581
 30
0.0
 41
60.0
 42
60.0
 43
60.0
  0
INSERT
  5
7C96
  8
0
  2
YA_N
 10
-58122.750739986317
 20
125884.89326661261
 30
0.0
 41
60.0
 42
60.0
 43
60.0
  0
INSERT
  5
7C97
  8
0
  2
YA_N
 10
-491302.32618677459
 20
-117051.67132969839
 30
0.0
 41
960.0
 42
960.0
 43
960.0
  0
INSERT
  5
7C9C
  8
0
  2
YA_N
 10
-491302.32618677459
 20
-117051.67132969839
 30
0.0
 41
960.0
 42
960.0
 43
960.0
  0
INSERT
  5
7C9D
  8
0
  2
YA_N
 10
-491302.32618677459
 20
-117051.67132969839
 30
0.0
 41
960.0
 42
960.0
 43
960.0
  0
INSERT
  5
7C9E
  8
0
  2
YA_N
 10
-491302.32618677459
 20
-117051.67132969839
 30
0.0
 41
960.0
 42
960.0
 43
960.0
  0
INSERT
  5
7CA4
  8
0
  2
YA_N
 10
-505694.3344901551
 20
-130102.8894963143
 30
0.0
 41
73.846153860000001
 42
73.846153860000001
 43
73.846153860000001
  0
INSERT
  5
7CA5
  8
0
  2
YA_N
 10
-495659.24933903298
 20
-120522.440613678
 30
0.0
 41
73.846153860000001
 42
73.846153860000001
 43
73.846153860000001
  0
INSERT
  5
7CA6
  8
0
  2
YA_N
 10
-495659.24933903298
 20
-120522.440613678
 30
0.0
 41
73.846153860000001
 42
73.846153860000001
 43
73.846153860000001
  0
INSERT
  5
7CA7
  8
0
  2
YA_N
 10
-495659.24933903298
 20
-120522.440613678
 30
0.0
 41
73.846153860000001
 42
73.846153860000001
 43
73.846153860000001
  0
INSERT
  5
7CA8
  8
0
  2
YA_N
 10
-495659.24933903298
 20
-120522.440613678
 30
0.0
 41
73.846153860000001
 42
73.846153860000001
 43
73.846153860000001
  0
INSERT
  5
7CA9
  8
0
  2
YA_N
 10
-495659.24933903298
 20
-120522.440613678
 30
0.0
 41
73.846153860000001
 42
73.846153860000001
 43
73.846153860000001
  0
INSERT
  5
7CAA
  8
0
  2
YA_N
 10
-460357.45901507698
 20
100955.72160536989
 30
0.0
 41
73.846153860000001
 42
73.846153860000001
 43
73.846153860000001
  0
INSERT
  5
7CAB
  8
0
  2
YA_N
 10
-186946.2775797178
 20
98852.582090171767
 30
0.0
 41
73.846153860000001
 42
73.846153860000001
 43
73.846153860000001
  0
INSERT
  5
7CAC
  8
0
  2
YA_N
 10
-186946.2775797178
 20
98852.582090171767
 30
0.0
 41
73.846153860000001
 42
73.846153860000001
 43
73.846153860000001
  0
INSERT
  5
7CAD
  8
0
  2
YA_N
 10
-186946.2775797178
 20
98852.582090171767
 30
0.0
 41
73.846153860000001
 42
73.846153860000001
 43
73.846153860000001
  0
INSERT
  5
7CAE
  8
0
  2
YA_N
 10
-186946.2775797178
 20
98852.582090171767
 30
0.0
 41
73.846153860000001
 42
73.846153860000001
 43
73.846153860000001
  0
INSERT
  5
7CAF
  8
0
  2
YA_N
 10
-10092.137393174
 20
251631.95283634221
 30
0.0
 41
73.846153860000001
 42
73.846153860000001
 43
73.846153860000001
  0
INSERT
  5
7CB0
  8
0
  2
YA_N
 10
-10092.137393174
 20
251631.95283634221
 30
0.0
 41
73.846153860000001
 42
73.846153860000001
 43
73.846153860000001
  0
INSERT
  5
7CB1
  8
0
  2
YA_N
 10
-239752.06970995659
 20
64534.284286005262
 30
0.0
 41
73.846153860000001
 42
73.846153860000001
 43
73.846153860000001
  0
INSERT
  5
7CB2
  8
0
  2
YA_N
 10
-545110.85523181967
 20
-169302.8131572307
 30
0.0
 41
73.846153860000001
 42
73.846153860000001
 43
73.846153860000001
  0
INSERT
  5
7CB3
  8
0
  2
YA_N
 10
-490342.32626111503
 20
-116091.6713820783
 30
0.0
 41
960.00000017999992
 42
960.00000017999992
 43
960.00000017999992
  0
INSERT
  5
7CB5
  8
0
  2
YA_N
 10
-490342.32626111503
 20
-116091.6713820783
 30
0.0
 41
960.00000017999992
 42
960.00000017999992
 43
960.00000017999992
  0
INSERT
  5
7CBA
  8
0
  2
YA_N
 10
-490342.32626111503
 20
-116091.6713820783
 30
0.0
 41
960.00000017999992
 42
960.00000017999992
 43
960.00000017999992
  0
INSERT
  5
7CBB
  8
0
  2
YA_N
 10
-490342.32626111503
 20
-116091.6713820783
 30
0.0
 41
960.00000017999992
 42
960.00000017999992
 43
960.00000017999992
  0
INSERT
  5
7CBC
  8
0
  2
YA_N
 10
-490342.32626111503
 20
-116091.6713820783
 30
0.0
 41
960.00000017999992
 42
960.00000017999992
 43
960.00000017999992
  0
INSERT
  5
7CC1
  8
0
  2
YA_N
 10
-505694.3344901551
 20
-130102.8894963143
 30
0.0
 41
73.846153860000001
 42
73.846153860000001
 43
73.846153860000001
  0
INSERT
  5
7CC2
  8
0
  2
YA_N
 10
-495659.24933903298
 20
-120522.440613678
 30
0.0
 41
73.846153860000001
 42
73.846153860000001
 43
73.846153860000001
  0
INSERT
  5
7CC3
  8
0
  2
YA_N
 10
-495659.24933903298
 20
-120522.440613678
 30
0.0
 41
73.846153860000001
 42
73.846153860000001
 43
73.846153860000001
  0
INSERT
  5
7CC4
  8
0
  2
YA_N
 10
-495659.24933903298
 20
-120522.440613678
 30
0.0
 41
73.846153860000001
 42
73.846153860000001
 43
73.846153860000001
  0
INSERT
  5
7CC5
  8
0
  2
YA_N
 10
-495659.24933903298
 20
-120522.440613678
 30
0.0
 41
73.846153860000001
 42
73.846153860000001
 43
73.846153860000001
  0
INSERT
  5
7CC6
  8
0
  2
YA_N
 10
-495659.24933903298
 20
-120522.440613678
 30
0.0
 41
73.846153860000001
 42
73.846153860000001
 43
73.846153860000001
  0
INSERT
  5
7CC7
  8
0
  2
YA_N
 10
-460357.45901507698
 20
100955.72160536989
 30
0.0
 41
73.846153860000001
 42
73.846153860000001
 43
73.846153860000001
  0
INSERT
  5
7CC8
  8
0
  2
YA_N
 10
-186946.2775797178
 20
98852.582090171767
 30
0.0
 41
73.846153860000001
 42
73.846153860000001
 43
73.846153860000001
  0
INSERT
  5
7CC9
  8
0
  2
YA_N
 10
-186946.2775797178
 20
98852.582090171767
 30
0.0
 41
73.846153860000001
 42
73.846153860000001
 43
73.846153860000001
  0
INSERT
  5
7CCA
  8
0
  2
YA_N
 10
-186946.2775797178
 20
98852.582090171767
 30
0.0
 41
73.846153860000001
 42
73.846153860000001
 43
73.846153860000001
  0
INSERT
  5
7CCB
  8
0
  2
YA_N
 10
-186946.2775797178
 20
98852.582090171767
 30
0.0
 41
73.846153860000001
 42
73.846153860000001
 43
73.846153860000001
  0
INSERT
  5
7CCC
  8
0
  2
YA_N
 10
-10092.137393174
 20
251631.95283634221
 30
0.0
 41
73.846153860000001
 42
73.846153860000001
 43
73.846153860000001
  0
INSERT
  5
7CCD
  8
0
  2
YA_N
 10
-10092.137393174
 20
251631.95283634221
 30
0.0
 41
73.846153860000001
 42
73.846153860000001
 43
73.846153860000001
  0
INSERT
  5
7CCE
  8
0
  2
YA_N
 10
-239752.06970995659
 20
64534.284286005262
 30
0.0
 41
73.846153860000001
 42
73.846153860000001
 43
73.846153860000001
  0
INSERT
  5
7CCF
  8
0
  2
YA_N
 10
-545110.85523181967
 20
-169302.8131572307
 30
0.0
 41
73.846153860000001
 42
73.846153860000001
 43
73.846153860000001
  0
INSERT
  5
7CD0
  8
0
  2
YA_N
 10
-490342.32626111503
 20
-116091.6713820783
 30
0.0
 41
960.00000017999992
 42
960.00000017999992
 43
960.00000017999992
  0
INSERT
  5
7CD2
  8
0
  2
YA_N
 10
-490342.32626111503
 20
-116091.6713820783
 30
0.0
 41
960.00000017999992
 42
960.00000017999992
 43
960.00000017999992
  0
INSERT
  5
7CD7
  8
0
  2
YA_N
 10
-490342.32626111503
 20
-116091.6713820783
 30
0.0
 41
960.00000017999992
 42
960.00000017999992
 43
960.00000017999992
  0
INSERT
  5
7CD8
  8
0
  2
YA_N
 10
-490342.32626111503
 20
-116091.6713820783
 30
0.0
 41
960.00000017999992
 42
960.00000017999992
 43
960.00000017999992
  0
INSERT
  5
7CD9
  8
0
  2
YA_N
 10
-490342.32626111503
 20
-116091.6713820783
 30
0.0
 41
960.00000017999992
 42
960.00000017999992
 43
960.00000017999992
  0
INSERT
  5
7CDE
  8
0
  2
YA_N
 10
-40007.715437892133
 20
-7917.1370404637273
 30
0.0
 41
60.0
 42
60.0
 43
60.0
  0
INSERT
  5
7CDF
  8
0
  2
YA_N
 10
-40007.715437892133
 20
-7917.1370404637273
 30
0.0
 41
60.0
 42
60.0
 43
60.0
  0
POINT
  5
7CE0
  8
1
 10
4745.9135510542183
 20
3507.2226137382108
 30
0.0
  0
POINT
  5
7CE1
  8
1
 10
4745.91359944133
 20
3432.2226137382258
 30
0.0
  0
POINT
  5
7CE2
  8
1
 10
4745.9135381509841
 20
3527.2226137382072
 30
0.0
  0
POINT
  5
7CE3
  8
1
 10
4745.9135510542183
 20
3507.2226137382108
 30
0.0
  0
DIMENSION
  5
7CE4
  8
3
  2
*D2
 10
8557.1408639475121
 20
4127.2176412115823
 30
0.0
 11
8477.1408639475121
 21
4927.2171412115822
 31
0.0
 12
-782.01676457145356
 22
3268.914605942191
 32
0.0
 70
     0
  1
φ1600
 13
8002.0775138575827
 23
5727.2166412115821
 33
0.0
 14
8002.0775138575827
 24
4127.2176412115823
 34
0.0
 50
90.0
1001
ACAD
1000
DSTYLE
1002
{
1070
    40
1040
40.0
1002
}
  0
DIMENSION
  5
7CE5
  8
3
  2
*D3
 10
8002.0775138575827
 20
6420.180756892697
 30
0.0
 11
7634.1792848552141
 21
6420.180756892697
 31
0.0
 12
-782.01676457145356
 22
3268.914605942191
 32
0.0
 70
   128
  1
725
 13
7278.0735138575837
 23
6302.6429725090438
 33
0.0
 14
8002.0775138575827
 24
5792.2166412115821
 34
0.0
1001
ACAD
1000
DSTYLE
1002
{
1070
    40
1040
40.0
1002
}
  0
POINT
  5
7CE6
  8
1
 10
6298.0735138575837
 20
5407.220641211582
 30
0.0
  0
POINT
  5
7CE7
  8
1
 10
7278.0735138575837
 20
6302.6429725090438
 30
0.0
  0
INSERT
  5
7CE8
  8
0
  2
YA_N
 10
26257.573037002508
 20
2208.0613894281519
 30
0.0
 41
2.399999999999999
 42
2.399999999999999
 43
2.399999999999999
  0
INSERT
  5
7CEA
  8
0
  2
YA_N
 10
17876.186104216311
 20
17088.425773273029
 30
0.0
 41
60.0
 42
60.0
 43
60.0
 50
270.0
  0
LINE
  5
7CEC
  8
2
 10
3795.9135381509832
 20
3276.442940613907
 30
0.0
 11
3795.9135381509832
 21
6116.5809754950933
 31
0.0
  0
LINE
  5
7CED
  8
2
 10
1784.687299191929
 20
4927.2206137375633
 30
0.0
 11
5140.6922292651288
 21
4927.2206137375633
 31
0.0
  0
DIMENSION
  5
7CEE
  8
3
  2
*D4
 10
1363.6485214207171
 20
5972.2206137375624
 30
0.0
 11
1283.648521420716
 21
5449.7206137375606
 31
0.0
 12
-430.43132820824388
 22
3268.914605942191
 32
0.0
 70
     0
 13
1931.1007916789599
 23
4927.2206137375624
 33
0.0
 14
2035.91253815098
 24
5972.2206137375624
 34
0.0
 50
90.0
1001
ACAD
1000
DSTYLE
1002
{
1070
    40
1040
40.0
1002
}
  0
LINE
  5
7CEF
  8
1
 10
4745.9135381509923
 20
3432.220613737562
 30
0.0
 11
4745.9135381509923
 21
3507.2226137382031
 31
0.0
  0
LINE
  5
7CF0
  8
1
 10
4745.9135381509923
 20
3527.220613737562
 30
0.0
 11
4745.9135381509986
 21
3677.2226137382072
 31
0.0
  0
DIMENSION
  5
7CF1
  8
3
  2
*D5
 10
3795.9135381509832
 20
3121.9664263463151
 30
0.0
 11
4270.9135381509868
 21
3201.9664263463151
 31
0.0
 12
-430.43132820824388
 22
3268.914605942191
 32
0.0
 70
     0
 13
4745.9135381509923
 23
3432.2226137381872
 33
0.0
 14
3795.9135381509832
 24
3276.442940613907
 34
0.0
1001
ACAD
1000
DSTYLE
1002
{
1070
    40
1040
40.0
1002
}
  0
LINE
  5
7CF2
  8
1
 10
1645.9135381509841
 20
3432.220613737542
 30
0.0
 11
1645.9135381509841
 21
3507.2206137375579
 31
0.0
  0
LINE
  5
7CF3
  8
1
 10
1645.9135381509871
 20
3527.220613737562
 30
0.0
 11
1645.9135381509871
 21
3677.220613737562
 31
0.0
  0
DIMENSION
  5
7CF4
  8
3
  2
*D6
 10
1645.9135381509841
 20
3121.9664263463151
 30
0.0
 11
2720.9135381509841
 21
3201.9664263463151
 31
0.0
 70
     0
 13
3795.9135381509832
 23
3276.442940613907
 33
0.0
 14
1645.9135381509841
 24
3432.220613737541
 34
0.0
1001
ACAD
1000
DSTYLE
1002
{
1070
   287
1070
     4
1070
    40
1040
40.0
1070
    75
1070
     1
1070
   279
1070
     1
1070
   289
1070
     3
1002
}
  0
DIMENSION
  5
7CF6
  8
3
  2
*D7
 10
3750.9125381509798
 20
6335.6707664445057
 30
0.0
 11
2925.9125381509798
 21
6415.6707664445057
 31
0.0
 12
-430.43132820824388
 22
3268.914605942191
 32
0.0
 70
     0
 13
2100.9125381509798
 23
5972.2206137375624
 33
0.0
 14
3750.9125381509798
 24
5972.2206137375624
 34
0.0
 50
180.0
1001
ACAD
1000
DSTYLE
1002
{
1070
    40
1040
40.0
1002
}
  0
LINE
  5
7CF7
  8
1
 10
2100.9135381509841
 20
5972.2206137375624
 30
0.0
 11
2197.444672956728
 21
4927.2246494557976
 31
0.0
  0
DIMENSION
  5
7CF8
  8
3
  2
*D8
 10
3795.9135381509832
 20
6581.0472131115457
 30
0.0
 11
2948.4135381509841
 21
6661.0472131115457
 31
0.0
 12
-430.43132820824388
 22
3268.914605942191
 32
0.0
 70
     0
 13
2100.9135381509841
 23
5972.2206137375624
 33
0.0
 14
3795.9135381509832
 24
6090.2943197774657
 34
0.0
 50
180.0
1001
ACAD
1000
DSTYLE
1002
{
1070
    40
1040
40.0
1002
}
  0
LINE
  5
7CF9
  8
1
 10
7947.0735138575828
 20
3677.2206412122068
 30
0.0
 11
7947.0735138575828
 21
3527.2196412122071
 31
0.0
  0
LINE
  5
7CFA
  8
1
 10
7868.0735138575837
 20
3677.2206412122082
 30
0.0
 11
7868.073513857591
 21
5972.2206412115847
 31
0.0
  0
LINE
  5
7CFB
  8
1
 10
6688.0735138575847
 20
3677.2206412122068
 30
0.0
 11
6688.0735138575847
 21
5972.2206412115829
 31
0.0
  0
DIMENSION
  5
7CFC
  8
3
  2
*D9
 10
7868.073513857591
 20
6127.922298430618
 30
0.0
 11
7278.0735138575883
 21
6207.922298430617
 31
0.0
 12
-782.01676457145356
 22
3268.914605942191
 32
0.0
 70
     0
 13
6688.0735138575847
 23
5972.2206412115829
 33
0.0
 14
7868.073513857591
 24
5972.2206412115847
 34
0.0
1001
ACAD
1000
DSTYLE
1002
{
1070
    40
1040
40.0
1002
}
  0
DIMENSION
  5
7CFD
  8
3
  2
*D10
 10
7278.0735138575837
 20
3119.2176094774031
 30
0.0
 11
7612.5735138575828
 21
3199.2176094774031
 31
0.0
 12
-782.01676457145356
 22
3268.914605942191
 32
0.0
 70
     0
 13
7947.0735138575828
 23
3432.2196412121889
 33
0.0
 14
7278.0735138575837
 24
3199.1280384364709
 34
0.0
1001
ACAD
1000
DSTYLE
1002
{
1070
    40
1040
40.0
1002
}
  0
LINE
  5
7CFE
  8
1
 10
6347.0735138575837
 20
3432.2206412115638
 30
0.0
 11
6347.0735138575837
 21
3507.2206412115802
 31
0.0
  0
LINE
  5
7CFF
  8
1
 10
6347.0735138575837
 20
3527.2206412115811
 30
0.0
 11
6347.0735138575837
 21
3677.2206412122082
 31
0.0
  0
DIMENSION
  5
7D00
  8
3
  2
*D11
 10
6347.0735138575837
 20
3119.2176094774031
 30
0.0
 11
6812.5735138575828
 21
3199.2176094774031
 31
0.0
 70
     0
 13
7278.0735138575837
 23
3199.1280384364709
 33
0.0
 14
6347.0735138575837
 24
3432.2206412115638
 34
0.0
1001
ACAD
1000
DSTYLE
1002
{
1070
   287
1070
     4
1070
    40
1040
40.0
1070
    75
1070
     1
1070
   279
1070
     1
1070
   289
1070
     3
1002
}
  0
LINE
  5
7D02
  8
2
 10
2260.1309347756028
 20
9040.8953042371122
 30
0.0
 11
4771.110114856463
 21
9040.8953042371122
 31
0.0
  0
LINE
  5
7D03
  8
1
 10
2845.9135381509841
 20
9709.895304237114
 30
0.0
 11
4745.9135381509841
 21
9709.895304237114
 31
0.0
  0
LINE
  5
7D04
  8
1
 10
1645.91353815098
 20
8109.8953042371113
 30
0.0
 11
4745.9135381509841
 21
8109.8953042371113
 31
0.0
  0
LINE
  5
7D05
  8
1
 10
4745.9135381509841
 20
8109.8953042371113
 30
0.0
 11
4745.9135381509841
 21
8450.8953042371122
 31
0.0
  0
LINE
  5
7D06
  8
1
 10
1645.91353815098
 20
8109.8953042371131
 30
0.0
 11
1645.91353815098
 21
9209.8953042371122
 31
0.0
  0
LINE
  5
7D07
  8
1
 10
1645.91353815098
 20
9209.8953042371122
 30
0.0
 11
2100.9135381509759
 21
9209.8953042371122
 31
0.0
  0
LINE
  5
7D08
  8
1
 10
2845.9135381509841
 20
9630.895304237114
 30
0.0
 11
2845.9135381509841
 21
9709.895304237114
 31
0.0
  0
LINE
  5
7D09
  8
1
 10
2100.9135381509841
 20
9630.8953042371104
 30
0.0
 11
4934.9135381509841
 21
9630.895304237114
 31
0.0
  0
LINE
  5
7D0A
  8
1
 10
2100.9135381509841
 20
8450.8953042371122
 30
0.0
 11
4934.9135381509841
 21
8450.8953042371122
 31
0.0
  0
LINE
  5
7D0B
  8
1
 10
4745.9135381509841
 20
9630.895304237114
 30
0.0
 11
4745.9135381509841
 21
9709.895304237114
 31
0.0
  0
DIMENSION
  5
7D0C
  8
3
  2
*D12
 10
6298.0735138575837
 20
6420.180756892697
 30
0.0
 11
6788.0735138575837
 21
6600.1807568926961
 31
0.0
 70
     0
  1
MAX\P1080
 13
7278.0735138575837
 23
6302.6429725090438
 33
0.0
 14
6298.0735138575837
 24
5407.220641211582
 34
0.0
1001
ACAD
1000
DSTYLE
1002
{
1070
   287
1070
     4
1070
    40
1040
40.0
1070
    75
1070
     1
1070
   279
1070
     1
1070
   289
1070
     3
1002
}
  0
LINE
  5
7D0D
  8
1
 10
3845.9135381509841
 20
8190.8953042371113
 30
0.0
 11
3845.9135381509768
 21
8450.8953042371122
 31
0.0
  0
LINE
  5
7D0E
  8
1
 10
3745.9135381509841
 20
8190.8953042371113
 30
0.0
 11
3745.9135381509841
 21
8450.8953042371122
 31
0.0
  0
LINE
  5
7D0F
  8
1
 10
1775.9135381509841
 20
8040.8953042371122
 30
0.0
 11
1775.9135381509841
 21
8230.895304237114
 31
0.0
  0
LINE
  5
7D10
  8
1
 10
4275.9135381509841
 20
8040.8953042371122
 30
0.0
 11
4275.9135381509841
 21
8230.895304237114
 31
0.0
  0
LINE
  5
7D11
  8
1
 10
3395.9125381509871
 20
8090.8953042371077
 30
0.0
 11
4195.9135381509841
 21
8090.8953042371131
 31
0.0
  0
LINE
  5
7D12
  8
1
 10
4195.9135381509841
 20
8190.8953042371131
 30
0.0
 11
3395.9125381509871
 21
8190.8953042371068
 31
0.0
  0
LINE
  5
7D14
  8
1
 10
4275.9135381509841
 20
8230.895304237114
 30
0.0
 11
4275.9135381509841
 21
8040.8953042371122
 31
0.0
  0
LINE
  5
7D15
  8
1
 10
1775.9135381509841
 20
8230.895304237114
 30
0.0
 11
4275.9135381509841
 21
8230.895304237114
 31
0.0
  0
LINE
  5
7D16
  8
1
 10
1775.9135381509909
 20
8040.8951569359606
 30
0.0
 11
4275.9135381509841
 21
8040.8953042371122
 31
0.0
  0
LINE
  5
7D17
  8
2
 10
3795.9135381509832
 20
9519.3428905805886
 30
0.0
 11
3795.9135381509832
 21
8002.794349784609
 31
0.0
  0
LINE
  5
7D18
  8
1
 10
1845.9135381509909
 20
8190.8951569359624
 30
0.0
 11
2145.9135381509909
 21
8190.8951569359642
 31
0.0
  0
LINE
  5
7D19
  8
1
 10
1845.9135381509909
 20
8090.8951569359624
 30
0.0
 11
2145.9135381509909
 21
8090.8951569359624
 31
0.0
  0
LINE
  5
7D1A
  8
1
 10
1775.9135381509841
 20
8230.895304237114
 30
0.0
 11
1775.9135381509909
 21
8040.8951569359606
 31
0.0
  0
LINE
  5
7D1B
  8
1
 10
1845.9135381509909
 20
8090.8951569359624
 30
0.0
 11
1845.9135381509909
 21
8190.8951569359624
 31
0.0
  0
LINE
  5
7D1C
  8
2
 10
1995.9135381509691
 20
9036.4699074492491
 30
0.0
 11
1995.9135381509909
 21
7998.1391569359666
 31
0.0
  0
LINE
  5
7D1D
  8
1
 10
2145.9135381509909
 20
8190.8951569359642
 30
0.0
 11
2145.9135381509909
 21
8090.8951569359624
 31
0.0
  0
LINE
  5
7D1E
  8
1
 10
3395.9125381509871
 20
8190.8953042371068
 30
0.0
 11
3395.9125381509871
 21
8090.8953042371077
 31
0.0
  0
LINE
  5
7D1F
  8
1
 10
4195.9135381509841
 20
8090.8953042371131
 30
0.0
 11
4195.9135381509841
 21
8190.8953042371131
 31
0.0
  0
LINE
  5
7D20
  8
1
 10
1845.9135381509841
 20
8965.3951569359615
 30
0.0
 11
2145.9135381509841
 21
8965.3951569359633
 31
0.0
  0
LINE
  5
7D21
  8
1
 10
1845.9135381509841
 20
8377.8951569359615
 30
0.0
 11
2145.9135381509841
 21
8377.8951569359633
 31
0.0
  0
LINE
  5
7D22
  8
1
 10
1845.9135381509841
 20
8965.3951569359615
 30
0.0
 11
1845.9135381509841
 21
8377.8951569359615
 31
0.0
  0
LINE
  5
7D23
  8
1
 10
2145.9135381509841
 20
8965.3951569359633
 30
0.0
 11
2145.9135381509841
 21
8377.8951569359633
 31
0.0
  0
LINE
  5
7D24
  8
1
 10
2033.4135381509841
 20
8377.8951569359633
 30
0.0
 11
2033.4135381509909
 21
8190.8951569359642
 31
0.0
  0
LINE
  5
7D25
  8
1
 10
1958.4135381509909
 20
8377.8951569359633
 30
0.0
 11
1958.4135381509909
 21
8190.8951569359624
 31
0.0
  0
LINE
  5
7D26
  8
1
 10
6688.0735138575847
 20
4034.7210330932762
 30
0.0
 11
6488.0728192006127
 21
4034.7210330932762
 31
0.0
  0
LINE
  5
7D27
  8
1
 10
6688.0735138575847
 20
3959.7210330932771
 30
0.0
 11
6488.0727731689913
 21
3959.7210330932771
 31
0.0
  0
DIMENSION
  5
7D28
  8
3
  2
*D13
 10
2845.9135381509841
 20
9986.2119469404788
 30
0.0
 11
2245.9135381509818
 21
10066.21194694047
 31
0.0
 12
-430.43132820824388
 22
2014.4260913712931
 32
0.0
 70
     0
 13
1645.91353815098
 23
9209.8953042371122
 33
0.0
 14
2845.9135381509841
 24
9709.895304237114
 34
0.0
1001
ACAD
1000
DSTYLE
1002
{
1070
    40
1040
40.0
1002
}
  0
DIMENSION
  5
7D29
  8
3
  2
*D14
 10
4745.9135381509841
 20
9986.2119469404788
 30
0.0
 11
3795.9135381509832
 21
10066.21194694047
 31
0.0
 70
     0
 13
2845.9135381509841
 23
9709.895304237114
 33
0.0
 14
4745.9135381509841
 24
9709.895304237114
 34
0.0
1001
ACAD
1000
DSTYLE
1002
{
1070
   287
1070
     4
1070
    40
1040
40.0
1070
    75
1070
     1
1070
   279
1070
     1
1070
   289
1070
     3
1002
}
  0
DIMENSION
  5
7D2A
  8
3
  2
*D15
 10
1308.207505558664
 20
8109.8953042371113
 30
0.0
 11
1228.207505558664
 21
8659.8953042371122
 31
0.0
 12
-430.43132820824388
 22
2014.4260913712931
 32
0.0
 70
     0
 13
1645.91353815098
 23
9209.8953042371122
 33
0.0
 14
1645.91353815098
 24
8109.8953042371113
 34
0.0
 50
90.0
1001
ACAD
1000
DSTYLE
1002
{
1070
    40
1040
40.0
1002
}
  0
DIMENSION
  5
7D2B
  8
3
  2
*D16
 10
5175.864945073743
 20
8109.8953042371113
 30
0.0
 11
5095.864945073743
 21
8909.8953042371122
 31
0.0
 12
-430.43132820824388
 22
2014.4260913712931
 32
0.0
 70
     0
 13
4745.9135381509841
 23
9709.895304237114
 33
0.0
 14
4745.9135381509841
 24
8109.8953042371113
 34
0.0
 50
90.0
1001
ACAD
1000
DSTYLE
1002
{
1070
    40
1040
40.0
1002
}
  0
DIMENSION
  5
7D2C
  8
3
  2
*D17
 10
4745.9135381509841
 20
7626.9027362283778
 30
0.0
 11
3195.9135381509818
 21
7706.9027362283778
 31
0.0
 12
-430.43132820824388
 22
2014.4260913712931
 32
0.0
 70
     0
 13
1645.91353815098
 23
8109.8953042371113
 33
0.0
 14
4745.9135381509841
 24
8109.8953042371113
 34
0.0
1001
ACAD
1000
DSTYLE
1002
{
1070
    40
1040
40.0
1002
}
  0
LINE
  5
7D2D
  8
1
 10
1645.9135381509909
 20
3527.220613737562
 30
0.0
 11
4745.9135381509986
 21
3527.2206137375611
 31
0.0
  0
LINE
  5
7D2E
  8
1
 10
1645.9135381509909
 20
3677.220613737562
 30
0.0
 11
4745.9135381509986
 21
3677.220613737562
 31
0.0
  0
LINE
  5
7D2F
  8
1
 10
1645.9135381509909
 20
3507.220613737562
 30
0.0
 11
4745.9135381509986
 21
3507.220613737562
 31
0.0
  0
LINE
  5
7D30
  8
1
 10
1645.9135381509909
 20
3432.220613737562
 30
0.0
 11
4745.9135381509986
 21
3432.220613737562
 31
0.0
  0
DIMENSION
  5
7D31
  8
3
  2
*D18
 10
1363.6485214207171
 20
3527.220613737562
 30
0.0
 11
1283.648521420716
 21
4227.2206137375624
 31
0.0
 70
     0
 13
1931.1007916789599
 23
4927.2206137375624
 33
0.0
 14
1645.9135381509871
 24
3527.220613737562
 34
0.0
 50
90.0
1001
ACAD
1000
DSTYLE
1002
{
1070
   287
1070
     4
1070
    40
1040
40.0
1070
    75
1070
     1
1070
   279
1070
     1
1070
   289
1070
     3
1002
}
  0
DIMENSION
  5
7D32
  8
3
  2
*D19
 10
1363.6485214207171
 20
3507.220613737562
 30
0.0
 11
1202.2199499921439
 21
3663.1164395779888
 31
0.0
 70
   128
  1
(<>)
 13
1645.9135381509871
 23
3527.220613737562
 33
0.0
 14
1645.9135381509841
 24
3507.220613737562
 34
0.0
 50
90.0
1001
ACAD
1000
DSTYLE
1002
{
1070
   288
1070
     1
1070
   172
1070
     1
1070
    40
1040
45.0
1070
   271
1070
     0
1070
     7
1000
_DOT
1070
   143
1040
0.039
1002
}
  0
DIMENSION
  5
7D33
  8
3
  2
*D20
 10
1363.6485214207171
 20
3432.220613737562
 30
0.0
 11
1251.148521420716
 21
3097.9348994518482
 31
0.0
 70
     0
 13
1645.9135381509841
 23
3507.220613737562
 33
0.0
 14
1645.9135381509841
 24
3432.220613737562
 34
0.0
 50
90.0
1001
ACAD
1000
DSTYLE
1002
{
1070
   287
1070
     3
1070
    40
1040
45.0
1070
   143
1040
0.039
1070
   172
1070
     1
1070
   271
1070
     0
1070
   279
1070
     0
1070
   288
1070
     1
1070
     6
1000
DOT
1002
}
  0
DIMENSION
  5
7D34
  8
3
  2
*D21
 10
983.46634262869702
 20
3432.220613737562
 30
0.0
 11
903.46634262869702
 21
4702.2206137375606
 31
0.0
 12
-430.43132820824388
 22
3268.914605942191
 32
0.0
 70
     0
 13
1995.91253815098
 23
5972.2206137375624
 33
0.0
 14
1645.9135381509841
 24
3432.220613737562
 34
0.0
 50
90.0
1001
ACAD
1000
DSTYLE
1002
{
1070
    40
1040
40.0
1002
}
  0
DIMENSION
  5
7D35
  8
3
  2
*D22
 10
4934.9135381509841
 20
6581.0472131115457
 30
0.0
 11
4365.4135381509841
 21
6661.0472131115457
 31
0.0
 70
     0
 13
3795.9135381509832
 23
6090.2943197774657
 33
0.0
 14
4934.9135381509841
 24
4811.2196137375649
 34
0.0
1001
ACAD
1000
DSTYLE
1002
{
1070
   287
1070
     4
1070
    40
1040
40.0
1070
    75
1070
     1
1070
   279
1070
     1
1070
   289
1070
     3
1002
}
  0
DIMENSION
  5
7D36
  8
3
  2
*D23
 10
1645.9135381509871
 20
6860.7909183012853
 30
0.0
 11
3290.4135381509859
 21
6940.7909183012853
 31
0.0
 12
-430.43132820824388
 22
3268.914605942191
 32
0.0
 70
     0
 13
4934.9135381509841
 23
4811.2196137375649
 33
0.0
 14
1645.9135381509871
 24
3677.220613737562
 34
0.0
1001
ACAD
1000
DSTYLE
1002
{
1070
    40
1040
40.0
1002
}
  0
LINE
  5
7D37
  8
1
 10
4934.9135381509841
 20
9630.895304237114
 30
0.0
 11
4934.9135381509841
 21
8450.8953042371122
 31
0.0
  0
LINE
  5
7D38
  8
1
 10
2100.9135381509759
 20
9630.8953042371104
 30
0.0
 11
2100.9135381509841
 21
8450.8953042371122
 31
0.0
  0
LINE
  5
7D39
  8
1
 10
3750.9135381509768
 20
9630.8953042371213
 30
0.0
 11
3750.9135381509841
 21
8450.8953042371213
 31
0.0
  0
LINE
  5
7D3A
  8
1
 10
3750.9135381509768
 20
9630.895304237114
 30
0.0
 11
2100.9135381509841
 21
8450.8953042371122
 31
0.0
  0
LINE
  5
7D3B
  8
1
 10
2100.9135381509759
 20
9630.8953042371104
 30
0.0
 11
3750.9135381509841
 21
8450.8953042371122
 31
0.0
  0
LINE
  5
7D3C
  8
1
 10
6688.0735138575847
 20
5907.2206137375606
 30
0.0
 11
7868.073513857591
 21
5907.2206137375606
 31
0.0
  0
LINE
  5
7F5F
  8
4
 10
8325.0
 20
2250.0
 30
0.0
 11
8325.0
 21
1350.0
 31
0.0
  0
LINE
  5
7F60
  8
4
 10
5175.0
 20
2250.0
 30
0.0
 11
5175.0
 21
1350.0
 31
0.0
  0
LINE
  5
7F61
  8
4
 10
2925.0
 20
2250.0
 30
0.0
 11
2925.0
 21
1350.0
 31
0.0
  0
LINE
  5
7F64
  8
4
 10
2925.0
 20
1350.0
 30
0.0
 11
8325.0
 21
1350.0
 31
0.0
  0
LINE
  5
7F65
  8
4
 10
2925.0
 20
1800.0
 30
0.0
 11
8325.0
 21
1800.0
 31
0.0
  0
TEXT
  5
7F66
  8
4
 10
3098.259363811057
 20
1941.943616399758
 30
0.0
 40
225.0
  1
機器名称
  0
TEXT
  5
7F67
  8
4
 10
3088.1614771115892
 20
1447.403205294049
 30
0.0
 40
225.0
  1
機器型番
  0
TEXT
  5
7F68
  8
4
 10
5299.5543546944918
 20
1901.5729603090581
 30
0.0
 40
225.0
  1
ミツヤ多翼送風機
  0
TEXT
  5
7F69
  8
4
 10
5339.9452301346628
 20
1427.218129259745
 30
0.0
 40
225.0
  1
MF#10-4
  0
TEXT
  5
7F6B
  8
4
 10
3569.2710581496649
 20
10725.429785996321
 30
0.0
 40
242.99999999999989
  1
床置防振ベット
  0
TEXT
  5
7F6C
  8
4
 10
1422.7541699825081
 20
11402.46439289684
 30
0.0
 40
324.0
  1
ベルト駆動式片吸込両持多翼ファン
  0
LINE
  5
7F6D
  8
4
 10
1125.0
 20
11112.33939419162
 30
0.0
 11
8325.0
 21
11112.33939419162
 31
0.0
  0
LINE
  5
7F6E
  8
4
 10
1125.0
 20
12012.33939419162
 30
0.0
 11
8325.0
 21
12012.33939419162
 31
0.0
  0
LINE
  5
7F6F
  8
4
 10
2925.0
 20
2250.0
 30
0.0
 11
8325.0
 21
2250.0
 31
0.0
  0
LINE
  5
7F70
  8
4
 10
1125.0
 20
12012.33939419162
 30
0.0
 11
1125.0
 21
11112.33939419162
 31
0.0
  0
TEXT
  5
7F71
  8
4
 10
1607.906313057505
 20
10720.437648958539
 30
0.0
 40
242.99999999999989
  1
右回転上向
  0
TEXT
  5
7F72
  8
4
 10
6610.3630166218027
 20
12177.274866728891
 30
0.0
 40
252.0
  1
No.
  0
TEXT
  5
7F73
  8
4
 10
5900.832281700059
 20
10725.429785996321
 30
0.0
 40
242.99999999999989
  1
縮尺：1/45
  0
LINE
  5
7F74
  8
4
 10
8325.0
 20
12012.33939419162
 30
0.0
 11
8325.0
 21
11112.33939419162
 31
0.0
  0
LINE
  5
7F75
  8
4
 10
9450.0
 20
13275.0
 30
0.0
 11
9450.0
 21
13275.0
 31
0.0
  0
LINE
  5
7F76
  8
4
 10
6482.7784006193906
 20
12065.686124064299
 30
0.0
 11
6482.7784006193906
 21
12539.935176973881
 31
0.0
  0
LINE
  5
7F77
  8
4
 10
6482.7784006193906
 20
12539.935176973881
 30
0.0
 11
8325.0
 21
12539.935176973881
 31
0.0
  0
LINE
  5
7F78
  8
4
 10
8325.0
 20
12539.935176973881
 30
0.0
 11
8325.0
 21
12065.686124064299
 31
0.0
  0
LINE
  5
7F79
  8
4
 10
8325.0
 20
12065.686124064299
 30
0.0
 11
6482.7784006193906
 21
12065.686124064299
 31
0.0
  0
LINE
  5
7F7A
  8
4
 10
0.0
 20
0.0
 30
0.0
 11
0.0
 21
13275.0
 31
0.0
  0
LINE
  5
7F7B
  8
4
 10
0.0
 20
13275.0
 30
0.0
 11
9450.0
 21
13275.0
 31
0.0
  0
LINE
  5
7F7C
  8
4
 10
9450.0
 20
13275.0
 30
0.0
 11
9450.0
 21
0.0
 31
0.0
  0
LINE
  5
7F7D
  8
4
 10
9450.0
 20
0.0
 30
0.0
 11
0.0
 21
0.0
 31
0.0
  0
ENDSEC
  0
EOF
