  0
SECTION
  2
HEADER
  9
$ACADVER
  1
AC1009
  9
$INSBASE
 10
0.0
 20
0.0
 30
0.0
  9
$EXTMIN
 10
0.0
 20
0.0
 30
0.0
  9
$EXTMAX
 10
9450.0
 20
13275.0
 30
0.0
  9
$LIMMIN
 10
0.0
 20
0.0
  9
$LIMMAX
 10
297.0
 20
210.0
  9
$ORTHOMODE
 70
     0
  9
$REGENMODE
 70
     1
  9
$FILLMODE
 70
     0
  9
$QTEXTMODE
 70
     0
  9
$MIRRTEXT
 70
     1
  9
$DRAGMODE
 70
     2
  9
$LTSCALE
 40
100.0
  9
$OSMODE
 70
   545
  9
$ATTMODE
 70
     1
  9
$TEXTSIZE
 40
180.0
  9
$TRACEWID
 40
0.05
  9
$TEXTSTYLE
  7
STANDARD
  9
$CLAYER
  8
3
  9
$CELTYPE
  6
BYLAYER
  9
$CECOLOR
 62
   256
  9
$DIMSCALE
 40
45.0
  9
$DIMASZ
 40
2.0
  9
$DIMEXO
 40
0.5
  9
$DIMDLI
 40
10.0
  9
$DIMRND
 40
0.0
  9
$DIMDLE
 40
0.0
  9
$DIMEXE
 40
1.0
  9
$DIMTP
 40
1.0
  9
$DIMTM
 40
1.0
  9
$DIMTXT
 40
3.0
  9
$DIMCEN
 40
0.0
  9
$DIMTSZ
 40
0.0
  9
$DIMTOL
 70
     0
  9
$DIMLIM
 70
     0
  9
$DIMTIH
 70
     0
  9
$DIMTOH
 70
     0
  9
$DIMSE1
 70
     0
  9
$DIMSE2
 70
     0
  9
$DIMTAD
 70
     1
  9
$DIMZIN
 70
     8
  9
$DIMBLK
  1

  9
$DIMASO
 70
     1
  9
$DIMSHO
 70
     1
  9
$DIMPOST
  1

  9
$DIMAPOST
  1

  9
$DIMALT
 70
     0
  9
$DIMALTD
 70
     2
  9
$DIMALTF
 40
0.039
  9
$DIMLFAC
 40
1.0
  9
$DIMTOFL
 70
     1
  9
$DIMTVP
 40
0.0
  9
$DIMTIX
 70
     0
  9
$DIMSOXD
 70
     0
  9
$DIMSAH
 70
     1
  9
$DIMBLK1
  1
OPEN
  9
$DIMBLK2
  1
OPEN
  9
$DIMSTYLE
  2
IGA
  9
$DIMCLRD
 70
     0
  9
$DIMCLRE
 70
     0
  9
$DIMCLRT
 70
     0
  9
$DIMTFAC
 40
10.0
  9
$DIMGAP
 40
1.0
  9
$LUNITS
 70
     2
  9
$LUPREC
 70
     3
  9
$SKETCHINC
 40
0.1
  9
$FILLETRAD
 40
50.0
  9
$AUNITS
 70
     0
  9
$AUPREC
 70
     0
  9
$MENU
  1
acad
  9
$ELEVATION
 40
0.0
  9
$PELEVATION
 40
0.0
  9
$THICKNESS
 40
0.0
  9
$LIMCHECK
 70
     0
  9
$BLIPMODE
 70
     0
  9
$CHAMFERA
 40
0.5
  9
$CHAMFERB
 40
0.5
  9
$SKPOLY
 70
     0
  9
$TDCREATE
 40
2451488.4368578698
  9
$TDUPDATE
 40
2455013.730925011
  9
$TDINDWG
 40
0.0138135301
  9
$TDUSRTIMER
 40
0.0138135301
  9
$USRTIMER
 70
     1
  9
$ANGBASE
 50
0.0
  9
$ANGDIR
 70
     0
  9
$PDMODE
 70
     0
  9
$PDSIZE
 40
0.0
  9
$PLINEWID
 40
0.0
  9
$COORDS
 70
     2
  9
$SPLFRAME
 70
     0
  9
$SPLINETYPE
 70
     6
  9
$SPLINESEGS
 70
     8
  9
$ATTDIA
 70
     0
  9
$ATTREQ
 70
     1
  9
$HANDLING
 70
 22529
  9
$HANDSEED
  5
8124
  9
$SURFTAB1
 70
     6
  9
$SURFTAB2
 70
     6
  9
$SURFTYPE
 70
     6
  9
$SURFU
 70
     6
  9
$SURFV
 70
     6
  9
$UCSNAME
  2

  9
$UCSORG
 10
0.0
 20
0.0
 30
0.0
  9
$UCSXDIR
 10
1.0
 20
0.0
 30
0.0
  9
$UCSYDIR
 10
0.0
 20
1.0
 30
0.0
  9
$PUCSNAME
  2

  9
$PUCSORG
 10
0.0
 20
0.0
 30
0.0
  9
$PUCSXDIR
 10
1.0
 20
0.0
 30
0.0
  9
$PUCSYDIR
 10
0.0
 20
1.0
 30
0.0
  9
$USERI1
 70
     0
  9
$USERI2
 70
     0
  9
$USERI3
 70
     0
  9
$USERI4
 70
     0
  9
$USERI5
 70
     0
  9
$USERR1
 40
0.0
  9
$USERR2
 40
0.0
  9
$USERR3
 40
0.0
  9
$USERR4
 40
0.0
  9
$USERR5
 40
0.0
  9
$WORLDVIEW
 70
     1
  9
$SHADEDGE
 70
     3
  9
$SHADEDIF
 70
    70
  9
$TILEMODE
 70
     1
  9
$MAXACTVP
 70
    16
  9
$PLIMCHECK
 70
     0
  9
$PEXTMIN
 10
1.0000000000000000E+020
 20
1.0000000000000000E+020
 30
1.0000000000000000E+020
  9
$PEXTMAX
 10
-1.0000000000000000E+020
 20
-1.0000000000000000E+020
 30
-1.0000000000000000E+020
  9
$PLIMMIN
 10
0.0
 20
0.0
  9
$PLIMMAX
 10
12.0
 20
9.0
  9
$UNITMODE
 70
     0
  9
$VISRETAIN
 70
     0
  9
$PLINEGEN
 70
     0
  9
$PSLTSCALE
 70
     1
  0
ENDSEC
  0
SECTION
  2
TABLES
  0
TABLE
  2
VPORT
 70
     2
  0
VPORT
  2
*ACTIVE
 70
     0
 10
0.0
 20
0.0
 11
1.0
 21
1.0
 12
5642.2139554681344
 22
6637.5000309082689
 13
0.0
 23
0.0
 14
10.0
 24
10.0
 15
10.0
 25
10.0
 16
0.0
 26
0.0
 36
1.0
 17
0.0
 27
0.0
 37
0.0
 40
13376.766973576199
 41
1.6307901907356941
 42
50.0
 43
0.0
 44
0.0
 50
0.0
 51
0.0
 71
     0
 72
   100
 73
     1
 74
     0
 75
     0
 76
     0
 77
     0
 78
     0
  0
ENDTAB
  0
TABLE
  2
LTYPE
 70
     2
  0
LTYPE
  2
CONTINUOUS
 70
     0
  3
Solid line
 72
    65
 73
     0
 40
0.0
  0
LTYPE
  2
CENTER
 70
     0
  3
____ _ ____ _ ____ _ ____ _ ____ _ ____ _ ____ 
 72
    65
 73
     4
 40
2.0
 49
1.25
 49
-0.25
 49
0.25
 49
-0.25
  0
ENDTAB
  0
TABLE
  2
LAYER
 70
     6
  0
LAYER
  2
0
 70
     0
 62
     7
  6
CONTINUOUS
  0
LAYER
  2
3
 70
     0
 62
     2
  6
CONTINUOUS
  0
LAYER
  2
2
 70
     0
 62
     3
  6
CENTER
  0
LAYER
  2
1
 70
     0
 62
     4
  6
CONTINUOUS
  0
LAYER
  2
4
 70
     0
 62
     7
  6
CONTINUOUS
  0
LAYER
  2
DEFPOINTS
 70
     0
 62
     7
  6
CONTINUOUS
  0
ENDTAB
  0
TABLE
  2
STYLE
 70
     1
  0
STYLE
  2
STANDARD
 70
     0
 40
0.0
 41
1.0
 50
0.0
 71
     0
 42
180.0
  3
simplex.shx
  4
extfont.shx
  0
ENDTAB
  0
TABLE
  2
VIEW
 70
     0
  0
ENDTAB
  0
TABLE
  2
UCS
 70
     0
  0
ENDTAB
  0
TABLE
  2
APPID
 70
     1
  0
APPID
  2
ACAD
 70
     0
  0
ENDTAB
  0
TABLE
  2
DIMSTYLE
 70
     2
  0
DIMSTYLE
  2
IGA
 70
     0
  3

  4

  5

  6
OPEN
  7
OPEN
 40
2.0
 41
2.0
 42
0.5
 43
10.0
 44
1.0
 45
0.0
 46
0.0
 47
1.0
 48
1.0
140
3.0
141
0.0
142
0.0
143
0.03937
144
1.0
145
0.0
146
10.0
147
1.0
 71
     0
 72
     0
 73
     0
 74
     0
 75
     0
 76
     0
 77
     1
 78
     8
170
     0
171
     2
172
     0
173
     1
174
     0
175
     0
176
     0
177
     0
178
     0
  0
DIMSTYLE
  2
MATSU
 70
     0
  3

  4

  5

  6
OPEN
  7
OPEN
 40
1.0
 41
2.0
 42
1.0
 43
10.0
 44
1.0
 45
0.0
 46
0.0
 47
0.0
 48
0.0
140
3.0
141
0.0
142
0.0
143
0.03937
144
1.0
145
0.0
146
1.0
147
0.5
 71
     0
 72
     0
 73
     0
 74
     0
 75
     0
 76
     0
 77
     1
 78
     8
170
     0
171
     2
172
     1
173
     1
174
     0
175
     0
176
   256
177
   256
178
   256
  0
ENDTAB
  0
ENDSEC
  0
SECTION
  2
BLOCKS
  0
BLOCK
  8
0
  2
$MODEL_SPACE
 70
     0
 10
0.0
 20
0.0
 30
0.0
  3
$MODEL_SPACE
  1

  0
ENDBLK
  5
1B
  8
0
  0
BLOCK
 67
     1
  8
0
  2
$PAPER_SPACE
 70
     0
 10
0.0
 20
0.0
 30
0.0
  3
$PAPER_SPACE
  1

  0
ENDBLK
  5
18
 67
     1
  8
0
  0
BLOCK
  8
0
  2
_OPEN
 70
     0
 10
0.0
 20
0.0
 30
0.0
  3
_OPEN
  1

  0
LINE
  5
79FD
  8
0
  6
BYBLOCK
 62
     0
 10
-1.0
 20
0.1666666666666666
 30
0.0
 11
0.0
 21
0.0
 31
0.0
  0
LINE
  5
79FE
  8
0
  6
BYBLOCK
 62
     0
 10
0.0
 20
0.0
 30
0.0
 11
-1.0
 21
-0.1666666666666666
 31
0.0
  0
LINE
  5
79FF
  8
0
  6
BYBLOCK
 62
     0
 10
0.0
 20
0.0
 30
0.0
 11
-1.0
 21
0.0
 31
0.0
  0
ENDBLK
  5
7A01
  8
0
  0
BLOCK
  8
0
  2
YA_N
 70
     0
 10
0.0
 20
0.0
 30
0.0
  3
YA_N
  1

  0
ENDBLK
  5
7A0C
  8
0
  0
BLOCK
  8
0
  2
*D2
 70
     1
 10
0.0
 20
0.0
 30
0.0
  3
*D2
  1

  0
LINE
  5
7E75
  8
0
  6
BYBLOCK
 10
8366.5744154320691
 20
3189.7879912008848
 30
0.0
 11
8921.6377655219985
 21
3189.7879912008848
 31
0.0
  0
LINE
  5
7E76
  8
0
  6
BYBLOCK
 10
8366.5744154320691
 20
1589.788991200885
 30
0.0
 11
8921.6377655219985
 21
1589.788991200885
 31
0.0
  0
LINE
  5
7E77
  8
0
  6
BYBLOCK
 10
8881.6377655219985
 20
3109.7879912008848
 30
0.0
 11
8881.6377655219985
 21
1669.788991200885
 31
0.0
  0
INSERT
  5
7E78
  8
0
  6
BYBLOCK
  2
_OPEN
 10
8881.6377655219985
 20
3189.7879912008848
 30
0.0
 41
80.0
 42
80.0
 43
80.0
 50
90.0
  0
INSERT
  5
7E79
  8
0
  6
BYBLOCK
  2
_OPEN
 10
8881.6377655219985
 20
1589.788991200885
 30
0.0
 41
80.0
 42
80.0
 43
80.0
 50
270.0
  0
TEXT
  5
7E7A
  8
3
 10
8861.6377655219985
 20
2129.7884912008849
 30
0.0
 40
120.0
  1
φ1600
 50
90.0
  0
POINT
  5
7E7B
  8
DEFPOINTS
  6
BYBLOCK
 62
     0
 10
8326.574415432071
 20
3189.7879912008848
 30
0.0
  0
POINT
  5
7E7C
  8
DEFPOINTS
  6
BYBLOCK
 62
     0
 10
8326.574415432071
 20
1589.788991200885
 30
0.0
  0
POINT
  5
7E7D
  8
DEFPOINTS
  6
BYBLOCK
 62
     0
 10
8881.6377655219985
 20
1589.788991200885
 30
0.0
  0
ENDBLK
  5
7E7E
  8
0
  0
BLOCK
  8
0
  2
*D3
 70
     1
 10
0.0
 20
0.0
 30
0.0
  3
*D3
  1

  0
LINE
  5
7E80
  8
0
  6
BYBLOCK
 10
7602.5704154320711
 20
3899.2143224983452
 30
0.0
 11
7602.5704154320711
 21
4016.7521068819979
 31
0.0
  0
LINE
  5
7E81
  8
0
  6
BYBLOCK
 10
8326.574415432071
 20
3294.7879912008848
 30
0.0
 11
8326.574415432071
 21
4016.7521068819979
 31
0.0
  0
LINE
  5
7E82
  8
0
  6
BYBLOCK
 10
7682.5704154320711
 20
3976.7521068819979
 30
0.0
 11
8246.574415432071
 21
3976.7521068819979
 31
0.0
  0
INSERT
  5
7E83
  8
0
  6
BYBLOCK
  2
_OPEN
 10
7602.5704154320711
 20
3976.7521068819979
 30
0.0
 41
80.0
 42
80.0
 43
80.0
 50
180.0
  0
INSERT
  5
7E84
  8
0
  6
BYBLOCK
  2
_OPEN
 10
8326.574415432071
 20
3976.7521068819979
 30
0.0
 41
80.0
 42
80.0
 43
80.0
  0
TEXT
  5
7E85
  8
3
 10
7804.3904721439849
 20
3996.7521068819979
 30
0.0
 40
120.0
  1
725
  0
POINT
  5
7E86
  8
DEFPOINTS
  6
BYBLOCK
 62
     0
 10
7602.5704154320711
 20
3859.2143224983452
 30
0.0
  0
POINT
  5
7E87
  8
DEFPOINTS
  6
BYBLOCK
 62
     0
 10
8326.574415432071
 20
3254.7879912008839
 30
0.0
  0
POINT
  5
7E88
  8
DEFPOINTS
  6
BYBLOCK
 62
     0
 10
8326.574415432071
 20
3976.7521068819979
 30
0.0
  0
ENDBLK
  5
7E89
  8
0
  0
BLOCK
  8
0
  2
*D4
 70
     1
 10
0.0
 20
0.0
 30
0.0
  3
*D4
  1

  0
LINE
  5
7EAB
  8
0
  6
BYBLOCK
 10
2683.8250033622598
 20
694.79096372686035
 30
0.0
 11
2320.3748506553161
 21
694.79096372686035
 31
0.0
  0
LINE
  5
7EAC
  8
0
  6
BYBLOCK
 10
2683.8250033622598
 20
2344.7909637268599
 30
0.0
 11
2320.3748506553161
 21
2344.7909637268599
 31
0.0
  0
LINE
  5
7EAD
  8
0
  6
BYBLOCK
 10
2360.3748506553161
 20
774.79096372686035
 30
0.0
 11
2360.3748506553161
 21
2264.7909637268599
 31
0.0
  0
INSERT
  5
7EAE
  8
0
  6
BYBLOCK
  2
_OPEN
 10
2360.3748506553161
 20
694.79096372686035
 30
0.0
 41
80.0
 42
80.0
 43
80.0
 50
270.0
  0
INSERT
  5
7EAF
  8
0
  6
BYBLOCK
  2
_OPEN
 10
2360.3748506553161
 20
2344.7909637268599
 30
0.0
 41
80.0
 42
80.0
 43
80.0
 50
90.0
  0
TEXT
  5
7EB0
  8
3
 10
2340.374850655317
 20
1319.7909637268599
 30
0.0
 40
120.0
  1
1650
 50
90.0
  0
POINT
  5
7EB1
  8
DEFPOINTS
  6
BYBLOCK
 62
     0
 10
2723.8250033622612
 20
694.79096372686035
 30
0.0
  0
POINT
  5
7EB2
  8
DEFPOINTS
  6
BYBLOCK
 62
     0
 10
2723.8250033622612
 20
2344.7909637268599
 30
0.0
  0
POINT
  5
7EB3
  8
DEFPOINTS
  6
BYBLOCK
 62
     0
 10
2360.3748506553161
 20
2344.7909637268599
 30
0.0
  0
ENDBLK
  5
7EB4
  8
0
  0
BLOCK
  8
0
  2
*D5
 70
     1
 10
0.0
 20
0.0
 30
0.0
  3
*D5
  1

  0
LINE
  5
7EB6
  8
0
  6
BYBLOCK
 10
7012.5704154320701
 20
3568.7919912008851
 30
0.0
 11
7012.5704154320701
 21
3724.4936484199202
 31
0.0
  0
LINE
  5
7EB7
  8
0
  6
BYBLOCK
 10
8192.5704154320774
 20
3568.791991200887
 30
0.0
 11
8192.5704154320774
 21
3724.4936484199202
 31
0.0
  0
LINE
  5
7EB8
  8
0
  6
BYBLOCK
 10
7092.5704154320701
 20
3684.4936484199202
 30
0.0
 11
8112.5704154320774
 21
3684.4936484199202
 31
0.0
  0
INSERT
  5
7EB9
  8
0
  6
BYBLOCK
  2
_OPEN
 10
7012.5704154320701
 20
3684.4936484199202
 30
0.0
 41
80.0
 42
80.0
 43
80.0
 50
180.0
  0
INSERT
  5
7EBA
  8
0
  6
BYBLOCK
  2
_OPEN
 10
8192.5704154320774
 20
3684.4936484199202
 30
0.0
 41
80.0
 42
80.0
 43
80.0
  0
TEXT
  5
7EBB
  8
3
 10
7413.9989868606453
 20
3704.4936484199202
 30
0.0
 40
120.0
  1
1180
  0
POINT
  5
7EBC
  8
DEFPOINTS
  6
BYBLOCK
 62
     0
 10
7012.5704154320701
 20
3528.7919912008851
 30
0.0
  0
POINT
  5
7EBD
  8
DEFPOINTS
  6
BYBLOCK
 62
     0
 10
8192.5704154320774
 20
3528.7919912008861
 30
0.0
  0
POINT
  5
7EBE
  8
DEFPOINTS
  6
BYBLOCK
 62
     0
 10
8192.5704154320774
 20
3684.4936484199202
 30
0.0
  0
ENDBLK
  5
7EBF
  8
0
  0
BLOCK
  8
0
  2
*D6
 70
     1
 10
0.0
 20
0.0
 30
0.0
  3
*D6
  1

  0
LINE
  5
80C9
  8
3
 10
6471.8909696784467
 20
5667.676444994373
 30
0.0
 11
6471.8909696784467
 21
6774.636560675488
 31
0.0
  0
LINE
  5
80CA
  8
3
 10
7371.8909696784458
 20
6734.6365606754889
 30
0.0
 11
6551.8909696784458
 21
6734.6365606754889
 31
0.0
  0
INSERT
  5
80CB
  8
3
  2
_OPEN
 10
7451.8909696784458
 20
6734.6365606754889
 30
0.0
 41
80.0
 42
80.0
 43
80.0
  0
INSERT
  5
80CC
  8
3
  2
_OPEN
 10
6471.8909696784467
 20
6734.6365606754889
 30
0.0
 41
80.0
 42
80.0
 43
80.0
 50
180.0
  0
TEXT
  8
3
  40
120
  5
811A
  72
0
  71
0
 10
6721.89
 20
6702.24
 30
0.000000
  1
MAX
  0
TEXT
  8
3
  40
120
  5
811B
  72
0
  71
0
 10
6721.89
 20
6546.24
 30
0.000000
  1
1080
  0
POINT
  5
80CE
  8
DEFPOINTS
 62
     0
 10
7451.8909696784458
 20
6617.0987762918357
 30
0.0
  0
POINT
  5
80CF
  8
DEFPOINTS
 62
     0
 10
6471.8909696784467
 20
5627.6764449943739
 30
0.0
  0
POINT
  5
80D0
  8
DEFPOINTS
 62
     0
 10
6471.8909696784467
 20
6734.6365606754889
 30
0.0
  0
ENDBLK
  5
803C
  8
0
  0
BLOCK
  8
0
  2
*D7
 70
     1
 10
0.0
 20
0.0
 30
0.0
  3
*D7
  1

  0
LINE
  5
7EEB
  8
0
  6
BYBLOCK
 10
5918.8250033622608
 20
7966.9551687973117
 30
0.0
 11
5918.8250033622608
 21
8743.2718115006792
 31
0.0
  0
LINE
  5
7EEC
  8
0
  6
BYBLOCK
 10
4718.8250033622608
 20
8466.9551687973144
 30
0.0
 11
4718.8250033622608
 21
8743.2718115006792
 31
0.0
  0
LINE
  5
7EED
  8
0
  6
BYBLOCK
 10
5838.8250033622608
 20
8703.2718115006792
 30
0.0
 11
4798.8250033622598
 21
8703.2718115006792
 31
0.0
  0
INSERT
  5
7EEE
  8
0
  6
BYBLOCK
  2
_OPEN
 10
5918.8250033622608
 20
8703.2718115006792
 30
0.0
 41
80.0
 42
80.0
 43
80.0
  0
INSERT
  5
7EEF
  8
0
  6
BYBLOCK
  2
_OPEN
 10
4718.8250033622608
 20
8703.2718115006792
 30
0.0
 41
80.0
 42
80.0
 43
80.0
 50
180.0
  0
TEXT
  5
7EF0
  8
3
 10
5118.8250033622598
 20
8723.2718115006774
 30
0.0
 40
120.0
  1
1200
  0
POINT
  5
7EF1
  8
DEFPOINTS
  6
BYBLOCK
 62
     0
 10
5918.8250033622608
 20
7926.9551687973126
 30
0.0
  0
POINT
  5
7EF2
  8
DEFPOINTS
  6
BYBLOCK
 62
     0
 10
4718.8250033622608
 20
8426.9551687973144
 30
0.0
  0
POINT
  5
7EF3
  8
DEFPOINTS
  6
BYBLOCK
 62
     0
 10
4718.8250033622608
 20
8703.2718115006792
 30
0.0
  0
ENDBLK
  5
7EF4
  8
0
  0
BLOCK
  8
0
  2
*D8
 70
     1
 10
0.0
 20
0.0
 30
0.0
  3
*D8
  1

  0
LINE
  5
80D1
  8
3
 10
2165.8806172285622
 20
9732.0580158973371
 30
0.0
 11
2165.8806172285622
 21
10008.3746586007
 31
0.0
  0
LINE
  5
80D2
  8
3
 10
3985.8806172285622
 20
9968.3746586007019
 30
0.0
 11
2245.8806172285622
 21
9968.3746586007019
 31
0.0
  0
INSERT
  5
80D3
  8
3
  2
_OPEN
 10
4065.8806172285622
 20
9968.3746586007019
 30
0.0
 41
80.0
 42
80.0
 43
80.0
  0
INSERT
  5
80D4
  8
3
  2
_OPEN
 10
2165.8806172285622
 20
9968.3746586007019
 30
0.0
 41
80.0
 42
80.0
 43
80.0
 50
180.0
  0
TEXT
  8
3
  40
120
  5
811C
  72
0
  71
0
 10
2875.88
 20
9835.97
 30
0.000000
  1
1900
  0
POINT
  5
80D6
  8
DEFPOINTS
 62
     0
 10
4065.8806172285622
 20
9692.0580158973353
 30
0.0
  0
POINT
  5
80D7
  8
DEFPOINTS
 62
     0
 10
2165.8806172285622
 20
9692.0580158973353
 30
0.0
  0
POINT
  5
80D8
  8
DEFPOINTS
 62
     0
 10
2165.8806172285622
 20
9968.3746586007019
 30
0.0
  0
ENDBLK
  5
7EFE
  8
0
  0
BLOCK
  8
0
  2
*D9
 70
     1
 10
0.0
 20
0.0
 30
0.0
  3
*D9
  1

  0
LINE
  5
7F00
  8
0
  6
BYBLOCK
 10
5958.8250033622598
 20
7926.9551687973126
 30
0.0
 11
6296.5310359545838
 21
7926.9551687973126
 31
0.0
  0
LINE
  5
7F01
  8
0
  6
BYBLOCK
 10
5958.8250033622598
 20
6826.9551687973126
 30
0.0
 11
6296.5310359545838
 21
6826.9551687973126
 31
0.0
  0
LINE
  5
7F02
  8
0
  6
BYBLOCK
 10
6256.5310359545838
 20
7846.9551687973117
 30
0.0
 11
6256.5310359545838
 21
6906.9551687973126
 31
0.0
  0
INSERT
  5
7F03
  8
0
  6
BYBLOCK
  2
_OPEN
 10
6256.5310359545838
 20
7926.9551687973126
 30
0.0
 41
80.0
 42
80.0
 43
80.0
 50
90.0
  0
INSERT
  5
7F04
  8
0
  6
BYBLOCK
  2
_OPEN
 10
6256.5310359545838
 20
6826.9551687973126
 30
0.0
 41
80.0
 42
80.0
 43
80.0
 50
270.0
  0
TEXT
  5
7F05
  8
3
 10
6236.5310359545838
 20
7188.3837402258841
 30
0.0
 40
120.0
  1
1100
 50
90.0
  0
POINT
  5
7F06
  8
DEFPOINTS
  6
BYBLOCK
 62
     0
 10
5918.8250033622608
 20
7926.9551687973126
 30
0.0
  0
POINT
  5
7F07
  8
DEFPOINTS
  6
BYBLOCK
 62
     0
 10
5918.8250033622608
 20
6826.9551687973126
 30
0.0
  0
POINT
  5
7F08
  8
DEFPOINTS
  6
BYBLOCK
 62
     0
 10
6256.5310359545838
 20
6826.9551687973126
 30
0.0
  0
ENDBLK
  5
7F09
  8
0
  0
BLOCK
  8
0
  2
*D10
 70
     1
 10
0.0
 20
0.0
 30
0.0
  3
*D10
  1

  0
LINE
  5
7F0B
  8
0
  6
BYBLOCK
 10
2778.8250033622612
 20
8426.9551687973144
 30
0.0
 11
2348.8735964395009
 21
8426.9551687973144
 31
0.0
  0
LINE
  5
7F0C
  8
0
  6
BYBLOCK
 10
2778.8250033622612
 20
6826.9551687973126
 30
0.0
 11
2348.8735964395009
 21
6826.9551687973126
 31
0.0
  0
LINE
  5
7F0D
  8
0
  6
BYBLOCK
 10
2388.8735964395019
 20
8346.9551687973144
 30
0.0
 11
2388.8735964395019
 21
6906.9551687973126
 31
0.0
  0
INSERT
  5
7F0E
  8
0
  6
BYBLOCK
  2
_OPEN
 10
2388.8735964395019
 20
8426.9551687973144
 30
0.0
 41
80.0
 42
80.0
 43
80.0
 50
90.0
  0
INSERT
  5
7F0F
  8
0
  6
BYBLOCK
  2
_OPEN
 10
2388.8735964395019
 20
6826.9551687973126
 30
0.0
 41
80.0
 42
80.0
 43
80.0
 50
270.0
  0
TEXT
  5
7F10
  8
3
 10
2368.8735964395019
 20
7426.9551687973126
 30
0.0
 40
120.0
  1
1600
 50
90.0
  0
POINT
  5
7F11
  8
DEFPOINTS
  6
BYBLOCK
 62
     0
 10
2818.8250033622612
 20
8426.9551687973144
 30
0.0
  0
POINT
  5
7F12
  8
DEFPOINTS
  6
BYBLOCK
 62
     0
 10
2818.8250033622612
 20
6826.9551687973126
 30
0.0
  0
POINT
  5
7F13
  8
DEFPOINTS
  6
BYBLOCK
 62
     0
 10
2388.8735964395019
 20
6826.9551687973126
 30
0.0
  0
ENDBLK
  5
7F14
  8
0
  0
BLOCK
  8
0
  2
*D11
 70
     1
 10
0.0
 20
0.0
 30
0.0
  3
*D11
  1

  0
LINE
  5
7F16
  8
0
  6
BYBLOCK
 10
5918.8250033622608
 20
6786.9551687973117
 30
0.0
 11
5918.8250033622608
 21
6303.9626007885781
 31
0.0
  0
LINE
  5
7F17
  8
0
  6
BYBLOCK
 10
2818.8250033622612
 20
6786.9551687973117
 30
0.0
 11
2818.8250033622612
 21
6303.9626007885781
 31
0.0
  0
LINE
  5
7F18
  8
0
  6
BYBLOCK
 10
5838.8250033622608
 20
6343.962600788579
 30
0.0
 11
2898.8250033622612
 21
6343.962600788579
 31
0.0
  0
INSERT
  5
7F19
  8
0
  6
BYBLOCK
  2
_OPEN
 10
5918.8250033622608
 20
6343.962600788579
 30
0.0
 41
80.0
 42
80.0
 43
80.0
  0
INSERT
  5
7F1A
  8
0
  6
BYBLOCK
  2
_OPEN
 10
2818.8250033622612
 20
6343.962600788579
 30
0.0
 41
80.0
 42
80.0
 43
80.0
 50
180.0
  0
TEXT
  5
7F1B
  8
3
 10
4168.8250033622598
 20
6363.9626007885781
 30
0.0
 40
120.0
  1
3100
  0
POINT
  5
7F1C
  8
DEFPOINTS
  6
BYBLOCK
 62
     0
 10
5918.8250033622608
 20
6826.9551687973126
 30
0.0
  0
POINT
  5
7F1D
  8
DEFPOINTS
  6
BYBLOCK
 62
     0
 10
2818.8250033622612
 20
6826.9551687973126
 30
0.0
  0
POINT
  5
7F1E
  8
DEFPOINTS
  6
BYBLOCK
 62
     0
 10
2818.8250033622612
 20
6343.962600788579
 30
0.0
  0
ENDBLK
  5
7F1F
  8
0
  0
BLOCK
  8
0
  2
*D12
 70
     1
 10
0.0
 20
0.0
 30
0.0
  3
*D12
  1

  0
LINE
  5
7F21
  8
0
  6
BYBLOCK
 10
3844.8260033622569
 20
3528.7919637268642
 30
0.0
 11
1826.7478848928949
 21
3528.7919637268642
 31
0.0
  0
LINE
  5
7F22
  8
0
  6
BYBLOCK
 10
2582.042621596258
 20
2389.7919637268651
 30
0.0
 11
1826.7478848928949
 21
2389.7919637268651
 31
0.0
  0
LINE
  5
7F23
  8
0
  6
BYBLOCK
 10
1866.7478848928949
 20
3448.7919637268642
 30
0.0
 11
1866.7478848928949
 21
2469.7919637268651
 31
0.0
  0
INSERT
  5
7F24
  8
0
  6
BYBLOCK
  2
_OPEN
 10
1866.7478848928949
 20
3528.7919637268642
 30
0.0
 41
80.0
 42
80.0
 43
80.0
 50
90.0
  0
INSERT
  5
7F25
  8
0
  6
BYBLOCK
  2
_OPEN
 10
1866.7478848928949
 20
2389.7919637268651
 30
0.0
 41
80.0
 42
80.0
 43
80.0
 50
270.0
  0
TEXT
  5
7F26
  8
3
 10
1846.747884892894
 20
2773.577678012578
 30
0.0
 40
120.0
  1
1139
 50
90.0
  0
POINT
  5
7F27
  8
DEFPOINTS
  6
BYBLOCK
 62
     0
 10
3884.8260033622569
 20
3528.7919637268642
 30
0.0
  0
POINT
  5
7F28
  8
DEFPOINTS
  6
BYBLOCK
 62
     0
 10
2622.042621596258
 20
2389.7919637268651
 30
0.0
  0
POINT
  5
7F29
  8
DEFPOINTS
  6
BYBLOCK
 62
     0
 10
1866.7478848928949
 20
2389.7919637268651
 30
0.0
  0
ENDBLK
  5
7F2A
  8
0
  0
BLOCK
  8
0
  2
*D13
 70
     1
 10
0.0
 20
0.0
 30
0.0
  3
*D13
  1

  0
LINE
  5
80D9
  8
3
 62
     0
 10
1946.5982354625589
 20
5147.6764175203543
 30
0.0
 11
1168.8034987591959
 21
5147.6764175203543
 31
0.0
  0
LINE
  5
80DA
  8
3
 62
     0
 10
2143.380617228554
 20
3247.6764175203539
 30
0.0
 11
1168.8034987591959
 21
3247.6764175203539
 31
0.0
  0
LINE
  5
80DB
  8
3
 62
     0
 10
1213.8034987591971
 20
5057.6764175203552
 30
0.0
 11
1213.8034987591959
 21
3337.6764175203539
 31
0.0
  0
INSERT
  5
80DC
  8
3
 62
     0
  2
_OPEN
 10
1213.8034987591971
 20
5147.6764175203543
 30
0.0
 41
90.0
 42
90.0
 43
90.0
 50
90.0
  0
INSERT
  5
80DD
  8
3
 62
     0
  2
_OPEN
 10
1213.8034987591959
 20
3247.6764175203539
 30
0.0
 41
90.0
 42
90.0
 43
90.0
 50
270.0
  0
TEXT
  8
3
  40
135
  5
811D
  62
0
  72
0
  71
0
 10
831.303
 20
3958.73
 30
0.000000
  1
1900
  0
POINT
  5
80DF
  8
DEFPOINTS
 62
     0
 10
1969.0982354625589
 20
5147.6764175203543
 30
0.0
  0
POINT
  5
80E0
  8
DEFPOINTS
 62
     0
 10
2165.880617228554
 20
3247.6764175203539
 30
0.0
  0
POINT
  5
80E1
  8
DEFPOINTS
 62
     0
 10
1213.8034987591959
 20
3247.6764175203539
 30
0.0
  0
ENDBLK
  5
7FAD
  8
0
  0
BLOCK
  8
0
  2
*D14
 70
     1
 10
0.0
 20
0.0
 30
0.0
  3
*D14
  1

  0
LINE
  5
8050
  8
0
  6
BYBLOCK
 10
2070.8806172285622
 20
5207.6754175203487
 30
0.0
 11
2070.8806172285622
 21
6677.2383134946649
 31
0.0
  0
LINE
  5
8051
  8
0
  6
BYBLOCK
 10
3115.8806172285622
 20
6440.6620052508506
 30
0.0
 11
3115.8806172285622
 21
6677.2383134946649
 31
0.0
  0
LINE
  5
8052
  8
0
  6
BYBLOCK
 10
2150.8806172285622
 20
6637.238313494664
 30
0.0
 11
3035.8806172285622
 21
6637.238313494664
 31
0.0
  0
INSERT
  5
8053
  8
0
  6
BYBLOCK
  2
_OPEN
 10
2070.8806172285622
 20
6637.238313494664
 30
0.0
 41
80.0
 42
80.0
 43
80.0
 50
180.0
  0
INSERT
  5
8054
  8
0
  6
BYBLOCK
  2
_OPEN
 10
3115.8806172285622
 20
6637.238313494664
 30
0.0
 41
80.0
 42
80.0
 43
80.0
  0
TEXT
  5
8055
  8
3
 10
2393.3806172285622
 20
6657.2383134946649
 30
0.0
 40
120.0
  1
1045
  0
POINT
  5
8056
  8
DEFPOINTS
  6
BYBLOCK
 62
     0
 10
2070.8806172285622
 20
5167.6754175203487
 30
0.0
  0
POINT
  5
8057
  8
DEFPOINTS
  6
BYBLOCK
 62
     0
 10
3115.8806172285622
 20
6400.6620052508497
 30
0.0
  0
POINT
  5
8058
  8
DEFPOINTS
  6
BYBLOCK
 62
     0
 10
3115.8806172285622
 20
6637.238313494664
 30
0.0
  0
ENDBLK
  5
8059
  8
0
  0
BLOCK
  8
0
  2
*D15
 70
     1
 10
0.0
 20
0.0
 30
0.0
  3
*D15
  1

  0
LINE
  5
80E2
  8
3
 10
4486.8806172285622
 20
5071.6764175203543
 30
0.0
 11
4486.8806172285622
 21
6677.2383134946649
 31
0.0
  0
LINE
  5
80E3
  8
3
 10
3195.8806172285622
 20
6637.238313494664
 30
0.0
 11
4406.8806172285622
 21
6637.238313494664
 31
0.0
  0
INSERT
  5
80E4
  8
3
  2
_OPEN
 10
3115.8806172285622
 20
6637.238313494664
 30
0.0
 41
80.0
 42
80.0
 43
80.0
 50
180.0
  0
INSERT
  5
80E5
  8
3
  2
_OPEN
 10
4486.8806172285622
 20
6637.238313494664
 30
0.0
 41
80.0
 42
80.0
 43
80.0
  0
TEXT
  8
3
  40
120
  5
811E
  72
0
  71
0
 10
3561.38
 20
6504.84
 30
0.000000
  1
1371
  0
POINT
  5
80E7
  8
DEFPOINTS
 62
     0
 10
3115.8806172285622
 20
6400.6620052508497
 30
0.0
  0
POINT
  5
80E8
  8
DEFPOINTS
 62
     0
 10
4486.8806172285622
 20
5031.6764175203543
 30
0.0
  0
POINT
  5
80E9
  8
DEFPOINTS
 62
     0
 10
4486.8806172285622
 20
6637.238313494664
 30
0.0
  0
ENDBLK
  5
804E
  8
0
  0
BLOCK
  8
0
  2
*D16
 70
     1
 10
0.0
 20
0.0
 30
0.0
  3
*D16
  1

  0
LINE
  5
7F6F
  8
0
  6
BYBLOCK
 10
2723.8250033622612
 20
2489.7909637268599
 30
0.0
 11
2723.8250033622612
 21
4200.7839492558342
 31
0.0
  0
LINE
  5
7F70
  8
0
  6
BYBLOCK
 10
5918.8250033622608
 20
679.79196372686511
 30
0.0
 11
5918.8250033622608
 21
4200.7839492558342
 31
0.0
  0
LINE
  5
7F71
  8
0
  6
BYBLOCK
 10
2803.8250033622612
 20
4160.7839492558342
 30
0.0
 11
5838.8250033622608
 21
4160.7839492558342
 31
0.0
  0
INSERT
  5
7F72
  8
0
  6
BYBLOCK
  2
_OPEN
 10
2723.8250033622612
 20
4160.7839492558342
 30
0.0
 41
80.0
 42
80.0
 43
80.0
 50
180.0
  0
INSERT
  5
7F73
  8
0
  6
BYBLOCK
  2
_OPEN
 10
5918.8250033622608
 20
4160.7839492558342
 30
0.0
 41
80.0
 42
80.0
 43
80.0
  0
TEXT
  5
7F74
  8
3
 10
4121.3250033622608
 20
4180.7839492558342
 30
0.0
 40
120.0
  1
3195
  0
POINT
  5
7F75
  8
DEFPOINTS
  6
BYBLOCK
 62
     0
 10
2723.8250033622612
 20
2449.7909637268599
 30
0.0
  0
POINT
  5
7F76
  8
DEFPOINTS
  6
BYBLOCK
 62
     0
 10
5918.8250033622608
 20
639.79196372686511
 30
0.0
  0
POINT
  5
7F77
  8
DEFPOINTS
  6
BYBLOCK
 62
     0
 10
5918.8250033622608
 20
4160.7839492558342
 30
0.0
  0
ENDBLK
  5
7F78
  8
0
  0
BLOCK
  8
0
  2
*D17
 70
     1
 10
0.0
 20
0.0
 30
0.0
  3
*D17
  1

  0
LINE
  5
7F7A
  8
0
  6
BYBLOCK
 10
2582.042621596258
 20
2389.7919637268651
 30
0.0
 11
2078.8169670681241
 21
2389.7919637268651
 31
0.0
  0
LINE
  5
7F7B
  8
0
  6
BYBLOCK
 10
2683.8250033622598
 20
694.7919637268642
 30
0.0
 11
2078.8169670681241
 21
694.7919637268642
 31
0.0
  0
LINE
  5
7F7C
  8
0
  6
BYBLOCK
 10
2118.8169670681232
 20
2309.7919637268651
 30
0.0
 11
2118.8169670681232
 21
774.79196372686408
 31
0.0
  0
INSERT
  5
7F7D
  8
0
  6
BYBLOCK
  2
_OPEN
 10
2118.8169670681232
 20
2389.7919637268651
 30
0.0
 41
80.0
 42
80.0
 43
80.0
 50
90.0
  0
INSERT
  5
7F7E
  8
0
  6
BYBLOCK
  2
_OPEN
 10
2118.8169670681232
 20
694.7919637268642
 30
0.0
 41
80.0
 42
80.0
 43
80.0
 50
270.0
  0
TEXT
  5
7F7F
  8
3
 10
2098.8169670681241
 20
1342.291963726864
 30
0.0
 40
120.0
  1
1695
 50
90.0
  0
POINT
  5
7F80
  8
DEFPOINTS
  6
BYBLOCK
 62
     0
 10
2622.042621596258
 20
2389.7919637268651
 30
0.0
  0
POINT
  5
7F81
  8
DEFPOINTS
  6
BYBLOCK
 62
     0
 10
2723.8250033622612
 20
694.7919637268642
 30
0.0
  0
POINT
  5
7F82
  8
DEFPOINTS
  6
BYBLOCK
 62
     0
 10
2118.8169670681232
 20
694.7919637268642
 30
0.0
  0
ENDBLK
  5
7F83
  8
0
  0
BLOCK
  8
0
  2
_DOT
 70
     0
 10
0.0
 20
0.0
 30
0.0
  3
_DOT
  1

  0
POLYLINE
  5
8028
  8
0
  6
BYBLOCK
 62
     0
 66
     1
 10
0.0
 20
0.0
 30
0.0
 70
     1
 40
0.25
 41
0.25
  0
VERTEX
  5
80EA
  8
0
  6
BYBLOCK
 62
     0
 10
-0.125
 20
0.0
 30
0.0
 42
1.0
  0
VERTEX
  5
80EB
  8
0
  6
BYBLOCK
 62
     0
 10
0.125
 20
0.0
 30
0.0
 42
1.0
  0
SEQEND
  5
80EC
  8
0
  6
BYBLOCK
 62
     0
  0
LINE
  5
802C
  8
0
  6
BYBLOCK
 62
     0
 10
-0.25
 20
0.0
 30
0.0
 11
-1.0
 21
0.0
 31
0.0
  0
ENDBLK
  5
800B
  8
0
  0
BLOCK
  8
0
  2
*D19
 70
     1
 10
0.0
 20
0.0
 30
0.0
  3
*D19
  1

  0
LINE
  5
80ED
  8
3
 62
     0
 10
2165.880617228554
 20
3225.1764175203548
 30
0.0
 11
2165.880617228554
 21
2934.706229978186
 31
0.0
  0
LINE
  5
80EE
  8
3
 62
     0
 10
3115.8806172285622
 20
3225.1764175203539
 30
0.0
 11
3115.8806172285622
 21
2934.706229978186
 31
0.0
  0
LINE
  5
80EF
  8
3
 62
     0
 10
2255.8806172285549
 20
2979.706229978186
 30
0.0
 11
3025.8806172285622
 21
2979.706229978186
 31
0.0
  0
INSERT
  5
80F0
  8
3
 62
     0
  2
_OPEN
 10
2165.880617228554
 20
2979.706229978186
 30
0.0
 41
90.0
 42
90.0
 43
90.0
 50
180.0
  0
INSERT
  5
80F1
  8
3
 62
     0
  2
_OPEN
 10
3115.8806172285622
 20
2979.706229978186
 30
0.0
 41
90.0
 42
90.0
 43
90.0
  0
TEXT
  8
3
  40
135
  5
811F
  62
0
  72
0
  71
0
 10
2370.88
 20
2853.26
 30
0.000000
  1
950
  0
POINT
  5
80F3
  8
DEFPOINTS
 62
     0
 10
2165.880617228554
 20
3247.6764175203548
 30
0.0
  0
POINT
  5
80F4
  8
DEFPOINTS
 62
     0
 10
3115.8806172285622
 20
3247.6764175203539
 30
0.0
  0
POINT
  5
80F5
  8
DEFPOINTS
 62
     0
 10
3115.8806172285622
 20
2979.706229978186
 30
0.0
  0
ENDBLK
  5
8073
  8
0
  0
BLOCK
  8
0
  2
*D20
 70
     1
 10
0.0
 20
0.0
 30
0.0
  3
*D20
  1

  0
LINE
  5
80F6
  8
3
 62
     0
 10
3115.8806172285622
 20
3225.1764175203539
 30
0.0
 11
3115.8806172285622
 21
2934.706229978186
 31
0.0
  0
LINE
  5
80F7
  8
3
 62
     0
 10
5265.8806172285622
 20
3225.1764175203548
 30
0.0
 11
5265.8806172285622
 21
2934.706229978186
 31
0.0
  0
LINE
  5
80F8
  8
3
 62
     0
 10
3205.8806172285622
 20
2979.706229978186
 30
0.0
 11
5175.8806172285622
 21
2979.706229978186
 31
0.0
  0
INSERT
  5
80F9
  8
3
 62
     0
  2
_OPEN
 10
3115.8806172285622
 20
2979.706229978186
 30
0.0
 41
90.0
 42
90.0
 43
90.0
 50
180.0
  0
INSERT
  5
80FA
  8
3
 62
     0
  2
_OPEN
 10
5265.8806172285622
 20
2979.706229978186
 30
0.0
 41
90.0
 42
90.0
 43
90.0
  0
TEXT
  8
3
  40
135
  5
8120
  62
0
  72
0
  71
0
 10
3920.88
 20
2853.26
 30
0.000000
  1
2150
  0
POINT
  5
80FC
  8
DEFPOINTS
 62
     0
 10
3115.8806172285622
 20
3247.6764175203539
 30
0.0
  0
POINT
  5
80FD
  8
DEFPOINTS
 62
     0
 10
5265.8806172285622
 20
3247.6764175203548
 30
0.0
  0
POINT
  5
80FE
  8
DEFPOINTS
 62
     0
 10
5265.8806172285622
 20
2979.706229978186
 30
0.0
  0
ENDBLK
  5
8080
  8
0
  0
BLOCK
  8
0
  2
*D21
 70
     1
 10
0.0
 20
0.0
 30
0.0
  3
*D21
  1

  0
LINE
  5
80FF
  8
3
 62
     0
 10
6520.8909696784467
 20
3225.176444994373
 30
0.0
 11
6520.8909696784467
 21
2934.706229978186
 31
0.0
  0
LINE
  5
8100
  8
3
 62
     0
 10
7451.8909696784458
 20
3225.1758631197372
 30
0.0
 11
7451.8909696784458
 21
2934.706229978186
 31
0.0
  0
LINE
  5
8101
  8
3
 62
     0
 10
6610.8909696784467
 20
2979.706229978186
 30
0.0
 11
7361.8909696784467
 21
2979.706229978186
 31
0.0
  0
INSERT
  5
8102
  8
3
 62
     0
  2
_OPEN
 10
6520.8909696784467
 20
2979.706229978186
 30
0.0
 41
90.0
 42
90.0
 43
90.0
 50
180.0
  0
INSERT
  5
8103
  8
3
 62
     0
  2
_OPEN
 10
7451.8909696784458
 20
2979.706229978186
 30
0.0
 41
90.0
 42
90.0
 43
90.0
  0
TEXT
  8
3
  40
135
  5
8121
  62
0
  72
0
  71
0
 10
6716.39
 20
2853.26
 30
0.000000
  1
931
  0
POINT
  5
8105
  8
DEFPOINTS
 62
     0
 10
6520.8909696784467
 20
3247.6764449943739
 30
0.0
  0
POINT
  5
8106
  8
DEFPOINTS
 62
     0
 10
7451.8909696784458
 20
3247.6758631197372
 30
0.0
  0
POINT
  5
8107
  8
DEFPOINTS
 62
     0
 10
7451.8909696784458
 20
2979.706229978186
 30
0.0
  0
ENDBLK
  5
808D
  8
0
  0
BLOCK
  8
0
  2
*D22
 70
     1
 10
0.0
 20
0.0
 30
0.0
  3
*D22
  1

  0
LINE
  5
8108
  8
3
 62
     0
 10
7451.8909696784458
 20
3225.1758631197372
 30
0.0
 11
7451.8909696784458
 21
2934.706229978186
 31
0.0
  0
LINE
  5
8109
  8
3
 62
     0
 10
8120.8909696784467
 20
3225.175444994999
 30
0.0
 11
8120.8909696784467
 21
2934.706229978186
 31
0.0
  0
LINE
  5
810A
  8
3
 62
     0
 10
7541.8909696784467
 20
2979.706229978186
 30
0.0
 11
8030.8909696784467
 21
2979.706229978186
 31
0.0
  0
INSERT
  5
810B
  8
3
 62
     0
  2
_OPEN
 10
7451.8909696784458
 20
2979.706229978186
 30
0.0
 41
90.0
 42
90.0
 43
90.0
 50
180.0
  0
INSERT
  5
810C
  8
3
 62
     0
  2
_OPEN
 10
8120.8909696784467
 20
2979.706229978186
 30
0.0
 41
90.0
 42
90.0
 43
90.0
  0
TEXT
  8
3
  40
135
  5
8122
  62
0
  72
0
  71
0
 10
7516.39
 20
2853.26
 30
0.000000
  1
669
  0
POINT
  5
810E
  8
DEFPOINTS
 62
     0
 10
7451.8909696784458
 20
3247.6758631197372
 30
0.0
  0
POINT
  5
810F
  8
DEFPOINTS
 62
     0
 10
8120.8909696784467
 20
3247.675444994999
 30
0.0
  0
POINT
  5
8110
  8
DEFPOINTS
 62
     0
 10
8120.8909696784467
 20
2979.706229978186
 30
0.0
  0
ENDBLK
  5
809A
  8
0
  0
BLOCK
  8
0
  2
*D23
 70
     1
 10
0.0
 20
0.0
 30
0.0
  3
*D23
  1

  0
LINE
  5
8111
  8
3
 62
     0
 10
3169.3816172285578
 20
6286.6764175203543
 30
0.0
 11
885.28196720314099
 21
6286.6764175203543
 31
0.0
  0
LINE
  5
8112
  8
3
 62
     0
 10
2143.380617228554
 20
3247.6764175203548
 30
0.0
 11
885.28196720314008
 21
3247.6764175203548
 31
0.0
  0
LINE
  5
8113
  8
3
 62
     0
 10
930.28196720314065
 20
6196.6764175203543
 30
0.0
 11
930.2819672031402
 21
3337.6764175203548
 31
0.0
  0
INSERT
  5
8114
  8
3
 62
     0
  2
_OPEN
 10
930.28196720314065
 20
6286.6764175203543
 30
0.0
 41
90.0
 42
90.0
 43
90.0
 50
90.0
  0
INSERT
  5
8115
  8
3
 62
     0
  2
_OPEN
 10
930.28196720313997
 20
3247.6764175203548
 30
0.0
 41
90.0
 42
90.0
 43
90.0
 50
270.0
  0
TEXT
  8
3
  40
135
  5
8123
  62
0
  72
0
  71
0
 10
547.782
 20
4528.23
 30
0.000000
  1
3039
  0
POINT
  5
8117
  8
DEFPOINTS
 62
     0
 10
3191.8816172285578
 20
6286.6764175203543
 30
0.0
  0
POINT
  5
8118
  8
DEFPOINTS
 62
     0
 10
2165.880617228554
 20
3247.6764175203548
 30
0.0
  0
POINT
  5
8119
  8
DEFPOINTS
 62
     0
 10
930.28196720313997
 20
3247.6764175203548
 30
0.0
  0
ENDBLK
  5
80A7
  8
0
  0
ENDSEC
  0
SECTION
  2
ENTITIES
  0
INSERT
  5
7C4B
  8
0
  2
YA_N
 10
-31013.848366523489
 20
3113.8151719350708
 30
0.0
  0
LINE
  5
7C4D
  8
1
 10
6661.8909696784467
 20
5627.6764449943739
 30
0.0
 11
6471.8909696784467
 21
5627.6764449943739
 31
0.0
  0
LINE
  5
7C4E
  8
1
 10
6661.8901169795927
 20
3497.6764013919619
 30
0.0
 11
6471.8899696784429
 21
3497.6764013919619
 31
0.0
  0
LINE
  5
7C4F
  8
1
 10
6471.8899696784429
 20
3497.6764013919619
 30
0.0
 11
6471.8909696784467
 21
5627.6764449943739
 31
0.0
  0
LINE
  5
7C50
  8
2
 10
6913.1826463217076
 20
3717.6764013919619
 30
0.0
 11
6429.1339696784489
 21
3717.6764013919619
 31
0.0
  0
LINE
  5
7C51
  8
1
 10
6521.8899696784438
 20
3567.6764013919619
 30
0.0
 11
6621.8899696784429
 21
3567.6764013919619
 31
0.0
  0
LINE
  5
7C52
  8
1
 10
6521.8899696784438
 20
3567.6764013919619
 30
0.0
 11
6521.8899696784438
 21
3867.6764013919619
 31
0.0
  0
LINE
  5
7C53
  8
1
 10
6621.8899696784429
 20
3567.6764013919619
 30
0.0
 11
6621.8899696784429
 21
3867.6764013919619
 31
0.0
  0
LINE
  5
7C54
  8
1
 10
6621.8899696784429
 20
3867.6764013919619
 30
0.0
 11
6521.8899696784438
 21
3867.6764013919619
 31
0.0
  0
LINE
  5
7C55
  8
1
 10
6621.8909696784458
 20
5547.6764449943739
 30
0.0
 11
6621.8909696784458
 21
4747.6754449943728
 31
0.0
  0
LINE
  5
7C56
  8
1
 10
6621.8909696784458
 20
4747.6754449943728
 30
0.0
 11
6521.8909696784458
 21
4747.6754449943728
 31
0.0
  0
LINE
  5
7C57
  8
1
 10
6521.8909696784458
 20
4747.6754449943728
 30
0.0
 11
6521.8909696784458
 21
5547.6764449943739
 31
0.0
  0
LINE
  5
7C58
  8
1
 10
6521.8909696784458
 20
5547.6764449943739
 30
0.0
 11
6621.8909696784458
 21
5547.6764449943739
 31
0.0
  0
LINE
  5
7C59
  8
1
 10
8041.8909696784458
 20
4347.6734449943742
 30
0.0
 11
8175.8949696784493
 21
4347.6734449943742
 31
0.0
  0
LINE
  5
7C5A
  8
1
 10
8175.8949696784493
 20
5947.672444994374
 30
0.0
 11
8041.8909696784458
 21
5947.672444994374
 31
0.0
  0
LINE
  5
7C5B
  8
1
 10
8175.8949696784493
 20
6012.672444994374
 30
0.0
 11
8175.8949696784493
 21
5947.672444994374
 31
0.0
  0
LINE
  5
7C5C
  8
1
 10
8175.8949696784493
 20
4282.6734449943742
 30
0.0
 11
8175.8949696784493
 21
4347.6734449943742
 31
0.0
  0
LINE
  5
7C5D
  8
1
 10
6858.6899696784458
 20
3397.6764449949992
 30
0.0
 11
6520.889969678442
 21
3397.6764449949992
 31
0.0
  0
LINE
  5
7C5E
  8
1
 10
6595.889969678442
 20
3397.6764449949992
 30
0.0
 11
6520.889969678442
 21
3397.6764449949992
 31
0.0
  0
LINE
  5
7C5F
  8
1
 10
8175.8949696784493
 20
4282.6734449943742
 30
0.0
 11
8175.8949696784493
 21
6012.672444994374
 31
0.0
  0
LINE
  5
7C60
  8
1
 10
8120.8909696784467
 20
3247.675444994999
 30
0.0
 11
6520.889969678442
 21
3247.6764449949992
 31
0.0
  0
LINE
  5
7C61
  8
1
 10
6621.8909696784458
 20
5197.672444994374
 30
0.0
 11
6861.8905023412954
 21
5197.672444994374
 31
0.0
  0
LINE
  5
7C62
  8
1
 10
6621.8909696784458
 20
5097.6744449943744
 30
0.0
 11
6861.8904520909782
 21
5097.6744449943744
 31
0.0
  0
LINE
  5
7C64
  8
1
 10
6861.8899696784429
 20
3397.6764449949992
 30
0.0
 11
6520.889969678442
 21
3397.6764449949992
 31
0.0
  0
LINE
  5
7C65
  8
1
 10
8120.8909696784467
 20
3397.6764449949992
 30
0.0
 11
6520.889969678442
 21
3397.6764449949992
 31
0.0
  0
LINE
  5
7C67
  8
2
 10
7451.8909696784458
 20
3247.6758631197372
 30
0.0
 11
7451.8909696784458
 21
6418.1479943079848
 31
0.0
  0
LINE
  5
7C68
  8
2
 10
8244.3550194615163
 20
5147.6764449943767
 30
0.0
 11
6472.1759696784429
 21
5147.6764449943739
 31
0.0
  0
LINE
  5
7C69
  8
1
 10
6661.8901169795927
 20
3497.6764013919619
 30
0.0
 11
6661.8909696784467
 21
5627.6764449943739
 31
0.0
  0
POINT
  5
7C6A
  8
1
 10
6471.8909696784467
 20
5627.6764449943739
 30
0.0
  0
LINE
  5
7C6B
  8
1
 10
2135.8806172285622
 20
5102.6754175203496
 30
0.0
 11
2135.8806172285549
 21
3458.6807696679571
 31
0.0
  0
LINE
  5
7C6C
  8
1
 10
2070.8806172285622
 20
5102.6754175203496
 30
0.0
 11
2070.8806172285622
 21
3452.67541752035
 31
0.0
  0
ARC
  5
7C6D
  8
1
 10
2999.8806172285622
 20
5031.6764175203543
 30
0.0
 40
1487.0
 50
274.47399999999988
 51
4.4742787963455033
  0
LINE
  5
7C6E
  8
2
 10
4915.8806172285622
 20
3247.6764175203548
 30
0.0
 11
4915.8806172285622
 21
4159.209496282765
 31
0.0
  0
ARC
  5
7C70
  8
1
 10
4915.8804688429736
 20
3717.6764013919619
 30
0.0
 40
280.0
 50
298.69199912720882
 51
241.30800087279121
  0
LINE
  5
7C71
  8
1
 10
5228.4848745997288
 20
3467.6764013919601
 30
0.0
 11
5039.2063373194469
 21
3467.6764013919619
 31
0.0
  0
LINE
  5
7C72
  8
2
 10
4495.5447121810002
 20
3717.6764013919619
 30
0.0
 11
5252.4703799947974
 21
3717.6764013919619
 31
0.0
  0
LINE
  5
7C73
  8
1
 10
5158.8804688429736
 20
3467.6764013919619
 30
0.0
 11
5158.8804688429736
 21
3578.5685295801841
 31
0.0
  0
LINE
  5
7C74
  8
1
 10
5240.8804688429727
 20
3397.6764175203539
 30
0.0
 11
5228.4848745997288
 21
3467.6764013919601
 31
0.0
  0
LINE
  5
7C75
  8
1
 10
4672.8804688429736
 20
3467.6764013919619
 30
0.0
 11
4672.8804688429736
 21
3578.5685295801841
 31
0.0
  0
LINE
  5
7C76
  8
1
 10
4781.4521869694372
 20
3472.0567013829232
 30
0.0
 11
5050.308750716511
 21
3472.0567013829232
 31
0.0
  0
LINE
  5
7C77
  8
1
 10
4792.5546003665004
 20
3454.3306246506581
 30
0.0
 11
4915.8804688429736
 21
3454.3306246506581
 31
0.0
  0
LINE
  5
7C78
  8
1
 10
5039.2063373194469
 20
3454.3306246506581
 30
0.0
 11
4915.8804688429736
 21
3454.3306246506581
 31
0.0
  0
LINE
  5
7C79
  8
1
 10
5058.8804688429736
 20
3476.9462620242439
 30
0.0
 11
5058.8804688429736
 21
3467.6764013919619
 31
0.0
  0
LINE
  5
7C7A
  8
1
 10
5039.2063373194469
 20
3467.6764013919601
 30
0.0
 11
5039.2063373194469
 21
3454.3306246506581
 31
0.0
  0
LINE
  5
7C7B
  8
1
 10
4603.2760630862113
 20
3467.6764013919601
 30
0.0
 11
4792.5546003665004
 21
3467.6764013919619
 31
0.0
  0
LINE
  5
7C7C
  8
1
 10
4772.8804688429736
 20
3476.9462620242439
 30
0.0
 11
4772.8804688429736
 21
3467.6764013919619
 31
0.0
  0
LINE
  5
7C7D
  8
1
 10
4792.5546003665004
 20
3467.6764013919601
 30
0.0
 11
4792.5546003665004
 21
3454.3306246506581
 31
0.0
  0
LINE
  5
7C7E
  8
1
 10
4772.8804688429736
 20
3476.9462620242439
 30
0.0
 11
4772.8804688429736
 21
3467.6764013919619
 31
0.0
  0
LINE
  5
7C7F
  8
1
 10
4672.8804688429736
 20
3467.6764013919619
 30
0.0
 11
4772.8804688429736
 21
3467.6764013919619
 31
0.0
  0
LINE
  5
7C80
  8
1
 10
4590.8804688429736
 20
3397.6764175203539
 30
0.0
 11
4603.2760630862113
 21
3467.6764013919601
 31
0.0
  0
CIRCLE
  5
7C81
  8
1
 10
4915.8804688429736
 20
3717.6764013919619
 30
0.0
 40
150.0
  0
LINE
  5
7C82
  8
1
 10
2070.8806172285622
 20
3452.67541752035
 30
0.0
 11
2070.8806172285622
 21
3387.6754175203491
 31
0.0
  0
ARC
  5
7C83
  8
1
 10
3231.8816172285578
 20
5031.6764175203543
 30
0.0
 40
1255.0
 50
5.3035804228537478
 51
95.303000000000026
  0
ARC
  5
7C84
  8
1
 10
3212.8816172285592
 20
5244.6764175203534
 30
0.0
 40
1042.0
 50
95.34099999999998
 51
185.3419999999999
  0
CIRCLE
  5
7C85
  8
1
 10
3115.8806172285622
 20
5147.6764175203534
 30
0.0
 40
800.0
  0
CIRCLE
  5
7C86
  8
1
 10
3115.8806172285622
 20
5147.6764175203543
 30
0.0
 40
400.0
  0
CIRCLE
  5
7C87
  8
1
 10
3115.8806172285622
 20
5147.6764175203534
 30
0.0
 40
865.0
  0
ARC
  5
7C88
  8
1
 10
3018.8806172285622
 20
5244.6764175203534
 30
0.0
 40
848.0
 50
186.56899999999999
 51
189.63982264756061
  0
LINE
  5
7C89
  8
1
 10
2182.8544717049881
 20
5102.6754175203496
 30
0.0
 11
2070.8806172285622
 21
5102.6754175203496
 31
0.0
  0
LINE
  5
7C8A
  8
1
 10
2070.8806172285622
 20
5102.6754175203496
 30
0.0
 11
2135.8806172285622
 21
5102.6754175203496
 31
0.0
  0
LINE
  5
7C8B
  8
1
 10
2070.8806172285622
 20
5167.6754175203487
 30
0.0
 11
2070.8806172285622
 21
5102.6754175203496
 31
0.0
  0
LINE
  5
7C8C
  8
1
 10
6861.8899859226576
 20
3452.6764449943739
 30
0.0
 11
6861.8904998307253
 21
5192.6764449943748
 31
0.0
  0
LINE
  5
7C8D
  8
1
 10
8041.8909696784531
 20
3452.6764449943771
 30
0.0
 11
8041.8909696784458
 21
5125.3764449943756
 31
0.0
  0
ARC
  5
7C91
  8
1
 10
3115.8806172285622
 20
5147.6764175203543
 30
0.0
 40
480.0
 50
45.040873627897447
 51
238.0287407691219
  0
ARC
  5
7C92
  8
1
 10
4915.8804688429736
 20
3717.6764013919619
 30
0.0
 40
220.0
 50
237.97423125979211
 51
45.040873627897099
  0
INSERT
  5
7C93
  8
0
  2
YA_N
 10
-497159.84604977153
 20
-120820.1853737669
 30
0.0
 41
60.0
 42
60.0
 43
60.0
  0
INSERT
  5
7C94
  8
0
  2
YA_N
 10
-497159.84604977153
 20
-120820.1853737669
 30
0.0
 41
60.0
 42
60.0
 43
60.0
  0
INSERT
  5
7C95
  8
0
  2
YA_N
 10
-497159.84604977153
 20
-120820.1853737669
 30
0.0
 41
60.0
 42
60.0
 43
60.0
  0
INSERT
  5
7C96
  8
0
  2
YA_N
 10
-497159.84604977153
 20
-120820.1853737669
 30
0.0
 41
60.0
 42
60.0
 43
60.0
  0
INSERT
  5
7C97
  8
0
  2
YA_N
 10
-476958.29871411982
 20
-35207.774353229121
 30
0.0
 41
60.0
 42
60.0
 43
60.0
  0
INSERT
  5
7C98
  8
0
  2
YA_N
 10
-497159.84604977153
 20
-120820.1853737669
 30
0.0
 41
60.0
 42
60.0
 43
60.0
  0
INSERT
  5
7C99
  8
0
  2
YA_N
 10
-491759.84604977153
 20
-116320.1853737669
 30
0.0
 41
960.0
 42
960.0
 43
960.0
  0
INSERT
  5
7C9A
  8
0
  2
YA_N
 10
-301825.50041438162
 20
-29825.962518818062
 30
0.0
 41
60.0
 42
60.0
 43
60.0
  0
INSERT
  5
7C9B
  8
0
  2
YA_N
 10
-301825.50041438162
 20
-29825.962518818062
 30
0.0
 41
60.0
 42
60.0
 43
60.0
  0
INSERT
  5
7C9C
  8
0
  2
YA_N
 10
-281623.95307872992
 20
55786.448501719773
 30
0.0
 41
60.0
 42
60.0
 43
60.0
  0
INSERT
  5
7C9D
  8
0
  2
YA_N
 10
-241511.82160097951
 20
142376.5424818274
 30
0.0
 41
60.0
 42
60.0
 43
60.0
  0
INSERT
  5
7C9E
  8
0
  2
YA_N
 10
-58580.270602983292
 20
126616.3792225441
 30
0.0
 41
60.0
 42
60.0
 43
60.0
  0
INSERT
  5
7C9F
  8
0
  2
YA_N
 10
-491759.84604977153
 20
-116320.1853737669
 30
0.0
 41
960.0
 42
960.0
 43
960.0
  0
INSERT
  5
7CA4
  8
0
  2
YA_N
 10
-491759.84604977153
 20
-116320.1853737669
 30
0.0
 41
960.0
 42
960.0
 43
960.0
  0
INSERT
  5
7CA5
  8
0
  2
YA_N
 10
-491759.84604977153
 20
-116320.1853737669
 30
0.0
 41
960.0
 42
960.0
 43
960.0
  0
INSERT
  5
7CA6
  8
0
  2
YA_N
 10
-491759.84604977153
 20
-116320.1853737669
 30
0.0
 41
960.0
 42
960.0
 43
960.0
  0
INSERT
  5
7CAC
  8
0
  2
YA_N
 10
-506151.8543531521
 20
-129371.4035403828
 30
0.0
 41
73.846153860000001
 42
73.846153860000001
 43
73.846153860000001
  0
INSERT
  5
7CAD
  8
0
  2
YA_N
 10
-496116.76920202997
 20
-119790.95465774649
 30
0.0
 41
73.846153860000001
 42
73.846153860000001
 43
73.846153860000001
  0
INSERT
  5
7CAE
  8
0
  2
YA_N
 10
-496116.76920202997
 20
-119790.95465774649
 30
0.0
 41
73.846153860000001
 42
73.846153860000001
 43
73.846153860000001
  0
INSERT
  5
7CAF
  8
0
  2
YA_N
 10
-496116.76920202997
 20
-119790.95465774649
 30
0.0
 41
73.846153860000001
 42
73.846153860000001
 43
73.846153860000001
  0
INSERT
  5
7CB0
  8
0
  2
YA_N
 10
-496116.76920202997
 20
-119790.95465774649
 30
0.0
 41
73.846153860000001
 42
73.846153860000001
 43
73.846153860000001
  0
INSERT
  5
7CB1
  8
0
  2
YA_N
 10
-496116.76920202997
 20
-119790.95465774649
 30
0.0
 41
73.846153860000001
 42
73.846153860000001
 43
73.846153860000001
  0
INSERT
  5
7CB2
  8
0
  2
YA_N
 10
-460814.97887807398
 20
101687.2075613013
 30
0.0
 41
73.846153860000001
 42
73.846153860000001
 43
73.846153860000001
  0
INSERT
  5
7CB3
  8
0
  2
YA_N
 10
-187403.7974427148
 20
99584.068046103261
 30
0.0
 41
73.846153860000001
 42
73.846153860000001
 43
73.846153860000001
  0
INSERT
  5
7CB4
  8
0
  2
YA_N
 10
-187403.7974427148
 20
99584.068046103261
 30
0.0
 41
73.846153860000001
 42
73.846153860000001
 43
73.846153860000001
  0
INSERT
  5
7CB5
  8
0
  2
YA_N
 10
-187403.7974427148
 20
99584.068046103261
 30
0.0
 41
73.846153860000001
 42
73.846153860000001
 43
73.846153860000001
  0
INSERT
  5
7CB6
  8
0
  2
YA_N
 10
-187403.7974427148
 20
99584.068046103261
 30
0.0
 41
73.846153860000001
 42
73.846153860000001
 43
73.846153860000001
  0
INSERT
  5
7CB7
  8
0
  2
YA_N
 10
-10549.657256170971
 20
252363.43879227369
 30
0.0
 41
73.846153860000001
 42
73.846153860000001
 43
73.846153860000001
  0
INSERT
  5
7CB8
  8
0
  2
YA_N
 10
-10549.657256170971
 20
252363.43879227369
 30
0.0
 41
73.846153860000001
 42
73.846153860000001
 43
73.846153860000001
  0
INSERT
  5
7CB9
  8
0
  2
YA_N
 10
-240209.58957295361
 20
65265.770241936763
 30
0.0
 41
73.846153860000001
 42
73.846153860000001
 43
73.846153860000001
  0
INSERT
  5
7CBA
  8
0
  2
YA_N
 10
-545568.37509481667
 20
-168571.32720129919
 30
0.0
 41
73.846153860000001
 42
73.846153860000001
 43
73.846153860000001
  0
INSERT
  5
7CBB
  8
0
  2
YA_N
 10
-490799.84612411202
 20
-115360.1854261468
 30
0.0
 41
960.00000017999992
 42
960.00000017999992
 43
960.00000017999992
  0
INSERT
  5
7CBD
  8
0
  2
YA_N
 10
-490799.84612411202
 20
-115360.1854261468
 30
0.0
 41
960.00000017999992
 42
960.00000017999992
 43
960.00000017999992
  0
INSERT
  5
7CC2
  8
0
  2
YA_N
 10
-490799.84612411202
 20
-115360.1854261468
 30
0.0
 41
960.00000017999992
 42
960.00000017999992
 43
960.00000017999992
  0
INSERT
  5
7CC3
  8
0
  2
YA_N
 10
-490799.84612411202
 20
-115360.1854261468
 30
0.0
 41
960.00000017999992
 42
960.00000017999992
 43
960.00000017999992
  0
INSERT
  5
7CC4
  8
0
  2
YA_N
 10
-490799.84612411202
 20
-115360.1854261468
 30
0.0
 41
960.00000017999992
 42
960.00000017999992
 43
960.00000017999992
  0
INSERT
  5
7CC9
  8
0
  2
YA_N
 10
-506151.8543531521
 20
-129371.4035403828
 30
0.0
 41
73.846153860000001
 42
73.846153860000001
 43
73.846153860000001
  0
INSERT
  5
7CCA
  8
0
  2
YA_N
 10
-496116.76920202997
 20
-119790.95465774649
 30
0.0
 41
73.846153860000001
 42
73.846153860000001
 43
73.846153860000001
  0
INSERT
  5
7CCB
  8
0
  2
YA_N
 10
-496116.76920202997
 20
-119790.95465774649
 30
0.0
 41
73.846153860000001
 42
73.846153860000001
 43
73.846153860000001
  0
INSERT
  5
7CCC
  8
0
  2
YA_N
 10
-496116.76920202997
 20
-119790.95465774649
 30
0.0
 41
73.846153860000001
 42
73.846153860000001
 43
73.846153860000001
  0
INSERT
  5
7CCD
  8
0
  2
YA_N
 10
-496116.76920202997
 20
-119790.95465774649
 30
0.0
 41
73.846153860000001
 42
73.846153860000001
 43
73.846153860000001
  0
INSERT
  5
7CCE
  8
0
  2
YA_N
 10
-496116.76920202997
 20
-119790.95465774649
 30
0.0
 41
73.846153860000001
 42
73.846153860000001
 43
73.846153860000001
  0
INSERT
  5
7CCF
  8
0
  2
YA_N
 10
-460814.97887807398
 20
101687.2075613013
 30
0.0
 41
73.846153860000001
 42
73.846153860000001
 43
73.846153860000001
  0
INSERT
  5
7CD0
  8
0
  2
YA_N
 10
-187403.7974427148
 20
99584.068046103261
 30
0.0
 41
73.846153860000001
 42
73.846153860000001
 43
73.846153860000001
  0
INSERT
  5
7CD1
  8
0
  2
YA_N
 10
-187403.7974427148
 20
99584.068046103261
 30
0.0
 41
73.846153860000001
 42
73.846153860000001
 43
73.846153860000001
  0
INSERT
  5
7CD2
  8
0
  2
YA_N
 10
-187403.7974427148
 20
99584.068046103261
 30
0.0
 41
73.846153860000001
 42
73.846153860000001
 43
73.846153860000001
  0
INSERT
  5
7CD3
  8
0
  2
YA_N
 10
-187403.7974427148
 20
99584.068046103261
 30
0.0
 41
73.846153860000001
 42
73.846153860000001
 43
73.846153860000001
  0
INSERT
  5
7CD4
  8
0
  2
YA_N
 10
-10549.657256170971
 20
252363.43879227369
 30
0.0
 41
73.846153860000001
 42
73.846153860000001
 43
73.846153860000001
  0
INSERT
  5
7CD5
  8
0
  2
YA_N
 10
-10549.657256170971
 20
252363.43879227369
 30
0.0
 41
73.846153860000001
 42
73.846153860000001
 43
73.846153860000001
  0
INSERT
  5
7CD6
  8
0
  2
YA_N
 10
-240209.58957295361
 20
65265.770241936763
 30
0.0
 41
73.846153860000001
 42
73.846153860000001
 43
73.846153860000001
  0
INSERT
  5
7CD7
  8
0
  2
YA_N
 10
-545568.37509481667
 20
-168571.32720129919
 30
0.0
 41
73.846153860000001
 42
73.846153860000001
 43
73.846153860000001
  0
INSERT
  5
7CD8
  8
0
  2
YA_N
 10
-490799.84612411202
 20
-115360.1854261468
 30
0.0
 41
960.00000017999992
 42
960.00000017999992
 43
960.00000017999992
  0
INSERT
  5
7CDA
  8
0
  2
YA_N
 10
-490799.84612411202
 20
-115360.1854261468
 30
0.0
 41
960.00000017999992
 42
960.00000017999992
 43
960.00000017999992
  0
INSERT
  5
7CDF
  8
0
  2
YA_N
 10
-490799.84612411202
 20
-115360.1854261468
 30
0.0
 41
960.00000017999992
 42
960.00000017999992
 43
960.00000017999992
  0
INSERT
  5
7CE0
  8
0
  2
YA_N
 10
-490799.84612411202
 20
-115360.1854261468
 30
0.0
 41
960.00000017999992
 42
960.00000017999992
 43
960.00000017999992
  0
INSERT
  5
7CE1
  8
0
  2
YA_N
 10
-490799.84612411202
 20
-115360.1854261468
 30
0.0
 41
960.00000017999992
 42
960.00000017999992
 43
960.00000017999992
  0
INSERT
  5
7CE6
  8
0
  2
YA_N
 10
-40465.235300889108
 20
-7185.6510845322327
 30
0.0
 41
60.0
 42
60.0
 43
60.0
  0
INSERT
  5
7CE7
  8
0
  2
YA_N
 10
-40465.235300889108
 20
-7185.6510845322327
 30
0.0
 41
60.0
 42
60.0
 43
60.0
  0
DIMENSION
  5
7CEC
  8
3
  2
*D2
 10
8730.9583197683733
 20
4347.6734449943742
 30
0.0
 11
8650.9583197683769
 21
5147.6729449943741
 31
0.0
 12
-150.67944575362341
 22
2757.8844537934888
 32
0.0
 70
     0
  1
φ1600
 13
8175.8949696784493
 23
5947.672444994374
 33
0.0
 14
8175.8949696784493
 24
4347.6734449943742
 34
0.0
 50
90.0
1001
ACAD
1000
DSTYLE
1002
{
1070
    40
1040
40.0
1002
}
  0
DIMENSION
  5
7CED
  8
3
  2
*D3
 10
8175.8949696784493
 20
6734.6365606754889
 30
0.0
 11
7807.996740676077
 21
6734.6365606754889
 31
0.0
 12
-150.67944575362341
 22
2757.8844537934888
 32
0.0
 70
   128
  1
725
 13
7451.8909696784458
 23
6617.0987762918357
 33
0.0
 14
8175.8949696784493
 24
6012.672444994374
 34
0.0
1001
ACAD
1000
DSTYLE
1002
{
1070
    40
1040
40.0
1002
}
  0
POINT
  5
7CEE
  8
1
 10
6471.8909696784467
 20
5627.6764449943739
 30
0.0
  0
POINT
  5
7CEF
  8
1
 10
7451.8909696784458
 20
6617.0987762918357
 30
0.0
  0
INSERT
  5
7CF0
  8
0
  2
YA_N
 10
25800.053174005541
 20
2939.5473453596451
 30
0.0
 41
2.399999999999999
 42
2.399999999999999
 43
2.399999999999999
  0
INSERT
  5
7CF2
  8
0
  2
YA_N
 10
17418.66624121934
 20
17819.911729204519
 30
0.0
 41
60.0
 42
60.0
 43
60.0
 50
270.0
  0
LINE
  5
7CF4
  8
2
 10
3115.8806172285622
 20
3247.6764175203539
 30
0.0
 11
3115.8806172285622
 21
6400.6620052508497
 31
0.0
  0
LINE
  5
7CF5
  8
2
 10
1969.0982354625589
 20
5147.6764175203543
 30
0.0
 11
4665.8183839659832
 21
5147.6764175203543
 31
0.0
  0
LINE
  5
7CF7
  8
1
 10
2165.880617228554
 20
3247.6764175203548
 30
0.0
 11
2165.8806172285472
 21
3397.6784175209991
 31
0.0
  0
LINE
  5
7CFA
  8
1
 10
5265.8806172285622
 20
3247.6764175203548
 30
0.0
 11
5265.8806172285622
 21
3397.6764175203539
 31
0.0
  0
DIMENSION
  5
7CFD
  8
3
  2
*D4
 10
1707.430464521618
 20
5102.6754175203496
 30
0.0
 11
1627.4304645216171
 21
4277.6754175203496
 31
0.0
 12
-652.94438613369857
 22
2757.8844537934888
 32
0.0
 70
     0
 13
2070.8806172285622
 23
3452.67541752035
 33
0.0
 14
2070.8806172285622
 24
5102.6754175203496
 34
0.0
 50
270.0
1001
ACAD
1000
DSTYLE
1002
{
1070
    40
1040
40.0
1002
}
  0
LINE
  5
7CFE
  8
1
 10
2070.8806172285622
 20
3452.676417520353
 30
0.0
 11
3115.8765815103252
 21
3549.2075523260969
 31
0.0
  0
LINE
  5
7CFF
  8
1
 10
8120.8909696784467
 20
3397.6764449949992
 30
0.0
 11
8120.8909696784467
 21
3247.675444994999
 31
0.0
  0
LINE
  5
7D00
  8
1
 10
8041.8909696784458
 20
3452.6764449943771
 30
0.0
 11
8041.8909696784531
 21
6286.6764449943767
 31
0.0
  0
LINE
  5
7D01
  8
1
 10
6861.8909696784467
 20
3452.6764449943748
 30
0.0
 11
6861.8909696784467
 21
6286.6764449943748
 31
0.0
  0
DIMENSION
  5
7D02
  8
3
  2
*D5
 10
8041.8909696784531
 20
6442.378102213409
 30
0.0
 11
7451.8909696784503
 21
6522.3781022134099
 31
0.0
 12
-150.67944575362341
 22
2757.8844537934888
 32
0.0
 70
     0
 13
6861.8909696784467
 23
6286.6764449943748
 33
0.0
 14
8041.8909696784531
 24
6286.6764449943767
 34
0.0
1001
ACAD
1000
DSTYLE
1002
{
1070
    40
1040
40.0
1002
}
  0
LINE
  5
7D05
  8
1
 10
6520.8909696784467
 20
3247.6764449943739
 30
0.0
 11
6520.8909696784467
 21
3397.6764449949992
 31
0.0
  0
LINE
  5
7D08
  8
2
 10
4651.663220603943
 20
9023.0580158973335
 30
0.0
 11
2140.6840405230828
 21
9023.0580158973335
 31
0.0
  0
LINE
  5
7D09
  8
1
 10
4065.8806172285622
 20
9692.0580158973353
 30
0.0
 11
2165.8806172285622
 21
9692.0580158973353
 31
0.0
  0
LINE
  5
7D0A
  8
1
 10
5265.8806172285622
 20
8092.0580158973344
 30
0.0
 11
2165.8806172285622
 21
8092.0580158973344
 31
0.0
  0
LINE
  5
7D0B
  8
1
 10
2165.8806172285622
 20
8092.0580158973344
 30
0.0
 11
2165.8806172285622
 21
8433.0580158973335
 31
0.0
  0
LINE
  5
7D0C
  8
1
 10
5265.8806172285622
 20
8092.0580158973344
 30
0.0
 11
5265.8806172285622
 21
9192.0580158973335
 31
0.0
  0
LINE
  5
7D0D
  8
1
 10
5265.8806172285622
 20
9192.0580158973335
 30
0.0
 11
4486.8806172285622
 21
9192.0580158973316
 31
0.0
  0
LINE
  5
7D0E
  8
1
 10
4065.8806172285622
 20
9613.0580158973371
 30
0.0
 11
4065.8806172285622
 21
9692.0580158973353
 31
0.0
  0
LINE
  5
7D0F
  8
1
 10
4486.8806172285622
 20
9613.0580158973316
 30
0.0
 11
2070.8806172285622
 21
9613.0580158973335
 31
0.0
  0
LINE
  5
7D10
  8
1
 10
4486.8806172285622
 20
8433.0580158973335
 30
0.0
 11
2070.8806172285622
 21
8433.0580158973353
 31
0.0
  0
LINE
  5
7D11
  8
1
 10
2165.8806172285622
 20
9613.0580158973335
 30
0.0
 11
2165.8806172285622
 21
9692.0580158973353
 31
0.0
  0
DIMENSION
  5
7D12
  8
3
  2
*D6
 10
6471.8909696784467
 20
6734.6365606754889
 30
0.0
 11
6961.8909696784467
 21
6914.636560675488
 31
0.0
 70
     0
  1
MAX\P1080
 13
7451.8909696784458
 23
6617.0987762918357
 33
0.0
 14
6471.8909696784467
 24
5627.6764449943739
 34
0.0
1001
ACAD
1000
DSTYLE
1002
{
1070
   287
1070
     4
1070
    40
1040
40.0
1070
    75
1070
     1
1070
   279
1070
     1
1070
   289
1070
     3
1002
}
  0
LINE
  5
7D13
  8
1
 10
3065.8806172285622
 20
8173.0580158973316
 30
0.0
 11
3065.880617228569
 21
8433.0580158973335
 31
0.0
  0
LINE
  5
7D14
  8
1
 10
3165.8806172285622
 20
8173.0580158973316
 30
0.0
 11
3165.8806172285622
 21
8433.0580158973335
 31
0.0
  0
LINE
  5
7D15
  8
1
 10
5135.8806172285622
 20
8023.0580158973326
 30
0.0
 11
5135.8806172285622
 21
8213.0580158973335
 31
0.0
  0
LINE
  5
7D16
  8
1
 10
2635.8806172285622
 20
8023.0580158973326
 30
0.0
 11
2635.8806172285622
 21
8213.0580158973335
 31
0.0
  0
LINE
  5
7D17
  8
1
 10
3515.8816172285592
 20
8073.0580158973289
 30
0.0
 11
2715.8806172285622
 21
8073.0580158973344
 31
0.0
  0
LINE
  5
7D18
  8
1
 10
2715.8806172285622
 20
8173.0580158973344
 30
0.0
 11
3515.8816172285592
 21
8173.0580158973298
 31
0.0
  0
LINE
  5
7D1A
  8
1
 10
2635.8806172285622
 20
8213.0580158973335
 30
0.0
 11
2635.8806172285622
 21
8023.0580158973326
 31
0.0
  0
LINE
  5
7D1B
  8
1
 10
5135.8806172285622
 20
8213.0580158973335
 30
0.0
 11
2635.8806172285622
 21
8213.0580158973335
 31
0.0
  0
LINE
  5
7D1C
  8
1
 10
5135.880617228554
 20
8023.0578685961827
 30
0.0
 11
2635.8806172285622
 21
8023.0580158973326
 31
0.0
  0
LINE
  5
7D1D
  8
2
 10
3115.8806172285622
 20
9831.5972390497736
 30
0.0
 11
3115.8806172285622
 21
7984.9570614448312
 31
0.0
  0
LINE
  5
7D1E
  8
1
 10
5065.8806172285549
 20
8173.0578685961827
 30
0.0
 11
4765.8806172285549
 21
8173.0578685961846
 31
0.0
  0
LINE
  5
7D1F
  8
1
 10
5065.8806172285549
 20
8073.0578685961827
 30
0.0
 11
4765.8806172285549
 21
8073.0578685961846
 31
0.0
  0
LINE
  5
7D20
  8
1
 10
5135.8806172285622
 20
8213.0580158973335
 30
0.0
 11
5135.880617228554
 21
8023.0578685961827
 31
0.0
  0
LINE
  5
7D21
  8
1
 10
5065.8806172285549
 20
8073.0578685961827
 30
0.0
 11
5065.8806172285549
 21
8173.0578685961827
 31
0.0
  0
LINE
  5
7D22
  8
2
 10
4915.8806172285767
 20
9018.6326191094704
 30
0.0
 11
4915.8806172285549
 21
7980.3018685961888
 31
0.0
  0
LINE
  5
7D23
  8
1
 10
4765.8806172285549
 20
8173.0578685961846
 30
0.0
 11
4765.8806172285549
 21
8073.0578685961846
 31
0.0
  0
LINE
  5
7D24
  8
1
 10
3515.8816172285592
 20
8173.0580158973298
 30
0.0
 11
3515.8816172285592
 21
8073.0580158973289
 31
0.0
  0
LINE
  5
7D25
  8
1
 10
2715.8806172285622
 20
8073.0580158973344
 30
0.0
 11
2715.8806172285622
 21
8173.0580158973344
 31
0.0
  0
LINE
  5
7D26
  8
1
 10
5065.8806172285622
 20
8947.5578685961827
 30
0.0
 11
4765.8806172285622
 21
8947.5578685961846
 31
0.0
  0
LINE
  5
7D27
  8
1
 10
5065.8806172285622
 20
8360.0578685961846
 30
0.0
 11
4765.8806172285622
 21
8360.0578685961846
 31
0.0
  0
LINE
  5
7D28
  8
1
 10
5065.8806172285622
 20
8947.5578685961827
 30
0.0
 11
5065.8806172285622
 21
8360.0578685961846
 31
0.0
  0
LINE
  5
7D29
  8
1
 10
4765.8806172285622
 20
8947.5578685961846
 30
0.0
 11
4765.8806172285622
 21
8360.0578685961846
 31
0.0
  0
LINE
  5
7D2A
  8
1
 10
4878.3806172285622
 20
8360.0578685961846
 30
0.0
 11
4878.3806172285549
 21
8173.0578685961846
 31
0.0
  0
LINE
  5
7D2B
  8
1
 10
4953.3806172285549
 20
8360.0578685961846
 30
0.0
 11
4953.3806172285549
 21
8173.0578685961827
 31
0.0
  0
LINE
  5
7D2C
  8
1
 10
6861.8909696784467
 20
3755.1764013919619
 30
0.0
 11
6661.8902750214766
 21
3755.1764013919619
 31
0.0
  0
LINE
  5
7D2D
  8
1
 10
6861.8909696784467
 20
3680.1764013919619
 30
0.0
 11
6661.8902289898542
 21
3680.1764013919619
 31
0.0
  0
DIMENSION
  5
7D2E
  8
3
  2
*D7
 10
4065.8806172285622
 20
9968.3746586007019
 30
0.0
 11
4665.8806172285622
 21
10048.3746586007
 31
0.0
 12
-652.94438613369857
 22
1265.10284710002
 32
0.0
 70
     0
 13
5265.8806172285622
 23
9192.0580158973335
 33
0.0
 14
4065.8806172285622
 24
9692.0580158973353
 34
0.0
1001
ACAD
1000
DSTYLE
1002
{
1070
    40
1040
40.0
1002
}
  0
DIMENSION
  5
7D2F
  8
3
  2
*D8
 10
2165.8806172285622
 20
9968.3746586007019
 30
0.0
 11
3115.8806172285622
 21
10048.3746586007
 31
0.0
 70
     0
 13
4065.8806172285622
 23
9692.0580158973353
 33
0.0
 14
2165.8806172285622
 24
9692.0580158973353
 34
0.0
1001
ACAD
1000
DSTYLE
1002
{
1070
   287
1070
     4
1070
    40
1040
40.0
1070
    75
1070
     1
1070
   279
1070
     1
1070
   289
1070
     3
1002
}
  0
DIMENSION
  5
7D30
  8
3
  2
*D9
 10
5603.5866498208852
 20
8092.0580158973344
 30
0.0
 11
5523.5866498208843
 21
8642.0580158973335
 31
0.0
 12
-652.94438613369857
 22
1265.10284710002
 32
0.0
 70
     0
 13
5265.8806172285622
 23
9192.0580158973335
 33
0.0
 14
5265.8806172285622
 24
8092.0580158973344
 34
0.0
 50
270.0
1001
ACAD
1000
DSTYLE
1002
{
1070
    40
1040
40.0
1002
}
  0
DIMENSION
  5
7D31
  8
3
  2
*D10
 10
1735.9292103058031
 20
8092.0580158973344
 30
0.0
 11
1655.9292103058031
 21
8892.0580158973353
 31
0.0
 12
-652.94438613369857
 22
1265.10284710002
 32
0.0
 70
     0
 13
2165.8806172285622
 23
9692.0580158973353
 33
0.0
 14
2165.8806172285622
 24
8092.0580158973344
 34
0.0
 50
270.0
1001
ACAD
1000
DSTYLE
1002
{
1070
    40
1040
40.0
1002
}
  0
DIMENSION
  5
7D32
  8
3
  2
*D11
 10
2165.8806172285622
 20
7609.0654478885999
 30
0.0
 11
3715.8806172285622
 21
7689.065447888599
 31
0.0
 12
-652.94438613369857
 22
1265.10284710002
 32
0.0
 70
     0
 13
5265.8806172285622
 23
8092.0580158973344
 33
0.0
 14
2165.8806172285622
 24
8092.0580158973344
 34
0.0
1001
ACAD
1000
DSTYLE
1002
{
1070
    40
1040
40.0
1002
}
  0
LINE
  5
7D33
  8
1
 10
5265.8806172285549
 20
3247.6764175203548
 30
0.0
 11
2165.8806172285472
 21
3247.6764175203539
 31
0.0
  0
LINE
  5
7D34
  8
1
 10
5265.8806172285549
 20
3397.6764175203539
 30
0.0
 11
2165.8806172285472
 21
3397.6764175203548
 31
0.0
  0
LINE
  5
7D37
  8
1
 10
4835.9002091297953
 20
3590.7781821128401
 30
0.0
 11
2902.5999246600759
 21
4809.2811661093629
 31
0.0
  0
LINE
  5
7D38
  8
1
 10
3397.2799125272581
 20
5431.9552183574842
 30
0.0
 11
5021.4052045799835
 21
3824.2809517058849
 31
0.0
  0
LINE
  5
7D39
  8
1
 10
3455.0496568617232
 20
5487.3297150964572
 30
0.0
 11
5071.3329453415063
 21
3873.350829447676
 31
0.0
  0
LINE
  5
7D3A
  8
1
 10
2861.723593802707
 20
4740.485789628071
 30
0.0
 11
4799.3918331061213
 21
3531.0473636079992
 31
0.0
  0
DIMENSION
  5
7D3B
  8
3
  2
*D12
 10
1213.8034987591959
 20
5147.6764175203543
 30
0.0
 11
1133.8034987591959
 21
5717.1764175203534
 31
0.0
 12
-652.94438613369857
 22
2757.8844537934888
 32
0.0
 70
     0
 13
3231.8816172285578
 23
6286.6764175203543
 33
0.0
 14
1969.0982354625589
 24
5147.6764175203543
 34
0.0
 50
90.0
1001
ACAD
1000
DSTYLE
1002
{
1070
    40
1040
40.0
1002
}
  0
DIMENSION
  5
7D3C
  8
3
  2
*D13
 10
1213.8034987591959
 20
3247.6764175203539
 30
0.0
 11
1101.3034987591959
 21
4197.6764175203543
 31
0.0
 70
     0
 13
1969.0982354625589
 23
5147.6764175203543
 33
0.0
 14
2165.880617228554
 24
3247.6764175203539
 34
0.0
 50
90.0
1001
ACAD
1000
DSTYLE
1002
{
1070
   287
1070
     3
1070
    40
1040
45.0
1070
   143
1040
0.039
1070
   172
1070
     1
1070
   271
1070
     0
1070
   279
1070
     0
1070
   288
1070
     1
1002
}
  0
DIMENSION
  5
7D40
  8
3
  2
*D14
 10
3115.8806172285622
 20
6637.238313494664
 30
0.0
 11
2593.3806172285622
 21
6717.2383134946649
 31
0.0
 70
     0
 13
2070.8806172285622
 23
5167.6754175203487
 33
0.0
 14
3115.8806172285622
 24
6400.6620052508497
 34
0.0
1001
ACAD
1000
DSTYLE
1002
{
1070
    40
1040
40.0
1002
}
  0
DIMENSION
  5
7D41
  8
3
  2
*D15
 10
4486.8806172285622
 20
6637.238313494664
 30
0.0
 11
3801.3806172285608
 21
6717.2383134946649
 31
0.0
 70
     0
 13
3115.8806172285622
 23
6400.6620052508497
 33
0.0
 14
4486.8806172285622
 24
5031.6764175203543
 34
0.0
1001
ACAD
1000
DSTYLE
1002
{
1070
   287
1070
     4
1070
    40
1040
40.0
1070
    75
1070
     1
1070
   279
1070
     1
1070
   289
1070
     3
1002
}
  0
DIMENSION
  5
7D42
  8
3
  2
*D16
 10
5265.8806172285622
 20
6918.6684030493234
 30
0.0
 11
3668.3806172285622
 21
6998.6684030493243
 31
0.0
 12
-652.94438613369857
 22
2757.8844537934888
 32
0.0
 70
     0
 13
2070.8806172285622
 23
5207.6754175203487
 33
0.0
 14
5265.8806172285622
 24
3397.6764175203539
 34
0.0
1001
ACAD
1000
DSTYLE
1002
{
1070
    40
1040
40.0
1002
}
  0
LINE
  5
7D43
  8
1
 10
2070.8806172285622
 20
9688.0580158973353
 30
0.0
 11
2070.8806172285622
 21
8358.0580158973316
 31
0.0
  0
LINE
  5
7D44
  8
1
 10
4486.8806172285622
 20
9613.0580158973335
 30
0.0
 11
4486.8806172285549
 21
8433.0580158973316
 31
0.0
  0
DIMENSION
  5
7D45
  8
3
  2
*D17
 10
1465.8725809344251
 20
3452.676417520353
 30
0.0
 11
1465.8725809344251
 21
4300.1764175203534
 31
0.0
 12
-652.94438613369857
 22
2757.8844537934888
 32
0.0
 70
   128
 13
1969.0982354625589
 23
5147.6764175203543
 33
0.0
 14
2070.8806172285622
 24
3452.676417520353
 34
0.0
 50
90.0
1001
ACAD
1000
DSTYLE
1002
{
1070
    40
1040
40.0
1002
}
  0
LINE
  5
7D46
  8
1
 10
8041.8909696784458
 20
3452.6764449943771
 30
0.0
 11
6861.8909696784467
 21
3452.6764449943748
 31
0.0
  0
LINE
  5
7D47
  8
1
 10
8041.8909696784458
 20
5102.6764449943767
 30
0.0
 11
6861.8909696784467
 21
5102.6764449943748
 31
0.0
  0
LINE
  5
7D48
  8
1
 10
8041.8909696784458
 20
5102.6764449943767
 30
0.0
 11
6861.8909696784467
 21
3452.6764449943748
 31
0.0
  0
LINE
  5
7D49
  8
1
 10
6861.8909696784467
 20
5102.6764449943748
 30
0.0
 11
8041.8909696784458
 21
3452.6764449943771
 31
0.0
  0
LINE
  5
7D4A
  8
1
 10
8041.8909696784531
 20
6286.6764449943767
 30
0.0
 11
6861.890969678454
 21
6286.6764449943748
 31
0.0
  0
LINE
  5
7F84
  8
4
 10
8325.0
 20
2250.0
 30
0.0
 11
8325.0
 21
1350.0
 31
0.0
  0
LINE
  5
7F85
  8
4
 10
5175.0
 20
2250.0
 30
0.0
 11
5175.0
 21
1350.0
 31
0.0
  0
LINE
  5
7F86
  8
4
 10
2925.0
 20
2250.0
 30
0.0
 11
2925.0
 21
1350.0
 31
0.0
  0
LINE
  5
7F89
  8
4
 10
2925.0
 20
1350.0
 30
0.0
 11
8325.0
 21
1350.0
 31
0.0
  0
LINE
  5
7F8A
  8
4
 10
2925.0
 20
1800.0
 30
0.0
 11
8325.0
 21
1800.0
 31
0.0
  0
TEXT
  5
7F8B
  8
4
 10
3098.259363811057
 20
1941.943616399758
 30
0.0
 40
225.0
  1
機器名称
  0
TEXT
  5
7F8C
  8
4
 10
3088.1614771115892
 20
1447.403205294049
 30
0.0
 40
225.0
  1
機器型番
  0
TEXT
  5
7F8D
  8
4
 10
5299.5543546944918
 20
1901.5729603090581
 30
0.0
 40
225.0
  1
ミツヤ多翼送風機
  0
TEXT
  5
7F8E
  8
4
 10
5339.9452301346628
 20
1427.218129259745
 30
0.0
 40
225.0
  1
MF#10-4
  0
TEXT
  5
7F90
  8
4
 10
3619.4975034492891
 20
10725.429785996321
 30
0.0
 40
242.99999999999989
  1
床置ベット
  0
TEXT
  5
7F91
  8
4
 10
1422.7541699825081
 20
11402.46439289684
 30
0.0
 40
324.0
  1
ベルト駆動式片吸込両持多翼ファン
  0
LINE
  5
7F92
  8
4
 10
1125.0
 20
11112.33939419162
 30
0.0
 11
8325.0
 21
11112.33939419162
 31
0.0
  0
LINE
  5
7F93
  8
4
 10
1125.0
 20
12012.33939419162
 30
0.0
 11
8325.0
 21
12012.33939419162
 31
0.0
  0
LINE
  5
7F94
  8
4
 10
2925.0
 20
2250.0
 30
0.0
 11
8325.0
 21
2250.0
 31
0.0
  0
LINE
  5
7F95
  8
4
 10
1125.0
 20
12012.33939419162
 30
0.0
 11
1125.0
 21
11112.33939419162
 31
0.0
  0
TEXT
  5
7F96
  8
4
 10
1658.132758357129
 20
10720.437648958539
 30
0.0
 40
242.99999999999989
  1
右回転左横向
  0
TEXT
  5
7F97
  8
4
 10
6610.3630166218027
 20
12177.274866728891
 30
0.0
 40
252.0
  1
No.
  0
TEXT
  5
7F98
  8
4
 10
5900.832281700059
 20
10725.429785996321
 30
0.0
 40
242.99999999999989
  1
縮尺：1/45
  0
LINE
  5
7F99
  8
4
 10
8325.0
 20
12012.33939419162
 30
0.0
 11
8325.0
 21
11112.33939419162
 31
0.0
  0
LINE
  5
7F9A
  8
4
 10
9450.0
 20
13275.0
 30
0.0
 11
9450.0
 21
13275.0
 31
0.0
  0
LINE
  5
7F9B
  8
4
 10
6482.7784006193906
 20
12065.686124064299
 30
0.0
 11
6482.7784006193906
 21
12539.935176973881
 31
0.0
  0
LINE
  5
7F9C
  8
4
 10
6482.7784006193906
 20
12539.935176973881
 30
0.0
 11
8325.0
 21
12539.935176973881
 31
0.0
  0
LINE
  5
7F9D
  8
4
 10
8325.0
 20
12539.935176973881
 30
0.0
 11
8325.0
 21
12065.686124064299
 31
0.0
  0
LINE
  5
7F9E
  8
4
 10
8325.0
 20
12065.686124064299
 30
0.0
 11
6482.7784006193906
 21
12065.686124064299
 31
0.0
  0
LINE
  5
7F9F
  8
4
 10
0.0
 20
0.0
 30
0.0
 11
0.0
 21
13275.0
 31
0.0
  0
LINE
  5
7FA0
  8
4
 10
0.0
 20
13275.0
 30
0.0
 11
9450.0
 21
13275.0
 31
0.0
  0
LINE
  5
7FA1
  8
4
 10
9450.0
 20
13275.0
 30
0.0
 11
9450.0
 21
0.0
 31
0.0
  0
LINE
  5
7FA2
  8
4
 10
9450.0
 20
0.0
 30
0.0
 11
0.0
 21
0.0
 31
0.0
  0
DIMENSION
  5
8074
  8
3
  2
*D19
 10
3115.8806172285622
 20
2979.706229978186
 30
0.0
 11
2640.880617228559
 21
3092.206229978186
 31
0.0
 70
     0
 13
2165.880617228554
 23
3247.6764175203548
 33
0.0
 14
3115.8806172285622
 24
3247.6764175203539
 34
0.0
1001
ACAD
1000
DSTYLE
1002
{
1070
   287
1070
     3
1070
    40
1040
45.0
1070
   143
1040
0.039
1070
   172
1070
     1
1070
   271
1070
     0
1070
   279
1070
     0
1002
}
  0
DIMENSION
  5
8081
  8
3
  2
*D20
 10
5265.8806172285622
 20
2979.706229978186
 30
0.0
 11
4190.8806172285622
 21
3092.206229978186
 31
0.0
 70
     0
 13
3115.8806172285622
 23
3247.6764175203539
 33
0.0
 14
5265.8806172285622
 24
3247.6764175203548
 34
0.0
1001
ACAD
1000
DSTYLE
1002
{
1070
   287
1070
     3
1070
    40
1040
45.0
1070
   143
1040
0.039
1070
   172
1070
     1
1070
   271
1070
     0
1070
   279
1070
     0
1002
}
  0
DIMENSION
  5
808E
  8
3
  2
*D21
 10
7451.8909696784458
 20
2979.706229978186
 30
0.0
 11
6986.3909696784467
 21
3092.206229978186
 31
0.0
 70
     0
 13
6520.8909696784467
 23
3247.6764449943739
 33
0.0
 14
7451.8909696784458
 24
3247.6758631197372
 34
0.0
1001
ACAD
1000
DSTYLE
1002
{
1070
   287
1070
     3
1070
    40
1040
45.0
1070
   143
1040
0.039
1070
   172
1070
     1
1070
   271
1070
     0
1070
   279
1070
     0
1002
}
  0
DIMENSION
  5
809B
  8
3
  2
*D22
 10
8120.8909696784467
 20
2979.706229978186
 30
0.0
 11
7786.3909696784467
 21
3092.206229978186
 31
0.0
 70
     0
 13
7451.8909696784458
 23
3247.6758631197372
 33
0.0
 14
8120.8909696784467
 24
3247.675444994999
 34
0.0
1001
ACAD
1000
DSTYLE
1002
{
1070
   287
1070
     3
1070
    40
1040
45.0
1070
   143
1040
0.039
1070
   172
1070
     1
1070
   271
1070
     0
1070
   279
1070
     0
1002
}
  0
DIMENSION
  5
80A8
  8
3
  2
*D23
 10
930.28196720313997
 20
3247.6764175203548
 30
0.0
 11
817.78196720313974
 21
4767.1764175203562
 31
0.0
 70
     0
 13
3191.8816172285578
 23
6286.6764175203543
 33
0.0
 14
2165.880617228554
 24
3247.6764175203548
 34
0.0
 50
90.0
1001
ACAD
1000
DSTYLE
1002
{
1070
   287
1070
     3
1070
    40
1040
45.0
1070
   143
1040
0.039
1070
   172
1070
     1
1070
   271
1070
     0
1070
   279
1070
     0
1002
}
  0
ENDSEC
  0
EOF
