  0
SECTION
  2
HEADER
  9
$ACADVER
  1
AC1009
  9
$INSBASE
 10
0.0
 20
0.0
 30
0.0
  9
$EXTMIN
 10
0.0
 20
0.0
 30
0.0
  9
$EXTMAX
 10
9450.0
 20
13275.0
 30
0.0
  9
$LIMMIN
 10
0.0
 20
0.0
  9
$LIMMAX
 10
297.0
 20
210.0
  9
$ORTHOMODE
 70
     0
  9
$REGENMODE
 70
     1
  9
$FILLMODE
 70
     0
  9
$QTEXTMODE
 70
     0
  9
$MIRRTEXT
 70
     1
  9
$DRAGMODE
 70
     2
  9
$LTSCALE
 40
100.0
  9
$OSMODE
 70
   545
  9
$ATTMODE
 70
     1
  9
$TEXTSIZE
 40
180.0
  9
$TRACEWID
 40
0.05
  9
$TEXTSTYLE
  7
STANDARD
  9
$CLAYER
  8
3
  9
$CELTYPE
  6
BYLAYER
  9
$CECOLOR
 62
   256
  9
$DIMSCALE
 40
45.0
  9
$DIMASZ
 40
2.0
  9
$DIMEXO
 40
0.5
  9
$DIMDLI
 40
10.0
  9
$DIMRND
 40
0.0
  9
$DIMDLE
 40
0.0
  9
$DIMEXE
 40
1.0
  9
$DIMTP
 40
1.0
  9
$DIMTM
 40
1.0
  9
$DIMTXT
 40
3.0
  9
$DIMCEN
 40
0.0
  9
$DIMTSZ
 40
0.0
  9
$DIMTOL
 70
     0
  9
$DIMLIM
 70
     0
  9
$DIMTIH
 70
     0
  9
$DIMTOH
 70
     0
  9
$DIMSE1
 70
     0
  9
$DIMSE2
 70
     0
  9
$DIMTAD
 70
     1
  9
$DIMZIN
 70
     8
  9
$DIMBLK
  1

  9
$DIMASO
 70
     1
  9
$DIMSHO
 70
     1
  9
$DIMPOST
  1

  9
$DIMAPOST
  1

  9
$DIMALT
 70
     0
  9
$DIMALTD
 70
     2
  9
$DIMALTF
 40
0.039
  9
$DIMLFAC
 40
1.0
  9
$DIMTOFL
 70
     1
  9
$DIMTVP
 40
0.0
  9
$DIMTIX
 70
     0
  9
$DIMSOXD
 70
     0
  9
$DIMSAH
 70
     1
  9
$DIMBLK1
  1
OPEN
  9
$DIMBLK2
  1
OPEN
  9
$DIMSTYLE
  2
IGA
  9
$DIMCLRD
 70
     0
  9
$DIMCLRE
 70
     0
  9
$DIMCLRT
 70
     0
  9
$DIMTFAC
 40
10.0
  9
$DIMGAP
 40
1.0
  9
$LUNITS
 70
     2
  9
$LUPREC
 70
     3
  9
$SKETCHINC
 40
0.1
  9
$FILLETRAD
 40
50.0
  9
$AUNITS
 70
     0
  9
$AUPREC
 70
     0
  9
$MENU
  1
acad
  9
$ELEVATION
 40
0.0
  9
$PELEVATION
 40
0.0
  9
$THICKNESS
 40
0.0
  9
$LIMCHECK
 70
     0
  9
$BLIPMODE
 70
     0
  9
$CHAMFERA
 40
0.5
  9
$CHAMFERB
 40
0.5
  9
$SKPOLY
 70
     0
  9
$TDCREATE
 40
2451488.582959028
  9
$TDUPDATE
 40
2455013.7303445018
  9
$TDINDWG
 40
0.018042419
  9
$TDUSRTIMER
 40
0.018042419
  9
$USRTIMER
 70
     1
  9
$ANGBASE
 50
0.0
  9
$ANGDIR
 70
     0
  9
$PDMODE
 70
     0
  9
$PDSIZE
 40
0.0
  9
$PLINEWID
 40
0.0
  9
$COORDS
 70
     2
  9
$SPLFRAME
 70
     0
  9
$SPLINETYPE
 70
     6
  9
$SPLINESEGS
 70
     8
  9
$ATTDIA
 70
     0
  9
$ATTREQ
 70
     1
  9
$HANDLING
 70
 22529
  9
$HANDSEED
  5
81A6
  9
$SURFTAB1
 70
     6
  9
$SURFTAB2
 70
     6
  9
$SURFTYPE
 70
     6
  9
$SURFU
 70
     6
  9
$SURFV
 70
     6
  9
$UCSNAME
  2

  9
$UCSORG
 10
0.0
 20
0.0
 30
0.0
  9
$UCSXDIR
 10
1.0
 20
0.0
 30
0.0
  9
$UCSYDIR
 10
0.0
 20
1.0
 30
0.0
  9
$PUCSNAME
  2

  9
$PUCSORG
 10
0.0
 20
0.0
 30
0.0
  9
$PUCSXDIR
 10
1.0
 20
0.0
 30
0.0
  9
$PUCSYDIR
 10
0.0
 20
1.0
 30
0.0
  9
$USERI1
 70
     0
  9
$USERI2
 70
     0
  9
$USERI3
 70
     0
  9
$USERI4
 70
     0
  9
$USERI5
 70
     0
  9
$USERR1
 40
0.0
  9
$USERR2
 40
0.0
  9
$USERR3
 40
0.0
  9
$USERR4
 40
0.0
  9
$USERR5
 40
0.0
  9
$WORLDVIEW
 70
     1
  9
$SHADEDGE
 70
     3
  9
$SHADEDIF
 70
    70
  9
$TILEMODE
 70
     1
  9
$MAXACTVP
 70
    16
  9
$PLIMCHECK
 70
     0
  9
$PEXTMIN
 10
1.0000000000000000E+020
 20
1.0000000000000000E+020
 30
1.0000000000000000E+020
  9
$PEXTMAX
 10
-1.0000000000000000E+020
 20
-1.0000000000000000E+020
 30
-1.0000000000000000E+020
  9
$PLIMMIN
 10
0.0
 20
0.0
  9
$PLIMMAX
 10
12.0
 20
9.0
  9
$UNITMODE
 70
     0
  9
$VISRETAIN
 70
     0
  9
$PLINEGEN
 70
     0
  9
$PSLTSCALE
 70
     1
  0
ENDSEC
  0
SECTION
  2
TABLES
  0
TABLE
  2
VPORT
 70
     2
  0
VPORT
  2
*ACTIVE
 70
     0
 10
0.0
 20
0.0
 11
1.0
 21
1.0
 12
5642.2139554681344
 22
6637.5000309082689
 13
0.0
 23
0.0
 14
10.0
 24
10.0
 15
10.0
 25
10.0
 16
0.0
 26
0.0
 36
1.0
 17
0.0
 27
0.0
 37
0.0
 40
13376.766973576199
 41
1.6307901907356941
 42
50.0
 43
0.0
 44
0.0
 50
0.0
 51
0.0
 71
     0
 72
   100
 73
     1
 74
     0
 75
     0
 76
     0
 77
     0
 78
     0
  0
ENDTAB
  0
TABLE
  2
LTYPE
 70
     2
  0
LTYPE
  2
CONTINUOUS
 70
     0
  3
Solid line
 72
    65
 73
     0
 40
0.0
  0
LTYPE
  2
CENTER
 70
     0
  3
____ _ ____ _ ____ _ ____ _ ____ _ ____ _ ____ 
 72
    65
 73
     4
 40
2.0
 49
1.25
 49
-0.25
 49
0.25
 49
-0.25
  0
ENDTAB
  0
TABLE
  2
LAYER
 70
     6
  0
LAYER
  2
0
 70
     0
 62
     7
  6
CONTINUOUS
  0
LAYER
  2
3
 70
     0
 62
     2
  6
CONTINUOUS
  0
LAYER
  2
2
 70
     0
 62
     3
  6
CENTER
  0
LAYER
  2
1
 70
     0
 62
     4
  6
CONTINUOUS
  0
LAYER
  2
4
 70
     0
 62
     7
  6
CONTINUOUS
  0
LAYER
  2
DEFPOINTS
 70
     0
 62
     7
  6
CONTINUOUS
  0
ENDTAB
  0
TABLE
  2
STYLE
 70
     1
  0
STYLE
  2
STANDARD
 70
     0
 40
0.0
 41
1.0
 50
0.0
 71
     0
 42
180.0
  3
simplex.shx
  4
extfont.shx
  0
ENDTAB
  0
TABLE
  2
VIEW
 70
     0
  0
ENDTAB
  0
TABLE
  2
UCS
 70
     0
  0
ENDTAB
  0
TABLE
  2
APPID
 70
     1
  0
APPID
  2
ACAD
 70
     0
  0
ENDTAB
  0
TABLE
  2
DIMSTYLE
 70
     2
  0
DIMSTYLE
  2
IGA
 70
     0
  3

  4

  5

  6
OPEN
  7
OPEN
 40
2.0
 41
2.0
 42
0.5
 43
10.0
 44
1.0
 45
0.0
 46
0.0
 47
1.0
 48
1.0
140
3.0
141
0.0
142
0.0
143
0.03937
144
1.0
145
0.0
146
10.0
147
1.0
 71
     0
 72
     0
 73
     0
 74
     0
 75
     0
 76
     0
 77
     1
 78
     8
170
     0
171
     2
172
     0
173
     1
174
     0
175
     0
176
     0
177
     0
178
     0
  0
DIMSTYLE
  2
MATSU
 70
     0
  3

  4

  5

  6
OPEN
  7
OPEN
 40
1.0
 41
2.0
 42
1.0
 43
10.0
 44
1.0
 45
0.0
 46
0.0
 47
0.0
 48
0.0
140
3.0
141
0.0
142
0.0
143
0.03937
144
1.0
145
0.0
146
1.0
147
0.5
 71
     0
 72
     0
 73
     0
 74
     0
 75
     0
 76
     0
 77
     1
 78
     8
170
     0
171
     2
172
     1
173
     1
174
     0
175
     0
176
   256
177
   256
178
   256
  0
ENDTAB
  0
ENDSEC
  0
SECTION
  2
BLOCKS
  0
BLOCK
  8
0
  2
$MODEL_SPACE
 70
     0
 10
0.0
 20
0.0
 30
0.0
  3
$MODEL_SPACE
  1

  0
ENDBLK
  5
1B
  8
0
  0
BLOCK
 67
     1
  8
0
  2
$PAPER_SPACE
 70
     0
 10
0.0
 20
0.0
 30
0.0
  3
$PAPER_SPACE
  1

  0
ENDBLK
  5
18
 67
     1
  8
0
  0
BLOCK
  8
0
  2
_OPEN
 70
     0
 10
0.0
 20
0.0
 30
0.0
  3
_OPEN
  1

  0
LINE
  5
79FD
  8
0
  6
BYBLOCK
 62
     0
 10
-1.0
 20
0.1666666666666666
 30
0.0
 11
0.0
 21
0.0
 31
0.0
  0
LINE
  5
79FE
  8
0
  6
BYBLOCK
 62
     0
 10
0.0
 20
0.0
 30
0.0
 11
-1.0
 21
-0.1666666666666666
 31
0.0
  0
LINE
  5
79FF
  8
0
  6
BYBLOCK
 62
     0
 10
0.0
 20
0.0
 30
0.0
 11
-1.0
 21
0.0
 31
0.0
  0
ENDBLK
  5
7A01
  8
0
  0
BLOCK
  8
0
  2
YA_N
 70
     0
 10
0.0
 20
0.0
 30
0.0
  3
YA_N
  1

  0
ENDBLK
  5
7A0C
  8
0
  0
BLOCK
  8
0
  2
*D2
 70
     1
 10
0.0
 20
0.0
 30
0.0
  3
*D2
  1

  0
LINE
  5
7E5D
  8
0
  6
BYBLOCK
 10
7204.1287112898717
 20
2292.28678518372
 30
0.0
 11
7759.1920613797993
 21
2292.28678518372
 31
0.0
  0
LINE
  5
7E5E
  8
0
  6
BYBLOCK
 10
7204.1287112898717
 20
692.28778518372019
 30
0.0
 11
7759.1920613797993
 21
692.28778518372019
 31
0.0
  0
LINE
  5
7E5F
  8
0
  6
BYBLOCK
 10
7719.1920613797993
 20
2212.28678518372
 30
0.0
 11
7719.1920613797993
 21
772.28778518372019
 31
0.0
  0
INSERT
  5
7E60
  8
0
  6
BYBLOCK
  2
_OPEN
 10
7719.1920613797993
 20
2292.28678518372
 30
0.0
 41
80.0
 42
80.0
 43
80.0
 50
90.0
  0
INSERT
  5
7E61
  8
0
  6
BYBLOCK
  2
_OPEN
 10
7719.1920613797993
 20
692.28778518372019
 30
0.0
 41
80.0
 42
80.0
 43
80.0
 50
270.0
  0
TEXT
  5
7E62
  8
3
 10
7699.1920613798002
 20
1232.2872851837201
 30
0.0
 40
120.0
  1
φ1600
 50
90.0
  0
POINT
  5
7E63
  8
DEFPOINTS
  6
BYBLOCK
 62
     0
 10
7164.1287112898726
 20
2292.28678518372
 30
0.0
  0
POINT
  5
7E64
  8
DEFPOINTS
  6
BYBLOCK
 62
     0
 10
7164.1287112898726
 20
692.28778518372019
 30
0.0
  0
POINT
  5
7E65
  8
DEFPOINTS
  6
BYBLOCK
 62
     0
 10
7719.1920613797993
 20
692.28778518372019
 30
0.0
  0
ENDBLK
  5
7E66
  8
0
  0
BLOCK
  8
0
  2
*D3
 70
     1
 10
0.0
 20
0.0
 30
0.0
  3
*D3
  1

  0
LINE
  5
7E68
  8
0
  6
BYBLOCK
 10
6440.1247112898718
 20
3557.7131164811808
 30
0.0
 11
6440.1247112898718
 21
3675.2509008648331
 31
0.0
  0
LINE
  5
7E69
  8
0
  6
BYBLOCK
 10
7164.1287112898726
 20
2397.28678518372
 30
0.0
 11
7164.1287112898726
 21
3675.2509008648331
 31
0.0
  0
LINE
  5
7E6A
  8
0
  6
BYBLOCK
 10
6520.1247112898709
 20
3635.250900864834
 30
0.0
 11
7084.1287112898708
 21
3635.250900864834
 31
0.0
  0
INSERT
  5
7E6B
  8
0
  6
BYBLOCK
  2
_OPEN
 10
6440.1247112898718
 20
3635.250900864834
 30
0.0
 41
80.0
 42
80.0
 43
80.0
 50
180.0
  0
INSERT
  5
7E6C
  8
0
  6
BYBLOCK
  2
_OPEN
 10
7164.1287112898726
 20
3635.250900864834
 30
0.0
 41
80.0
 42
80.0
 43
80.0
  0
TEXT
  5
7E6D
  8
3
 10
6641.9447680017875
 20
3655.250900864834
 30
0.0
 40
120.0
  1
725
  0
POINT
  5
7E6E
  8
DEFPOINTS
  6
BYBLOCK
 62
     0
 10
6440.1247112898718
 20
3517.7131164811822
 30
0.0
  0
POINT
  5
7E6F
  8
DEFPOINTS
  6
BYBLOCK
 62
     0
 10
7164.1287112898726
 20
2357.28678518372
 30
0.0
  0
POINT
  5
7E70
  8
DEFPOINTS
  6
BYBLOCK
 62
     0
 10
7164.1287112898726
 20
3635.250900864834
 30
0.0
  0
ENDBLK
  5
7E71
  8
0
  0
BLOCK
  8
0
  2
*D4
 70
     1
 10
0.0
 20
0.0
 30
0.0
  3
*D4
  1

  0
LINE
  5
7E73
  8
0
  6
BYBLOCK
 10
2606.3792992200611
 20
3397.1035041817231
 30
0.0
 11
2606.3792992200611
 21
3593.2582673875149
 31
0.0
  0
LINE
  5
7E74
  8
0
  6
BYBLOCK
 10
1561.3792992200611
 20
3292.2917577096991
 30
0.0
 11
1561.3792992200611
 21
3593.2582673875149
 31
0.0
  0
LINE
  5
7E75
  8
0
  6
BYBLOCK
 10
2526.3792992200611
 20
3553.258267387514
 30
0.0
 11
1641.3792992200611
 21
3553.258267387514
 31
0.0
  0
INSERT
  5
7E76
  8
0
  6
BYBLOCK
  2
_OPEN
 10
2606.3792992200611
 20
3553.258267387514
 30
0.0
 41
80.0
 42
80.0
 43
80.0
  0
INSERT
  5
7E77
  8
0
  6
BYBLOCK
  2
_OPEN
 10
1561.3792992200611
 20
3553.258267387514
 30
0.0
 41
80.0
 42
80.0
 43
80.0
 50
180.0
  0
TEXT
  5
7E78
  8
3
 10
1883.8792992200611
 20
3573.2582673875149
 30
0.0
 40
120.0
  1
1045
  0
POINT
  5
7E79
  8
DEFPOINTS
  6
BYBLOCK
 62
     0
 10
2606.3792992200611
 20
3357.1035041817231
 30
0.0
  0
POINT
  5
7E7A
  8
DEFPOINTS
  6
BYBLOCK
 62
     0
 10
1561.3792992200611
 20
3252.2917577096991
 30
0.0
  0
POINT
  5
7E7B
  8
DEFPOINTS
  6
BYBLOCK
 62
     0
 10
1561.3792992200611
 20
3553.258267387514
 30
0.0
  0
ENDBLK
  5
7E7C
  8
0
  0
BLOCK
  8
0
  2
*D5
 70
     1
 10
0.0
 20
0.0
 30
0.0
  3
*D5
  1

  0
LINE
  5
814C
  8
3
 10
4754.0362144370883
 20
4493.9090741128721
 30
0.0
 11
4754.0362144370883
 21
6438.8765837906867
 31
0.0
  0
LINE
  5
814D
  8
3
 10
3463.0362144370879
 20
6398.8765837906867
 30
0.0
 11
4674.0362144370883
 21
6398.8765837906867
 31
0.0
  0
INSERT
  5
814E
  8
3
  2
_OPEN
 10
3383.0362144370879
 20
6398.8765837906867
 30
0.0
 41
80.0
 42
80.0
 43
80.0
 50
180.0
  0
INSERT
  5
814F
  8
3
  2
_OPEN
 10
4754.0362144370883
 20
6398.8765837906867
 30
0.0
 41
80.0
 42
80.0
 43
80.0
  0
TEXT
  8
3
  40
120
  5
819C
  72
0
  71
0
 10
3828.54
 20
6266.48
 30
0.000000
  1
1371
  0
POINT
  5
8151
  8
DEFPOINTS
 62
     0
 10
3383.0362144370879
 20
6202.7218205848949
 30
0.0
  0
POINT
  5
8152
  8
DEFPOINTS
 62
     0
 10
4754.0362144370883
 20
4453.9090741128721
 30
0.0
  0
POINT
  5
8153
  8
DEFPOINTS
 62
     0
 10
4754.0362144370883
 20
6398.8765837906867
 30
0.0
  0
ENDBLK
  5
7E86
  8
0
  0
BLOCK
  8
0
  2
*D6
 70
     1
 10
0.0
 20
0.0
 30
0.0
  3
*D6
  1

  0
LINE
  5
7EA8
  8
0
  6
BYBLOCK
 10
1521.3792992200611
 20
3187.2917577096991
 30
0.0
 11
1157.9291465131171
 21
3187.2917577096991
 31
0.0
  0
LINE
  5
7EA9
  8
0
  6
BYBLOCK
 10
1521.3792992200611
 20
1537.2917577097001
 30
0.0
 11
1157.9291465131171
 21
1537.2917577097001
 31
0.0
  0
LINE
  5
7EAA
  8
0
  6
BYBLOCK
 10
1197.9291465131171
 20
3107.2917577096991
 30
0.0
 11
1197.9291465131171
 21
1617.2917577097001
 31
0.0
  0
INSERT
  5
7EAB
  8
0
  6
BYBLOCK
  2
_OPEN
 10
1197.9291465131171
 20
3187.2917577096991
 30
0.0
 41
80.0
 42
80.0
 43
80.0
 50
90.0
  0
INSERT
  5
7EAC
  8
0
  6
BYBLOCK
  2
_OPEN
 10
1197.9291465131171
 20
1537.2917577097001
 30
0.0
 41
80.0
 42
80.0
 43
80.0
 50
270.0
  0
TEXT
  5
7EAD
  8
3
 10
1177.9291465131171
 20
2162.2917577097001
 30
0.0
 40
120.0
  1
1650
 50
90.0
  0
POINT
  5
7EAE
  8
DEFPOINTS
  6
BYBLOCK
 62
     0
 10
1561.3792992200611
 20
3187.2917577096991
 30
0.0
  0
POINT
  5
7EAF
  8
DEFPOINTS
  6
BYBLOCK
 62
     0
 10
1561.3792992200611
 20
1537.2917577097001
 30
0.0
  0
POINT
  5
7EB0
  8
DEFPOINTS
  6
BYBLOCK
 62
     0
 10
1197.9291465131171
 20
1537.2917577097001
 30
0.0
  0
ENDBLK
  5
7EB1
  8
0
  0
BLOCK
  8
0
  2
*D7
 70
     1
 10
0.0
 20
0.0
 30
0.0
  3
*D7
  1

  0
LINE
  5
7EB3
  8
0
  6
BYBLOCK
 10
1521.3792992200611
 20
3187.2907577096998
 30
0.0
 11
912.55269984607719
 21
3187.2907577096998
 31
0.0
  0
LINE
  5
7EB4
  8
0
  6
BYBLOCK
 10
1403.3055931801571
 20
1492.2907577097001
 30
0.0
 11
912.55269984607719
 21
1492.2907577097001
 31
0.0
  0
LINE
  5
7EB5
  8
0
  6
BYBLOCK
 10
952.55269984607719
 20
3107.2907577096998
 30
0.0
 11
952.55269984607719
 21
1572.2907577097001
 31
0.0
  0
INSERT
  5
7EB6
  8
0
  6
BYBLOCK
  2
_OPEN
 10
952.55269984607719
 20
3187.2907577096998
 30
0.0
 41
80.0
 42
80.0
 43
80.0
 50
90.0
  0
INSERT
  5
7EB7
  8
0
  6
BYBLOCK
  2
_OPEN
 10
952.55269984607719
 20
1492.2907577097001
 30
0.0
 41
80.0
 42
80.0
 43
80.0
 50
270.0
  0
TEXT
  5
7EB8
  8
3
 10
932.5526998460773
 20
2139.7907577096998
 30
0.0
 40
120.0
  1
1695
 50
90.0
  0
POINT
  5
7EB9
  8
DEFPOINTS
  6
BYBLOCK
 62
     0
 10
1561.3792992200611
 20
3187.2907577096998
 30
0.0
  0
POINT
  5
7EBA
  8
DEFPOINTS
  6
BYBLOCK
 62
     0
 10
1443.3055931801571
 20
1492.2907577097001
 30
0.0
  0
POINT
  5
7EBB
  8
DEFPOINTS
  6
BYBLOCK
 62
     0
 10
952.55269984607719
 20
1492.2907577097001
 30
0.0
  0
ENDBLK
  5
7EBC
  8
0
  0
BLOCK
  8
0
  2
*D8
 70
     1
 10
0.0
 20
0.0
 30
0.0
  3
*D8
  1

  0
LINE
  5
8154
  8
3
 10
2393.0362144370811
 20
3167.9090741128712
 30
0.0
 11
1689.2096150631039
 21
3167.9090741128712
 31
0.0
  0
LINE
  5
8155
  8
3
 10
1729.2096150631039
 20
4257.9090741128721
 30
0.0
 11
1729.2096150631039
 21
3247.9090741128712
 31
0.0
  0
INSERT
  5
8156
  8
3
  2
_OPEN
 10
1729.2096150631039
 20
4337.9090741128721
 30
0.0
 41
80.0
 42
80.0
 43
80.0
 50
90.0
  0
INSERT
  5
8157
  8
3
  2
_OPEN
 10
1729.2096150631039
 20
3167.9090741128712
 30
0.0
 41
80.0
 42
80.0
 43
80.0
 50
270.0
  0
TEXT
  8
3
  40
120
  5
819D
  72
0
  71
0
 10
1409.21
 20
3540.51
 30
0.000000
  1
1170
  0
POINT
  5
8159
  8
DEFPOINTS
 62
     0
 10
2219.9625083971841
 20
4337.9090741128721
 30
0.0
  0
POINT
  5
815A
  8
DEFPOINTS
 62
     0
 10
2433.0362144370802
 20
3167.9090741128712
 30
0.0
  0
POINT
  5
815B
  8
DEFPOINTS
 62
     0
 10
1729.2096150631039
 20
3167.9090741128712
 30
0.0
  0
ENDBLK
  5
7EC6
  8
0
  0
BLOCK
  8
0
  2
*D9
 70
     1
 10
0.0
 20
0.0
 30
0.0
  3
*D9
  1

  0
LINE
  5
7EEC
  8
0
  6
BYBLOCK
 10
1561.3792992200611
 20
3332.2917577096991
 30
0.0
 11
1561.3792992200611
 21
3862.2020318185641
 31
0.0
  0
LINE
  5
7EED
  8
0
  6
BYBLOCK
 10
4756.3792992200606
 20
512.28875770905461
 30
0.0
 11
4756.3792992200606
 21
3862.2020318185641
 31
0.0
  0
LINE
  5
7EEE
  8
0
  6
BYBLOCK
 10
1641.3792992200611
 20
3822.2020318185641
 30
0.0
 11
4676.3792992200606
 21
3822.2020318185641
 31
0.0
  0
INSERT
  5
7EEF
  8
0
  6
BYBLOCK
  2
_OPEN
 10
1561.3792992200611
 20
3822.2020318185641
 30
0.0
 41
80.0
 42
80.0
 43
80.0
 50
180.0
  0
INSERT
  5
7EF0
  8
0
  6
BYBLOCK
  2
_OPEN
 10
4756.3792992200606
 20
3822.2020318185641
 30
0.0
 41
80.0
 42
80.0
 43
80.0
  0
TEXT
  5
7EF1
  8
3
 10
2958.8792992200611
 20
3842.2020318185641
 30
0.0
 40
120.0
  1
3195
  0
POINT
  5
7EF2
  8
DEFPOINTS
  6
BYBLOCK
 62
     0
 10
1561.3792992200611
 20
3292.2917577096991
 30
0.0
  0
POINT
  5
7EF3
  8
DEFPOINTS
  6
BYBLOCK
 62
     0
 10
4756.3792992200606
 20
472.28875770905461
 30
0.0
  0
POINT
  5
7EF4
  8
DEFPOINTS
  6
BYBLOCK
 62
     0
 10
4756.3792992200606
 20
3822.2020318185641
 30
0.0
  0
ENDBLK
  5
7EF5
  8
0
  0
BLOCK
  8
0
  2
*D10
 70
     1
 10
0.0
 20
0.0
 30
0.0
  3
*D10
  1

  0
LINE
  5
7EF7
  8
0
  6
BYBLOCK
 10
5850.1247112898709
 20
3227.2907851837208
 30
0.0
 11
5850.1247112898709
 21
3382.9924424027549
 31
0.0
  0
LINE
  5
7EF8
  8
0
  6
BYBLOCK
 10
7030.1247112898782
 20
3227.2907851837222
 30
0.0
 11
7030.1247112898782
 21
3382.9924424027549
 31
0.0
  0
LINE
  5
7EF9
  8
0
  6
BYBLOCK
 10
5930.12471128987
 20
3342.9924424027558
 30
0.0
 11
6950.1247112898782
 21
3342.9924424027558
 31
0.0
  0
INSERT
  5
7EFA
  8
0
  6
BYBLOCK
  2
_OPEN
 10
5850.1247112898709
 20
3342.9924424027558
 30
0.0
 41
80.0
 42
80.0
 43
80.0
 50
180.0
  0
INSERT
  5
7EFB
  8
0
  6
BYBLOCK
  2
_OPEN
 10
7030.1247112898782
 20
3342.9924424027558
 30
0.0
 41
80.0
 42
80.0
 43
80.0
  0
TEXT
  5
7EFC
  8
3
 10
6251.553282718447
 20
3362.9924424027549
 30
0.0
 40
120.0
  1
1180
  0
POINT
  5
7EFD
  8
DEFPOINTS
  6
BYBLOCK
 62
     0
 10
5850.1247112898709
 20
3187.2907851837208
 30
0.0
  0
POINT
  5
7EFE
  8
DEFPOINTS
  6
BYBLOCK
 62
     0
 10
7030.1247112898782
 20
3187.2907851837222
 30
0.0
  0
POINT
  5
7EFF
  8
DEFPOINTS
  6
BYBLOCK
 62
     0
 10
7030.1247112898782
 20
3342.9924424027558
 30
0.0
  0
ENDBLK
  5
7F00
  8
0
  0
BLOCK
  8
0
  2
*D11
 70
     1
 10
0.0
 20
0.0
 30
0.0
  3
*D11
  1

  0
LINE
  5
815C
  8
3
 10
6236.7816265068977
 20
4857.9091015868917
 30
0.0
 11
6236.7816265068977
 21
6520.8692172680057
 31
0.0
  0
LINE
  5
815D
  8
3
 10
7136.7816265068977
 20
6480.8692172680048
 30
0.0
 11
6316.7816265068977
 21
6480.8692172680048
 31
0.0
  0
INSERT
  5
815E
  8
3
  2
_OPEN
 10
7216.7816265068977
 20
6480.8692172680048
 30
0.0
 41
80.0
 42
80.0
 43
80.0
  0
INSERT
  5
815F
  8
3
  2
_OPEN
 10
6236.7816265068977
 20
6480.8692172680048
 30
0.0
 41
80.0
 42
80.0
 43
80.0
 50
180.0
  0
TEXT
  8
3
  40
120
  5
819E
  72
0
  71
0
 10
6486.78
 20
6448.47
 30
0.000000
  1
MAX
  0
TEXT
  8
3
  40
120
  5
819F
  72
0
  71
0
 10
6486.78
 20
6292.47
 30
0.000000
  1
1080
  0
POINT
  5
8161
  8
DEFPOINTS
 62
     0
 10
7216.7816265068977
 20
6363.3314328843544
 30
0.0
  0
POINT
  5
8162
  8
DEFPOINTS
 62
     0
 10
6236.7816265068977
 20
4817.9091015868917
 30
0.0
  0
POINT
  5
8163
  8
DEFPOINTS
 62
     0
 10
6236.7816265068977
 20
6480.8692172680048
 30
0.0
  0
ENDBLK
  5
80DA
  8
0
  0
BLOCK
  8
0
  2
*D12
 70
     1
 10
0.0
 20
0.0
 30
0.0
  3
*D12
  1

  0
LINE
  5
7F2C
  8
0
  6
BYBLOCK
 10
4756.3792992200606
 20
7069.4539627801478
 30
0.0
 11
4756.3792992200606
 21
7845.7706054835144
 31
0.0
  0
LINE
  5
7F2D
  8
0
  6
BYBLOCK
 10
3556.3792992200611
 20
7569.4539627801496
 30
0.0
 11
3556.3792992200611
 21
7845.7706054835144
 31
0.0
  0
LINE
  5
7F2E
  8
0
  6
BYBLOCK
 10
4676.3792992200606
 20
7805.7706054835153
 30
0.0
 11
3636.3792992200611
 21
7805.7706054835153
 31
0.0
  0
INSERT
  5
7F2F
  8
0
  6
BYBLOCK
  2
_OPEN
 10
4756.3792992200606
 20
7805.7706054835153
 30
0.0
 41
80.0
 42
80.0
 43
80.0
  0
INSERT
  5
7F30
  8
0
  6
BYBLOCK
  2
_OPEN
 10
3556.3792992200611
 20
7805.7706054835153
 30
0.0
 41
80.0
 42
80.0
 43
80.0
 50
180.0
  0
TEXT
  5
7F31
  8
3
 10
3956.379299220062
 20
7825.7706054835144
 30
0.0
 40
120.0
  1
1200
  0
POINT
  5
7F32
  8
DEFPOINTS
  6
BYBLOCK
 62
     0
 10
4756.3792992200606
 20
7029.4539627801487
 30
0.0
  0
POINT
  5
7F33
  8
DEFPOINTS
  6
BYBLOCK
 62
     0
 10
3556.3792992200611
 20
7529.4539627801496
 30
0.0
  0
POINT
  5
7F34
  8
DEFPOINTS
  6
BYBLOCK
 62
     0
 10
3556.3792992200611
 20
7805.7706054835153
 30
0.0
  0
ENDBLK
  5
7F35
  8
0
  0
BLOCK
  8
0
  2
*D13
 70
     1
 10
0.0
 20
0.0
 30
0.0
  3
*D13
  1

  0
LINE
  5
8164
  8
3
 10
2433.0362144370879
 20
9361.1025121432504
 30
0.0
 11
2433.0362144370879
 21
9637.4191548466151
 31
0.0
  0
LINE
  5
8165
  8
3
 10
4253.0362144370883
 20
9597.4191548466151
 30
0.0
 11
2513.0362144370879
 21
9597.4191548466151
 31
0.0
  0
INSERT
  5
8166
  8
3
  2
_OPEN
 10
4333.0362144370893
 20
9597.4191548466151
 30
0.0
 41
80.0
 42
80.0
 43
80.0
  0
INSERT
  5
8167
  8
3
  2
_OPEN
 10
2433.0362144370879
 20
9597.4191548466151
 30
0.0
 41
80.0
 42
80.0
 43
80.0
 50
180.0
  0
TEXT
  8
3
  40
120
  5
81A0
  72
0
  71
0
 10
3143.04
 20
9465.02
 30
0.000000
  1
1900
  0
POINT
  5
8169
  8
DEFPOINTS
 62
     0
 10
4333.0362144370893
 20
9321.1025121432504
 30
0.0
  0
POINT
  5
816A
  8
DEFPOINTS
 62
     0
 10
2433.0362144370879
 20
9321.1025121432504
 30
0.0
  0
POINT
  5
816B
  8
DEFPOINTS
 62
     0
 10
2433.0362144370879
 20
9597.4191548466151
 30
0.0
  0
ENDBLK
  5
7F3F
  8
0
  0
BLOCK
  8
0
  2
*D14
 70
     1
 10
0.0
 20
0.0
 30
0.0
  3
*D14
  1

  0
LINE
  5
7F41
  8
0
  6
BYBLOCK
 10
4796.3792992200624
 20
7029.4539627801487
 30
0.0
 11
5134.0853318123854
 21
7029.4539627801487
 31
0.0
  0
LINE
  5
7F42
  8
0
  6
BYBLOCK
 10
4796.3792992200624
 20
5929.4539627801469
 30
0.0
 11
5134.0853318123854
 21
5929.4539627801469
 31
0.0
  0
LINE
  5
7F43
  8
0
  6
BYBLOCK
 10
5094.0853318123854
 20
6949.4539627801469
 30
0.0
 11
5094.0853318123854
 21
6009.4539627801478
 31
0.0
  0
INSERT
  5
7F44
  8
0
  6
BYBLOCK
  2
_OPEN
 10
5094.0853318123854
 20
7029.4539627801487
 30
0.0
 41
80.0
 42
80.0
 43
80.0
 50
90.0
  0
INSERT
  5
7F45
  8
0
  6
BYBLOCK
  2
_OPEN
 10
5094.0853318123854
 20
5929.4539627801469
 30
0.0
 41
80.0
 42
80.0
 43
80.0
 50
270.0
  0
TEXT
  5
7F46
  8
3
 10
5074.0853318123836
 20
6290.8825342087193
 30
0.0
 40
120.0
  1
1100
 50
90.0
  0
POINT
  5
7F47
  8
DEFPOINTS
  6
BYBLOCK
 62
     0
 10
4756.3792992200606
 20
7029.4539627801487
 30
0.0
  0
POINT
  5
7F48
  8
DEFPOINTS
  6
BYBLOCK
 62
     0
 10
4756.3792992200606
 20
5929.4539627801469
 30
0.0
  0
POINT
  5
7F49
  8
DEFPOINTS
  6
BYBLOCK
 62
     0
 10
5094.0853318123854
 20
5929.4539627801469
 30
0.0
  0
ENDBLK
  5
7F4A
  8
0
  0
BLOCK
  8
0
  2
*D15
 70
     1
 10
0.0
 20
0.0
 30
0.0
  3
*D15
  1

  0
LINE
  5
7F4C
  8
0
  6
BYBLOCK
 10
1616.3792992200611
 20
7529.4539627801487
 30
0.0
 11
1186.4278922973019
 21
7529.4539627801487
 31
0.0
  0
LINE
  5
7F4D
  8
0
  6
BYBLOCK
 10
1616.3792992200611
 20
5929.4539627801469
 30
0.0
 11
1186.4278922973019
 21
5929.4539627801469
 31
0.0
  0
LINE
  5
7F4E
  8
0
  6
BYBLOCK
 10
1226.4278922973019
 20
7449.4539627801487
 30
0.0
 11
1226.4278922973019
 21
6009.4539627801478
 31
0.0
  0
INSERT
  5
7F4F
  8
0
  6
BYBLOCK
  2
_OPEN
 10
1226.4278922973019
 20
7529.4539627801487
 30
0.0
 41
80.0
 42
80.0
 43
80.0
 50
90.0
  0
INSERT
  5
7F50
  8
0
  6
BYBLOCK
  2
_OPEN
 10
1226.4278922973019
 20
5929.4539627801469
 30
0.0
 41
80.0
 42
80.0
 43
80.0
 50
270.0
  0
TEXT
  5
7F51
  8
3
 10
1206.4278922973019
 20
6529.4539627801487
 30
0.0
 40
120.0
  1
1600
 50
90.0
  0
POINT
  5
7F52
  8
DEFPOINTS
  6
BYBLOCK
 62
     0
 10
1656.3792992200611
 20
7529.4539627801487
 30
0.0
  0
POINT
  5
7F53
  8
DEFPOINTS
  6
BYBLOCK
 62
     0
 10
1656.3792992200611
 20
5929.4539627801469
 30
0.0
  0
POINT
  5
7F54
  8
DEFPOINTS
  6
BYBLOCK
 62
     0
 10
1226.4278922973019
 20
5929.4539627801469
 30
0.0
  0
ENDBLK
  5
7F55
  8
0
  0
BLOCK
  8
0
  2
*D16
 70
     1
 10
0.0
 20
0.0
 30
0.0
  3
*D16
  1

  0
LINE
  5
7F57
  8
0
  6
BYBLOCK
 10
4756.3792992200606
 20
5889.4539627801478
 30
0.0
 11
4756.3792992200606
 21
5406.4613947714133
 31
0.0
  0
LINE
  5
7F58
  8
0
  6
BYBLOCK
 10
1656.3792992200611
 20
5889.4539627801478
 30
0.0
 11
1656.3792992200611
 21
5406.4613947714133
 31
0.0
  0
LINE
  5
7F59
  8
0
  6
BYBLOCK
 10
4676.3792992200606
 20
5446.4613947714133
 30
0.0
 11
1736.3792992200611
 21
5446.4613947714133
 31
0.0
  0
INSERT
  5
7F5A
  8
0
  6
BYBLOCK
  2
_OPEN
 10
4756.3792992200606
 20
5446.4613947714133
 30
0.0
 41
80.0
 42
80.0
 43
80.0
  0
INSERT
  5
7F5B
  8
0
  6
BYBLOCK
  2
_OPEN
 10
1656.3792992200611
 20
5446.4613947714133
 30
0.0
 41
80.0
 42
80.0
 43
80.0
 50
180.0
  0
TEXT
  5
7F5C
  8
3
 10
3006.3792992200611
 20
5466.4613947714142
 30
0.0
 40
120.0
  1
3100
  0
POINT
  5
7F5D
  8
DEFPOINTS
  6
BYBLOCK
 62
     0
 10
4756.3792992200606
 20
5929.4539627801469
 30
0.0
  0
POINT
  5
7F5E
  8
DEFPOINTS
  6
BYBLOCK
 62
     0
 10
1656.3792992200611
 20
5929.4539627801469
 30
0.0
  0
POINT
  5
7F5F
  8
DEFPOINTS
  6
BYBLOCK
 62
     0
 10
1656.3792992200611
 20
5446.4613947714133
 30
0.0
  0
ENDBLK
  5
7F60
  8
0
  0
BLOCK
  8
0
  2
_DOT
 70
     0
 10
0.0
 20
0.0
 30
0.0
  3
_DOT
  1

  0
POLYLINE
  5
80C6
  8
0
  6
BYBLOCK
 62
     0
 66
     1
 10
0.0
 20
0.0
 30
0.0
 70
     1
 40
0.25
 41
0.25
  0
VERTEX
  5
816C
  8
0
  6
BYBLOCK
 62
     0
 10
-0.125
 20
0.0
 30
0.0
 42
1.0
  0
VERTEX
  5
816D
  8
0
  6
BYBLOCK
 62
     0
 10
0.125
 20
0.0
 30
0.0
 42
1.0
  0
SEQEND
  5
816E
  8
0
  6
BYBLOCK
 62
     0
  0
LINE
  5
80CA
  8
0
  6
BYBLOCK
 62
     0
 10
-0.25
 20
0.0
 30
0.0
 11
-1.0
 21
0.0
 31
0.0
  0
ENDBLK
  5
804E
  8
0
  0
BLOCK
  8
0
  2
*D18
 70
     1
 10
0.0
 20
0.0
 30
0.0
  3
*D18
  1

  0
LINE
  5
816F
  8
3
 62
     0
 10
2433.0362144370879
 20
3145.4090741128712
 30
0.0
 11
2433.0362144370879
 21
2838.3807982873332
 31
0.0
  0
LINE
  5
8170
  8
3
 62
     0
 10
3383.0362144370879
 20
3145.4084612094471
 30
0.0
 11
3383.0362144370879
 21
2838.3807982873332
 31
0.0
  0
LINE
  5
8171
  8
3
 62
     0
 10
2523.0362144370879
 20
2883.3807982873332
 30
0.0
 11
3293.0362144370879
 21
2883.3807982873332
 31
0.0
  0
INSERT
  5
8172
  8
3
 62
     0
  2
_OPEN
 10
2433.0362144370879
 20
2883.3807982873332
 30
0.0
 41
90.0
 42
90.0
 43
90.0
 50
180.0
  0
INSERT
  5
8173
  8
3
 62
     0
  2
_OPEN
 10
3383.0362144370879
 20
2883.3807982873332
 30
0.0
 41
90.0
 42
90.0
 43
90.0
  0
TEXT
  8
3
  40
135
  5
81A1
  62
0
  72
0
  71
0
 10
2638.04
 20
2756.93
 30
0.000000
  1
950
  0
POINT
  5
8175
  8
DEFPOINTS
 62
     0
 10
2433.0362144370879
 20
3167.9090741128712
 30
0.0
  0
POINT
  5
8176
  8
DEFPOINTS
 62
     0
 10
3383.0362144370879
 20
3167.9084612094471
 30
0.0
  0
POINT
  5
8177
  8
DEFPOINTS
 62
     0
 10
3383.0362144370879
 20
2883.3807982873332
 30
0.0
  0
ENDBLK
  5
80F6
  8
0
  0
BLOCK
  8
0
  2
*D19
 70
     1
 10
0.0
 20
0.0
 30
0.0
  3
*D19
  1

  0
LINE
  5
8178
  8
3
 62
     0
 10
3383.0362144370879
 20
3145.4084612094471
 30
0.0
 11
3383.0362144370879
 21
2838.3807982873332
 31
0.0
  0
LINE
  5
8179
  8
3
 62
     0
 10
5533.0362144370893
 20
3145.4070741122259
 30
0.0
 11
5533.0362144370893
 21
2838.3807982873332
 31
0.0
  0
LINE
  5
817A
  8
3
 62
     0
 10
3473.0362144370879
 20
2883.3807982873332
 30
0.0
 11
5443.0362144370883
 21
2883.3807982873332
 31
0.0
  0
INSERT
  5
817B
  8
3
 62
     0
  2
_OPEN
 10
3383.0362144370879
 20
2883.3807982873332
 30
0.0
 41
90.0
 42
90.0
 43
90.0
 50
180.0
  0
INSERT
  5
817C
  8
3
 62
     0
  2
_OPEN
 10
5533.0362144370893
 20
2883.3807982873332
 30
0.0
 41
90.0
 42
90.0
 43
90.0
  0
TEXT
  8
3
  40
135
  5
81A2
  62
0
  72
0
  71
0
 10
4188.04
 20
2756.93
 30
0.000000
  1
2150
  0
POINT
  5
817E
  8
DEFPOINTS
 62
     0
 10
3383.0362144370879
 20
3167.9084612094471
 30
0.0
  0
POINT
  5
817F
  8
DEFPOINTS
 62
     0
 10
5533.0362144370893
 20
3167.9070741122259
 30
0.0
  0
POINT
  5
8180
  8
DEFPOINTS
 62
     0
 10
5533.0362144370893
 20
2883.3807982873332
 30
0.0
  0
ENDBLK
  5
8103
  8
0
  0
BLOCK
  8
0
  2
*D20
 70
     1
 10
0.0
 20
0.0
 30
0.0
  3
*D20
  1

  0
LINE
  5
8181
  8
3
 62
     0
 10
6285.7816265068968
 20
3155.4071015862651
 30
0.0
 11
6285.7816265068968
 21
2838.3807982873332
 31
0.0
  0
LINE
  5
8182
  8
3
 62
     0
 10
7216.7816265068968
 20
3155.4065197116288
 30
0.0
 11
7216.7816265068968
 21
2838.3807982873332
 31
0.0
  0
LINE
  5
8183
  8
3
 62
     0
 10
6375.7816265068977
 20
2883.3807982873332
 30
0.0
 11
7126.7816265068968
 21
2883.3807982873332
 31
0.0
  0
INSERT
  5
8184
  8
3
 62
     0
  2
_OPEN
 10
6285.7816265068968
 20
2883.3807982873332
 30
0.0
 41
90.0
 42
90.0
 43
90.0
 50
180.0
  0
INSERT
  5
8185
  8
3
 62
     0
  2
_OPEN
 10
7216.7816265068968
 20
2883.3807982873332
 30
0.0
 41
90.0
 42
90.0
 43
90.0
  0
TEXT
  8
3
  40
135
  5
81A3
  62
0
  72
0
  71
0
 10
6481.28
 20
2756.93
 30
0.000000
  1
931
  0
POINT
  5
8187
  8
DEFPOINTS
 62
     0
 10
6285.7816265068968
 20
3177.9071015862651
 30
0.0
  0
POINT
  5
8188
  8
DEFPOINTS
 62
     0
 10
7216.7816265068968
 20
3177.9065197116288
 30
0.0
  0
POINT
  5
8189
  8
DEFPOINTS
 62
     0
 10
7216.7816265068968
 20
2883.3807982873332
 30
0.0
  0
ENDBLK
  5
8110
  8
0
  0
BLOCK
  8
0
  2
*D21
 70
     1
 10
0.0
 20
0.0
 30
0.0
  3
*D21
  1

  0
LINE
  5
818A
  8
3
 62
     0
 10
7216.7816265068968
 20
3155.4065197116288
 30
0.0
 11
7216.7816265068968
 21
2838.3807982873332
 31
0.0
  0
LINE
  5
818B
  8
3
 62
     0
 10
7885.7816265068968
 20
3155.406101586892
 30
0.0
 11
7885.7816265068968
 21
2838.3807982873332
 31
0.0
  0
LINE
  5
818C
  8
3
 62
     0
 10
7306.7816265068959
 20
2883.3807982873332
 30
0.0
 11
7795.7816265068977
 21
2883.3807982873332
 31
0.0
  0
INSERT
  5
818D
  8
3
 62
     0
  2
_OPEN
 10
7216.7816265068968
 20
2883.3807982873332
 30
0.0
 41
90.0
 42
90.0
 43
90.0
 50
180.0
  0
INSERT
  5
818E
  8
3
 62
     0
  2
_OPEN
 10
7885.7816265068968
 20
2883.3807982873332
 30
0.0
 41
90.0
 42
90.0
 43
90.0
  0
TEXT
  8
3
  40
135
  5
81A4
  62
0
  72
0
  71
0
 10
7281.28
 20
2756.93
 30
0.000000
  1
669
  0
POINT
  5
8190
  8
DEFPOINTS
 62
     0
 10
7216.7816265068968
 20
3177.9065197116288
 30
0.0
  0
POINT
  5
8191
  8
DEFPOINTS
 62
     0
 10
7885.7816265068968
 20
3177.9061015868911
 30
0.0
  0
POINT
  5
8192
  8
DEFPOINTS
 62
     0
 10
7885.7816265068968
 20
2883.3807982873332
 30
0.0
  0
ENDBLK
  5
811D
  8
0
  0
BLOCK
  8
0
  2
*D22
 70
     1
 10
0.0
 20
0.0
 30
0.0
  3
*D22
  1

  0
LINE
  5
8193
  8
3
 62
     0
 10
2315.5362144370879
 20
6032.9090741128721
 30
0.0
 11
1414.4454880828421
 21
6032.909074112873
 31
0.0
  0
LINE
  5
8194
  8
3
 62
     0
 10
2410.5362144370879
 20
3167.9090741128712
 30
0.0
 11
1414.4454880828409
 21
3167.9090741128712
 31
0.0
  0
LINE
  5
8195
  8
3
 62
     0
 10
1459.4454880828421
 20
5942.909074112873
 30
0.0
 11
1459.4454880828409
 21
3257.9090741128712
 31
0.0
  0
INSERT
  5
8196
  8
3
 62
     0
  2
_OPEN
 10
1459.4454880828421
 20
6032.909074112873
 30
0.0
 41
90.0
 42
90.0
 43
90.0
 50
90.0
  0
INSERT
  5
8197
  8
3
 62
     0
  2
_OPEN
 10
1459.4454880828409
 20
3167.9090741128712
 30
0.0
 41
90.0
 42
90.0
 43
90.0
 50
270.0
  0
TEXT
  8
3
  40
135
  5
81A5
  62
0
  72
0
  71
0
 10
1076.95
 20
4361.46
 30
0.000000
  1
2865
  0
POINT
  5
8199
  8
DEFPOINTS
 62
     0
 10
2338.0362144370879
 20
6032.9090741128721
 30
0.0
  0
POINT
  5
819A
  8
DEFPOINTS
 62
     0
 10
2433.0362144370879
 20
3167.9090741128712
 30
0.0
  0
POINT
  5
819B
  8
DEFPOINTS
 62
     0
 10
1459.4454880828409
 20
3167.9090741128712
 30
0.0
  0
ENDBLK
  5
812A
  8
0
  0
ENDSEC
  0
SECTION
  2
ENTITIES
  0
INSERT
  5
7C3F
  8
0
  2
YA_N
 10
-32176.294070665688
 20
2216.313965917906
 30
0.0
  0
LINE
  5
7C41
  8
1
 10
6426.7816265068968
 20
4817.9091015868917
 30
0.0
 11
6236.7816265068977
 21
4817.9091015868917
 31
0.0
  0
LINE
  5
7C42
  8
1
 10
6426.7807738080446
 20
3428.5941015868912
 30
0.0
 11
6236.7806265068939
 21
3428.5941015868912
 31
0.0
  0
LINE
  5
7C43
  8
1
 10
6236.7806265068939
 20
3428.5941015868912
 30
0.0
 11
6236.7816265068977
 21
4817.9091015868917
 31
0.0
  0
LINE
  5
7C44
  8
2
 10
6678.0733031501577
 20
3648.5941015868912
 30
0.0
 11
6194.0246265068999
 21
3648.5941015868912
 31
0.0
  0
LINE
  5
7C45
  8
1
 10
6286.7806265068939
 20
3498.5941015868912
 30
0.0
 11
6386.7806265068939
 21
3498.5941015868912
 31
0.0
  0
LINE
  5
7C46
  8
1
 10
6286.7806265068939
 20
3498.5941015868912
 30
0.0
 11
6286.7806265068939
 21
3798.5941015868912
 31
0.0
  0
LINE
  5
7C47
  8
1
 10
6386.7806265068939
 20
3498.5941015868912
 30
0.0
 11
6386.7806265068939
 21
3798.5941015868912
 31
0.0
  0
LINE
  5
7C48
  8
1
 10
6386.7806265068939
 20
3798.5941015868912
 30
0.0
 11
6286.7806265068939
 21
3798.5941015868912
 31
0.0
  0
LINE
  5
7C49
  8
1
 10
6386.7816265068977
 20
4737.9091015868908
 30
0.0
 11
6386.7816265068977
 21
3937.908101586891
 31
0.0
  0
LINE
  5
7C4A
  8
1
 10
6386.7816265068977
 20
3937.908101586891
 30
0.0
 11
6286.7816265068977
 21
3937.908101586891
 31
0.0
  0
LINE
  5
7C4B
  8
1
 10
6286.7816265068977
 20
3937.908101586891
 30
0.0
 11
6286.7816265068977
 21
4737.9091015868908
 31
0.0
  0
LINE
  5
7C4C
  8
1
 10
6286.7816265068977
 20
4737.9091015868908
 30
0.0
 11
6386.7816265068977
 21
4737.9091015868908
 31
0.0
  0
LINE
  5
7C4D
  8
1
 10
7806.7816265068977
 20
3537.906101586892
 30
0.0
 11
7940.7856265068976
 21
3537.906101586892
 31
0.0
  0
LINE
  5
7C4E
  8
1
 10
7940.7856265068976
 20
5137.9051015868909
 30
0.0
 11
7806.7816265068977
 21
5137.9051015868909
 31
0.0
  0
LINE
  5
7C4F
  8
1
 10
7940.7856265068976
 20
5202.9051015868918
 30
0.0
 11
7940.7856265068976
 21
5137.9051015868909
 31
0.0
  0
LINE
  5
7C50
  8
1
 10
7940.7856265068976
 20
3472.906101586892
 30
0.0
 11
7940.7856265068976
 21
3537.906101586892
 31
0.0
  0
LINE
  5
7C51
  8
1
 10
6623.5806265068968
 20
3327.9071015868908
 30
0.0
 11
6285.7806265068939
 21
3327.9071015868908
 31
0.0
  0
LINE
  5
7C52
  8
1
 10
6360.7806265068939
 20
3327.9071015868908
 30
0.0
 11
6285.7806265068939
 21
3327.9071015868908
 31
0.0
  0
LINE
  5
7C53
  8
1
 10
7940.7856265068976
 20
3472.906101586892
 30
0.0
 11
7940.7856265068976
 21
5202.9051015868918
 31
0.0
  0
LINE
  5
7C54
  8
1
 10
7885.7816265068968
 20
3177.9061015868911
 30
0.0
 11
6285.7806265068939
 21
3177.9071015868908
 31
0.0
  0
LINE
  5
7C55
  8
1
 10
6386.7816265068977
 20
4387.9051015868909
 30
0.0
 11
6626.7811591697464
 21
4387.9051015868909
 31
0.0
  0
LINE
  5
7C56
  8
1
 10
6386.7816265068977
 20
4287.9071015868913
 30
0.0
 11
6626.7811089194302
 21
4287.9071015868913
 31
0.0
  0
LINE
  5
7C58
  8
1
 10
6626.7806265068939
 20
3327.9071015868908
 30
0.0
 11
6285.7806265068939
 21
3327.9071015868908
 31
0.0
  0
LINE
  5
7C59
  8
1
 10
7885.7816265068968
 20
3327.9071015868908
 30
0.0
 11
6285.7806265068939
 21
3327.9071015868908
 31
0.0
  0
LINE
  5
7C5B
  8
2
 10
7216.7816265068968
 20
3177.9065197116288
 30
0.0
 11
7216.7816265068977
 21
6164.3806509005017
 31
0.0
  0
LINE
  5
7C5C
  8
2
 10
8009.2456762899674
 20
4337.9091015868944
 30
0.0
 11
6237.066626506894
 21
4337.9091015868908
 31
0.0
  0
LINE
  5
7C5D
  8
1
 10
6426.7807738080446
 20
3428.5941015868912
 30
0.0
 11
6426.7816265068968
 21
4817.9091015868917
 31
0.0
  0
POINT
  5
7C5E
  8
1
 10
6236.7816265068977
 20
4817.9091015868917
 30
0.0
  0
LINE
  5
7C5F
  8
1
 10
2403.0362144370879
 20
4382.9100741128732
 30
0.0
 11
2403.0362144370811
 21
6026.9047219652684
 31
0.0
  0
LINE
  5
7C60
  8
1
 10
2338.0362144370879
 20
4382.9100741128732
 30
0.0
 11
2338.0362144370879
 21
6032.9100741128714
 31
0.0
  0
ARC
  5
7C61
  8
1
 10
3267.0362144370879
 20
4453.9090741128721
 30
0.0
 40
1487.0
 50
355.52572120365443
 51
85.526000000000025
  0
LINE
  5
7C62
  8
1
 10
5533.0362144370893
 20
3167.9070741122268
 30
0.0
 11
2433.0362144370879
 21
3167.9090741128712
 31
0.0
1001
ACAD
1000
ASC_BOUNDS
1002
{
1070
    19
1002
}
  0
LINE
  5
7C63
  8
1
 10
5533.0362144370893
 20
3317.9070741122259
 30
0.0
 11
2433.0362144370879
 21
3317.9090741128712
 31
0.0
  0
LINE
  5
7C64
  8
2
 10
5183.0362144370893
 20
3167.9072999187511
 30
0.0
 11
5183.0362144370883
 21
4283.9370741128723
 31
0.0
  0
ARC
  5
7C66
  8
1
 10
5183.0362144370883
 20
3637.9070741128712
 30
0.0
 40
280.0
 50
298.69199912720882
 51
241.30800087279121
  0
LINE
  5
7C67
  8
1
 10
5495.6406201938444
 20
3387.9070741128699
 30
0.0
 11
5306.3620829135616
 21
3387.9070741128712
 31
0.0
  0
LINE
  5
7C68
  8
2
 10
4762.700457775114
 20
3637.9070741128712
 30
0.0
 11
5519.6261255889112
 21
3637.9070741128712
 31
0.0
  0
LINE
  5
7C69
  8
1
 10
5426.0362144370893
 20
3387.9070741128712
 30
0.0
 11
5426.0362144370893
 21
3498.7992023010938
 31
0.0
  0
LINE
  5
7C6A
  8
1
 10
5508.0362144370893
 20
3317.9070902412641
 30
0.0
 11
5495.6406201938444
 21
3387.9070741128699
 31
0.0
  0
LINE
  5
7C6B
  8
1
 10
4940.0362144370893
 20
3387.9070741128712
 30
0.0
 11
4940.0362144370893
 21
3498.7992023010938
 31
0.0
  0
LINE
  5
7C6C
  8
1
 10
5048.607932563551
 20
3392.2873741038329
 30
0.0
 11
5317.4644963106257
 21
3392.2873741038329
 31
0.0
  0
LINE
  5
7C6D
  8
1
 10
5059.7103459606151
 20
3374.5612973715688
 30
0.0
 11
5183.0362144370883
 21
3374.5612973715688
 31
0.0
  0
LINE
  5
7C6E
  8
1
 10
5306.3620829135616
 20
3374.5612973715688
 30
0.0
 11
5183.0362144370883
 21
3374.5612973715688
 31
0.0
  0
LINE
  5
7C6F
  8
1
 10
5326.0362144370883
 20
3397.1769347451532
 30
0.0
 11
5326.0362144370883
 21
3387.9070741128712
 31
0.0
  0
LINE
  5
7C70
  8
1
 10
5306.3620829135616
 20
3387.9070741128699
 30
0.0
 11
5306.3620829135616
 21
3374.5612973715688
 31
0.0
  0
LINE
  5
7C71
  8
1
 10
4870.431808680326
 20
3387.9070741128699
 30
0.0
 11
5059.7103459606151
 21
3387.9070741128712
 31
0.0
  0
LINE
  5
7C72
  8
1
 10
5040.0362144370893
 20
3397.1769347451532
 30
0.0
 11
5040.0362144370893
 21
3387.9070741128712
 31
0.0
  0
LINE
  5
7C73
  8
1
 10
5059.7103459606151
 20
3387.9070741128699
 30
0.0
 11
5059.7103459606151
 21
3374.5612973715688
 31
0.0
  0
LINE
  5
7C74
  8
1
 10
5040.0362144370893
 20
3397.1769347451532
 30
0.0
 11
5040.0362144370893
 21
3387.9070741128712
 31
0.0
  0
LINE
  5
7C75
  8
1
 10
4940.0362144370893
 20
3387.9070741128712
 30
0.0
 11
5040.0362144370893
 21
3387.9070741128712
 31
0.0
  0
LINE
  5
7C76
  8
1
 10
4858.0362144370883
 20
3317.9070902412641
 30
0.0
 11
4870.431808680326
 21
3387.9070741128699
 31
0.0
  0
CIRCLE
  5
7C77
  8
1
 10
5183.0362144370883
 20
3637.9070741128712
 30
0.0
 40
150.0
  0
LINE
  5
7C78
  8
1
 10
2338.0362144370879
 20
6032.9100741128714
 30
0.0
 11
2338.0362144370879
 21
6097.9100741128723
 31
0.0
  0
ARC
  5
7C79
  8
1
 10
3499.0372144370849
 20
4453.9090741128721
 30
0.0
 40
1255.0
 50
264.69699999999989
 51
354.69641957714617
  0
ARC
  5
7C7A
  8
1
 10
3480.037214437084
 20
4240.9090741128721
 30
0.0
 40
1042.0
 50
174.65799999999999
 51
264.65899999999999
  0
CIRCLE
  5
7C7B
  8
1
 10
3383.0362144370879
 20
4337.9090741128721
 30
0.0
 40
800.0
  0
CIRCLE
  5
7C7C
  8
1
 10
3383.0362144370879
 20
4337.9090741128721
 30
0.0
 40
400.0
  0
CIRCLE
  5
7C7D
  8
1
 10
3383.0362144370879
 20
4337.9090741128721
 30
0.0
 40
865.0
  0
ARC
  5
7C7E
  8
1
 10
3286.0362144370879
 20
4240.9090741128721
 30
0.0
 40
848.0
 50
170.36017735243931
 51
173.4309999999999
  0
LINE
  5
7C7F
  8
1
 10
2450.0100689135138
 20
4382.9100741128732
 30
0.0
 11
2338.0362144370879
 21
4382.9100741128732
 31
0.0
  0
LINE
  5
7C80
  8
1
 10
2338.0362144370879
 20
4382.9100741128732
 30
0.0
 11
2403.0362144370879
 21
4382.9100741128732
 31
0.0
  0
LINE
  5
7C81
  8
1
 10
2338.0362144370879
 20
4317.9100741128723
 30
0.0
 11
2338.0362144370879
 21
4382.9100741128732
 31
0.0
  0
LINE
  5
7C84
  8
1
 10
7806.7816265068977
 20
6032.9091015868953
 30
0.0
 11
6626.7816265068896
 21
6032.9091015868917
 31
0.0
  0
LINE
  5
7C85
  8
1
 10
7806.781626506905
 20
4382.9091015868953
 30
0.0
 11
6626.7811566591836
 21
4382.9091015868917
 31
0.0
  0
LINE
  5
7C86
  8
1
 10
6626.7806265068939
 20
3327.9071015868908
 30
0.0
 11
6626.7811566591772
 21
4382.9091015868917
 31
0.0
  0
LINE
  5
7C87
  8
1
 10
7806.7816265068977
 20
3327.9071015868908
 30
0.0
 11
7806.7816265068977
 21
4315.6091015868924
 31
0.0
  0
ARC
  5
7C8B
  8
1
 10
3383.0362144370879
 20
4337.9090741128721
 30
0.0
 40
480.0
 50
61.012627693782832
 51
256.48625069424082
  0
ARC
  5
7C8C
  8
1
 10
5183.0362144370883
 20
3637.9070741128712
 30
0.0
 40
220.0
 50
256.48625069424082
 51
61.012627693782832
  0
LINE
  5
7C8D
  8
1
 10
3615.6523009052471
 20
4757.7778111203279
 30
0.0
 11
5289.651920734992
 21
3830.346911907955
 31
0.0
  0
LINE
  5
7C8E
  8
1
 10
3575.052649602047
 20
4688.8074762559127
 30
0.0
 11
5255.0423776239468
 21
3769.4939749165119
 31
0.0
  0
LINE
  5
7C8F
  8
1
 10
3287.5344521296352
 20
3949.4770808422718
 30
0.0
 11
5147.2230535717972
 21
3492.2450766363959
 31
0.0
  0
LINE
  5
7C90
  8
1
 10
5131.6269010136748
 20
3423.9980221928231
 30
0.0
 11
3270.8704396951071
 21
3871.1984153782219
 31
0.0
  0
INSERT
  5
7C91
  8
0
  2
YA_N
 10
-498322.29175391368
 20
-121717.6865797841
 30
0.0
 41
60.0
 42
60.0
 43
60.0
  0
INSERT
  5
7C92
  8
0
  2
YA_N
 10
-498322.29175391368
 20
-121717.6865797841
 30
0.0
 41
60.0
 42
60.0
 43
60.0
  0
INSERT
  5
7C93
  8
0
  2
YA_N
 10
-498322.29175391368
 20
-121717.6865797841
 30
0.0
 41
60.0
 42
60.0
 43
60.0
  0
INSERT
  5
7C94
  8
0
  2
YA_N
 10
-498322.29175391368
 20
-121717.6865797841
 30
0.0
 41
60.0
 42
60.0
 43
60.0
  0
INSERT
  5
7C95
  8
0
  2
YA_N
 10
-478120.74441826198
 20
-36105.275559246278
 30
0.0
 41
60.0
 42
60.0
 43
60.0
  0
INSERT
  5
7C96
  8
0
  2
YA_N
 10
-498322.29175391368
 20
-121717.6865797841
 30
0.0
 41
60.0
 42
60.0
 43
60.0
  0
INSERT
  5
7C97
  8
0
  2
YA_N
 10
-492922.2917539138
 20
-117217.6865797841
 30
0.0
 41
960.0
 42
960.0
 43
960.0
  0
INSERT
  5
7C98
  8
0
  2
YA_N
 10
-302987.94611852377
 20
-30723.46372483523
 30
0.0
 41
60.0
 42
60.0
 43
60.0
  0
INSERT
  5
7C99
  8
0
  2
YA_N
 10
-302987.94611852377
 20
-30723.46372483523
 30
0.0
 41
60.0
 42
60.0
 43
60.0
  0
INSERT
  5
7C9A
  8
0
  2
YA_N
 10
-282786.39878287207
 20
54888.947295702608
 30
0.0
 41
60.0
 42
60.0
 43
60.0
  0
INSERT
  5
7C9B
  8
0
  2
YA_N
 10
-242674.2673051217
 20
141479.04127581019
 30
0.0
 41
60.0
 42
60.0
 43
60.0
  0
INSERT
  5
7C9C
  8
0
  2
YA_N
 10
-59742.716307125491
 20
125718.8780165269
 30
0.0
 41
60.0
 42
60.0
 43
60.0
  0
INSERT
  5
7C9D
  8
0
  2
YA_N
 10
-492922.2917539138
 20
-117217.6865797841
 30
0.0
 41
960.0
 42
960.0
 43
960.0
  0
INSERT
  5
7CA2
  8
0
  2
YA_N
 10
-492922.2917539138
 20
-117217.6865797841
 30
0.0
 41
960.0
 42
960.0
 43
960.0
  0
INSERT
  5
7CA3
  8
0
  2
YA_N
 10
-492922.2917539138
 20
-117217.6865797841
 30
0.0
 41
960.0
 42
960.0
 43
960.0
  0
INSERT
  5
7CA4
  8
0
  2
YA_N
 10
-492922.2917539138
 20
-117217.6865797841
 30
0.0
 41
960.0
 42
960.0
 43
960.0
  0
INSERT
  5
7CAA
  8
0
  2
YA_N
 10
-507314.30005729437
 20
-130268.9047464
 30
0.0
 41
73.846153860000001
 42
73.846153860000001
 43
73.846153860000001
  0
INSERT
  5
7CAB
  8
0
  2
YA_N
 10
-497279.21490617213
 20
-120688.45586376369
 30
0.0
 41
73.846153860000001
 42
73.846153860000001
 43
73.846153860000001
  0
INSERT
  5
7CAC
  8
0
  2
YA_N
 10
-497279.21490617213
 20
-120688.45586376369
 30
0.0
 41
73.846153860000001
 42
73.846153860000001
 43
73.846153860000001
  0
INSERT
  5
7CAD
  8
0
  2
YA_N
 10
-497279.21490617213
 20
-120688.45586376369
 30
0.0
 41
73.846153860000001
 42
73.846153860000001
 43
73.846153860000001
  0
INSERT
  5
7CAE
  8
0
  2
YA_N
 10
-497279.21490617213
 20
-120688.45586376369
 30
0.0
 41
73.846153860000001
 42
73.846153860000001
 43
73.846153860000001
  0
INSERT
  5
7CAF
  8
0
  2
YA_N
 10
-497279.21490617213
 20
-120688.45586376369
 30
0.0
 41
73.846153860000001
 42
73.846153860000001
 43
73.846153860000001
  0
INSERT
  5
7CB0
  8
0
  2
YA_N
 10
-461977.42458221619
 20
100789.7063552842
 30
0.0
 41
73.846153860000001
 42
73.846153860000001
 43
73.846153860000001
  0
INSERT
  5
7CB1
  8
0
  2
YA_N
 10
-188566.24314685701
 20
98686.566840086103
 30
0.0
 41
73.846153860000001
 42
73.846153860000001
 43
73.846153860000001
  0
INSERT
  5
7CB2
  8
0
  2
YA_N
 10
-188566.24314685701
 20
98686.566840086103
 30
0.0
 41
73.846153860000001
 42
73.846153860000001
 43
73.846153860000001
  0
INSERT
  5
7CB3
  8
0
  2
YA_N
 10
-188566.24314685701
 20
98686.566840086103
 30
0.0
 41
73.846153860000001
 42
73.846153860000001
 43
73.846153860000001
  0
INSERT
  5
7CB4
  8
0
  2
YA_N
 10
-188566.24314685701
 20
98686.566840086103
 30
0.0
 41
73.846153860000001
 42
73.846153860000001
 43
73.846153860000001
  0
INSERT
  5
7CB5
  8
0
  2
YA_N
 10
-11712.10296031317
 20
251465.93758625651
 30
0.0
 41
73.846153860000001
 42
73.846153860000001
 43
73.846153860000001
  0
INSERT
  5
7CB6
  8
0
  2
YA_N
 10
-11712.10296031317
 20
251465.93758625651
 30
0.0
 41
73.846153860000001
 42
73.846153860000001
 43
73.846153860000001
  0
INSERT
  5
7CB7
  8
0
  2
YA_N
 10
-241372.0352770958
 20
64368.269035919591
 30
0.0
 41
73.846153860000001
 42
73.846153860000001
 43
73.846153860000001
  0
INSERT
  5
7CB8
  8
0
  2
YA_N
 10
-546730.82079895888
 20
-169468.82840731641
 30
0.0
 41
73.846153860000001
 42
73.846153860000001
 43
73.846153860000001
  0
INSERT
  5
7CB9
  8
0
  2
YA_N
 10
-491962.29182825418
 20
-116257.686632164
 30
0.0
 41
960.00000017999992
 42
960.00000017999992
 43
960.00000017999992
  0
INSERT
  5
7CBB
  8
0
  2
YA_N
 10
-491962.29182825418
 20
-116257.686632164
 30
0.0
 41
960.00000017999992
 42
960.00000017999992
 43
960.00000017999992
  0
INSERT
  5
7CC0
  8
0
  2
YA_N
 10
-491962.29182825418
 20
-116257.686632164
 30
0.0
 41
960.00000017999992
 42
960.00000017999992
 43
960.00000017999992
  0
INSERT
  5
7CC1
  8
0
  2
YA_N
 10
-491962.29182825418
 20
-116257.686632164
 30
0.0
 41
960.00000017999992
 42
960.00000017999992
 43
960.00000017999992
  0
INSERT
  5
7CC2
  8
0
  2
YA_N
 10
-491962.29182825418
 20
-116257.686632164
 30
0.0
 41
960.00000017999992
 42
960.00000017999992
 43
960.00000017999992
  0
INSERT
  5
7CC7
  8
0
  2
YA_N
 10
-507314.30005729437
 20
-130268.9047464
 30
0.0
 41
73.846153860000001
 42
73.846153860000001
 43
73.846153860000001
  0
INSERT
  5
7CC8
  8
0
  2
YA_N
 10
-497279.21490617213
 20
-120688.45586376369
 30
0.0
 41
73.846153860000001
 42
73.846153860000001
 43
73.846153860000001
  0
INSERT
  5
7CC9
  8
0
  2
YA_N
 10
-497279.21490617213
 20
-120688.45586376369
 30
0.0
 41
73.846153860000001
 42
73.846153860000001
 43
73.846153860000001
  0
INSERT
  5
7CCA
  8
0
  2
YA_N
 10
-497279.21490617213
 20
-120688.45586376369
 30
0.0
 41
73.846153860000001
 42
73.846153860000001
 43
73.846153860000001
  0
INSERT
  5
7CCB
  8
0
  2
YA_N
 10
-497279.21490617213
 20
-120688.45586376369
 30
0.0
 41
73.846153860000001
 42
73.846153860000001
 43
73.846153860000001
  0
INSERT
  5
7CCC
  8
0
  2
YA_N
 10
-497279.21490617213
 20
-120688.45586376369
 30
0.0
 41
73.846153860000001
 42
73.846153860000001
 43
73.846153860000001
  0
INSERT
  5
7CCD
  8
0
  2
YA_N
 10
-461977.42458221619
 20
100789.7063552842
 30
0.0
 41
73.846153860000001
 42
73.846153860000001
 43
73.846153860000001
  0
INSERT
  5
7CCE
  8
0
  2
YA_N
 10
-188566.24314685701
 20
98686.566840086103
 30
0.0
 41
73.846153860000001
 42
73.846153860000001
 43
73.846153860000001
  0
INSERT
  5
7CCF
  8
0
  2
YA_N
 10
-188566.24314685701
 20
98686.566840086103
 30
0.0
 41
73.846153860000001
 42
73.846153860000001
 43
73.846153860000001
  0
INSERT
  5
7CD0
  8
0
  2
YA_N
 10
-188566.24314685701
 20
98686.566840086103
 30
0.0
 41
73.846153860000001
 42
73.846153860000001
 43
73.846153860000001
  0
INSERT
  5
7CD1
  8
0
  2
YA_N
 10
-188566.24314685701
 20
98686.566840086103
 30
0.0
 41
73.846153860000001
 42
73.846153860000001
 43
73.846153860000001
  0
INSERT
  5
7CD2
  8
0
  2
YA_N
 10
-11712.10296031317
 20
251465.93758625651
 30
0.0
 41
73.846153860000001
 42
73.846153860000001
 43
73.846153860000001
  0
INSERT
  5
7CD3
  8
0
  2
YA_N
 10
-11712.10296031317
 20
251465.93758625651
 30
0.0
 41
73.846153860000001
 42
73.846153860000001
 43
73.846153860000001
  0
INSERT
  5
7CD4
  8
0
  2
YA_N
 10
-241372.0352770958
 20
64368.269035919591
 30
0.0
 41
73.846153860000001
 42
73.846153860000001
 43
73.846153860000001
  0
INSERT
  5
7CD5
  8
0
  2
YA_N
 10
-546730.82079895888
 20
-169468.82840731641
 30
0.0
 41
73.846153860000001
 42
73.846153860000001
 43
73.846153860000001
  0
INSERT
  5
7CD6
  8
0
  2
YA_N
 10
-491962.29182825418
 20
-116257.686632164
 30
0.0
 41
960.00000017999992
 42
960.00000017999992
 43
960.00000017999992
  0
INSERT
  5
7CD8
  8
0
  2
YA_N
 10
-491962.29182825418
 20
-116257.686632164
 30
0.0
 41
960.00000017999992
 42
960.00000017999992
 43
960.00000017999992
  0
INSERT
  5
7CDD
  8
0
  2
YA_N
 10
-491962.29182825418
 20
-116257.686632164
 30
0.0
 41
960.00000017999992
 42
960.00000017999992
 43
960.00000017999992
  0
INSERT
  5
7CDE
  8
0
  2
YA_N
 10
-491962.29182825418
 20
-116257.686632164
 30
0.0
 41
960.00000017999992
 42
960.00000017999992
 43
960.00000017999992
  0
INSERT
  5
7CDF
  8
0
  2
YA_N
 10
-491962.29182825418
 20
-116257.686632164
 30
0.0
 41
960.00000017999992
 42
960.00000017999992
 43
960.00000017999992
  0
INSERT
  5
7CE4
  8
0
  2
YA_N
 10
-41627.6810050313
 20
-8083.1522905493966
 30
0.0
 41
60.0
 42
60.0
 43
60.0
  0
INSERT
  5
7CE5
  8
0
  2
YA_N
 10
-41627.6810050313
 20
-8083.1522905493966
 30
0.0
 41
60.0
 42
60.0
 43
60.0
  0
DIMENSION
  5
7CEA
  8
3
  2
*D2
 10
8495.8489765968261
 20
3537.906101586892
 30
0.0
 11
8415.8489765968261
 21
4337.9056015868919
 31
0.0
 12
776.65691521702684
 22
2845.6183164031718
 32
0.0
 70
     0
  1
φ1600
 13
7940.7856265068976
 23
5137.9051015868909
 33
0.0
 14
7940.7856265068976
 24
3537.906101586892
 34
0.0
 50
90.0
1001
ACAD
1000
DSTYLE
1002
{
1070
    40
1040
40.0
1002
}
  0
DIMENSION
  5
7CEB
  8
3
  2
*D3
 10
7940.7856265068976
 20
6480.8692172680048
 30
0.0
 11
7572.887397504529
 21
6480.8692172680048
 31
0.0
 12
776.65691521702684
 22
2845.6183164031718
 32
0.0
 70
   128
  1
725
 13
7216.7816265068977
 23
6363.3314328843544
 33
0.0
 14
7940.7856265068976
 24
5202.9051015868918
 34
0.0
1001
ACAD
1000
DSTYLE
1002
{
1070
    40
1040
40.0
1002
}
  0
POINT
  5
7CEE
  8
1
 10
6236.7816265068977
 20
4817.9091015868917
 30
0.0
  0
POINT
  5
7CEF
  8
1
 10
7216.7816265068977
 20
6363.3314328843544
 30
0.0
  0
INSERT
  5
7CF0
  8
0
  2
YA_N
 10
24637.607469863338
 20
2042.046139342481
 30
0.0
 41
2.399999999999999
 42
2.399999999999999
 43
2.399999999999999
  0
INSERT
  5
7CF2
  8
0
  2
YA_N
 10
16256.220537077141
 20
16922.410523187351
 30
0.0
 41
60.0
 42
60.0
 43
60.0
 50
270.0
  0
LINE
  5
7CF4
  8
2
 10
3383.0362144370879
 20
3167.9084612094471
 30
0.0
 11
3383.0362144370879
 21
6202.7218205848949
 31
0.0
  0
LINE
  5
7CF5
  8
2
 10
4977.9937984609996
 20
4337.9090741128721
 30
0.0
 11
2219.9625083971841
 21
4337.9090741128721
 31
0.0
  0
DIMENSION
  5
7CF6
  8
3
  2
*D4
 10
2338.0362144370879
 20
6398.8765837906867
 30
0.0
 11
2860.5362144370879
 21
6478.8765837906858
 31
0.0
 12
776.65691521702684
 22
2845.6183164031718
 32
0.0
 70
     0
 13
3383.0362144370879
 23
6202.7218205848949
 33
0.0
 14
2338.0362144370879
 24
6097.9100741128723
 34
0.0
1001
ACAD
1000
DSTYLE
1002
{
1070
    40
1040
40.0
1002
}
  0
DIMENSION
  5
7CF7
  8
3
  2
*D5
 10
4754.0362144370883
 20
6398.8765837906867
 30
0.0
 11
4068.5362144370879
 21
6478.8765837906858
 31
0.0
 70
     0
 13
3383.0362144370879
 23
6202.7218205848949
 33
0.0
 14
4754.0362144370883
 24
4453.9090741128721
 34
0.0
1001
ACAD
1000
DSTYLE
1002
{
1070
   287
1070
     4
1070
    40
1040
40.0
1070
    75
1070
     1
1070
   279
1070
     1
1070
   289
1070
     3
1002
}
  0
LINE
  5
7CF9
  8
1
 10
2433.0362144370802
 20
3167.9090741128712
 30
0.0
 11
2433.0362144370729
 21
3317.9090741128712
 31
0.0
  0
LINE
  5
7CFC
  8
1
 10
5533.0362144370893
 20
3167.9070741122259
 30
0.0
 11
5533.0362144370893
 21
3317.9070741122259
 31
0.0
  0
DIMENSION
  5
7CFF
  8
3
  2
*D6
 10
1974.5860617301439
 20
4382.9100741128732
 30
0.0
 11
1894.5860617301439
 21
5207.9100741128714
 31
0.0
 12
776.65691521702684
 22
2845.6183164031718
 32
0.0
 70
     0
 13
2338.0362144370879
 23
6032.9100741128714
 33
0.0
 14
2338.0362144370879
 24
4382.9100741128732
 34
0.0
 50
270.0
1001
ACAD
1000
DSTYLE
1002
{
1070
    40
1040
40.0
1002
}
  0
LINE
  5
7D00
  8
1
 10
2338.0362144370879
 20
6032.9090741128721
 30
0.0
 11
3383.0321787188509
 21
5936.3779393071281
 31
0.0
  0
DIMENSION
  5
7D01
  8
3
  2
*D7
 10
1729.2096150631039
 20
4337.9090741128721
 30
0.0
 11
1649.2096150631039
 21
5185.4090741128721
 31
0.0
 12
776.65691521702684
 22
2845.6183164031718
 32
0.0
 70
     0
 13
2338.0362144370879
 23
6032.9090741128721
 33
0.0
 14
2219.9625083971841
 24
4337.9090741128721
 34
0.0
 50
270.0
1001
ACAD
1000
DSTYLE
1002
{
1070
    40
1040
40.0
1002
}
  0
DIMENSION
  5
7D02
  8
3
  2
*D8
 10
1729.2096150631039
 20
3167.9090741128712
 30
0.0
 11
1649.209615063103
 21
3752.9090741128721
 31
0.0
 70
     0
 13
2219.9625083971841
 23
4337.9090741128721
 33
0.0
 14
2433.0362144370802
 24
3167.9090741128712
 34
0.0
 50
270.0
1001
ACAD
1000
DSTYLE
1002
{
1070
   287
1070
     4
1070
    40
1040
40.0
1070
    75
1070
     1
1070
   279
1070
     1
1070
   289
1070
     3
1002
}
  0
DIMENSION
  5
7D06
  8
3
  2
*D9
 10
5533.0362144370893
 20
6667.820348221735
 30
0.0
 11
3935.5362144370879
 21
6747.8203482217359
 31
0.0
 12
776.65691521702684
 22
2845.6183164031718
 32
0.0
 70
     0
 13
2338.0362144370879
 23
6137.9100741128723
 33
0.0
 14
5533.0362144370893
 24
3317.9070741122259
 34
0.0
1001
ACAD
1000
DSTYLE
1002
{
1070
    40
1040
40.0
1002
}
  0
LINE
  5
7D07
  8
1
 10
7885.7816265068968
 20
3327.9071015868908
 30
0.0
 11
7885.7816265068968
 21
3177.9061015868911
 31
0.0
  0
LINE
  5
7D08
  8
1
 10
7806.7816265068977
 20
3327.9071015868922
 30
0.0
 11
7806.781626506905
 21
6032.9091015868953
 31
0.0
  0
LINE
  5
7D09
  8
1
 10
6626.7816265068968
 20
3327.9071015868908
 30
0.0
 11
6626.7816265068968
 21
6032.9091015868917
 31
0.0
  0
DIMENSION
  5
7D0A
  8
3
  2
*D10
 10
7806.781626506905
 20
6188.6107588059276
 30
0.0
 11
7216.7816265069023
 21
6268.6107588059276
 31
0.0
 12
776.65691521702684
 22
2845.6183164031718
 32
0.0
 70
     0
 13
6626.7816265068968
 23
6032.9091015868917
 33
0.0
 14
7806.781626506905
 24
6032.9091015868953
 34
0.0
1001
ACAD
1000
DSTYLE
1002
{
1070
    40
1040
40.0
1002
}
  0
LINE
  5
7D0D
  8
1
 10
6285.7816265068968
 20
3177.9071015862651
 30
0.0
 11
6285.7816265068968
 21
3327.9071015868908
 31
0.0
  0
LINE
  5
7D10
  8
2
 10
4918.8188178124692
 20
8652.1025121432485
 30
0.0
 11
2407.8396377316089
 21
8652.1025121432485
 31
0.0
  0
LINE
  5
7D11
  8
1
 10
4333.0362144370893
 20
9321.1025121432504
 30
0.0
 11
2433.0362144370879
 21
9321.1025121432504
 31
0.0
  0
LINE
  5
7D12
  8
1
 10
5533.0362144370893
 20
7721.1025121432476
 30
0.0
 11
2433.0362144370879
 21
7721.1025121432476
 31
0.0
  0
LINE
  5
7D13
  8
1
 10
2433.0362144370879
 20
7721.1025121432476
 30
0.0
 11
2433.0362144370879
 21
8062.1025121432476
 31
0.0
  0
LINE
  5
7D14
  8
1
 10
5533.0362144370893
 20
7721.1025121432504
 30
0.0
 11
5533.0362144370893
 21
8821.1025121432485
 31
0.0
  0
LINE
  5
7D15
  8
1
 10
5533.0362144370893
 20
8821.1025121432485
 30
0.0
 11
4754.0362144370883
 21
8821.1025121432485
 31
0.0
  0
LINE
  5
7D16
  8
1
 10
4333.0362144370893
 20
9242.1025121432504
 30
0.0
 11
4333.0362144370893
 21
9321.1025121432504
 31
0.0
  0
LINE
  5
7D17
  8
1
 10
2338.0362144370879
 20
7997.1025121432494
 30
0.0
 11
2338.0362144370811
 21
9307.1025121432485
 31
0.0
  0
LINE
  5
7D18
  8
1
 10
4754.0362144370883
 20
9242.1025121432485
 30
0.0
 11
2338.0362144370879
 21
9242.1025121432485
 31
0.0
  0
LINE
  5
7D19
  8
1
 10
4754.0362144370883
 20
8062.1025121432476
 30
0.0
 11
2338.0362144370879
 21
8062.1025121432476
 31
0.0
  0
LINE
  5
7D1A
  8
1
 10
4754.0362144370883
 20
8062.1025121432476
 30
0.0
 11
4754.0362144370883
 21
9242.1025121432485
 31
0.0
  0
LINE
  5
7D1B
  8
1
 10
2433.0362144370879
 20
9242.1025121432485
 30
0.0
 11
2433.0362144370879
 21
9321.1025121432504
 31
0.0
  0
DIMENSION
  5
7D1C
  8
3
  2
*D11
 10
6236.7816265068977
 20
6480.8692172680048
 30
0.0
 11
6726.7816265068968
 21
6660.8692172680067
 31
0.0
 70
     0
  1
MAX\P1080
 13
7216.7816265068977
 23
6363.3314328843544
 33
0.0
 14
6236.7816265068977
 24
4817.9091015868917
 34
0.0
1001
ACAD
1000
DSTYLE
1002
{
1070
   287
1070
     4
1070
    40
1040
40.0
1070
    75
1070
     1
1070
   279
1070
     1
1070
   289
1070
     3
1002
}
  0
LINE
  5
7D1D
  8
1
 10
3333.0362144370879
 20
7802.1025121432467
 30
0.0
 11
3333.0362144370952
 21
8062.1025121432476
 31
0.0
  0
LINE
  5
7D1E
  8
1
 10
3433.0362144370879
 20
7802.1025121432467
 30
0.0
 11
3433.0362144370879
 21
8062.1025121432476
 31
0.0
  0
LINE
  5
7D1F
  8
1
 10
5403.0362144370883
 20
7652.1025121432476
 30
0.0
 11
5403.0362144370883
 21
7842.1025121432494
 31
0.0
  0
LINE
  5
7D20
  8
1
 10
2903.0362144370879
 20
7652.1025121432476
 30
0.0
 11
2903.0362144370879
 21
7842.1025121432494
 31
0.0
  0
LINE
  5
7D21
  8
1
 10
3783.0372144370849
 20
7702.1025121432449
 30
0.0
 11
2983.0362144370879
 21
7702.1025121432476
 31
0.0
  0
LINE
  5
7D22
  8
1
 10
2983.0362144370879
 20
7802.1025121432494
 30
0.0
 11
3783.0372144370849
 21
7802.102512143244
 31
0.0
  0
LINE
  5
7D24
  8
1
 10
2903.0362144370879
 20
7842.1025121432494
 30
0.0
 11
2903.0362144370879
 21
7652.1025121432476
 31
0.0
  0
LINE
  5
7D25
  8
1
 10
5403.0362144370883
 20
7842.1025121432494
 30
0.0
 11
2903.0362144370879
 21
7842.1025121432494
 31
0.0
  0
LINE
  5
7D26
  8
1
 10
5403.0362144370811
 20
7652.1023648420978
 30
0.0
 11
2903.0362144370879
 21
7652.1025121432476
 31
0.0
  0
LINE
  5
7D27
  8
2
 10
3383.0362144370879
 20
9130.5500984867249
 30
0.0
 11
3383.0362144370879
 21
7614.0015576907463
 31
0.0
  0
LINE
  5
7D28
  8
1
 10
5333.0362144370811
 20
7802.1023648420978
 30
0.0
 11
5033.0362144370811
 21
7802.1023648420987
 31
0.0
  0
LINE
  5
7D29
  8
1
 10
5333.0362144370811
 20
7702.1023648420969
 30
0.0
 11
5033.0362144370811
 21
7702.1023648420987
 31
0.0
  0
LINE
  5
7D2A
  8
1
 10
5403.0362144370883
 20
7842.1025121432494
 30
0.0
 11
5403.0362144370811
 21
7652.1023648420978
 31
0.0
  0
LINE
  5
7D2B
  8
1
 10
5333.0362144370811
 20
7702.1023648420969
 30
0.0
 11
5333.0362144370811
 21
7802.1023648420978
 31
0.0
  0
LINE
  5
7D2C
  8
2
 10
5183.0362144371029
 20
8647.6771153553855
 30
0.0
 11
5183.0362144370802
 21
7609.346364842103
 31
0.0
  0
LINE
  5
7D2D
  8
1
 10
5033.0362144370811
 20
7802.1023648420987
 30
0.0
 11
5033.0362144370811
 21
7702.1023648420987
 31
0.0
  0
LINE
  5
7D2E
  8
1
 10
3783.0372144370849
 20
7802.102512143244
 30
0.0
 11
3783.0372144370849
 21
7702.1025121432449
 31
0.0
  0
LINE
  5
7D2F
  8
1
 10
2983.0362144370879
 20
7702.1025121432476
 30
0.0
 11
2983.0362144370879
 21
7802.1025121432494
 31
0.0
  0
LINE
  5
7D30
  8
1
 10
5333.0362144370893
 20
8576.6023648420996
 30
0.0
 11
5033.0362144370893
 21
8576.6023648420996
 31
0.0
  0
LINE
  5
7D31
  8
1
 10
5333.0362144370893
 20
7989.1023648420978
 30
0.0
 11
5033.0362144370893
 21
7989.1023648420996
 31
0.0
  0
LINE
  5
7D32
  8
1
 10
5333.0362144370893
 20
8576.6023648420996
 30
0.0
 11
5333.0362144370893
 21
7989.1023648420978
 31
0.0
  0
LINE
  5
7D33
  8
1
 10
5033.0362144370893
 20
8576.6023648420996
 30
0.0
 11
5033.0362144370893
 21
7989.1023648420996
 31
0.0
  0
LINE
  5
7D34
  8
1
 10
5145.5362144370893
 20
7989.1023648420996
 30
0.0
 11
5145.5362144370811
 21
7802.1023648420987
 31
0.0
  0
LINE
  5
7D35
  8
1
 10
5220.5362144370811
 20
7989.1023648420996
 30
0.0
 11
5220.5362144370811
 21
7802.1023648420978
 31
0.0
  0
LINE
  5
7D36
  8
1
 10
6626.7816265068968
 20
3686.0941015868912
 30
0.0
 11
6426.7809318499267
 21
3686.0941015868912
 31
0.0
  0
LINE
  5
7D37
  8
1
 10
6626.7816265068968
 20
3611.0941015868912
 30
0.0
 11
6426.7808858183062
 21
3611.0941015868912
 31
0.0
  0
DIMENSION
  5
7D38
  8
3
  2
*D12
 10
4333.0362144370893
 20
9597.4191548466151
 30
0.0
 11
4933.0362144370883
 21
9677.4191548466151
 31
0.0
 12
776.65691521702684
 22
1791.6485493631001
 32
0.0
 70
     0
 13
5533.0362144370893
 23
8821.1025121432485
 33
0.0
 14
4333.0362144370893
 24
9321.1025121432504
 34
0.0
1001
ACAD
1000
DSTYLE
1002
{
1070
    40
1040
40.0
1002
}
  0
DIMENSION
  5
7D39
  8
3
  2
*D13
 10
2433.0362144370879
 20
9597.4191548466151
 30
0.0
 11
3383.0362144370879
 21
9677.4191548466151
 31
0.0
 70
     0
 13
4333.0362144370893
 23
9321.1025121432504
 33
0.0
 14
2433.0362144370879
 24
9321.1025121432504
 34
0.0
1001
ACAD
1000
DSTYLE
1002
{
1070
   287
1070
     4
1070
    40
1040
40.0
1070
    75
1070
     1
1070
   279
1070
     1
1070
   289
1070
     3
1002
}
  0
DIMENSION
  5
7D3A
  8
3
  2
*D14
 10
5870.7422470294114
 20
7721.1025121432476
 30
0.0
 11
5790.7422470294114
 21
8271.1025121432485
 31
0.0
 12
776.65691521702684
 22
1791.6485493631001
 32
0.0
 70
     0
 13
5533.0362144370893
 23
8821.1025121432485
 33
0.0
 14
5533.0362144370893
 24
7721.1025121432476
 34
0.0
 50
270.0
1001
ACAD
1000
DSTYLE
1002
{
1070
    40
1040
40.0
1002
}
  0
DIMENSION
  5
7D3B
  8
3
  2
*D15
 10
2003.084807514329
 20
7721.1025121432476
 30
0.0
 11
1923.084807514329
 21
8521.1025121432485
 31
0.0
 12
776.65691521702684
 22
1791.6485493631001
 32
0.0
 70
     0
 13
2433.0362144370879
 23
9321.1025121432504
 33
0.0
 14
2433.0362144370879
 24
7721.1025121432476
 34
0.0
 50
270.0
1001
ACAD
1000
DSTYLE
1002
{
1070
    40
1040
40.0
1002
}
  0
DIMENSION
  5
7D3C
  8
3
  2
*D16
 10
2433.0362144370879
 20
7238.1099441345141
 30
0.0
 11
3983.0362144370879
 21
7318.1099441345141
 31
0.0
 12
776.65691521702684
 22
1791.6485493631001
 32
0.0
 70
     0
 13
5533.0362144370893
 23
7721.1025121432476
 33
0.0
 14
2433.0362144370879
 24
7721.1025121432476
 34
0.0
1001
ACAD
1000
DSTYLE
1002
{
1070
    40
1040
40.0
1002
}
  0
LINE
  5
7D3D
  8
1
 10
7806.781626506905
 20
6032.9091015868953
 30
0.0
 11
6626.7816265068968
 21
4382.9091015868917
 31
0.0
  0
LINE
  5
7D3E
  8
1
 10
6626.7816265068968
 20
6032.9091015868917
 30
0.0
 11
7806.7816265068977
 21
4382.9091015868953
 31
0.0
  0
LINE
  5
7F61
  8
4
 10
8325.0
 20
2250.0
 30
0.0
 11
8325.0
 21
1350.0
 31
0.0
  0
LINE
  5
7F62
  8
4
 10
5175.0
 20
2250.0
 30
0.0
 11
5175.0
 21
1350.0
 31
0.0
  0
LINE
  5
7F63
  8
4
 10
2925.0
 20
2250.0
 30
0.0
 11
2925.0
 21
1350.0
 31
0.0
  0
LINE
  5
7F66
  8
4
 10
2925.0
 20
1350.0
 30
0.0
 11
8325.0
 21
1350.0
 31
0.0
  0
LINE
  5
7F67
  8
4
 10
2925.0
 20
1800.0
 30
0.0
 11
8325.0
 21
1800.0
 31
0.0
  0
TEXT
  5
7F68
  8
4
 10
3098.259363811057
 20
1941.943616399758
 30
0.0
 40
225.0
  1
機器名称
  0
TEXT
  5
7F69
  8
4
 10
3088.1614771115892
 20
1447.403205294049
 30
0.0
 40
225.0
  1
機器型番
  0
TEXT
  5
7F6A
  8
4
 10
5299.5543546944918
 20
1901.5729603090581
 30
0.0
 40
225.0
  1
ミツヤ多翼送風機
  0
TEXT
  5
7F6B
  8
4
 10
5339.9452301346628
 20
1427.218129259745
 30
0.0
 40
225.0
  1
MF#10-4
  0
TEXT
  5
7F6D
  8
4
 10
3644.6107481528302
 20
10725.429785996321
 30
0.0
 40
242.99999999999989
  1
床置ベット
  0
TEXT
  5
7F6E
  8
4
 10
1422.7541699825081
 20
11402.46439289684
 30
0.0
 40
324.0
  1
ベルト駆動式片吸込両持多翼ファン
  0
LINE
  5
7F6F
  8
4
 10
1125.0
 20
11112.33939419162
 30
0.0
 11
8325.0
 21
11112.33939419162
 31
0.0
  0
LINE
  5
7F70
  8
4
 10
1125.0
 20
12012.33939419162
 30
0.0
 11
8325.0
 21
12012.33939419162
 31
0.0
  0
LINE
  5
7F71
  8
4
 10
2925.0
 20
2250.0
 30
0.0
 11
8325.0
 21
2250.0
 31
0.0
  0
LINE
  5
7F72
  8
4
 10
1125.0
 20
12012.33939419162
 30
0.0
 11
1125.0
 21
11112.33939419162
 31
0.0
  0
TEXT
  5
7F73
  8
4
 10
1683.2460030606701
 20
10720.437648958539
 30
0.0
 40
242.99999999999989
  1
左回転左横向
  0
TEXT
  5
7F74
  8
4
 10
6610.3630166218027
 20
12177.274866728891
 30
0.0
 40
252.0
  1
No.
  0
TEXT
  5
7F75
  8
4
 10
5900.832281700059
 20
10725.429785996321
 30
0.0
 40
242.99999999999989
  1
縮尺：1/45
  0
LINE
  5
7F76
  8
4
 10
8325.0
 20
12012.33939419162
 30
0.0
 11
8325.0
 21
11112.33939419162
 31
0.0
  0
LINE
  5
7F77
  8
4
 10
9450.0
 20
13275.0
 30
0.0
 11
9450.0
 21
13275.0
 31
0.0
  0
LINE
  5
7F78
  8
4
 10
6482.7784006193906
 20
12065.686124064299
 30
0.0
 11
6482.7784006193906
 21
12539.935176973881
 31
0.0
  0
LINE
  5
7F79
  8
4
 10
6482.7784006193906
 20
12539.935176973881
 30
0.0
 11
8325.0
 21
12539.935176973881
 31
0.0
  0
LINE
  5
7F7A
  8
4
 10
8325.0
 20
12539.935176973881
 30
0.0
 11
8325.0
 21
12065.686124064299
 31
0.0
  0
LINE
  5
7F7B
  8
4
 10
8325.0
 20
12065.686124064299
 30
0.0
 11
6482.7784006193906
 21
12065.686124064299
 31
0.0
  0
LINE
  5
7F7C
  8
4
 10
0.0
 20
0.0
 30
0.0
 11
0.0
 21
13275.0
 31
0.0
  0
LINE
  5
7F7D
  8
4
 10
0.0
 20
13275.0
 30
0.0
 11
9450.0
 21
13275.0
 31
0.0
  0
LINE
  5
7F7E
  8
4
 10
9450.0
 20
13275.0
 30
0.0
 11
9450.0
 21
0.0
 31
0.0
  0
LINE
  5
7F7F
  8
4
 10
9450.0
 20
0.0
 30
0.0
 11
0.0
 21
0.0
 31
0.0
  0
DIMENSION
  5
80F7
  8
3
  2
*D18
 10
3383.0362144370879
 20
2883.3807982873332
 30
0.0
 11
2908.0362144370879
 21
2995.8807982873332
 31
0.0
 70
     0
 13
2433.0362144370879
 23
3167.9090741128712
 33
0.0
 14
3383.0362144370879
 24
3167.9084612094471
 34
0.0
1001
ACAD
1000
DSTYLE
1002
{
1070
   287
1070
     3
1070
    40
1040
45.0
1070
   143
1040
0.039
1070
   172
1070
     1
1070
   271
1070
     0
1070
   279
1070
     0
1002
}
  0
DIMENSION
  5
8104
  8
3
  2
*D19
 10
5533.0362144370893
 20
2883.3807982873332
 30
0.0
 11
4458.0362144370893
 21
2995.8807982873332
 31
0.0
 70
     0
 13
3383.0362144370879
 23
3167.9084612094471
 33
0.0
 14
5533.0362144370893
 24
3167.9070741122259
 34
0.0
1001
ACAD
1000
DSTYLE
1002
{
1070
   287
1070
     3
1070
    40
1040
45.0
1070
   143
1040
0.039
1070
   172
1070
     1
1070
   271
1070
     0
1070
   279
1070
     0
1002
}
  0
DIMENSION
  5
8111
  8
3
  2
*D20
 10
7216.7816265068968
 20
2883.3807982873332
 30
0.0
 11
6751.2816265068977
 21
2995.8807982873332
 31
0.0
 70
     0
 13
6285.7816265068968
 23
3177.9071015862651
 33
0.0
 14
7216.7816265068968
 24
3177.9065197116288
 34
0.0
1001
ACAD
1000
DSTYLE
1002
{
1070
   287
1070
     3
1070
    40
1040
45.0
1070
   143
1040
0.039
1070
   172
1070
     1
1070
   271
1070
     0
1070
   279
1070
     0
1002
}
  0
DIMENSION
  5
811E
  8
3
  2
*D21
 10
7885.7816265068968
 20
2883.3807982873332
 30
0.0
 11
7551.2816265068977
 21
2995.8807982873332
 31
0.0
 70
     0
 13
7216.7816265068968
 23
3177.9065197116288
 33
0.0
 14
7885.7816265068968
 24
3177.9061015868911
 34
0.0
1001
ACAD
1000
DSTYLE
1002
{
1070
   287
1070
     3
1070
    40
1040
45.0
1070
   143
1040
0.039
1070
   172
1070
     1
1070
   271
1070
     0
1070
   279
1070
     0
1002
}
  0
DIMENSION
  5
812B
  8
3
  2
*D22
 10
1459.4454880828409
 20
3167.9090741128712
 30
0.0
 11
1346.9454880828409
 21
4600.4090741128721
 31
0.0
 70
     0
 13
2338.0362144370879
 23
6032.9090741128721
 33
0.0
 14
2433.0362144370879
 24
3167.9090741128712
 34
0.0
 50
90.0
1001
ACAD
1000
DSTYLE
1002
{
1070
   287
1070
     3
1070
    40
1040
45.0
1070
   143
1040
0.039
1070
   172
1070
     1
1070
   271
1070
     0
1070
   279
1070
     0
1002
}
  0
ENDSEC
  0
EOF
