  0
SECTION
  2
HEADER
  9
$ACADVER
  1
AC1009
  9
$INSBASE
 10
0.0
 20
0.0
 30
0.0
  9
$EXTMIN
 10
0.0
 20
0.0
 30
0.0
  9
$EXTMAX
 10
9450.0
 20
13275.0
 30
0.0
  9
$LIMMIN
 10
0.0
 20
0.0
  9
$LIMMAX
 10
297.0
 20
210.0
  9
$ORTHOMODE
 70
     0
  9
$REGENMODE
 70
     1
  9
$FILLMODE
 70
     0
  9
$QTEXTMODE
 70
     0
  9
$MIRRTEXT
 70
     1
  9
$DRAGMODE
 70
     2
  9
$LTSCALE
 40
100.0
  9
$OSMODE
 70
    37
  9
$ATTMODE
 70
     1
  9
$TEXTSIZE
 40
180.0
  9
$TRACEWID
 40
0.05
  9
$TEXTSTYLE
  7
STANDARD
  9
$CLAYER
  8
3
  9
$CELTYPE
  6
BYLAYER
  9
$CECOLOR
 62
   256
  9
$DIMSCALE
 40
45.0
  9
$DIMASZ
 40
2.0
  9
$DIMEXO
 40
0.5
  9
$DIMDLI
 40
10.0
  9
$DIMRND
 40
0.0
  9
$DIMDLE
 40
0.0
  9
$DIMEXE
 40
1.0
  9
$DIMTP
 40
1.0
  9
$DIMTM
 40
1.0
  9
$DIMTXT
 40
3.0
  9
$DIMCEN
 40
0.0
  9
$DIMTSZ
 40
0.0
  9
$DIMTOL
 70
     0
  9
$DIMLIM
 70
     0
  9
$DIMTIH
 70
     0
  9
$DIMTOH
 70
     0
  9
$DIMSE1
 70
     0
  9
$DIMSE2
 70
     0
  9
$DIMTAD
 70
     1
  9
$DIMZIN
 70
     8
  9
$DIMBLK
  1

  9
$DIMASO
 70
     1
  9
$DIMSHO
 70
     1
  9
$DIMPOST
  1

  9
$DIMAPOST
  1

  9
$DIMALT
 70
     0
  9
$DIMALTD
 70
     2
  9
$DIMALTF
 40
0.039
  9
$DIMLFAC
 40
1.0
  9
$DIMTOFL
 70
     1
  9
$DIMTVP
 40
0.0
  9
$DIMTIX
 70
     0
  9
$DIMSOXD
 70
     0
  9
$DIMSAH
 70
     1
  9
$DIMBLK1
  1
OPEN
  9
$DIMBLK2
  1
OPEN
  9
$DIMSTYLE
  2
IGA
  9
$DIMCLRD
 70
     0
  9
$DIMCLRE
 70
     0
  9
$DIMCLRT
 70
     0
  9
$DIMTFAC
 40
10.0
  9
$DIMGAP
 40
1.0
  9
$LUNITS
 70
     2
  9
$LUPREC
 70
     3
  9
$SKETCHINC
 40
0.1
  9
$FILLETRAD
 40
50.0
  9
$AUNITS
 70
     0
  9
$AUPREC
 70
     0
  9
$MENU
  1
acad
  9
$ELEVATION
 40
0.0
  9
$PELEVATION
 40
0.0
  9
$THICKNESS
 40
0.0
  9
$LIMCHECK
 70
     0
  9
$BLIPMODE
 70
     0
  9
$CHAMFERA
 40
0.5
  9
$CHAMFERB
 40
0.5
  9
$SKPOLY
 70
     0
  9
$TDCREATE
 40
2452324.5841967589
  9
$TDUPDATE
 40
2454953.8294252432
  9
$TDINDWG
 40
0.0801110301
  9
$TDUSRTIMER
 40
0.0801110301
  9
$USRTIMER
 70
     1
  9
$ANGBASE
 50
0.0
  9
$ANGDIR
 70
     0
  9
$PDMODE
 70
     0
  9
$PDSIZE
 40
0.0
  9
$PLINEWID
 40
0.0
  9
$COORDS
 70
     1
  9
$SPLFRAME
 70
     0
  9
$SPLINETYPE
 70
     6
  9
$SPLINESEGS
 70
     8
  9
$ATTDIA
 70
     0
  9
$ATTREQ
 70
     1
  9
$HANDLING
 70
 10241
  9
$HANDSEED
  5
81CD
  9
$SURFTAB1
 70
     6
  9
$SURFTAB2
 70
     6
  9
$SURFTYPE
 70
     6
  9
$SURFU
 70
     6
  9
$SURFV
 70
     6
  9
$UCSNAME
  2

  9
$UCSORG
 10
0.0
 20
0.0
 30
0.0
  9
$UCSXDIR
 10
1.0
 20
0.0
 30
0.0
  9
$UCSYDIR
 10
0.0
 20
1.0
 30
0.0
  9
$PUCSNAME
  2

  9
$PUCSORG
 10
0.0
 20
0.0
 30
0.0
  9
$PUCSXDIR
 10
1.0
 20
0.0
 30
0.0
  9
$PUCSYDIR
 10
0.0
 20
1.0
 30
0.0
  9
$USERI1
 70
     0
  9
$USERI2
 70
     0
  9
$USERI3
 70
     0
  9
$USERI4
 70
     0
  9
$USERI5
 70
     0
  9
$USERR1
 40
0.0
  9
$USERR2
 40
0.0
  9
$USERR3
 40
0.0
  9
$USERR4
 40
0.0
  9
$USERR5
 40
0.0
  9
$WORLDVIEW
 70
     1
  9
$SHADEDGE
 70
     3
  9
$SHADEDIF
 70
    70
  9
$TILEMODE
 70
     1
  9
$MAXACTVP
 70
    16
  9
$PLIMCHECK
 70
     0
  9
$PEXTMIN
 10
1.0000000000000000E+020
 20
1.0000000000000000E+020
 30
1.0000000000000000E+020
  9
$PEXTMAX
 10
-1.0000000000000000E+020
 20
-1.0000000000000000E+020
 30
-1.0000000000000000E+020
  9
$PLIMMIN
 10
0.0
 20
0.0
  9
$PLIMMAX
 10
12.0
 20
9.0
  9
$UNITMODE
 70
     0
  9
$VISRETAIN
 70
     0
  9
$PLINEGEN
 70
     0
  9
$PSLTSCALE
 70
     1
  0
ENDSEC
  0
SECTION
  2
TABLES
  0
TABLE
  2
VPORT
 70
     2
  0
VPORT
  2
*ACTIVE
 70
     0
 10
0.0
 20
0.0
 11
1.0
 21
1.0
 12
13562.960954446849
 22
9011.2450861320631
 13
0.0
 23
0.0
 14
10.0
 24
10.0
 15
10.0
 25
10.0
 16
0.0
 26
0.0
 36
1.0
 17
0.0
 27
0.0
 37
0.0
 40
18022.490172264119
 41
1.5051150895140659
 42
50.0
 43
0.0
 44
0.0
 50
0.0
 51
0.0
 71
     0
 72
   100
 73
     1
 74
     0
 75
     0
 76
     0
 77
     0
 78
     0
  0
ENDTAB
  0
TABLE
  2
LTYPE
 70
     2
  0
LTYPE
  2
CONTINUOUS
 70
     0
  3
Solid line
 72
    65
 73
     0
 40
0.0
  0
LTYPE
  2
CENTER
 70
     0
  3
____ _ ____ _ ____ _ ____ _ ____ _ ____ _ ____ 
 72
    65
 73
     4
 40
2.0
 49
1.25
 49
-0.25
 49
0.25
 49
-0.25
  0
ENDTAB
  0
TABLE
  2
LAYER
 70
     6
  0
LAYER
  2
0
 70
     0
 62
     7
  6
CONTINUOUS
  0
LAYER
  2
3
 70
     0
 62
     2
  6
CONTINUOUS
  0
LAYER
  2
2
 70
     0
 62
     3
  6
CENTER
  0
LAYER
  2
1
 70
     0
 62
     4
  6
CONTINUOUS
  0
LAYER
  2
4
 70
     0
 62
     7
  6
CONTINUOUS
  0
LAYER
  2
DEFPOINTS
 70
     0
 62
     7
  6
CONTINUOUS
  0
ENDTAB
  0
TABLE
  2
STYLE
 70
     1
  0
STYLE
  2
STANDARD
 70
     0
 40
0.0
 41
1.0
 50
0.0
 71
     0
 42
180.0
  3
simplex.shx
  4
extfont.shx
  0
ENDTAB
  0
TABLE
  2
VIEW
 70
     0
  0
ENDTAB
  0
TABLE
  2
UCS
 70
     0
  0
ENDTAB
  0
TABLE
  2
APPID
 70
     1
  0
APPID
  2
ACAD
 70
     0
  0
ENDTAB
  0
TABLE
  2
DIMSTYLE
 70
     1
  0
DIMSTYLE
  2
IGA
 70
     0
  3

  4

  5

  6
OPEN
  7
OPEN
 40
2.0
 41
2.0
 42
0.5
 43
10.0
 44
1.0
 45
0.0
 46
0.0
 47
1.0
 48
1.0
140
3.0
141
0.0
142
0.0
143
0.03937
144
1.0
145
0.0
146
10.0
147
1.0
 71
     0
 72
     0
 73
     0
 74
     0
 75
     0
 76
     0
 77
     1
 78
     8
170
     0
171
     2
172
     0
173
     1
174
     0
175
     0
176
     0
177
     0
178
     0
  0
ENDTAB
  0
ENDSEC
  0
SECTION
  2
BLOCKS
  0
BLOCK
  8
0
  2
$MODEL_SPACE
 70
     0
 10
0.0
 20
0.0
 30
0.0
  3
$MODEL_SPACE
  1

  0
ENDBLK
  5
1B
  8
0
  0
BLOCK
 67
     1
  8
0
  2
$PAPER_SPACE
 70
     0
 10
0.0
 20
0.0
 30
0.0
  3
$PAPER_SPACE
  1

  0
ENDBLK
  5
18
 67
     1
  8
0
  0
BLOCK
  8
0
  2
_OPEN
 70
     0
 10
0.0
 20
0.0
 30
0.0
  3
_OPEN
  1

  0
LINE
  5
79FD
  8
0
  6
BYBLOCK
 62
     0
 10
-1.0
 20
0.1666666666666666
 30
0.0
 11
0.0
 21
0.0
 31
0.0
  0
LINE
  5
79FE
  8
0
  6
BYBLOCK
 62
     0
 10
0.0
 20
0.0
 30
0.0
 11
-1.0
 21
-0.1666666666666666
 31
0.0
  0
LINE
  5
79FF
  8
0
  6
BYBLOCK
 62
     0
 10
0.0
 20
0.0
 30
0.0
 11
-1.0
 21
0.0
 31
0.0
  0
ENDBLK
  5
7A01
  8
0
  0
BLOCK
  8
0
  2
*D1
 70
     1
 10
0.0
 20
0.0
 30
0.0
  3
*D1
  1

  0
LINE
  5
8121
  8
3
 62
     0
 10
8302.2016497816257
 20
5286.7577882773312
 30
0.0
 11
8766.0378089573078
 21
5286.7577882773312
 31
0.0
  0
LINE
  5
8122
  8
3
 62
     0
 10
8302.2016497816257
 20
3886.7577882773312
 30
0.0
 11
8766.0378089573042
 21
3886.7577882773312
 31
0.0
  0
LINE
  5
8123
  8
3
 62
     0
 10
8721.0378089573096
 20
5196.7577882773312
 30
0.0
 11
8721.0378089573042
 21
3976.7577882773298
 31
0.0
  0
INSERT
  5
8124
  8
3
 62
     0
  2
_OPEN
 10
8721.0378089573096
 20
5286.7577882773312
 30
0.0
 41
90.0
 42
90.0
 43
90.0
 50
90.0
  0
INSERT
  5
8125
  8
3
 62
     0
  2
_OPEN
 10
8721.0378089573042
 20
3886.7577882773312
 30
0.0
 41
90.0
 42
90.0
 43
90.0
 50
270.0
  0
TEXT
  8
3
  40
135
  5
81BB
  62
0
  72
0
  71
0
 10
8338.54
 20
4321.28
 30
0.000000
  1
φ1400
  0
POINT
  5
8127
  8
DEFPOINTS
 62
     0
 10
8279.7016497816257
 20
5286.7577882773312
 30
0.0
  0
POINT
  5
8128
  8
DEFPOINTS
 62
     0
 10
8279.7016497816257
 20
3886.7577882773312
 30
0.0
  0
POINT
  5
8129
  8
DEFPOINTS
 62
     0
 10
8721.0378089573042
 20
3886.7577882773312
 30
0.0
  0
ENDBLK
  5
7BDE
  8
0
  0
BLOCK
  8
0
  2
*D2
 70
     1
 10
0.0
 20
0.0
 30
0.0
  3
*D2
  1

  0
LINE
  5
812A
  8
3
 62
     0
 10
2108.7323390533352
 20
9878.8574783022359
 30
0.0
 11
2108.7323390533352
 21
10190.12451237005
 31
0.0
  0
LINE
  5
812B
  8
3
 62
     0
 10
3808.7323390533352
 20
9878.8574783022359
 30
0.0
 11
3808.7323390533352
 21
10190.12451237005
 31
0.0
  0
LINE
  5
812C
  8
3
 62
     0
 10
2198.7323390533338
 20
10145.124512370039
 30
0.0
 11
3718.7323390533352
 21
10145.124512370039
 31
0.0
  0
INSERT
  5
812D
  8
3
 62
     0
  2
_OPEN
 10
2108.7323390533352
 20
10145.124512370039
 30
0.0
 41
90.0
 42
90.0
 43
90.0
 50
180.0
  0
INSERT
  5
812E
  8
3
 62
     0
  2
_OPEN
 10
3808.7323390533352
 20
10145.124512370039
 30
0.0
 41
90.0
 42
90.0
 43
90.0
  0
TEXT
  8
3
  40
135
  5
81BC
  62
0
  72
0
  71
0
 10
2691.17
 20
10018.7
 30
0.000000
  1
1700
  0
POINT
  5
8130
  8
DEFPOINTS
 62
     0
 10
2108.7323390533352
 20
9856.3574783022359
 30
0.0
  0
POINT
  5
8131
  8
DEFPOINTS
 62
     0
 10
3808.7323390533352
 20
9856.3574783022359
 30
0.0
  0
POINT
  5
8132
  8
DEFPOINTS
 62
     0
 10
3808.7323390533352
 20
10145.124512370039
 30
0.0
  0
ENDBLK
  5
7C77
  8
0
  0
BLOCK
  8
0
  2
*D3
 70
     1
 10
0.0
 20
0.0
 30
0.0
  3
*D3
  1

  0
LINE
  5
8133
  8
3
 62
     0
 10
5008.7323390533338
 20
8618.8574783022377
 30
0.0
 11
5008.7323390533338
 21
10190.12451237005
 31
0.0
  0
LINE
  5
8134
  8
3
 62
     0
 10
3898.7323390533352
 20
10145.124512370039
 30
0.0
 11
4918.7323390533347
 21
10145.124512370039
 31
0.0
  0
INSERT
  5
8135
  8
3
 62
     0
  2
_OPEN
 10
3808.7323390533352
 20
10145.124512370039
 30
0.0
 41
90.0
 42
90.0
 43
90.0
 50
180.0
  0
INSERT
  5
8136
  8
3
 62
     0
  2
_OPEN
 10
5008.7323390533338
 20
10145.124512370039
 30
0.0
 41
90.0
 42
90.0
 43
90.0
  0
TEXT
  8
3
  40
135
  5
81BD
  62
0
  72
0
  71
0
 10
4138.73
 20
10018.7
 30
0.000000
  1
1200
  0
POINT
  5
8138
  8
DEFPOINTS
 62
     0
 10
3808.7323390533352
 20
9856.3574783022359
 30
0.0
  0
POINT
  5
8139
  8
DEFPOINTS
 62
     0
 10
5008.7323390533338
 20
8596.3574783022359
 30
0.0
  0
POINT
  5
813A
  8
DEFPOINTS
 62
     0
 10
5008.7323390533338
 20
10145.124512370039
 30
0.0
  0
ENDBLK
  5
7C83
  8
0
  0
BLOCK
  8
0
  2
*D4
 70
     1
 10
0.0
 20
0.0
 30
0.0
  3
*D4
  1

  0
LINE
  5
813B
  8
3
 62
     0
 10
5031.2323390533347
 20
8596.3574783022359
 30
0.0
 11
5495.3933777064376
 21
8596.3574783022359
 31
0.0
  0
LINE
  5
813C
  8
3
 62
     0
 10
5031.2323390533347
 20
7496.3574783022359
 30
0.0
 11
5495.3933777064376
 21
7496.3574783022359
 31
0.0
  0
LINE
  5
813D
  8
3
 62
     0
 10
5450.3933777064394
 20
8506.3574783022359
 30
0.0
 11
5450.3933777064394
 21
7586.3574783022359
 31
0.0
  0
INSERT
  5
813E
  8
3
 62
     0
  2
_OPEN
 10
5450.3933777064394
 20
8596.3574783022359
 30
0.0
 41
90.0
 42
90.0
 43
90.0
 50
90.0
  0
INSERT
  5
813F
  8
3
 62
     0
  2
_OPEN
 10
5450.3933777064394
 20
7496.3574783022359
 30
0.0
 41
90.0
 42
90.0
 43
90.0
 50
270.0
  0
TEXT
  8
3
  40
135
  5
81BE
  62
0
  72
0
  71
0
 10
5067.89
 20
7807.63
 30
0.000000
  1
1100
  0
POINT
  5
8141
  8
DEFPOINTS
 62
     0
 10
5008.7323390533338
 20
8596.3574783022359
 30
0.0
  0
POINT
  5
8142
  8
DEFPOINTS
 62
     0
 10
5008.7323390533338
 20
7496.3574783022359
 30
0.0
  0
POINT
  5
8143
  8
DEFPOINTS
 62
     0
 10
5450.3933777064394
 20
7496.3574783022359
 30
0.0
  0
ENDBLK
  5
7C90
  8
0
  0
BLOCK
  8
0
  2
*D5
 70
     1
 10
0.0
 20
0.0
 30
0.0
  3
*D5
  1

  0
LINE
  5
8144
  8
3
 62
     0
 10
2086.2323390533352
 20
9856.3574783022359
 30
0.0
 11
1693.785583990518
 21
9856.3574783022359
 31
0.0
  0
LINE
  5
8145
  8
3
 62
     0
 10
2086.2323390533352
 20
7496.3574783022359
 30
0.0
 11
1693.785583990518
 21
7496.3574783022359
 31
0.0
  0
LINE
  5
8146
  8
3
 62
     0
 10
1738.7855839905189
 20
9766.3574783022359
 30
0.0
 11
1738.785583990518
 21
7586.3574783022368
 31
0.0
  0
INSERT
  5
8147
  8
3
 62
     0
  2
_OPEN
 10
1738.7855839905189
 20
9856.3574783022359
 30
0.0
 41
90.0
 42
90.0
 43
90.0
 50
90.0
  0
INSERT
  5
8148
  8
3
 62
     0
  2
_OPEN
 10
1738.785583990518
 20
7496.3574783022359
 30
0.0
 41
90.0
 42
90.0
 43
90.0
 50
270.0
  0
TEXT
  8
3
  40
135
  5
81BF
  62
0
  72
0
  71
0
 10
1356.29
 20
8396.11
 30
0.000000
  1
2360
  0
POINT
  5
814A
  8
DEFPOINTS
 62
     0
 10
2108.7323390533352
 20
9856.3574783022359
 30
0.0
  0
POINT
  5
814B
  8
DEFPOINTS
 62
     0
 10
2108.7323390533352
 20
7496.3574783022359
 30
0.0
  0
POINT
  5
814C
  8
DEFPOINTS
 62
     0
 10
1738.785583990518
 20
7496.3574783022359
 30
0.0
  0
ENDBLK
  5
7C9D
  8
0
  0
BLOCK
  8
0
  2
*D6
 70
     1
 10
0.0
 20
0.0
 30
0.0
  3
*D6
  1

  0
LINE
  5
814D
  8
3
 62
     0
 10
2108.7323390533352
 20
7473.857478302235
 30
0.0
 11
2108.7323390533352
 21
6991.1646933739166
 31
0.0
  0
LINE
  5
814E
  8
3
 62
     0
 10
5008.7323390533338
 20
7473.857478302235
 30
0.0
 11
5008.7323390533338
 21
6991.1646933739166
 31
0.0
  0
LINE
  5
814F
  8
3
 62
     0
 10
2198.7323390533338
 20
7036.1646933739185
 30
0.0
 11
4918.7323390533347
 21
7036.1646933739185
 31
0.0
  0
INSERT
  5
8150
  8
3
 62
     0
  2
_OPEN
 10
2108.7323390533352
 20
7036.1646933739185
 30
0.0
 41
90.0
 42
90.0
 43
90.0
 50
180.0
  0
INSERT
  5
8151
  8
3
 62
     0
  2
_OPEN
 10
5008.7323390533338
 20
7036.1646933739185
 30
0.0
 41
90.0
 42
90.0
 43
90.0
  0
TEXT
  8
3
  40
135
  5
81C0
  62
0
  72
0
  71
0
 10
3202.35
 20
6909.71
 30
0.000000
  1
2900
  0
POINT
  5
8153
  8
DEFPOINTS
 62
     0
 10
2108.7323390533352
 20
7496.3574783022359
 30
0.0
  0
POINT
  5
8154
  8
DEFPOINTS
 62
     0
 10
5008.7323390533338
 20
7496.3574783022359
 30
0.0
  0
POINT
  5
8155
  8
DEFPOINTS
 62
     0
 10
5008.7323390533338
 20
7036.1646933739185
 30
0.0
  0
ENDBLK
  5
7CAA
  8
0
  0
BLOCK
  8
0
  2
*D7
 70
     1
 10
0.0
 20
0.0
 30
0.0
  3
*D7
  1

  0
LINE
  5
8156
  8
3
 62
     0
 10
2006.232339053334
 20
3095.7577882773312
 30
0.0
 11
1707.7021733833319
 21
3095.7577882773312
 31
0.0
  0
LINE
  5
8157
  8
3
 62
     0
 10
2006.232339053334
 20
4545.7577882773312
 30
0.0
 11
1707.7021733833319
 21
4545.7577882773312
 31
0.0
  0
LINE
  5
8158
  8
3
 62
     0
 10
1752.7021733833319
 20
3185.7577882773312
 30
0.0
 11
1752.7021733833319
 21
4455.7577882773312
 31
0.0
  0
INSERT
  5
8159
  8
3
 62
     0
  2
_OPEN
 10
1752.7021733833319
 20
3095.7577882773312
 30
0.0
 41
90.0
 42
90.0
 43
90.0
 50
270.0
  0
INSERT
  5
815A
  8
3
 62
     0
  2
_OPEN
 10
1752.7021733833319
 20
4545.7577882773312
 30
0.0
 41
90.0
 42
90.0
 43
90.0
 50
90.0
  0
TEXT
  8
3
  40
135
  5
81C1
  62
0
  72
0
  71
0
 10
1370.20
 20
3555.55
 30
0.000000
  1
1450
  0
POINT
  5
815C
  8
DEFPOINTS
 62
     0
 10
2028.732339053334
 20
3095.7577882773312
 30
0.0
  0
POINT
  5
815D
  8
DEFPOINTS
 62
     0
 10
2028.732339053334
 20
4545.7577882773312
 30
0.0
  0
POINT
  5
815E
  8
DEFPOINTS
 62
     0
 10
1752.7021733833319
 20
4545.7577882773312
 30
0.0
  0
ENDBLK
  5
7E5B
  8
0
  0
BLOCK
  8
0
  2
*D8
 70
     1
 10
0.0
 20
0.0
 30
0.0
  3
*D8
  1

  0
LINE
  5
815F
  8
3
 62
     0
 10
6379.7016497816248
 20
5596.8415976181532
 30
0.0
 11
6379.7016497816248
 21
5833.4831809868429
 31
0.0
  0
LINE
  5
8160
  8
3
 62
     0
 10
8279.7016497816257
 20
5596.8415976181541
 30
0.0
 11
8279.7016497816257
 21
5833.4831809868429
 31
0.0
  0
LINE
  5
8161
  8
3
 62
     0
 10
6469.7016497816248
 20
5788.4831809868429
 30
0.0
 11
8189.7016497816248
 21
5788.4831809868429
 31
0.0
  0
INSERT
  5
8162
  8
3
 62
     0
  2
_OPEN
 10
6379.7016497816248
 20
5788.4831809868429
 30
0.0
 41
90.0
 42
90.0
 43
90.0
 50
180.0
  0
INSERT
  5
8163
  8
3
 62
     0
  2
_OPEN
 10
8279.7016497816257
 20
5788.4831809868429
 30
0.0
 41
90.0
 42
90.0
 43
90.0
  0
TEXT
  8
3
  40
135
  5
81C2
  62
0
  72
0
  71
0
 10
7057.57
 20
5662.03
 30
0.000000
  1
1900
  0
POINT
  5
8165
  8
DEFPOINTS
 62
     0
 10
6379.7016497816248
 20
5574.3415976181532
 30
0.0
  0
POINT
  5
8166
  8
DEFPOINTS
 62
     0
 10
8279.7016497816257
 20
5574.3415976181541
 30
0.0
  0
POINT
  5
8167
  8
DEFPOINTS
 62
     0
 10
8279.7016497816257
 20
5788.4831809868429
 30
0.0
  0
ENDBLK
  5
7DF8
  8
0
  0
BLOCK
  8
0
  2
*D9
 70
     1
 10
0.0
 20
0.0
 30
0.0
  3
*D9
  1

  0
LINE
  5
8168
  8
3
 62
     0
 10
8459.9016497816265
 20
4539.2577882773312
 30
0.0
 11
8459.9016497816265
 21
6201.4687360675252
 31
0.0
  0
LINE
  5
8169
  8
3
 62
     0
 10
7329.7016497816239
 20
6000.2357431111786
 30
0.0
 11
7329.7016497816239
 21
6201.4687360675252
 31
0.0
  0
LINE
  5
816A
  8
3
 62
     0
 10
8369.9016497816247
 20
6156.4687360675252
 30
0.0
 11
7419.7016497816248
 21
6156.4687360675252
 31
0.0
  0
INSERT
  5
816B
  8
3
 62
     0
  2
_OPEN
 10
8459.9016497816265
 20
6156.4687360675252
 30
0.0
 41
90.0
 42
90.0
 43
90.0
  0
INSERT
  5
816C
  8
3
 62
     0
  2
_OPEN
 10
7329.7016497816239
 20
6156.4687360675252
 30
0.0
 41
90.0
 42
90.0
 43
90.0
 50
180.0
  0
TEXT
  8
3
  40
135
  5
81C3
  62
0
  72
0
  71
0
 10
7590.58
 20
6065.38
 30
0.000000
  1
(1130)
  0
POINT
  5
816E
  8
DEFPOINTS
 62
     0
 10
8459.9016497816265
 20
4516.7577882773312
 30
0.0
  0
POINT
  5
816F
  8
DEFPOINTS
 62
     0
 10
7329.7016497816239
 20
5977.7357431111786
 30
0.0
  0
POINT
  5
8170
  8
DEFPOINTS
 62
     0
 10
7329.7016497816239
 20
6156.4687360675252
 30
0.0
  0
ENDBLK
  5
7FEE
  8
0
  0
BLOCK
  8
0
  2
*D10
 70
     1
 10
0.0
 20
0.0
 30
0.0
  3
*D10
  1

  0
LINE
  5
8171
  8
3
 62
     0
 10
5960.7016497816257
 20
4989.2577882773312
 30
0.0
 11
5960.7016497816257
 21
6201.4687360675252
 31
0.0
  0
LINE
  5
8172
  8
3
 62
     0
 10
7239.7016497816257
 20
6156.4687360675252
 30
0.0
 11
6050.7016497816248
 21
6156.4687360675252
 31
0.0
  0
INSERT
  5
8173
  8
3
 62
     0
  2
_OPEN
 10
7329.7016497816239
 20
6156.4687360675252
 30
0.0
 41
90.0
 42
90.0
 43
90.0
  0
INSERT
  5
8174
  8
3
 62
     0
  2
_OPEN
 10
5960.7016497816257
 20
6156.4687360675252
 30
0.0
 41
90.0
 42
90.0
 43
90.0
 50
180.0
  0
TEXT
  8
3
  40
135
  5
81C4
  62
0
  72
0
  71
0
 10
6375.20
 20
6142.52
 30
0.000000
  1
MAX
  0
TEXT
  8
3
  40
135
  5
81C5
  62
0
  72
0
  71
0
 10
6375.20
 20
5967.02
 30
0.000000
  1
1450
  0
POINT
  5
8176
  8
DEFPOINTS
 62
     0
 10
7329.7016497816239
 20
5977.7357431111786
 30
0.0
  0
POINT
  5
8177
  8
DEFPOINTS
 62
     0
 10
5960.7016497816257
 20
4966.7577882773312
 30
0.0
  0
POINT
  5
8178
  8
DEFPOINTS
 62
     0
 10
5960.7016497816257
 20
6156.4687360675252
 30
0.0
  0
ENDBLK
  5
7ED0
  8
0
  0
BLOCK
  8
0
  2
*D11
 70
     1
 10
0.0
 20
0.0
 30
0.0
  3
*D11
  1

  0
LINE
  5
8179
  8
3
 62
     0
 10
2006.232339053334
 20
3095.7577882773312
 30
0.0
 11
1459.83595535066
 21
3095.7577882773312
 31
0.0
  0
LINE
  5
817A
  8
3
 62
     0
 10
1765.944491721544
 20
4586.7577882773303
 30
0.0
 11
1459.83595535066
 21
4586.7577882773303
 31
0.0
  0
LINE
  5
817B
  8
3
 62
     0
 10
1504.83595535066
 20
3185.7577882773312
 30
0.0
 11
1504.83595535066
 21
4496.7577882773312
 31
0.0
  0
INSERT
  5
817C
  8
3
 62
     0
  2
_OPEN
 10
1504.83595535066
 20
3095.7577882773312
 30
0.0
 41
90.0
 42
90.0
 43
90.0
 50
270.0
  0
INSERT
  5
817D
  8
3
 62
     0
  2
_OPEN
 10
1504.83595535066
 20
4586.7577882773303
 30
0.0
 41
90.0
 42
90.0
 43
90.0
 50
90.0
  0
TEXT
  8
3
  40
135
  5
81C6
  62
0
  72
0
  71
0
 10
1122.34
 20
3542.47
 30
0.000000
  1
1491
  0
POINT
  5
817F
  8
DEFPOINTS
 62
     0
 10
2028.732339053334
 20
3095.7577882773312
 30
0.0
  0
POINT
  5
8180
  8
DEFPOINTS
 62
     0
 10
1788.444491721544
 20
4586.7577882773303
 30
0.0
  0
POINT
  5
8181
  8
DEFPOINTS
 62
     0
 10
1504.83595535066
 20
4586.7577882773303
 30
0.0
  0
ENDBLK
  5
7E76
  8
0
  0
BLOCK
  8
0
  2
*D12
 70
     1
 10
0.0
 20
0.0
 30
0.0
  3
*D12
  1

  0
LINE
  5
8182
  8
3
 62
     0
 10
2028.732339053334
 20
4622.2577882773312
 30
0.0
 11
2028.732339053334
 21
5902.8469610555076
 31
0.0
  0
LINE
  5
8183
  8
3
 62
     0
 10
2958.7323390533352
 20
5734.032337836612
 30
0.0
 11
2958.7323390533352
 21
5902.8469610555076
 31
0.0
  0
LINE
  5
8184
  8
3
 62
     0
 10
2118.7323390533338
 20
5857.8469610555067
 30
0.0
 11
2868.7323390533338
 21
5857.8469610555067
 31
0.0
  0
INSERT
  5
8185
  8
3
 62
     0
  2
_OPEN
 10
2028.732339053334
 20
5857.8469610555067
 30
0.0
 41
90.0
 42
90.0
 43
90.0
 50
180.0
  0
INSERT
  5
8186
  8
3
 62
     0
  2
_OPEN
 10
2958.7323390533352
 20
5857.8469610555067
 30
0.0
 41
90.0
 42
90.0
 43
90.0
  0
TEXT
  8
3
  40
135
  5
81C7
  62
0
  72
0
  71
0
 10
2169.27
 20
5731.40
 30
0.000000
  1
930
  0
POINT
  5
8188
  8
DEFPOINTS
 62
     0
 10
2028.732339053334
 20
4599.7577882773312
 30
0.0
  0
POINT
  5
8189
  8
DEFPOINTS
 62
     0
 10
2958.7323390533352
 20
5711.532337836612
 30
0.0
  0
POINT
  5
818A
  8
DEFPOINTS
 62
     0
 10
2958.7323390533352
 20
5857.8469610555067
 30
0.0
  0
ENDBLK
  5
7E9B
  8
0
  0
BLOCK
  8
0
  2
*D13
 70
     1
 10
0.0
 20
0.0
 30
0.0
  3
*D13
  1

  0
LINE
  5
818B
  8
3
 62
     0
 10
4165.7323390533338
 20
4507.2577882773312
 30
0.0
 11
4165.7323390533338
 21
5902.8469610555076
 31
0.0
  0
LINE
  5
818C
  8
3
 62
     0
 10
3048.7323390533338
 20
5857.8469610555067
 30
0.0
 11
4075.7323390533352
 21
5857.8469610555067
 31
0.0
  0
INSERT
  5
818D
  8
3
 62
     0
  2
_OPEN
 10
2958.7323390533352
 20
5857.8469610555067
 30
0.0
 41
90.0
 42
90.0
 43
90.0
 50
180.0
  0
INSERT
  5
818E
  8
3
 62
     0
  2
_OPEN
 10
4165.7323390533338
 20
5857.8469610555067
 30
0.0
 41
90.0
 42
90.0
 43
90.0
  0
TEXT
  8
3
  40
135
  5
81C8
  62
0
  72
0
  71
0
 10
3292.23
 20
5731.40
 30
0.000000
  1
1207
  0
POINT
  5
8190
  8
DEFPOINTS
 62
     0
 10
2958.7323390533352
 20
5711.532337836612
 30
0.0
  0
POINT
  5
8191
  8
DEFPOINTS
 62
     0
 10
4165.7323390533338
 20
4484.7577882773312
 30
0.0
  0
POINT
  5
8192
  8
DEFPOINTS
 62
     0
 10
4165.7323390533338
 20
5857.8469610555067
 30
0.0
  0
ENDBLK
  5
7EB2
  8
0
  0
BLOCK
  8
0
  2
*D14
 70
     1
 10
0.0
 20
0.0
 30
0.0
  3
*D14
  1

  0
LINE
  5
8193
  8
3
 62
     0
 10
2028.732339053334
 20
4622.2577882773312
 30
0.0
 11
2028.732339053334
 21
6214.0456826359014
 31
0.0
  0
LINE
  5
8194
  8
3
 62
     0
 10
5008.7323390533338
 20
3169.2577882773312
 30
0.0
 11
5008.7323390533338
 21
6214.0456826359014
 31
0.0
  0
LINE
  5
8195
  8
3
 62
     0
 10
2118.7323390533338
 20
6169.0456826359004
 30
0.0
 11
4918.7323390533347
 21
6169.0456826359004
 31
0.0
  0
INSERT
  5
8196
  8
3
 62
     0
  2
_OPEN
 10
2028.732339053334
 20
6169.0456826359004
 30
0.0
 41
90.0
 42
90.0
 43
90.0
 50
180.0
  0
INSERT
  5
8197
  8
3
 62
     0
  2
_OPEN
 10
5008.7323390533338
 20
6169.0456826359004
 30
0.0
 41
90.0
 42
90.0
 43
90.0
  0
TEXT
  8
3
  40
135
  5
81C9
  62
0
  72
0
  71
0
 10
3214.16
 20
6042.60
 30
0.000000
  1
2980
  0
POINT
  5
8199
  8
DEFPOINTS
 62
     0
 10
2028.732339053334
 20
4599.7577882773312
 30
0.0
  0
POINT
  5
819A
  8
DEFPOINTS
 62
     0
 10
5008.7323390533338
 20
3146.7577882773312
 30
0.0
  0
POINT
  5
819B
  8
DEFPOINTS
 62
     0
 10
5008.7323390533338
 20
6169.0456826359004
 30
0.0
  0
ENDBLK
  5
7EBF
  8
0
  0
BLOCK
  8
0
  2
*D15
 70
     1
 10
0.0
 20
0.0
 30
0.0
  3
*D15
  1

  0
LINE
  5
819C
  8
3
 62
     0
 10
2993.2323390533352
 20
5589.7577882773312
 30
0.0
 11
1188.808478721061
 21
5589.7577882773312
 31
0.0
  0
LINE
  5
819D
  8
3
 62
     0
 10
1765.944491721544
 20
4586.7577882773303
 30
0.0
 11
1188.808478721061
 21
4586.7577882773303
 31
0.0
  0
LINE
  5
819E
  8
3
 62
     0
 10
1233.808478721061
 20
5499.7577882773321
 30
0.0
 11
1233.808478721061
 21
4676.7577882773303
 31
0.0
  0
INSERT
  5
819F
  8
3
 62
     0
  2
_OPEN
 10
1233.808478721061
 20
5589.7577882773312
 30
0.0
 41
90.0
 42
90.0
 43
90.0
 50
90.0
  0
INSERT
  5
81A0
  8
3
 62
     0
  2
_OPEN
 10
1233.808478721061
 20
4586.7577882773303
 30
0.0
 41
90.0
 42
90.0
 43
90.0
 50
270.0
  0
TEXT
  8
3
  40
135
  5
81CA
  62
0
  72
0
  71
0
 10
851.308
 20
4861.34
 30
0.000000
  1
1003
  0
POINT
  5
81A2
  8
DEFPOINTS
 62
     0
 10
3015.7323390533352
 20
5589.7577882773312
 30
0.0
  0
POINT
  5
81A3
  8
DEFPOINTS
 62
     0
 10
1788.444491721544
 20
4586.7577882773303
 30
0.0
  0
POINT
  5
81A4
  8
DEFPOINTS
 62
     0
 10
1233.808478721061
 20
4586.7577882773303
 30
0.0
  0
ENDBLK
  5
7F00
  8
0
  0
BLOCK
  8
0
  2
*D16
 70
     1
 10
0.0
 20
0.0
 30
0.0
  3
*D16
  1

  0
LINE
  5
81A5
  8
3
 62
     0
 10
2086.2323390533352
 20
2996.7577882773312
 30
0.0
 11
1188.808478721061
 21
2996.7577882773312
 31
0.0
  0
LINE
  5
81A6
  8
3
 62
     0
 10
1233.808478721061
 20
4496.7577882773312
 30
0.0
 11
1233.808478721061
 21
3086.7577882773312
 31
0.0
  0
INSERT
  5
81A7
  8
3
 62
     0
  2
_OPEN
 10
1233.808478721061
 20
4586.7577882773303
 30
0.0
 41
90.0
 42
90.0
 43
90.0
 50
90.0
  0
INSERT
  5
81A8
  8
3
 62
     0
  2
_OPEN
 10
1233.808478721061
 20
2996.7577882773312
 30
0.0
 41
90.0
 42
90.0
 43
90.0
 50
270.0
  0
TEXT
  8
3
  40
135
  5
81CB
  62
0
  72
0
  71
0
 10
851.308
 20
3552.81
 30
0.000000
  1
1590
  0
POINT
  5
81AA
  8
DEFPOINTS
 62
     0
 10
1788.444491721544
 20
4586.7577882773303
 30
0.0
  0
POINT
  5
81AB
  8
DEFPOINTS
 62
     0
 10
2108.7323390533352
 20
2996.7577882773312
 30
0.0
  0
POINT
  5
81AC
  8
DEFPOINTS
 62
     0
 10
1233.808478721061
 20
2996.7577882773312
 30
0.0
  0
ENDBLK
  5
7F0C
  8
0
  0
BLOCK
  8
0
  2
*D17
 70
     1
 10
0.0
 20
0.0
 30
0.0
  3
*D17
  1

  0
LINE
  5
7FD4
  8
0
  6
BYBLOCK
 62
     0
 10
2086.2323390533352
 20
2976.7577882773312
 30
0.0
 11
1188.808478721061
 21
2976.7577882773312
 31
0.0
  0
LINE
  5
7FD5
  8
0
  6
BYBLOCK
 62
     0
 10
1233.808478721061
 20
3086.7577882773312
 30
0.0
 11
1233.808478721061
 21
3176.7577882773312
 31
0.0
  0
LINE
  5
7FD6
  8
0
  6
BYBLOCK
 62
     0
 10
1233.808478721061
 20
2886.7577882773312
 30
0.0
 11
1233.808478721061
 21
2796.7577882773312
 31
0.0
  0
TEXT
  5
7FD7
  8
3
 62
     0
 10
1061.725107064296
 20
2934.01066490939
 30
0.0
 40
135.0
  1
(20)
 50
90.0
  0
LINE
  5
7FD8
  8
0
  6
BYBLOCK
 62
     0
 10
1233.808478721061
 20
2996.7577882773312
 30
0.0
 11
1233.808478721061
 21
2976.7577882773312
 31
0.0
  0
INSERT
  5
7FD9
  8
0
  6
BYBLOCK
 62
     0
  2
_OPEN
 10
1233.808478721061
 20
2996.7577882773312
 30
0.0
 41
90.0
 42
90.0
 43
90.0
 50
270.0
  0
INSERT
  5
7FDA
  8
0
  6
BYBLOCK
 62
     0
  2
_DOT
 10
1233.808478721061
 20
2976.7577882773312
 30
0.0
 41
90.0
 42
90.0
 43
90.0
 50
90.0
  0
POINT
  5
7FDB
  8
DEFPOINTS
  6
BYBLOCK
 62
     0
 10
2108.7323390533352
 20
2996.7577882773312
 30
0.0
  0
POINT
  5
7FDC
  8
DEFPOINTS
  6
BYBLOCK
 62
     0
 10
2108.7323390533352
 20
2976.7577882773312
 30
0.0
  0
POINT
  5
7FDD
  8
DEFPOINTS
  6
BYBLOCK
 62
     0
 10
1233.808478721061
 20
2976.7577882773312
 30
0.0
  0
ENDBLK
  5
7FDE
  8
0
  0
BLOCK
  8
0
  2
*D18
 70
     1
 10
0.0
 20
0.0
 30
0.0
  3
*D18
  1

  0
LINE
  5
81AD
  8
3
 62
     0
 10
2086.2323390533352
 20
2976.7577882773312
 30
0.0
 11
1188.808478721061
 21
2976.7577882773312
 31
0.0
  0
LINE
  5
81AE
  8
3
 62
     0
 10
2086.2323390533352
 20
2901.7577882773312
 30
0.0
 11
1188.808478721061
 21
2901.7577882773312
 31
0.0
  0
LINE
  5
81AF
  8
3
 62
     0
 10
1233.808478721061
 20
3066.7577882773312
 30
0.0
 11
1233.808478721061
 21
3156.7577882773312
 31
0.0
  0
LINE
  5
81B0
  8
3
 62
     0
 10
1233.808478721061
 20
2811.7577882773312
 30
0.0
 11
1233.8084787210601
 21
2413.1863597059019
 31
0.0
  0
LINE
  5
81B1
  8
3
 62
     0
 10
1233.808478721061
 20
2976.7577882773312
 30
0.0
 11
1233.808478721061
 21
2901.7577882773312
 31
0.0
  0
INSERT
  5
81B2
  8
3
 62
     0
  2
_DOT
 10
1233.808478721061
 20
2976.7577882773312
 30
0.0
 41
90.0
 42
90.0
 43
90.0
 50
270.0
  0
INSERT
  5
81B3
  8
3
 62
     0
  2
_OPEN
 10
1233.808478721061
 20
2901.7577882773312
 30
0.0
 41
90.0
 42
90.0
 43
90.0
 50
90.0
  0
TEXT
  8
3
  40
135
  5
81CC
  62
0
  72
0
  71
0
 10
851.308
 20
2328.52
 30
0.000000
  1
75
  0
POINT
  5
81B5
  8
DEFPOINTS
 62
     0
 10
2108.7323390533352
 20
2976.7577882773312
 30
0.0
  0
POINT
  5
81B6
  8
DEFPOINTS
 62
     0
 10
2108.7323390533352
 20
2901.7577882773312
 30
0.0
  0
POINT
  5
81B7
  8
DEFPOINTS
 62
     0
 10
1233.808478721061
 20
2901.7577882773312
 30
0.0
  0
ENDBLK
  5
7F9D
  8
0
  0
BLOCK
  8
0
  2
_DOT
 70
     0
 10
0.0
 20
0.0
 30
0.0
  3
_DOT
  1

  0
LINE
  5
7FB6
  8
0
  6
BYBLOCK
 62
     0
 10
0.0
 20
0.0
 30
0.0
 11
-1.0
 21
-0.0000000000000284
 31
0.0
  0
POLYLINE
  5
7FB7
  8
0
  6
BYBLOCK
 62
     0
 66
     1
 10
0.0
 20
0.0
 30
0.0
 70
     1
 40
0.1666666666666666
 41
0.1666666666666666
  0
VERTEX
  5
81B8
  8
0
  6
BYBLOCK
 62
     0
 10
-0.0833333333333286
 20
-0.0000000000000284
 30
0.0
 42
1.0
  0
VERTEX
  5
81B9
  8
0
  6
BYBLOCK
 62
     0
 10
0.0833333333333286
 20
-0.0000000000000284
 30
0.0
 42
1.0
  0
SEQEND
  5
81BA
  8
0
  6
BYBLOCK
 62
     0
  0
ENDBLK
  5
7F82
  8
0
  0
BLOCK
  8
0
  2
*D20
 70
     1
 10
0.0
 20
0.0
 30
0.0
  3
*D20
  1

  0
LINE
  5
7FFD
  8
0
  6
BYBLOCK
 62
     0
 10
2086.2323390533352
 20
2901.7577882773312
 30
0.0
 11
799.72281104524154
 21
2901.7577882773312
 31
0.0
  0
LINE
  5
7FFE
  8
0
  6
BYBLOCK
 62
     0
 10
3021.7323390533329
 20
5589.6345913644436
 30
0.0
 11
799.72281104524154
 21
5589.6345913644436
 31
0.0
  0
LINE
  5
7FFF
  8
0
  6
BYBLOCK
 62
     0
 10
844.72281104524166
 20
2991.7577882773312
 30
0.0
 11
844.72281104524166
 21
5499.6345913644436
 31
0.0
  0
INSERT
  5
8000
  8
0
  6
BYBLOCK
 62
     0
  2
_OPEN
 10
844.72281104524166
 20
2901.7577882773312
 30
0.0
 41
90.0
 42
90.0
 43
90.0
 50
270.0
  0
INSERT
  5
8001
  8
0
  6
BYBLOCK
 62
     0
  2
_OPEN
 10
844.72281104524166
 20
5589.6345913644436
 30
0.0
 41
90.0
 42
90.0
 43
90.0
 50
90.0
  0
TEXT
  5
8002
  8
3
 62
     0
 10
741.86566818809865
 20
3921.053332678031
 30
0.0
 40
135.0
  1
(2688)
 50
90.0
  0
POINT
  5
8003
  8
DEFPOINTS
  6
BYBLOCK
 62
     0
 10
2108.7323390533352
 20
2901.7577882773312
 30
0.0
  0
POINT
  5
8004
  8
DEFPOINTS
  6
BYBLOCK
 62
     0
 10
3044.2323390533329
 20
5589.6345913644436
 30
0.0
  0
POINT
  5
8005
  8
DEFPOINTS
  6
BYBLOCK
 62
     0
 10
844.72281104524166
 20
5589.6345913644436
 30
0.0
  0
ENDBLK
  5
8006
  8
0
  0
BLOCK
  8
0
  2
*D21
 70
     1
 10
0.0
 20
0.0
 30
0.0
  3
*D21
  1

  0
LINE
  5
800A
  8
0
  6
BYBLOCK
 62
     0
 10
2108.7323390533352
 20
2879.2577882773312
 30
0.0
 11
2108.7323390533352
 21
2569.6239812330891
 31
0.0
  0
LINE
  5
800B
  8
0
  6
BYBLOCK
 62
     0
 10
2958.7323390533338
 20
2879.2577882773312
 30
0.0
 11
2958.7323390533338
 21
2569.6239812330891
 31
0.0
  0
LINE
  5
800C
  8
0
  6
BYBLOCK
 62
     0
 10
2198.7323390533338
 20
2614.6239812330891
 30
0.0
 11
2868.7323390533338
 21
2614.6239812330891
 31
0.0
  0
INSERT
  5
800D
  8
0
  6
BYBLOCK
 62
     0
  2
_OPEN
 10
2108.7323390533352
 20
2614.6239812330891
 30
0.0
 41
90.0
 42
90.0
 43
90.0
 50
180.0
  0
INSERT
  5
800E
  8
0
  6
BYBLOCK
 62
     0
  2
_OPEN
 10
2958.7323390533338
 20
2614.6239812330891
 30
0.0
 41
90.0
 42
90.0
 43
90.0
  0
TEXT
  5
800F
  8
3
 62
     0
 10
2360.1609104819058
 20
2659.6239812330891
 30
0.0
 40
135.0
  1
850
  0
POINT
  5
8010
  8
DEFPOINTS
  6
BYBLOCK
 62
     0
 10
2108.7323390533352
 20
2901.7577882773312
 30
0.0
  0
POINT
  5
8011
  8
DEFPOINTS
  6
BYBLOCK
 62
     0
 10
2958.7323390533338
 20
2901.7577882773312
 30
0.0
  0
POINT
  5
8012
  8
DEFPOINTS
  6
BYBLOCK
 62
     0
 10
2958.7323390533338
 20
2614.6239812330891
 30
0.0
  0
ENDBLK
  5
8013
  8
0
  0
BLOCK
  8
0
  2
*D22
 70
     1
 10
0.0
 20
0.0
 30
0.0
  3
*D22
  1

  0
LINE
  5
8017
  8
0
  6
BYBLOCK
 62
     0
 10
2958.7323390533338
 20
2879.2577882773312
 30
0.0
 11
2958.7323390533338
 21
2569.6239812330891
 31
0.0
  0
LINE
  5
8018
  8
0
  6
BYBLOCK
 62
     0
 10
5008.7323390533338
 20
2879.2577882773312
 30
0.0
 11
5008.7323390533338
 21
2569.6239812330891
 31
0.0
  0
LINE
  5
8019
  8
0
  6
BYBLOCK
 62
     0
 10
3048.7323390533338
 20
2614.6239812330891
 30
0.0
 11
4918.7323390533347
 21
2614.6239812330891
 31
0.0
  0
INSERT
  5
801A
  8
0
  6
BYBLOCK
 62
     0
  2
_OPEN
 10
2958.7323390533338
 20
2614.6239812330891
 30
0.0
 41
90.0
 42
90.0
 43
90.0
 50
180.0
  0
INSERT
  5
801B
  8
0
  6
BYBLOCK
 62
     0
  2
_OPEN
 10
5008.7323390533338
 20
2614.6239812330891
 30
0.0
 41
90.0
 42
90.0
 43
90.0
  0
TEXT
  5
801C
  8
3
 62
     0
 10
3745.8751961961921
 20
2659.6239812330891
 30
0.0
 40
135.0
  1
2050
  0
POINT
  5
801D
  8
DEFPOINTS
  6
BYBLOCK
 62
     0
 10
2958.7323390533338
 20
2901.7577882773312
 30
0.0
  0
POINT
  5
801E
  8
DEFPOINTS
  6
BYBLOCK
 62
     0
 10
5008.7323390533338
 20
2901.7577882773312
 30
0.0
  0
POINT
  5
801F
  8
DEFPOINTS
  6
BYBLOCK
 62
     0
 10
5008.7323390533338
 20
2614.6239812330891
 30
0.0
  0
ENDBLK
  5
8020
  8
0
  0
BLOCK
  8
0
  2
*D23
 70
     1
 10
0.0
 20
0.0
 30
0.0
  3
*D23
  1

  0
LINE
  5
8024
  8
0
  6
BYBLOCK
 62
     0
 10
5998.7016497816257
 20
2879.079022556838
 30
0.0
 11
5998.7016497816257
 21
2569.6239812330891
 31
0.0
  0
LINE
  5
8025
  8
0
  6
BYBLOCK
 62
     0
 10
7329.7016497816239
 20
2879.079022556838
 30
0.0
 11
7329.7016497816239
 21
2569.6239812330891
 31
0.0
  0
LINE
  5
8026
  8
0
  6
BYBLOCK
 62
     0
 10
6088.7016497816257
 20
2614.6239812330891
 30
0.0
 11
7239.7016497816257
 21
2614.6239812330891
 31
0.0
  0
INSERT
  5
8027
  8
0
  6
BYBLOCK
 62
     0
  2
_OPEN
 10
5998.7016497816257
 20
2614.6239812330891
 30
0.0
 41
90.0
 42
90.0
 43
90.0
 50
180.0
  0
INSERT
  5
8028
  8
0
  6
BYBLOCK
 62
     0
  2
_OPEN
 10
7329.7016497816239
 20
2614.6239812330891
 30
0.0
 41
90.0
 42
90.0
 43
90.0
  0
TEXT
  5
8029
  8
3
 62
     0
 10
6468.1302212101973
 20
2659.6239812330891
 30
0.0
 40
135.0
  1
1331
  0
POINT
  5
802A
  8
DEFPOINTS
  6
BYBLOCK
 62
     0
 10
5998.7016497816257
 20
2901.579022556838
 30
0.0
  0
POINT
  5
802B
  8
DEFPOINTS
  6
BYBLOCK
 62
     0
 10
7329.7016497816239
 20
2901.579022556838
 30
0.0
  0
POINT
  5
802C
  8
DEFPOINTS
  6
BYBLOCK
 62
     0
 10
7329.7016497816239
 20
2614.6239812330891
 30
0.0
  0
ENDBLK
  5
802D
  8
0
  0
BLOCK
  8
0
  2
*D24
 70
     1
 10
0.0
 20
0.0
 30
0.0
  3
*D24
  1

  0
LINE
  5
8031
  8
0
  6
BYBLOCK
 62
     0
 10
7329.7016497816239
 20
2879.079022556838
 30
0.0
 11
7329.7016497816239
 21
2569.6239812330891
 31
0.0
  0
LINE
  5
8032
  8
0
  6
BYBLOCK
 62
     0
 10
8358.7016497816276
 20
2879.079022556838
 30
0.0
 11
8358.7016497816276
 21
2569.6239812330891
 31
0.0
  0
LINE
  5
8033
  8
0
  6
BYBLOCK
 62
     0
 10
7419.7016497816248
 20
2614.6239812330891
 30
0.0
 11
8268.7016497816257
 21
2614.6239812330891
 31
0.0
  0
INSERT
  5
8034
  8
0
  6
BYBLOCK
 62
     0
  2
_OPEN
 10
7329.7016497816239
 20
2614.6239812330891
 30
0.0
 41
90.0
 42
90.0
 43
90.0
 50
180.0
  0
INSERT
  5
8035
  8
0
  6
BYBLOCK
 62
     0
  2
_OPEN
 10
8358.7016497816276
 20
2614.6239812330891
 30
0.0
 41
90.0
 42
90.0
 43
90.0
  0
TEXT
  5
8036
  8
3
 62
     0
 10
7622.415935495912
 20
2659.6239812330891
 30
0.0
 40
135.0
  1
1029
  0
POINT
  5
8037
  8
DEFPOINTS
  6
BYBLOCK
 62
     0
 10
7329.7016497816239
 20
2901.579022556838
 30
0.0
  0
POINT
  5
8038
  8
DEFPOINTS
  6
BYBLOCK
 62
     0
 10
8358.7016497816276
 20
2901.579022556838
 30
0.0
  0
POINT
  5
8039
  8
DEFPOINTS
  6
BYBLOCK
 62
     0
 10
8358.7016497816276
 20
2614.6239812330891
 30
0.0
  0
ENDBLK
  5
803A
  8
0
  0
ENDSEC
  0
SECTION
  2
ENTITIES
  0
CIRCLE
  5
7AD3
  8
1
 10
2958.7323390533352
 20
4586.7577882773303
 30
0.0
 40
225.0
  0
ARC
  5
7AD4
  8
1
 10
2958.7323390533352
 20
4586.7577882773303
 30
0.0
 40
380.0
 50
59.005631948979243
 51
247.58680483708949
  0
ARC
  5
7AD5
  8
1
 10
3044.2323390533329
 20
4672.1345913644454
 30
0.0
 40
917.5
 50
90.0
 51
95.347037803486259
  0
LINE
  5
7AD6
  8
2
 10
2958.7323390533352
 20
5711.532337836612
 30
0.0
 11
2958.7323390533338
 21
2901.7577882773312
 31
0.0
  0
LINE
  5
7AD7
  8
1
 10
3154.414789231982
 20
4912.5005989302772
 30
0.0
 11
4733.256966757961
 21
3614.0477224895471
 31
0.0
  0
LINE
  5
7AD8
  8
1
 10
3069.781933659162
 20
4782.4437293612054
 30
0.0
 11
4674.1282114323212
 21
3521.9950646933898
 31
0.0
  0
ARC
  5
7AD9
  8
1
 10
2856.7323390533338
 20
4484.7577882773312
 30
0.0
 40
1309.0
 50
274.46913665552108
 51
0.0
  0
CIRCLE
  5
7ADA
  8
1
 10
2958.7323390533352
 20
4586.7577882773303
 30
0.0
 40
750.0
  0
CIRCLE
  5
7ADB
  8
1
 10
2958.7323390533352
 20
4586.7577882773303
 30
0.0
 40
700.0
  0
ARC
  5
7ADC
  8
1
 10
3060.7323390533338
 20
4484.7577882773312
 30
0.0
 40
1105.0
 50
0.0
 51
90.855579635430189
  0
LINE
  5
7ADD
  8
1
 10
2108.7323390533352
 20
2901.7577882773312
 30
0.0
 11
5008.7323390533338
 21
2901.7577882773312
 31
0.0
  0
LINE
  5
7ADE
  8
1
 10
2108.7323390533352
 20
2976.7577882773312
 30
0.0
 11
5008.7323390533338
 21
2976.7577882773312
 31
0.0
  0
LINE
  5
7ADF
  8
1
 10
2108.7323390533352
 20
3146.7577882773312
 30
0.0
 11
5008.7323390533338
 21
3146.7577882773312
 31
0.0
  0
LINE
  5
7AE0
  8
1
 10
2108.7323390533352
 20
2996.7577882773312
 30
0.0
 11
5008.7323390533338
 21
2996.7577882773312
 31
0.0
  0
LINE
  5
7AE1
  8
1
 10
2108.7323390533352
 20
2976.7577882773312
 30
0.0
 11
2108.7323390533352
 21
2901.7577882773312
 31
0.0
  0
LINE
  5
7AE2
  8
1
 10
2108.7323390533352
 20
3146.7577882773312
 30
0.0
 11
2108.7323390533352
 21
2996.7577882773312
 31
0.0
  0
LINE
  5
7AE3
  8
1
 10
5008.7323390533338
 20
2976.7577882773312
 30
0.0
 11
5008.7323390533338
 21
2901.7577882773312
 31
0.0
  0
LINE
  5
7AE4
  8
2
 10
4608.7323390533347
 20
3799.9199880810079
 30
0.0
 11
4608.7323390533347
 21
2901.2410435537281
 31
0.0
  0
POINT
  5
7AE5
  8
1
 10
5008.7323390533338
 20
2901.7577882773312
 30
0.0
  0
POINT
  5
7AE6
  8
1
 10
5008.7323390533338
 20
2901.7577882773312
 30
0.0
  0
LINE
  5
7AE7
  8
2
 10
4352.2252573201768
 20
3406.7577882773312
 30
0.0
 11
4876.8636649922119
 21
3406.7577882773312
 31
0.0
  0
LINE
  5
7AE8
  8
1
 10
4358.7761421406512
 20
3206.7577882773312
 30
0.0
 11
4509.3367860788949
 21
3206.7577882773312
 31
0.0
  0
ARC
  5
7AE9
  8
1
 10
4608.7323390533347
 20
3406.7577882773312
 30
0.0
 40
203.5
 50
285.60376000000002
 51
254.39630099999991
  0
LINE
  5
7AEA
  8
1
 10
2813.8446894973981
 20
4235.4636536747803
 30
0.0
 11
4516.5315279766128
 21
3183.2079947916841
 31
0.0
  0
LINE
  5
7AEB
  8
1
 10
4555.1924861971238
 20
3285.5565747679962
 30
0.0
 11
2867.8156077880708
 21
4380.9444068463854
 31
0.0
  0
LINE
  5
7AEE
  8
1
 10
4348.7323390533338
 20
3146.7577882773312
 30
0.0
 11
4358.7761421406512
 21
3206.7577882773312
 31
0.0
  0
ARC
  5
7AF6
  8
1
 10
4608.7323390533347
 20
3406.7577882773312
 30
0.0
 40
241.8170790715175
 50
247.5868048370896
 51
59.005631948979222
  0
LINE
  5
7AF7
  8
1
 10
4797.7323390533347
 20
3281.0844482773318
 30
0.0
 11
4797.7323390533347
 21
3206.7577882773312
 31
0.0
  0
LINE
  5
7AF8
  8
1
 10
4419.7323390533347
 20
3281.0844482773318
 30
0.0
 11
4419.7323390533347
 21
3206.7577882773312
 31
0.0
  0
LINE
  5
7AFA
  8
1
 10
4663.4703760533348
 20
3210.7577882773312
 30
0.0
 11
4553.9943020533346
 21
3210.7577882773312
 31
0.0
  0
LINE
  5
7AFB
  8
1
 10
4608.7323390533347
 20
3196.9091488861959
 30
0.0
 11
4708.1278920277737
 21
3196.9091488861959
 31
0.0
  0
LINE
  5
7AFC
  8
1
 10
4504.6297690533347
 20
3231.9009762773312
 30
0.0
 11
4497.8925734710447
 21
3206.7577882773312
 31
0.0
  0
LINE
  5
7AFD
  8
1
 10
4509.3367860788949
 20
3206.7577882773312
 30
0.0
 11
4509.3367860788949
 21
3196.9091488861959
 31
0.0
  0
LINE
  5
7AFF
  8
1
 10
4419.7323390533347
 20
3206.7577882773312
 30
0.0
 11
4499.2323390533338
 21
3206.7577882773312
 31
0.0
  0
LINE
  5
7B00
  8
1
 10
4608.7323390533347
 20
3196.9091488861959
 30
0.0
 11
4509.3367860788949
 21
3196.9091488861959
 31
0.0
  0
LINE
  5
7B04
  8
1
 10
4868.7323390533347
 20
3146.7577882773312
 30
0.0
 11
4858.6885359660173
 21
3206.7577882773312
 31
0.0
  0
LINE
  5
7B06
  8
1
 10
4712.835122053335
 20
3231.9010982773302
 30
0.0
 11
4719.5720436500469
 21
3206.7577882773312
 31
0.0
  0
LINE
  5
7B07
  8
1
 10
4708.1278920277737
 20
3206.7577882773312
 30
0.0
 11
4708.1278920277737
 21
3196.9091488861959
 31
0.0
  0
LINE
  5
7B08
  8
1
 10
4797.7323390533347
 20
3206.7577882773312
 30
0.0
 11
4718.2323390533347
 21
3206.7577882773312
 31
0.0
  0
LINE
  5
7B09
  8
1
 10
4797.7323390533347
 20
3206.7577882773312
 30
0.0
 11
4717.7323390533338
 21
3206.7577882773312
 31
0.0
  0
LINE
  5
7B0B
  8
1
 10
4858.6885359660173
 20
3206.7577882773312
 30
0.0
 11
4708.1278920277737
 21
3206.7577882773312
 31
0.0
  0
LINE
  5
7B0C
  8
1
 10
5008.7323390533338
 20
3146.7577882773312
 30
0.0
 11
5008.7323390533338
 21
2996.7577882773312
 31
0.0
  0
POINT
  5
7B0D
  8
1
 10
5008.7323390533338
 20
2996.7577882773312
 30
0.0
  0
POINT
  5
7B0E
  8
1
 10
5008.7323390533338
 20
2996.7577882773312
 30
0.0
  0
POINT
  5
7B0F
  8
1
 10
5008.7323390533338
 20
2976.7577882773312
 30
0.0
  0
POINT
  5
7B10
  8
1
 10
5008.7323390533338
 20
2976.7577882773312
 30
0.0
  0
POINT
  5
7B11
  8
1
 10
5008.7323390533338
 20
2976.7577882773312
 30
0.0
  0
POINT
  5
7B12
  8
1
 10
5008.7323390533338
 20
2976.7577882773312
 30
0.0
  0
CIRCLE
  5
7B17
  8
1
 10
4608.7323390533347
 20
3406.7577882773312
 30
0.0
 40
132.49999999999989
  0
ARC
  5
7B18
  8
1
 10
4424.7323390533338
 20
3281.0844482773318
 30
0.0
 40
5.0000669999999987
 50
124.943665
 51
180.0
  0
LINE
  5
7B19
  8
1
 10
4421.8685690533348
 20
3285.183081277331
 30
0.0
 11
4437.8064360533344
 21
3296.3193112773311
 31
0.0
  0
ARC
  5
7B1A
  8
1
 10
4792.7323390533338
 20
3281.0844482773318
 30
0.0
 40
5.0
 50
0.0
 51
55.05633899999998
  0
LINE
  5
7B1C
  8
1
 10
4795.5962310533341
 20
3285.183081277331
 30
0.0
 11
4779.6583640533354
 21
3296.3193112773311
 31
0.0
  0
ARC
  5
7B1D
  8
1
 10
3044.2323390533338
 20
4672.2577882773312
 30
0.0
 40
917.5
 50
95.347037803486259
 51
185.3470378034863
  0
LINE
  5
7B1E
  8
2
 10
1788.444491721544
 20
4586.7577882773303
 30
0.0
 11
4291.2718929452021
 21
4586.7577882773303
 31
0.0
  0
LINE
  5
7B1F
  8
1
 10
2028.732339053334
 20
3095.7577882773312
 30
0.0
 11
2958.7323390533352
 21
3179.643934979621
 31
0.0
  0
LINE
  5
7B20
  8
1
 10
2078.7323390533338
 20
4545.7577882773312
 30
0.0
 11
2078.7323390533329
 21
3100.2677961645509
 31
0.0
  0
LINE
  5
7B21
  8
1
 10
2034.732339053334
 20
4599.7577882773312
 30
0.0
 11
2034.732339053334
 21
3041.7577882773312
 31
0.0
  0
LINE
  5
7B22
  8
1
 10
2028.732339053334
 20
4599.7577882773312
 30
0.0
 11
2028.732339053334
 21
3041.7577882773312
 31
0.0
  0
LINE
  5
7B23
  8
1
 10
2028.732339053334
 20
4545.7577882773312
 30
0.0
 11
2137.828594329957
 21
4545.7577882773312
 31
0.0
  0
ARC
  5
7B24
  8
1
 10
2873.532339053334
 20
4672.2577882773312
 30
0.0
 40
746.49999999999989
 50
186.57677613025601
 51
189.7562766181166
  0
LINE
  5
7B25
  8
1
 10
2028.732339053334
 20
4599.7577882773312
 30
0.0
 11
2034.732339053334
 21
4599.7577882773303
 31
0.0
  0
LINE
  5
7B26
  8
1
 10
2028.732339053334
 20
3041.7577882773312
 30
0.0
 11
2034.732339053334
 21
3041.7577882773312
 31
0.0
  0
LINE
  5
7B27
  8
1
 10
8279.7016497816257
 20
4586.7577882773303
 30
0.0
 11
8279.7016497816257
 21
5589.7577882773312
 31
0.0
  0
LINE
  5
7B28
  8
2
 10
7329.7016497816239
 20
5757.4598724396074
 30
0.0
 11
7329.7016497816239
 21
2901.579022556838
 31
0.0
  0
LINE
  5
7B29
  8
1
 10
6110.7016497816257
 20
4506.7577882773312
 30
0.0
 11
6110.7016497816257
 21
4666.7577882773312
 31
0.0
  0
LINE
  5
7B2A
  8
1
 10
6379.7016497816257
 20
4586.7577882773303
 30
0.0
 11
6379.7016497816257
 21
5589.7577882773312
 31
0.0
  0
LINE
  5
7B2B
  8
1
 10
5960.7016497816257
 20
3166.579022556838
 30
0.0
 11
5960.7016497816257
 21
4966.7577882773312
 31
0.0
  0
LINE
  5
7B2C
  8
1
 10
6096.1016497816254
 20
3274.079022556838
 30
0.0
 11
6096.1016497816254
 21
4811.7577882773312
 31
0.0
  0
LINE
  5
7B2D
  8
1
 10
6010.7016497816257
 20
3274.079022556838
 30
0.0
 11
6010.7016497816257
 21
4811.7577882773312
 31
0.0
  0
LINE
  5
7B2E
  8
1
 10
8358.7016497816276
 20
2976.579022556838
 30
0.0
 11
8358.7016497816276
 21
2901.5790225568389
 31
0.0
  0
LINE
  5
7B2F
  8
1
 10
5998.7016497816257
 20
2976.5790225568389
 30
0.0
 11
5998.7016497816257
 21
2901.579022556838
 31
0.0
  0
LINE
  5
7B30
  8
1
 10
8358.7016497816276
 20
2901.579022556838
 30
0.0
 11
5998.7016497816257
 21
2901.579022556838
 31
0.0
  0
LINE
  5
7B31
  8
1
 10
8358.7016497816276
 20
2996.579022556838
 30
0.0
 11
5998.7016497816257
 21
2996.579022556838
 31
0.0
  0
LINE
  5
7B32
  8
1
 10
8284.7016497816257
 20
3146.579022556838
 30
0.0
 11
5998.7016497816257
 21
3146.579022556838
 31
0.0
  0
LINE
  5
7B33
  8
1
 10
8358.7016497816276
 20
2976.579022556838
 30
0.0
 11
5998.7016497816257
 21
2976.579022556838
 31
0.0
  0
LINE
  5
7B34
  8
1
 10
6197.0696768043572
 20
3606.9746411493629
 30
0.0
 11
6197.0696768043572
 21
3406.9746411493629
 31
0.0
  0
LINE
  5
7B35
  8
1
 10
6846.5696768043572
 20
3196.9746411493629
 30
0.0
 11
6846.5696768043572
 21
3606.9746411493629
 31
0.0
  0
LINE
  5
7B36
  8
1
 10
6187.0696768043563
 20
3436.9746411493638
 30
0.0
 11
6047.0696768043572
 21
3436.9746411493638
 31
0.0
  0
LINE
  5
7B37
  8
1
 10
6187.0696768043563
 20
3376.9746411493629
 30
0.0
 11
6047.0696768043572
 21
3376.9746411493629
 31
0.0
  0
LINE
  5
7B38
  8
1
 10
6157.0696768043563
 20
3372.9746411493629
 30
0.0
 11
6047.0696768043572
 21
3372.9746411493629
 31
0.0
  0
LINE
  5
7B3A
  8
2
 10
5928.1641083029863
 20
3406.9746411493629
 30
0.0
 11
6855.2414298043568
 21
3406.9746411493629
 31
0.0
  0
LINE
  5
7B3B
  8
1
 10
6146.1016497816254
 20
3166.579022556838
 30
0.0
 11
5960.7016497816257
 21
3166.579022556838
 31
0.0
  0
LINE
  5
7B3C
  8
1
 10
5998.7016497816248
 20
3146.579022556838
 30
0.0
 11
5998.7016497816257
 21
2996.579022556838
 31
0.0
  0
LINE
  5
7B3D
  8
1
 10
6047.0696768043572
 20
3372.9746411493629
 30
0.0
 11
6047.0696768043572
 21
3436.9746411493638
 31
0.0
  0
LINE
  5
7B3E
  8
1
 10
6096.1016497816254
 20
3274.079022556838
 30
0.0
 11
6010.7016497816248
 21
3274.079022556838
 31
0.0
  0
LINE
  5
7B3F
  8
1
 10
6096.1016497816236
 20
3539.079022556838
 30
0.0
 11
6010.7016497816257
 21
3539.079022556838
 31
0.0
  0
LINE
  5
7B40
  8
1
 10
6197.0696768043572
 20
3196.9746411493629
 30
0.0
 11
6197.0696768043572
 21
3406.9746411493629
 31
0.0
  0
LINE
  5
7B41
  8
1
 10
6146.1016497816254
 20
3166.579022556838
 30
0.0
 11
6146.1016497816254
 21
3342.9003155046389
 31
0.0
  0
LINE
  5
7B42
  8
1
 10
6846.5696768043572
 20
3196.9746411493629
 30
0.0
 11
6472.5696768043563
 21
3196.9746411493629
 31
0.0
  0
LINE
  5
7B43
  8
1
 10
6197.0696768043572
 20
3196.9746411493629
 30
0.0
 11
6472.5696768043563
 21
3196.9746411493629
 31
0.0
  0
LINE
  5
7B45
  8
1
 10
6187.0696768043563
 20
3439.4746411493629
 30
0.0
 11
6187.0696768043563
 21
3374.4746411493638
 31
0.0
  0
LINE
  5
7B46
  8
1
 10
6187.0696768043563
 20
3374.4746411493638
 30
0.0
 11
6197.0696768043572
 21
3374.4746411493638
 31
0.0
  0
LINE
  5
7B47
  8
1
 10
6157.0696768043563
 20
3372.9746411493629
 30
0.0
 11
6157.0696768043563
 21
3376.9746411493629
 31
0.0
  0
LINE
  5
7B48
  8
1
 10
6187.0696768043563
 20
3439.4746411493629
 30
0.0
 11
6197.0696768043572
 21
3439.4746411493629
 31
0.0
  0
LINE
  5
7B49
  8
1
 10
6110.7016497816257
 20
4506.7577882773312
 30
0.0
 11
6096.1016497816254
 21
4506.7577882773312
 31
0.0
  0
LINE
  5
7B4A
  8
1
 10
6096.1016497816254
 20
4361.7577882773312
 30
0.0
 11
6010.7016497816257
 21
4361.7577882773312
 31
0.0
  0
LINE
  5
7B4B
  8
1
 10
6846.5696768043572
 20
3606.974641149362
 30
0.0
 11
6197.0696768043572
 21
3606.9746411493629
 31
0.0
  0
LINE
  5
7B4C
  8
1
 10
6176.5016497816268
 20
4516.7577882773312
 30
0.0
 11
6176.5016497816259
 21
4346.7577882773312
 31
0.0
  0
LINE
  5
7B4D
  8
1
 10
6219.9016497816247
 20
4346.7577882773312
 30
0.0
 11
6379.7016497816257
 21
4346.7577882773312
 31
0.0
  0
LINE
  5
7B4E
  8
1
 10
6301.5016497816259
 20
4346.7577882773312
 30
0.0
 11
6176.5016497816259
 21
4346.7577882773312
 31
0.0
  0
LINE
  5
7B4F
  8
1
 10
6219.9016497816247
 20
4516.7577882773312
 30
0.0
 11
6379.7016497816257
 21
4516.7577882773312
 31
0.0
  0
LINE
  5
7B50
  8
1
 10
6301.5016497816259
 20
4516.7577882773312
 30
0.0
 11
6176.5016497816259
 21
4516.7577882773312
 31
0.0
  0
LINE
  5
7B51
  8
1
 10
8358.7016497816276
 20
3146.579022556838
 30
0.0
 11
8358.7016497816276
 21
2996.579022556838
 31
0.0
  0
LINE
  5
7B52
  8
1
 10
8284.7016497816257
 20
3146.579022556838
 30
0.0
 11
8358.7016497816276
 21
3146.579022556838
 31
0.0
  0
LINE
  5
7B53
  8
1
 10
8459.9016497816265
 20
4516.7577882773312
 30
0.0
 11
8459.9016497816265
 21
4346.7577882773312
 31
0.0
  0
LINE
  5
7B54
  8
1
 10
8357.9016497816265
 20
4346.7577882773312
 30
0.0
 11
8459.9016497816265
 21
4346.7577882773312
 31
0.0
  0
LINE
  5
7B55
  8
1
 10
8412.9016497816228
 20
4346.7577882773312
 30
0.0
 11
8279.7016497816257
 21
4346.7577882773312
 31
0.0
  0
LINE
  5
7B56
  8
1
 10
8459.9016497816265
 20
4516.7577882773312
 30
0.0
 11
8385.4016497816247
 21
4516.7577882773312
 31
0.0
  0
LINE
  5
7B5A
  8
2
 10
8385.7991742663999
 20
4586.7577882773303
 30
0.0
 11
5912.1303288361232
 21
4586.7577882773303
 31
0.0
  0
LINE
  5
7B5B
  8
1
 10
6379.701649781623
 20
3606.9746411493629
 30
0.0
 11
6379.7016497816248
 21
4586.7577882773303
 31
0.0
  0
LINE
  5
7B5C
  8
1
 10
6146.1016497816254
 20
4966.7577882773312
 30
0.0
 11
5960.7016497816257
 21
4966.7577882773312
 31
0.0
  0
LINE
  5
7B5D
  8
1
 10
6110.7016497816257
 20
4666.7577882773312
 30
0.0
 11
6096.1016497816263
 21
4666.7577882773312
 31
0.0
  0
LINE
  5
7B5E
  8
1
 10
6096.1016497816263
 20
4811.7577882773312
 30
0.0
 11
6010.7016497816257
 21
4811.7577882773312
 31
0.0
  0
LINE
  5
7B5F
  8
1
 10
6146.1016497816254
 20
4740.0860813427462
 30
0.0
 11
6146.1016497816254
 21
4966.7577882773312
 31
0.0
  0
LINE
  5
7B60
  8
1
 10
6379.7016497816248
 20
4634.2577882773312
 30
0.0
 11
6110.7016497816257
 21
4634.2577882773312
 31
0.0
  0
LINE
  5
7B61
  8
1
 10
6379.7016497816257
 20
4539.2577882773312
 30
0.0
 11
6110.7016497816257
 21
4539.2577882773312
 31
0.0
  0
LINE
  5
7B64
  8
1
 10
8279.7016497816257
 20
3145.7577882773312
 30
0.0
 11
8279.7016497816257
 21
4586.7577882773303
 31
0.0
  0
LINE
  5
7B68
  8
1
 10
5008.7323390533338
 20
8596.3574783022359
 30
0.0
 11
5008.7323390533338
 21
7496.3574783022359
 31
0.0
  0
LINE
  5
7B69
  8
1
 10
4165.7323390533338
 20
9777.3574783022395
 30
0.0
 11
4165.7323390533338
 21
7877.357478302235
 31
0.0
  0
LINE
  5
7B6A
  8
2
 10
2958.7323390533352
 20
9997.0438942728106
 30
0.0
 11
2958.7323390533352
 21
7426.7593600595619
 31
0.0
  0
LINE
  5
7B6B
  8
1
 10
2028.732339053334
 20
9827.3574783022395
 30
0.0
 11
2028.732339053334
 21
7827.3574783022359
 31
0.0
  0
LINE
  5
7B6C
  8
1
 10
2958.7323390533352
 20
7877.357478302235
 30
0.0
 11
2034.732339053334
 21
7877.357478302235
 31
0.0
  0
LINE
  5
7B6D
  8
1
 10
5008.7323390533338
 20
7496.3574783022359
 30
0.0
 11
2108.7323390533352
 21
7496.3574783022359
 31
0.0
  0
LINE
  5
7B6E
  8
1
 10
2108.7323390533352
 20
7877.357478302235
 30
0.0
 11
2108.7323390533352
 21
7496.3574783022359
 31
0.0
  0
LINE
  5
7B6F
  8
1
 10
4848.7323390533338
 20
7643.7574783022346
 30
0.0
 11
2569.7323390533338
 21
7643.7574783022346
 31
0.0
  0
LINE
  5
7B70
  8
1
 10
4848.7323390533338
 20
7458.3574783022359
 30
0.0
 11
2569.7323390533338
 21
7458.3574783022359
 31
0.0
  0
LINE
  5
7B71
  8
1
 10
4741.2323390533338
 20
7593.7574783022364
 30
0.0
 11
2724.7323390533338
 21
7593.7574783022374
 31
0.0
  0
LINE
  5
7B72
  8
1
 10
4741.2323390533338
 20
7508.3574783022359
 30
0.0
 11
2724.7323390533338
 21
7508.3574783022368
 31
0.0
  0
LINE
  5
7B73
  8
1
 10
4165.7323390533338
 20
7877.357478302235
 30
0.0
 11
2958.7323390533352
 21
7877.357478302235
 31
0.0
  0
LINE
  5
7B74
  8
1
 10
2997.2323390533352
 20
7877.357478302235
 30
0.0
 11
2997.2323390533352
 21
7608.357478302235
 31
0.0
  0
LINE
  5
7B75
  8
1
 10
2902.2323390533338
 20
7877.357478302235
 30
0.0
 11
2902.2323390533338
 21
7608.357478302235
 31
0.0
  0
LINE
  5
7B76
  8
1
 10
3029.7323390533338
 20
7608.3574783022368
 30
0.0
 11
2869.7323390533352
 21
7608.357478302235
 31
0.0
  0
LINE
  5
7B77
  8
1
 10
2724.7323390533338
 20
7593.7574783022374
 30
0.0
 11
2724.7323390533352
 21
7508.3574783022359
 31
0.0
  0
LINE
  5
7B78
  8
1
 10
2569.7323390533338
 20
7643.7574783022374
 30
0.0
 11
2569.7323390533338
 21
7458.3574783022359
 31
0.0
  0
LINE
  5
7B79
  8
1
 10
2869.7323390533352
 20
7608.357478302235
 30
0.0
 11
2869.7323390533352
 21
7593.7574783022374
 31
0.0
  0
LINE
  5
7B7A
  8
1
 10
3174.7323390533352
 20
7593.7574783022374
 30
0.0
 11
3174.7323390533352
 21
7508.3574783022359
 31
0.0
  0
LINE
  5
7B7B
  8
1
 10
3029.7323390533338
 20
7608.3574783022368
 30
0.0
 11
3029.7323390533338
 21
7593.7574783022364
 31
0.0
  0
LINE
  5
7B7C
  8
1
 10
4818.7323390533347
 20
7701.0574783022357
 30
0.0
 11
4818.7323390533347
 21
7976.5574783022357
 31
0.0
  0
LINE
  5
7B7D
  8
2
 10
4608.7323390533347
 20
7425.4361278961178
 30
0.0
 11
4608.7323390533347
 21
8359.2292313022353
 31
0.0
  0
LINE
  5
7B7E
  8
1
 10
4642.7323390533338
 20
7661.0574783022357
 30
0.0
 11
4642.7323390533338
 21
7551.0574783022366
 31
0.0
  0
LINE
  5
7B7F
  8
1
 10
4638.7323390533338
 20
7691.0574783022348
 30
0.0
 11
4638.7323390533338
 21
7551.0574783022366
 31
0.0
  0
LINE
  5
7B80
  8
1
 10
4578.7323390533338
 20
7691.0574783022348
 30
0.0
 11
4578.7323390533338
 21
7551.0574783022366
 31
0.0
  0
LINE
  5
7B81
  8
1
 10
4848.7323390533338
 20
7643.7574783022346
 30
0.0
 11
4848.7323390533338
 21
7458.3574783022359
 31
0.0
  0
LINE
  5
7B82
  8
1
 10
4741.2323390533338
 20
7593.7574783022364
 30
0.0
 11
4741.2323390533338
 21
7508.3574783022359
 31
0.0
  0
LINE
  5
7B83
  8
1
 10
4476.2323390533347
 20
7593.7574783022364
 30
0.0
 11
4476.2323390533347
 21
7508.3574783022359
 31
0.0
  0
LINE
  5
7B84
  8
1
 10
4642.7323390533338
 20
7551.0574783022366
 30
0.0
 11
4578.7323390533338
 21
7551.0574783022366
 31
0.0
  0
LINE
  5
7B85
  8
1
 10
4408.7323390533347
 20
8350.5574783022366
 30
0.0
 11
4408.7323390533347
 21
7701.0574783022357
 31
0.0
  0
LINE
  5
7B86
  8
1
 10
4818.7323390533347
 20
7701.0574783022357
 30
0.0
 11
4608.7323390533347
 21
7701.0574783022357
 31
0.0
  0
LINE
  5
7B87
  8
1
 10
4641.2323390533338
 20
7691.0574783022348
 30
0.0
 11
4641.2323390533338
 21
7701.0574783022357
 31
0.0
  0
LINE
  5
7B88
  8
1
 10
4642.7323390533338
 20
7661.0574783022357
 30
0.0
 11
4638.7323390533338
 21
7661.0574783022357
 31
0.0
  0
LINE
  5
7B89
  8
1
 10
4576.2323390533338
 20
7691.0574783022348
 30
0.0
 11
4576.2323390533338
 21
7701.0574783022357
 31
0.0
  0
LINE
  5
7B8A
  8
1
 10
4576.2323390533338
 20
7691.0574783022348
 30
0.0
 11
4641.2323390533338
 21
7691.0574783022348
 31
0.0
  0
LINE
  5
7B8B
  8
1
 10
4408.7323390533347
 20
7701.0574783022357
 30
0.0
 11
4608.7323390533347
 21
7701.0574783022357
 31
0.0
  0
LINE
  5
7B8C
  8
1
 10
4818.7323390533347
 20
8350.5574783022348
 30
0.0
 11
4818.7323390533347
 21
7976.5574783022357
 31
0.0
  0
LINE
  5
7B8D
  8
1
 10
4818.7323390533347
 20
8350.5574783022348
 30
0.0
 11
4408.7323390533347
 21
8350.5574783022366
 31
0.0
  0
LINE
  5
7B8E
  8
1
 10
2958.7323390533352
 20
9777.3574783022395
 30
0.0
 11
2034.732339053334
 21
9777.3574783022395
 31
0.0
  0
LINE
  5
7B8F
  8
2
 10
4229.2738955335881
 20
8827.3574783022359
 30
0.0
 11
1971.21120514072
 21
8827.3574783022359
 31
0.0
  0
LINE
  5
7B90
  8
1
 10
3808.7323390533352
 20
9856.3574783022359
 30
0.0
 11
2108.7323390533352
 21
9856.3574783022359
 31
0.0
  0
LINE
  5
7B91
  8
1
 10
2108.7323390533352
 20
9856.3574783022359
 30
0.0
 11
2108.7323390533352
 21
9777.3574783022395
 31
0.0
  0
LINE
  5
7B92
  8
1
 10
5008.7323390533338
 20
8596.3574783022359
 30
0.0
 11
4165.7323390533338
 21
8596.3574783022359
 31
0.0
  0
LINE
  5
7B93
  8
1
 10
4165.7323390533338
 20
9777.3574783022359
 30
0.0
 11
2958.7323390533352
 21
9777.3574783022395
 31
0.0
  0
LINE
  5
7B94
  8
1
 10
3808.7323390533352
 20
9856.3574783022359
 30
0.0
 11
3808.7323390533352
 21
9777.3574783022359
 31
0.0
  0
LINE
  5
7B96
  8
1
 10
2034.732339053334
 20
9827.3574783022359
 30
0.0
 11
2028.732339053334
 21
9827.3574783022395
 31
0.0
  0
LINE
  5
7B97
  8
1
 10
2034.732339053334
 20
7827.3574783022359
 30
0.0
 11
2028.732339053334
 21
7827.3574783022359
 31
0.0
  0
LINE
  5
7B99
  8
1
 10
2034.732339053334
 20
9827.3574783022395
 30
0.0
 11
2034.732339053334
 21
7827.3574783022359
 31
0.0
  0
LINE
  5
7B9A
  8
4
 10
8325.0
 20
1803.5825204486789
 30
0.0
 11
8325.0
 21
903.58252044867925
 31
0.0
  0
LINE
  5
7B9B
  8
4
 10
5175.0
 20
1803.5825204486789
 30
0.0
 11
5175.0
 21
903.58252044867925
 31
0.0
  0
LINE
  5
7B9C
  8
4
 10
2925.0
 20
1803.5825204486789
 30
0.0
 11
2925.0
 21
903.58252044867925
 31
0.0
  0
LINE
  5
7B9F
  8
4
 10
2925.0
 20
903.58252044867913
 30
0.0
 11
8325.0
 21
903.58252044867913
 31
0.0
  0
LINE
  5
7BA0
  8
4
 10
2925.0
 20
1353.5825204486789
 30
0.0
 11
8325.0
 21
1353.5825204486789
 31
0.0
  0
TEXT
  5
7BA1
  8
4
 10
3098.259363811057
 20
1495.5261368484371
 30
0.0
 40
225.0
  1
機器名称
  0
TEXT
  5
7BA2
  8
4
 10
3088.1614771115892
 20
1000.9857257427281
 30
0.0
 40
225.0
  1
機器型番
  0
TEXT
  5
7BA3
  8
4
 10
5300.5998145995309
 20
1458.5918687633291
 30
0.0
 40
191.25
  1
ミツヤ多翼送風機
  0
TEXT
  5
7BA4
  8
4
 10
5339.9452301346628
 20
980.8006497084242
 30
0.0
 40
225.0
  1
MF#9-5
  0
TEXT
  5
7BA6
  8
4
 10
3652.2550631886188
 20
10725.429785996321
 30
0.0
 40
242.99999999999989
  1
床置防振ベット
  0
TEXT
  5
7BA7
  8
4
 10
1317.933979167283
 20
11402.46439289684
 30
0.0
 40
324.0
  1
遠心式両吸込両持多翼ファン
  0
LINE
  5
7BA8
  8
4
 10
1125.0
 20
11112.33939419162
 30
0.0
 11
8325.0
 21
11112.33939419162
 31
0.0
  0
LINE
  5
7BA9
  8
4
 10
1125.0
 20
12012.33939419162
 30
0.0
 11
8325.0
 21
12012.33939419162
 31
0.0
  0
LINE
  5
7BAA
  8
4
 10
2925.0
 20
1803.5825204486789
 30
0.0
 11
8325.0
 21
1803.5825204486789
 31
0.0
  0
LINE
  5
7BAB
  8
4
 10
1125.0
 20
12012.33939419162
 30
0.0
 11
1125.0
 21
11112.33939419162
 31
0.0
  0
TEXT
  5
7BAC
  8
4
 10
1690.890318096458
 20
10720.437648958539
 30
0.0
 40
242.99999999999989
  1
右回転左横向
  0
TEXT
  5
7BAD
  8
4
 10
6610.3630166218027
 20
12177.274866728891
 30
0.0
 40
252.0
  1
No.
  0
TEXT
  5
7BAE
  8
4
 10
5900.832281700059
 20
10725.429785996321
 30
0.0
 40
242.99999999999989
  1
縮尺：1/45
  0
LINE
  5
7BAF
  8
4
 10
8325.0
 20
12012.33939419162
 30
0.0
 11
8325.0
 21
11112.33939419162
 31
0.0
  0
LINE
  5
7BB0
  8
4
 10
9450.0
 20
13275.0
 30
0.0
 11
9450.0
 21
13275.0
 31
0.0
  0
LINE
  5
7BB1
  8
4
 10
6482.7784006193906
 20
12065.686124064299
 30
0.0
 11
6482.7784006193906
 21
12539.935176973881
 31
0.0
  0
LINE
  5
7BB2
  8
4
 10
6482.7784006193906
 20
12539.935176973881
 30
0.0
 11
8325.0
 21
12539.935176973881
 31
0.0
  0
LINE
  5
7BB3
  8
4
 10
8325.0
 20
12539.935176973881
 30
0.0
 11
8325.0
 21
12065.686124064299
 31
0.0
  0
LINE
  5
7BB4
  8
4
 10
8325.0
 20
12065.686124064299
 30
0.0
 11
6482.7784006193906
 21
12065.686124064299
 31
0.0
  0
LINE
  5
7BB5
  8
4
 10
0.0
 20
0.0
 30
0.0
 11
0.0
 21
13275.0
 31
0.0
  0
LINE
  5
7BB6
  8
4
 10
0.0
 20
13275.0
 30
0.0
 11
9450.0
 21
13275.0
 31
0.0
  0
LINE
  5
7BB7
  8
4
 10
9450.0
 20
13275.0
 30
0.0
 11
9450.0
 21
0.0
 31
0.0
  0
LINE
  5
7BB8
  8
4
 10
9450.0
 20
0.0
 30
0.0
 11
0.0
 21
0.0
 31
0.0
  0
DIMENSION
  5
7BC8
  8
3
  2
*D1
 10
8721.0378089573042
 20
3886.7577882773312
 30
0.0
 11
8721.0378089573042
 21
4560.2294143430618
 31
0.0
 70
   128
 13
8279.7016497816257
 23
5286.7577882773312
 33
0.0
 14
8279.7016497816257
 24
3886.7577882773312
 34
0.0
 50
90.0
1001
ACAD
1000
DSTYLE
1002
{
1070
   287
1070
     3
1070
   287
1070
     3
1070
     3
1000
φ<>
1070
    40
1040
45.0
1070
   143
1040
0.039
1070
   172
1070
     1
1070
   271
1070
     0
1070
   279
1070
     0
1070
   288
1070
     1
1002
}
  0
DIMENSION
  5
7C78
  8
3
  2
*D2
 10
3808.7323390533352
 20
10145.124512370039
 30
0.0
 11
2961.1714073088879
 21
10145.124512370039
 31
0.0
 70
   128
 13
2108.7323390533352
 23
9856.3574783022359
 33
0.0
 14
3808.7323390533352
 24
9856.3574783022359
 34
0.0
1001
ACAD
1000
DSTYLE
1002
{
1070
   287
1070
     3
1070
   287
1070
     3
1070
    40
1040
45.0
1070
   143
1040
0.039
1070
   172
1070
     1
1070
   271
1070
     0
1070
   279
1070
     0
1070
   288
1070
     1
1002
}
  0
DIMENSION
  5
7C84
  8
3
  2
*D3
 10
5008.7323390533338
 20
10145.124512370039
 30
0.0
 11
4408.7323390533347
 21
10257.62451237005
 31
0.0
 70
     0
 13
3808.7323390533352
 23
9856.3574783022359
 33
0.0
 14
5008.7323390533338
 24
8596.3574783022359
 34
0.0
1001
ACAD
1000
DSTYLE
1002
{
1070
   287
1070
     4
1070
   287
1070
     4
1070
    40
1040
45.0
1070
    75
1070
     1
1070
   143
1040
0.039
1070
   172
1070
     1
1070
   271
1070
     0
1070
   279
1070
     1
1070
   288
1070
     1
1002
}
  0
DIMENSION
  5
7C91
  8
3
  2
*D4
 10
5450.3933777064394
 20
7496.3574783022359
 30
0.0
 11
5450.3933777064367
 21
8046.5766457139553
 31
0.0
 70
   128
 13
5008.7323390533338
 23
8596.3574783022359
 33
0.0
 14
5008.7323390533338
 24
7496.3574783022359
 34
0.0
 50
90.0
1001
ACAD
1000
DSTYLE
1002
{
1070
   287
1070
     3
1070
   287
1070
     3
1070
    40
1040
45.0
1070
   143
1040
0.039
1070
   172
1070
     1
1070
   271
1070
     0
1070
   279
1070
     0
1070
   288
1070
     1
1002
}
  0
DIMENSION
  5
7C9E
  8
3
  2
*D5
 10
1738.785583990518
 20
7496.3574783022359
 30
0.0
 11
1738.785583990516
 21
8635.0583273334123
 31
0.0
 70
   128
 13
2108.7323390533352
 23
9856.3574783022359
 33
0.0
 14
2108.7323390533352
 24
7496.3574783022359
 34
0.0
 50
90.0
1001
ACAD
1000
DSTYLE
1002
{
1070
   287
1070
     3
1070
   287
1070
     3
1070
    40
1040
45.0
1070
   143
1040
0.039
1070
   172
1070
     1
1070
   271
1070
     0
1070
   279
1070
     0
1070
   288
1070
     1
1002
}
  0
DIMENSION
  5
7CAB
  8
3
  2
*D6
 10
5008.7323390533338
 20
7036.1646933739185
 30
0.0
 11
3472.3509280535068
 21
7036.1646933739185
 31
0.0
 70
   128
 13
2108.7323390533352
 23
7496.3574783022359
 33
0.0
 14
5008.7323390533338
 24
7496.3574783022359
 34
0.0
1001
ACAD
1000
DSTYLE
1002
{
1070
   287
1070
     3
1070
   287
1070
     3
1070
    40
1040
45.0
1070
   143
1040
0.039
1070
   172
1070
     1
1070
   271
1070
     0
1070
   279
1070
     0
1070
   288
1070
     1
1002
}
  0
DIMENSION
  5
7CDE
  8
3
  2
*D7
 10
1752.7021733833319
 20
4545.7577882773312
 30
0.0
 11
1752.702173383331
 21
3794.5049775305561
 31
0.0
 70
   128
 13
2028.732339053334
 23
3095.7577882773312
 33
0.0
 14
2028.732339053334
 24
4545.7577882773312
 34
0.0
 50
90.0
1001
ACAD
1000
DSTYLE
1002
{
1070
   287
1070
     3
1070
   287
1070
     3
1070
    40
1040
45.0
1070
   143
1040
0.039
1070
   172
1070
     1
1070
   271
1070
     0
1070
   279
1070
     0
1070
   288
1070
     1
1002
}
  0
LINE
  5
7DDF
  8
1
 10
2078.7323390533338
 20
9777.3574783022395
 30
0.0
 11
2078.7323390533338
 21
7877.3574783022359
 31
0.0
  0
DIMENSION
  5
7DED
  8
3
  2
*D8
 10
8279.7016497816257
 20
5788.4831809868429
 30
0.0
 11
7327.5712580906911
 21
5788.4831809868429
 31
0.0
 70
   128
 13
6379.7016497816248
 23
5574.3415976181532
 33
0.0
 14
8279.7016497816257
 24
5574.3415976181541
 34
0.0
1001
ACAD
1000
DSTYLE
1002
{
1070
   287
1070
     3
1070
   287
1070
     3
1070
    40
1040
45.0
1070
   143
1040
0.039
1070
   172
1070
     1
1070
   271
1070
     0
1070
   279
1070
     0
1070
   288
1070
     1
1002
}
  0
DIMENSION
  5
7E05
  8
3
  2
*D9
 10
7329.7016497816239
 20
6156.4687360675252
 30
0.0
 11
7860.5778784941649
 21
6156.4687360675252
 31
0.0
 70
   128
  1
(<>)
 13
8459.9016497816265
 23
4516.7577882773312
 33
0.0
 14
7329.7016497816239
 24
5977.7357431111786
 34
0.0
1001
ACAD
1000
DSTYLE
1002
{
1070
   287
1070
     3
1070
   287
1070
     3
1070
    40
1040
45.0
1070
   143
1040
0.039
1070
   172
1070
     1
1070
   271
1070
     0
1070
   279
1070
     0
1070
   288
1070
     1
1002
}
  0
DIMENSION
  5
7E11
  8
3
  2
*D10
 10
5960.7016497816257
 20
6156.4687360675252
 30
0.0
 11
6645.2016497816248
 21
6381.4687360675252
 31
0.0
 70
     0
  1
MAX\P1450
 13
7329.7016497816239
 23
5977.7357431111786
 33
0.0
 14
5960.7016497816257
 24
4966.7577882773312
 34
0.0
1001
ACAD
1000
DSTYLE
1002
{
1070
   287
1070
     4
1070
   287
1070
     4
1070
    40
1040
45.0
1070
    75
1070
     1
1070
   143
1040
0.039
1070
   172
1070
     1
1070
   271
1070
     0
1070
   279
1070
     1
1070
   288
1070
     1
1002
}
  0
DIMENSION
  5
7E77
  8
3
  2
*D11
 10
1504.83595535066
 20
4586.7577882773303
 30
0.0
 11
1504.8359553506591
 21
3781.416753458474
 31
0.0
 70
   128
 13
2028.732339053334
 23
3095.7577882773312
 33
0.0
 14
1788.444491721544
 24
4586.7577882773303
 34
0.0
 50
90.0
1001
ACAD
1000
DSTYLE
1002
{
1070
   287
1070
     3
1070
   287
1070
     3
1070
    40
1040
45.0
1070
   143
1040
0.039
1070
   172
1070
     1
1070
   271
1070
     0
1070
   279
1070
     0
1070
   288
1070
     1
1002
}
  0
DIMENSION
  5
7E90
  8
3
  2
*D12
 10
2958.7323390533352
 20
5857.8469610555067
 30
0.0
 11
2439.2725582900239
 21
5857.8469610555067
 31
0.0
 70
   128
 13
2028.732339053334
 23
4599.7577882773312
 33
0.0
 14
2958.7323390533352
 24
5711.532337836612
 34
0.0
1001
ACAD
1000
DSTYLE
1002
{
1070
   287
1070
     3
1070
   287
1070
     3
1070
    40
1040
45.0
1070
   143
1040
0.039
1070
   172
1070
     1
1070
   271
1070
     0
1070
   279
1070
     0
1070
   288
1070
     1
1002
}
  0
DIMENSION
  5
7EB3
  8
3
  2
*D13
 10
4165.7323390533338
 20
5857.8469610555067
 30
0.0
 11
3562.2323390533338
 21
5970.3469610555076
 31
0.0
 70
     0
 13
2958.7323390533352
 23
5711.532337836612
 33
0.0
 14
4165.7323390533338
 24
4484.7577882773312
 34
0.0
1001
ACAD
1000
DSTYLE
1002
{
1070
   287
1070
     4
1070
   287
1070
     4
1070
    40
1040
45.0
1070
    75
1070
     1
1070
   143
1040
0.039
1070
   172
1070
     1
1070
   271
1070
     0
1070
   279
1070
     1
1070
   288
1070
     1
1002
}
  0
DIMENSION
  5
7EC0
  8
3
  2
*D14
 10
5008.7323390533338
 20
6169.0456826359004
 30
0.0
 11
3484.1563249839819
 21
6169.0456826359004
 31
0.0
 70
   128
 13
2028.732339053334
 23
4599.7577882773312
 33
0.0
 14
5008.7323390533338
 24
3146.7577882773312
 34
0.0
1001
ACAD
1000
DSTYLE
1002
{
1070
   287
1070
     3
1070
   287
1070
     3
1070
    40
1040
45.0
1070
   143
1040
0.039
1070
   172
1070
     1
1070
   271
1070
     0
1070
   279
1070
     0
1070
   288
1070
     1
1002
}
  0
LINE
  5
7EC3
  8
1
 10
8279.7016497816257
 20
5589.7577882773312
 30
0.0
 11
6379.7016497816257
 21
5589.7577882773312
 31
0.0
  0
LINE
  5
7EC4
  8
1
 10
6752.2729535739491
 20
3196.9746411493629
 30
0.0
 11
6752.2729535739491
 21
3146.5790225568371
 31
0.0
  0
LINE
  5
7EC5
  8
1
 10
6316.0203834960421
 20
3196.9746411493629
 30
0.0
 11
6316.0203834960421
 21
3146.5790225568371
 31
0.0
  0
DIMENSION
  5
7F01
  8
3
  2
*D15
 10
1233.808478721061
 20
4586.7577882773303
 30
0.0
 11
1233.808478721061
 21
5100.2949873046382
 31
0.0
 70
   128
 13
3015.7323390533352
 23
5589.7577882773312
 33
0.0
 14
1788.444491721544
 24
4586.7577882773303
 34
0.0
 50
90.0
1001
ACAD
1000
DSTYLE
1002
{
1070
   287
1070
     3
1070
   287
1070
     3
1070
    40
1040
45.0
1070
   143
1040
0.039
1070
   172
1070
     1
1070
   271
1070
     0
1070
   279
1070
     0
1070
   288
1070
     1
1002
}
  0
DIMENSION
  5
7F0D
  8
3
  2
*D16
 10
1233.808478721061
 20
2996.7577882773312
 30
0.0
 11
1121.3084787210601
 21
3791.7577882773312
 31
0.0
 70
     0
 13
1788.444491721544
 23
4586.7577882773303
 33
0.0
 14
2108.7323390533352
 24
2996.7577882773312
 34
0.0
 50
90.0
1001
ACAD
1000
DSTYLE
1002
{
1070
   287
1070
     4
1070
   287
1070
     4
1070
    40
1040
45.0
1070
    75
1070
     1
1070
   143
1040
0.039
1070
   172
1070
     1
1070
   271
1070
     0
1070
   279
1070
     1
1070
   288
1070
     1
1002
}
  0
DIMENSION
  5
7F1D
  8
3
  2
*D17
 10
1233.808478721061
 20
2976.7577882773312
 30
0.0
 11
1016.725107064295
 21
3130.082093480818
 31
0.0
 70
   128
  1
(<>)
 13
2108.7323390533352
 23
2996.7577882773312
 33
0.0
 14
2108.7323390533352
 24
2976.7577882773312
 34
0.0
 50
90.0
1001
ACAD
1000
DSTYLE
1002
{
1070
   288
1070
     1
1070
   172
1070
     1
1070
    75
1070
     1
1070
    40
1040
45.0
1070
   271
1070
     0
1070
     7
1000
_DOT
1070
   143
1040
0.039
1002
}
  0
DIMENSION
  5
7F2D
  8
3
  2
*D18
 10
1233.808478721061
 20
2901.7577882773312
 30
0.0
 11
1121.3084787210601
 21
2567.472073991617
 31
0.0
 70
     0
 13
2108.7323390533352
 23
2976.7577882773312
 33
0.0
 14
2108.7323390533352
 24
2901.7577882773312
 34
0.0
 50
90.0
1001
ACAD
1000
DSTYLE
1002
{
1070
   287
1070
     3
1070
   287
1070
     3
1070
    40
1040
45.0
1070
   143
1040
0.039
1070
   172
1070
     1
1070
   271
1070
     0
1070
   279
1070
     0
1070
   288
1070
     1
1070
     6
1000
DOT
1002
}
  0
DIMENSION
  5
8007
  8
3
  2
*D20
 10
844.72281104524166
 20
5589.6345913644436
 30
0.0
 11
696.86566818809865
 21
4245.6961898208883
 31
0.0
 70
     0
 13
2108.7323390533352
 23
2901.7577882773312
 33
0.0
 14
3044.2323390533329
 24
5589.6345913644436
 34
0.0
 50
90.0
1001
ACAD
1000
DSTYLE
1002
{
1070
   172
1070
     1
1070
    40
1040
45.0
1070
     3
1000
(<>)
1070
   271
1070
     0
1070
   143
1040
0.039
1002
}
  0
DIMENSION
  5
8014
  8
3
  2
*D21
 10
2958.7323390533338
 20
2614.6239812330891
 30
0.0
 11
2533.7323390533352
 21
2727.12398123309
 31
0.0
 70
     0
 13
2108.7323390533352
 23
2901.7577882773312
 33
0.0
 14
2958.7323390533338
 24
2901.7577882773312
 34
0.0
1001
ACAD
1000
DSTYLE
1002
{
1070
   172
1070
     1
1070
    40
1040
45.0
1070
   271
1070
     0
1070
   143
1040
0.039
1002
}
  0
DIMENSION
  5
8021
  8
3
  2
*D22
 10
5008.7323390533338
 20
2614.6239812330891
 30
0.0
 11
3983.7323390533338
 21
2727.12398123309
 31
0.0
 70
     0
 13
2958.7323390533338
 23
2901.7577882773312
 33
0.0
 14
5008.7323390533338
 24
2901.7577882773312
 34
0.0
1001
ACAD
1000
DSTYLE
1002
{
1070
   172
1070
     1
1070
    40
1040
45.0
1070
   271
1070
     0
1070
   143
1040
0.039
1002
}
  0
DIMENSION
  5
802E
  8
3
  2
*D23
 10
7329.7016497816239
 20
2614.6239812330891
 30
0.0
 11
6664.2016497816257
 21
2727.12398123309
 31
0.0
 70
     0
 13
5998.7016497816257
 23
2901.579022556838
 33
0.0
 14
7329.7016497816239
 24
2901.579022556838
 34
0.0
1001
ACAD
1000
DSTYLE
1002
{
1070
   172
1070
     1
1070
    40
1040
45.0
1070
   271
1070
     0
1070
   143
1040
0.039
1002
}
  0
DIMENSION
  5
803B
  8
3
  2
*D24
 10
8358.7016497816276
 20
2614.6239812330891
 30
0.0
 11
7844.2016497816248
 21
2727.12398123309
 31
0.0
 70
     0
 13
7329.7016497816239
 23
2901.579022556838
 33
0.0
 14
8358.7016497816276
 24
2901.579022556838
 34
0.0
1001
ACAD
1000
DSTYLE
1002
{
1070
   172
1070
     1
1070
    40
1040
45.0
1070
   271
1070
     0
1070
   143
1040
0.039
1002
}
  0
ENDSEC
  0
EOF
