  0
SECTION
  2
HEADER
  9
$ACADVER
  1
AC1009
  9
$INSBASE
 10
0.0
 20
0.0
 30
0.0
  9
$EXTMIN
 10
0.0
 20
0.0
 30
0.0
  9
$EXTMAX
 10
9450.0
 20
13275.0
 30
0.0
  9
$LIMMIN
 10
0.0
 20
0.0
  9
$LIMMAX
 10
297.0
 20
210.0
  9
$ORTHOMODE
 70
     0
  9
$REGENMODE
 70
     1
  9
$FILLMODE
 70
     0
  9
$QTEXTMODE
 70
     0
  9
$MIRRTEXT
 70
     1
  9
$DRAGMODE
 70
     2
  9
$LTSCALE
 40
100.0
  9
$OSMODE
 70
    37
  9
$ATTMODE
 70
     1
  9
$TEXTSIZE
 40
180.0
  9
$TRACEWID
 40
0.05
  9
$TEXTSTYLE
  7
STANDARD
  9
$CLAYER
  8
3
  9
$CELTYPE
  6
BYLAYER
  9
$CECOLOR
 62
   256
  9
$DIMSCALE
 40
45.0
  9
$DIMASZ
 40
2.0
  9
$DIMEXO
 40
0.5
  9
$DIMDLI
 40
10.0
  9
$DIMRND
 40
0.0
  9
$DIMDLE
 40
0.0
  9
$DIMEXE
 40
1.0
  9
$DIMTP
 40
1.0
  9
$DIMTM
 40
1.0
  9
$DIMTXT
 40
3.0
  9
$DIMCEN
 40
0.0
  9
$DIMTSZ
 40
0.0
  9
$DIMTOL
 70
     0
  9
$DIMLIM
 70
     0
  9
$DIMTIH
 70
     0
  9
$DIMTOH
 70
     0
  9
$DIMSE1
 70
     0
  9
$DIMSE2
 70
     0
  9
$DIMTAD
 70
     1
  9
$DIMZIN
 70
     8
  9
$DIMBLK
  1

  9
$DIMASO
 70
     1
  9
$DIMSHO
 70
     1
  9
$DIMPOST
  1
(<>)
  9
$DIMAPOST
  1

  9
$DIMALT
 70
     0
  9
$DIMALTD
 70
     2
  9
$DIMALTF
 40
0.039
  9
$DIMLFAC
 40
1.0
  9
$DIMTOFL
 70
     1
  9
$DIMTVP
 40
0.0
  9
$DIMTIX
 70
     0
  9
$DIMSOXD
 70
     0
  9
$DIMSAH
 70
     1
  9
$DIMBLK1
  1
OPEN
  9
$DIMBLK2
  1
OPEN
  9
$DIMSTYLE
  2
IGA
  9
$DIMCLRD
 70
     0
  9
$DIMCLRE
 70
     0
  9
$DIMCLRT
 70
     0
  9
$DIMTFAC
 40
10.0
  9
$DIMGAP
 40
1.0
  9
$LUNITS
 70
     2
  9
$LUPREC
 70
     3
  9
$SKETCHINC
 40
0.1
  9
$FILLETRAD
 40
50.0
  9
$AUNITS
 70
     0
  9
$AUPREC
 70
     0
  9
$MENU
  1
acad
  9
$ELEVATION
 40
0.0
  9
$PELEVATION
 40
0.0
  9
$THICKNESS
 40
0.0
  9
$LIMCHECK
 70
     0
  9
$BLIPMODE
 70
     0
  9
$CHAMFERA
 40
0.5
  9
$CHAMFERB
 40
0.5
  9
$SKPOLY
 70
     0
  9
$TDCREATE
 40
2452324.548273379
  9
$TDUPDATE
 40
2454953.8293612502
  9
$TDINDWG
 40
0.0309664236
  9
$TDUSRTIMER
 40
0.0309664236
  9
$USRTIMER
 70
     1
  9
$ANGBASE
 50
0.0
  9
$ANGDIR
 70
     0
  9
$PDMODE
 70
     0
  9
$PDSIZE
 40
0.0
  9
$PLINEWID
 40
0.0
  9
$COORDS
 70
     1
  9
$SPLFRAME
 70
     0
  9
$SPLINETYPE
 70
     6
  9
$SPLINESEGS
 70
     8
  9
$ATTDIA
 70
     0
  9
$ATTREQ
 70
     1
  9
$HANDLING
 70
 10241
  9
$HANDSEED
  5
808D
  9
$SURFTAB1
 70
     6
  9
$SURFTAB2
 70
     6
  9
$SURFTYPE
 70
     6
  9
$SURFU
 70
     6
  9
$SURFV
 70
     6
  9
$UCSNAME
  2

  9
$UCSORG
 10
0.0
 20
0.0
 30
0.0
  9
$UCSXDIR
 10
1.0
 20
0.0
 30
0.0
  9
$UCSYDIR
 10
0.0
 20
1.0
 30
0.0
  9
$PUCSNAME
  2

  9
$PUCSORG
 10
0.0
 20
0.0
 30
0.0
  9
$PUCSXDIR
 10
1.0
 20
0.0
 30
0.0
  9
$PUCSYDIR
 10
0.0
 20
1.0
 30
0.0
  9
$USERI1
 70
     0
  9
$USERI2
 70
     0
  9
$USERI3
 70
     0
  9
$USERI4
 70
     0
  9
$USERI5
 70
     0
  9
$USERR1
 40
0.0
  9
$USERR2
 40
0.0
  9
$USERR3
 40
0.0
  9
$USERR4
 40
0.0
  9
$USERR5
 40
0.0
  9
$WORLDVIEW
 70
     1
  9
$SHADEDGE
 70
     3
  9
$SHADEDIF
 70
    70
  9
$TILEMODE
 70
     1
  9
$MAXACTVP
 70
    16
  9
$PLIMCHECK
 70
     0
  9
$PEXTMIN
 10
1.0000000000000000E+020
 20
1.0000000000000000E+020
 30
1.0000000000000000E+020
  9
$PEXTMAX
 10
-1.0000000000000000E+020
 20
-1.0000000000000000E+020
 30
-1.0000000000000000E+020
  9
$PLIMMIN
 10
0.0
 20
0.0
  9
$PLIMMAX
 10
12.0
 20
9.0
  9
$UNITMODE
 70
     0
  9
$VISRETAIN
 70
     0
  9
$PLINEGEN
 70
     0
  9
$PSLTSCALE
 70
     1
  0
ENDSEC
  0
SECTION
  2
TABLES
  0
TABLE
  2
VPORT
 70
     2
  0
VPORT
  2
*ACTIVE
 70
     0
 10
0.0
 20
0.0
 11
1.0
 21
1.0
 12
13562.960954446849
 22
9011.2450861320631
 13
0.0
 23
0.0
 14
10.0
 24
10.0
 15
10.0
 25
10.0
 16
0.0
 26
0.0
 36
1.0
 17
0.0
 27
0.0
 37
0.0
 40
18022.490172264119
 41
1.5051150895140659
 42
50.0
 43
0.0
 44
0.0
 50
0.0
 51
0.0
 71
     0
 72
   100
 73
     1
 74
     0
 75
     0
 76
     0
 77
     0
 78
     0
  0
ENDTAB
  0
TABLE
  2
LTYPE
 70
     2
  0
LTYPE
  2
CONTINUOUS
 70
     0
  3
Solid line
 72
    65
 73
     0
 40
0.0
  0
LTYPE
  2
CENTER
 70
     0
  3
____ _ ____ _ ____ _ ____ _ ____ _ ____ _ ____ 
 72
    65
 73
     4
 40
2.0
 49
1.25
 49
-0.25
 49
0.25
 49
-0.25
  0
ENDTAB
  0
TABLE
  2
LAYER
 70
     6
  0
LAYER
  2
0
 70
     0
 62
     7
  6
CONTINUOUS
  0
LAYER
  2
3
 70
     0
 62
     2
  6
CONTINUOUS
  0
LAYER
  2
2
 70
     0
 62
     3
  6
CENTER
  0
LAYER
  2
1
 70
     0
 62
     4
  6
CONTINUOUS
  0
LAYER
  2
4
 70
     0
 62
     7
  6
CONTINUOUS
  0
LAYER
  2
DEFPOINTS
 70
     0
 62
     7
  6
CONTINUOUS
  0
ENDTAB
  0
TABLE
  2
STYLE
 70
     1
  0
STYLE
  2
STANDARD
 70
     0
 40
0.0
 41
1.0
 50
0.0
 71
     0
 42
180.0
  3
simplex.shx
  4
extfont.shx
  0
ENDTAB
  0
TABLE
  2
VIEW
 70
     0
  0
ENDTAB
  0
TABLE
  2
UCS
 70
     0
  0
ENDTAB
  0
TABLE
  2
APPID
 70
     1
  0
APPID
  2
ACAD
 70
     0
  0
ENDTAB
  0
TABLE
  2
DIMSTYLE
 70
     1
  0
DIMSTYLE
  2
IGA
 70
     0
  3

  4

  5

  6
OPEN
  7
OPEN
 40
2.0
 41
2.0
 42
0.5
 43
10.0
 44
1.0
 45
0.0
 46
0.0
 47
1.0
 48
1.0
140
3.0
141
0.0
142
0.0
143
0.03937
144
1.0
145
0.0
146
10.0
147
1.0
 71
     0
 72
     0
 73
     0
 74
     0
 75
     0
 76
     0
 77
     1
 78
     8
170
     0
171
     2
172
     0
173
     1
174
     0
175
     0
176
     0
177
     0
178
     0
  0
ENDTAB
  0
ENDSEC
  0
SECTION
  2
BLOCKS
  0
BLOCK
  8
0
  2
$MODEL_SPACE
 70
     0
 10
0.0
 20
0.0
 30
0.0
  3
$MODEL_SPACE
  1

  0
ENDBLK
  5
1B
  8
0
  0
BLOCK
 67
     1
  8
0
  2
$PAPER_SPACE
 70
     0
 10
0.0
 20
0.0
 30
0.0
  3
$PAPER_SPACE
  1

  0
ENDBLK
  5
18
 67
     1
  8
0
  0
BLOCK
  8
0
  2
_OPEN
 70
     0
 10
0.0
 20
0.0
 30
0.0
  3
_OPEN
  1

  0
LINE
  5
7BA6
  8
0
  6
BYBLOCK
 62
     0
 10
-1.0
 20
0.1666666666666666
 30
0.0
 11
0.0
 21
0.0
 31
0.0
  0
LINE
  5
7BA7
  8
0
  6
BYBLOCK
 62
     0
 10
0.0
 20
0.0
 30
0.0
 11
-1.0
 21
-0.1666666666666666
 31
0.0
  0
LINE
  5
7BA8
  8
0
  6
BYBLOCK
 62
     0
 10
0.0
 20
0.0
 30
0.0
 11
-1.0
 21
0.0
 31
0.0
  0
ENDBLK
  5
7BA9
  8
0
  0
BLOCK
  8
0
  2
*D1
 70
     1
 10
0.0
 20
0.0
 30
0.0
  3
*D1
  1

  0
LINE
  5
7FEB
  8
3
 62
     0
 10
8160.7372496447597
 20
5239.9332045013243
 30
0.0
 11
8672.2420781953588
 21
5239.9332045013243
 31
0.0
  0
LINE
  5
7FEC
  8
3
 62
     0
 10
8160.7372496447597
 20
3839.933204501323
 30
0.0
 11
8672.2420781953551
 21
3839.933204501323
 31
0.0
  0
LINE
  5
7FED
  8
3
 62
     0
 10
8627.2420781953551
 20
5149.9332045013234
 30
0.0
 11
8627.2420781953551
 21
3929.9332045013239
 31
0.0
  0
INSERT
  5
7FEE
  8
3
 62
     0
  2
_OPEN
 10
8627.2420781953551
 20
5239.9332045013243
 30
0.0
 41
90.0
 42
90.0
 43
90.0
 50
90.0
  0
INSERT
  5
7FEF
  8
3
 62
     0
  2
_OPEN
 10
8627.2420781953551
 20
3839.933204501323
 30
0.0
 41
90.0
 42
90.0
 43
90.0
 50
270.0
  0
TEXT
  8
3
  40
135
  5
807C
  62
0
  72
0
  71
0
 10
8244.74
 20
4240.84
 30
0.000000
  1
φ1400
  0
POINT
  5
7FF1
  8
DEFPOINTS
 62
     0
 10
8138.2372496447597
 20
5239.9332045013243
 30
0.0
  0
POINT
  5
7FF2
  8
DEFPOINTS
 62
     0
 10
8138.2372496447597
 20
3839.933204501323
 30
0.0
  0
POINT
  5
7FF3
  8
DEFPOINTS
 62
     0
 10
8627.2420781953551
 20
3839.933204501323
 30
0.0
  0
ENDBLK
  5
7BCC
  8
0
  0
BLOCK
  8
0
  2
*D2
 70
     1
 10
0.0
 20
0.0
 30
0.0
  3
*D2
  1

  0
LINE
  5
7FF4
  8
3
 62
     0
 10
6238.2372496447606
 20
5486.4332045013243
 30
0.0
 11
6238.2372496447606
 21
5645.8529922741036
 31
0.0
  0
LINE
  5
7FF5
  8
3
 62
     0
 10
8138.2372496447597
 20
5442.4332045013234
 30
0.0
 11
8138.2372496447597
 21
5645.8529922741036
 31
0.0
  0
LINE
  5
7FF6
  8
3
 62
     0
 10
6328.2372496447606
 20
5600.8529922741036
 30
0.0
 11
8048.2372496447624
 21
5600.8529922741036
 31
0.0
  0
INSERT
  5
7FF7
  8
3
 62
     0
  2
_OPEN
 10
6238.2372496447606
 20
5600.8529922741036
 30
0.0
 41
90.0
 42
90.0
 43
90.0
 50
180.0
  0
INSERT
  5
7FF8
  8
3
 62
     0
  2
_OPEN
 10
8138.2372496447597
 20
5600.8529922741036
 30
0.0
 41
90.0
 42
90.0
 43
90.0
  0
TEXT
  8
3
  40
135
  5
807D
  62
0
  72
0
  71
0
 10
6925.61
 20
5474.40
 30
0.000000
  1
1900
  0
POINT
  5
7FFA
  8
DEFPOINTS
 62
     0
 10
6238.2372496447606
 20
5463.9332045013234
 30
0.0
  0
POINT
  5
7FFB
  8
DEFPOINTS
 62
     0
 10
8138.2372496447597
 20
5419.9332045013234
 30
0.0
  0
POINT
  5
7FFC
  8
DEFPOINTS
 62
     0
 10
8138.2372496447597
 20
5600.8529922741036
 30
0.0
  0
ENDBLK
  5
7BD8
  8
0
  0
BLOCK
  8
0
  2
*D3
 70
     1
 10
0.0
 20
0.0
 30
0.0
  3
*D3
  1

  0
LINE
  5
7FFD
  8
3
 62
     0
 10
8318.4372496447595
 20
4492.4332045013234
 30
0.0
 11
8318.4372496447595
 21
5966.8711742718924
 31
0.0
  0
LINE
  5
7FFE
  8
3
 62
     0
 10
7188.2372496447597
 20
5814.4601748661453
 30
0.0
 11
7188.2372496447597
 21
5966.8711742718924
 31
0.0
  0
LINE
  5
7FFF
  8
3
 62
     0
 10
8228.4372496447613
 20
5921.8711742718924
 30
0.0
 11
7278.2372496447597
 21
5921.8711742718924
 31
0.0
  0
INSERT
  5
8000
  8
3
 62
     0
  2
_OPEN
 10
8318.4372496447595
 20
5921.8711742718924
 30
0.0
 41
90.0
 42
90.0
 43
90.0
  0
INSERT
  5
8001
  8
3
 62
     0
  2
_OPEN
 10
7188.2372496447597
 20
5921.8711742718924
 30
0.0
 41
90.0
 42
90.0
 43
90.0
 50
180.0
  0
TEXT
  8
3
  40
135
  5
807E
  62
0
  72
0
  71
0
 10
7472.66
 20
5830.78
 30
0.000000
  1
(1130)
  0
POINT
  5
8003
  8
DEFPOINTS
 62
     0
 10
8318.4372496447595
 20
4469.9332045013234
 30
0.0
  0
POINT
  5
8004
  8
DEFPOINTS
 62
     0
 10
7188.2372496447597
 20
5791.9601748661444
 30
0.0
  0
POINT
  5
8005
  8
DEFPOINTS
 62
     0
 10
7188.2372496447597
 20
5921.8711742718924
 30
0.0
  0
ENDBLK
  5
7E91
  8
0
  0
BLOCK
  8
0
  2
*D4
 70
     1
 10
0.0
 20
0.0
 30
0.0
  3
*D4
  1

  0
LINE
  5
8006
  8
3
 62
     0
 10
5819.2372496447606
 20
4942.4332045013234
 30
0.0
 11
5819.2372496447606
 21
5966.8711742718924
 31
0.0
  0
LINE
  5
8007
  8
3
 62
     0
 10
7098.2372496447597
 20
5921.8711742718924
 30
0.0
 11
5909.2372496447597
 21
5921.8711742718924
 31
0.0
  0
INSERT
  5
8008
  8
3
 62
     0
  2
_OPEN
 10
7188.2372496447597
 20
5921.8711742718924
 30
0.0
 41
90.0
 42
90.0
 43
90.0
  0
INSERT
  5
8009
  8
3
 62
     0
  2
_OPEN
 10
5819.2372496447606
 20
5921.8711742718924
 30
0.0
 41
90.0
 42
90.0
 43
90.0
 50
180.0
  0
TEXT
  8
3
  40
135
  5
807F
  62
0
  72
0
  71
0
 10
6233.74
 20
5907.92
 30
0.000000
  1
MAX
  0
TEXT
  8
3
  40
135
  5
8080
  62
0
  72
0
  71
0
 10
6233.74
 20
5732.42
 30
0.000000
  1
1450
  0
POINT
  5
800B
  8
DEFPOINTS
 62
     0
 10
7188.2372496447597
 20
5791.9601748661444
 30
0.0
  0
POINT
  5
800C
  8
DEFPOINTS
 62
     0
 10
5819.2372496447606
 20
4919.9332045013234
 30
0.0
  0
POINT
  5
800D
  8
DEFPOINTS
 62
     0
 10
5819.2372496447606
 20
5921.8711742718924
 30
0.0
  0
ENDBLK
  5
7C11
  8
0
  0
BLOCK
  8
0
  2
*D5
 70
     1
 10
0.0
 20
0.0
 30
0.0
  3
*D5
  1

  0
LINE
  5
800E
  8
3
 62
     0
 10
3419.3811886442709
 20
5469.9332045013234
 30
0.0
 11
4774.5327783332978
 21
5469.9332045013234
 31
0.0
  0
LINE
  5
800F
  8
3
 62
     0
 10
4589.6690359760614
 20
4539.9332045013216
 30
0.0
 11
4774.5327783332978
 21
4539.9332045013216
 31
0.0
  0
LINE
  5
8010
  8
3
 62
     0
 10
4729.5327783332978
 20
5379.9332045013234
 30
0.0
 11
4729.5327783332978
 21
4629.9332045013234
 31
0.0
  0
INSERT
  5
8011
  8
3
 62
     0
  2
_OPEN
 10
4729.5327783332978
 20
5469.9332045013234
 30
0.0
 41
90.0
 42
90.0
 43
90.0
 50
90.0
  0
INSERT
  5
8012
  8
3
 62
     0
  2
_OPEN
 10
4729.5327783332978
 20
4539.9332045013216
 30
0.0
 41
90.0
 42
90.0
 43
90.0
 50
270.0
  0
TEXT
  8
3
  40
135
  5
8081
  62
0
  72
0
  71
0
 10
4347.03
 20
4791.29
 30
0.000000
  1
930
  0
POINT
  5
8014
  8
DEFPOINTS
 62
     0
 10
3396.88118864427
 20
5469.9332045013234
 30
0.0
  0
POINT
  5
8015
  8
DEFPOINTS
 62
     0
 10
4567.1690359760614
 20
4539.9332045013216
 30
0.0
  0
POINT
  5
8016
  8
DEFPOINTS
 62
     0
 10
4729.5327783332978
 20
4539.9332045013216
 30
0.0
  0
ENDBLK
  5
7DF2
  8
0
  0
BLOCK
  8
0
  2
*D6
 70
     1
 10
0.0
 20
0.0
 30
0.0
  3
*D6
  1

  0
LINE
  5
8017
  8
3
 62
     0
 10
4269.38118864427
 20
3299.933204501323
 30
0.0
 11
4774.5327783332978
 21
3299.933204501323
 31
0.0
  0
LINE
  5
8018
  8
3
 62
     0
 10
4729.5327783332978
 20
4449.9332045013234
 30
0.0
 11
4729.5327783332978
 21
3389.933204501323
 31
0.0
  0
INSERT
  5
8019
  8
3
 62
     0
  2
_OPEN
 10
4729.5327783332978
 20
4539.9332045013216
 30
0.0
 41
90.0
 42
90.0
 43
90.0
 50
90.0
  0
INSERT
  5
801A
  8
3
 62
     0
  2
_OPEN
 10
4729.5327783332978
 20
3299.933204501323
 30
0.0
 41
90.0
 42
90.0
 43
90.0
 50
270.0
  0
TEXT
  8
3
  40
135
  5
8082
  62
0
  72
0
  71
0
 10
4347.03
 20
3680.98
 30
0.000000
  1
1240
  0
POINT
  5
801C
  8
DEFPOINTS
 62
     0
 10
4567.1690359760614
 20
4539.9332045013216
 30
0.0
  0
POINT
  5
801D
  8
DEFPOINTS
 62
     0
 10
4246.88118864427
 20
3299.933204501323
 30
0.0
  0
POINT
  5
801E
  8
DEFPOINTS
 62
     0
 10
4729.5327783332978
 20
3299.933204501323
 30
0.0
  0
ENDBLK
  5
7E12
  8
0
  0
BLOCK
  8
0
  2
*D7
 70
     1
 10
0.0
 20
0.0
 30
0.0
  3
*D7
  1

  0
LINE
  5
801F
  8
3
 62
     0
 10
4269.38118864427
 20
3279.9332045013239
 30
0.0
 11
4774.5327783332978
 21
3279.9332045013239
 31
0.0
  0
LINE
  5
8020
  8
3
 62
     0
 10
4269.38118864427
 20
3204.933204501323
 30
0.0
 11
4774.5327783332978
 21
3204.933204501323
 31
0.0
  0
LINE
  5
8021
  8
3
 62
     0
 10
4729.5327783332978
 20
3369.933204501323
 30
0.0
 11
4729.5327783332978
 21
3459.933204501323
 31
0.0
  0
LINE
  5
8022
  8
3
 62
     0
 10
4729.5327783332978
 20
3114.933204501323
 30
0.0
 11
4729.5327783332978
 21
2716.361775929895
 31
0.0
  0
LINE
  5
8023
  8
3
 62
     0
 10
4729.5327783332978
 20
3279.9332045013239
 30
0.0
 11
4729.5327783332978
 21
3204.933204501323
 31
0.0
  0
INSERT
  5
8024
  8
3
 62
     0
  2
_DOT
 10
4729.5327783332978
 20
3279.9332045013239
 30
0.0
 41
90.0
 42
90.0
 43
90.0
 50
270.0
  0
INSERT
  5
8025
  8
3
 62
     0
  2
_OPEN
 10
4729.5327783332978
 20
3204.933204501323
 30
0.0
 41
90.0
 42
90.0
 43
90.0
 50
90.0
  0
TEXT
  8
3
  40
135
  5
8083
  62
0
  72
0
  71
0
 10
4347.03
 20
2631.70
 30
0.000000
  1
75
  0
POINT
  5
8027
  8
DEFPOINTS
 62
     0
 10
4246.88118864427
 20
3279.9332045013239
 30
0.0
  0
POINT
  5
8028
  8
DEFPOINTS
 62
     0
 10
4246.88118864427
 20
3204.933204501323
 30
0.0
  0
POINT
  5
8029
  8
DEFPOINTS
 62
     0
 10
4729.5327783332978
 20
3204.933204501323
 30
0.0
  0
ENDBLK
  5
7E2B
  8
0
  0
BLOCK
  8
0
  2
_DOT
 70
     0
 10
0.0
 20
0.0
 30
0.0
  3
_DOT
  1

  0
LINE
  5
7D21
  8
0
  6
BYBLOCK
 62
     0
 10
0.0
 20
0.0
 30
0.0
 11
-1.0
 21
-0.0000000000000284
 31
0.0
  0
POLYLINE
  5
7D22
  8
0
  6
BYBLOCK
 62
     0
 66
     1
 10
0.0
 20
0.0
 30
0.0
 70
     1
 40
0.1666666666666666
 41
0.1666666666666666
  0
VERTEX
  5
802A
  8
0
  6
BYBLOCK
 62
     0
 10
-0.0833333333333286
 20
-0.0000000000000284
 30
0.0
 42
1.0
  0
VERTEX
  5
802B
  8
0
  6
BYBLOCK
 62
     0
 10
0.0833333333333286
 20
-0.0000000000000284
 30
0.0
 42
1.0
  0
SEQEND
  5
802C
  8
0
  6
BYBLOCK
 62
     0
  0
ENDBLK
  5
7CD6
  8
0
  0
BLOCK
  8
0
  2
*D9
 70
     1
 10
0.0
 20
0.0
 30
0.0
  3
*D9
  1

  0
LINE
  5
802D
  8
3
 62
     0
 10
1905.88118864427
 20
5492.4332045013243
 30
0.0
 11
1905.88118864427
 21
5815.6386029854302
 31
0.0
  0
LINE
  5
802E
  8
3
 62
     0
 10
3355.8811886442709
 20
5492.4332045013243
 30
0.0
 11
3355.8811886442709
 21
5815.6386029854302
 31
0.0
  0
LINE
  5
802F
  8
3
 62
     0
 10
1995.8811886442711
 20
5770.6386029854293
 30
0.0
 11
3265.88118864427
 21
5770.6386029854293
 31
0.0
  0
INSERT
  5
8030
  8
3
 62
     0
  2
_OPEN
 10
1905.88118864427
 20
5770.6386029854293
 30
0.0
 41
90.0
 42
90.0
 43
90.0
 50
180.0
  0
INSERT
  5
8031
  8
3
 62
     0
  2
_OPEN
 10
3355.8811886442709
 20
5770.6386029854293
 30
0.0
 41
90.0
 42
90.0
 43
90.0
  0
TEXT
  8
3
  40
135
  5
8084
  62
0
  72
0
  71
0
 10
2356.08
 20
5644.19
 30
0.000000
  1
1450
  0
POINT
  5
8033
  8
DEFPOINTS
 62
     0
 10
1905.88118864427
 20
5469.9332045013234
 30
0.0
  0
POINT
  5
8034
  8
DEFPOINTS
 62
     0
 10
3355.8811886442709
 20
5469.9332045013234
 30
0.0
  0
POINT
  5
8035
  8
DEFPOINTS
 62
     0
 10
3355.8811886442709
 20
5770.6386029854293
 30
0.0
  0
ENDBLK
  5
7E36
  8
0
  0
BLOCK
  8
0
  2
*D10
 70
     1
 10
0.0
 20
0.0
 30
0.0
  3
*D10
  1

  0
LINE
  5
8036
  8
3
 62
     0
 10
1905.88118864427
 20
5492.4332045013243
 30
0.0
 11
1905.88118864427
 21
6079.2961739893508
 31
0.0
  0
LINE
  5
8037
  8
3
 62
     0
 10
3396.88118864427
 20
5580.427962352408
 30
0.0
 11
3396.88118864427
 21
6079.2961739893508
 31
0.0
  0
LINE
  5
8038
  8
3
 62
     0
 10
1995.8811886442711
 20
6034.2961739893508
 30
0.0
 11
3306.8811886442709
 21
6034.2961739893508
 31
0.0
  0
INSERT
  5
8039
  8
3
 62
     0
  2
_OPEN
 10
1905.88118864427
 20
6034.2961739893508
 30
0.0
 41
90.0
 42
90.0
 43
90.0
 50
180.0
  0
INSERT
  5
803A
  8
3
 62
     0
  2
_OPEN
 10
3396.88118864427
 20
6034.2961739893508
 30
0.0
 41
90.0
 42
90.0
 43
90.0
  0
TEXT
  8
3
  40
135
  5
8085
  62
0
  72
0
  71
0
 10
2341.42
 20
5907.85
 30
0.000000
  1
1491
  0
POINT
  5
803C
  8
DEFPOINTS
 62
     0
 10
1905.88118864427
 20
5469.9332045013234
 30
0.0
  0
POINT
  5
803D
  8
DEFPOINTS
 62
     0
 10
3396.88118864427
 20
5557.927962352408
 30
0.0
  0
POINT
  5
803E
  8
DEFPOINTS
 62
     0
 10
3396.88118864427
 20
6034.2961739893508
 30
0.0
  0
ENDBLK
  5
7E41
  8
0
  0
BLOCK
  8
0
  2
*D11
 70
     1
 10
0.0
 20
0.0
 30
0.0
  3
*D11
  1

  0
LINE
  5
803F
  8
3
 62
     0
 10
4399.8811886442709
 20
4476.9332045013243
 30
0.0
 11
4399.8811886442709
 21
6079.2961739893508
 31
0.0
  0
LINE
  5
8040
  8
3
 62
     0
 10
3486.88118864427
 20
6034.2961739893508
 30
0.0
 11
4309.8811886442709
 21
6034.2961739893508
 31
0.0
  0
INSERT
  5
8041
  8
3
 62
     0
  2
_OPEN
 10
3396.88118864427
 20
6034.2961739893508
 30
0.0
 41
90.0
 42
90.0
 43
90.0
 50
180.0
  0
INSERT
  5
8042
  8
3
 62
     0
  2
_OPEN
 10
4399.8811886442709
 20
6034.2961739893508
 30
0.0
 41
90.0
 42
90.0
 43
90.0
  0
TEXT
  8
3
  40
135
  5
8086
  62
0
  72
0
  71
0
 10
3628.38
 20
5907.85
 30
0.000000
  1
1003
  0
POINT
  5
8044
  8
DEFPOINTS
 62
     0
 10
3396.88118864427
 20
5557.927962352408
 30
0.0
  0
POINT
  5
8045
  8
DEFPOINTS
 62
     0
 10
4399.8811886442709
 20
4454.4332045013234
 30
0.0
  0
POINT
  5
8046
  8
DEFPOINTS
 62
     0
 10
4399.8811886442709
 20
6034.2961739893508
 30
0.0
  0
ENDBLK
  5
7DE7
  8
0
  0
BLOCK
  8
0
  2
*D12
 70
     1
 10
0.0
 20
0.0
 30
0.0
  3
*D12
  1

  0
LINE
  5
8047
  8
3
 62
     0
 10
4399.8811886442709
 20
4499.4332045013243
 30
0.0
 11
4399.8811886442709
 21
6368.2988029062253
 31
0.0
  0
LINE
  5
8048
  8
3
 62
     0
 10
1346.88118864427
 20
3472.433204501323
 30
0.0
 11
1346.8811886442711
 21
6368.2988029062253
 31
0.0
  0
LINE
  5
8049
  8
3
 62
     0
 10
4309.8811886442709
 20
6323.2988029062262
 30
0.0
 11
1436.8811886442711
 21
6323.2988029062262
 31
0.0
  0
INSERT
  5
804A
  8
3
 62
     0
  2
_OPEN
 10
4399.8811886442709
 20
6323.2988029062262
 30
0.0
 41
90.0
 42
90.0
 43
90.0
  0
INSERT
  5
804B
  8
3
 62
     0
  2
_OPEN
 10
1346.8811886442711
 20
6323.2988029062262
 30
0.0
 41
90.0
 42
90.0
 43
90.0
 50
180.0
  0
TEXT
  8
3
  40
135
  5
8087
  62
0
  72
0
  71
0
 10
2668.85
 20
6196.85
 30
0.000000
  1
3053
  0
POINT
  5
804D
  8
DEFPOINTS
 62
     0
 10
4399.8811886442709
 20
4476.9332045013243
 30
0.0
  0
POINT
  5
804E
  8
DEFPOINTS
 62
     0
 10
1346.88118864427
 20
3449.933204501323
 30
0.0
  0
POINT
  5
804F
  8
DEFPOINTS
 62
     0
 10
1346.8811886442711
 20
6323.2988029062262
 30
0.0
  0
ENDBLK
  5
7E08
  8
0
  0
BLOCK
  8
0
  2
*D13
 70
     1
 10
0.0
 20
0.0
 30
0.0
  3
*D13
  1

  0
LINE
  5
8050
  8
3
 62
     0
 10
4269.38118864427
 20
9555.446054598915
 30
0.0
 11
4690.8780725577171
 21
9555.446054598915
 31
0.0
  0
LINE
  5
8051
  8
3
 62
     0
 10
4269.38118864427
 20
7195.446054598915
 30
0.0
 11
4690.8780725577171
 21
7195.446054598915
 31
0.0
  0
LINE
  5
8052
  8
3
 62
     0
 10
4645.8780725577162
 20
9465.446054598915
 30
0.0
 11
4645.8780725577162
 21
7285.446054598915
 31
0.0
  0
INSERT
  5
8053
  8
3
 62
     0
  2
_OPEN
 10
4645.8780725577162
 20
9555.446054598915
 30
0.0
 41
90.0
 42
90.0
 43
90.0
 50
90.0
  0
INSERT
  5
8054
  8
3
 62
     0
  2
_OPEN
 10
4645.8780725577162
 20
7195.446054598915
 30
0.0
 41
90.0
 42
90.0
 43
90.0
 50
270.0
  0
TEXT
  8
3
  40
135
  5
8088
  62
0
  72
0
  71
0
 10
4263.38
 20
8127.51
 30
0.000000
  1
2360
  0
POINT
  5
8056
  8
DEFPOINTS
 62
     0
 10
4246.88118864427
 20
9555.446054598915
 30
0.0
  0
POINT
  5
8057
  8
DEFPOINTS
 62
     0
 10
4246.88118864427
 20
7195.446054598915
 30
0.0
  0
POINT
  5
8058
  8
DEFPOINTS
 62
     0
 10
4645.8780725577162
 20
7195.446054598915
 30
0.0
  0
ENDBLK
  5
7E77
  8
0
  0
BLOCK
  8
0
  2
*D14
 70
     1
 10
0.0
 20
0.0
 30
0.0
  3
*D14
  1

  0
LINE
  5
8059
  8
3
 62
     0
 10
4246.88118864427
 20
7172.9460545989159
 30
0.0
 11
4246.88118864427
 21
6769.6125816352287
 31
0.0
  0
LINE
  5
805A
  8
3
 62
     0
 10
1346.88118864427
 20
7172.9460545989159
 30
0.0
 11
1346.88118864427
 21
6769.6125816352287
 31
0.0
  0
LINE
  5
805B
  8
3
 62
     0
 10
4156.8811886442709
 20
6814.6125816352278
 30
0.0
 11
1436.88118864427
 21
6814.6125816352278
 31
0.0
  0
INSERT
  5
805C
  8
3
 62
     0
  2
_OPEN
 10
4246.88118864427
 20
6814.6125816352278
 30
0.0
 41
90.0
 42
90.0
 43
90.0
  0
INSERT
  5
805D
  8
3
 62
     0
  2
_OPEN
 10
1346.88118864427
 20
6814.6125816352278
 30
0.0
 41
90.0
 42
90.0
 43
90.0
 50
180.0
  0
TEXT
  8
3
  40
135
  5
8089
  62
0
  72
0
  71
0
 10
2627.32
 20
6688.16
 30
0.000000
  1
2900
  0
POINT
  5
805F
  8
DEFPOINTS
 62
     0
 10
4246.88118864427
 20
7195.446054598915
 30
0.0
  0
POINT
  5
8060
  8
DEFPOINTS
 62
     0
 10
1346.88118864427
 20
7195.446054598915
 30
0.0
  0
POINT
  5
8061
  8
DEFPOINTS
 62
     0
 10
1346.88118864427
 20
6814.6125816352278
 30
0.0
  0
ENDBLK
  5
7E6C
  8
0
  0
BLOCK
  8
0
  2
*D15
 70
     1
 10
0.0
 20
0.0
 30
0.0
  3
*D15
  1

  0
LINE
  5
8062
  8
3
 62
     0
 10
1324.38118864427
 20
7195.446054598915
 30
0.0
 11
826.0576838664357
 21
7195.446054598915
 31
0.0
  0
LINE
  5
8063
  8
3
 62
     0
 10
1324.38118864427
 20
8295.446054598915
 30
0.0
 11
826.05768386643592
 21
8295.446054598915
 31
0.0
  0
LINE
  5
8064
  8
3
 62
     0
 10
871.05768386643581
 20
7285.446054598915
 30
0.0
 11
871.05768386643604
 21
8205.446054598915
 31
0.0
  0
INSERT
  5
8065
  8
3
 62
     0
  2
_OPEN
 10
871.05768386643581
 20
7195.446054598915
 30
0.0
 41
90.0
 42
90.0
 43
90.0
 50
270.0
  0
INSERT
  5
8066
  8
3
 62
     0
  2
_OPEN
 10
871.05768386643604
 20
8295.446054598915
 30
0.0
 41
90.0
 42
90.0
 43
90.0
 50
90.0
  0
TEXT
  8
3
  40
135
  5
808A
  62
0
  72
0
  71
0
 10
488.558
 20
7480.05
 30
0.000000
  1
1100
  0
POINT
  5
8068
  8
DEFPOINTS
 62
     0
 10
1346.88118864427
 20
7195.446054598915
 30
0.0
  0
POINT
  5
8069
  8
DEFPOINTS
 62
     0
 10
1346.88118864427
 20
8295.446054598915
 30
0.0
  0
POINT
  5
806A
  8
DEFPOINTS
 62
     0
 10
871.05768386643604
 20
8295.446054598915
 30
0.0
  0
ENDBLK
  5
7E56
  8
0
  0
BLOCK
  8
0
  2
*D16
 70
     1
 10
0.0
 20
0.0
 30
0.0
  3
*D16
  1

  0
LINE
  5
806B
  8
3
 62
     0
 10
4246.88118864427
 20
9577.9460545989168
 30
0.0
 11
4246.88118864427
 21
9922.1962073593913
 31
0.0
  0
LINE
  5
806C
  8
3
 62
     0
 10
2546.88118864427
 20
9577.9460545989168
 30
0.0
 11
2546.88118864427
 21
9922.1962073593913
 31
0.0
  0
LINE
  5
806D
  8
3
 62
     0
 10
4156.8811886442709
 20
9877.1962073593895
 30
0.0
 11
2636.8811886442709
 21
9877.1962073593895
 31
0.0
  0
INSERT
  5
806E
  8
3
 62
     0
  2
_OPEN
 10
4246.88118864427
 20
9877.1962073593895
 30
0.0
 41
90.0
 42
90.0
 43
90.0
  0
INSERT
  5
806F
  8
3
 62
     0
  2
_OPEN
 10
2546.88118864427
 20
9877.1962073593895
 30
0.0
 41
90.0
 42
90.0
 43
90.0
 50
180.0
  0
TEXT
  8
3
  40
135
  5
808B
  62
0
  72
0
  71
0
 10
3121.03
 20
9750.75
 30
0.000000
  1
1700
  0
POINT
  5
8071
  8
DEFPOINTS
 62
     0
 10
4246.88118864427
 20
9555.446054598915
 30
0.0
  0
POINT
  5
8072
  8
DEFPOINTS
 62
     0
 10
2546.88118864427
 20
9555.446054598915
 30
0.0
  0
POINT
  5
8073
  8
DEFPOINTS
 62
     0
 10
2546.88118864427
 20
9877.1962073593895
 30
0.0
  0
ENDBLK
  5
7E61
  8
0
  0
BLOCK
  8
0
  2
*D17
 70
     1
 10
0.0
 20
0.0
 30
0.0
  3
*D17
  1

  0
LINE
  5
8074
  8
3
 62
     0
 10
1346.88118864427
 20
8317.9460545989168
 30
0.0
 11
1346.88118864427
 21
9922.1962073593913
 31
0.0
  0
LINE
  5
8075
  8
3
 62
     0
 10
2456.88118864427
 20
9877.1962073593895
 30
0.0
 11
1436.88118864427
 21
9877.1962073593895
 31
0.0
  0
INSERT
  5
8076
  8
3
 62
     0
  2
_OPEN
 10
2546.88118864427
 20
9877.1962073593895
 30
0.0
 41
90.0
 42
90.0
 43
90.0
  0
INSERT
  5
8077
  8
3
 62
     0
  2
_OPEN
 10
1346.88118864427
 20
9877.1962073593895
 30
0.0
 41
90.0
 42
90.0
 43
90.0
 50
180.0
  0
TEXT
  8
3
  40
135
  5
808C
  62
0
  72
0
  71
0
 10
1676.88
 20
9750.75
 30
0.000000
  1
1200
  0
POINT
  5
8079
  8
DEFPOINTS
 62
     0
 10
2546.88118864427
 20
9555.446054598915
 30
0.0
  0
POINT
  5
807A
  8
DEFPOINTS
 62
     0
 10
1346.88118864427
 20
8295.446054598915
 30
0.0
  0
POINT
  5
807B
  8
DEFPOINTS
 62
     0
 10
1346.88118864427
 20
9877.1962073593895
 30
0.0
  0
ENDBLK
  5
7E81
  8
0
  0
BLOCK
  8
0
  2
*D18
 70
     1
 10
0.0
 20
0.0
 30
0.0
  3
*D18
  1

  0
LINE
  5
7EA0
  8
0
  6
BYBLOCK
 62
     0
 10
1346.88118864427
 20
3182.433204501323
 30
0.0
 11
1346.88118864427
 21
2864.8798782016311
 31
0.0
  0
LINE
  5
7EA1
  8
0
  6
BYBLOCK
 62
     0
 10
3396.88118864427
 20
3182.433204501323
 30
0.0
 11
3396.88118864427
 21
2864.8798782016311
 31
0.0
  0
LINE
  5
7EA2
  8
0
  6
BYBLOCK
 62
     0
 10
1436.88118864427
 20
2909.8798782016302
 30
0.0
 11
3306.88118864427
 21
2909.8798782016302
 31
0.0
  0
INSERT
  5
7EA3
  8
0
  6
BYBLOCK
 62
     0
  2
_OPEN
 10
1346.88118864427
 20
2909.8798782016302
 30
0.0
 41
90.0
 42
90.0
 43
90.0
 50
180.0
  0
INSERT
  5
7EA4
  8
0
  6
BYBLOCK
 62
     0
  2
_OPEN
 10
3396.88118864427
 20
2909.8798782016302
 30
0.0
 41
90.0
 42
90.0
 43
90.0
  0
TEXT
  5
7EA5
  8
3
 62
     0
 10
2134.0240457871282
 20
2954.8798782016311
 30
0.0
 40
135.0
  1
2050
  0
POINT
  5
7EA6
  8
DEFPOINTS
  6
BYBLOCK
 62
     0
 10
1346.88118864427
 20
3204.933204501323
 30
0.0
  0
POINT
  5
7EA7
  8
DEFPOINTS
  6
BYBLOCK
 62
     0
 10
3396.88118864427
 20
3204.933204501323
 30
0.0
  0
POINT
  5
7EA8
  8
DEFPOINTS
  6
BYBLOCK
 62
     0
 10
3396.88118864427
 20
2909.8798782016302
 30
0.0
  0
ENDBLK
  5
7EA9
  8
0
  0
BLOCK
  8
0
  2
*D19
 70
     1
 10
0.0
 20
0.0
 30
0.0
  3
*D19
  1

  0
LINE
  5
7EAD
  8
0
  6
BYBLOCK
 62
     0
 10
3396.88118864427
 20
3182.433204501323
 30
0.0
 11
3396.88118864427
 21
2864.8798782016311
 31
0.0
  0
LINE
  5
7EAE
  8
0
  6
BYBLOCK
 62
     0
 10
4246.88118864427
 20
3182.433204501323
 30
0.0
 11
4246.88118864427
 21
2864.8798782016311
 31
0.0
  0
LINE
  5
7EAF
  8
0
  6
BYBLOCK
 62
     0
 10
3486.88118864427
 20
2909.8798782016302
 30
0.0
 11
4156.8811886442709
 21
2909.8798782016302
 31
0.0
  0
INSERT
  5
7EB0
  8
0
  6
BYBLOCK
 62
     0
  2
_OPEN
 10
3396.88118864427
 20
2909.8798782016302
 30
0.0
 41
90.0
 42
90.0
 43
90.0
 50
180.0
  0
INSERT
  5
7EB1
  8
0
  6
BYBLOCK
 62
     0
  2
_OPEN
 10
4246.88118864427
 20
2909.8798782016302
 30
0.0
 41
90.0
 42
90.0
 43
90.0
  0
TEXT
  5
7EB2
  8
3
 62
     0
 10
3648.3097600728429
 20
2954.8798782016311
 30
0.0
 40
135.0
  1
850
  0
POINT
  5
7EB3
  8
DEFPOINTS
  6
BYBLOCK
 62
     0
 10
3396.88118864427
 20
3204.933204501323
 30
0.0
  0
POINT
  5
7EB4
  8
DEFPOINTS
  6
BYBLOCK
 62
     0
 10
4246.88118864427
 20
3204.933204501323
 30
0.0
  0
POINT
  5
7EB5
  8
DEFPOINTS
  6
BYBLOCK
 62
     0
 10
4246.88118864427
 20
2909.8798782016302
 30
0.0
  0
ENDBLK
  5
7EB6
  8
0
  0
BLOCK
  8
0
  2
*D20
 70
     1
 10
0.0
 20
0.0
 30
0.0
  3
*D20
  1

  0
LINE
  5
7EBA
  8
0
  6
BYBLOCK
 62
     0
 10
5857.2372496447606
 20
3182.433204501323
 30
0.0
 11
5857.2372496447606
 21
2864.8798782016311
 31
0.0
  0
LINE
  5
7EBB
  8
0
  6
BYBLOCK
 62
     0
 10
7188.2372496447597
 20
3182.433204501323
 30
0.0
 11
7188.2372496447597
 21
2864.8798782016311
 31
0.0
  0
LINE
  5
7EBC
  8
0
  6
BYBLOCK
 62
     0
 10
5947.2372496447606
 20
2909.8798782016302
 30
0.0
 11
7098.2372496447597
 21
2909.8798782016302
 31
0.0
  0
INSERT
  5
7EBD
  8
0
  6
BYBLOCK
 62
     0
  2
_OPEN
 10
5857.2372496447606
 20
2909.8798782016302
 30
0.0
 41
90.0
 42
90.0
 43
90.0
 50
180.0
  0
INSERT
  5
7EBE
  8
0
  6
BYBLOCK
 62
     0
  2
_OPEN
 10
7188.2372496447597
 20
2909.8798782016302
 30
0.0
 41
90.0
 42
90.0
 43
90.0
  0
TEXT
  5
7EBF
  8
3
 62
     0
 10
6326.6658210733331
 20
2954.8798782016311
 30
0.0
 40
135.0
  1
1331
  0
POINT
  5
7EC0
  8
DEFPOINTS
  6
BYBLOCK
 62
     0
 10
5857.2372496447606
 20
3204.933204501323
 30
0.0
  0
POINT
  5
7EC1
  8
DEFPOINTS
  6
BYBLOCK
 62
     0
 10
7188.2372496447597
 20
3204.933204501323
 30
0.0
  0
POINT
  5
7EC2
  8
DEFPOINTS
  6
BYBLOCK
 62
     0
 10
7188.2372496447597
 20
2909.8798782016302
 30
0.0
  0
ENDBLK
  5
7EC3
  8
0
  0
BLOCK
  8
0
  2
*D21
 70
     1
 10
0.0
 20
0.0
 30
0.0
  3
*D21
  1

  0
LINE
  5
7EC7
  8
0
  6
BYBLOCK
 62
     0
 10
7188.2372496447597
 20
3182.433204501323
 30
0.0
 11
7188.2372496447597
 21
2864.8798782016311
 31
0.0
  0
LINE
  5
7EC8
  8
0
  6
BYBLOCK
 62
     0
 10
8217.2372496447606
 20
3182.4332045013239
 30
0.0
 11
8217.2372496447606
 21
2864.8798782016311
 31
0.0
  0
LINE
  5
7EC9
  8
0
  6
BYBLOCK
 62
     0
 10
7278.2372496447597
 20
2909.8798782016302
 30
0.0
 11
8127.2372496447597
 21
2909.8798782016302
 31
0.0
  0
INSERT
  5
7ECA
  8
0
  6
BYBLOCK
 62
     0
  2
_OPEN
 10
7188.2372496447597
 20
2909.8798782016302
 30
0.0
 41
90.0
 42
90.0
 43
90.0
 50
180.0
  0
INSERT
  5
7ECB
  8
0
  6
BYBLOCK
 62
     0
  2
_OPEN
 10
8217.2372496447606
 20
2909.8798782016302
 30
0.0
 41
90.0
 42
90.0
 43
90.0
  0
TEXT
  5
7ECC
  8
3
 62
     0
 10
7480.9515353590459
 20
2954.8798782016311
 30
0.0
 40
135.0
  1
1029
  0
POINT
  5
7ECD
  8
DEFPOINTS
  6
BYBLOCK
 62
     0
 10
7188.2372496447597
 20
3204.933204501323
 30
0.0
  0
POINT
  5
7ECE
  8
DEFPOINTS
  6
BYBLOCK
 62
     0
 10
8217.2372496447606
 20
3204.9332045013239
 30
0.0
  0
POINT
  5
7ECF
  8
DEFPOINTS
  6
BYBLOCK
 62
     0
 10
8217.2372496447606
 20
2909.8798782016302
 30
0.0
  0
ENDBLK
  5
7ED0
  8
0
  0
BLOCK
  8
0
  2
_NONE
 70
     0
 10
0.0
 20
0.0
 30
0.0
  3
_NONE
  1

  0
CIRCLE
  5
7ED4
  8
0
  6
BYBLOCK
 62
     0
 10
0.0
 20
0.0
 30
0.0
 40
0.25
  0
ENDBLK
  5
7ED5
  8
0
  0
BLOCK
  8
0
  2
*D23
 70
     1
 10
0.0
 20
0.0
 30
0.0
  3
*D23
  1

  0
LINE
  5
7EF4
  8
0
  6
BYBLOCK
 62
     0
 10
4730.5034112528892
 20
3279.9332045013239
 30
0.0
 11
4730.5034112528892
 21
3279.9332045013239
 31
0.0
  0
LINE
  5
7EF5
  8
0
  6
BYBLOCK
 62
     0
 10
4730.5034112528892
 20
3299.933204501323
 30
0.0
 11
4730.5034112528892
 21
3479.933204501323
 31
0.0
  0
TEXT
  5
7EF6
  8
3
 62
     0
 10
4990.8605541100324
 20
2972.361775929895
 30
0.0
 40
135.0
  1
   (20)
 50
90.0
  0
LINE
  5
7EF7
  8
0
  6
BYBLOCK
 62
     0
 10
4730.5034112528892
 20
3279.9332045013239
 30
0.0
 11
4730.5034112528892
 21
3299.933204501323
 31
0.0
  0
POINT
  5
7EF8
  8
DEFPOINTS
  6
BYBLOCK
 62
     0
 10
4246.88118864427
 20
3279.9332045013239
 30
0.0
  0
POINT
  5
7EF9
  8
DEFPOINTS
  6
BYBLOCK
 62
     0
 10
4246.88118864427
 20
3299.933204501323
 30
0.0
  0
POINT
  5
7EFA
  8
DEFPOINTS
  6
BYBLOCK
 62
     0
 10
4730.5034112528892
 20
3299.933204501323
 30
0.0
  0
ENDBLK
  5
7EFB
  8
0
  0
BLOCK
  8
0
  2
*D24
 70
     1
 10
0.0
 20
0.0
 30
0.0
  3
*D24
  1

  0
LINE
  5
7EFE
  8
0
  6
BYBLOCK
 62
     0
 10
4269.38118864427
 20
3204.933204501323
 30
0.0
 11
5138.0587175553374
 21
3204.933204501323
 31
0.0
  0
LINE
  5
7EFF
  8
0
  6
BYBLOCK
 62
     0
 10
3441.8811886442709
 20
5469.9332045013234
 30
0.0
 11
5138.0587175553374
 21
5469.9332045013234
 31
0.0
  0
LINE
  5
7F00
  8
0
  6
BYBLOCK
 62
     0
 10
5093.0587175553374
 20
3294.933204501323
 30
0.0
 11
5093.0587175553374
 21
5379.9332045013234
 31
0.0
  0
INSERT
  5
7F01
  8
0
  6
BYBLOCK
 62
     0
  2
_OPEN
 10
5093.0587175553374
 20
3204.933204501323
 30
0.0
 41
90.0
 42
90.0
 43
90.0
 50
270.0
  0
INSERT
  5
7F02
  8
0
  6
BYBLOCK
 62
     0
  2
_OPEN
 10
5093.0587175553374
 20
5469.9332045013234
 30
0.0
 41
90.0
 42
90.0
 43
90.0
 50
90.0
  0
TEXT
  5
7F03
  8
3
 62
     0
 10
4990.2015746981942
 20
4012.7903473584661
 30
0.0
 40
135.0
  1
(2265)
 50
90.0
  0
POINT
  5
7F04
  8
DEFPOINTS
  6
BYBLOCK
 62
     0
 10
4246.88118864427
 20
3204.933204501323
 30
0.0
  0
POINT
  5
7F05
  8
DEFPOINTS
  6
BYBLOCK
 62
     0
 10
3419.3811886442709
 20
5469.9332045013234
 30
0.0
  0
POINT
  5
7F06
  8
DEFPOINTS
  6
BYBLOCK
 62
     0
 10
5093.0587175553374
 20
5469.9332045013234
 30
0.0
  0
ENDBLK
  5
7F07
  8
0
  0
ENDSEC
  0
SECTION
  2
ENTITIES
  0
CIRCLE
  5
7AD5
  8
1
 10
3396.88118864427
 20
4539.9332045013216
 30
0.0
 40
225.0
  0
ARC
  5
7AD6
  8
1
 10
3396.88118864427
 20
4539.9332045013216
 30
0.0
 40
380.0
 50
292.41319516291043
 51
120.9943680510207
  0
ARC
  5
7AD7
  8
1
 10
3482.3811886442709
 20
4454.4332045013234
 30
0.0
 40
917.5
 50
0.0
 51
5.3470378034862636
  0
LINE
  5
7AD8
  8
2
 10
3396.88118864427
 20
5557.927962352408
 30
0.0
 11
3396.88118864427
 21
3204.933204501323
 31
0.0
  0
LINE
  5
7AD9
  8
1
 10
3201.198738465624
 20
4865.6760151542703
 30
0.0
 11
1622.3565609396439
 21
3917.2231387135389
 31
0.0
  0
LINE
  5
7ADA
  8
1
 10
3285.8315940384432
 20
4735.6191455851967
 30
0.0
 11
1681.485316265283
 21
3825.1704809173821
 31
0.0
  0
ARC
  5
7ADB
  8
1
 10
3294.8811886442709
 20
4641.9332045013234
 30
0.0
 40
1309.0
 50
184.469136655521
 51
245.59100467138461
  0
CIRCLE
  5
7ADC
  8
1
 10
3396.88118864427
 20
4539.9332045013216
 30
0.0
 40
750.0
  0
CIRCLE
  5
7ADD
  8
1
 10
3396.88118864427
 20
4539.9332045013216
 30
0.0
 40
700.0
  0
ARC
  5
7ADE
  8
1
 10
3294.8811886442709
 20
4437.9332045013234
 30
0.0
 40
1105.0
 50
296.60468168939639
 51
0.8555796354301929
  0
LINE
  5
7AE0
  8
1
 10
4246.88118864427
 20
3204.933204501323
 30
0.0
 11
1346.88118864427
 21
3204.933204501323
 31
0.0
  0
LINE
  5
7AE1
  8
1
 10
4246.88118864427
 20
3279.9332045013239
 30
0.0
 11
1346.88118864427
 21
3279.9332045013239
 31
0.0
  0
LINE
  5
7AE2
  8
1
 10
4246.88118864427
 20
3449.933204501323
 30
0.0
 11
1346.88118864427
 21
3449.933204501323
 31
0.0
  0
LINE
  5
7AE3
  8
1
 10
4246.88118864427
 20
3299.933204501323
 30
0.0
 11
1346.88118864427
 21
3299.933204501323
 31
0.0
  0
LINE
  5
7AE4
  8
1
 10
4246.88118864427
 20
3279.9332045013239
 30
0.0
 11
4246.88118864427
 21
3204.933204501323
 31
0.0
  0
LINE
  5
7AE5
  8
1
 10
4246.88118864427
 20
3449.933204501323
 30
0.0
 11
4246.88118864427
 21
3299.933204501323
 31
0.0
  0
LINE
  5
7AE6
  8
1
 10
1346.88118864427
 20
3279.9332045013239
 30
0.0
 11
1346.88118864427
 21
3204.933204501323
 31
0.0
  0
LINE
  5
7AE7
  8
2
 10
1746.88118864427
 20
3991.279395501324
 30
0.0
 11
1746.88118864427
 21
3204.933204501323
 31
0.0
  0
POINT
  5
7AE8
  8
1
 10
1346.88118864427
 20
3204.933204501323
 30
0.0
  0
POINT
  5
7AE9
  8
1
 10
1346.88118864427
 20
3204.933204501323
 30
0.0
  0
LINE
  5
7AEA
  8
2
 10
2003.3882703774291
 20
3709.933204501323
 30
0.0
 11
1478.7498627053931
 21
3709.933204501323
 31
0.0
  0
LINE
  5
7AEB
  8
1
 10
1996.837385556953
 20
3509.933204501323
 30
0.0
 11
1846.27674161871
 21
3509.933204501323
 31
0.0
  0
ARC
  5
7AEC
  8
1
 10
1746.88118864427
 20
3709.933204501323
 30
0.0
 40
203.5
 50
285.60369900000001
 51
254.39624000000001
  0
LINE
  5
7AED
  8
1
 10
3541.768838200207
 20
4188.6390698987716
 30
0.0
 11
1839.0819997209919
 21
3486.3834110156758
 31
0.0
  0
LINE
  5
7AEE
  8
1
 10
1800.4210415004809
 20
3588.7319909919888
 30
0.0
 11
3487.7979199095348
 21
4334.1198230703767
 31
0.0
  0
LINE
  5
7AF1
  8
1
 10
2006.8811886442711
 20
3449.933204501323
 30
0.0
 11
1996.837385556953
 21
3509.933204501323
 31
0.0
  0
ARC
  5
7AF9
  8
1
 10
1746.88118864427
 20
3709.933204501323
 30
0.0
 40
241.8170790715175
 50
120.9943680510207
 51
292.41319516291031
  0
LINE
  5
7AFA
  8
1
 10
1557.88118864427
 20
3584.259864501324
 30
0.0
 11
1557.88118864427
 21
3509.933204501323
 31
0.0
  0
LINE
  5
7AFB
  8
1
 10
1935.8811886442711
 20
3584.259864501324
 30
0.0
 11
1935.8811886442711
 21
3509.933204501323
 31
0.0
  0
LINE
  5
7AFD
  8
1
 10
1692.143151644271
 20
3513.933204501323
 30
0.0
 11
1801.61922564427
 21
3513.933204501323
 31
0.0
  0
LINE
  5
7AFE
  8
1
 10
1746.88118864427
 20
3500.0845651101881
 30
0.0
 11
1647.485635669831
 21
3500.0845651101881
 31
0.0
  0
LINE
  5
7AFF
  8
1
 10
1850.98375864427
 20
3535.076392501323
 30
0.0
 11
1857.7209542265609
 21
3509.933204501323
 31
0.0
  0
LINE
  5
7B00
  8
1
 10
1846.27674161871
 20
3509.933204501323
 30
0.0
 11
1846.27674161871
 21
3500.0845651101881
 31
0.0
  0
LINE
  5
7B02
  8
1
 10
1935.8811886442711
 20
3509.933204501323
 30
0.0
 11
1856.3811886442711
 21
3509.933204501323
 31
0.0
  0
LINE
  5
7B03
  8
1
 10
1746.88118864427
 20
3500.0845651101881
 30
0.0
 11
1846.27674161871
 21
3500.0845651101881
 31
0.0
  0
LINE
  5
7B07
  8
1
 10
1486.8811886442711
 20
3449.933204501323
 30
0.0
 11
1496.9249917315881
 21
3509.933204501323
 31
0.0
  0
LINE
  5
7B09
  8
1
 10
1642.7784056442699
 20
3535.076514501322
 30
0.0
 11
1636.0414840475589
 21
3509.933204501323
 31
0.0
  0
LINE
  5
7B0A
  8
1
 10
1647.485635669831
 20
3509.933204501323
 30
0.0
 11
1647.485635669831
 21
3500.0845651101881
 31
0.0
  0
LINE
  5
7B0B
  8
1
 10
1557.88118864427
 20
3509.933204501323
 30
0.0
 11
1637.3811886442711
 21
3509.933204501323
 31
0.0
  0
LINE
  5
7B0C
  8
1
 10
1557.88118864427
 20
3509.933204501323
 30
0.0
 11
1637.8811886442711
 21
3509.933204501323
 31
0.0
  0
LINE
  5
7B0E
  8
1
 10
1496.9249917315881
 20
3509.933204501323
 30
0.0
 11
1647.485635669831
 21
3509.933204501323
 31
0.0
  0
LINE
  5
7B0F
  8
1
 10
1346.88118864427
 20
3449.933204501323
 30
0.0
 11
1346.88118864427
 21
3299.933204501323
 31
0.0
  0
POINT
  5
7B10
  8
1
 10
1346.88118864427
 20
3299.933204501323
 30
0.0
  0
POINT
  5
7B11
  8
1
 10
1346.88118864427
 20
3299.933204501323
 30
0.0
  0
POINT
  5
7B12
  8
1
 10
1346.88118864427
 20
3279.9332045013239
 30
0.0
  0
POINT
  5
7B13
  8
1
 10
1346.88118864427
 20
3279.9332045013239
 30
0.0
  0
POINT
  5
7B14
  8
1
 10
1346.88118864427
 20
3279.9332045013239
 30
0.0
  0
POINT
  5
7B15
  8
1
 10
1346.88118864427
 20
3279.9332045013239
 30
0.0
  0
CIRCLE
  5
7B1A
  8
1
 10
1746.88118864427
 20
3709.933204501323
 30
0.0
 40
132.49999999999989
  0
ARC
  5
7B1B
  8
1
 10
1930.88118864427
 20
3584.259864501324
 30
0.0
 40
5.0000669999999987
 50
0.0
 51
55.056334999999997
  0
LINE
  5
7B1C
  8
1
 10
1933.7449586442699
 20
3588.3584975013232
 30
0.0
 11
1917.80709164427
 21
3599.4947275013242
 31
0.0
  0
ARC
  5
7B1D
  8
1
 10
1562.88118864427
 20
3584.259864501324
 30
0.0
 40
5.0
 50
124.94366100000001
 51
180.0
  0
LINE
  5
7B1F
  8
1
 10
1560.017296644271
 20
3588.3584975013232
 30
0.0
 11
1575.9551636442709
 21
3599.4947275013242
 31
0.0
  0
ARC
  5
7B20
  8
1
 10
3482.3811886442709
 20
4454.4332045013234
 30
0.0
 40
917.5
 50
5.3470378034862636
 51
95.347037803486259
  0
LINE
  5
7B21
  8
2
 10
4567.1690359760614
 20
4539.9332045013216
 30
0.0
 11
1916.37735969953
 21
4539.9332045013216
 31
0.0
  0
LINE
  5
7B22
  8
1
 10
1905.88118864427
 20
5469.9332045013234
 30
0.0
 11
1989.7673353465591
 21
4539.9332045013216
 31
0.0
  0
LINE
  5
7B23
  8
1
 10
3355.8811886442709
 20
5419.9332045013216
 30
0.0
 11
1910.391196531491
 21
5419.9332045013243
 31
0.0
  0
LINE
  5
7B24
  8
1
 10
3409.8811886442709
 20
5463.9332045013234
 30
0.0
 11
1851.88118864427
 21
5463.9332045013252
 31
0.0
  0
LINE
  5
7B25
  8
1
 10
3409.8811886442709
 20
5469.9332045013234
 30
0.0
 11
1851.88118864427
 21
5469.9332045013243
 31
0.0
  0
LINE
  5
7B26
  8
1
 10
3355.8811886442709
 20
5469.9332045013234
 30
0.0
 11
3355.8811886442709
 21
5360.8369492247002
 31
0.0
  0
ARC
  5
7B27
  8
1
 10
3482.3811886442709
 20
4625.1332045013241
 30
0.0
 40
746.49999999999989
 50
96.576776130256079
 51
99.756276618116615
  0
LINE
  5
7B28
  8
1
 10
3409.8811886442709
 20
5469.9332045013234
 30
0.0
 11
3409.88118864427
 21
5463.9332045013252
 31
0.0
  0
LINE
  5
7B29
  8
1
 10
1851.88118864427
 20
5469.9332045013243
 30
0.0
 11
1851.88118864427
 21
5463.9332045013261
 31
0.0
  0
LINE
  5
7B2A
  8
1
 10
8138.2372496447597
 20
4539.9332045013216
 30
0.0
 11
8138.2372496447597
 21
3449.933204501323
 31
0.0
  0
LINE
  5
7B2B
  8
2
 10
7188.2372496447597
 20
5624.6996279981722
 30
0.0
 11
7188.2372496447597
 21
3204.933204501323
 31
0.0
  0
LINE
  5
7B2C
  8
1
 10
5969.2372496447597
 20
4459.9332045013234
 30
0.0
 11
5969.2372496447597
 21
4619.9332045013234
 31
0.0
  0
LINE
  5
7B2D
  8
1
 10
6238.2372496447606
 20
4539.9332045013216
 30
0.0
 11
6238.2372496447606
 21
3449.933204501323
 31
0.0
  0
LINE
  5
7B2E
  8
1
 10
5819.2372496447606
 20
3469.933204501323
 30
0.0
 11
5819.2372496447606
 21
4919.9332045013234
 31
0.0
  0
LINE
  5
7B2F
  8
1
 10
5954.6372496447602
 20
3577.433204501323
 30
0.0
 11
5954.6372496447602
 21
4764.9332045013234
 31
0.0
  0
LINE
  5
7B30
  8
1
 10
5869.2372496447597
 20
3577.433204501323
 30
0.0
 11
5869.2372496447597
 21
4764.9332045013234
 31
0.0
  0
LINE
  5
7B31
  8
1
 10
8217.2372496447606
 20
3279.9332045013239
 30
0.0
 11
8217.2372496447606
 21
3204.9332045013239
 31
0.0
  0
LINE
  5
7B32
  8
1
 10
5857.2372496447606
 20
3279.9332045013239
 30
0.0
 11
5857.2372496447606
 21
3204.933204501323
 31
0.0
  0
LINE
  5
7B33
  8
1
 10
8217.2372496447606
 20
3204.9332045013239
 30
0.0
 11
5857.2372496447606
 21
3204.933204501323
 31
0.0
  0
LINE
  5
7B34
  8
1
 10
8217.2372496447606
 20
3299.933204501323
 30
0.0
 11
5857.2372496447606
 21
3299.9332045013239
 31
0.0
  0
LINE
  5
7B35
  8
1
 10
8143.2372496447597
 20
3449.933204501323
 30
0.0
 11
5857.2372496447606
 21
3449.933204501323
 31
0.0
  0
LINE
  5
7B36
  8
1
 10
8217.2372496447606
 20
3279.9332045013239
 30
0.0
 11
5857.2372496447606
 21
3279.9332045013239
 31
0.0
  0
LINE
  5
7B37
  8
1
 10
6055.6052766674911
 20
3910.3288230938479
 30
0.0
 11
6055.6052766674911
 21
3710.3288230938492
 31
0.0
  0
LINE
  5
7B3A
  8
1
 10
6045.6052766674911
 20
3740.3288230938479
 30
0.0
 11
5905.6052766674911
 21
3740.3288230938479
 31
0.0
  0
LINE
  5
7B3B
  8
1
 10
6045.6052766674911
 20
3680.3288230938492
 30
0.0
 11
5905.6052766674911
 21
3680.3288230938492
 31
0.0
  0
LINE
  5
7B3C
  8
1
 10
6015.6052766674911
 20
3676.3288230938479
 30
0.0
 11
5905.6052766674911
 21
3676.3288230938479
 31
0.0
  0
LINE
  5
7B3E
  8
2
 10
5787.7318228493159
 20
3710.3288230938492
 30
0.0
 11
6343.4019869414551
 21
3710.3288230938492
 31
0.0
  0
LINE
  5
7B3F
  8
1
 10
6004.6372496447602
 20
3469.933204501323
 30
0.0
 11
5819.2372496447606
 21
3469.933204501323
 31
0.0
  0
LINE
  5
7B40
  8
1
 10
5857.2372496447606
 20
3449.933204501323
 30
0.0
 11
5857.2372496447606
 21
3299.933204501323
 31
0.0
  0
LINE
  5
7B41
  8
1
 10
5905.6052766674911
 20
3676.3288230938479
 30
0.0
 11
5905.6052766674911
 21
3740.3288230938479
 31
0.0
  0
LINE
  5
7B42
  8
1
 10
5954.6372496447602
 20
3577.433204501323
 30
0.0
 11
5869.2372496447597
 21
3577.433204501323
 31
0.0
  0
LINE
  5
7B43
  8
1
 10
5954.6372496447593
 20
3842.4332045013239
 30
0.0
 11
5869.2372496447597
 21
3842.4332045013239
 31
0.0
  0
LINE
  5
7B44
  8
1
 10
6055.6052766674911
 20
3500.3288230938479
 30
0.0
 11
6055.6052766674911
 21
3710.3288230938492
 31
0.0
  0
LINE
  5
7B45
  8
1
 10
6004.6372496447602
 20
3469.933204501323
 30
0.0
 11
6004.6372496447602
 21
3646.2544974491252
 31
0.0
  0
LINE
  5
7B47
  8
1
 10
6055.6052766674911
 20
3500.3288230938479
 30
0.0
 11
6238.2372496447606
 21
3500.3288230938479
 31
0.0
  0
LINE
  5
7B48
  8
1
 10
6238.2372496447606
 20
3500.3288230938479
 30
0.0
 11
6238.2372496447606
 21
3449.933204501323
 31
0.0
  0
LINE
  5
7B49
  8
1
 10
6045.6052766674911
 20
3742.8288230938492
 30
0.0
 11
6045.6052766674911
 21
3677.8288230938479
 31
0.0
  0
LINE
  5
7B4A
  8
1
 10
6045.6052766674911
 20
3677.8288230938479
 30
0.0
 11
6055.6052766674911
 21
3677.8288230938479
 31
0.0
  0
LINE
  5
7B4B
  8
1
 10
6015.6052766674911
 20
3676.3288230938479
 30
0.0
 11
6015.6052766674911
 21
3680.3288230938492
 31
0.0
  0
LINE
  5
7B4C
  8
1
 10
6045.6052766674911
 20
3742.8288230938492
 30
0.0
 11
6055.6052766674911
 21
3742.8288230938492
 31
0.0
  0
LINE
  5
7B4D
  8
1
 10
5969.2372496447597
 20
4459.9332045013234
 30
0.0
 11
5954.6372496447602
 21
4459.9332045013234
 31
0.0
  0
LINE
  5
7B4E
  8
1
 10
5954.6372496447602
 20
4314.9332045013234
 30
0.0
 11
5869.2372496447597
 21
4314.9332045013234
 31
0.0
  0
LINE
  5
7B4F
  8
1
 10
6238.2372496447597
 20
3910.3288230938479
 30
0.0
 11
6055.6052766674911
 21
3910.3288230938479
 31
0.0
  0
LINE
  5
7B50
  8
1
 10
6035.0372496447617
 20
4469.9332045013234
 30
0.0
 11
6035.037249644759
 21
4299.9332045013234
 31
0.0
  0
LINE
  5
7B51
  8
1
 10
6078.4372496447613
 20
4299.9332045013234
 30
0.0
 11
6238.2372496447606
 21
4299.9332045013234
 31
0.0
  0
LINE
  5
7B52
  8
1
 10
6160.037249644759
 20
4299.9332045013234
 30
0.0
 11
6035.037249644759
 21
4299.9332045013234
 31
0.0
  0
LINE
  5
7B53
  8
1
 10
6078.4372496447613
 20
4469.9332045013234
 30
0.0
 11
6238.2372496447606
 21
4469.9332045013234
 31
0.0
  0
LINE
  5
7B54
  8
1
 10
6160.037249644759
 20
4469.9332045013234
 30
0.0
 11
6035.037249644759
 21
4469.9332045013234
 31
0.0
  0
LINE
  5
7B55
  8
1
 10
8217.2372496447606
 20
3449.9332045013239
 30
0.0
 11
8217.2372496447606
 21
3299.933204501323
 31
0.0
  0
LINE
  5
7B56
  8
1
 10
8143.2372496447597
 20
3449.933204501323
 30
0.0
 11
8217.2372496447606
 21
3449.9332045013239
 31
0.0
  0
LINE
  5
7B58
  8
1
 10
8318.4372496447595
 20
4469.9332045013234
 30
0.0
 11
8318.4372496447613
 21
4299.9332045013234
 31
0.0
  0
LINE
  5
7B59
  8
1
 10
8216.4372496447595
 20
4299.9332045013234
 30
0.0
 11
8318.4372496447613
 21
4299.9332045013234
 31
0.0
  0
LINE
  5
7B5A
  8
1
 10
8271.4372496447577
 20
4299.9332045013234
 30
0.0
 11
8138.2372496447597
 21
4299.9332045013234
 31
0.0
  0
LINE
  5
7B5B
  8
1
 10
8318.4372496447595
 20
4469.9332045013234
 30
0.0
 11
8243.9372496447595
 21
4469.9332045013234
 31
0.0
  0
LINE
  5
7B5C
  8
1
 10
8138.2372496447597
 20
4469.9332045013234
 30
0.0
 11
8243.9372496447595
 21
4469.9332045013234
 31
0.0
  0
LINE
  5
7B5D
  8
1
 10
8188.2372496447597
 20
5463.9332045013234
 30
0.0
 11
6188.2372496447597
 21
5463.9332045013234
 31
0.0
  0
LINE
  5
7B5E
  8
1
 10
8188.2372496447597
 20
5469.9332045013243
 30
0.0
 11
6188.2372496447597
 21
5469.9332045013234
 31
0.0
  0
LINE
  5
7B5F
  8
2
 10
8277.8877437004558
 20
4539.9332045013216
 30
0.0
 11
5770.6659286992581
 21
4539.9332045013216
 31
0.0
  0
LINE
  5
7B60
  8
1
 10
6238.2372496447606
 20
5419.9332045013234
 30
0.0
 11
6238.2372496447606
 21
4539.9332045013216
 31
0.0
  0
LINE
  5
7B61
  8
1
 10
6004.6372496447602
 20
4919.9332045013234
 30
0.0
 11
5819.2372496447606
 21
4919.9332045013234
 31
0.0
  0
LINE
  5
7B62
  8
1
 10
5969.2372496447597
 20
4619.9332045013234
 30
0.0
 11
5954.6372496447621
 21
4619.9332045013234
 31
0.0
  0
LINE
  5
7B63
  8
1
 10
5954.6372496447621
 20
4764.9332045013234
 30
0.0
 11
5869.2372496447597
 21
4764.9332045013234
 31
0.0
  0
LINE
  5
7B64
  8
1
 10
6004.6372496447602
 20
4693.2614975667384
 30
0.0
 11
6004.6372496447602
 21
4919.9332045013234
 31
0.0
  0
LINE
  5
7B65
  8
1
 10
6238.2372496447606
 20
4587.4332045013234
 30
0.0
 11
5969.2372496447597
 21
4587.4332045013234
 31
0.0
  0
LINE
  5
7B66
  8
1
 10
6238.2372496447606
 20
4492.4332045013234
 30
0.0
 11
5969.2372496447597
 21
4492.4332045013234
 31
0.0
  0
LINE
  5
7B67
  8
1
 10
6188.2372496447597
 20
5469.9332045013234
 30
0.0
 11
6188.2372496447597
 21
5419.9332045013243
 31
0.0
  0
LINE
  5
7B68
  8
1
 10
6238.2372496447606
 20
5469.9332045013234
 30
0.0
 11
6238.2372496447606
 21
5419.9332045013234
 31
0.0
  0
LINE
  5
7B69
  8
1
 10
8138.2372496447597
 20
5419.9332045013234
 30
0.0
 11
8138.2372496447597
 21
4539.9332045013216
 31
0.0
  0
LINE
  5
7B6B
  8
1
 10
8188.2372496447597
 20
5469.9332045013234
 30
0.0
 11
8188.2372496447597
 21
5419.9332045013243
 31
0.0
  0
LINE
  5
7B6C
  8
1
 10
8138.2372496447597
 20
5469.9332045013234
 30
0.0
 11
8138.2372496447597
 21
5419.9332045013234
 31
0.0
  0
LINE
  5
7B6E
  8
1
 10
1346.88118864427
 20
8295.446054598915
 30
0.0
 11
1346.88118864427
 21
7195.446054598915
 31
0.0
  0
LINE
  5
7B70
  8
1
 10
1905.88118864427
 20
9476.4460545989168
 30
0.0
 11
1905.88118864427
 21
7576.446054598915
 31
0.0
  0
LINE
  5
7B71
  8
2
 10
3396.88118864427
 20
9696.1324705694897
 30
0.0
 11
3396.88118864427
 21
7125.8479363562401
 31
0.0
  0
LINE
  5
7B73
  8
1
 10
4399.8811886442709
 20
9476.4460545989168
 30
0.0
 11
4399.8811886442709
 21
7576.446054598915
 31
0.0
  0
LINE
  5
7B74
  8
1
 10
3355.8811886442709
 20
9476.4460545989168
 30
0.0
 11
3355.8811886442709
 21
7576.446054598915
 31
0.0
  0
LINE
  5
7B75
  8
1
 10
3355.8811886442709
 20
9476.4460545989168
 30
0.0
 11
1905.88118864427
 21
7576.446054598915
 31
0.0
  0
LINE
  5
7B76
  8
1
 10
1905.88118864427
 20
9476.4460545989132
 30
0.0
 11
3355.8811886442709
 21
7576.446054598915
 31
0.0
  0
LINE
  5
7B78
  8
1
 10
1346.88118864427
 20
7195.446054598915
 30
0.0
 11
4246.88118864427
 21
7195.446054598915
 31
0.0
  0
LINE
  5
7B79
  8
1
 10
4246.88118864427
 20
7576.4460545989141
 30
0.0
 11
4246.88118864427
 21
7195.446054598915
 31
0.0
  0
LINE
  5
7B7B
  8
1
 10
1506.88118864427
 20
7342.8460545989146
 30
0.0
 11
3785.8811886442709
 21
7342.8460545989146
 31
0.0
  0
LINE
  5
7B7C
  8
1
 10
1506.88118864427
 20
7157.446054598915
 30
0.0
 11
3785.8811886442709
 21
7157.446054598915
 31
0.0
  0
LINE
  5
7B7D
  8
1
 10
1614.38118864427
 20
7292.8460545989146
 30
0.0
 11
3630.8811886442709
 21
7292.8460545989146
 31
0.0
  0
LINE
  5
7B7E
  8
1
 10
1614.38118864427
 20
7207.446054598915
 30
0.0
 11
3630.8811886442709
 21
7207.446054598915
 31
0.0
  0
LINE
  5
7B7F
  8
1
 10
1905.88118864427
 20
7576.446054598915
 30
0.0
 11
4399.88118864427
 21
7576.446054598915
 31
0.0
  0
LINE
  5
7B81
  8
1
 10
3358.3811886442709
 20
7576.4460545989168
 30
0.0
 11
3358.3811886442709
 21
7307.4460545989159
 31
0.0
  0
LINE
  5
7B82
  8
1
 10
3453.3811886442709
 20
7576.446054598915
 30
0.0
 11
3453.3811886442709
 21
7307.4460545989159
 31
0.0
  0
LINE
  5
7B83
  8
1
 10
3325.88118864427
 20
7307.4460545989159
 30
0.0
 11
3485.88118864427
 21
7307.4460545989159
 31
0.0
  0
LINE
  5
7B84
  8
1
 10
3630.8811886442709
 20
7292.8460545989174
 30
0.0
 11
3630.8811886442709
 21
7207.446054598915
 31
0.0
  0
LINE
  5
7B85
  8
1
 10
3785.8811886442709
 20
7342.8460545989146
 30
0.0
 11
3785.8811886442709
 21
7157.446054598915
 31
0.0
  0
LINE
  5
7B86
  8
1
 10
3485.88118864427
 20
7307.4460545989159
 30
0.0
 11
3485.88118864427
 21
7292.8460545989174
 31
0.0
  0
LINE
  5
7B87
  8
1
 10
3180.8811886442709
 20
7292.8460545989146
 30
0.0
 11
3180.8811886442709
 21
7207.446054598915
 31
0.0
  0
LINE
  5
7B88
  8
1
 10
3325.88118864427
 20
7307.4460545989159
 30
0.0
 11
3325.88118864427
 21
7292.8460545989146
 31
0.0
  0
LINE
  5
7B89
  8
1
 10
1536.8811886442711
 20
7400.1460545989148
 30
0.0
 11
1536.8811886442711
 21
7675.6460545989157
 31
0.0
  0
LINE
  5
7B8B
  8
2
 10
1746.88118864427
 20
8189.2714101499769
 30
0.0
 11
1746.88118864427
 21
7122.4177257826414
 31
0.0
  0
LINE
  5
7B8C
  8
1
 10
1712.8811886442711
 20
7360.1460545989148
 30
0.0
 11
1712.8811886442711
 21
7250.1460545989139
 31
0.0
  0
LINE
  5
7B8D
  8
1
 10
1716.88118864427
 20
7390.1460545989148
 30
0.0
 11
1716.88118864427
 21
7250.1460545989139
 31
0.0
  0
LINE
  5
7B8E
  8
1
 10
1776.8811886442711
 20
7390.1460545989148
 30
0.0
 11
1776.8811886442711
 21
7250.1460545989139
 31
0.0
  0
LINE
  5
7B8F
  8
1
 10
1506.88118864427
 20
7342.8460545989146
 30
0.0
 11
1506.88118864427
 21
7157.446054598915
 31
0.0
  0
LINE
  5
7B90
  8
1
 10
1614.38118864427
 20
7292.8460545989146
 30
0.0
 11
1614.38118864427
 21
7207.446054598915
 31
0.0
  0
LINE
  5
7B91
  8
1
 10
1879.38118864427
 20
7292.8460545989146
 30
0.0
 11
1879.38118864427
 21
7207.446054598915
 31
0.0
  0
LINE
  5
7B92
  8
1
 10
1712.8811886442711
 20
7250.1460545989139
 30
0.0
 11
1776.8811886442711
 21
7250.1460545989139
 31
0.0
  0
LINE
  5
7B93
  8
1
 10
1946.88118864427
 20
7576.446054598915
 30
0.0
 11
1946.88118864427
 21
7400.1460545989148
 31
0.0
  0
LINE
  5
7B94
  8
1
 10
1536.8811886442711
 20
7400.1460545989148
 30
0.0
 11
1746.88118864427
 21
7400.1460545989148
 31
0.0
  0
LINE
  5
7B95
  8
1
 10
1714.3811886442711
 20
7390.1460545989148
 30
0.0
 11
1714.3811886442711
 21
7400.1460545989148
 31
0.0
  0
LINE
  5
7B96
  8
1
 10
1712.8811886442711
 20
7360.1460545989148
 30
0.0
 11
1716.88118864427
 21
7360.1460545989148
 31
0.0
  0
LINE
  5
7B97
  8
1
 10
1779.38118864427
 20
7390.1460545989148
 30
0.0
 11
1779.38118864427
 21
7400.1460545989148
 31
0.0
  0
LINE
  5
7B98
  8
1
 10
1779.38118864427
 20
7390.1460545989148
 30
0.0
 11
1714.3811886442711
 21
7390.1460545989148
 31
0.0
  0
LINE
  5
7B99
  8
1
 10
1946.88118864427
 20
7400.1460545989148
 30
0.0
 11
1746.88118864427
 21
7400.1460545989148
 31
0.0
  0
LINE
  5
7B9A
  8
1
 10
1536.8811886442711
 20
8049.6460545989139
 30
0.0
 11
1536.8811886442711
 21
7675.6460545989157
 31
0.0
  0
LINE
  5
7B9B
  8
1
 10
1536.8811886442711
 20
8049.6460545989139
 30
0.0
 11
1905.8811886442711
 21
8049.6460545989139
 31
0.0
  0
LINE
  5
7B9D
  8
2
 10
1742.901198581472
 20
8526.446054598915
 30
0.0
 11
4457.4023225568853
 21
8526.446054598915
 31
0.0
  0
LINE
  5
7B9E
  8
1
 10
2546.88118864427
 20
9555.446054598915
 30
0.0
 11
4246.88118864427
 21
9555.446054598915
 31
0.0
  0
LINE
  5
7B9F
  8
1
 10
4246.88118864427
 20
9555.446054598915
 30
0.0
 11
4246.88118864427
 21
9476.4460545989168
 31
0.0
  0
LINE
  5
7BA0
  8
1
 10
1346.88118864427
 20
8295.446054598915
 30
0.0
 11
1905.88118864427
 21
8295.446054598915
 31
0.0
  0
LINE
  5
7BA1
  8
1
 10
1905.88118864427
 20
9476.4460545989132
 30
0.0
 11
4399.88118864427
 21
9476.4460545989168
 31
0.0
  0
LINE
  5
7BA3
  8
1
 10
2546.88118864427
 20
9555.446054598915
 30
0.0
 11
2546.88118864427
 21
9476.4460545989132
 31
0.0
  0
DIMENSION
  5
7BB6
  8
3
  2
*D1
 10
8627.2420781953551
 20
3839.933204501323
 30
0.0
 11
8627.2420781953551
 21
4479.7878533478461
 31
0.0
 70
   128
 13
8138.2372496447597
 23
5239.9332045013243
 33
0.0
 14
8138.2372496447597
 24
3839.933204501323
 34
0.0
 50
90.0
1001
ACAD
1000
DSTYLE
1002
{
1070
   287
1070
     3
1070
   287
1070
     3
1070
     3
1000
φ<>
1070
    40
1040
45.0
1070
   143
1040
0.039
1070
   172
1070
     1
1070
   271
1070
     0
1070
   279
1070
     0
1070
   288
1070
     1
1002
}
  0
DIMENSION
  5
7BD9
  8
3
  2
*D2
 10
8138.2372496447597
 20
5600.8529922741036
 30
0.0
 11
7195.6140201927992
 21
5600.8529922741036
 31
0.0
 70
   128
 13
6238.2372496447606
 23
5463.9332045013234
 33
0.0
 14
8138.2372496447597
 24
5419.9332045013234
 34
0.0
1001
ACAD
1000
DSTYLE
1002
{
1070
   287
1070
     3
1070
   287
1070
     3
1070
    40
1040
45.0
1070
   143
1040
0.039
1070
   172
1070
     1
1070
   271
1070
     0
1070
   279
1070
     0
1070
   288
1070
     1
1002
}
  0
DIMENSION
  5
7BE6
  8
3
  2
*D3
 10
7188.2372496447597
 20
5921.8711742718924
 30
0.0
 11
7742.6639553013019
 21
5921.8711742718924
 31
0.0
 70
   128
  1
(<>)
 13
8318.4372496447595
 23
4469.9332045013234
 33
0.0
 14
7188.2372496447597
 24
5791.9601748661444
 34
0.0
1001
ACAD
1000
DSTYLE
1002
{
1070
   287
1070
     3
1070
   287
1070
     3
1070
    40
1040
45.0
1070
   143
1040
0.039
1070
   172
1070
     1
1070
   271
1070
     0
1070
   279
1070
     0
1070
   288
1070
     1
1002
}
  0
DIMENSION
  5
7BFD
  8
3
  2
*D4
 10
5819.2372496447606
 20
5921.8711742718924
 30
0.0
 11
6503.7372496447597
 21
6146.8711742718924
 31
0.0
 70
     0
  1
MAX\P1450
 13
7188.2372496447597
 23
5791.9601748661444
 33
0.0
 14
5819.2372496447606
 24
4919.9332045013234
 34
0.0
1001
ACAD
1000
DSTYLE
1002
{
1070
   287
1070
     4
1070
   287
1070
     4
1070
    40
1040
45.0
1070
    75
1070
     1
1070
   143
1040
0.039
1070
   172
1070
     1
1070
   271
1070
     0
1070
   279
1070
     1
1070
   288
1070
     1
1002
}
  0
DIMENSION
  5
7C5C
  8
3
  2
*D5
 10
4729.5327783332978
 20
4539.9332045013216
 30
0.0
 11
4729.5327783332978
 21
5030.2400857133589
 31
0.0
 70
   128
 13
3396.88118864427
 23
5469.9332045013234
 33
0.0
 14
4567.1690359760614
 24
4539.9332045013216
 34
0.0
 50
270.0
1001
ACAD
1000
DSTYLE
1002
{
1070
   287
1070
     3
1070
   287
1070
     3
1070
    40
1040
45.0
1070
   143
1040
0.039
1070
   172
1070
     1
1070
   271
1070
     0
1070
   279
1070
     0
1070
   288
1070
     1
1002
}
  0
DIMENSION
  5
7C68
  8
3
  2
*D6
 10
4729.5327783332978
 20
3299.933204501323
 30
0.0
 11
4617.0327783332968
 21
3919.9332045013239
 31
0.0
 70
     0
 13
4567.1690359760614
 23
4539.9332045013216
 33
0.0
 14
4246.88118864427
 24
3299.933204501323
 34
0.0
 50
270.0
1001
ACAD
1000
DSTYLE
1002
{
1070
   287
1070
     4
1070
   287
1070
     4
1070
    40
1040
45.0
1070
    75
1070
     1
1070
   143
1040
0.039
1070
   172
1070
     1
1070
   271
1070
     0
1070
   279
1070
     1
1070
   288
1070
     1
1002
}
  0
DIMENSION
  5
7C88
  8
3
  2
*D7
 10
4729.5327783332978
 20
3204.933204501323
 30
0.0
 11
4617.0327783332968
 21
2870.6474902156092
 31
0.0
 70
     0
 13
4246.88118864427
 23
3279.9332045013239
 33
0.0
 14
4246.88118864427
 24
3204.933204501323
 34
0.0
 50
270.0
1001
ACAD
1000
DSTYLE
1002
{
1070
   287
1070
     3
1070
   287
1070
     3
1070
    40
1040
45.0
1070
   143
1040
0.039
1070
   172
1070
     1
1070
   271
1070
     0
1070
   279
1070
     0
1070
   288
1070
     1
1070
     6
1000
DOT
1002
}
  0
DIMENSION
  5
7D3E
  8
3
  2
*D9
 10
3355.8811886442709
 20
5770.6386029854293
 30
0.0
 11
2626.0783965715009
 21
5770.6386029854293
 31
0.0
 70
   128
 13
1905.88118864427
 23
5469.9332045013234
 33
0.0
 14
3355.8811886442709
 24
5469.9332045013234
 34
0.0
1001
ACAD
1000
DSTYLE
1002
{
1070
   287
1070
     3
1070
   287
1070
     3
1070
    40
1040
45.0
1070
   143
1040
0.039
1070
   172
1070
     1
1070
   271
1070
     0
1070
   279
1070
     0
1070
   288
1070
     1
1002
}
  0
DIMENSION
  5
7D4B
  8
3
  2
*D10
 10
3396.88118864427
 20
6034.2961739893508
 30
0.0
 11
2611.418617899049
 21
6034.2961739893508
 31
0.0
 70
   128
 13
1905.88118864427
 23
5469.9332045013234
 33
0.0
 14
3396.88118864427
 24
5557.927962352408
 34
0.0
1001
ACAD
1000
DSTYLE
1002
{
1070
   287
1070
     3
1070
   287
1070
     3
1070
    40
1040
45.0
1070
   143
1040
0.039
1070
   172
1070
     1
1070
   271
1070
     0
1070
   279
1070
     0
1070
   288
1070
     1
1002
}
  0
DIMENSION
  5
7D57
  8
3
  2
*D11
 10
4399.8811886442709
 20
6034.2961739893508
 30
0.0
 11
3898.38118864427
 21
6146.7961739893508
 31
0.0
 70
     0
 13
3396.88118864427
 23
5557.927962352408
 33
0.0
 14
4399.8811886442709
 24
4454.4332045013234
 34
0.0
1001
ACAD
1000
DSTYLE
1002
{
1070
   287
1070
     4
1070
   287
1070
     4
1070
    40
1040
45.0
1070
    75
1070
     1
1070
   143
1040
0.039
1070
   172
1070
     1
1070
   271
1070
     0
1070
   279
1070
     1
1070
   288
1070
     1
1002
}
  0
DIMENSION
  5
7D64
  8
3
  2
*D12
 10
1346.8811886442711
 20
6323.2988029062262
 30
0.0
 11
2938.8537506115749
 21
6323.2988029062262
 31
0.0
 70
   128
 13
4399.8811886442709
 23
4476.9332045013243
 33
0.0
 14
1346.88118864427
 24
3449.933204501323
 34
0.0
1001
ACAD
1000
DSTYLE
1002
{
1070
   287
1070
     3
1070
   287
1070
     3
1070
    40
1040
45.0
1070
   143
1040
0.039
1070
   172
1070
     1
1070
   271
1070
     0
1070
   279
1070
     0
1070
   288
1070
     1
1002
}
  0
DIMENSION
  5
7D71
  8
3
  2
*D13
 10
4645.8780725577162
 20
7195.446054598915
 30
0.0
 11
4645.8780725577162
 21
8366.4586399660548
 31
0.0
 70
   128
 13
4246.88118864427
 23
9555.446054598915
 33
0.0
 14
4246.88118864427
 24
7195.446054598915
 34
0.0
 50
270.0
1001
ACAD
1000
DSTYLE
1002
{
1070
   287
1070
     3
1070
   287
1070
     3
1070
    40
1040
45.0
1070
   143
1040
0.039
1070
   172
1070
     1
1070
   271
1070
     0
1070
   279
1070
     0
1070
   288
1070
     1
1002
}
  0
DIMENSION
  5
7D7E
  8
3
  2
*D14
 10
1346.88118864427
 20
6814.6125816352278
 30
0.0
 11
2897.3236541620349
 21
6814.6125816352278
 31
0.0
 70
   128
 13
4246.88118864427
 23
7195.446054598915
 33
0.0
 14
1346.88118864427
 24
7195.446054598915
 34
0.0
1001
ACAD
1000
DSTYLE
1002
{
1070
   287
1070
     3
1070
   287
1070
     3
1070
    40
1040
45.0
1070
   143
1040
0.039
1070
   172
1070
     1
1070
   271
1070
     0
1070
   279
1070
     0
1070
   288
1070
     1
1002
}
  0
DIMENSION
  5
7D8B
  8
3
  2
*D15
 10
871.05768386643604
 20
8295.446054598915
 30
0.0
 11
871.05768386643456
 21
7718.9996913427021
 31
0.0
 70
   128
 13
1346.88118864427
 23
7195.446054598915
 33
0.0
 14
1346.88118864427
 24
8295.446054598915
 34
0.0
 50
270.0
1001
ACAD
1000
DSTYLE
1002
{
1070
   287
1070
     3
1070
   287
1070
     3
1070
    40
1040
45.0
1070
   143
1040
0.039
1070
   172
1070
     1
1070
   271
1070
     0
1070
   279
1070
     0
1070
   288
1070
     1
1002
}
  0
DIMENSION
  5
7D99
  8
3
  2
*D16
 10
2546.88118864427
 20
9877.1962073593895
 30
0.0
 11
3391.03318014252
 21
9877.1962073593895
 31
0.0
 70
   128
 13
4246.88118864427
 23
9555.446054598915
 33
0.0
 14
2546.88118864427
 24
9555.446054598915
 34
0.0
1001
ACAD
1000
DSTYLE
1002
{
1070
   287
1070
     3
1070
   287
1070
     3
1070
    40
1040
45.0
1070
   143
1040
0.039
1070
   172
1070
     1
1070
   271
1070
     0
1070
   279
1070
     0
1070
   288
1070
     1
1002
}
  0
DIMENSION
  5
7DA5
  8
3
  2
*D17
 10
1346.88118864427
 20
9877.1962073593895
 30
0.0
 11
1946.88118864427
 21
9989.6962073593895
 31
0.0
 70
     0
 13
2546.88118864427
 23
9555.446054598915
 33
0.0
 14
1346.88118864427
 24
8295.446054598915
 34
0.0
1001
ACAD
1000
DSTYLE
1002
{
1070
   287
1070
     4
1070
   287
1070
     4
1070
    40
1040
45.0
1070
    75
1070
     1
1070
   143
1040
0.039
1070
   172
1070
     1
1070
   271
1070
     0
1070
   279
1070
     1
1070
   288
1070
     1
1002
}
  0
LINE
  5
7DA6
  8
4
 10
8325.0
 20
1815.173399113278
 30
0.0
 11
8325.0
 21
915.17339911327861
 31
0.0
  0
LINE
  5
7DA7
  8
4
 10
5175.0
 20
1815.173399113278
 30
0.0
 11
5175.0
 21
915.17339911327861
 31
0.0
  0
LINE
  5
7DA8
  8
4
 10
2925.0
 20
1815.173399113278
 30
0.0
 11
2925.0
 21
915.17339911327861
 31
0.0
  0
LINE
  5
7DAB
  8
4
 10
2925.0
 20
915.17339911327861
 30
0.0
 11
8325.0
 21
915.17339911327861
 31
0.0
  0
LINE
  5
7DAC
  8
4
 10
2925.0
 20
1365.173399113278
 30
0.0
 11
8325.0
 21
1365.173399113278
 31
0.0
  0
TEXT
  5
7DAD
  8
4
 10
3098.259363811057
 20
1507.117015513036
 30
0.0
 40
225.0
  1
機器名称
  0
TEXT
  5
7DAE
  8
4
 10
3088.1614771115892
 20
1012.576604407328
 30
0.0
 40
225.0
  1
機器型番
  0
TEXT
  5
7DAF
  8
4
 10
5304.5305704342836
 20
1474.110266434692
 30
0.0
 40
191.25
  1
ミツヤ多翼送風機
  0
TEXT
  5
7DB0
  8
4
 10
5339.9452301346628
 20
992.39152837302379
 30
0.0
 40
225.0
  1
MF#9-5
  0
TEXT
  5
7DB2
  8
4
 10
3678.4600967282458
 20
10725.429785996321
 30
0.0
 40
242.99999999999989
  1
床置防振ベット
  0
TEXT
  5
7DB3
  8
4
 10
1265.5238627205979
 20
11402.46439289684
 30
0.0
 40
324.0
  1
遠心式両吸込両持多翼ファン
  0
LINE
  5
7DB4
  8
4
 10
1125.0
 20
11112.33939419162
 30
0.0
 11
8325.0
 21
11112.33939419162
 31
0.0
  0
LINE
  5
7DB5
  8
4
 10
1125.0
 20
12012.33939419162
 30
0.0
 11
8325.0
 21
12012.33939419162
 31
0.0
  0
LINE
  5
7DB6
  8
4
 10
2925.0
 20
1815.173399113278
 30
0.0
 11
8325.0
 21
1815.173399113278
 31
0.0
  0
LINE
  5
7DB7
  8
4
 10
1125.0
 20
12012.33939419162
 30
0.0
 11
1125.0
 21
11112.33939419162
 31
0.0
  0
TEXT
  5
7DB8
  8
4
 10
1717.095351636086
 20
10720.437648958539
 30
0.0
 40
242.99999999999989
  1
右回転上向
  0
TEXT
  5
7DB9
  8
4
 10
6610.3630166218027
 20
12177.274866728891
 30
0.0
 40
252.0
  1
No.
  0
TEXT
  5
7DBA
  8
4
 10
5900.832281700059
 20
10725.429785996321
 30
0.0
 40
242.99999999999989
  1
縮尺：1/45
  0
LINE
  5
7DBB
  8
4
 10
8325.0
 20
12012.33939419162
 30
0.0
 11
8325.0
 21
11112.33939419162
 31
0.0
  0
LINE
  5
7DBC
  8
4
 10
9450.0
 20
13275.0
 30
0.0
 11
9450.0
 21
13275.0
 31
0.0
  0
LINE
  5
7DBD
  8
4
 10
6482.7784006193906
 20
12065.686124064299
 30
0.0
 11
6482.7784006193906
 21
12539.935176973881
 31
0.0
  0
LINE
  5
7DBE
  8
4
 10
6482.7784006193906
 20
12539.935176973881
 30
0.0
 11
8325.0
 21
12539.935176973881
 31
0.0
  0
LINE
  5
7DBF
  8
4
 10
8325.0
 20
12539.935176973881
 30
0.0
 11
8325.0
 21
12065.686124064299
 31
0.0
  0
LINE
  5
7DC0
  8
4
 10
8325.0
 20
12065.686124064299
 30
0.0
 11
6482.7784006193906
 21
12065.686124064299
 31
0.0
  0
LINE
  5
7DC1
  8
4
 10
0.0
 20
0.0
 30
0.0
 11
0.0
 21
13275.0
 31
0.0
  0
LINE
  5
7DC2
  8
4
 10
0.0
 20
13275.0
 30
0.0
 11
9450.0
 21
13275.0
 31
0.0
  0
LINE
  5
7DC3
  8
4
 10
9450.0
 20
13275.0
 30
0.0
 11
9450.0
 21
0.0
 31
0.0
  0
LINE
  5
7DC4
  8
4
 10
9450.0
 20
0.0
 30
0.0
 11
0.0
 21
0.0
 31
0.0
  0
LINE
  5
7DCE
  8
1
 10
8188.2372496447597
 20
5419.9332045013243
 30
0.0
 11
6188.2372496447597
 21
5419.9332045013234
 31
0.0
  0
DIMENSION
  5
7EAA
  8
3
  2
*D18
 10
3396.88118864427
 20
2909.8798782016302
 30
0.0
 11
2371.88118864427
 21
3022.3798782016311
 31
0.0
 70
     0
 13
1346.88118864427
 23
3204.933204501323
 33
0.0
 14
3396.88118864427
 24
3204.933204501323
 34
0.0
1001
ACAD
1000
DSTYLE
1002
{
1070
   172
1070
     1
1070
    40
1040
45.0
1070
   271
1070
     0
1070
   143
1040
0.039
1002
}
  0
DIMENSION
  5
7EB7
  8
3
  2
*D19
 10
4246.88118864427
 20
2909.8798782016302
 30
0.0
 11
3821.8811886442709
 21
3022.3798782016311
 31
0.0
 70
     0
 13
3396.88118864427
 23
3204.933204501323
 33
0.0
 14
4246.88118864427
 24
3204.933204501323
 34
0.0
1001
ACAD
1000
DSTYLE
1002
{
1070
   172
1070
     1
1070
    40
1040
45.0
1070
   271
1070
     0
1070
   143
1040
0.039
1002
}
  0
DIMENSION
  5
7EC4
  8
3
  2
*D20
 10
7188.2372496447597
 20
2909.8798782016302
 30
0.0
 11
6522.7372496447597
 21
3022.3798782016311
 31
0.0
 70
     0
 13
5857.2372496447606
 23
3204.933204501323
 33
0.0
 14
7188.2372496447597
 24
3204.933204501323
 34
0.0
1001
ACAD
1000
DSTYLE
1002
{
1070
   172
1070
     1
1070
    40
1040
45.0
1070
   271
1070
     0
1070
   143
1040
0.039
1002
}
  0
DIMENSION
  5
7ED1
  8
3
  2
*D21
 10
8217.2372496447606
 20
2909.8798782016302
 30
0.0
 11
7702.7372496447606
 21
3022.3798782016311
 31
0.0
 70
     0
 13
7188.2372496447597
 23
3204.933204501323
 33
0.0
 14
8217.2372496447606
 24
3204.9332045013239
 34
0.0
1001
ACAD
1000
DSTYLE
1002
{
1070
   172
1070
     1
1070
    40
1040
45.0
1070
   271
1070
     0
1070
   143
1040
0.039
1002
}
  0
DIMENSION
  5
7EE0
  8
3
  2
*D23
 10
4730.5034112528892
 20
3299.933204501323
 30
0.0
 11
4945.8605541100324
 21
3289.933204501323
 31
0.0
 70
     0
  1
   <>
 13
4246.88118864427
 23
3279.9332045013239
 33
0.0
 14
4246.88118864427
 24
3299.933204501323
 34
0.0
 50
90.0
1001
ACAD
1000
DSTYLE
1002
{
1070
   172
1070
     1
1070
    76
1070
     1
1070
    75
1070
     1
1070
    40
1040
45.0
1070
     3
1000
(<>)
1070
   271
1070
     0
1070
     7
1000
_NONE
1070
     6
1000
_NONE
1070
   143
1040
0.039
1002
}
  0
DIMENSION
  5
7F08
  8
3
  2
*D24
 10
5093.0587175553374
 20
5469.9332045013234
 30
0.0
 11
4945.2015746981942
 21
4337.4332045013234
 31
0.0
 70
     0
 13
4246.88118864427
 23
3204.933204501323
 33
0.0
 14
3419.3811886442709
 24
5469.9332045013234
 34
0.0
 50
90.0
1001
ACAD
1000
DSTYLE
1002
{
1070
   172
1070
     1
1070
    40
1040
45.0
1070
     3
1000
(<>)
1070
   271
1070
     0
1070
   143
1040
0.039
1002
}
  0
ENDSEC
  0
EOF
