  0
SECTION
  2
HEADER
  9
$ACADVER
  1
AC1009
  9
$INSBASE
 10
0.0
 20
0.0
 30
0.0
  9
$EXTMIN
 10
0.0
 20
0.0
 30
0.0
  9
$EXTMAX
 10
9450.0
 20
13275.0
 30
0.0
  9
$LIMMIN
 10
0.0
 20
0.0
  9
$LIMMAX
 10
297.0
 20
210.0
  9
$ORTHOMODE
 70
     0
  9
$REGENMODE
 70
     1
  9
$FILLMODE
 70
     0
  9
$QTEXTMODE
 70
     0
  9
$MIRRTEXT
 70
     1
  9
$DRAGMODE
 70
     2
  9
$LTSCALE
 40
100.0
  9
$OSMODE
 70
    37
  9
$ATTMODE
 70
     1
  9
$TEXTSIZE
 40
180.0
  9
$TRACEWID
 40
0.05
  9
$TEXTSTYLE
  7
STANDARD
  9
$CLAYER
  8
3
  9
$CELTYPE
  6
BYLAYER
  9
$CECOLOR
 62
   256
  9
$DIMSCALE
 40
45.0
  9
$DIMASZ
 40
2.0
  9
$DIMEXO
 40
0.5
  9
$DIMDLI
 40
10.0
  9
$DIMRND
 40
0.0
  9
$DIMDLE
 40
0.0
  9
$DIMEXE
 40
1.0
  9
$DIMTP
 40
1.0
  9
$DIMTM
 40
1.0
  9
$DIMTXT
 40
3.0
  9
$DIMCEN
 40
0.0
  9
$DIMTSZ
 40
0.0
  9
$DIMTOL
 70
     0
  9
$DIMLIM
 70
     0
  9
$DIMTIH
 70
     0
  9
$DIMTOH
 70
     0
  9
$DIMSE1
 70
     0
  9
$DIMSE2
 70
     0
  9
$DIMTAD
 70
     1
  9
$DIMZIN
 70
     8
  9
$DIMBLK
  1

  9
$DIMASO
 70
     1
  9
$DIMSHO
 70
     1
  9
$DIMPOST
  1
(<>)
  9
$DIMAPOST
  1

  9
$DIMALT
 70
     0
  9
$DIMALTD
 70
     2
  9
$DIMALTF
 40
0.039
  9
$DIMLFAC
 40
1.0
  9
$DIMTOFL
 70
     1
  9
$DIMTVP
 40
0.0
  9
$DIMTIX
 70
     0
  9
$DIMSOXD
 70
     0
  9
$DIMSAH
 70
     1
  9
$DIMBLK1
  1
OPEN
  9
$DIMBLK2
  1
OPEN
  9
$DIMSTYLE
  2
IGA
  9
$DIMCLRD
 70
     0
  9
$DIMCLRE
 70
     0
  9
$DIMCLRT
 70
     0
  9
$DIMTFAC
 40
10.0
  9
$DIMGAP
 40
1.0
  9
$LUNITS
 70
     2
  9
$LUPREC
 70
     3
  9
$SKETCHINC
 40
0.1
  9
$FILLETRAD
 40
50.0
  9
$AUNITS
 70
     0
  9
$AUPREC
 70
     0
  9
$MENU
  1
acad
  9
$ELEVATION
 40
0.0
  9
$PELEVATION
 40
0.0
  9
$THICKNESS
 40
0.0
  9
$LIMCHECK
 70
     0
  9
$BLIPMODE
 70
     0
  9
$CHAMFERA
 40
0.5
  9
$CHAMFERB
 40
0.5
  9
$SKPOLY
 70
     0
  9
$TDCREATE
 40
2452324.5841967589
  9
$TDUPDATE
 40
2454953.8292197101
  9
$TDINDWG
 40
0.0831889005
  9
$TDUSRTIMER
 40
0.0831889005
  9
$USRTIMER
 70
     1
  9
$ANGBASE
 50
0.0
  9
$ANGDIR
 70
     0
  9
$PDMODE
 70
     0
  9
$PDSIZE
 40
0.0
  9
$PLINEWID
 40
0.0
  9
$COORDS
 70
     1
  9
$SPLFRAME
 70
     0
  9
$SPLINETYPE
 70
     6
  9
$SPLINESEGS
 70
     8
  9
$ATTDIA
 70
     0
  9
$ATTREQ
 70
     1
  9
$HANDLING
 70
 10241
  9
$HANDSEED
  5
836A
  9
$SURFTAB1
 70
     6
  9
$SURFTAB2
 70
     6
  9
$SURFTYPE
 70
     6
  9
$SURFU
 70
     6
  9
$SURFV
 70
     6
  9
$UCSNAME
  2

  9
$UCSORG
 10
0.0
 20
0.0
 30
0.0
  9
$UCSXDIR
 10
1.0
 20
0.0
 30
0.0
  9
$UCSYDIR
 10
0.0
 20
1.0
 30
0.0
  9
$PUCSNAME
  2

  9
$PUCSORG
 10
0.0
 20
0.0
 30
0.0
  9
$PUCSXDIR
 10
1.0
 20
0.0
 30
0.0
  9
$PUCSYDIR
 10
0.0
 20
1.0
 30
0.0
  9
$USERI1
 70
     0
  9
$USERI2
 70
     0
  9
$USERI3
 70
     0
  9
$USERI4
 70
     0
  9
$USERI5
 70
     0
  9
$USERR1
 40
0.0
  9
$USERR2
 40
0.0
  9
$USERR3
 40
0.0
  9
$USERR4
 40
0.0
  9
$USERR5
 40
0.0
  9
$WORLDVIEW
 70
     1
  9
$SHADEDGE
 70
     3
  9
$SHADEDIF
 70
    70
  9
$TILEMODE
 70
     1
  9
$MAXACTVP
 70
    16
  9
$PLIMCHECK
 70
     0
  9
$PEXTMIN
 10
1.0000000000000000E+020
 20
1.0000000000000000E+020
 30
1.0000000000000000E+020
  9
$PEXTMAX
 10
-1.0000000000000000E+020
 20
-1.0000000000000000E+020
 30
-1.0000000000000000E+020
  9
$PLIMMIN
 10
0.0
 20
0.0
  9
$PLIMMAX
 10
12.0
 20
9.0
  9
$UNITMODE
 70
     0
  9
$VISRETAIN
 70
     0
  9
$PLINEGEN
 70
     0
  9
$PSLTSCALE
 70
     1
  0
ENDSEC
  0
SECTION
  2
TABLES
  0
TABLE
  2
VPORT
 70
     2
  0
VPORT
  2
*ACTIVE
 70
     0
 10
0.0
 20
0.0
 11
1.0
 21
1.0
 12
13562.960954446849
 22
9011.2450861320631
 13
0.0
 23
0.0
 14
10.0
 24
10.0
 15
10.0
 25
10.0
 16
0.0
 26
0.0
 36
1.0
 17
0.0
 27
0.0
 37
0.0
 40
18022.490172264119
 41
1.5051150895140659
 42
50.0
 43
0.0
 44
0.0
 50
0.0
 51
0.0
 71
     0
 72
   100
 73
     1
 74
     0
 75
     0
 76
     0
 77
     0
 78
     0
  0
ENDTAB
  0
TABLE
  2
LTYPE
 70
     2
  0
LTYPE
  2
CONTINUOUS
 70
     0
  3
Solid line
 72
    65
 73
     0
 40
0.0
  0
LTYPE
  2
CENTER
 70
     0
  3
____ _ ____ _ ____ _ ____ _ ____ _ ____ _ ____ 
 72
    65
 73
     4
 40
2.0
 49
1.25
 49
-0.25
 49
0.25
 49
-0.25
  0
ENDTAB
  0
TABLE
  2
LAYER
 70
     6
  0
LAYER
  2
0
 70
     0
 62
     7
  6
CONTINUOUS
  0
LAYER
  2
3
 70
     0
 62
     2
  6
CONTINUOUS
  0
LAYER
  2
2
 70
     0
 62
     3
  6
CENTER
  0
LAYER
  2
1
 70
     0
 62
     4
  6
CONTINUOUS
  0
LAYER
  2
4
 70
     0
 62
     7
  6
CONTINUOUS
  0
LAYER
  2
DEFPOINTS
 70
     0
 62
     7
  6
CONTINUOUS
  0
ENDTAB
  0
TABLE
  2
STYLE
 70
     1
  0
STYLE
  2
STANDARD
 70
     0
 40
0.0
 41
1.0
 50
0.0
 71
     0
 42
180.0
  3
simplex.shx
  4
extfont.shx
  0
ENDTAB
  0
TABLE
  2
VIEW
 70
     0
  0
ENDTAB
  0
TABLE
  2
UCS
 70
     0
  0
ENDTAB
  0
TABLE
  2
APPID
 70
     1
  0
APPID
  2
ACAD
 70
     0
  0
ENDTAB
  0
TABLE
  2
DIMSTYLE
 70
     1
  0
DIMSTYLE
  2
IGA
 70
     0
  3

  4

  5

  6
OPEN
  7
OPEN
 40
2.0
 41
2.0
 42
0.5
 43
10.0
 44
1.0
 45
0.0
 46
0.0
 47
1.0
 48
1.0
140
3.0
141
0.0
142
0.0
143
0.03937
144
1.0
145
0.0
146
10.0
147
1.0
 71
     0
 72
     0
 73
     0
 74
     0
 75
     0
 76
     0
 77
     1
 78
     8
170
     0
171
     2
172
     0
173
     1
174
     0
175
     0
176
     0
177
     0
178
     0
  0
ENDTAB
  0
ENDSEC
  0
SECTION
  2
BLOCKS
  0
BLOCK
  8
0
  2
$MODEL_SPACE
 70
     0
 10
0.0
 20
0.0
 30
0.0
  3
$MODEL_SPACE
  1

  0
ENDBLK
  5
1B
  8
0
  0
BLOCK
 67
     1
  8
0
  2
$PAPER_SPACE
 70
     0
 10
0.0
 20
0.0
 30
0.0
  3
$PAPER_SPACE
  1

  0
ENDBLK
  5
18
 67
     1
  8
0
  0
BLOCK
  8
0
  2
_OPEN
 70
     0
 10
0.0
 20
0.0
 30
0.0
  3
_OPEN
  1

  0
LINE
  5
79FD
  8
0
  6
BYBLOCK
 62
     0
 10
-1.0
 20
0.1666666666666666
 30
0.0
 11
0.0
 21
0.0
 31
0.0
  0
LINE
  5
79FE
  8
0
  6
BYBLOCK
 62
     0
 10
0.0
 20
0.0
 30
0.0
 11
-1.0
 21
-0.1666666666666666
 31
0.0
  0
LINE
  5
79FF
  8
0
  6
BYBLOCK
 62
     0
 10
0.0
 20
0.0
 30
0.0
 11
-1.0
 21
0.0
 31
0.0
  0
ENDBLK
  5
7A01
  8
0
  0
BLOCK
  8
0
  2
*D1
 70
     1
 10
0.0
 20
0.0
 30
0.0
  3
*D1
  1

  0
LINE
  5
82BE
  8
3
 62
     0
 10
8302.2016497816257
 20
5286.7577882773312
 30
0.0
 11
8766.0378089573078
 21
5286.7577882773312
 31
0.0
  0
LINE
  5
82BF
  8
3
 62
     0
 10
8302.2016497816257
 20
3886.7577882773312
 30
0.0
 11
8766.0378089573042
 21
3886.7577882773312
 31
0.0
  0
LINE
  5
82C0
  8
3
 62
     0
 10
8721.0378089573096
 20
5196.7577882773312
 30
0.0
 11
8721.0378089573042
 21
3976.7577882773298
 31
0.0
  0
INSERT
  5
82C1
  8
3
 62
     0
  2
_OPEN
 10
8721.0378089573096
 20
5286.7577882773312
 30
0.0
 41
90.0
 42
90.0
 43
90.0
 50
90.0
  0
INSERT
  5
82C2
  8
3
 62
     0
  2
_OPEN
 10
8721.0378089573042
 20
3886.7577882773312
 30
0.0
 41
90.0
 42
90.0
 43
90.0
 50
270.0
  0
TEXT
  8
3
  40
135
  5
8358
  62
0
  72
0
  71
0
 10
8338.54
 20
4321.28
 30
0.000000
  1
φ1400
  0
POINT
  5
82C4
  8
DEFPOINTS
 62
     0
 10
8279.7016497816257
 20
5286.7577882773312
 30
0.0
  0
POINT
  5
82C5
  8
DEFPOINTS
 62
     0
 10
8279.7016497816257
 20
3886.7577882773312
 30
0.0
  0
POINT
  5
82C6
  8
DEFPOINTS
 62
     0
 10
8721.0378089573042
 20
3886.7577882773312
 30
0.0
  0
ENDBLK
  5
7BDE
  8
0
  0
BLOCK
  8
0
  2
*D2
 70
     1
 10
0.0
 20
0.0
 30
0.0
  3
*D2
  1

  0
LINE
  5
82C7
  8
3
 62
     0
 10
4271.1714932622854
 20
9878.8574783022359
 30
0.0
 11
4271.1714932622854
 21
10190.12451237005
 31
0.0
  0
LINE
  5
82C8
  8
3
 62
     0
 10
2571.1714932622849
 20
9878.8574783022359
 30
0.0
 11
2571.1714932622849
 21
10190.12451237005
 31
0.0
  0
LINE
  5
82C9
  8
3
 62
     0
 10
4181.1714932622863
 20
10145.124512370039
 30
0.0
 11
2661.1714932622849
 21
10145.124512370039
 31
0.0
  0
INSERT
  5
82CA
  8
3
 62
     0
  2
_OPEN
 10
4271.1714932622854
 20
10145.124512370039
 30
0.0
 41
90.0
 42
90.0
 43
90.0
  0
INSERT
  5
82CB
  8
3
 62
     0
  2
_OPEN
 10
2571.1714932622849
 20
10145.124512370039
 30
0.0
 41
90.0
 42
90.0
 43
90.0
 50
180.0
  0
TEXT
  8
3
  40
135
  5
8359
  62
0
  72
0
  71
0
 10
3148.73
 20
10018.7
 30
0.000000
  1
1700
  0
POINT
  5
82CD
  8
DEFPOINTS
 62
     0
 10
4271.1714932622854
 20
9856.3574783022359
 30
0.0
  0
POINT
  5
82CE
  8
DEFPOINTS
 62
     0
 10
2571.1714932622849
 20
9856.3574783022359
 30
0.0
  0
POINT
  5
82CF
  8
DEFPOINTS
 62
     0
 10
2571.1714932622849
 20
10145.124512370039
 30
0.0
  0
ENDBLK
  5
807D
  8
0
  0
BLOCK
  8
0
  2
*D3
 70
     1
 10
0.0
 20
0.0
 30
0.0
  3
*D3
  1

  0
LINE
  5
82D0
  8
3
 62
     0
 10
1371.1714932622849
 20
8618.8574783022377
 30
0.0
 11
1371.1714932622849
 21
10190.12451237005
 31
0.0
  0
LINE
  5
82D1
  8
3
 62
     0
 10
2481.1714932622849
 20
10145.124512370039
 30
0.0
 11
1461.1714932622849
 21
10145.124512370039
 31
0.0
  0
INSERT
  5
82D2
  8
3
 62
     0
  2
_OPEN
 10
2571.1714932622849
 20
10145.124512370039
 30
0.0
 41
90.0
 42
90.0
 43
90.0
  0
INSERT
  5
82D3
  8
3
 62
     0
  2
_OPEN
 10
1371.1714932622849
 20
10145.124512370039
 30
0.0
 41
90.0
 42
90.0
 43
90.0
 50
180.0
  0
TEXT
  8
3
  40
135
  5
835A
  62
0
  72
0
  71
0
 10
1701.17
 20
10018.7
 30
0.000000
  1
1200
  0
POINT
  5
82D5
  8
DEFPOINTS
 62
     0
 10
2571.1714932622849
 20
9856.3574783022359
 30
0.0
  0
POINT
  5
82D6
  8
DEFPOINTS
 62
     0
 10
1371.1714932622849
 20
8596.3574783022359
 30
0.0
  0
POINT
  5
82D7
  8
DEFPOINTS
 62
     0
 10
1371.1714932622849
 20
10145.124512370039
 30
0.0
  0
ENDBLK
  5
809D
  8
0
  0
BLOCK
  8
0
  2
*D4
 70
     1
 10
0.0
 20
0.0
 30
0.0
  3
*D4
  1

  0
LINE
  5
82D8
  8
3
 62
     0
 10
1348.6714932622849
 20
8596.3574783022359
 30
0.0
 11
1015.53573723211
 21
8596.3574783022359
 31
0.0
  0
LINE
  5
82D9
  8
3
 62
     0
 10
1348.6714932622849
 20
7496.3574783022359
 30
0.0
 11
1015.535737232109
 21
7496.3574783022359
 31
0.0
  0
LINE
  5
82DA
  8
3
 62
     0
 10
1060.53573723211
 20
8506.3574783022359
 30
0.0
 11
1060.5357372321091
 21
7586.3574783022359
 31
0.0
  0
INSERT
  5
82DB
  8
3
 62
     0
  2
_OPEN
 10
1060.53573723211
 20
8596.3574783022359
 30
0.0
 41
90.0
 42
90.0
 43
90.0
 50
90.0
  0
INSERT
  5
82DC
  8
3
 62
     0
  2
_OPEN
 10
1060.5357372321091
 20
7496.3574783022359
 30
0.0
 41
90.0
 42
90.0
 43
90.0
 50
270.0
  0
TEXT
  8
3
  40
135
  5
835B
  62
0
  72
0
  71
0
 10
678.036
 20
7807.63
 30
0.000000
  1
1100
  0
POINT
  5
82DE
  8
DEFPOINTS
 62
     0
 10
1371.1714932622849
 20
8596.3574783022359
 30
0.0
  0
POINT
  5
82DF
  8
DEFPOINTS
 62
     0
 10
1371.1714932622849
 20
7496.3574783022359
 30
0.0
  0
POINT
  5
82E0
  8
DEFPOINTS
 62
     0
 10
1060.5357372321091
 20
7496.3574783022359
 30
0.0
  0
ENDBLK
  5
80AE
  8
0
  0
BLOCK
  8
0
  2
*D5
 70
     1
 10
0.0
 20
0.0
 30
0.0
  3
*D5
  1

  0
LINE
  5
82E1
  8
3
 62
     0
 10
4293.6714932622854
 20
9856.3574783022359
 30
0.0
 11
4686.1182483251041
 21
9856.3574783022359
 31
0.0
  0
LINE
  5
82E2
  8
3
 62
     0
 10
4293.6714932622854
 20
7496.3574783022359
 30
0.0
 11
4686.1182483251041
 21
7496.3574783022359
 31
0.0
  0
LINE
  5
82E3
  8
3
 62
     0
 10
4641.1182483251041
 20
9766.3574783022359
 30
0.0
 11
4641.1182483251041
 21
7586.3574783022359
 31
0.0
  0
INSERT
  5
82E4
  8
3
 62
     0
  2
_OPEN
 10
4641.1182483251041
 20
9856.3574783022359
 30
0.0
 41
90.0
 42
90.0
 43
90.0
 50
90.0
  0
INSERT
  5
82E5
  8
3
 62
     0
  2
_OPEN
 10
4641.1182483251041
 20
7496.3574783022359
 30
0.0
 41
90.0
 42
90.0
 43
90.0
 50
270.0
  0
TEXT
  8
3
  40
135
  5
835C
  62
0
  72
0
  71
0
 10
4258.62
 20
8396.11
 30
0.000000
  1
2360
  0
POINT
  5
82E7
  8
DEFPOINTS
 62
     0
 10
4271.1714932622854
 20
9856.3574783022359
 30
0.0
  0
POINT
  5
82E8
  8
DEFPOINTS
 62
     0
 10
4271.1714932622854
 20
7496.3574783022359
 30
0.0
  0
POINT
  5
82E9
  8
DEFPOINTS
 62
     0
 10
4641.1182483251041
 20
7496.3574783022359
 30
0.0
  0
ENDBLK
  5
8093
  8
0
  0
BLOCK
  8
0
  2
*D6
 70
     1
 10
0.0
 20
0.0
 30
0.0
  3
*D6
  1

  0
LINE
  5
82EA
  8
3
 62
     0
 10
4271.1714932622854
 20
7473.857478302235
 30
0.0
 11
4271.1714932622854
 21
6991.1646933739166
 31
0.0
  0
LINE
  5
82EB
  8
3
 62
     0
 10
1371.1714932622849
 20
7473.857478302235
 30
0.0
 11
1371.1714932622849
 21
6991.1646933739166
 31
0.0
  0
LINE
  5
82EC
  8
3
 62
     0
 10
4181.1714932622863
 20
7036.1646933739185
 30
0.0
 11
1461.1714932622849
 21
7036.1646933739185
 31
0.0
  0
INSERT
  5
82ED
  8
3
 62
     0
  2
_OPEN
 10
4271.1714932622854
 20
7036.1646933739185
 30
0.0
 41
90.0
 42
90.0
 43
90.0
  0
INSERT
  5
82EE
  8
3
 62
     0
  2
_OPEN
 10
1371.1714932622849
 20
7036.1646933739185
 30
0.0
 41
90.0
 42
90.0
 43
90.0
 50
180.0
  0
TEXT
  8
3
  40
135
  5
835D
  62
0
  72
0
  71
0
 10
2637.55
 20
6909.71
 30
0.000000
  1
2900
  0
POINT
  5
82F0
  8
DEFPOINTS
 62
     0
 10
4271.1714932622854
 20
7496.3574783022359
 30
0.0
  0
POINT
  5
82F1
  8
DEFPOINTS
 62
     0
 10
1371.1714932622849
 20
7496.3574783022359
 30
0.0
  0
POINT
  5
82F2
  8
DEFPOINTS
 62
     0
 10
1371.1714932622849
 20
7036.1646933739185
 30
0.0
  0
ENDBLK
  5
8088
  8
0
  0
BLOCK
  8
0
  2
*D7
 70
     1
 10
0.0
 20
0.0
 30
0.0
  3
*D7
  1

  0
LINE
  5
82F3
  8
3
 62
     0
 10
4373.6714932622854
 20
3095.7577882773312
 30
0.0
 11
4672.2016589322893
 21
3095.7577882773312
 31
0.0
  0
LINE
  5
82F4
  8
3
 62
     0
 10
4373.6714932622854
 20
4545.7577882773312
 30
0.0
 11
4672.2016589322893
 21
4545.7577882773312
 31
0.0
  0
LINE
  5
82F5
  8
3
 62
     0
 10
4627.2016589322893
 20
3185.7577882773312
 30
0.0
 11
4627.2016589322893
 21
4455.7577882773312
 31
0.0
  0
INSERT
  5
82F6
  8
3
 62
     0
  2
_OPEN
 10
4627.2016589322893
 20
3095.7577882773312
 30
0.0
 41
90.0
 42
90.0
 43
90.0
 50
270.0
  0
INSERT
  5
82F7
  8
3
 62
     0
  2
_OPEN
 10
4627.2016589322893
 20
4545.7577882773312
 30
0.0
 41
90.0
 42
90.0
 43
90.0
 50
90.0
  0
TEXT
  8
3
  40
135
  5
835E
  62
0
  72
0
  71
0
 10
4244.70
 20
3555.55
 30
0.000000
  1
1450
  0
POINT
  5
82F9
  8
DEFPOINTS
 62
     0
 10
4351.1714932622854
 20
3095.7577882773312
 30
0.0
  0
POINT
  5
82FA
  8
DEFPOINTS
 62
     0
 10
4351.1714932622854
 20
4545.7577882773312
 30
0.0
  0
POINT
  5
82FB
  8
DEFPOINTS
 62
     0
 10
4627.2016589322893
 20
4545.7577882773312
 30
0.0
  0
ENDBLK
  5
8047
  8
0
  0
BLOCK
  8
0
  2
*D8
 70
     1
 10
0.0
 20
0.0
 30
0.0
  3
*D8
  1

  0
LINE
  5
82FC
  8
3
 62
     0
 10
6379.7016497816248
 20
5596.8415976181532
 30
0.0
 11
6379.7016497816248
 21
5833.4831809868429
 31
0.0
  0
LINE
  5
82FD
  8
3
 62
     0
 10
8279.7016497816257
 20
5596.8415976181541
 30
0.0
 11
8279.7016497816257
 21
5833.4831809868429
 31
0.0
  0
LINE
  5
82FE
  8
3
 62
     0
 10
6469.7016497816248
 20
5788.4831809868429
 30
0.0
 11
8189.7016497816248
 21
5788.4831809868429
 31
0.0
  0
INSERT
  5
82FF
  8
3
 62
     0
  2
_OPEN
 10
6379.7016497816248
 20
5788.4831809868429
 30
0.0
 41
90.0
 42
90.0
 43
90.0
 50
180.0
  0
INSERT
  5
8300
  8
3
 62
     0
  2
_OPEN
 10
8279.7016497816257
 20
5788.4831809868429
 30
0.0
 41
90.0
 42
90.0
 43
90.0
  0
TEXT
  8
3
  40
135
  5
835F
  62
0
  72
0
  71
0
 10
7057.57
 20
5662.03
 30
0.000000
  1
1900
  0
POINT
  5
8302
  8
DEFPOINTS
 62
     0
 10
6379.7016497816248
 20
5574.3415976181532
 30
0.0
  0
POINT
  5
8303
  8
DEFPOINTS
 62
     0
 10
8279.7016497816257
 20
5574.3415976181541
 30
0.0
  0
POINT
  5
8304
  8
DEFPOINTS
 62
     0
 10
8279.7016497816257
 20
5788.4831809868429
 30
0.0
  0
ENDBLK
  5
7DF8
  8
0
  0
BLOCK
  8
0
  2
*D9
 70
     1
 10
0.0
 20
0.0
 30
0.0
  3
*D9
  1

  0
LINE
  5
8305
  8
3
 62
     0
 10
8459.9016497816265
 20
4539.2577882773312
 30
0.0
 11
8459.9016497816265
 21
6201.4687360675252
 31
0.0
  0
LINE
  5
8306
  8
3
 62
     0
 10
7329.7016497816239
 20
6000.2357431111786
 30
0.0
 11
7329.7016497816239
 21
6201.4687360675252
 31
0.0
  0
LINE
  5
8307
  8
3
 62
     0
 10
8369.9016497816247
 20
6156.4687360675252
 30
0.0
 11
7419.7016497816248
 21
6156.4687360675252
 31
0.0
  0
INSERT
  5
8308
  8
3
 62
     0
  2
_OPEN
 10
8459.9016497816265
 20
6156.4687360675252
 30
0.0
 41
90.0
 42
90.0
 43
90.0
  0
INSERT
  5
8309
  8
3
 62
     0
  2
_OPEN
 10
7329.7016497816239
 20
6156.4687360675252
 30
0.0
 41
90.0
 42
90.0
 43
90.0
 50
180.0
  0
TEXT
  8
3
  40
135
  5
8360
  62
0
  72
0
  71
0
 10
7590.58
 20
6065.38
 30
0.000000
  1
(1130)
  0
POINT
  5
830B
  8
DEFPOINTS
 62
     0
 10
8459.9016497816265
 20
4516.7577882773312
 30
0.0
  0
POINT
  5
830C
  8
DEFPOINTS
 62
     0
 10
7329.7016497816239
 20
5977.7357431111786
 30
0.0
  0
POINT
  5
830D
  8
DEFPOINTS
 62
     0
 10
7329.7016497816239
 20
6156.4687360675252
 30
0.0
  0
ENDBLK
  5
80BD
  8
0
  0
BLOCK
  8
0
  2
*D10
 70
     1
 10
0.0
 20
0.0
 30
0.0
  3
*D10
  1

  0
LINE
  5
830E
  8
3
 62
     0
 10
5960.7016497816257
 20
4989.2577882773312
 30
0.0
 11
5960.7016497816257
 21
6201.4687360675252
 31
0.0
  0
LINE
  5
830F
  8
3
 62
     0
 10
7239.7016497816257
 20
6156.4687360675252
 30
0.0
 11
6050.7016497816248
 21
6156.4687360675252
 31
0.0
  0
INSERT
  5
8310
  8
3
 62
     0
  2
_OPEN
 10
7329.7016497816239
 20
6156.4687360675252
 30
0.0
 41
90.0
 42
90.0
 43
90.0
  0
INSERT
  5
8311
  8
3
 62
     0
  2
_OPEN
 10
5960.7016497816257
 20
6156.4687360675252
 30
0.0
 41
90.0
 42
90.0
 43
90.0
 50
180.0
  0
TEXT
  8
3
  40
135
  5
8361
  62
0
  72
0
  71
0
 10
6375.20
 20
6142.52
 30
0.000000
  1
MAX
  0
TEXT
  8
3
  40
135
  5
8362
  62
0
  72
0
  71
0
 10
6375.20
 20
5967.02
 30
0.000000
  1
1450
  0
POINT
  5
8313
  8
DEFPOINTS
 62
     0
 10
7329.7016497816239
 20
5977.7357431111786
 30
0.0
  0
POINT
  5
8314
  8
DEFPOINTS
 62
     0
 10
5960.7016497816257
 20
4966.7577882773312
 30
0.0
  0
POINT
  5
8315
  8
DEFPOINTS
 62
     0
 10
5960.7016497816257
 20
6156.4687360675252
 30
0.0
  0
ENDBLK
  5
7ED0
  8
0
  0
BLOCK
  8
0
  2
*D11
 70
     1
 10
0.0
 20
0.0
 30
0.0
  3
*D11
  1

  0
LINE
  5
8316
  8
3
 62
     0
 10
4373.6714932622854
 20
3095.7577882773312
 30
0.0
 11
4920.0678769649612
 21
3095.7577882773312
 31
0.0
  0
LINE
  5
8317
  8
3
 62
     0
 10
4613.959340594075
 20
4586.7577882773303
 30
0.0
 11
4920.0678769649612
 21
4586.7577882773303
 31
0.0
  0
LINE
  5
8318
  8
3
 62
     0
 10
4875.0678769649612
 20
3185.7577882773312
 30
0.0
 11
4875.0678769649612
 21
4496.7577882773312
 31
0.0
  0
INSERT
  5
8319
  8
3
 62
     0
  2
_OPEN
 10
4875.0678769649612
 20
3095.7577882773312
 30
0.0
 41
90.0
 42
90.0
 43
90.0
 50
270.0
  0
INSERT
  5
831A
  8
3
 62
     0
  2
_OPEN
 10
4875.0678769649612
 20
4586.7577882773303
 30
0.0
 41
90.0
 42
90.0
 43
90.0
 50
90.0
  0
TEXT
  8
3
  40
135
  5
8363
  62
0
  72
0
  71
0
 10
4492.57
 20
3542.47
 30
0.000000
  1
1491
  0
POINT
  5
831C
  8
DEFPOINTS
 62
     0
 10
4351.1714932622854
 20
3095.7577882773312
 30
0.0
  0
POINT
  5
831D
  8
DEFPOINTS
 62
     0
 10
4591.4593405940759
 20
4586.7577882773303
 30
0.0
  0
POINT
  5
831E
  8
DEFPOINTS
 62
     0
 10
4875.0678769649612
 20
4586.7577882773303
 30
0.0
  0
ENDBLK
  5
8032
  8
0
  0
BLOCK
  8
0
  2
*D12
 70
     1
 10
0.0
 20
0.0
 30
0.0
  3
*D12
  1

  0
LINE
  5
831F
  8
3
 62
     0
 10
4351.1714932622854
 20
4622.2577882773312
 30
0.0
 11
4351.1714932622854
 21
5902.8469610555076
 31
0.0
  0
LINE
  5
8320
  8
3
 62
     0
 10
3421.1714932622849
 20
5734.032337836612
 30
0.0
 11
3421.1714932622849
 21
5902.8469610555076
 31
0.0
  0
LINE
  5
8321
  8
3
 62
     0
 10
4261.1714932622854
 20
5857.8469610555067
 30
0.0
 11
3511.1714932622849
 21
5857.8469610555067
 31
0.0
  0
INSERT
  5
8322
  8
3
 62
     0
  2
_OPEN
 10
4351.1714932622854
 20
5857.8469610555067
 30
0.0
 41
90.0
 42
90.0
 43
90.0
  0
INSERT
  5
8323
  8
3
 62
     0
  2
_OPEN
 10
3421.1714932622849
 20
5857.8469610555067
 30
0.0
 41
90.0
 42
90.0
 43
90.0
 50
180.0
  0
TEXT
  8
3
  40
135
  5
8364
  62
0
  72
0
  71
0
 10
3670.63
 20
5731.40
 30
0.000000
  1
930
  0
POINT
  5
8325
  8
DEFPOINTS
 62
     0
 10
4351.1714932622854
 20
4599.7577882773312
 30
0.0
  0
POINT
  5
8326
  8
DEFPOINTS
 62
     0
 10
3421.1714932622849
 20
5711.532337836612
 30
0.0
  0
POINT
  5
8327
  8
DEFPOINTS
 62
     0
 10
3421.1714932622849
 20
5857.8469610555067
 30
0.0
  0
ENDBLK
  5
7FEE
  8
0
  0
BLOCK
  8
0
  2
*D13
 70
     1
 10
0.0
 20
0.0
 30
0.0
  3
*D13
  1

  0
LINE
  5
8328
  8
3
 62
     0
 10
2214.1714932622849
 20
4507.2577882773312
 30
0.0
 11
2214.1714932622849
 21
5902.8469610555076
 31
0.0
  0
LINE
  5
8329
  8
3
 62
     0
 10
3331.1714932622849
 20
5857.8469610555067
 30
0.0
 11
2304.1714932622849
 21
5857.8469610555067
 31
0.0
  0
INSERT
  5
832A
  8
3
 62
     0
  2
_OPEN
 10
3421.1714932622849
 20
5857.8469610555067
 30
0.0
 41
90.0
 42
90.0
 43
90.0
  0
INSERT
  5
832B
  8
3
 62
     0
  2
_OPEN
 10
2214.1714932622849
 20
5857.8469610555067
 30
0.0
 41
90.0
 42
90.0
 43
90.0
 50
180.0
  0
TEXT
  8
3
  40
135
  5
8365
  62
0
  72
0
  71
0
 10
2547.67
 20
5731.40
 30
0.000000
  1
1207
  0
POINT
  5
832D
  8
DEFPOINTS
 62
     0
 10
3421.1714932622849
 20
5711.532337836612
 30
0.0
  0
POINT
  5
832E
  8
DEFPOINTS
 62
     0
 10
2214.1714932622849
 20
4484.7577882773312
 30
0.0
  0
POINT
  5
832F
  8
DEFPOINTS
 62
     0
 10
2214.1714932622849
 20
5857.8469610555067
 30
0.0
  0
ENDBLK
  5
805D
  8
0
  0
BLOCK
  8
0
  2
*D14
 70
     1
 10
0.0
 20
0.0
 30
0.0
  3
*D14
  1

  0
LINE
  5
8330
  8
3
 62
     0
 10
4351.1714932622854
 20
4622.2577882773312
 30
0.0
 11
4351.1714932622854
 21
6214.0456826359014
 31
0.0
  0
LINE
  5
8331
  8
3
 62
     0
 10
1371.1714932622849
 20
3169.2577882773312
 30
0.0
 11
1371.1714932622849
 21
6214.0456826359014
 31
0.0
  0
LINE
  5
8332
  8
3
 62
     0
 10
4261.1714932622854
 20
6169.0456826359004
 30
0.0
 11
1461.1714932622849
 21
6169.0456826359004
 31
0.0
  0
INSERT
  5
8333
  8
3
 62
     0
  2
_OPEN
 10
4351.1714932622854
 20
6169.0456826359004
 30
0.0
 41
90.0
 42
90.0
 43
90.0
  0
INSERT
  5
8334
  8
3
 62
     0
  2
_OPEN
 10
1371.1714932622849
 20
6169.0456826359004
 30
0.0
 41
90.0
 42
90.0
 43
90.0
 50
180.0
  0
TEXT
  8
3
  40
135
  5
8366
  62
0
  72
0
  71
0
 10
2625.75
 20
6042.60
 30
0.000000
  1
2980
  0
POINT
  5
8336
  8
DEFPOINTS
 62
     0
 10
4351.1714932622854
 20
4599.7577882773312
 30
0.0
  0
POINT
  5
8337
  8
DEFPOINTS
 62
     0
 10
1371.1714932622849
 20
3146.7577882773312
 30
0.0
  0
POINT
  5
8338
  8
DEFPOINTS
 62
     0
 10
1371.1714932622849
 20
6169.0456826359004
 30
0.0
  0
ENDBLK
  5
801A
  8
0
  0
BLOCK
  8
0
  2
*D15
 70
     1
 10
0.0
 20
0.0
 30
0.0
  3
*D15
  1

  0
LINE
  5
8339
  8
3
 62
     0
 10
3386.6714932622849
 20
5589.7577882773312
 30
0.0
 11
5191.09535359456
 21
5589.7577882773312
 31
0.0
  0
LINE
  5
833A
  8
3
 62
     0
 10
4613.959340594075
 20
4586.7577882773303
 30
0.0
 11
5191.09535359456
 21
4586.7577882773303
 31
0.0
  0
LINE
  5
833B
  8
3
 62
     0
 10
5146.09535359456
 20
5499.7577882773321
 30
0.0
 11
5146.09535359456
 21
4676.7577882773303
 31
0.0
  0
INSERT
  5
833C
  8
3
 62
     0
  2
_OPEN
 10
5146.09535359456
 20
5589.7577882773312
 30
0.0
 41
90.0
 42
90.0
 43
90.0
 50
90.0
  0
INSERT
  5
833D
  8
3
 62
     0
  2
_OPEN
 10
5146.09535359456
 20
4586.7577882773303
 30
0.0
 41
90.0
 42
90.0
 43
90.0
 50
270.0
  0
TEXT
  8
3
  40
135
  5
8367
  62
0
  72
0
  71
0
 10
4763.60
 20
4861.34
 30
0.000000
  1
1003
  0
POINT
  5
833F
  8
DEFPOINTS
 62
     0
 10
3364.1714932622849
 20
5589.7577882773312
 30
0.0
  0
POINT
  5
8340
  8
DEFPOINTS
 62
     0
 10
4591.4593405940759
 20
4586.7577882773303
 30
0.0
  0
POINT
  5
8341
  8
DEFPOINTS
 62
     0
 10
5146.09535359456
 20
4586.7577882773303
 30
0.0
  0
ENDBLK
  5
800F
  8
0
  0
BLOCK
  8
0
  2
*D16
 70
     1
 10
0.0
 20
0.0
 30
0.0
  3
*D16
  1

  0
LINE
  5
8342
  8
3
 62
     0
 10
4293.6714932622854
 20
2996.7577882773312
 30
0.0
 11
5191.0953535945591
 21
2996.7577882773312
 31
0.0
  0
LINE
  5
8343
  8
3
 62
     0
 10
5146.0953535945591
 20
4496.7577882773312
 30
0.0
 11
5146.0953535945591
 21
3086.7577882773298
 31
0.0
  0
INSERT
  5
8344
  8
3
 62
     0
  2
_OPEN
 10
5146.0953535945591
 20
4586.7577882773303
 30
0.0
 41
90.0
 42
90.0
 43
90.0
 50
90.0
  0
INSERT
  5
8345
  8
3
 62
     0
  2
_OPEN
 10
5146.0953535945591
 20
2996.7577882773312
 30
0.0
 41
90.0
 42
90.0
 43
90.0
 50
270.0
  0
TEXT
  8
3
  40
135
  5
8368
  62
0
  72
0
  71
0
 10
4763.60
 20
3552.81
 30
0.000000
  1
1590
  0
POINT
  5
8347
  8
DEFPOINTS
 62
     0
 10
4591.4593405940759
 20
4586.7577882773303
 30
0.0
  0
POINT
  5
8348
  8
DEFPOINTS
 62
     0
 10
4271.1714932622854
 20
2996.7577882773312
 30
0.0
  0
POINT
  5
8349
  8
DEFPOINTS
 62
     0
 10
5146.0953535945591
 20
2996.7577882773312
 30
0.0
  0
ENDBLK
  5
803C
  8
0
  0
BLOCK
  8
0
  2
*D17
 70
     1
 10
0.0
 20
0.0
 30
0.0
  3
*D17
  1

  0
LINE
  5
8049
  8
0
  6
BYBLOCK
 62
     0
 10
-2648.3944575816781
 20
2976.7577882773312
 30
0.0
 11
-1750.970597249405
 21
2976.7577882773312
 31
0.0
  0
LINE
  5
804A
  8
0
  6
BYBLOCK
 62
     0
 10
-1795.970597249405
 20
3086.7577882773312
 30
0.0
 11
-1795.970597249405
 21
3176.7577882773312
 31
0.0
  0
LINE
  5
804B
  8
0
  6
BYBLOCK
 62
     0
 10
-1795.970597249405
 20
2886.7577882773312
 30
0.0
 11
-1795.970597249405
 21
2796.7577882773312
 31
0.0
  0
TEXT
  5
804C
  8
3
 62
     0
 10
-1533.887225592639
 20
2934.01066490939
 30
0.0
 40
135.0
  1
(20)
 50
90.0
  0
LINE
  5
804D
  8
0
  6
BYBLOCK
 62
     0
 10
-1795.970597249405
 20
2996.7577882773312
 30
0.0
 11
-1795.970597249405
 21
2976.7577882773312
 31
0.0
  0
INSERT
  5
804E
  8
0
  6
BYBLOCK
 62
     0
  2
_OPEN
 10
-1795.970597249405
 20
2996.7577882773312
 30
0.0
 41
90.0
 42
90.0
 43
90.0
 50
270.0
  0
INSERT
  5
804F
  8
0
  6
BYBLOCK
 62
     0
  2
_DOT
 10
-1795.970597249405
 20
2976.7577882773312
 30
0.0
 41
90.0
 42
90.0
 43
90.0
 50
90.0
  0
POINT
  5
8050
  8
DEFPOINTS
  6
BYBLOCK
 62
     0
 10
-2670.8944575816781
 20
2996.7577882773312
 30
0.0
  0
POINT
  5
8051
  8
DEFPOINTS
  6
BYBLOCK
 62
     0
 10
-2670.8944575816781
 20
2976.7577882773312
 30
0.0
  0
POINT
  5
8052
  8
DEFPOINTS
  6
BYBLOCK
 62
     0
 10
-1795.970597249405
 20
2976.7577882773312
 30
0.0
  0
ENDBLK
  5
8053
  8
0
  0
BLOCK
  8
0
  2
*D18
 70
     1
 10
0.0
 20
0.0
 30
0.0
  3
*D18
  1

  0
LINE
  5
834A
  8
3
 62
     0
 10
4293.6714932622854
 20
2976.7577882773312
 30
0.0
 11
5191.0953535945591
 21
2976.7577882773298
 31
0.0
  0
LINE
  5
834B
  8
3
 62
     0
 10
4293.6714932622854
 20
2901.7577882773312
 30
0.0
 11
5191.0953535945591
 21
2901.7577882773312
 31
0.0
  0
LINE
  5
834C
  8
3
 62
     0
 10
5146.0953535945591
 20
3066.7577882773298
 30
0.0
 11
5146.0953535945591
 21
3156.7577882773298
 31
0.0
  0
LINE
  5
834D
  8
3
 62
     0
 10
5146.0953535945591
 20
2811.7577882773312
 30
0.0
 11
5146.0953535945591
 21
2413.1863597059019
 31
0.0
  0
LINE
  5
834E
  8
3
 62
     0
 10
5146.0953535945591
 20
2976.7577882773298
 30
0.0
 11
5146.0953535945591
 21
2901.7577882773312
 31
0.0
  0
INSERT
  5
834F
  8
3
 62
     0
  2
_DOT
 10
5146.0953535945591
 20
2976.7577882773298
 30
0.0
 41
90.0
 42
90.0
 43
90.0
 50
270.0
  0
INSERT
  5
8350
  8
3
 62
     0
  2
_OPEN
 10
5146.0953535945591
 20
2901.7577882773312
 30
0.0
 41
90.0
 42
90.0
 43
90.0
 50
90.0
  0
TEXT
  8
3
  40
135
  5
8369
  62
0
  72
0
  71
0
 10
4763.60
 20
2328.52
 30
0.000000
  1
75
  0
POINT
  5
8352
  8
DEFPOINTS
 62
     0
 10
4271.1714932622854
 20
2976.7577882773312
 30
0.0
  0
POINT
  5
8353
  8
DEFPOINTS
 62
     0
 10
4271.1714932622854
 20
2901.7577882773312
 30
0.0
  0
POINT
  5
8354
  8
DEFPOINTS
 62
     0
 10
5146.0953535945591
 20
2901.7577882773312
 30
0.0
  0
ENDBLK
  5
8027
  8
0
  0
BLOCK
  8
0
  2
_DOT
 70
     0
 10
0.0
 20
0.0
 30
0.0
  3
_DOT
  1

  0
LINE
  5
7FB6
  8
0
  6
BYBLOCK
 62
     0
 10
0.0
 20
0.0
 30
0.0
 11
-1.0
 21
-0.0000000000000284
 31
0.0
  0
POLYLINE
  5
7FB7
  8
0
  6
BYBLOCK
 62
     0
 66
     1
 10
0.0
 20
0.0
 30
0.0
 70
     1
 40
0.1666666666666666
 41
0.1666666666666666
  0
VERTEX
  5
8355
  8
0
  6
BYBLOCK
 62
     0
 10
-0.0833333333333286
 20
-0.0000000000000284
 30
0.0
 42
1.0
  0
VERTEX
  5
8356
  8
0
  6
BYBLOCK
 62
     0
 10
0.0833333333333286
 20
-0.0000000000000284
 30
0.0
 42
1.0
  0
SEQEND
  5
8357
  8
0
  6
BYBLOCK
 62
     0
  0
ENDBLK
  5
7F82
  8
0
  0
BLOCK
  8
0
  2
*D20
 70
     1
 10
0.0
 20
0.0
 30
0.0
  3
*D20
  1

  0
LINE
  5
80CE
  8
0
  6
BYBLOCK
 62
     0
 10
1371.1714932622849
 20
2879.2577882773312
 30
0.0
 11
1371.1714932622849
 21
2567.7808540182159
 31
0.0
  0
LINE
  5
80CF
  8
0
  6
BYBLOCK
 62
     0
 10
3421.171493262284
 20
2879.2577882773312
 30
0.0
 11
3421.171493262284
 21
2567.7808540182159
 31
0.0
  0
LINE
  5
80D0
  8
0
  6
BYBLOCK
 62
     0
 10
1461.1714932622849
 20
2612.7808540182159
 30
0.0
 11
3331.1714932622849
 21
2612.7808540182159
 31
0.0
  0
INSERT
  5
80D1
  8
0
  6
BYBLOCK
 62
     0
  2
_OPEN
 10
1371.1714932622849
 20
2612.7808540182159
 30
0.0
 41
90.0
 42
90.0
 43
90.0
 50
180.0
  0
INSERT
  5
80D2
  8
0
  6
BYBLOCK
 62
     0
  2
_OPEN
 10
3421.171493262284
 20
2612.7808540182159
 30
0.0
 41
90.0
 42
90.0
 43
90.0
  0
TEXT
  5
80D3
  8
3
 62
     0
 10
2158.3143504051418
 20
2657.7808540182159
 30
0.0
 40
135.0
  1
2050
  0
POINT
  5
80D4
  8
DEFPOINTS
  6
BYBLOCK
 62
     0
 10
1371.1714932622849
 20
2901.7577882773312
 30
0.0
  0
POINT
  5
80D5
  8
DEFPOINTS
  6
BYBLOCK
 62
     0
 10
3421.171493262284
 20
2901.7577882773312
 30
0.0
  0
POINT
  5
80D6
  8
DEFPOINTS
  6
BYBLOCK
 62
     0
 10
3421.171493262284
 20
2612.7808540182159
 30
0.0
  0
ENDBLK
  5
80D7
  8
0
  0
BLOCK
  8
0
  2
*D21
 70
     1
 10
0.0
 20
0.0
 30
0.0
  3
*D21
  1

  0
LINE
  5
80DB
  8
0
  6
BYBLOCK
 62
     0
 10
3421.171493262284
 20
2879.2577882773312
 30
0.0
 11
3421.171493262284
 21
2567.7808540182159
 31
0.0
  0
LINE
  5
80DC
  8
0
  6
BYBLOCK
 62
     0
 10
4271.1714932622854
 20
2879.2577882773312
 30
0.0
 11
4271.1714932622854
 21
2567.7808540182159
 31
0.0
  0
LINE
  5
80DD
  8
0
  6
BYBLOCK
 62
     0
 10
3511.1714932622849
 20
2612.7808540182159
 30
0.0
 11
4181.1714932622863
 21
2612.7808540182159
 31
0.0
  0
INSERT
  5
80DE
  8
0
  6
BYBLOCK
 62
     0
  2
_OPEN
 10
3421.171493262284
 20
2612.7808540182159
 30
0.0
 41
90.0
 42
90.0
 43
90.0
 50
180.0
  0
INSERT
  5
80DF
  8
0
  6
BYBLOCK
 62
     0
  2
_OPEN
 10
4271.1714932622854
 20
2612.7808540182159
 30
0.0
 41
90.0
 42
90.0
 43
90.0
  0
TEXT
  5
80E0
  8
3
 62
     0
 10
3672.600064690856
 20
2657.7808540182159
 30
0.0
 40
135.0
  1
850
  0
POINT
  5
80E1
  8
DEFPOINTS
  6
BYBLOCK
 62
     0
 10
3421.171493262284
 20
2901.7577882773312
 30
0.0
  0
POINT
  5
80E2
  8
DEFPOINTS
  6
BYBLOCK
 62
     0
 10
4271.1714932622854
 20
2901.7577882773312
 30
0.0
  0
POINT
  5
80E3
  8
DEFPOINTS
  6
BYBLOCK
 62
     0
 10
4271.1714932622854
 20
2612.7808540182159
 30
0.0
  0
ENDBLK
  5
80E4
  8
0
  0
BLOCK
  8
0
  2
*D22
 70
     1
 10
0.0
 20
0.0
 30
0.0
  3
*D22
  1

  0
LINE
  5
80E8
  8
0
  6
BYBLOCK
 62
     0
 10
5998.7016497816257
 20
2879.079022556838
 30
0.0
 11
5998.7016497816257
 21
2567.7808540182159
 31
0.0
  0
LINE
  5
80E9
  8
0
  6
BYBLOCK
 62
     0
 10
7329.7016497816239
 20
2879.079022556838
 30
0.0
 11
7329.7016497816239
 21
2567.7808540182159
 31
0.0
  0
LINE
  5
80EA
  8
0
  6
BYBLOCK
 62
     0
 10
6088.7016497816257
 20
2612.7808540182159
 30
0.0
 11
7239.7016497816257
 21
2612.7808540182159
 31
0.0
  0
INSERT
  5
80EB
  8
0
  6
BYBLOCK
 62
     0
  2
_OPEN
 10
5998.7016497816257
 20
2612.7808540182159
 30
0.0
 41
90.0
 42
90.0
 43
90.0
 50
180.0
  0
INSERT
  5
80EC
  8
0
  6
BYBLOCK
 62
     0
  2
_OPEN
 10
7329.7016497816239
 20
2612.7808540182159
 30
0.0
 41
90.0
 42
90.0
 43
90.0
  0
TEXT
  5
80ED
  8
3
 62
     0
 10
6468.1302212101973
 20
2657.7808540182159
 30
0.0
 40
135.0
  1
1331
  0
POINT
  5
80EE
  8
DEFPOINTS
  6
BYBLOCK
 62
     0
 10
5998.7016497816257
 20
2901.579022556838
 30
0.0
  0
POINT
  5
80EF
  8
DEFPOINTS
  6
BYBLOCK
 62
     0
 10
7329.7016497816239
 20
2901.579022556838
 30
0.0
  0
POINT
  5
80F0
  8
DEFPOINTS
  6
BYBLOCK
 62
     0
 10
7329.7016497816239
 20
2612.7808540182159
 30
0.0
  0
ENDBLK
  5
80F1
  8
0
  0
BLOCK
  8
0
  2
*D23
 70
     1
 10
0.0
 20
0.0
 30
0.0
  3
*D23
  1

  0
LINE
  5
80F5
  8
0
  6
BYBLOCK
 62
     0
 10
7329.7016497816239
 20
2879.079022556838
 30
0.0
 11
7329.7016497816239
 21
2567.7808540182159
 31
0.0
  0
LINE
  5
80F6
  8
0
  6
BYBLOCK
 62
     0
 10
8358.7016497816276
 20
2879.079022556838
 30
0.0
 11
8358.7016497816276
 21
2567.7808540182159
 31
0.0
  0
LINE
  5
80F7
  8
0
  6
BYBLOCK
 62
     0
 10
7419.7016497816248
 20
2612.7808540182159
 30
0.0
 11
8268.7016497816257
 21
2612.7808540182159
 31
0.0
  0
INSERT
  5
80F8
  8
0
  6
BYBLOCK
 62
     0
  2
_OPEN
 10
7329.7016497816239
 20
2612.7808540182159
 30
0.0
 41
90.0
 42
90.0
 43
90.0
 50
180.0
  0
INSERT
  5
80F9
  8
0
  6
BYBLOCK
 62
     0
  2
_OPEN
 10
8358.7016497816276
 20
2612.7808540182159
 30
0.0
 41
90.0
 42
90.0
 43
90.0
  0
TEXT
  5
80FA
  8
3
 62
     0
 10
7622.415935495912
 20
2657.7808540182159
 30
0.0
 40
135.0
  1
1029
  0
POINT
  5
80FB
  8
DEFPOINTS
  6
BYBLOCK
 62
     0
 10
7329.7016497816239
 20
2901.579022556838
 30
0.0
  0
POINT
  5
80FC
  8
DEFPOINTS
  6
BYBLOCK
 62
     0
 10
8358.7016497816276
 20
2901.579022556838
 30
0.0
  0
POINT
  5
80FD
  8
DEFPOINTS
  6
BYBLOCK
 62
     0
 10
8358.7016497816276
 20
2612.7808540182159
 30
0.0
  0
ENDBLK
  5
80FE
  8
0
  0
BLOCK
  8
0
  2
*D24
 70
     1
 10
0.0
 20
0.0
 30
0.0
  3
*D24
  1

  0
LINE
  5
8102
  8
0
  6
BYBLOCK
 62
     0
 10
4293.6714932622854
 20
2901.7577882773312
 30
0.0
 11
5565.5605358044204
 21
2901.7577882773312
 31
0.0
  0
LINE
  5
8103
  8
0
  6
BYBLOCK
 62
     0
 10
3358.1714932622872
 20
5589.6345913644436
 30
0.0
 11
5565.5605358044204
 21
5589.6345913644436
 31
0.0
  0
LINE
  5
8104
  8
0
  6
BYBLOCK
 62
     0
 10
5520.5605358044204
 20
2991.7577882773312
 30
0.0
 11
5520.5605358044204
 21
5499.6345913644436
 31
0.0
  0
INSERT
  5
8105
  8
0
  6
BYBLOCK
 62
     0
  2
_OPEN
 10
5520.5605358044204
 20
2901.7577882773312
 30
0.0
 41
90.0
 42
90.0
 43
90.0
 50
270.0
  0
INSERT
  5
8106
  8
0
  6
BYBLOCK
 62
     0
  2
_OPEN
 10
5520.5605358044204
 20
5589.6345913644436
 30
0.0
 41
90.0
 42
90.0
 43
90.0
 50
90.0
  0
TEXT
  5
8107
  8
3
 62
     0
 10
5417.7033929472764
 20
3921.053332678031
 30
0.0
 40
135.0
  1
(2688)
 50
90.0
  0
POINT
  5
8108
  8
DEFPOINTS
  6
BYBLOCK
 62
     0
 10
4271.1714932622854
 20
2901.7577882773312
 30
0.0
  0
POINT
  5
8109
  8
DEFPOINTS
  6
BYBLOCK
 62
     0
 10
3335.6714932622872
 20
5589.6345913644436
 30
0.0
  0
POINT
  5
810A
  8
DEFPOINTS
  6
BYBLOCK
 62
     0
 10
5520.5605358044204
 20
5589.6345913644436
 30
0.0
  0
ENDBLK
  5
810B
  8
0
  0
ENDSEC
  0
SECTION
  2
ENTITIES
  0
CIRCLE
  5
7AD3
  8
1
 10
3421.1714932622849
 20
4586.7577882773303
 30
0.0
 40
225.0
  0
ARC
  5
7AD4
  8
1
 10
3421.1714932622849
 20
4586.7577882773303
 30
0.0
 40
380.0
 50
292.41319516291043
 51
120.9943680510207
  0
ARC
  5
7AD5
  8
1
 10
3335.6714932622872
 20
4672.1345913644454
 30
0.0
 40
917.5
 50
84.652962196513741
 51
90.0
  0
LINE
  5
7AD6
  8
2
 10
3421.1714932622849
 20
5711.532337836612
 30
0.0
 11
3421.171493262284
 21
2901.7577882773312
 31
0.0
  0
LINE
  5
7AD7
  8
1
 10
3225.4890430836372
 20
4912.5005989302772
 30
0.0
 11
1646.6468655576591
 21
3614.0477224895471
 31
0.0
  0
LINE
  5
7AD8
  8
1
 10
3310.1218986564581
 20
4782.4437293612054
 30
0.0
 11
1705.775620883298
 21
3521.9950646933898
 31
0.0
  0
ARC
  5
7AD9
  8
1
 10
3523.1714932622849
 20
4484.7577882773312
 30
0.0
 40
1309.0
 50
180.0
 51
265.53086334447892
  0
CIRCLE
  5
7ADA
  8
1
 10
3421.1714932622849
 20
4586.7577882773303
 30
0.0
 40
750.0
  0
CIRCLE
  5
7ADB
  8
1
 10
3421.1714932622849
 20
4586.7577882773303
 30
0.0
 40
700.0
  0
ARC
  5
7ADC
  8
1
 10
3319.1714932622849
 20
4484.7577882773312
 30
0.0
 40
1105.0
 50
89.144420364569797
 51
180.0
  0
LINE
  5
7ADD
  8
1
 10
4271.1714932622854
 20
2901.7577882773312
 30
0.0
 11
1371.1714932622849
 21
2901.7577882773312
 31
0.0
  0
LINE
  5
7ADE
  8
1
 10
4271.1714932622854
 20
2976.7577882773312
 30
0.0
 11
1371.1714932622849
 21
2976.7577882773312
 31
0.0
  0
LINE
  5
7ADF
  8
1
 10
4271.1714932622854
 20
3146.7577882773312
 30
0.0
 11
1371.1714932622849
 21
3146.7577882773312
 31
0.0
  0
LINE
  5
7AE0
  8
1
 10
4271.1714932622854
 20
2996.7577882773312
 30
0.0
 11
1371.1714932622849
 21
2996.7577882773312
 31
0.0
  0
LINE
  5
7AE1
  8
1
 10
4271.1714932622854
 20
2976.7577882773312
 30
0.0
 11
4271.1714932622854
 21
2901.7577882773312
 31
0.0
  0
LINE
  5
7AE2
  8
1
 10
4271.1714932622854
 20
3146.7577882773312
 30
0.0
 11
4271.1714932622854
 21
2996.7577882773312
 31
0.0
  0
LINE
  5
7AE3
  8
1
 10
1371.1714932622849
 20
2976.7577882773312
 30
0.0
 11
1371.1714932622849
 21
2901.7577882773312
 31
0.0
  0
LINE
  5
7AE4
  8
2
 10
1771.171493262284
 20
3799.9199880810079
 30
0.0
 11
1771.1714932622849
 21
2901.2410435537281
 31
0.0
  0
POINT
  5
7AE5
  8
1
 10
1371.1714932622849
 20
2901.7577882773312
 30
0.0
  0
POINT
  5
7AE6
  8
1
 10
1371.1714932622849
 20
2901.7577882773312
 30
0.0
  0
LINE
  5
7AE7
  8
2
 10
2027.6785749954429
 20
3406.7577882773312
 30
0.0
 11
1503.040167323408
 21
3406.7577882773312
 31
0.0
  0
LINE
  5
7AE8
  8
1
 10
2021.1276901749679
 20
3206.7577882773312
 30
0.0
 11
1870.567046236725
 21
3206.7577882773312
 31
0.0
  0
ARC
  5
7AE9
  8
1
 10
1771.1714932622849
 20
3406.7577882773312
 30
0.0
 40
203.5
 50
285.60369900000001
 51
254.39624000000001
  0
LINE
  5
7AEA
  8
1
 10
3566.0591428182211
 20
4235.4636536747803
 30
0.0
 11
1863.3723043390071
 21
3183.2079947916841
 31
0.0
  0
LINE
  5
7AEB
  8
1
 10
1824.7113461184961
 20
3285.5565747679962
 30
0.0
 11
3512.0882245275479
 21
4380.9444068463854
 31
0.0
  0
LINE
  5
7AEE
  8
1
 10
2031.1714932622849
 20
3146.7577882773312
 30
0.0
 11
2021.1276901749679
 21
3206.7577882773312
 31
0.0
  0
ARC
  5
7AF6
  8
1
 10
1771.1714932622849
 20
3406.7577882773312
 30
0.0
 40
241.8170790715175
 50
120.9943680510207
 51
292.41319516291031
  0
LINE
  5
7AF7
  8
1
 10
1582.1714932622849
 20
3281.0844482773318
 30
0.0
 11
1582.1714932622849
 21
3206.7577882773312
 31
0.0
  0
LINE
  5
7AF8
  8
1
 10
1960.1714932622849
 20
3281.0844482773318
 30
0.0
 11
1960.1714932622849
 21
3206.7577882773312
 31
0.0
  0
LINE
  5
7AFA
  8
1
 10
1716.4334562622851
 20
3210.7577882773312
 30
0.0
 11
1825.909530262285
 21
3210.7577882773312
 31
0.0
  0
LINE
  5
7AFB
  8
1
 10
1771.1714932622849
 20
3196.9091488861959
 30
0.0
 11
1671.7759402878451
 21
3196.9091488861959
 31
0.0
  0
LINE
  5
7AFC
  8
1
 10
1875.2740632622849
 20
3231.9009762773312
 30
0.0
 11
1882.011258844575
 21
3206.7577882773312
 31
0.0
  0
LINE
  5
7AFD
  8
1
 10
1870.567046236725
 20
3206.7577882773312
 30
0.0
 11
1870.567046236725
 21
3196.9091488861959
 31
0.0
  0
LINE
  5
7AFF
  8
1
 10
1960.1714932622849
 20
3206.7577882773312
 30
0.0
 11
1880.6714932622849
 21
3206.7577882773312
 31
0.0
  0
LINE
  5
7B00
  8
1
 10
1771.1714932622849
 20
3196.9091488861959
 30
0.0
 11
1870.567046236725
 21
3196.9091488861959
 31
0.0
  0
LINE
  5
7B04
  8
1
 10
1511.1714932622849
 20
3146.7577882773312
 30
0.0
 11
1521.2152963496021
 21
3206.7577882773312
 31
0.0
  0
LINE
  5
7B06
  8
1
 10
1667.068710262284
 20
3231.9010982773302
 30
0.0
 11
1660.331788665573
 21
3206.7577882773312
 31
0.0
  0
LINE
  5
7B07
  8
1
 10
1671.7759402878451
 20
3206.7577882773312
 30
0.0
 11
1671.7759402878451
 21
3196.9091488861959
 31
0.0
  0
LINE
  5
7B08
  8
1
 10
1582.1714932622849
 20
3206.7577882773312
 30
0.0
 11
1661.6714932622849
 21
3206.7577882773312
 31
0.0
  0
LINE
  5
7B09
  8
1
 10
1582.1714932622849
 20
3206.7577882773312
 30
0.0
 11
1662.1714932622849
 21
3206.7577882773312
 31
0.0
  0
LINE
  5
7B0B
  8
1
 10
1521.2152963496021
 20
3206.7577882773312
 30
0.0
 11
1671.7759402878451
 21
3206.7577882773312
 31
0.0
  0
LINE
  5
7B0C
  8
1
 10
1371.1714932622849
 20
3146.7577882773312
 30
0.0
 11
1371.1714932622849
 21
2996.7577882773312
 31
0.0
  0
POINT
  5
7B0D
  8
1
 10
1371.1714932622849
 20
2996.7577882773312
 30
0.0
  0
POINT
  5
7B0E
  8
1
 10
1371.1714932622849
 20
2996.7577882773312
 30
0.0
  0
POINT
  5
7B0F
  8
1
 10
1371.1714932622849
 20
2976.7577882773312
 30
0.0
  0
POINT
  5
7B10
  8
1
 10
1371.1714932622849
 20
2976.7577882773312
 30
0.0
  0
POINT
  5
7B11
  8
1
 10
1371.1714932622849
 20
2976.7577882773312
 30
0.0
  0
POINT
  5
7B12
  8
1
 10
1371.1714932622849
 20
2976.7577882773312
 30
0.0
  0
CIRCLE
  5
7B17
  8
1
 10
1771.1714932622849
 20
3406.7577882773312
 30
0.0
 40
132.49999999999989
  0
ARC
  5
7B18
  8
1
 10
1955.1714932622849
 20
3281.0844482773318
 30
0.0
 40
5.0000669999999987
 50
0.0
 51
55.056334999999997
  0
LINE
  5
7B19
  8
1
 10
1958.0352632622851
 20
3285.183081277331
 30
0.0
 11
1942.097396262285
 21
3296.3193112773311
 31
0.0
  0
ARC
  5
7B1A
  8
1
 10
1587.1714932622849
 20
3281.0844482773318
 30
0.0
 40
5.0
 50
124.94366100000001
 51
180.0
  0
LINE
  5
7B1C
  8
1
 10
1584.307601262286
 20
3285.183081277331
 30
0.0
 11
1600.2454682622849
 21
3296.3193112773311
 31
0.0
  0
ARC
  5
7B1D
  8
1
 10
3335.6714932622849
 20
4672.2577882773312
 30
0.0
 40
917.5
 50
354.65296219651373
 51
84.652962196513741
  0
LINE
  5
7B1E
  8
2
 10
4591.4593405940759
 20
4586.7577882773303
 30
0.0
 11
2088.631939370418
 21
4586.7577882773303
 31
0.0
  0
LINE
  5
7B1F
  8
1
 10
4351.1714932622854
 20
3095.7577882773312
 30
0.0
 11
3421.1714932622849
 21
3179.643934979621
 31
0.0
  0
LINE
  5
7B20
  8
1
 10
4301.1714932622854
 20
4545.7577882773312
 30
0.0
 11
4301.1714932622872
 21
3100.2677961645509
 31
0.0
  0
LINE
  5
7B21
  8
1
 10
4345.1714932622854
 20
4599.7577882773312
 30
0.0
 11
4345.1714932622863
 21
3041.7577882773312
 31
0.0
  0
LINE
  5
7B22
  8
1
 10
4351.1714932622854
 20
4599.7577882773312
 30
0.0
 11
4351.1714932622863
 21
3041.7577882773312
 31
0.0
  0
LINE
  5
7B23
  8
1
 10
4351.1714932622854
 20
4545.7577882773312
 30
0.0
 11
4242.0752379856622
 21
4545.7577882773312
 31
0.0
  0
ARC
  5
7B24
  8
1
 10
3506.3714932622861
 20
4672.2577882773312
 30
0.0
 40
746.49999999999989
 50
350.2437233818834
 51
353.42322386974388
  0
LINE
  5
7B25
  8
1
 10
4351.1714932622854
 20
4599.7577882773312
 30
0.0
 11
4345.1714932622854
 21
4599.7577882773303
 31
0.0
  0
LINE
  5
7B26
  8
1
 10
4351.1714932622863
 20
3041.7577882773312
 30
0.0
 11
4345.1714932622863
 21
3041.7577882773312
 31
0.0
  0
LINE
  5
7B27
  8
1
 10
8279.7016497816257
 20
4586.7577882773303
 30
0.0
 11
8279.7016497816257
 21
5589.7577882773312
 31
0.0
  0
LINE
  5
7B28
  8
2
 10
7329.7016497816239
 20
5757.4598724396074
 30
0.0
 11
7329.7016497816239
 21
2901.579022556838
 31
0.0
  0
LINE
  5
7B29
  8
1
 10
6110.7016497816257
 20
4506.7577882773312
 30
0.0
 11
6110.7016497816257
 21
4666.7577882773312
 31
0.0
  0
LINE
  5
7B2A
  8
1
 10
6379.7016497816257
 20
4586.7577882773303
 30
0.0
 11
6379.7016497816257
 21
5589.7577882773312
 31
0.0
  0
LINE
  5
7B2B
  8
1
 10
5960.7016497816257
 20
3166.579022556838
 30
0.0
 11
5960.7016497816257
 21
4966.7577882773312
 31
0.0
  0
LINE
  5
7B2C
  8
1
 10
6096.1016497816254
 20
3274.079022556838
 30
0.0
 11
6096.1016497816254
 21
4811.7577882773312
 31
0.0
  0
LINE
  5
7B2D
  8
1
 10
6010.7016497816257
 20
3274.079022556838
 30
0.0
 11
6010.7016497816257
 21
4811.7577882773312
 31
0.0
  0
LINE
  5
7B2E
  8
1
 10
8358.7016497816276
 20
2976.579022556838
 30
0.0
 11
8358.7016497816276
 21
2901.5790225568389
 31
0.0
  0
LINE
  5
7B2F
  8
1
 10
5998.7016497816257
 20
2976.5790225568389
 30
0.0
 11
5998.7016497816257
 21
2901.579022556838
 31
0.0
  0
LINE
  5
7B30
  8
1
 10
8358.7016497816276
 20
2901.579022556838
 30
0.0
 11
5998.7016497816257
 21
2901.579022556838
 31
0.0
  0
LINE
  5
7B31
  8
1
 10
8358.7016497816276
 20
2996.579022556838
 30
0.0
 11
5998.7016497816257
 21
2996.579022556838
 31
0.0
  0
LINE
  5
7B32
  8
1
 10
8284.7016497816257
 20
3146.579022556838
 30
0.0
 11
8279.7016497816257
 21
3146.579022556838
 31
0.0
  0
LINE
  5
7B33
  8
1
 10
8358.7016497816276
 20
2976.579022556838
 30
0.0
 11
5998.7016497816257
 21
2976.579022556838
 31
0.0
  0
LINE
  5
7B34
  8
1
 10
6197.0696768043572
 20
3606.9746411493629
 30
0.0
 11
6197.0696768043572
 21
3406.9746411493629
 31
0.0
  0
LINE
  5
7B36
  8
1
 10
6187.0696768043563
 20
3436.9746411493638
 30
0.0
 11
6047.0696768043572
 21
3436.9746411493638
 31
0.0
  0
LINE
  5
7B37
  8
1
 10
6187.0696768043563
 20
3376.9746411493629
 30
0.0
 11
6047.0696768043572
 21
3376.9746411493629
 31
0.0
  0
LINE
  5
7B38
  8
1
 10
6157.0696768043563
 20
3372.9746411493629
 30
0.0
 11
6047.0696768043572
 21
3372.9746411493629
 31
0.0
  0
LINE
  5
7B3A
  8
2
 10
5928.1641083029863
 20
3406.9746411493629
 30
0.0
 11
6478.3604601757042
 21
3406.9746411493629
 31
0.0
  0
LINE
  5
7B3B
  8
1
 10
6146.1016497816254
 20
3166.579022556838
 30
0.0
 11
5960.7016497816257
 21
3166.579022556838
 31
0.0
  0
LINE
  5
7B3C
  8
1
 10
5998.7016497816248
 20
3146.579022556838
 30
0.0
 11
5998.7016497816257
 21
2996.579022556838
 31
0.0
  0
LINE
  5
7B3D
  8
1
 10
6047.0696768043572
 20
3372.9746411493629
 30
0.0
 11
6047.0696768043572
 21
3436.9746411493638
 31
0.0
  0
LINE
  5
7B3E
  8
1
 10
6096.1016497816254
 20
3274.079022556838
 30
0.0
 11
6010.7016497816248
 21
3274.079022556838
 31
0.0
  0
LINE
  5
7B3F
  8
1
 10
6096.1016497816236
 20
3539.079022556838
 30
0.0
 11
6010.7016497816257
 21
3539.079022556838
 31
0.0
  0
LINE
  5
7B40
  8
1
 10
6197.0696768043572
 20
3196.9746411493629
 30
0.0
 11
6197.0696768043572
 21
3406.9746411493629
 31
0.0
  0
LINE
  5
7B41
  8
1
 10
6146.1016497816254
 20
3166.579022556838
 30
0.0
 11
6146.1016497816254
 21
3342.9003155046389
 31
0.0
  0
LINE
  5
7B43
  8
1
 10
6197.0696768043572
 20
3196.9746411493629
 30
0.0
 11
6379.701649781623
 21
3196.9746411493638
 31
0.0
  0
LINE
  5
7B45
  8
1
 10
6187.0696768043563
 20
3439.4746411493629
 30
0.0
 11
6187.0696768043563
 21
3374.4746411493638
 31
0.0
  0
LINE
  5
7B46
  8
1
 10
6187.0696768043563
 20
3374.4746411493638
 30
0.0
 11
6197.0696768043572
 21
3374.4746411493638
 31
0.0
  0
LINE
  5
7B47
  8
1
 10
6157.0696768043563
 20
3372.9746411493629
 30
0.0
 11
6157.0696768043563
 21
3376.9746411493629
 31
0.0
  0
LINE
  5
7B48
  8
1
 10
6187.0696768043563
 20
3439.4746411493629
 30
0.0
 11
6197.0696768043572
 21
3439.4746411493629
 31
0.0
  0
LINE
  5
7B49
  8
1
 10
6110.7016497816257
 20
4506.7577882773312
 30
0.0
 11
6096.1016497816254
 21
4506.7577882773312
 31
0.0
  0
LINE
  5
7B4A
  8
1
 10
6096.1016497816254
 20
4361.7577882773312
 30
0.0
 11
6010.7016497816257
 21
4361.7577882773312
 31
0.0
  0
LINE
  5
7B4B
  8
1
 10
6379.701649781623
 20
3606.9746411493629
 30
0.0
 11
6197.0696768043572
 21
3606.9746411493629
 31
0.0
  0
LINE
  5
7B4C
  8
1
 10
6176.5016497816268
 20
4516.7577882773312
 30
0.0
 11
6176.5016497816259
 21
4346.7577882773312
 31
0.0
  0
LINE
  5
7B4D
  8
1
 10
6219.9016497816247
 20
4346.7577882773312
 30
0.0
 11
6379.7016497816257
 21
4346.7577882773312
 31
0.0
  0
LINE
  5
7B4E
  8
1
 10
6301.5016497816259
 20
4346.7577882773312
 30
0.0
 11
6176.5016497816259
 21
4346.7577882773312
 31
0.0
  0
LINE
  5
7B4F
  8
1
 10
6219.9016497816247
 20
4516.7577882773312
 30
0.0
 11
6379.7016497816257
 21
4516.7577882773312
 31
0.0
  0
LINE
  5
7B50
  8
1
 10
6301.5016497816259
 20
4516.7577882773312
 30
0.0
 11
6176.5016497816259
 21
4516.7577882773312
 31
0.0
  0
LINE
  5
7B51
  8
1
 10
8358.7016497816276
 20
3146.579022556838
 30
0.0
 11
8358.7016497816276
 21
2996.579022556838
 31
0.0
  0
LINE
  5
7B52
  8
1
 10
8284.7016497816257
 20
3146.579022556838
 30
0.0
 11
8358.7016497816276
 21
3146.579022556838
 31
0.0
  0
LINE
  5
7B53
  8
1
 10
8459.9016497816265
 20
4516.7577882773312
 30
0.0
 11
8459.9016497816265
 21
4346.7577882773312
 31
0.0
  0
LINE
  5
7B54
  8
1
 10
8357.9016497816265
 20
4346.7577882773312
 30
0.0
 11
8459.9016497816265
 21
4346.7577882773312
 31
0.0
  0
LINE
  5
7B55
  8
1
 10
8412.9016497816228
 20
4346.7577882773312
 30
0.0
 11
8279.7016497816257
 21
4346.7577882773312
 31
0.0
  0
LINE
  5
7B56
  8
1
 10
8459.9016497816265
 20
4516.7577882773312
 30
0.0
 11
8385.4016497816247
 21
4516.7577882773312
 31
0.0
  0
LINE
  5
7B57
  8
1
 10
8279.7016497816257
 20
4516.7577882773312
 30
0.0
 11
8385.4016497816247
 21
4516.7577882773312
 31
0.0
  0
LINE
  5
7B5A
  8
2
 10
8385.7991742663999
 20
4586.7577882773303
 30
0.0
 11
5912.1303288361232
 21
4586.7577882773303
 31
0.0
  0
LINE
  5
7B5B
  8
1
 10
6379.701649781623
 20
3095.7577882773312
 30
0.0
 11
6379.7016497816248
 21
4586.7577882773303
 31
0.0
  0
LINE
  5
7B5C
  8
1
 10
6146.1016497816254
 20
4966.7577882773312
 30
0.0
 11
5960.7016497816257
 21
4966.7577882773312
 31
0.0
  0
LINE
  5
7B5D
  8
1
 10
6110.7016497816257
 20
4666.7577882773312
 30
0.0
 11
6096.1016497816263
 21
4666.7577882773312
 31
0.0
  0
LINE
  5
7B5E
  8
1
 10
6096.1016497816263
 20
4811.7577882773312
 30
0.0
 11
6010.7016497816257
 21
4811.7577882773312
 31
0.0
  0
LINE
  5
7B5F
  8
1
 10
6146.1016497816254
 20
4740.0860813427462
 30
0.0
 11
6146.1016497816254
 21
4966.7577882773312
 31
0.0
  0
LINE
  5
7B60
  8
1
 10
6379.7016497816248
 20
4634.2577882773312
 30
0.0
 11
6110.7016497816257
 21
4634.2577882773312
 31
0.0
  0
LINE
  5
7B61
  8
1
 10
6379.7016497816257
 20
4539.2577882773312
 30
0.0
 11
6110.7016497816257
 21
4539.2577882773312
 31
0.0
  0
LINE
  5
7B64
  8
1
 10
8279.7016497816257
 20
3095.7577882773312
 30
0.0
 11
8279.7016497816257
 21
4586.7577882773303
 31
0.0
  0
LINE
  5
7B68
  8
1
 10
1371.1714932622849
 20
8596.3574783022359
 30
0.0
 11
1371.1714932622849
 21
7496.3574783022359
 31
0.0
  0
LINE
  5
7B69
  8
1
 10
2214.1714932622849
 20
9777.3574783022395
 30
0.0
 11
2214.1714932622849
 21
7877.357478302235
 31
0.0
  0
LINE
  5
7B6A
  8
2
 10
3421.1714932622849
 20
9997.0438942728106
 30
0.0
 11
3421.1714932622849
 21
7426.7593600595619
 31
0.0
  0
LINE
  5
7B6B
  8
1
 10
4351.1714932622854
 20
9827.3574783022395
 30
0.0
 11
4351.1714932622854
 21
7827.3574783022359
 31
0.0
  0
LINE
  5
7B6C
  8
1
 10
3421.1714932622849
 20
7877.357478302235
 30
0.0
 11
4345.1714932622854
 21
7877.357478302235
 31
0.0
  0
LINE
  5
7B6D
  8
1
 10
1371.1714932622849
 20
7496.3574783022359
 30
0.0
 11
4271.1714932622854
 21
7496.3574783022359
 31
0.0
  0
LINE
  5
7B6E
  8
1
 10
4271.1714932622854
 20
7877.357478302235
 30
0.0
 11
4271.1714932622854
 21
7496.3574783022359
 31
0.0
  0
LINE
  5
7B6F
  8
1
 10
1531.1714932622849
 20
7643.7574783022346
 30
0.0
 11
3810.1714932622849
 21
7643.7574783022346
 31
0.0
  0
LINE
  5
7B70
  8
1
 10
1531.1714932622849
 20
7458.3574783022359
 30
0.0
 11
3810.1714932622849
 21
7458.3574783022359
 31
0.0
  0
LINE
  5
7B71
  8
1
 10
1638.6714932622849
 20
7593.7574783022364
 30
0.0
 11
3655.1714932622858
 21
7593.7574783022374
 31
0.0
  0
LINE
  5
7B72
  8
1
 10
1638.6714932622849
 20
7508.3574783022359
 30
0.0
 11
3655.1714932622858
 21
7508.3574783022368
 31
0.0
  0
LINE
  5
7B73
  8
1
 10
2214.1714932622849
 20
7877.357478302235
 30
0.0
 11
3421.1714932622849
 21
7877.357478302235
 31
0.0
  0
LINE
  5
7B74
  8
1
 10
3382.6714932622849
 20
7877.357478302235
 30
0.0
 11
3382.6714932622849
 21
7608.357478302235
 31
0.0
  0
LINE
  5
7B75
  8
1
 10
3477.6714932622849
 20
7877.357478302235
 30
0.0
 11
3477.6714932622849
 21
7608.357478302235
 31
0.0
  0
LINE
  5
7B76
  8
1
 10
3350.1714932622849
 20
7608.3574783022368
 30
0.0
 11
3510.1714932622849
 21
7608.357478302235
 31
0.0
  0
LINE
  5
7B77
  8
1
 10
3655.1714932622858
 20
7593.7574783022374
 30
0.0
 11
3655.1714932622849
 21
7508.3574783022359
 31
0.0
  0
LINE
  5
7B78
  8
1
 10
3810.1714932622849
 20
7643.7574783022374
 30
0.0
 11
3810.1714932622849
 21
7458.3574783022359
 31
0.0
  0
LINE
  5
7B79
  8
1
 10
3510.1714932622849
 20
7608.357478302235
 30
0.0
 11
3510.1714932622849
 21
7593.7574783022374
 31
0.0
  0
LINE
  5
7B7A
  8
1
 10
3205.1714932622858
 20
7593.7574783022374
 30
0.0
 11
3205.1714932622858
 21
7508.3574783022359
 31
0.0
  0
LINE
  5
7B7B
  8
1
 10
3350.1714932622849
 20
7608.3574783022368
 30
0.0
 11
3350.1714932622849
 21
7593.7574783022364
 31
0.0
  0
LINE
  5
7B7C
  8
1
 10
1561.1714932622849
 20
7701.0574783022357
 30
0.0
 11
1561.1714932622849
 21
7976.5574783022357
 31
0.0
  0
LINE
  5
7B7D
  8
2
 10
1771.1714932622849
 20
7425.4361278961178
 30
0.0
 11
1771.1714932622849
 21
8359.2292313022353
 31
0.0
  0
LINE
  5
7B7E
  8
1
 10
1737.1714932622849
 20
7661.0574783022357
 30
0.0
 11
1737.1714932622849
 21
7551.0574783022366
 31
0.0
  0
LINE
  5
7B7F
  8
1
 10
1741.1714932622849
 20
7691.0574783022348
 30
0.0
 11
1741.1714932622849
 21
7551.0574783022366
 31
0.0
  0
LINE
  5
7B80
  8
1
 10
1801.1714932622849
 20
7691.0574783022348
 30
0.0
 11
1801.1714932622849
 21
7551.0574783022366
 31
0.0
  0
LINE
  5
7B81
  8
1
 10
1531.1714932622849
 20
7643.7574783022346
 30
0.0
 11
1531.1714932622849
 21
7458.3574783022359
 31
0.0
  0
LINE
  5
7B82
  8
1
 10
1638.6714932622849
 20
7593.7574783022364
 30
0.0
 11
1638.6714932622849
 21
7508.3574783022359
 31
0.0
  0
LINE
  5
7B83
  8
1
 10
1903.6714932622849
 20
7593.7574783022364
 30
0.0
 11
1903.6714932622849
 21
7508.3574783022359
 31
0.0
  0
LINE
  5
7B84
  8
1
 10
1737.1714932622849
 20
7551.0574783022366
 30
0.0
 11
1801.1714932622849
 21
7551.0574783022366
 31
0.0
  0
LINE
  5
7B85
  8
1
 10
1971.1714932622849
 20
8350.5574783022366
 30
0.0
 11
1971.1714932622849
 21
7701.0574783022357
 31
0.0
  0
LINE
  5
7B86
  8
1
 10
1561.1714932622849
 20
7701.0574783022357
 30
0.0
 11
1771.1714932622849
 21
7701.0574783022357
 31
0.0
  0
LINE
  5
7B87
  8
1
 10
1738.6714932622849
 20
7691.0574783022348
 30
0.0
 11
1738.6714932622849
 21
7701.0574783022357
 31
0.0
  0
LINE
  5
7B88
  8
1
 10
1737.1714932622849
 20
7661.0574783022357
 30
0.0
 11
1741.1714932622849
 21
7661.0574783022357
 31
0.0
  0
LINE
  5
7B89
  8
1
 10
1803.6714932622849
 20
7691.0574783022348
 30
0.0
 11
1803.6714932622849
 21
7701.0574783022357
 31
0.0
  0
LINE
  5
7B8A
  8
1
 10
1803.6714932622849
 20
7691.0574783022348
 30
0.0
 11
1738.6714932622849
 21
7691.0574783022348
 31
0.0
  0
LINE
  5
7B8B
  8
1
 10
1971.1714932622849
 20
7701.0574783022357
 30
0.0
 11
1771.1714932622849
 21
7701.0574783022357
 31
0.0
  0
LINE
  5
7B8C
  8
1
 10
1561.1714932622849
 20
8350.5574783022348
 30
0.0
 11
1561.1714932622849
 21
7976.5574783022357
 31
0.0
  0
LINE
  5
7B8D
  8
1
 10
1561.1714932622849
 20
8350.5574783022348
 30
0.0
 11
1971.1714932622849
 21
8350.5574783022366
 31
0.0
  0
LINE
  5
7B8E
  8
1
 10
3421.1714932622849
 20
9777.3574783022395
 30
0.0
 11
4345.1714932622854
 21
9777.3574783022395
 31
0.0
  0
LINE
  5
7B8F
  8
2
 10
2150.629936782032
 20
8827.3574783022359
 30
0.0
 11
4408.6926271748989
 21
8827.3574783022359
 31
0.0
  0
LINE
  5
7B90
  8
1
 10
2571.1714932622849
 20
9856.3574783022359
 30
0.0
 11
4271.1714932622854
 21
9856.3574783022359
 31
0.0
  0
LINE
  5
7B91
  8
1
 10
4271.1714932622854
 20
9856.3574783022359
 30
0.0
 11
4271.1714932622854
 21
9777.3574783022395
 31
0.0
  0
LINE
  5
7B92
  8
1
 10
1371.1714932622849
 20
8596.3574783022359
 30
0.0
 11
2214.1714932622849
 21
8596.3574783022359
 31
0.0
  0
LINE
  5
7B93
  8
1
 10
2214.1714932622849
 20
9777.3574783022359
 30
0.0
 11
3421.1714932622849
 21
9777.3574783022395
 31
0.0
  0
LINE
  5
7B94
  8
1
 10
2571.1714932622849
 20
9856.3574783022359
 30
0.0
 11
2571.1714932622849
 21
9777.3574783022359
 31
0.0
  0
LINE
  5
7B96
  8
1
 10
4345.1714932622854
 20
9827.3574783022359
 30
0.0
 11
4351.1714932622854
 21
9827.3574783022395
 31
0.0
  0
LINE
  5
7B97
  8
1
 10
4345.1714932622854
 20
7827.3574783022359
 30
0.0
 11
4351.1714932622854
 21
7827.3574783022359
 31
0.0
  0
LINE
  5
7B99
  8
1
 10
4345.1714932622854
 20
9827.3574783022395
 30
0.0
 11
4345.1714932622854
 21
7827.3574783022359
 31
0.0
  0
LINE
  5
7B9A
  8
4
 10
8325.0
 20
1790.2961559486059
 30
0.0
 11
8325.0
 21
890.2961559486065
 31
0.0
  0
LINE
  5
7B9B
  8
4
 10
5175.0
 20
1790.2961559486059
 30
0.0
 11
5175.0
 21
890.2961559486065
 31
0.0
  0
LINE
  5
7B9C
  8
4
 10
2925.0
 20
1790.2961559486059
 30
0.0
 11
2925.0
 21
890.2961559486065
 31
0.0
  0
LINE
  5
7B9F
  8
4
 10
2925.0
 20
890.2961559486065
 30
0.0
 11
8325.0
 21
890.2961559486065
 31
0.0
  0
LINE
  5
7BA0
  8
4
 10
2925.0
 20
1340.2961559486059
 30
0.0
 11
8325.0
 21
1340.2961559486059
 31
0.0
  0
TEXT
  5
7BA1
  8
4
 10
3098.259363811057
 20
1482.2397723483641
 30
0.0
 40
225.0
  1
機器名称
  0
TEXT
  5
7BA2
  8
4
 10
3088.1614771115892
 20
987.69936124265575
 30
0.0
 40
225.0
  1
機器型番
  0
TEXT
  5
7BA3
  8
4
 10
5300.5998145995309
 20
1445.305504263257
 30
0.0
 40
191.25
  1
ミツヤ多翼送風機
  0
TEXT
  5
7BA4
  8
4
 10
5339.9452301346628
 20
967.51428520835168
 30
0.0
 40
225.0
  1
MF#9-5
  0
TEXT
  5
7BA6
  8
4
 10
3652.2550631886188
 20
10725.429785996321
 30
0.0
 40
242.99999999999989
  1
床置防振ベット
  0
TEXT
  5
7BA7
  8
4
 10
1317.933979167283
 20
11402.46439289684
 30
0.0
 40
324.0
  1
遠心式両吸込両持多翼ファン
  0
LINE
  5
7BA8
  8
4
 10
1125.0
 20
11112.33939419162
 30
0.0
 11
8325.0
 21
11112.33939419162
 31
0.0
  0
LINE
  5
7BA9
  8
4
 10
1125.0
 20
12012.33939419162
 30
0.0
 11
8325.0
 21
12012.33939419162
 31
0.0
  0
LINE
  5
7BAA
  8
4
 10
2925.0
 20
1790.2961559486059
 30
0.0
 11
8325.0
 21
1790.2961559486059
 31
0.0
  0
LINE
  5
7BAB
  8
4
 10
1125.0
 20
12012.33939419162
 30
0.0
 11
1125.0
 21
11112.33939419162
 31
0.0
  0
TEXT
  5
7BAC
  8
4
 10
1690.890318096458
 20
10720.437648958539
 30
0.0
 40
242.99999999999989
  1
左回転右横向
  0
TEXT
  5
7BAD
  8
4
 10
6610.3630166218027
 20
12177.274866728891
 30
0.0
 40
252.0
  1
No.
  0
TEXT
  5
7BAE
  8
4
 10
5900.832281700059
 20
10725.429785996321
 30
0.0
 40
242.99999999999989
  1
縮尺：1/45
  0
LINE
  5
7BAF
  8
4
 10
8325.0
 20
12012.33939419162
 30
0.0
 11
8325.0
 21
11112.33939419162
 31
0.0
  0
LINE
  5
7BB0
  8
4
 10
9450.0
 20
13275.0
 30
0.0
 11
9450.0
 21
13275.0
 31
0.0
  0
LINE
  5
7BB1
  8
4
 10
6482.7784006193906
 20
12065.686124064299
 30
0.0
 11
6482.7784006193906
 21
12539.935176973881
 31
0.0
  0
LINE
  5
7BB2
  8
4
 10
6482.7784006193906
 20
12539.935176973881
 30
0.0
 11
8325.0
 21
12539.935176973881
 31
0.0
  0
LINE
  5
7BB3
  8
4
 10
8325.0
 20
12539.935176973881
 30
0.0
 11
8325.0
 21
12065.686124064299
 31
0.0
  0
LINE
  5
7BB4
  8
4
 10
8325.0
 20
12065.686124064299
 30
0.0
 11
6482.7784006193906
 21
12065.686124064299
 31
0.0
  0
LINE
  5
7BB5
  8
4
 10
0.0
 20
0.0
 30
0.0
 11
0.0
 21
13275.0
 31
0.0
  0
LINE
  5
7BB6
  8
4
 10
0.0
 20
13275.0
 30
0.0
 11
9450.0
 21
13275.0
 31
0.0
  0
LINE
  5
7BB7
  8
4
 10
9450.0
 20
13275.0
 30
0.0
 11
9450.0
 21
0.0
 31
0.0
  0
LINE
  5
7BB8
  8
4
 10
9450.0
 20
0.0
 30
0.0
 11
0.0
 21
0.0
 31
0.0
  0
DIMENSION
  5
7BC8
  8
3
  2
*D1
 10
8721.0378089573042
 20
3886.7577882773312
 30
0.0
 11
8721.0378089573042
 21
4560.2294143430618
 31
0.0
 70
   128
 13
8279.7016497816257
 23
5286.7577882773312
 33
0.0
 14
8279.7016497816257
 24
3886.7577882773312
 34
0.0
 50
90.0
1001
ACAD
1000
DSTYLE
1002
{
1070
   287
1070
     3
1070
   287
1070
     3
1070
     3
1000
φ<>
1070
    40
1040
45.0
1070
   143
1040
0.039
1070
   172
1070
     1
1070
   271
1070
     0
1070
   279
1070
     0
1070
   288
1070
     1
1002
}
  0
DIMENSION
  5
7C78
  8
3
  2
*D2
 10
2571.1714932622849
 20
10145.124512370039
 30
0.0
 11
3418.7324250067318
 21
10145.124512370039
 31
0.0
 70
   128
 13
4271.1714932622854
 23
9856.3574783022359
 33
0.0
 14
2571.1714932622849
 24
9856.3574783022359
 34
0.0
1001
ACAD
1000
DSTYLE
1002
{
1070
   287
1070
     3
1070
   287
1070
     3
1070
    40
1040
45.0
1070
   143
1040
0.039
1070
   172
1070
     1
1070
   271
1070
     0
1070
   279
1070
     0
1070
   288
1070
     1
1002
}
  0
DIMENSION
  5
7C84
  8
3
  2
*D3
 10
1371.1714932622849
 20
10145.124512370039
 30
0.0
 11
1971.1714932622849
 21
10257.62451237005
 31
0.0
 70
     0
 13
2571.1714932622849
 23
9856.3574783022359
 33
0.0
 14
1371.1714932622849
 24
8596.3574783022359
 34
0.0
1001
ACAD
1000
DSTYLE
1002
{
1070
   287
1070
     4
1070
   287
1070
     4
1070
    40
1040
45.0
1070
    75
1070
     1
1070
   143
1040
0.039
1070
   172
1070
     1
1070
   271
1070
     0
1070
   279
1070
     1
1070
   288
1070
     1
1002
}
  0
DIMENSION
  5
7C91
  8
3
  2
*D4
 10
1060.5357372321091
 20
7496.3574783022359
 30
0.0
 11
1060.535737232108
 21
8046.5766457139553
 31
0.0
 70
   128
 13
1371.1714932622849
 23
8596.3574783022359
 33
0.0
 14
1371.1714932622849
 24
7496.3574783022359
 34
0.0
 50
270.0
1001
ACAD
1000
DSTYLE
1002
{
1070
   287
1070
     3
1070
   287
1070
     3
1070
    40
1040
45.0
1070
   143
1040
0.039
1070
   172
1070
     1
1070
   271
1070
     0
1070
   279
1070
     0
1070
   288
1070
     1
1002
}
  0
DIMENSION
  5
7C9E
  8
3
  2
*D5
 10
4641.1182483251041
 20
7496.3574783022359
 30
0.0
 11
4641.1182483251032
 21
8635.0583273334123
 31
0.0
 70
   128
 13
4271.1714932622854
 23
9856.3574783022359
 33
0.0
 14
4271.1714932622854
 24
7496.3574783022359
 34
0.0
 50
270.0
1001
ACAD
1000
DSTYLE
1002
{
1070
   287
1070
     3
1070
   287
1070
     3
1070
    40
1040
45.0
1070
   143
1040
0.039
1070
   172
1070
     1
1070
   271
1070
     0
1070
   279
1070
     0
1070
   288
1070
     1
1002
}
  0
DIMENSION
  5
7CAB
  8
3
  2
*D6
 10
1371.1714932622849
 20
7036.1646933739185
 30
0.0
 11
2907.5529042621129
 21
7036.1646933739185
 31
0.0
 70
   128
 13
4271.1714932622854
 23
7496.3574783022359
 33
0.0
 14
1371.1714932622849
 24
7496.3574783022359
 34
0.0
1001
ACAD
1000
DSTYLE
1002
{
1070
   287
1070
     3
1070
   287
1070
     3
1070
    40
1040
45.0
1070
   143
1040
0.039
1070
   172
1070
     1
1070
   271
1070
     0
1070
   279
1070
     0
1070
   288
1070
     1
1002
}
  0
DIMENSION
  5
7CDE
  8
3
  2
*D7
 10
4627.2016589322893
 20
4545.7577882773312
 30
0.0
 11
4627.2016589322884
 21
3794.5049775305561
 31
0.0
 70
   128
 13
4351.1714932622854
 23
3095.7577882773312
 33
0.0
 14
4351.1714932622854
 24
4545.7577882773312
 34
0.0
 50
270.0
1001
ACAD
1000
DSTYLE
1002
{
1070
   287
1070
     3
1070
   287
1070
     3
1070
    40
1040
45.0
1070
   143
1040
0.039
1070
   172
1070
     1
1070
   271
1070
     0
1070
   279
1070
     0
1070
   288
1070
     1
1002
}
  0
LINE
  5
7DD9
  8
1
 10
8279.7016497816257
 20
4545.7577882773303
 30
0.0
 11
6379.7016497816248
 21
4545.7577882773312
 31
0.0
  0
LINE
  5
7DDA
  8
1
 10
8279.7016497816203
 20
3095.7577882773312
 30
0.0
 11
6379.7016497816248
 21
4545.7577882773312
 31
0.0
  0
LINE
  5
7DDB
  8
1
 10
6379.701649781623
 20
3095.7577882773312
 30
0.0
 11
8279.7016497816257
 21
4545.7577882773303
 31
0.0
  0
LINE
  5
7DDF
  8
1
 10
4301.1714932622854
 20
9777.3574783022395
 30
0.0
 11
4301.1714932622854
 21
7877.3574783022359
 31
0.0
  0
DIMENSION
  5
7DED
  8
3
  2
*D8
 10
8279.7016497816257
 20
5788.4831809868429
 30
0.0
 11
7327.5712580906911
 21
5788.4831809868429
 31
0.0
 70
   128
 13
6379.7016497816248
 23
5574.3415976181532
 33
0.0
 14
8279.7016497816257
 24
5574.3415976181541
 34
0.0
1001
ACAD
1000
DSTYLE
1002
{
1070
   287
1070
     3
1070
   287
1070
     3
1070
    40
1040
45.0
1070
   143
1040
0.039
1070
   172
1070
     1
1070
   271
1070
     0
1070
   279
1070
     0
1070
   288
1070
     1
1002
}
  0
DIMENSION
  5
7E05
  8
3
  2
*D9
 10
7329.7016497816239
 20
6156.4687360675252
 30
0.0
 11
7860.5778784941649
 21
6156.4687360675252
 31
0.0
 70
   128
  1
(<>)
 13
8459.9016497816265
 23
4516.7577882773312
 33
0.0
 14
7329.7016497816239
 24
5977.7357431111786
 34
0.0
1001
ACAD
1000
DSTYLE
1002
{
1070
   287
1070
     3
1070
   287
1070
     3
1070
    40
1040
45.0
1070
   143
1040
0.039
1070
   172
1070
     1
1070
   271
1070
     0
1070
   279
1070
     0
1070
   288
1070
     1
1002
}
  0
DIMENSION
  5
7E11
  8
3
  2
*D10
 10
5960.7016497816257
 20
6156.4687360675252
 30
0.0
 11
6645.2016497816248
 21
6381.4687360675252
 31
0.0
 70
     0
  1
MAX\P1450
 13
7329.7016497816239
 23
5977.7357431111786
 33
0.0
 14
5960.7016497816257
 24
4966.7577882773312
 34
0.0
1001
ACAD
1000
DSTYLE
1002
{
1070
   287
1070
     4
1070
   287
1070
     4
1070
    40
1040
45.0
1070
    75
1070
     1
1070
   143
1040
0.039
1070
   172
1070
     1
1070
   271
1070
     0
1070
   279
1070
     1
1070
   288
1070
     1
1002
}
  0
DIMENSION
  5
7E77
  8
3
  2
*D11
 10
4875.0678769649612
 20
4586.7577882773303
 30
0.0
 11
4875.0678769649603
 21
3781.416753458474
 31
0.0
 70
   128
 13
4351.1714932622854
 23
3095.7577882773312
 33
0.0
 14
4591.4593405940759
 24
4586.7577882773303
 34
0.0
 50
270.0
1001
ACAD
1000
DSTYLE
1002
{
1070
   287
1070
     3
1070
   287
1070
     3
1070
    40
1040
45.0
1070
   143
1040
0.039
1070
   172
1070
     1
1070
   271
1070
     0
1070
   279
1070
     0
1070
   288
1070
     1
1002
}
  0
DIMENSION
  5
7E90
  8
3
  2
*D12
 10
3421.1714932622849
 20
5857.8469610555067
 30
0.0
 11
3940.6312740255962
 21
5857.8469610555067
 31
0.0
 70
   128
 13
4351.1714932622854
 23
4599.7577882773312
 33
0.0
 14
3421.1714932622849
 24
5711.532337836612
 34
0.0
1001
ACAD
1000
DSTYLE
1002
{
1070
   287
1070
     3
1070
   287
1070
     3
1070
    40
1040
45.0
1070
   143
1040
0.039
1070
   172
1070
     1
1070
   271
1070
     0
1070
   279
1070
     0
1070
   288
1070
     1
1002
}
  0
DIMENSION
  5
7EB3
  8
3
  2
*D13
 10
2214.1714932622849
 20
5857.8469610555067
 30
0.0
 11
2817.6714932622849
 21
5970.3469610555076
 31
0.0
 70
     0
 13
3421.1714932622849
 23
5711.532337836612
 33
0.0
 14
2214.1714932622849
 24
4484.7577882773312
 34
0.0
1001
ACAD
1000
DSTYLE
1002
{
1070
   287
1070
     4
1070
   287
1070
     4
1070
    40
1040
45.0
1070
    75
1070
     1
1070
   143
1040
0.039
1070
   172
1070
     1
1070
   271
1070
     0
1070
   279
1070
     1
1070
   288
1070
     1
1002
}
  0
DIMENSION
  5
7EC0
  8
3
  2
*D14
 10
1371.1714932622849
 20
6169.0456826359004
 30
0.0
 11
2895.7475073316382
 21
6169.0456826359004
 31
0.0
 70
   128
 13
4351.1714932622854
 23
4599.7577882773312
 33
0.0
 14
1371.1714932622849
 24
3146.7577882773312
 34
0.0
1001
ACAD
1000
DSTYLE
1002
{
1070
   287
1070
     3
1070
   287
1070
     3
1070
    40
1040
45.0
1070
   143
1040
0.039
1070
   172
1070
     1
1070
   271
1070
     0
1070
   279
1070
     0
1070
   288
1070
     1
1002
}
  0
LINE
  5
7EC3
  8
1
 10
8279.7016497816257
 20
5589.7577882773312
 30
0.0
 11
6379.7016497816257
 21
5589.7577882773312
 31
0.0
  0
DIMENSION
  5
7F01
  8
3
  2
*D15
 10
5146.09535359456
 20
4586.7577882773303
 30
0.0
 11
5146.0953535945591
 21
5100.2949873046382
 31
0.0
 70
   128
 13
3364.1714932622849
 23
5589.7577882773312
 33
0.0
 14
4591.4593405940759
 24
4586.7577882773303
 34
0.0
 50
270.0
1001
ACAD
1000
DSTYLE
1002
{
1070
   287
1070
     3
1070
   287
1070
     3
1070
    40
1040
45.0
1070
   143
1040
0.039
1070
   172
1070
     1
1070
   271
1070
     0
1070
   279
1070
     0
1070
   288
1070
     1
1002
}
  0
DIMENSION
  5
7F0D
  8
3
  2
*D16
 10
5146.0953535945591
 20
2996.7577882773312
 30
0.0
 11
5033.5953535945591
 21
3791.7577882773312
 31
0.0
 70
     0
 13
4591.4593405940759
 23
4586.7577882773303
 33
0.0
 14
4271.1714932622854
 24
2996.7577882773312
 34
0.0
 50
270.0
1001
ACAD
1000
DSTYLE
1002
{
1070
   287
1070
     4
1070
   287
1070
     4
1070
    40
1040
45.0
1070
    75
1070
     1
1070
   143
1040
0.039
1070
   172
1070
     1
1070
   271
1070
     0
1070
   279
1070
     1
1070
   288
1070
     1
1002
}
  0
DIMENSION
  5
7F1D
  8
3
  2
*D17
 10
5146.0953535945591
 20
2976.7577882773312
 30
0.0
 11
5363.1787252513241
 21
3130.082093480818
 31
0.0
 12
6942.0659508439639
 22
0.0
 32
0.0
 70
   128
  1
(<>)
 13
4271.1714932622854
 23
2996.7577882773312
 33
0.0
 14
4271.1714932622854
 24
2976.7577882773312
 34
0.0
 50
270.0
1001
ACAD
1000
DSTYLE
1002
{
1070
   288
1070
     1
1070
   172
1070
     1
1070
    75
1070
     1
1070
    40
1040
45.0
1070
   271
1070
     0
1070
     7
1000
_DOT
1070
   143
1040
0.039
1002
}
  0
DIMENSION
  5
7F2D
  8
3
  2
*D18
 10
5146.0953535945591
 20
2901.7577882773312
 30
0.0
 11
5033.5953535945591
 21
2567.472073991617
 31
0.0
 70
     0
 13
4271.1714932622854
 23
2976.7577882773312
 33
0.0
 14
4271.1714932622854
 24
2901.7577882773312
 34
0.0
 50
270.0
1001
ACAD
1000
DSTYLE
1002
{
1070
   287
1070
     3
1070
   287
1070
     3
1070
    40
1040
45.0
1070
   143
1040
0.039
1070
   172
1070
     1
1070
   271
1070
     0
1070
   279
1070
     0
1070
   288
1070
     1
1070
     6
1000
DOT
1002
}
  0
LINE
  5
80CA
  8
1
 10
6379.701649781623
 20
3095.7577882773312
 30
0.0
 11
8279.7016497816257
 21
3095.7577882773312
 31
0.0
  0
LINE
  5
80CB
  8
1
 10
6379.701649781623
 20
3146.579022556838
 30
0.0
 11
5998.7016497816257
 21
3146.579022556838
 31
0.0
  0
DIMENSION
  5
80D8
  8
3
  2
*D20
 10
3421.171493262284
 20
2612.7808540182159
 30
0.0
 11
2396.1714932622849
 21
2725.280854018215
 31
0.0
 70
     0
 13
1371.1714932622849
 23
2901.7577882773312
 33
0.0
 14
3421.171493262284
 24
2901.7577882773312
 34
0.0
1001
ACAD
1000
DSTYLE
1002
{
1070
   172
1070
     1
1070
    40
1040
45.0
1070
   271
1070
     0
1070
   143
1040
0.039
1002
}
  0
DIMENSION
  5
80E5
  8
3
  2
*D21
 10
4271.1714932622854
 20
2612.7808540182159
 30
0.0
 11
3846.1714932622849
 21
2725.280854018215
 31
0.0
 70
     0
 13
3421.171493262284
 23
2901.7577882773312
 33
0.0
 14
4271.1714932622854
 24
2901.7577882773312
 34
0.0
1001
ACAD
1000
DSTYLE
1002
{
1070
   172
1070
     1
1070
    40
1040
45.0
1070
   271
1070
     0
1070
   143
1040
0.039
1002
}
  0
DIMENSION
  5
80F2
  8
3
  2
*D22
 10
7329.7016497816239
 20
2612.7808540182159
 30
0.0
 11
6664.2016497816257
 21
2725.280854018215
 31
0.0
 70
     0
 13
5998.7016497816257
 23
2901.579022556838
 33
0.0
 14
7329.7016497816239
 24
2901.579022556838
 34
0.0
1001
ACAD
1000
DSTYLE
1002
{
1070
   172
1070
     1
1070
    40
1040
45.0
1070
   271
1070
     0
1070
   143
1040
0.039
1002
}
  0
DIMENSION
  5
80FF
  8
3
  2
*D23
 10
8358.7016497816276
 20
2612.7808540182159
 30
0.0
 11
7844.2016497816248
 21
2725.280854018215
 31
0.0
 70
     0
 13
7329.7016497816239
 23
2901.579022556838
 33
0.0
 14
8358.7016497816276
 24
2901.579022556838
 34
0.0
1001
ACAD
1000
DSTYLE
1002
{
1070
   172
1070
     1
1070
    40
1040
45.0
1070
   271
1070
     0
1070
   143
1040
0.039
1002
}
  0
DIMENSION
  5
810C
  8
3
  2
*D24
 10
5520.5605358044204
 20
5589.6345913644436
 30
0.0
 11
5372.7033929472764
 21
4245.6961898208883
 31
0.0
 70
     0
 13
4271.1714932622854
 23
2901.7577882773312
 33
0.0
 14
3335.6714932622872
 24
5589.6345913644436
 34
0.0
 50
90.0
1001
ACAD
1000
DSTYLE
1002
{
1070
   172
1070
     1
1070
    40
1040
45.0
1070
     3
1000
(<>)
1070
   271
1070
     0
1070
   143
1040
0.039
1002
}
  0
ENDSEC
  0
EOF
