  0
SECTION
  2
HEADER
  9
$ACADVER
  1
AC1009
  9
$INSBASE
 10
0.0
 20
0.0
 30
0.0
  9
$EXTMIN
 10
0.0
 20
0.0
 30
0.0
  9
$EXTMAX
 10
9450.0
 20
13275.0
 30
0.0
  9
$LIMMIN
 10
0.0
 20
0.0
  9
$LIMMAX
 10
297.0
 20
210.0
  9
$ORTHOMODE
 70
     0
  9
$REGENMODE
 70
     1
  9
$FILLMODE
 70
     0
  9
$QTEXTMODE
 70
     0
  9
$MIRRTEXT
 70
     1
  9
$DRAGMODE
 70
     2
  9
$LTSCALE
 40
100.0
  9
$OSMODE
 70
    37
  9
$ATTMODE
 70
     1
  9
$TEXTSIZE
 40
180.0
  9
$TRACEWID
 40
0.05
  9
$TEXTSTYLE
  7
STANDARD
  9
$CLAYER
  8
3
  9
$CELTYPE
  6
BYLAYER
  9
$CECOLOR
 62
   256
  9
$DIMSCALE
 40
45.0
  9
$DIMASZ
 40
2.0
  9
$DIMEXO
 40
0.5
  9
$DIMDLI
 40
10.0
  9
$DIMRND
 40
0.0
  9
$DIMDLE
 40
0.0
  9
$DIMEXE
 40
1.0
  9
$DIMTP
 40
1.0
  9
$DIMTM
 40
1.0
  9
$DIMTXT
 40
3.0
  9
$DIMCEN
 40
0.0
  9
$DIMTSZ
 40
0.0
  9
$DIMTOL
 70
     0
  9
$DIMLIM
 70
     0
  9
$DIMTIH
 70
     0
  9
$DIMTOH
 70
     0
  9
$DIMSE1
 70
     0
  9
$DIMSE2
 70
     0
  9
$DIMTAD
 70
     1
  9
$DIMZIN
 70
     8
  9
$DIMBLK
  1

  9
$DIMASO
 70
     1
  9
$DIMSHO
 70
     1
  9
$DIMPOST
  1

  9
$DIMAPOST
  1

  9
$DIMALT
 70
     0
  9
$DIMALTD
 70
     2
  9
$DIMALTF
 40
0.039
  9
$DIMLFAC
 40
1.0
  9
$DIMTOFL
 70
     1
  9
$DIMTVP
 40
0.0
  9
$DIMTIX
 70
     0
  9
$DIMSOXD
 70
     0
  9
$DIMSAH
 70
     1
  9
$DIMBLK1
  1
OPEN
  9
$DIMBLK2
  1
OPEN
  9
$DIMSTYLE
  2
IGA
  9
$DIMCLRD
 70
     0
  9
$DIMCLRE
 70
     0
  9
$DIMCLRT
 70
     0
  9
$DIMTFAC
 40
10.0
  9
$DIMGAP
 40
1.0
  9
$LUNITS
 70
     2
  9
$LUPREC
 70
     3
  9
$SKETCHINC
 40
0.1
  9
$FILLETRAD
 40
50.0
  9
$AUNITS
 70
     0
  9
$AUPREC
 70
     0
  9
$MENU
  1
acad
  9
$ELEVATION
 40
0.0
  9
$PELEVATION
 40
0.0
  9
$THICKNESS
 40
0.0
  9
$LIMCHECK
 70
     0
  9
$BLIPMODE
 70
     0
  9
$CHAMFERA
 40
0.0
  9
$CHAMFERB
 40
0.0
  9
$SKPOLY
 70
     0
  9
$TDCREATE
 40
2452324.5841967589
  9
$TDUPDATE
 40
2454953.8288910869
  9
$TDINDWG
 40
0.0726855903
  9
$TDUSRTIMER
 40
0.0726855903
  9
$USRTIMER
 70
     1
  9
$ANGBASE
 50
0.0
  9
$ANGDIR
 70
     0
  9
$PDMODE
 70
     0
  9
$PDSIZE
 40
0.0
  9
$PLINEWID
 40
0.0
  9
$COORDS
 70
     1
  9
$SPLFRAME
 70
     0
  9
$SPLINETYPE
 70
     6
  9
$SPLINESEGS
 70
     8
  9
$ATTDIA
 70
     0
  9
$ATTREQ
 70
     1
  9
$HANDLING
 70
 10241
  9
$HANDSEED
  5
820E
  9
$SURFTAB1
 70
     6
  9
$SURFTAB2
 70
     6
  9
$SURFTYPE
 70
     6
  9
$SURFU
 70
     6
  9
$SURFV
 70
     6
  9
$UCSNAME
  2

  9
$UCSORG
 10
0.0
 20
0.0
 30
0.0
  9
$UCSXDIR
 10
1.0
 20
0.0
 30
0.0
  9
$UCSYDIR
 10
0.0
 20
1.0
 30
0.0
  9
$PUCSNAME
  2

  9
$PUCSORG
 10
0.0
 20
0.0
 30
0.0
  9
$PUCSXDIR
 10
1.0
 20
0.0
 30
0.0
  9
$PUCSYDIR
 10
0.0
 20
1.0
 30
0.0
  9
$USERI1
 70
     0
  9
$USERI2
 70
     0
  9
$USERI3
 70
     0
  9
$USERI4
 70
     0
  9
$USERI5
 70
     0
  9
$USERR1
 40
0.0
  9
$USERR2
 40
0.0
  9
$USERR3
 40
0.0
  9
$USERR4
 40
0.0
  9
$USERR5
 40
0.0
  9
$WORLDVIEW
 70
     1
  9
$SHADEDGE
 70
     3
  9
$SHADEDIF
 70
    70
  9
$TILEMODE
 70
     1
  9
$MAXACTVP
 70
    16
  9
$PLIMCHECK
 70
     0
  9
$PEXTMIN
 10
1.0000000000000000E+020
 20
1.0000000000000000E+020
 30
1.0000000000000000E+020
  9
$PEXTMAX
 10
-1.0000000000000000E+020
 20
-1.0000000000000000E+020
 30
-1.0000000000000000E+020
  9
$PLIMMIN
 10
0.0
 20
0.0
  9
$PLIMMAX
 10
12.0
 20
9.0
  9
$UNITMODE
 70
     0
  9
$VISRETAIN
 70
     0
  9
$PLINEGEN
 70
     0
  9
$PSLTSCALE
 70
     1
  0
ENDSEC
  0
SECTION
  2
TABLES
  0
TABLE
  2
VPORT
 70
     2
  0
VPORT
  2
*ACTIVE
 70
     0
 10
0.0
 20
0.0
 11
1.0
 21
1.0
 12
13562.960954446849
 22
9011.2450861320631
 13
0.0
 23
0.0
 14
10.0
 24
10.0
 15
10.0
 25
10.0
 16
0.0
 26
0.0
 36
1.0
 17
0.0
 27
0.0
 37
0.0
 40
18022.490172264119
 41
1.5051150895140659
 42
50.0
 43
0.0
 44
0.0
 50
0.0
 51
0.0
 71
     0
 72
   100
 73
     1
 74
     0
 75
     0
 76
     0
 77
     0
 78
     0
  0
ENDTAB
  0
TABLE
  2
LTYPE
 70
     2
  0
LTYPE
  2
CONTINUOUS
 70
     0
  3
Solid line
 72
    65
 73
     0
 40
0.0
  0
LTYPE
  2
CENTER
 70
     0
  3
____ _ ____ _ ____ _ ____ _ ____ _ ____ _ ____ 
 72
    65
 73
     4
 40
2.0
 49
1.25
 49
-0.25
 49
0.25
 49
-0.25
  0
ENDTAB
  0
TABLE
  2
LAYER
 70
     6
  0
LAYER
  2
0
 70
     0
 62
     7
  6
CONTINUOUS
  0
LAYER
  2
3
 70
     0
 62
     2
  6
CONTINUOUS
  0
LAYER
  2
2
 70
     0
 62
     3
  6
CENTER
  0
LAYER
  2
1
 70
     0
 62
     4
  6
CONTINUOUS
  0
LAYER
  2
4
 70
     0
 62
     7
  6
CONTINUOUS
  0
LAYER
  2
DEFPOINTS
 70
     0
 62
     7
  6
CONTINUOUS
  0
ENDTAB
  0
TABLE
  2
STYLE
 70
     1
  0
STYLE
  2
STANDARD
 70
     0
 40
0.0
 41
1.0
 50
0.0
 71
     0
 42
180.0
  3
simplex.shx
  4
extfont.shx
  0
ENDTAB
  0
TABLE
  2
VIEW
 70
     0
  0
ENDTAB
  0
TABLE
  2
UCS
 70
     0
  0
ENDTAB
  0
TABLE
  2
APPID
 70
     1
  0
APPID
  2
ACAD
 70
     0
  0
ENDTAB
  0
TABLE
  2
DIMSTYLE
 70
     1
  0
DIMSTYLE
  2
IGA
 70
     0
  3

  4

  5

  6
OPEN
  7
OPEN
 40
2.0
 41
2.0
 42
0.5
 43
10.0
 44
1.0
 45
0.0
 46
0.0
 47
1.0
 48
1.0
140
3.0
141
0.0
142
0.0
143
0.03937
144
1.0
145
0.0
146
10.0
147
1.0
 71
     0
 72
     0
 73
     0
 74
     0
 75
     0
 76
     0
 77
     1
 78
     8
170
     0
171
     2
172
     0
173
     1
174
     0
175
     0
176
     0
177
     0
178
     0
  0
ENDTAB
  0
ENDSEC
  0
SECTION
  2
BLOCKS
  0
BLOCK
  8
0
  2
$MODEL_SPACE
 70
     0
 10
0.0
 20
0.0
 30
0.0
  3
$MODEL_SPACE
  1

  0
ENDBLK
  5
1B
  8
0
  0
BLOCK
 67
     1
  8
0
  2
$PAPER_SPACE
 70
     0
 10
0.0
 20
0.0
 30
0.0
  3
$PAPER_SPACE
  1

  0
ENDBLK
  5
18
 67
     1
  8
0
  0
BLOCK
  8
0
  2
_OPEN
 70
     0
 10
0.0
 20
0.0
 30
0.0
  3
_OPEN
  1

  0
LINE
  5
79FD
  8
0
  6
BYBLOCK
 62
     0
 10
-1.0
 20
0.1666666666666666
 30
0.0
 11
0.0
 21
0.0
 31
0.0
  0
LINE
  5
79FE
  8
0
  6
BYBLOCK
 62
     0
 10
0.0
 20
0.0
 30
0.0
 11
-1.0
 21
-0.1666666666666666
 31
0.0
  0
LINE
  5
79FF
  8
0
  6
BYBLOCK
 62
     0
 10
0.0
 20
0.0
 30
0.0
 11
-1.0
 21
0.0
 31
0.0
  0
ENDBLK
  5
7A01
  8
0
  0
BLOCK
  8
0
  2
*D1
 70
     1
 10
0.0
 20
0.0
 30
0.0
  3
*D1
  1

  0
LINE
  5
8178
  8
3
 62
     0
 10
8098.6602122445229
 20
4866.9965571829498
 30
0.0
 11
8562.496371420204
 21
4866.9965571829498
 31
0.0
  0
LINE
  5
8179
  8
3
 62
     0
 10
8098.6602122445229
 20
3466.9965571829498
 30
0.0
 11
8562.4963714202022
 21
3466.9965571829498
 31
0.0
  0
LINE
  5
817A
  8
3
 62
     0
 10
8517.496371420204
 20
4776.9965571829498
 30
0.0
 11
8517.4963714202022
 21
3556.9965571829498
 31
0.0
  0
INSERT
  5
817B
  8
3
 62
     0
  2
_OPEN
 10
8517.496371420204
 20
4866.9965571829498
 30
0.0
 41
90.0
 42
90.0
 43
90.0
 50
90.0
  0
INSERT
  5
817C
  8
3
 62
     0
  2
_OPEN
 10
8517.4963714202022
 20
3466.9965571829498
 30
0.0
 41
90.0
 42
90.0
 43
90.0
 50
270.0
  0
TEXT
  8
3
  40
135
  5
81FE
  62
0
  72
0
  71
0
 10
8135.00
 20
3901.52
 30
0.000000
  1
φ1400
  0
POINT
  5
817E
  8
DEFPOINTS
 62
     0
 10
8076.160212244522
 20
4866.9965571829498
 30
0.0
  0
POINT
  5
817F
  8
DEFPOINTS
 62
     0
 10
8076.160212244522
 20
3466.9965571829498
 30
0.0
  0
POINT
  5
8180
  8
DEFPOINTS
 62
     0
 10
8517.4963714202022
 20
3466.9965571829498
 30
0.0
  0
ENDBLK
  5
7BDE
  8
0
  0
BLOCK
  8
0
  2
*D2
 70
     1
 10
0.0
 20
0.0
 30
0.0
  3
*D2
  1

  0
LINE
  5
8181
  8
3
 62
     0
 10
4129.2920851505978
 20
9459.0962472078554
 30
0.0
 11
4129.2920851505978
 21
9770.3632812756696
 31
0.0
  0
LINE
  5
8182
  8
3
 62
     0
 10
2429.2920851505978
 20
9459.0962472078554
 30
0.0
 11
2429.2920851505978
 21
9770.3632812756696
 31
0.0
  0
LINE
  5
8183
  8
3
 62
     0
 10
4039.2920851505992
 20
9725.3632812756696
 30
0.0
 11
2519.2920851505992
 21
9725.3632812756696
 31
0.0
  0
INSERT
  5
8184
  8
3
 62
     0
  2
_OPEN
 10
4129.2920851505978
 20
9725.3632812756696
 30
0.0
 41
90.0
 42
90.0
 43
90.0
  0
INSERT
  5
8185
  8
3
 62
     0
  2
_OPEN
 10
2429.2920851505978
 20
9725.3632812756696
 30
0.0
 41
90.0
 42
90.0
 43
90.0
 50
180.0
  0
TEXT
  8
3
  40
135
  5
81FF
  62
0
  72
0
  71
0
 10
3006.85
 20
9598.91
 30
0.000000
  1
1700
  0
POINT
  5
8187
  8
DEFPOINTS
 62
     0
 10
4129.2920851505978
 20
9436.5962472078554
 30
0.0
  0
POINT
  5
8188
  8
DEFPOINTS
 62
     0
 10
2429.2920851505978
 20
9436.5962472078554
 30
0.0
  0
POINT
  5
8189
  8
DEFPOINTS
 62
     0
 10
2429.2920851505978
 20
9725.3632812756696
 30
0.0
  0
ENDBLK
  5
7EDE
  8
0
  0
BLOCK
  8
0
  2
*D3
 70
     1
 10
0.0
 20
0.0
 30
0.0
  3
*D3
  1

  0
LINE
  5
818A
  8
3
 62
     0
 10
1229.292085150598
 20
8199.0962472078554
 30
0.0
 11
1229.292085150598
 21
9770.3632812756696
 31
0.0
  0
LINE
  5
818B
  8
3
 62
     0
 10
2339.2920851505978
 20
9725.3632812756696
 30
0.0
 11
1319.292085150598
 21
9725.3632812756696
 31
0.0
  0
INSERT
  5
818C
  8
3
 62
     0
  2
_OPEN
 10
2429.2920851505978
 20
9725.3632812756696
 30
0.0
 41
90.0
 42
90.0
 43
90.0
  0
INSERT
  5
818D
  8
3
 62
     0
  2
_OPEN
 10
1229.292085150598
 20
9725.3632812756696
 30
0.0
 41
90.0
 42
90.0
 43
90.0
 50
180.0
  0
TEXT
  8
3
  40
135
  5
8200
  62
0
  72
0
  71
0
 10
1559.29
 20
9598.91
 30
0.000000
  1
1200
  0
POINT
  5
818F
  8
DEFPOINTS
 62
     0
 10
2429.2920851505978
 20
9436.5962472078554
 30
0.0
  0
POINT
  5
8190
  8
DEFPOINTS
 62
     0
 10
1229.292085150598
 20
8176.5962472078554
 30
0.0
  0
POINT
  5
8191
  8
DEFPOINTS
 62
     0
 10
1229.292085150598
 20
9725.3632812756696
 30
0.0
  0
ENDBLK
  5
7EF3
  8
0
  0
BLOCK
  8
0
  2
*D4
 70
     1
 10
0.0
 20
0.0
 30
0.0
  3
*D4
  1

  0
LINE
  5
8192
  8
3
 62
     0
 10
1206.792085150598
 20
8176.5962472078554
 30
0.0
 11
742.63104649749721
 21
8176.5962472078554
 31
0.0
  0
LINE
  5
8193
  8
3
 62
     0
 10
1206.792085150598
 20
7076.5962472078563
 30
0.0
 11
742.63104649749687
 21
7076.5962472078563
 31
0.0
  0
LINE
  5
8194
  8
3
 62
     0
 10
787.63104649749721
 20
8086.5962472078563
 30
0.0
 11
787.63104649749687
 21
7166.5962472078563
 31
0.0
  0
INSERT
  5
8195
  8
3
 62
     0
  2
_OPEN
 10
787.63104649749721
 20
8176.5962472078554
 30
0.0
 41
90.0
 42
90.0
 43
90.0
 50
90.0
  0
INSERT
  5
8196
  8
3
 62
     0
  2
_OPEN
 10
787.63104649749687
 20
7076.5962472078563
 30
0.0
 41
90.0
 42
90.0
 43
90.0
 50
270.0
  0
TEXT
  8
3
  40
135
  5
8201
  62
0
  72
0
  71
0
 10
405.131
 20
7387.87
 30
0.000000
  1
1100
  0
POINT
  5
8198
  8
DEFPOINTS
 62
     0
 10
1229.292085150598
 20
8176.5962472078554
 30
0.0
  0
POINT
  5
8199
  8
DEFPOINTS
 62
     0
 10
1229.292085150598
 20
7076.5962472078563
 30
0.0
  0
POINT
  5
819A
  8
DEFPOINTS
 62
     0
 10
787.63104649749687
 20
7076.5962472078563
 30
0.0
  0
ENDBLK
  5
7EFE
  8
0
  0
BLOCK
  8
0
  2
*D5
 70
     1
 10
0.0
 20
0.0
 30
0.0
  3
*D5
  1

  0
LINE
  5
819B
  8
3
 62
     0
 10
4151.7920851505978
 20
9436.5962472078554
 30
0.0
 11
4544.2388402134166
 21
9436.5962472078554
 31
0.0
  0
LINE
  5
819C
  8
3
 62
     0
 10
4151.7920851505978
 20
7076.5962472078563
 30
0.0
 11
4544.2388402134166
 21
7076.5962472078563
 31
0.0
  0
LINE
  5
819D
  8
3
 62
     0
 10
4499.2388402134184
 20
9346.5962472078554
 30
0.0
 11
4499.2388402134184
 21
7166.5962472078563
 31
0.0
  0
INSERT
  5
819E
  8
3
 62
     0
  2
_OPEN
 10
4499.2388402134184
 20
9436.5962472078554
 30
0.0
 41
90.0
 42
90.0
 43
90.0
 50
90.0
  0
INSERT
  5
819F
  8
3
 62
     0
  2
_OPEN
 10
4499.2388402134184
 20
7076.5962472078563
 30
0.0
 41
90.0
 42
90.0
 43
90.0
 50
270.0
  0
TEXT
  8
3
  40
135
  5
8202
  62
0
  72
0
  71
0
 10
4116.74
 20
7976.35
 30
0.000000
  1
2360
  0
POINT
  5
81A1
  8
DEFPOINTS
 62
     0
 10
4129.2920851505978
 20
9436.5962472078554
 30
0.0
  0
POINT
  5
81A2
  8
DEFPOINTS
 62
     0
 10
4129.2920851505978
 20
7076.5962472078563
 30
0.0
  0
POINT
  5
81A3
  8
DEFPOINTS
 62
     0
 10
4499.2388402134184
 20
7076.5962472078563
 30
0.0
  0
ENDBLK
  5
7EE9
  8
0
  0
BLOCK
  8
0
  2
*D6
 70
     1
 10
0.0
 20
0.0
 30
0.0
  3
*D6
  1

  0
LINE
  5
81A4
  8
3
 62
     0
 10
4129.2920851505978
 20
7054.0962472078563
 30
0.0
 11
4129.2920851505978
 21
6571.4034622795371
 31
0.0
  0
LINE
  5
81A5
  8
3
 62
     0
 10
1229.292085150598
 20
7054.0962472078563
 30
0.0
 11
1229.292085150598
 21
6571.4034622795371
 31
0.0
  0
LINE
  5
81A6
  8
3
 62
     0
 10
4039.2920851505992
 20
6616.4034622795371
 30
0.0
 11
1319.292085150598
 21
6616.4034622795371
 31
0.0
  0
INSERT
  5
81A7
  8
3
 62
     0
  2
_OPEN
 10
4129.2920851505978
 20
6616.4034622795371
 30
0.0
 41
90.0
 42
90.0
 43
90.0
  0
INSERT
  5
81A8
  8
3
 62
     0
  2
_OPEN
 10
1229.292085150598
 20
6616.4034622795371
 30
0.0
 41
90.0
 42
90.0
 43
90.0
 50
180.0
  0
TEXT
  8
3
  40
135
  5
8203
  62
0
  72
0
  71
0
 10
2495.67
 20
6489.95
 30
0.000000
  1
2900
  0
POINT
  5
81AA
  8
DEFPOINTS
 62
     0
 10
4129.2920851505978
 20
7076.5962472078563
 30
0.0
  0
POINT
  5
81AB
  8
DEFPOINTS
 62
     0
 10
1229.292085150598
 20
7076.5962472078563
 30
0.0
  0
POINT
  5
81AC
  8
DEFPOINTS
 62
     0
 10
1229.292085150598
 20
6616.4034622795371
 30
0.0
  0
ENDBLK
  5
7E5A
  8
0
  0
BLOCK
  8
0
  2
*D7
 70
     1
 10
0.0
 20
0.0
 30
0.0
  3
*D7
  1

  0
LINE
  5
81AD
  8
3
 62
     0
 10
4209.2920851505987
 20
5734.4965571829498
 30
0.0
 11
4209.2920851505987
 21
5963.7725373309513
 31
0.0
  0
LINE
  5
81AE
  8
3
 62
     0
 10
3279.2920851505992
 20
5745.9338445943467
 30
0.0
 11
3279.2920851505992
 21
5963.7725373309513
 31
0.0
  0
LINE
  5
81AF
  8
3
 62
     0
 10
4119.2920851505987
 20
5918.7725373309513
 30
0.0
 11
3369.2920851505992
 21
5918.7725373309513
 31
0.0
  0
INSERT
  5
81B0
  8
3
 62
     0
  2
_OPEN
 10
4209.2920851505987
 20
5918.7725373309513
 30
0.0
 41
90.0
 42
90.0
 43
90.0
  0
INSERT
  5
81B1
  8
3
 62
     0
  2
_OPEN
 10
3279.2920851505992
 20
5918.7725373309513
 30
0.0
 41
90.0
 42
90.0
 43
90.0
 50
180.0
  0
TEXT
  8
3
  40
135
  5
8204
  62
0
  72
0
  71
0
 10
3453.74
 20
5792.32
 30
0.000000
  1
930
  0
POINT
  5
81B3
  8
DEFPOINTS
 62
     0
 10
4209.2920851505987
 20
5711.9965571829507
 30
0.0
  0
POINT
  5
81B4
  8
DEFPOINTS
 62
     0
 10
3279.2920851505992
 20
5723.4338445943467
 30
0.0
  0
POINT
  5
81B5
  8
DEFPOINTS
 62
     0
 10
3279.2920851505992
 20
5918.7725373309513
 30
0.0
  0
ENDBLK
  5
7E65
  8
0
  0
BLOCK
  8
0
  2
*D8
 70
     1
 10
0.0
 20
0.0
 30
0.0
  3
*D8
  1

  0
LINE
  5
81B6
  8
3
 62
     0
 10
4231.7920851505987
 20
5657.9965571829507
 30
0.0
 11
4530.3222508206018
 21
5657.9965571829507
 31
0.0
  0
LINE
  5
81B7
  8
3
 62
     0
 10
4231.7920851505987
 20
4207.9965571829498
 30
0.0
 11
4530.3222508206018
 21
4207.9965571829498
 31
0.0
  0
LINE
  5
81B8
  8
3
 62
     0
 10
4485.3222508206027
 20
5567.9965571829507
 30
0.0
 11
4485.3222508206027
 21
4297.9965571829498
 31
0.0
  0
INSERT
  5
81B9
  8
3
 62
     0
  2
_OPEN
 10
4485.3222508206027
 20
5657.9965571829507
 30
0.0
 41
90.0
 42
90.0
 43
90.0
 50
90.0
  0
INSERT
  5
81BA
  8
3
 62
     0
  2
_OPEN
 10
4485.3222508206027
 20
4207.9965571829498
 30
0.0
 41
90.0
 42
90.0
 43
90.0
 50
270.0
  0
TEXT
  8
3
  40
135
  5
8205
  62
0
  72
0
  71
0
 10
4102.82
 20
4720.30
 30
0.000000
  1
1450
  0
POINT
  5
81BC
  8
DEFPOINTS
 62
     0
 10
4209.2920851505987
 20
5657.9965571829507
 30
0.0
  0
POINT
  5
81BD
  8
DEFPOINTS
 62
     0
 10
4209.2920851505987
 20
4207.9965571829498
 30
0.0
  0
POINT
  5
81BE
  8
DEFPOINTS
 62
     0
 10
4485.3222508206027
 20
4207.9965571829498
 30
0.0
  0
ENDBLK
  5
7E9D
  8
0
  0
BLOCK
  8
0
  2
*D9
 70
     1
 10
0.0
 20
0.0
 30
0.0
  3
*D9
  1

  0
LINE
  5
81BF
  8
3
 62
     0
 10
4231.7920851505987
 20
5657.9965571829507
 30
0.0
 11
4774.8355095335146
 21
5657.9965571829507
 31
0.0
  0
LINE
  5
81C0
  8
3
 62
     0
 10
4472.0799324823893
 20
4166.9965571829498
 30
0.0
 11
4774.8355095335146
 21
4166.9965571829498
 31
0.0
  0
LINE
  5
81C1
  8
3
 62
     0
 10
4729.8355095335137
 20
5567.9965571829507
 30
0.0
 11
4729.8355095335137
 21
4256.9965571829498
 31
0.0
  0
INSERT
  5
81C2
  8
3
 62
     0
  2
_OPEN
 10
4729.8355095335137
 20
5657.9965571829507
 30
0.0
 41
90.0
 42
90.0
 43
90.0
 50
90.0
  0
INSERT
  5
81C3
  8
3
 62
     0
  2
_OPEN
 10
4729.8355095335137
 20
4166.9965571829498
 30
0.0
 41
90.0
 42
90.0
 43
90.0
 50
270.0
  0
TEXT
  8
3
  40
135
  5
8206
  62
0
  72
0
  71
0
 10
4347.34
 20
4712.66
 30
0.000000
  1
1491
  0
POINT
  5
81C5
  8
DEFPOINTS
 62
     0
 10
4209.2920851505987
 20
5657.9965571829507
 30
0.0
  0
POINT
  5
81C6
  8
DEFPOINTS
 62
     0
 10
4449.5799324823893
 20
4166.9965571829498
 30
0.0
  0
POINT
  5
81C7
  8
DEFPOINTS
 62
     0
 10
4729.8355095335137
 20
4166.9965571829498
 30
0.0
  0
ENDBLK
  5
7EA8
  8
0
  0
BLOCK
  8
0
  2
*D10
 70
     1
 10
0.0
 20
0.0
 30
0.0
  3
*D10
  1

  0
LINE
  5
81C8
  8
3
 62
     0
 10
4151.7920851505978
 20
3126.9965571829498
 30
0.0
 11
4774.8355095335128
 21
3126.9965571829498
 31
0.0
  0
LINE
  5
81C9
  8
3
 62
     0
 10
4729.8355095335137
 20
4076.9965571829498
 30
0.0
 11
4729.8355095335137
 21
3216.9965571829498
 31
0.0
  0
INSERT
  5
81CA
  8
3
 62
     0
  2
_OPEN
 10
4729.8355095335137
 20
4166.9965571829498
 30
0.0
 41
90.0
 42
90.0
 43
90.0
 50
90.0
  0
INSERT
  5
81CB
  8
3
 62
     0
  2
_OPEN
 10
4729.8355095335137
 20
3126.9965571829498
 30
0.0
 41
90.0
 42
90.0
 43
90.0
 50
270.0
  0
TEXT
  8
3
  40
135
  5
8207
  62
0
  72
0
  71
0
 10
4347.34
 20
3408.05
 30
0.000000
  1
1040
  0
POINT
  5
81CD
  8
DEFPOINTS
 62
     0
 10
4449.5799324823893
 20
4166.9965571829498
 30
0.0
  0
POINT
  5
81CE
  8
DEFPOINTS
 62
     0
 10
4129.2920851505978
 20
3126.9965571829498
 30
0.0
  0
POINT
  5
81CF
  8
DEFPOINTS
 62
     0
 10
4729.8355095335137
 20
3126.9965571829498
 30
0.0
  0
ENDBLK
  5
7EB2
  8
0
  0
BLOCK
  8
0
  2
_DOT
 70
     0
 10
0.0
 20
0.0
 30
0.0
  3
_DOT
  1

  0
LINE
  5
7E31
  8
0
  6
BYBLOCK
 62
     0
 10
0.0
 20
0.0
 30
0.0
 11
-1.0
 21
-0.0000000000000284
 31
0.0
  0
POLYLINE
  5
7E32
  8
0
  6
BYBLOCK
 62
     0
 66
     1
 10
0.0
 20
0.0
 30
0.0
 70
     1
 40
0.1666666666666666
 41
0.1666666666666666
  0
VERTEX
  5
81FB
  8
0
  6
BYBLOCK
 62
     0
 10
-0.0833333333333286
 20
-0.0000000000000284
 30
0.0
 42
1.0
  0
VERTEX
  5
81FC
  8
0
  6
BYBLOCK
 62
     0
 10
0.0833333333333286
 20
-0.0000000000000284
 30
0.0
 42
1.0
  0
SEQEND
  5
81FD
  8
0
  6
BYBLOCK
 62
     0
  0
ENDBLK
  5
7D63
  8
0
  0
BLOCK
  8
0
  2
*D12
 70
     1
 10
0.0
 20
0.0
 30
0.0
  3
*D12
  1

  0
LINE
  5
81D0
  8
3
 62
     0
 10
2072.2920851505978
 20
4291.4965571829498
 30
0.0
 11
2072.2920851505978
 21
5963.7725373309513
 31
0.0
  0
LINE
  5
81D1
  8
3
 62
     0
 10
3189.2920851505992
 20
5918.7725373309513
 30
0.0
 11
2162.2920851505978
 21
5918.7725373309513
 31
0.0
  0
INSERT
  5
81D2
  8
3
 62
     0
  2
_OPEN
 10
3279.2920851505992
 20
5918.7725373309513
 30
0.0
 41
90.0
 42
90.0
 43
90.0
  0
INSERT
  5
81D3
  8
3
 62
     0
  2
_OPEN
 10
2072.2920851505978
 20
5918.7725373309513
 30
0.0
 41
90.0
 42
90.0
 43
90.0
 50
180.0
  0
TEXT
  8
3
  40
135
  5
8208
  62
0
  72
0
  71
0
 10
2405.79
 20
5792.32
 30
0.000000
  1
1207
  0
POINT
  5
81D5
  8
DEFPOINTS
 62
     0
 10
3279.2920851505992
 20
5723.4338445943467
 30
0.0
  0
POINT
  5
81D6
  8
DEFPOINTS
 62
     0
 10
2072.2920851505978
 20
4268.9965571829498
 30
0.0
  0
POINT
  5
81D7
  8
DEFPOINTS
 62
     0
 10
2072.2920851505978
 20
5918.7725373309513
 30
0.0
  0
ENDBLK
  5
7ED3
  8
0
  0
BLOCK
  8
0
  2
*D13
 70
     1
 10
0.0
 20
0.0
 30
0.0
  3
*D13
  1

  0
LINE
  5
81D8
  8
3
 62
     0
 10
4209.2920851505987
 20
5734.4965571829498
 30
0.0
 11
4209.2920851505987
 21
6231.2360405014624
 31
0.0
  0
LINE
  5
81D9
  8
3
 62
     0
 10
1229.292085150598
 20
3299.4965571829512
 30
0.0
 11
1229.292085150599
 21
6231.2360405014624
 31
0.0
  0
LINE
  5
81DA
  8
3
 62
     0
 10
4119.2920851505987
 20
6186.2360405014624
 30
0.0
 11
1319.292085150599
 21
6186.2360405014624
 31
0.0
  0
INSERT
  5
81DB
  8
3
 62
     0
  2
_OPEN
 10
4209.2920851505987
 20
6186.2360405014624
 30
0.0
 41
90.0
 42
90.0
 43
90.0
  0
INSERT
  5
81DC
  8
3
 62
     0
  2
_OPEN
 10
1229.292085150599
 20
6186.2360405014624
 30
0.0
 41
90.0
 42
90.0
 43
90.0
 50
180.0
  0
TEXT
  8
3
  40
135
  5
8209
  62
0
  72
0
  71
0
 10
2466.91
 20
6059.79
 30
0.000000
  1
2980
  0
POINT
  5
81DE
  8
DEFPOINTS
 62
     0
 10
4209.2920851505987
 20
5711.9965571829507
 30
0.0
  0
POINT
  5
81DF
  8
DEFPOINTS
 62
     0
 10
1229.292085150598
 20
3276.9965571829498
 30
0.0
  0
POINT
  5
81E0
  8
DEFPOINTS
 62
     0
 10
1229.292085150599
 20
6186.2360405014624
 30
0.0
  0
ENDBLK
  5
7E7B
  8
0
  0
BLOCK
  8
0
  2
*D14
 70
     1
 10
0.0
 20
0.0
 30
0.0
  3
*D14
  1

  0
LINE
  5
81E1
  8
3
 62
     0
 10
6176.1602122445211
 20
5680.4965571829507
 30
0.0
 11
6176.1602122445211
 21
5917.1381405516413
 31
0.0
  0
LINE
  5
81E2
  8
3
 62
     0
 10
8076.160212244522
 20
5680.4965571829507
 30
0.0
 11
8076.160212244522
 21
5917.1381405516413
 31
0.0
  0
LINE
  5
81E3
  8
3
 62
     0
 10
6266.1602122445211
 20
5872.1381405516413
 30
0.0
 11
7986.1602122445202
 21
5872.1381405516413
 31
0.0
  0
INSERT
  5
81E4
  8
3
 62
     0
  2
_OPEN
 10
6176.1602122445211
 20
5872.1381405516413
 30
0.0
 41
90.0
 42
90.0
 43
90.0
 50
180.0
  0
INSERT
  5
81E5
  8
3
 62
     0
  2
_OPEN
 10
8076.160212244522
 20
5872.1381405516413
 30
0.0
 41
90.0
 42
90.0
 43
90.0
  0
TEXT
  8
3
  40
135
  5
820A
  62
0
  72
0
  71
0
 10
6854.03
 20
5745.69
 30
0.000000
  1
1900
  0
POINT
  5
81E7
  8
DEFPOINTS
 62
     0
 10
6176.1602122445211
 20
5657.9965571829507
 30
0.0
  0
POINT
  5
81E8
  8
DEFPOINTS
 62
     0
 10
8076.160212244522
 20
5657.9965571829516
 30
0.0
  0
POINT
  5
81E9
  8
DEFPOINTS
 62
     0
 10
8076.160212244522
 20
5872.1381405516413
 30
0.0
  0
ENDBLK
  5
7DF8
  8
0
  0
BLOCK
  8
0
  2
*D15
 70
     1
 10
0.0
 20
0.0
 30
0.0
  3
*D15
  1

  0
LINE
  5
81EA
  8
3
 62
     0
 10
8256.3602122445209
 20
4119.4965571829507
 30
0.0
 11
8256.3602122445209
 21
6285.1236956323219
 31
0.0
  0
LINE
  5
81EB
  8
3
 62
     0
 10
7126.1602122445211
 20
6083.8907026759771
 30
0.0
 11
7126.1602122445211
 21
6285.1236956323219
 31
0.0
  0
LINE
  5
81EC
  8
3
 62
     0
 10
8166.3602122445209
 20
6240.1236956323228
 30
0.0
 11
7216.1602122445211
 21
6240.1236956323228
 31
0.0
  0
INSERT
  5
81ED
  8
3
 62
     0
  2
_OPEN
 10
8256.3602122445209
 20
6240.1236956323228
 30
0.0
 41
90.0
 42
90.0
 43
90.0
  0
INSERT
  5
81EE
  8
3
 62
     0
  2
_OPEN
 10
7126.1602122445211
 20
6240.1236956323228
 30
0.0
 41
90.0
 42
90.0
 43
90.0
 50
180.0
  0
TEXT
  8
3
  40
135
  5
820B
  62
0
  72
0
  71
0
 10
7387.04
 20
6149.03
 30
0.000000
  1
(1130)
  0
POINT
  5
81F0
  8
DEFPOINTS
 62
     0
 10
8256.3602122445209
 20
4096.9965571829498
 30
0.0
  0
POINT
  5
81F1
  8
DEFPOINTS
 62
     0
 10
7126.1602122445211
 20
6061.3907026759771
 30
0.0
  0
POINT
  5
81F2
  8
DEFPOINTS
 62
     0
 10
7126.1602122445211
 20
6240.1236956323228
 30
0.0
  0
ENDBLK
  5
7F13
  8
0
  0
BLOCK
  8
0
  2
*D16
 70
     1
 10
0.0
 20
0.0
 30
0.0
  3
*D16
  1

  0
LINE
  5
81F3
  8
3
 62
     0
 10
5757.160212244522
 20
4569.4965571829498
 30
0.0
 11
5757.160212244522
 21
6285.1236956323219
 31
0.0
  0
LINE
  5
81F4
  8
3
 62
     0
 10
7036.1602122445211
 20
6240.1236956323228
 30
0.0
 11
5847.160212244522
 21
6240.1236956323228
 31
0.0
  0
INSERT
  5
81F5
  8
3
 62
     0
  2
_OPEN
 10
7126.1602122445211
 20
6240.1236956323228
 30
0.0
 41
90.0
 42
90.0
 43
90.0
  0
INSERT
  5
81F6
  8
3
 62
     0
  2
_OPEN
 10
5757.160212244522
 20
6240.1236956323228
 30
0.0
 41
90.0
 42
90.0
 43
90.0
 50
180.0
  0
TEXT
  8
3
  40
135
  5
820C
  62
0
  72
0
  71
0
 10
6171.66
 20
6226.17
 30
0.000000
  1
MAX
  0
TEXT
  8
3
  40
135
  5
820D
  62
0
  72
0
  71
0
 10
6171.66
 20
6050.67
 30
0.000000
  1
1450
  0
POINT
  5
81F8
  8
DEFPOINTS
 62
     0
 10
7126.1602122445211
 20
6061.3907026759771
 30
0.0
  0
POINT
  5
81F9
  8
DEFPOINTS
 62
     0
 10
5757.160212244522
 20
4546.9965571829498
 30
0.0
  0
POINT
  5
81FA
  8
DEFPOINTS
 62
     0
 10
5757.160212244522
 20
6240.1236956323228
 30
0.0
  0
ENDBLK
  5
7E4B
  8
0
  0
BLOCK
  8
0
  2
_NONE
 70
     0
 10
0.0
 20
0.0
 30
0.0
  3
_NONE
  1

  0
CIRCLE
  5
7F5A
  8
0
  6
BYBLOCK
 62
     0
 10
0.0
 20
0.0
 30
0.0
 40
0.25
  0
ENDBLK
  5
7F5B
  8
0
  0
BLOCK
  8
0
  2
*D18
 70
     1
 10
0.0
 20
0.0
 30
0.0
  3
*D18
  1

  0
LINE
  5
7FBF
  8
0
  6
BYBLOCK
 62
     0
 10
1229.292085150598
 20
3104.4965571829512
 30
0.0
 11
1229.292085150598
 21
2797.87106231703
 31
0.0
  0
LINE
  5
7FC0
  8
0
  6
BYBLOCK
 62
     0
 10
3279.2920851505992
 20
3104.4965571829512
 30
0.0
 11
3279.2920851505992
 21
2797.87106231703
 31
0.0
  0
LINE
  5
7FC1
  8
0
  6
BYBLOCK
 62
     0
 10
1319.292085150598
 20
2842.87106231703
 30
0.0
 11
3189.2920851505992
 21
2842.87106231703
 31
0.0
  0
INSERT
  5
7FC2
  8
0
  6
BYBLOCK
 62
     0
  2
_OPEN
 10
1229.292085150598
 20
2842.87106231703
 30
0.0
 41
90.0
 42
90.0
 43
90.0
 50
180.0
  0
INSERT
  5
7FC3
  8
0
  6
BYBLOCK
 62
     0
  2
_OPEN
 10
3279.2920851505992
 20
2842.87106231703
 30
0.0
 41
90.0
 42
90.0
 43
90.0
  0
TEXT
  5
7FC4
  8
3
 62
     0
 10
2016.4349422934549
 20
2887.87106231703
 30
0.0
 40
135.0
  1
2050
  0
POINT
  5
7FC5
  8
DEFPOINTS
  6
BYBLOCK
 62
     0
 10
1229.292085150598
 20
3126.9965571829498
 30
0.0
  0
POINT
  5
7FC6
  8
DEFPOINTS
  6
BYBLOCK
 62
     0
 10
3279.2920851505992
 20
3126.9965571829512
 30
0.0
  0
POINT
  5
7FC7
  8
DEFPOINTS
  6
BYBLOCK
 62
     0
 10
3279.2920851505992
 20
2842.87106231703
 30
0.0
  0
ENDBLK
  5
7FC8
  8
0
  0
BLOCK
  8
0
  2
*D19
 70
     1
 10
0.0
 20
0.0
 30
0.0
  3
*D19
  1

  0
LINE
  5
7FCC
  8
0
  6
BYBLOCK
 62
     0
 10
3279.2920851505992
 20
3104.4965571829512
 30
0.0
 11
3279.2920851505992
 21
2797.87106231703
 31
0.0
  0
LINE
  5
7FCD
  8
0
  6
BYBLOCK
 62
     0
 10
4129.2920851505978
 20
3104.4965571829512
 30
0.0
 11
4129.2920851505978
 21
2797.87106231703
 31
0.0
  0
LINE
  5
7FCE
  8
0
  6
BYBLOCK
 62
     0
 10
3369.2920851505992
 20
2842.87106231703
 30
0.0
 11
4039.2920851505992
 21
2842.87106231703
 31
0.0
  0
INSERT
  5
7FCF
  8
0
  6
BYBLOCK
 62
     0
  2
_OPEN
 10
3279.2920851505992
 20
2842.87106231703
 30
0.0
 41
90.0
 42
90.0
 43
90.0
 50
180.0
  0
INSERT
  5
7FD0
  8
0
  6
BYBLOCK
 62
     0
  2
_OPEN
 10
4129.2920851505978
 20
2842.87106231703
 30
0.0
 41
90.0
 42
90.0
 43
90.0
  0
TEXT
  5
7FD1
  8
3
 62
     0
 10
3530.7206565791698
 20
2887.87106231703
 30
0.0
 40
135.0
  1
850
  0
POINT
  5
7FD2
  8
DEFPOINTS
  6
BYBLOCK
 62
     0
 10
3279.2920851505992
 20
3126.9965571829512
 30
0.0
  0
POINT
  5
7FD3
  8
DEFPOINTS
  6
BYBLOCK
 62
     0
 10
4129.2920851505978
 20
3126.9965571829498
 30
0.0
  0
POINT
  5
7FD4
  8
DEFPOINTS
  6
BYBLOCK
 62
     0
 10
4129.2920851505978
 20
2842.87106231703
 30
0.0
  0
ENDBLK
  5
7FD5
  8
0
  0
BLOCK
  8
0
  2
*D20
 70
     1
 10
0.0
 20
0.0
 30
0.0
  3
*D20
  1

  0
LINE
  5
7FD9
  8
0
  6
BYBLOCK
 62
     0
 10
5795.160212244522
 20
3104.4965571829512
 30
0.0
 11
5795.160212244522
 21
2797.87106231703
 31
0.0
  0
LINE
  5
7FDA
  8
0
  6
BYBLOCK
 62
     0
 10
7126.1602122445202
 20
3104.4965571829512
 30
0.0
 11
7126.1602122445202
 21
2797.87106231703
 31
0.0
  0
LINE
  5
7FDB
  8
0
  6
BYBLOCK
 62
     0
 10
5885.160212244522
 20
2842.87106231703
 30
0.0
 11
7036.1602122445211
 21
2842.87106231703
 31
0.0
  0
INSERT
  5
7FDC
  8
0
  6
BYBLOCK
 62
     0
  2
_OPEN
 10
5795.160212244522
 20
2842.87106231703
 30
0.0
 41
90.0
 42
90.0
 43
90.0
 50
180.0
  0
INSERT
  5
7FDD
  8
0
  6
BYBLOCK
 62
     0
  2
_OPEN
 10
7126.1602122445202
 20
2842.87106231703
 30
0.0
 41
90.0
 42
90.0
 43
90.0
  0
TEXT
  5
7FDE
  8
3
 62
     0
 10
6264.5887836730926
 20
2887.87106231703
 30
0.0
 40
135.0
  1
1331
  0
POINT
  5
7FDF
  8
DEFPOINTS
  6
BYBLOCK
 62
     0
 10
5795.160212244522
 20
3126.9965571829498
 30
0.0
  0
POINT
  5
7FE0
  8
DEFPOINTS
  6
BYBLOCK
 62
     0
 10
7126.1602122445202
 20
3126.9965571829498
 30
0.0
  0
POINT
  5
7FE1
  8
DEFPOINTS
  6
BYBLOCK
 62
     0
 10
7126.1602122445202
 20
2842.87106231703
 30
0.0
  0
ENDBLK
  5
7FE2
  8
0
  0
BLOCK
  8
0
  2
*D21
 70
     1
 10
0.0
 20
0.0
 30
0.0
  3
*D21
  1

  0
LINE
  5
7FE6
  8
0
  6
BYBLOCK
 62
     0
 10
7126.1602122445202
 20
3104.4965571829512
 30
0.0
 11
7126.1602122445202
 21
2797.87106231703
 31
0.0
  0
LINE
  5
7FE7
  8
0
  6
BYBLOCK
 62
     0
 10
8155.160212244522
 20
3104.4965571829512
 30
0.0
 11
8155.160212244522
 21
2797.87106231703
 31
0.0
  0
LINE
  5
7FE8
  8
0
  6
BYBLOCK
 62
     0
 10
7216.1602122445202
 20
2842.87106231703
 30
0.0
 11
8065.160212244522
 21
2842.87106231703
 31
0.0
  0
INSERT
  5
7FE9
  8
0
  6
BYBLOCK
 62
     0
  2
_OPEN
 10
7126.1602122445202
 20
2842.87106231703
 30
0.0
 41
90.0
 42
90.0
 43
90.0
 50
180.0
  0
INSERT
  5
7FEA
  8
0
  6
BYBLOCK
 62
     0
  2
_OPEN
 10
8155.160212244522
 20
2842.87106231703
 30
0.0
 41
90.0
 42
90.0
 43
90.0
  0
TEXT
  5
7FEB
  8
3
 62
     0
 10
7418.8744979588073
 20
2887.87106231703
 30
0.0
 40
135.0
  1
1029
  0
POINT
  5
7FEC
  8
DEFPOINTS
  6
BYBLOCK
 62
     0
 10
7126.1602122445202
 20
3126.9965571829498
 30
0.0
  0
POINT
  5
7FED
  8
DEFPOINTS
  6
BYBLOCK
 62
     0
 10
8155.160212244522
 20
3126.9965571829498
 30
0.0
  0
POINT
  5
7FEE
  8
DEFPOINTS
  6
BYBLOCK
 62
     0
 10
8155.160212244522
 20
2842.87106231703
 30
0.0
  0
ENDBLK
  5
7FEF
  8
0
  0
ENDSEC
  0
SECTION
  2
ENTITIES
  0
CIRCLE
  5
7AD3
  8
1
 10
3279.2920851505992
 20
4166.9965571829498
 30
0.0
 40
225.0
  0
ARC
  5
7AD4
  8
1
 10
3279.2920851505992
 20
4166.9965571829498
 30
0.0
 40
380.0
 50
292.41319516291043
 51
120.9943680510207
  0
LINE
  5
7AD6
  8
2
 10
3279.2920851505992
 20
5723.4338445943467
 30
0.0
 11
3279.2920851505992
 21
3126.9965571829512
 31
0.0
  0
LINE
  5
7AD7
  8
1
 10
3083.609634971951
 20
4492.7393678358967
 30
0.0
 11
1504.767457445972
 21
3744.2864913951662
 31
0.0
  0
LINE
  5
7AD8
  8
1
 10
3168.242490544771
 20
4362.682498266825
 30
0.0
 11
1563.8962127716111
 21
3652.2338335990098
 31
0.0
  0
ARC
  5
7AD9
  8
1
 10
3381.2920851505978
 20
4268.9965571829498
 30
0.0
 40
1309.0
 50
94.469136655521112
 51
180.0
  0
CIRCLE
  5
7ADA
  8
1
 10
3279.2920851505992
 20
4166.9965571829498
 30
0.0
 40
750.0
  0
CIRCLE
  5
7ADB
  8
1
 10
3279.2920851505992
 20
4166.9965571829498
 30
0.0
 40
700.0
  0
ARC
  5
7ADC
  8
1
 10
3177.2920851505992
 20
4268.9965571829498
 30
0.0
 40
1105.0
 50
180.0
 51
243.8622545268918
  0
LINE
  5
7ADF
  8
1
 10
4129.2920851505978
 20
3276.9965571829498
 30
0.0
 11
1229.292085150598
 21
3276.9965571829498
 31
0.0
  0
LINE
  5
7AE0
  8
1
 10
4129.2920851505978
 20
3126.9965571829498
 30
0.0
 11
1229.292085150598
 21
3126.9965571829498
 31
0.0
  0
LINE
  5
7AE2
  8
1
 10
4129.2920851505978
 20
3276.9965571829498
 30
0.0
 11
4129.2920851505978
 21
3126.9965571829498
 31
0.0
  0
LINE
  5
7AE4
  8
2
 10
1629.292085150598
 20
3818.3427481829508
 30
0.0
 11
1629.292085150598
 21
3126.9965571829512
 31
0.0
  0
LINE
  5
7AE7
  8
2
 10
1885.799166883756
 20
3536.9965571829512
 30
0.0
 11
1361.1607592117209
 21
3536.9965571829512
 31
0.0
  0
LINE
  5
7AE8
  8
1
 10
1879.2482820632811
 20
3336.9965571829512
 30
0.0
 11
1728.6876381250379
 21
3336.9965571829512
 31
0.0
  0
ARC
  5
7AE9
  8
1
 10
1629.292085150598
 20
3536.9965571829512
 30
0.0
 40
203.5
 50
285.60369900000001
 51
254.39624000000001
  0
LINE
  5
7AEA
  8
1
 10
3424.1797347065349
 20
3815.7024225803989
 30
0.0
 11
1721.49289622732
 21
3313.446763697304
 31
0.0
  0
LINE
  5
7AEB
  8
1
 10
1682.8319380068101
 20
3415.7953436736161
 30
0.0
 11
3370.2088164158631
 21
3961.1831757520049
 31
0.0
  0
LINE
  5
7AEE
  8
1
 10
1889.292085150598
 20
3276.9965571829498
 30
0.0
 11
1879.2482820632811
 21
3336.9965571829512
 31
0.0
  0
ARC
  5
7AF6
  8
1
 10
1629.292085150598
 20
3536.9965571829512
 30
0.0
 40
241.8170790715175
 50
120.9943680510207
 51
292.41319516291031
  0
LINE
  5
7AF7
  8
1
 10
1440.292085150598
 20
3411.3232171829509
 30
0.0
 11
1440.292085150598
 21
3336.9965571829512
 31
0.0
  0
LINE
  5
7AF8
  8
1
 10
1818.292085150598
 20
3411.3232171829509
 30
0.0
 11
1818.292085150598
 21
3336.9965571829512
 31
0.0
  0
LINE
  5
7AFA
  8
1
 10
1574.5540481505991
 20
3340.9965571829498
 30
0.0
 11
1684.030122150597
 21
3340.9965571829498
 31
0.0
  0
LINE
  5
7AFB
  8
1
 10
1629.292085150598
 20
3327.147917791815
 30
0.0
 11
1529.8965321761591
 21
3327.147917791815
 31
0.0
  0
LINE
  5
7AFC
  8
1
 10
1733.3946551505969
 20
3362.1397451829498
 30
0.0
 11
1740.1318507328881
 21
3336.9965571829512
 31
0.0
  0
LINE
  5
7AFD
  8
1
 10
1728.6876381250379
 20
3336.9965571829512
 30
0.0
 11
1728.6876381250379
 21
3327.147917791815
 31
0.0
  0
LINE
  5
7AFF
  8
1
 10
1818.292085150598
 20
3336.9965571829512
 30
0.0
 11
1738.792085150598
 21
3336.9965571829512
 31
0.0
  0
LINE
  5
7B00
  8
1
 10
1629.292085150598
 20
3327.147917791815
 30
0.0
 11
1728.6876381250379
 21
3327.147917791815
 31
0.0
  0
LINE
  5
7B04
  8
1
 10
1369.292085150598
 20
3276.9965571829498
 30
0.0
 11
1379.3358882379159
 21
3336.9965571829512
 31
0.0
  0
LINE
  5
7B06
  8
1
 10
1525.189302150598
 20
3362.1398671829502
 30
0.0
 11
1518.4523805538861
 21
3336.9965571829512
 31
0.0
  0
LINE
  5
7B07
  8
1
 10
1529.8965321761591
 20
3336.9965571829512
 30
0.0
 11
1529.8965321761591
 21
3327.147917791815
 31
0.0
  0
LINE
  5
7B08
  8
1
 10
1440.292085150598
 20
3336.9965571829512
 30
0.0
 11
1519.792085150598
 21
3336.9965571829512
 31
0.0
  0
LINE
  5
7B09
  8
1
 10
1440.292085150598
 20
3336.9965571829512
 30
0.0
 11
1520.292085150598
 21
3336.9965571829512
 31
0.0
  0
LINE
  5
7B0B
  8
1
 10
1379.3358882379159
 20
3336.9965571829512
 30
0.0
 11
1529.8965321761591
 21
3336.9965571829512
 31
0.0
  0
LINE
  5
7B0C
  8
1
 10
1229.292085150598
 20
3276.9965571829498
 30
0.0
 11
1229.292085150598
 21
3126.9965571829498
 31
0.0
  0
POINT
  5
7B0D
  8
1
 10
1229.292085150598
 20
3126.9965571829498
 30
0.0
  0
POINT
  5
7B0E
  8
1
 10
1229.292085150598
 20
3126.9965571829498
 30
0.0
  0
CIRCLE
  5
7B17
  8
1
 10
1629.292085150598
 20
3536.9965571829512
 30
0.0
 40
132.49999999999989
  0
ARC
  5
7B18
  8
1
 10
1813.292085150598
 20
3411.3232171829509
 30
0.0
 40
5.0000669999999987
 50
0.0
 51
55.056334999999997
  0
LINE
  5
7B19
  8
1
 10
1816.155855150598
 20
3415.4218501829509
 30
0.0
 11
1800.2179881505981
 21
3426.5580801829501
 31
0.0
  0
ARC
  5
7B1A
  8
1
 10
1445.292085150598
 20
3411.3232171829509
 30
0.0
 40
5.0
 50
124.94366100000001
 51
180.0
  0
ARC
  5
7B1B
  8
1
 10
1629.292085150598
 20
3536.9965571829512
 30
0.0
 40
210.00001499999999
 50
213.73297099999991
 51
213.76696799999999
  0
LINE
  5
7B1C
  8
1
 10
1442.4281931505991
 20
3415.4218501829509
 30
0.0
 11
1458.3660601505981
 21
3426.5580801829501
 31
0.0
  0
ARC
  5
7B1D
  8
1
 10
3193.7920851505992
 20
4081.4965571829498
 30
0.0
 40
917.5
 50
298.73659827165409
 51
5.3470378034862636
  0
LINE
  5
7B1E
  8
2
 10
4449.5799324823893
 20
4166.9965571829498
 30
0.0
 11
1798.788256205858
 21
4166.9965571829498
 31
0.0
  0
LINE
  5
7B1F
  8
1
 10
4209.2920851505987
 20
5657.9965571829507
 30
0.0
 11
3279.2920851505992
 21
5574.1104104806609
 31
0.0
  0
LINE
  5
7B20
  8
1
 10
4159.2920851505987
 20
4207.9965571829498
 30
0.0
 11
4159.2920851505987
 21
5653.4865492957306
 31
0.0
  0
LINE
  5
7B21
  8
1
 10
4203.2920851505978
 20
4153.9965571829498
 30
0.0
 11
4203.2920851505978
 21
5711.9965571829507
 31
0.0
  0
LINE
  5
7B22
  8
1
 10
4209.2920851505987
 20
4153.9965571829498
 30
0.0
 11
4209.2920851505987
 21
5711.9965571829507
 31
0.0
  0
LINE
  5
7B23
  8
1
 10
4209.2920851505987
 20
4207.9965571829498
 30
0.0
 11
4100.1958298739764
 21
4207.9965571829498
 31
0.0
  0
ARC
  5
7B24
  8
1
 10
3364.492085150599
 20
4081.4965571829498
 30
0.0
 40
746.49999999999989
 50
6.5767761302560768
 51
9.7562766181166172
  0
LINE
  5
7B25
  8
1
 10
4209.2920851505987
 20
4153.9965571829498
 30
0.0
 11
4203.2920851505978
 21
4153.9965571829516
 31
0.0
  0
LINE
  5
7B26
  8
1
 10
4209.2920851505987
 20
5711.9965571829507
 30
0.0
 11
4203.2920851505978
 21
5711.9965571829507
 31
0.0
  0
LINE
  5
7B27
  8
1
 10
8076.160212244522
 20
5657.9965571829516
 30
0.0
 11
8076.160212244522
 21
3276.9965571829498
 31
0.0
  0
LINE
  5
7B28
  8
2
 10
7126.1602122445211
 20
5841.1148320044049
 30
0.0
 11
7126.1602122445202
 21
3126.9965571829498
 31
0.0
  0
LINE
  5
7B29
  8
1
 10
5907.160212244522
 20
4086.9965571829512
 30
0.0
 11
5907.160212244522
 21
4246.9965571829498
 31
0.0
  0
LINE
  5
7B2A
  8
1
 10
6176.1602122445183
 20
5657.9965571829516
 30
0.0
 11
6176.1602122445229
 21
3276.9965571829498
 31
0.0
  0
LINE
  5
7B2B
  8
1
 10
5757.160212244522
 20
3296.9965571829498
 30
0.0
 11
5757.160212244522
 21
4546.9965571829498
 31
0.0
  0
LINE
  5
7B2C
  8
1
 10
5892.5602122445207
 20
3404.4965571829498
 30
0.0
 11
5892.5602122445207
 21
4391.9965571829507
 31
0.0
  0
LINE
  5
7B2D
  8
1
 10
5807.160212244522
 20
3404.4965571829498
 30
0.0
 11
5807.160212244522
 21
4391.9965571829507
 31
0.0
  0
LINE
  5
7B31
  8
1
 10
8155.160212244522
 20
3126.9965571829498
 30
0.0
 11
5795.160212244522
 21
3126.9965571829498
 31
0.0
  0
LINE
  5
7B32
  8
1
 10
8081.1602122445211
 20
3276.9965571829498
 30
0.0
 11
5795.160212244522
 21
3276.9965571829498
 31
0.0
  0
LINE
  5
7B34
  8
1
 10
5993.5282392672516
 20
3737.3921757754761
 30
0.0
 11
5993.5282392672516
 21
3537.3921757754761
 31
0.0
  0
LINE
  5
7B36
  8
1
 10
5983.5282392672516
 20
3567.3921757754761
 30
0.0
 11
5843.5282392672534
 21
3567.3921757754761
 31
0.0
  0
LINE
  5
7B37
  8
1
 10
5983.5282392672516
 20
3507.3921757754761
 30
0.0
 11
5843.5282392672534
 21
3507.3921757754761
 31
0.0
  0
LINE
  5
7B38
  8
1
 10
5953.5282392672534
 20
3503.3921757754761
 30
0.0
 11
5843.5282392672534
 21
3503.3921757754761
 31
0.0
  0
LINE
  5
7B3A
  8
2
 10
5724.6226707658816
 20
3537.3921757754761
 30
0.0
 11
6222.1504923838002
 21
3537.3921757754761
 31
0.0
  0
LINE
  5
7B3B
  8
1
 10
5942.5602122445216
 20
3296.9965571829498
 30
0.0
 11
5757.160212244522
 21
3296.9965571829498
 31
0.0
  0
LINE
  5
7B3C
  8
1
 10
5795.1602122445211
 20
3276.9965571829498
 30
0.0
 11
5795.160212244522
 21
3126.9965571829498
 31
0.0
  0
LINE
  5
7B3D
  8
1
 10
5843.5282392672534
 20
3503.3921757754761
 30
0.0
 11
5843.5282392672534
 21
3567.3921757754761
 31
0.0
  0
LINE
  5
7B3E
  8
1
 10
5892.5602122445207
 20
3404.4965571829498
 30
0.0
 11
5807.160212244522
 21
3404.4965571829498
 31
0.0
  0
LINE
  5
7B3F
  8
1
 10
5892.5602122445207
 20
3669.4965571829498
 30
0.0
 11
5807.160212244522
 21
3669.4965571829498
 31
0.0
  0
LINE
  5
7B40
  8
1
 10
5993.5282392672516
 20
3327.3921757754761
 30
0.0
 11
5993.5282392672516
 21
3537.3921757754761
 31
0.0
  0
LINE
  5
7B41
  8
1
 10
5942.5602122445216
 20
3296.9965571829498
 30
0.0
 11
5942.5602122445216
 21
3473.317850130752
 31
0.0
  0
LINE
  5
7B43
  8
1
 10
5993.5282392672516
 20
3327.3921757754761
 30
0.0
 11
6176.1602122445229
 21
3327.3921757754761
 31
0.0
  0
LINE
  5
7B44
  8
1
 10
6176.1602122445211
 20
3327.3921757754761
 30
0.0
 11
6176.1602122445211
 21
3276.9965571829498
 31
0.0
  0
LINE
  5
7B45
  8
1
 10
5983.5282392672516
 20
3569.8921757754761
 30
0.0
 11
5983.5282392672516
 21
3504.8921757754761
 31
0.0
  0
LINE
  5
7B46
  8
1
 10
5983.5282392672516
 20
3504.8921757754761
 30
0.0
 11
5993.5282392672516
 21
3504.8921757754761
 31
0.0
  0
LINE
  5
7B47
  8
1
 10
5953.5282392672534
 20
3503.3921757754761
 30
0.0
 11
5953.5282392672534
 21
3507.3921757754761
 31
0.0
  0
LINE
  5
7B48
  8
1
 10
5983.5282392672516
 20
3569.8921757754761
 30
0.0
 11
5993.5282392672516
 21
3569.8921757754761
 31
0.0
  0
LINE
  5
7B49
  8
1
 10
5907.160212244522
 20
4086.9965571829512
 30
0.0
 11
5892.5602122445207
 21
4086.9965571829512
 31
0.0
  0
LINE
  5
7B4A
  8
1
 10
5892.5602122445207
 20
3941.9965571829498
 30
0.0
 11
5807.160212244522
 21
3941.9965571829498
 31
0.0
  0
LINE
  5
7B4B
  8
1
 10
6176.1602122445229
 20
3737.3921757754752
 30
0.0
 11
5993.5282392672516
 21
3737.3921757754761
 31
0.0
  0
LINE
  5
7B4C
  8
1
 10
5972.9602122445222
 20
4096.9965571829498
 30
0.0
 11
5972.9602122445222
 21
3926.9965571829512
 31
0.0
  0
LINE
  5
7B4D
  8
1
 10
6016.3602122445218
 20
3926.9965571829512
 30
0.0
 11
6176.1602122445211
 21
3926.9965571829512
 31
0.0
  0
LINE
  5
7B4E
  8
1
 10
6097.9602122445222
 20
3926.9965571829512
 30
0.0
 11
5972.9602122445222
 21
3926.9965571829512
 31
0.0
  0
LINE
  5
7B4F
  8
1
 10
6016.3602122445218
 20
4096.9965571829498
 30
0.0
 11
6176.1602122445211
 21
4096.9965571829498
 31
0.0
  0
LINE
  5
7B50
  8
1
 10
6097.9602122445222
 20
4096.9965571829498
 30
0.0
 11
5972.9602122445222
 21
4096.9965571829498
 31
0.0
  0
LINE
  5
7B51
  8
1
 10
8155.160212244522
 20
3276.9965571829498
 30
0.0
 11
8155.160212244522
 21
3126.9965571829498
 31
0.0
  0
LINE
  5
7B52
  8
1
 10
8081.160212244522
 20
3276.9965571829498
 30
0.0
 11
8155.160212244522
 21
3276.9965571829498
 31
0.0
  0
LINE
  5
7B53
  8
1
 10
8256.3602122445209
 20
4096.9965571829498
 30
0.0
 11
8256.3602122445227
 21
3926.9965571829512
 31
0.0
  0
LINE
  5
7B54
  8
1
 10
8154.3602122445218
 20
3926.9965571829512
 30
0.0
 11
8256.3602122445227
 21
3926.9965571829512
 31
0.0
  0
LINE
  5
7B55
  8
1
 10
8209.3602122445191
 20
3926.9965571829512
 30
0.0
 11
8076.160212244522
 21
3926.9965571829512
 31
0.0
  0
LINE
  5
7B56
  8
1
 10
8256.3602122445209
 20
4096.9965571829498
 30
0.0
 11
8181.86021224452
 21
4096.9965571829498
 31
0.0
  0
LINE
  5
7B57
  8
1
 10
8076.160212244522
 20
4096.9965571829498
 30
0.0
 11
8181.86021224452
 21
4096.9965571829498
 31
0.0
  0
LINE
  5
7B59
  8
1
 10
8076.1602122445202
 20
5657.9965571829516
 30
0.0
 11
6176.1602122445202
 21
5657.9965571829507
 31
0.0
  0
LINE
  5
7B5A
  8
2
 10
8182.257736729297
 20
4166.9965571829498
 30
0.0
 11
5708.5888912990195
 21
4166.9965571829498
 31
0.0
  0
LINE
  5
7B5C
  8
1
 10
5942.5602122445216
 20
4546.9965571829498
 30
0.0
 11
5757.160212244522
 21
4546.9965571829498
 31
0.0
  0
LINE
  5
7B5D
  8
1
 10
5907.160212244522
 20
4246.9965571829498
 30
0.0
 11
5892.5602122445216
 21
4246.9965571829498
 31
0.0
  0
LINE
  5
7B5E
  8
1
 10
5892.5602122445216
 20
4391.9965571829507
 30
0.0
 11
5807.160212244522
 21
4391.9965571829507
 31
0.0
  0
LINE
  5
7B5F
  8
1
 10
5942.5602122445216
 20
4320.3248502483657
 30
0.0
 11
5942.5602122445216
 21
4546.9965571829498
 31
0.0
  0
LINE
  5
7B60
  8
1
 10
6176.1602122445211
 20
4214.4965571829498
 30
0.0
 11
5907.160212244522
 21
4214.4965571829498
 31
0.0
  0
LINE
  5
7B61
  8
1
 10
6176.1602122445211
 20
4119.4965571829507
 30
0.0
 11
5907.160212244522
 21
4119.4965571829507
 31
0.0
  0
LINE
  5
7B68
  8
1
 10
1229.292085150598
 20
8176.5962472078554
 30
0.0
 11
1229.292085150598
 21
7076.5962472078563
 31
0.0
  0
LINE
  5
7B69
  8
1
 10
2072.2920851505978
 20
9357.5962472078554
 30
0.0
 11
2072.2920851505978
 21
7457.5962472078563
 31
0.0
  0
LINE
  5
7B6A
  8
2
 10
3279.2920851505992
 20
9577.2826631784283
 30
0.0
 11
3279.2920851505992
 21
7006.9981289651814
 31
0.0
  0
LINE
  5
7B6B
  8
1
 10
4209.2920851505987
 20
9407.5962472078572
 30
0.0
 11
4209.2920851505987
 21
7407.5962472078554
 31
0.0
  0
LINE
  5
7B6C
  8
1
 10
3279.2920851505992
 20
7457.5962472078563
 30
0.0
 11
4203.2920851505978
 21
7457.5962472078563
 31
0.0
  0
LINE
  5
7B6D
  8
1
 10
1229.292085150598
 20
7076.5962472078563
 30
0.0
 11
4129.2920851505978
 21
7076.5962472078563
 31
0.0
  0
LINE
  5
7B6E
  8
1
 10
4129.2920851505978
 20
7457.5962472078536
 30
0.0
 11
4129.2920851505978
 21
7076.5962472078563
 31
0.0
  0
LINE
  5
7B6F
  8
1
 10
1389.292085150598
 20
7223.9962472078541
 30
0.0
 11
3668.2920851505992
 21
7223.9962472078541
 31
0.0
  0
LINE
  5
7B70
  8
1
 10
1389.292085150598
 20
7038.5962472078563
 30
0.0
 11
3668.2920851505992
 21
7038.5962472078563
 31
0.0
  0
LINE
  5
7B71
  8
1
 10
1496.792085150598
 20
7173.9962472078541
 30
0.0
 11
3513.2920851505978
 21
7173.996247207856
 31
0.0
  0
LINE
  5
7B72
  8
1
 10
1496.792085150598
 20
7088.5962472078563
 30
0.0
 11
3513.2920851505978
 21
7088.5962472078563
 31
0.0
  0
LINE
  5
7B73
  8
1
 10
2072.2920851505978
 20
7457.5962472078563
 30
0.0
 11
3279.2920851505992
 21
7457.5962472078563
 31
0.0
  0
LINE
  5
7B74
  8
1
 10
3240.7920851505978
 20
7457.5962472078563
 30
0.0
 11
3240.7920851505978
 21
7188.5962472078563
 31
0.0
  0
LINE
  5
7B75
  8
1
 10
3335.7920851505992
 20
7457.5962472078563
 30
0.0
 11
3335.7920851505992
 21
7188.5962472078563
 31
0.0
  0
LINE
  5
7B76
  8
1
 10
3208.2920851505992
 20
7188.5962472078563
 30
0.0
 11
3368.2920851505992
 21
7188.5962472078563
 31
0.0
  0
LINE
  5
7B77
  8
1
 10
3513.2920851505978
 20
7173.9962472078569
 30
0.0
 11
3513.2920851505978
 21
7088.5962472078563
 31
0.0
  0
LINE
  5
7B78
  8
1
 10
3668.2920851505992
 20
7223.996247207856
 30
0.0
 11
3668.2920851505992
 21
7038.5962472078563
 31
0.0
  0
LINE
  5
7B79
  8
1
 10
3368.2920851505992
 20
7188.5962472078563
 30
0.0
 11
3368.2920851505992
 21
7173.9962472078569
 31
0.0
  0
LINE
  5
7B7A
  8
1
 10
3063.2920851505978
 20
7173.996247207856
 30
0.0
 11
3063.2920851505978
 21
7088.5962472078563
 31
0.0
  0
LINE
  5
7B7B
  8
1
 10
3208.2920851505992
 20
7188.5962472078563
 30
0.0
 11
3208.2920851505992
 21
7173.9962472078541
 31
0.0
  0
LINE
  5
7B7C
  8
1
 10
1419.292085150599
 20
7281.2962472078552
 30
0.0
 11
1419.292085150599
 21
7556.7962472078552
 31
0.0
  0
LINE
  5
7B7D
  8
2
 10
1629.292085150598
 20
7005.6748968017391
 30
0.0
 11
1629.292085150598
 21
7939.4680002078539
 31
0.0
  0
LINE
  5
7B7E
  8
1
 10
1595.292085150598
 20
7241.2962472078552
 30
0.0
 11
1595.292085150598
 21
7131.2962472078552
 31
0.0
  0
LINE
  5
7B7F
  8
1
 10
1599.292085150598
 20
7271.2962472078561
 30
0.0
 11
1599.292085150598
 21
7131.2962472078552
 31
0.0
  0
LINE
  5
7B80
  8
1
 10
1659.292085150598
 20
7271.2962472078561
 30
0.0
 11
1659.292085150598
 21
7131.2962472078552
 31
0.0
  0
LINE
  5
7B81
  8
1
 10
1389.292085150598
 20
7223.9962472078541
 30
0.0
 11
1389.292085150598
 21
7038.5962472078563
 31
0.0
  0
LINE
  5
7B82
  8
1
 10
1496.792085150598
 20
7173.9962472078541
 30
0.0
 11
1496.792085150598
 21
7088.5962472078563
 31
0.0
  0
LINE
  5
7B83
  8
1
 10
1761.792085150599
 20
7173.9962472078541
 30
0.0
 11
1761.792085150599
 21
7088.5962472078563
 31
0.0
  0
LINE
  5
7B84
  8
1
 10
1595.292085150598
 20
7131.2962472078552
 30
0.0
 11
1659.292085150598
 21
7131.2962472078552
 31
0.0
  0
LINE
  5
7B85
  8
1
 10
1829.292085150598
 20
7930.7962472078552
 30
0.0
 11
1829.292085150598
 21
7281.2962472078552
 31
0.0
  0
LINE
  5
7B86
  8
1
 10
1419.292085150599
 20
7281.2962472078552
 30
0.0
 11
1629.292085150598
 21
7281.2962472078552
 31
0.0
  0
LINE
  5
7B87
  8
1
 10
1596.792085150598
 20
7271.2962472078561
 30
0.0
 11
1596.792085150598
 21
7281.2962472078552
 31
0.0
  0
LINE
  5
7B88
  8
1
 10
1595.292085150598
 20
7241.2962472078552
 30
0.0
 11
1599.292085150598
 21
7241.2962472078552
 31
0.0
  0
LINE
  5
7B89
  8
1
 10
1661.792085150598
 20
7271.2962472078561
 30
0.0
 11
1661.792085150598
 21
7281.2962472078552
 31
0.0
  0
LINE
  5
7B8A
  8
1
 10
1661.792085150598
 20
7271.2962472078561
 30
0.0
 11
1596.792085150598
 21
7271.2962472078561
 31
0.0
  0
LINE
  5
7B8B
  8
1
 10
1829.292085150598
 20
7281.2962472078552
 30
0.0
 11
1629.292085150598
 21
7281.2962472078552
 31
0.0
  0
LINE
  5
7B8C
  8
1
 10
1419.292085150599
 20
7930.7962472078552
 30
0.0
 11
1419.292085150599
 21
7556.7962472078552
 31
0.0
  0
LINE
  5
7B8D
  8
1
 10
1419.292085150599
 20
7930.7962472078552
 30
0.0
 11
1829.292085150598
 21
7930.7962472078552
 31
0.0
  0
LINE
  5
7B8E
  8
1
 10
3279.2920851505992
 20
9357.5962472078554
 30
0.0
 11
4203.2920851505978
 21
9357.5962472078554
 31
0.0
  0
LINE
  5
7B8F
  8
2
 10
2006.030680132666
 20
8407.5962472078554
 30
0.0
 11
4266.8132190632132
 21
8407.5962472078554
 31
0.0
  0
LINE
  5
7B90
  8
1
 10
2429.2920851505978
 20
9436.5962472078554
 30
0.0
 11
4129.2920851505978
 21
9436.5962472078554
 31
0.0
  0
LINE
  5
7B91
  8
1
 10
4129.2920851505978
 20
9436.5962472078554
 30
0.0
 11
4129.2920851505978
 21
9357.5962472078554
 31
0.0
  0
LINE
  5
7B92
  8
1
 10
1229.292085150598
 20
8176.5962472078554
 30
0.0
 11
2072.2920851505978
 21
8176.5962472078554
 31
0.0
  0
LINE
  5
7B93
  8
1
 10
2072.2920851505978
 20
9357.5962472078554
 30
0.0
 11
3279.2920851505992
 21
9357.5962472078554
 31
0.0
  0
LINE
  5
7B94
  8
1
 10
2429.2920851505978
 20
9436.5962472078554
 30
0.0
 11
2429.2920851505978
 21
9357.5962472078554
 31
0.0
  0
LINE
  5
7B96
  8
1
 10
4203.2920851505978
 20
9407.5962472078554
 30
0.0
 11
4209.2920851505987
 21
9407.5962472078572
 31
0.0
  0
LINE
  5
7B97
  8
1
 10
4203.2920851505978
 20
7407.5962472078554
 30
0.0
 11
4209.2920851505987
 21
7407.5962472078554
 31
0.0
  0
LINE
  5
7B99
  8
1
 10
4203.2920851505978
 20
9407.5962472078572
 30
0.0
 11
4203.2920851505978
 21
7407.5962472078554
 31
0.0
  0
LINE
  5
7B9A
  8
4
 10
8325.0
 20
1815.173399113278
 30
0.0
 11
8325.0
 21
915.17339911327861
 31
0.0
  0
LINE
  5
7B9B
  8
4
 10
5175.0
 20
1815.173399113278
 30
0.0
 11
5175.0
 21
915.17339911327861
 31
0.0
  0
LINE
  5
7B9C
  8
4
 10
2925.0
 20
1815.173399113278
 30
0.0
 11
2925.0
 21
915.17339911327861
 31
0.0
  0
LINE
  5
7B9F
  8
4
 10
2925.0
 20
915.17339911327861
 30
0.0
 11
8325.0
 21
915.17339911327861
 31
0.0
  0
LINE
  5
7BA0
  8
4
 10
2925.0
 20
1365.173399113278
 30
0.0
 11
8325.0
 21
1365.173399113278
 31
0.0
  0
TEXT
  5
7BA1
  8
4
 10
3098.259363811057
 20
1507.117015513036
 30
0.0
 40
225.0
  1
機器名称
  0
TEXT
  5
7BA2
  8
4
 10
3088.1614771115892
 20
1012.576604407328
 30
0.0
 40
225.0
  1
機器型番
  0
TEXT
  5
7BA3
  8
4
 10
5300.5998145995309
 20
1470.182747427928
 30
0.0
 40
191.25
  1
ミツヤ多翼送風機
  0
TEXT
  5
7BA4
  8
4
 10
5339.9452301346628
 20
992.39152837302379
 30
0.0
 40
225.0
  1
MF#9-5
  0
TEXT
  5
7BA6
  8
4
 10
3652.2550631886188
 20
10725.429785996321
 30
0.0
 40
242.99999999999989
  1
床置ベット
  0
TEXT
  5
7BA7
  8
4
 10
1317.933979167283
 20
11402.46439289684
 30
0.0
 40
324.0
  1
遠心式両吸込両持多翼ファン
  0
LINE
  5
7BA8
  8
4
 10
1125.0
 20
11112.33939419162
 30
0.0
 11
8325.0
 21
11112.33939419162
 31
0.0
  0
LINE
  5
7BA9
  8
4
 10
1125.0
 20
12012.33939419162
 30
0.0
 11
8325.0
 21
12012.33939419162
 31
0.0
  0
LINE
  5
7BAA
  8
4
 10
2925.0
 20
1815.173399113278
 30
0.0
 11
8325.0
 21
1815.173399113278
 31
0.0
  0
LINE
  5
7BAB
  8
4
 10
1125.0
 20
12012.33939419162
 30
0.0
 11
1125.0
 21
11112.33939419162
 31
0.0
  0
TEXT
  5
7BAC
  8
4
 10
1690.890318096458
 20
10720.437648958539
 30
0.0
 40
242.99999999999989
  1
右回転右横向
  0
TEXT
  5
7BAD
  8
4
 10
6610.3630166218027
 20
12177.274866728891
 30
0.0
 40
252.0
  1
No.
  0
TEXT
  5
7BAE
  8
4
 10
5900.832281700059
 20
10725.429785996321
 30
0.0
 40
242.99999999999989
  1
縮尺：1/45
  0
LINE
  5
7BAF
  8
4
 10
8325.0
 20
12012.33939419162
 30
0.0
 11
8325.0
 21
11112.33939419162
 31
0.0
  0
LINE
  5
7BB0
  8
4
 10
9450.0
 20
13275.0
 30
0.0
 11
9450.0
 21
13275.0
 31
0.0
  0
LINE
  5
7BB1
  8
4
 10
6482.7784006193906
 20
12065.686124064299
 30
0.0
 11
6482.7784006193906
 21
12539.935176973881
 31
0.0
  0
LINE
  5
7BB2
  8
4
 10
6482.7784006193906
 20
12539.935176973881
 30
0.0
 11
8325.0
 21
12539.935176973881
 31
0.0
  0
LINE
  5
7BB3
  8
4
 10
8325.0
 20
12539.935176973881
 30
0.0
 11
8325.0
 21
12065.686124064299
 31
0.0
  0
LINE
  5
7BB4
  8
4
 10
8325.0
 20
12065.686124064299
 30
0.0
 11
6482.7784006193906
 21
12065.686124064299
 31
0.0
  0
LINE
  5
7BB5
  8
4
 10
0.0
 20
0.0
 30
0.0
 11
0.0
 21
13275.0
 31
0.0
  0
LINE
  5
7BB6
  8
4
 10
0.0
 20
13275.0
 30
0.0
 11
9450.0
 21
13275.0
 31
0.0
  0
LINE
  5
7BB7
  8
4
 10
9450.0
 20
13275.0
 30
0.0
 11
9450.0
 21
0.0
 31
0.0
  0
LINE
  5
7BB8
  8
4
 10
9450.0
 20
0.0
 30
0.0
 11
0.0
 21
0.0
 31
0.0
  0
DIMENSION
  5
7BC8
  8
3
  2
*D1
 10
8517.4963714202022
 20
3466.9965571829498
 30
0.0
 11
8517.4963714202022
 21
4140.4681832486822
 31
0.0
 70
   128
 13
8076.160212244522
 23
4866.9965571829498
 33
0.0
 14
8076.160212244522
 24
3466.9965571829498
 34
0.0
 50
90.0
1001
ACAD
1000
DSTYLE
1002
{
1070
   287
1070
     3
1070
   287
1070
     3
1070
     3
1000
φ<>
1070
    40
1040
45.0
1070
   143
1040
0.039
1070
   172
1070
     1
1070
   271
1070
     0
1070
   279
1070
     0
1070
   288
1070
     1
1002
}
  0
DIMENSION
  5
7C78
  8
3
  2
*D2
 10
2429.2920851505978
 20
9725.3632812756696
 30
0.0
 11
3276.8530168950451
 21
9725.3632812756696
 31
0.0
 70
   128
 13
4129.2920851505978
 23
9436.5962472078554
 33
0.0
 14
2429.2920851505978
 24
9436.5962472078554
 34
0.0
1001
ACAD
1000
DSTYLE
1002
{
1070
   287
1070
     3
1070
   287
1070
     3
1070
    40
1040
45.0
1070
   143
1040
0.039
1070
   172
1070
     1
1070
   271
1070
     0
1070
   279
1070
     0
1070
   288
1070
     1
1002
}
  0
DIMENSION
  5
7C84
  8
3
  2
*D3
 10
1229.292085150598
 20
9725.3632812756696
 30
0.0
 11
1829.292085150598
 21
9837.8632812756696
 31
0.0
 70
     0
 13
2429.2920851505978
 23
9436.5962472078554
 33
0.0
 14
1229.292085150598
 24
8176.5962472078554
 34
0.0
1001
ACAD
1000
DSTYLE
1002
{
1070
   287
1070
     4
1070
   287
1070
     4
1070
    40
1040
45.0
1070
    75
1070
     1
1070
   143
1040
0.039
1070
   172
1070
     1
1070
   271
1070
     0
1070
   279
1070
     1
1070
   288
1070
     1
1002
}
  0
DIMENSION
  5
7C91
  8
3
  2
*D4
 10
787.63104649749687
 20
7076.5962472078563
 30
0.0
 11
787.63104649749584
 21
7626.8154146195739
 31
0.0
 70
   128
 13
1229.292085150598
 23
8176.5962472078554
 33
0.0
 14
1229.292085150598
 24
7076.5962472078563
 34
0.0
 50
270.0
1001
ACAD
1000
DSTYLE
1002
{
1070
   287
1070
     3
1070
   287
1070
     3
1070
    40
1040
45.0
1070
   143
1040
0.039
1070
   172
1070
     1
1070
   271
1070
     0
1070
   279
1070
     0
1070
   288
1070
     1
1002
}
  0
DIMENSION
  5
7C9E
  8
3
  2
*D5
 10
4499.2388402134184
 20
7076.5962472078563
 30
0.0
 11
4499.2388402134166
 21
8215.2970962390318
 31
0.0
 70
   128
 13
4129.2920851505978
 23
9436.5962472078554
 33
0.0
 14
4129.2920851505978
 24
7076.5962472078563
 34
0.0
 50
270.0
1001
ACAD
1000
DSTYLE
1002
{
1070
   287
1070
     3
1070
   287
1070
     3
1070
    40
1040
45.0
1070
   143
1040
0.039
1070
   172
1070
     1
1070
   271
1070
     0
1070
   279
1070
     0
1070
   288
1070
     1
1002
}
  0
DIMENSION
  5
7CAB
  8
3
  2
*D6
 10
1229.292085150598
 20
6616.4034622795371
 30
0.0
 11
2765.6734961504262
 21
6616.4034622795371
 31
0.0
 70
   128
 13
4129.2920851505978
 23
7076.5962472078563
 33
0.0
 14
1229.292085150598
 24
7076.5962472078563
 34
0.0
1001
ACAD
1000
DSTYLE
1002
{
1070
   287
1070
     3
1070
   287
1070
     3
1070
    40
1040
45.0
1070
   143
1040
0.039
1070
   172
1070
     1
1070
   271
1070
     0
1070
   279
1070
     0
1070
   288
1070
     1
1002
}
  0
DIMENSION
  5
7CD1
  8
3
  2
*D7
 10
3279.2920851505992
 20
5918.7725373309513
 30
0.0
 11
3723.7396432272722
 21
5918.7725373309513
 31
0.0
 70
   128
 13
4209.2920851505987
 23
5711.9965571829507
 33
0.0
 14
3279.2920851505992
 24
5723.4338445943467
 34
0.0
1001
ACAD
1000
DSTYLE
1002
{
1070
   287
1070
     3
1070
   287
1070
     3
1070
    40
1040
45.0
1070
   143
1040
0.039
1070
   172
1070
     1
1070
   271
1070
     0
1070
   279
1070
     0
1070
   288
1070
     1
1002
}
  0
DIMENSION
  5
7CDE
  8
3
  2
*D8
 10
4485.3222508206027
 20
4207.9965571829498
 30
0.0
 11
4485.3222508206009
 21
4959.2493679297258
 31
0.0
 70
   128
 13
4209.2920851505987
 23
5657.9965571829507
 33
0.0
 14
4209.2920851505987
 24
4207.9965571829498
 34
0.0
 50
270.0
1001
ACAD
1000
DSTYLE
1002
{
1070
   287
1070
     3
1070
   287
1070
     3
1070
    40
1040
45.0
1070
   143
1040
0.039
1070
   172
1070
     1
1070
   271
1070
     0
1070
   279
1070
     0
1070
   288
1070
     1
1002
}
  0
DIMENSION
  5
7CEB
  8
3
  2
*D9
 10
4729.8355095335137
 20
4166.9965571829498
 30
0.0
 11
4729.8355095335137
 21
4951.6146469717569
 31
0.0
 70
   128
 13
4209.2920851505987
 23
5657.9965571829507
 33
0.0
 14
4449.5799324823893
 24
4166.9965571829498
 34
0.0
 50
270.0
1001
ACAD
1000
DSTYLE
1002
{
1070
   287
1070
     3
1070
   287
1070
     3
1070
    40
1040
45.0
1070
   143
1040
0.039
1070
   172
1070
     1
1070
   271
1070
     0
1070
   279
1070
     0
1070
   288
1070
     1
1002
}
  0
DIMENSION
  5
7D0E
  8
3
  2
*D10
 10
4729.8355095335137
 20
3126.9965571829498
 30
0.0
 11
4617.3355095335119
 21
3646.9965571829512
 31
0.0
 70
     0
 13
4449.5799324823893
 23
4166.9965571829498
 33
0.0
 14
4129.2920851505978
 24
3126.9965571829498
 34
0.0
 50
270.0
1001
ACAD
1000
DSTYLE
1002
{
1070
   287
1070
     4
1070
   287
1070
     4
1070
    40
1040
45.0
1070
    75
1070
     1
1070
   143
1040
0.039
1070
   172
1070
     1
1070
   271
1070
     0
1070
   279
1070
     1
1070
   288
1070
     1
1002
}
  0
DIMENSION
  5
7DC6
  8
3
  2
*D12
 10
2072.2920851505978
 20
5918.7725373309513
 30
0.0
 11
2675.7920851505978
 21
6031.2725373309513
 31
0.0
 70
     0
 13
3279.2920851505992
 23
5723.4338445943467
 33
0.0
 14
2072.2920851505978
 24
4268.9965571829498
 34
0.0
1001
ACAD
1000
DSTYLE
1002
{
1070
   287
1070
     4
1070
   287
1070
     4
1070
    40
1040
45.0
1070
    75
1070
     1
1070
   143
1040
0.039
1070
   172
1070
     1
1070
   271
1070
     0
1070
   279
1070
     1
1070
   288
1070
     1
1002
}
  0
DIMENSION
  5
7DD3
  8
3
  2
*D13
 10
1229.292085150599
 20
6186.2360405014624
 30
0.0
 11
2736.9099651857168
 21
6186.2360405014624
 31
0.0
 70
   128
 13
4209.2920851505987
 23
5711.9965571829507
 33
0.0
 14
1229.292085150598
 24
3276.9965571829498
 34
0.0
1001
ACAD
1000
DSTYLE
1002
{
1070
   287
1070
     3
1070
   287
1070
     3
1070
    40
1040
45.0
1070
   143
1040
0.039
1070
   172
1070
     1
1070
   271
1070
     0
1070
   279
1070
     0
1070
   288
1070
     1
1002
}
  0
LINE
  5
7DD9
  8
1
 10
8076.160212244522
 20
4207.9965571829507
 30
0.0
 11
6176.1602122445211
 21
4207.9965571829498
 31
0.0
  0
LINE
  5
7DDA
  8
1
 10
8076.160212244522
 20
5657.9965571829516
 30
0.0
 11
6176.1602122445211
 21
4207.9965571829498
 31
0.0
  0
LINE
  5
7DDB
  8
1
 10
6176.1602122445211
 20
5657.9965571829507
 30
0.0
 11
8076.160212244522
 21
4207.9965571829507
 31
0.0
  0
LINE
  5
7DDF
  8
1
 10
4159.2920851505987
 20
9357.5962472078572
 30
0.0
 11
4159.2920851505987
 21
7457.5962472078563
 31
0.0
  0
DIMENSION
  5
7DED
  8
3
  2
*D14
 10
8076.160212244522
 20
5872.1381405516413
 30
0.0
 11
7124.0298205535873
 21
5872.1381405516413
 31
0.0
 70
   128
 13
6176.1602122445211
 23
5657.9965571829507
 33
0.0
 14
8076.160212244522
 24
5657.9965571829516
 34
0.0
1001
ACAD
1000
DSTYLE
1002
{
1070
   287
1070
     3
1070
   287
1070
     3
1070
    40
1040
45.0
1070
   143
1040
0.039
1070
   172
1070
     1
1070
   271
1070
     0
1070
   279
1070
     0
1070
   288
1070
     1
1002
}
  0
DIMENSION
  5
7E05
  8
3
  2
*D15
 10
7126.1602122445211
 20
6240.1236956323228
 30
0.0
 11
7657.0364409570611
 21
6240.1236956323228
 31
0.0
 70
   128
  1
(<>)
 13
8256.3602122445209
 23
4096.9965571829498
 33
0.0
 14
7126.1602122445211
 24
6061.3907026759771
 34
0.0
1001
ACAD
1000
DSTYLE
1002
{
1070
   287
1070
     3
1070
   287
1070
     3
1070
    40
1040
45.0
1070
   143
1040
0.039
1070
   172
1070
     1
1070
   271
1070
     0
1070
   279
1070
     0
1070
   288
1070
     1
1002
}
  0
DIMENSION
  5
7E11
  8
3
  2
*D16
 10
5757.160212244522
 20
6240.1236956323228
 30
0.0
 11
6441.6602122445229
 21
6465.1236956323228
 31
0.0
 70
     0
  1
MAX\P1450
 13
7126.1602122445211
 23
6061.3907026759771
 33
0.0
 14
5757.160212244522
 24
4546.9965571829498
 34
0.0
1001
ACAD
1000
DSTYLE
1002
{
1070
   287
1070
     4
1070
   287
1070
     4
1070
    40
1040
45.0
1070
    75
1070
     1
1070
   143
1040
0.039
1070
   172
1070
     1
1070
   271
1070
     0
1070
   279
1070
     1
1070
   288
1070
     1
1002
}
  0
DIMENSION
  5
7FC9
  8
3
  2
*D18
 10
3279.2920851505992
 20
2842.87106231703
 30
0.0
 11
2254.2920851505978
 21
2955.37106231703
 31
0.0
 70
     0
 13
1229.292085150598
 23
3126.9965571829498
 33
0.0
 14
3279.2920851505992
 24
3126.9965571829512
 34
0.0
1001
ACAD
1000
DSTYLE
1002
{
1070
   172
1070
     1
1070
    40
1040
45.0
1070
   271
1070
     0
1070
   143
1040
0.039
1002
}
  0
DIMENSION
  5
7FD6
  8
3
  2
*D19
 10
4129.2920851505978
 20
2842.87106231703
 30
0.0
 11
3704.2920851505992
 21
2955.37106231703
 31
0.0
 70
     0
 13
3279.2920851505992
 23
3126.9965571829512
 33
0.0
 14
4129.2920851505978
 24
3126.9965571829498
 34
0.0
1001
ACAD
1000
DSTYLE
1002
{
1070
   172
1070
     1
1070
    40
1040
45.0
1070
   271
1070
     0
1070
   143
1040
0.039
1002
}
  0
DIMENSION
  5
7FE3
  8
3
  2
*D20
 10
7126.1602122445202
 20
2842.87106231703
 30
0.0
 11
6460.6602122445211
 21
2955.37106231703
 31
0.0
 70
     0
 13
5795.160212244522
 23
3126.9965571829498
 33
0.0
 14
7126.1602122445202
 24
3126.9965571829498
 34
0.0
1001
ACAD
1000
DSTYLE
1002
{
1070
   172
1070
     1
1070
    40
1040
45.0
1070
   271
1070
     0
1070
   143
1040
0.039
1002
}
  0
DIMENSION
  5
7FF0
  8
3
  2
*D21
 10
8155.160212244522
 20
2842.87106231703
 30
0.0
 11
7640.6602122445211
 21
2955.37106231703
 31
0.0
 70
     0
 13
7126.1602122445202
 23
3126.9965571829498
 33
0.0
 14
8155.160212244522
 24
3126.9965571829498
 34
0.0
1001
ACAD
1000
DSTYLE
1002
{
1070
   172
1070
     1
1070
    40
1040
45.0
1070
   271
1070
     0
1070
   143
1040
0.039
1002
}
  0
ENDSEC
  0
EOF
