  0
SECTION
  2
HEADER
  9
$ACADVER
  1
AC1009
  9
$INSBASE
 10
0.0
 20
0.0
 30
0.0
  9
$EXTMIN
 10
0.0
 20
0.0
 30
0.0
  9
$EXTMAX
 10
9450.0
 20
13275.0
 30
0.0
  9
$LIMMIN
 10
0.0
 20
0.0
  9
$LIMMAX
 10
297.0
 20
210.0
  9
$ORTHOMODE
 70
     0
  9
$REGENMODE
 70
     1
  9
$FILLMODE
 70
     0
  9
$QTEXTMODE
 70
     0
  9
$MIRRTEXT
 70
     1
  9
$DRAGMODE
 70
     2
  9
$LTSCALE
 40
100.0
  9
$OSMODE
 70
    37
  9
$ATTMODE
 70
     1
  9
$TEXTSIZE
 40
180.0
  9
$TRACEWID
 40
0.05
  9
$TEXTSTYLE
  7
STANDARD
  9
$CLAYER
  8
3
  9
$CELTYPE
  6
BYLAYER
  9
$CECOLOR
 62
   256
  9
$DIMSCALE
 40
45.0
  9
$DIMASZ
 40
2.0
  9
$DIMEXO
 40
0.5
  9
$DIMDLI
 40
10.0
  9
$DIMRND
 40
0.0
  9
$DIMDLE
 40
0.0
  9
$DIMEXE
 40
1.0
  9
$DIMTP
 40
1.0
  9
$DIMTM
 40
1.0
  9
$DIMTXT
 40
3.0
  9
$DIMCEN
 40
0.0
  9
$DIMTSZ
 40
0.0
  9
$DIMTOL
 70
     0
  9
$DIMLIM
 70
     0
  9
$DIMTIH
 70
     0
  9
$DIMTOH
 70
     0
  9
$DIMSE1
 70
     0
  9
$DIMSE2
 70
     0
  9
$DIMTAD
 70
     1
  9
$DIMZIN
 70
     8
  9
$DIMBLK
  1

  9
$DIMASO
 70
     1
  9
$DIMSHO
 70
     1
  9
$DIMPOST
  1

  9
$DIMAPOST
  1

  9
$DIMALT
 70
     0
  9
$DIMALTD
 70
     2
  9
$DIMALTF
 40
0.039
  9
$DIMLFAC
 40
1.0
  9
$DIMTOFL
 70
     1
  9
$DIMTVP
 40
0.0
  9
$DIMTIX
 70
     0
  9
$DIMSOXD
 70
     0
  9
$DIMSAH
 70
     1
  9
$DIMBLK1
  1
OPEN
  9
$DIMBLK2
  1
OPEN
  9
$DIMSTYLE
  2
IGA
  9
$DIMCLRD
 70
     0
  9
$DIMCLRE
 70
     0
  9
$DIMCLRT
 70
     0
  9
$DIMTFAC
 40
10.0
  9
$DIMGAP
 40
1.0
  9
$LUNITS
 70
     2
  9
$LUPREC
 70
     3
  9
$SKETCHINC
 40
0.1
  9
$FILLETRAD
 40
50.0
  9
$AUNITS
 70
     0
  9
$AUPREC
 70
     0
  9
$MENU
  1
acad
  9
$ELEVATION
 40
0.0
  9
$PELEVATION
 40
0.0
  9
$THICKNESS
 40
0.0
  9
$LIMCHECK
 70
     0
  9
$BLIPMODE
 70
     0
  9
$CHAMFERA
 40
0.5
  9
$CHAMFERB
 40
0.5
  9
$SKPOLY
 70
     0
  9
$TDCREATE
 40
2452324.5841967589
  9
$TDUPDATE
 40
2454953.828690798
  9
$TDINDWG
 40
0.0673017245
  9
$TDUSRTIMER
 40
0.0673017245
  9
$USRTIMER
 70
     1
  9
$ANGBASE
 50
0.0
  9
$ANGDIR
 70
     0
  9
$PDMODE
 70
     0
  9
$PDSIZE
 40
0.0
  9
$PLINEWID
 40
0.0
  9
$COORDS
 70
     1
  9
$SPLFRAME
 70
     0
  9
$SPLINETYPE
 70
     6
  9
$SPLINESEGS
 70
     8
  9
$ATTDIA
 70
     0
  9
$ATTREQ
 70
     1
  9
$HANDLING
 70
 10241
  9
$HANDSEED
  5
80A8
  9
$SURFTAB1
 70
     6
  9
$SURFTAB2
 70
     6
  9
$SURFTYPE
 70
     6
  9
$SURFU
 70
     6
  9
$SURFV
 70
     6
  9
$UCSNAME
  2

  9
$UCSORG
 10
0.0
 20
0.0
 30
0.0
  9
$UCSXDIR
 10
1.0
 20
0.0
 30
0.0
  9
$UCSYDIR
 10
0.0
 20
1.0
 30
0.0
  9
$PUCSNAME
  2

  9
$PUCSORG
 10
0.0
 20
0.0
 30
0.0
  9
$PUCSXDIR
 10
1.0
 20
0.0
 30
0.0
  9
$PUCSYDIR
 10
0.0
 20
1.0
 30
0.0
  9
$USERI1
 70
     0
  9
$USERI2
 70
     0
  9
$USERI3
 70
     0
  9
$USERI4
 70
     0
  9
$USERI5
 70
     0
  9
$USERR1
 40
0.0
  9
$USERR2
 40
0.0
  9
$USERR3
 40
0.0
  9
$USERR4
 40
0.0
  9
$USERR5
 40
0.0
  9
$WORLDVIEW
 70
     1
  9
$SHADEDGE
 70
     3
  9
$SHADEDIF
 70
    70
  9
$TILEMODE
 70
     1
  9
$MAXACTVP
 70
    16
  9
$PLIMCHECK
 70
     0
  9
$PEXTMIN
 10
1.0000000000000000E+020
 20
1.0000000000000000E+020
 30
1.0000000000000000E+020
  9
$PEXTMAX
 10
-1.0000000000000000E+020
 20
-1.0000000000000000E+020
 30
-1.0000000000000000E+020
  9
$PLIMMIN
 10
0.0
 20
0.0
  9
$PLIMMAX
 10
12.0
 20
9.0
  9
$UNITMODE
 70
     0
  9
$VISRETAIN
 70
     0
  9
$PLINEGEN
 70
     0
  9
$PSLTSCALE
 70
     1
  0
ENDSEC
  0
SECTION
  2
TABLES
  0
TABLE
  2
VPORT
 70
     2
  0
VPORT
  2
*ACTIVE
 70
     0
 10
0.0
 20
0.0
 11
1.0
 21
1.0
 12
13562.960954446849
 22
9011.2450861320631
 13
0.0
 23
0.0
 14
10.0
 24
10.0
 15
10.0
 25
10.0
 16
0.0
 26
0.0
 36
1.0
 17
0.0
 27
0.0
 37
0.0
 40
18022.490172264119
 41
1.5051150895140659
 42
50.0
 43
0.0
 44
0.0
 50
0.0
 51
0.0
 71
     0
 72
   100
 73
     1
 74
     0
 75
     0
 76
     0
 77
     0
 78
     0
  0
ENDTAB
  0
TABLE
  2
LTYPE
 70
     2
  0
LTYPE
  2
CONTINUOUS
 70
     0
  3
Solid line
 72
    65
 73
     0
 40
0.0
  0
LTYPE
  2
CENTER
 70
     0
  3
____ _ ____ _ ____ _ ____ _ ____ _ ____ _ ____ 
 72
    65
 73
     4
 40
2.0
 49
1.25
 49
-0.25
 49
0.25
 49
-0.25
  0
ENDTAB
  0
TABLE
  2
LAYER
 70
     6
  0
LAYER
  2
0
 70
     0
 62
     7
  6
CONTINUOUS
  0
LAYER
  2
3
 70
     0
 62
     2
  6
CONTINUOUS
  0
LAYER
  2
2
 70
     0
 62
     3
  6
CENTER
  0
LAYER
  2
1
 70
     0
 62
     4
  6
CONTINUOUS
  0
LAYER
  2
4
 70
     0
 62
     7
  6
CONTINUOUS
  0
LAYER
  2
DEFPOINTS
 70
     0
 62
     7
  6
CONTINUOUS
  0
ENDTAB
  0
TABLE
  2
STYLE
 70
     1
  0
STYLE
  2
STANDARD
 70
     0
 40
0.0
 41
1.0
 50
0.0
 71
     0
 42
180.0
  3
simplex.shx
  4
extfont.shx
  0
ENDTAB
  0
TABLE
  2
VIEW
 70
     0
  0
ENDTAB
  0
TABLE
  2
UCS
 70
     0
  0
ENDTAB
  0
TABLE
  2
APPID
 70
     1
  0
APPID
  2
ACAD
 70
     0
  0
ENDTAB
  0
TABLE
  2
DIMSTYLE
 70
     1
  0
DIMSTYLE
  2
IGA
 70
     0
  3

  4

  5

  6
OPEN
  7
OPEN
 40
2.0
 41
2.0
 42
0.5
 43
10.0
 44
1.0
 45
0.0
 46
0.0
 47
1.0
 48
1.0
140
3.0
141
0.0
142
0.0
143
0.03937
144
1.0
145
0.0
146
10.0
147
1.0
 71
     0
 72
     0
 73
     0
 74
     0
 75
     0
 76
     0
 77
     1
 78
     8
170
     0
171
     2
172
     0
173
     1
174
     0
175
     0
176
     0
177
     0
178
     0
  0
ENDTAB
  0
ENDSEC
  0
SECTION
  2
BLOCKS
  0
BLOCK
  8
0
  2
$MODEL_SPACE
 70
     0
 10
0.0
 20
0.0
 30
0.0
  3
$MODEL_SPACE
  1

  0
ENDBLK
  5
1B
  8
0
  0
BLOCK
 67
     1
  8
0
  2
$PAPER_SPACE
 70
     0
 10
0.0
 20
0.0
 30
0.0
  3
$PAPER_SPACE
  1

  0
ENDBLK
  5
18
 67
     1
  8
0
  0
BLOCK
  8
0
  2
_OPEN
 70
     0
 10
0.0
 20
0.0
 30
0.0
  3
_OPEN
  1

  0
LINE
  5
79FD
  8
0
  6
BYBLOCK
 62
     0
 10
-1.0
 20
0.1666666666666666
 30
0.0
 11
0.0
 21
0.0
 31
0.0
  0
LINE
  5
79FE
  8
0
  6
BYBLOCK
 62
     0
 10
0.0
 20
0.0
 30
0.0
 11
-1.0
 21
-0.1666666666666666
 31
0.0
  0
LINE
  5
79FF
  8
0
  6
BYBLOCK
 62
     0
 10
0.0
 20
0.0
 30
0.0
 11
-1.0
 21
0.0
 31
0.0
  0
ENDBLK
  5
7A01
  8
0
  0
BLOCK
  8
0
  2
*D1
 70
     1
 10
0.0
 20
0.0
 30
0.0
  3
*D1
  1

  0
LINE
  5
8012
  8
3
 62
     0
 10
8098.6602122445229
 20
4866.9965571829498
 30
0.0
 11
8562.496371420204
 21
4866.9965571829498
 31
0.0
  0
LINE
  5
8013
  8
3
 62
     0
 10
8098.6602122445229
 20
3466.9965571829498
 30
0.0
 11
8562.4963714202022
 21
3466.9965571829498
 31
0.0
  0
LINE
  5
8014
  8
3
 62
     0
 10
8517.496371420204
 20
4776.9965571829498
 30
0.0
 11
8517.4963714202022
 21
3556.9965571829498
 31
0.0
  0
INSERT
  5
8015
  8
3
 62
     0
  2
_OPEN
 10
8517.496371420204
 20
4866.9965571829498
 30
0.0
 41
90.0
 42
90.0
 43
90.0
 50
90.0
  0
INSERT
  5
8016
  8
3
 62
     0
  2
_OPEN
 10
8517.4963714202022
 20
3466.9965571829498
 30
0.0
 41
90.0
 42
90.0
 43
90.0
 50
270.0
  0
TEXT
  8
3
  40
135
  5
8098
  62
0
  72
0
  71
0
 10
8135.00
 20
3901.52
 30
0.000000
  1
φ1400
  0
POINT
  5
8018
  8
DEFPOINTS
 62
     0
 10
8076.160212244522
 20
4866.9965571829498
 30
0.0
  0
POINT
  5
8019
  8
DEFPOINTS
 62
     0
 10
8076.160212244522
 20
3466.9965571829498
 30
0.0
  0
POINT
  5
801A
  8
DEFPOINTS
 62
     0
 10
8517.4963714202022
 20
3466.9965571829498
 30
0.0
  0
ENDBLK
  5
7BDE
  8
0
  0
BLOCK
  8
0
  2
*D2
 70
     1
 10
0.0
 20
0.0
 30
0.0
  3
*D2
  1

  0
LINE
  5
801B
  8
3
 62
     0
 10
1905.19090151623
 20
9459.0962472078554
 30
0.0
 11
1905.19090151623
 21
9770.3632812756696
 31
0.0
  0
LINE
  5
801C
  8
3
 62
     0
 10
3605.19090151623
 20
9459.0962472078554
 30
0.0
 11
3605.19090151623
 21
9770.3632812756696
 31
0.0
  0
LINE
  5
801D
  8
3
 62
     0
 10
1995.190901516231
 20
9725.3632812756696
 30
0.0
 11
3515.190901516231
 21
9725.3632812756696
 31
0.0
  0
INSERT
  5
801E
  8
3
 62
     0
  2
_OPEN
 10
1905.19090151623
 20
9725.3632812756696
 30
0.0
 41
90.0
 42
90.0
 43
90.0
 50
180.0
  0
INSERT
  5
801F
  8
3
 62
     0
  2
_OPEN
 10
3605.19090151623
 20
9725.3632812756696
 30
0.0
 41
90.0
 42
90.0
 43
90.0
  0
TEXT
  8
3
  40
135
  5
8099
  62
0
  72
0
  71
0
 10
2487.63
 20
9598.91
 30
0.000000
  1
1700
  0
POINT
  5
8021
  8
DEFPOINTS
 62
     0
 10
1905.19090151623
 20
9436.5962472078554
 30
0.0
  0
POINT
  5
8022
  8
DEFPOINTS
 62
     0
 10
3605.19090151623
 20
9436.5962472078554
 30
0.0
  0
POINT
  5
8023
  8
DEFPOINTS
 62
     0
 10
3605.19090151623
 20
9725.3632812756696
 30
0.0
  0
ENDBLK
  5
7C77
  8
0
  0
BLOCK
  8
0
  2
*D3
 70
     1
 10
0.0
 20
0.0
 30
0.0
  3
*D3
  1

  0
LINE
  5
8024
  8
3
 62
     0
 10
4805.190901516231
 20
8199.0962472078554
 30
0.0
 11
4805.190901516231
 21
9770.3632812756696
 31
0.0
  0
LINE
  5
8025
  8
3
 62
     0
 10
3695.19090151623
 20
9725.3632812756696
 30
0.0
 11
4715.190901516231
 21
9725.3632812756696
 31
0.0
  0
INSERT
  5
8026
  8
3
 62
     0
  2
_OPEN
 10
3605.19090151623
 20
9725.3632812756696
 30
0.0
 41
90.0
 42
90.0
 43
90.0
 50
180.0
  0
INSERT
  5
8027
  8
3
 62
     0
  2
_OPEN
 10
4805.190901516231
 20
9725.3632812756696
 30
0.0
 41
90.0
 42
90.0
 43
90.0
  0
TEXT
  8
3
  40
135
  5
809A
  62
0
  72
0
  71
0
 10
3935.19
 20
9598.91
 30
0.000000
  1
1200
  0
POINT
  5
8029
  8
DEFPOINTS
 62
     0
 10
3605.19090151623
 20
9436.5962472078554
 30
0.0
  0
POINT
  5
802A
  8
DEFPOINTS
 62
     0
 10
4805.190901516231
 20
8176.5962472078554
 30
0.0
  0
POINT
  5
802B
  8
DEFPOINTS
 62
     0
 10
4805.190901516231
 20
9725.3632812756696
 30
0.0
  0
ENDBLK
  5
7C83
  8
0
  0
BLOCK
  8
0
  2
*D4
 70
     1
 10
0.0
 20
0.0
 30
0.0
  3
*D4
  1

  0
LINE
  5
802C
  8
3
 62
     0
 10
4827.690901516231
 20
8176.5962472078554
 30
0.0
 11
5291.8519401693338
 21
8176.5962472078554
 31
0.0
  0
LINE
  5
802D
  8
3
 62
     0
 10
4827.690901516231
 20
7076.5962472078563
 30
0.0
 11
5291.8519401693338
 21
7076.5962472078563
 31
0.0
  0
LINE
  5
802E
  8
3
 62
     0
 10
5246.8519401693347
 20
8086.5962472078563
 30
0.0
 11
5246.8519401693347
 21
7166.5962472078563
 31
0.0
  0
INSERT
  5
802F
  8
3
 62
     0
  2
_OPEN
 10
5246.8519401693347
 20
8176.5962472078554
 30
0.0
 41
90.0
 42
90.0
 43
90.0
 50
90.0
  0
INSERT
  5
8030
  8
3
 62
     0
  2
_OPEN
 10
5246.8519401693347
 20
7076.5962472078563
 30
0.0
 41
90.0
 42
90.0
 43
90.0
 50
270.0
  0
TEXT
  8
3
  40
135
  5
809B
  62
0
  72
0
  71
0
 10
4864.35
 20
7387.87
 30
0.000000
  1
1100
  0
POINT
  5
8032
  8
DEFPOINTS
 62
     0
 10
4805.190901516231
 20
8176.5962472078554
 30
0.0
  0
POINT
  5
8033
  8
DEFPOINTS
 62
     0
 10
4805.190901516231
 20
7076.5962472078563
 30
0.0
  0
POINT
  5
8034
  8
DEFPOINTS
 62
     0
 10
5246.8519401693347
 20
7076.5962472078563
 30
0.0
  0
ENDBLK
  5
7C90
  8
0
  0
BLOCK
  8
0
  2
*D5
 70
     1
 10
0.0
 20
0.0
 30
0.0
  3
*D5
  1

  0
LINE
  5
8035
  8
3
 62
     0
 10
1882.690901516231
 20
9436.5962472078554
 30
0.0
 11
1490.244146453414
 21
9436.5962472078554
 31
0.0
  0
LINE
  5
8036
  8
3
 62
     0
 10
1882.690901516231
 20
7076.5962472078563
 30
0.0
 11
1490.244146453414
 21
7076.5962472078563
 31
0.0
  0
LINE
  5
8037
  8
3
 62
     0
 10
1535.244146453414
 20
9346.5962472078554
 30
0.0
 11
1535.244146453414
 21
7166.5962472078563
 31
0.0
  0
INSERT
  5
8038
  8
3
 62
     0
  2
_OPEN
 10
1535.244146453414
 20
9436.5962472078554
 30
0.0
 41
90.0
 42
90.0
 43
90.0
 50
90.0
  0
INSERT
  5
8039
  8
3
 62
     0
  2
_OPEN
 10
1535.244146453414
 20
7076.5962472078563
 30
0.0
 41
90.0
 42
90.0
 43
90.0
 50
270.0
  0
TEXT
  8
3
  40
135
  5
809C
  62
0
  72
0
  71
0
 10
1152.74
 20
7976.35
 30
0.000000
  1
2360
  0
POINT
  5
803B
  8
DEFPOINTS
 62
     0
 10
1905.19090151623
 20
9436.5962472078554
 30
0.0
  0
POINT
  5
803C
  8
DEFPOINTS
 62
     0
 10
1905.19090151623
 20
7076.5962472078563
 30
0.0
  0
POINT
  5
803D
  8
DEFPOINTS
 62
     0
 10
1535.244146453414
 20
7076.5962472078563
 30
0.0
  0
ENDBLK
  5
7C9D
  8
0
  0
BLOCK
  8
0
  2
*D6
 70
     1
 10
0.0
 20
0.0
 30
0.0
  3
*D6
  1

  0
LINE
  5
803E
  8
3
 62
     0
 10
1905.19090151623
 20
7054.0962472078563
 30
0.0
 11
1905.19090151623
 21
6571.4034622795371
 31
0.0
  0
LINE
  5
803F
  8
3
 62
     0
 10
4805.190901516231
 20
7054.0962472078563
 30
0.0
 11
4805.190901516231
 21
6571.4034622795371
 31
0.0
  0
LINE
  5
8040
  8
3
 62
     0
 10
1995.190901516231
 20
6616.4034622795371
 30
0.0
 11
4715.190901516231
 21
6616.4034622795371
 31
0.0
  0
INSERT
  5
8041
  8
3
 62
     0
  2
_OPEN
 10
1905.19090151623
 20
6616.4034622795371
 30
0.0
 41
90.0
 42
90.0
 43
90.0
 50
180.0
  0
INSERT
  5
8042
  8
3
 62
     0
  2
_OPEN
 10
4805.190901516231
 20
6616.4034622795371
 30
0.0
 41
90.0
 42
90.0
 43
90.0
  0
TEXT
  8
3
  40
135
  5
809D
  62
0
  72
0
  71
0
 10
2998.81
 20
6489.95
 30
0.000000
  1
2900
  0
POINT
  5
8044
  8
DEFPOINTS
 62
     0
 10
1905.19090151623
 20
7076.5962472078563
 30
0.0
  0
POINT
  5
8045
  8
DEFPOINTS
 62
     0
 10
4805.190901516231
 20
7076.5962472078563
 30
0.0
  0
POINT
  5
8046
  8
DEFPOINTS
 62
     0
 10
4805.190901516231
 20
6616.4034622795371
 30
0.0
  0
ENDBLK
  5
7CAA
  8
0
  0
BLOCK
  8
0
  2
*D7
 70
     1
 10
0.0
 20
0.0
 30
0.0
  3
*D7
  1

  0
LINE
  5
8047
  8
3
 62
     0
 10
1825.19090151623
 20
5734.4965571829498
 30
0.0
 11
1825.19090151623
 21
5963.7725373309513
 31
0.0
  0
LINE
  5
8048
  8
3
 62
     0
 10
2755.190901516231
 20
5745.9338445943467
 30
0.0
 11
2755.190901516231
 21
5963.7725373309513
 31
0.0
  0
LINE
  5
8049
  8
3
 62
     0
 10
1915.1909015162289
 20
5918.7725373309513
 30
0.0
 11
2665.190901516231
 21
5918.7725373309513
 31
0.0
  0
INSERT
  5
804A
  8
3
 62
     0
  2
_OPEN
 10
1825.19090151623
 20
5918.7725373309513
 30
0.0
 41
90.0
 42
90.0
 43
90.0
 50
180.0
  0
INSERT
  5
804B
  8
3
 62
     0
  2
_OPEN
 10
2755.190901516231
 20
5918.7725373309513
 30
0.0
 41
90.0
 42
90.0
 43
90.0
  0
TEXT
  8
3
  40
135
  5
809E
  62
0
  72
0
  71
0
 10
2040.74
 20
5792.32
 30
0.000000
  1
930
  0
POINT
  5
804D
  8
DEFPOINTS
 62
     0
 10
1825.19090151623
 20
5711.9965571829507
 30
0.0
  0
POINT
  5
804E
  8
DEFPOINTS
 62
     0
 10
2755.190901516231
 20
5723.4338445943467
 30
0.0
  0
POINT
  5
804F
  8
DEFPOINTS
 62
     0
 10
2755.190901516231
 20
5918.7725373309513
 30
0.0
  0
ENDBLK
  5
7CD0
  8
0
  0
BLOCK
  8
0
  2
*D8
 70
     1
 10
0.0
 20
0.0
 30
0.0
  3
*D8
  1

  0
LINE
  5
8050
  8
3
 62
     0
 10
1802.690901516231
 20
5657.9965571829507
 30
0.0
 11
1504.160735846229
 21
5657.9965571829507
 31
0.0
  0
LINE
  5
8051
  8
3
 62
     0
 10
1802.690901516231
 20
4207.9965571829498
 30
0.0
 11
1504.1607358462279
 21
4207.9965571829498
 31
0.0
  0
LINE
  5
8052
  8
3
 62
     0
 10
1549.1607358462279
 20
5567.9965571829507
 30
0.0
 11
1549.1607358462279
 21
4297.9965571829498
 31
0.0
  0
INSERT
  5
8053
  8
3
 62
     0
  2
_OPEN
 10
1549.160735846229
 20
5657.9965571829507
 30
0.0
 41
90.0
 42
90.0
 43
90.0
 50
90.0
  0
INSERT
  5
8054
  8
3
 62
     0
  2
_OPEN
 10
1549.1607358462279
 20
4207.9965571829498
 30
0.0
 41
90.0
 42
90.0
 43
90.0
 50
270.0
  0
TEXT
  8
3
  40
135
  5
809F
  62
0
  72
0
  71
0
 10
1166.66
 20
4720.30
 30
0.000000
  1
1450
  0
POINT
  5
8056
  8
DEFPOINTS
 62
     0
 10
1825.19090151623
 20
5657.9965571829507
 30
0.0
  0
POINT
  5
8057
  8
DEFPOINTS
 62
     0
 10
1825.19090151623
 20
4207.9965571829498
 30
0.0
  0
POINT
  5
8058
  8
DEFPOINTS
 62
     0
 10
1549.1607358462279
 20
4207.9965571829498
 30
0.0
  0
ENDBLK
  5
7CF6
  8
0
  0
BLOCK
  8
0
  2
*D9
 70
     1
 10
0.0
 20
0.0
 30
0.0
  3
*D9
  1

  0
LINE
  5
8059
  8
3
 62
     0
 10
1802.690901516231
 20
5657.9965571829507
 30
0.0
 11
1259.6474771333169
 21
5657.9965571829507
 31
0.0
  0
LINE
  5
805A
  8
3
 62
     0
 10
1562.40305418444
 20
4166.9965571829498
 30
0.0
 11
1259.647477133316
 21
4166.9965571829498
 31
0.0
  0
LINE
  5
805B
  8
3
 62
     0
 10
1304.647477133316
 20
5567.9965571829507
 30
0.0
 11
1304.647477133316
 21
4256.9965571829498
 31
0.0
  0
INSERT
  5
805C
  8
3
 62
     0
  2
_OPEN
 10
1304.6474771333169
 20
5657.9965571829507
 30
0.0
 41
90.0
 42
90.0
 43
90.0
 50
90.0
  0
INSERT
  5
805D
  8
3
 62
     0
  2
_OPEN
 10
1304.647477133316
 20
4166.9965571829498
 30
0.0
 41
90.0
 42
90.0
 43
90.0
 50
270.0
  0
TEXT
  8
3
  40
135
  5
80A0
  62
0
  72
0
  71
0
 10
922.147
 20
4712.66
 30
0.000000
  1
1491
  0
POINT
  5
805F
  8
DEFPOINTS
 62
     0
 10
1825.19090151623
 20
5657.9965571829507
 30
0.0
  0
POINT
  5
8060
  8
DEFPOINTS
 62
     0
 10
1584.90305418444
 20
4166.9965571829498
 30
0.0
  0
POINT
  5
8061
  8
DEFPOINTS
 62
     0
 10
1304.647477133316
 20
4166.9965571829498
 30
0.0
  0
ENDBLK
  5
7CEA
  8
0
  0
BLOCK
  8
0
  2
*D10
 70
     1
 10
0.0
 20
0.0
 30
0.0
  3
*D10
  1

  0
LINE
  5
8062
  8
3
 62
     0
 10
1882.690901516231
 20
3126.9965571829498
 30
0.0
 11
1259.647477133316
 21
3126.9965571829498
 31
0.0
  0
LINE
  5
8063
  8
3
 62
     0
 10
1304.647477133316
 20
4076.9965571829498
 30
0.0
 11
1304.647477133316
 21
3216.9965571829498
 31
0.0
  0
INSERT
  5
8064
  8
3
 62
     0
  2
_OPEN
 10
1304.647477133316
 20
4166.9965571829498
 30
0.0
 41
90.0
 42
90.0
 43
90.0
 50
90.0
  0
INSERT
  5
8065
  8
3
 62
     0
  2
_OPEN
 10
1304.647477133316
 20
3126.9965571829498
 30
0.0
 41
90.0
 42
90.0
 43
90.0
 50
270.0
  0
TEXT
  8
3
  40
135
  5
80A1
  62
0
  72
0
  71
0
 10
922.147
 20
3408.05
 30
0.000000
  1
1040
  0
POINT
  5
8067
  8
DEFPOINTS
 62
     0
 10
1584.90305418444
 20
4166.9965571829498
 30
0.0
  0
POINT
  5
8068
  8
DEFPOINTS
 62
     0
 10
1905.19090151623
 20
3126.9965571829498
 30
0.0
  0
POINT
  5
8069
  8
DEFPOINTS
 62
     0
 10
1304.647477133316
 20
3126.9965571829498
 30
0.0
  0
ENDBLK
  5
7D0D
  8
0
  0
BLOCK
  8
0
  2
_DOT
 70
     0
 10
0.0
 20
0.0
 30
0.0
  3
_DOT
  1

  0
LINE
  5
7E31
  8
0
  6
BYBLOCK
 62
     0
 10
0.0
 20
0.0
 30
0.0
 11
-1.0
 21
-0.0000000000000284
 31
0.0
  0
POLYLINE
  5
7E32
  8
0
  6
BYBLOCK
 62
     0
 66
     1
 10
0.0
 20
0.0
 30
0.0
 70
     1
 40
0.1666666666666666
 41
0.1666666666666666
  0
VERTEX
  5
8095
  8
0
  6
BYBLOCK
 62
     0
 10
-0.0833333333333286
 20
-0.0000000000000284
 30
0.0
 42
1.0
  0
VERTEX
  5
8096
  8
0
  6
BYBLOCK
 62
     0
 10
0.0833333333333286
 20
-0.0000000000000284
 30
0.0
 42
1.0
  0
SEQEND
  5
8097
  8
0
  6
BYBLOCK
 62
     0
  0
ENDBLK
  5
7D63
  8
0
  0
BLOCK
  8
0
  2
*D12
 70
     1
 10
0.0
 20
0.0
 30
0.0
  3
*D12
  1

  0
LINE
  5
806A
  8
3
 62
     0
 10
3962.190901516231
 20
4291.4965571829498
 30
0.0
 11
3962.190901516231
 21
5963.7725373309513
 31
0.0
  0
LINE
  5
806B
  8
3
 62
     0
 10
2845.190901516231
 20
5918.7725373309513
 30
0.0
 11
3872.190901516231
 21
5918.7725373309513
 31
0.0
  0
INSERT
  5
806C
  8
3
 62
     0
  2
_OPEN
 10
2755.190901516231
 20
5918.7725373309513
 30
0.0
 41
90.0
 42
90.0
 43
90.0
 50
180.0
  0
INSERT
  5
806D
  8
3
 62
     0
  2
_OPEN
 10
3962.190901516231
 20
5918.7725373309513
 30
0.0
 41
90.0
 42
90.0
 43
90.0
  0
TEXT
  8
3
  40
135
  5
80A2
  62
0
  72
0
  71
0
 10
3088.69
 20
5792.32
 30
0.000000
  1
1207
  0
POINT
  5
806F
  8
DEFPOINTS
 62
     0
 10
2755.190901516231
 20
5723.4338445943467
 30
0.0
  0
POINT
  5
8070
  8
DEFPOINTS
 62
     0
 10
3962.190901516231
 20
4268.9965571829498
 30
0.0
  0
POINT
  5
8071
  8
DEFPOINTS
 62
     0
 10
3962.190901516231
 20
5918.7725373309513
 30
0.0
  0
ENDBLK
  5
7DC5
  8
0
  0
BLOCK
  8
0
  2
*D13
 70
     1
 10
0.0
 20
0.0
 30
0.0
  3
*D13
  1

  0
LINE
  5
8072
  8
3
 62
     0
 10
1825.19090151623
 20
5734.4965571829498
 30
0.0
 11
1825.19090151623
 21
6231.2360405014624
 31
0.0
  0
LINE
  5
8073
  8
3
 62
     0
 10
4805.190901516231
 20
3299.4965571829512
 30
0.0
 11
4805.190901516231
 21
6231.2360405014624
 31
0.0
  0
LINE
  5
8074
  8
3
 62
     0
 10
1915.1909015162289
 20
6186.2360405014624
 30
0.0
 11
4715.190901516231
 21
6186.2360405014624
 31
0.0
  0
INSERT
  5
8075
  8
3
 62
     0
  2
_OPEN
 10
1825.19090151623
 20
6186.2360405014624
 30
0.0
 41
90.0
 42
90.0
 43
90.0
 50
180.0
  0
INSERT
  5
8076
  8
3
 62
     0
  2
_OPEN
 10
4805.190901516231
 20
6186.2360405014624
 30
0.0
 41
90.0
 42
90.0
 43
90.0
  0
TEXT
  8
3
  40
135
  5
80A3
  62
0
  72
0
  71
0
 10
3027.57
 20
6059.79
 30
0.000000
  1
2980
  0
POINT
  5
8078
  8
DEFPOINTS
 62
     0
 10
1825.19090151623
 20
5711.9965571829507
 30
0.0
  0
POINT
  5
8079
  8
DEFPOINTS
 62
     0
 10
4805.190901516231
 20
3276.9965571829498
 30
0.0
  0
POINT
  5
807A
  8
DEFPOINTS
 62
     0
 10
4805.190901516231
 20
6186.2360405014624
 30
0.0
  0
ENDBLK
  5
7DD2
  8
0
  0
BLOCK
  8
0
  2
*D14
 70
     1
 10
0.0
 20
0.0
 30
0.0
  3
*D14
  1

  0
LINE
  5
807B
  8
3
 62
     0
 10
6176.1602122445211
 20
5680.4965571829507
 30
0.0
 11
6176.1602122445211
 21
5917.1381405516413
 31
0.0
  0
LINE
  5
807C
  8
3
 62
     0
 10
8076.160212244522
 20
5680.4965571829507
 30
0.0
 11
8076.160212244522
 21
5917.1381405516413
 31
0.0
  0
LINE
  5
807D
  8
3
 62
     0
 10
6266.1602122445211
 20
5872.1381405516413
 30
0.0
 11
7986.1602122445202
 21
5872.1381405516413
 31
0.0
  0
INSERT
  5
807E
  8
3
 62
     0
  2
_OPEN
 10
6176.1602122445211
 20
5872.1381405516413
 30
0.0
 41
90.0
 42
90.0
 43
90.0
 50
180.0
  0
INSERT
  5
807F
  8
3
 62
     0
  2
_OPEN
 10
8076.160212244522
 20
5872.1381405516413
 30
0.0
 41
90.0
 42
90.0
 43
90.0
  0
TEXT
  8
3
  40
135
  5
80A4
  62
0
  72
0
  71
0
 10
6854.03
 20
5745.69
 30
0.000000
  1
1900
  0
POINT
  5
8081
  8
DEFPOINTS
 62
     0
 10
6176.1602122445211
 20
5657.9965571829507
 30
0.0
  0
POINT
  5
8082
  8
DEFPOINTS
 62
     0
 10
8076.160212244522
 20
5657.9965571829516
 30
0.0
  0
POINT
  5
8083
  8
DEFPOINTS
 62
     0
 10
8076.160212244522
 20
5872.1381405516413
 30
0.0
  0
ENDBLK
  5
7DF8
  8
0
  0
BLOCK
  8
0
  2
*D15
 70
     1
 10
0.0
 20
0.0
 30
0.0
  3
*D15
  1

  0
LINE
  5
8084
  8
3
 62
     0
 10
8256.3602122445209
 20
4119.4965571829507
 30
0.0
 11
8256.3602122445209
 21
6285.1236956323219
 31
0.0
  0
LINE
  5
8085
  8
3
 62
     0
 10
7126.1602122445211
 20
6083.8907026759771
 30
0.0
 11
7126.1602122445211
 21
6285.1236956323219
 31
0.0
  0
LINE
  5
8086
  8
3
 62
     0
 10
8166.3602122445209
 20
6240.1236956323228
 30
0.0
 11
7216.1602122445211
 21
6240.1236956323228
 31
0.0
  0
INSERT
  5
8087
  8
3
 62
     0
  2
_OPEN
 10
8256.3602122445209
 20
6240.1236956323228
 30
0.0
 41
90.0
 42
90.0
 43
90.0
  0
INSERT
  5
8088
  8
3
 62
     0
  2
_OPEN
 10
7126.1602122445211
 20
6240.1236956323228
 30
0.0
 41
90.0
 42
90.0
 43
90.0
 50
180.0
  0
TEXT
  8
3
  40
135
  5
80A5
  62
0
  72
0
  71
0
 10
7387.04
 20
6149.03
 30
0.000000
  1
(1130)
  0
POINT
  5
808A
  8
DEFPOINTS
 62
     0
 10
8256.3602122445209
 20
4096.9965571829498
 30
0.0
  0
POINT
  5
808B
  8
DEFPOINTS
 62
     0
 10
7126.1602122445211
 20
6061.3907026759771
 30
0.0
  0
POINT
  5
808C
  8
DEFPOINTS
 62
     0
 10
7126.1602122445211
 20
6240.1236956323228
 30
0.0
  0
ENDBLK
  5
7E5A
  8
0
  0
BLOCK
  8
0
  2
*D16
 70
     1
 10
0.0
 20
0.0
 30
0.0
  3
*D16
  1

  0
LINE
  5
808D
  8
3
 62
     0
 10
5757.160212244522
 20
4569.4965571829498
 30
0.0
 11
5757.160212244522
 21
6285.1236956323219
 31
0.0
  0
LINE
  5
808E
  8
3
 62
     0
 10
7036.1602122445211
 20
6240.1236956323228
 30
0.0
 11
5847.160212244522
 21
6240.1236956323228
 31
0.0
  0
INSERT
  5
808F
  8
3
 62
     0
  2
_OPEN
 10
7126.1602122445211
 20
6240.1236956323228
 30
0.0
 41
90.0
 42
90.0
 43
90.0
  0
INSERT
  5
8090
  8
3
 62
     0
  2
_OPEN
 10
5757.160212244522
 20
6240.1236956323228
 30
0.0
 41
90.0
 42
90.0
 43
90.0
 50
180.0
  0
TEXT
  8
3
  40
135
  5
80A6
  62
0
  72
0
  71
0
 10
6171.66
 20
6226.17
 30
0.000000
  1
MAX
  0
TEXT
  8
3
  40
135
  5
80A7
  62
0
  72
0
  71
0
 10
6171.66
 20
6050.67
 30
0.000000
  1
1450
  0
POINT
  5
8092
  8
DEFPOINTS
 62
     0
 10
7126.1602122445211
 20
6061.3907026759771
 30
0.0
  0
POINT
  5
8093
  8
DEFPOINTS
 62
     0
 10
5757.160212244522
 20
4546.9965571829498
 30
0.0
  0
POINT
  5
8094
  8
DEFPOINTS
 62
     0
 10
5757.160212244522
 20
6240.1236956323228
 30
0.0
  0
ENDBLK
  5
7E4B
  8
0
  0
BLOCK
  8
0
  2
_NONE
 70
     0
 10
0.0
 20
0.0
 30
0.0
  3
_NONE
  1

  0
CIRCLE
  5
7E9E
  8
0
  6
BYBLOCK
 62
     0
 10
0.0
 20
0.0
 30
0.0
 40
0.25
  0
ENDBLK
  5
7E9F
  8
0
  0
BLOCK
  8
0
  2
*D18
 70
     1
 10
0.0
 20
0.0
 30
0.0
  3
*D18
  1

  0
LINE
  5
7F02
  8
0
  6
BYBLOCK
 62
     0
 10
1905.19090151623
 20
3104.4965571829512
 30
0.0
 11
1905.19090151623
 21
2777.4603548447549
 31
0.0
  0
LINE
  5
7F03
  8
0
  6
BYBLOCK
 62
     0
 10
2755.190901516231
 20
3104.4965571829512
 30
0.0
 11
2755.190901516231
 21
2777.4603548447549
 31
0.0
  0
LINE
  5
7F04
  8
0
  6
BYBLOCK
 62
     0
 10
1995.190901516231
 20
2822.4603548447549
 30
0.0
 11
2665.190901516231
 21
2822.4603548447549
 31
0.0
  0
INSERT
  5
7F05
  8
0
  6
BYBLOCK
 62
     0
  2
_OPEN
 10
1905.19090151623
 20
2822.4603548447549
 30
0.0
 41
90.0
 42
90.0
 43
90.0
 50
180.0
  0
INSERT
  5
7F06
  8
0
  6
BYBLOCK
 62
     0
  2
_OPEN
 10
2755.190901516231
 20
2822.4603548447549
 30
0.0
 41
90.0
 42
90.0
 43
90.0
  0
TEXT
  5
7F07
  8
3
 62
     0
 10
2156.6194729448021
 20
2867.4603548447549
 30
0.0
 40
135.0
  1
850
  0
POINT
  5
7F08
  8
DEFPOINTS
  6
BYBLOCK
 62
     0
 10
1905.19090151623
 20
3126.9965571829498
 30
0.0
  0
POINT
  5
7F09
  8
DEFPOINTS
  6
BYBLOCK
 62
     0
 10
2755.190901516231
 20
3126.9965571829512
 30
0.0
  0
POINT
  5
7F0A
  8
DEFPOINTS
  6
BYBLOCK
 62
     0
 10
2755.190901516231
 20
2822.4603548447549
 30
0.0
  0
ENDBLK
  5
7F0B
  8
0
  0
BLOCK
  8
0
  2
*D19
 70
     1
 10
0.0
 20
0.0
 30
0.0
  3
*D19
  1

  0
LINE
  5
7F0F
  8
0
  6
BYBLOCK
 62
     0
 10
2755.190901516231
 20
3104.4965571829512
 30
0.0
 11
2755.190901516231
 21
2777.4603548447549
 31
0.0
  0
LINE
  5
7F10
  8
0
  6
BYBLOCK
 62
     0
 10
4805.190901516231
 20
3104.4965571829512
 30
0.0
 11
4805.190901516231
 21
2777.4603548447549
 31
0.0
  0
LINE
  5
7F11
  8
0
  6
BYBLOCK
 62
     0
 10
2845.190901516231
 20
2822.4603548447549
 30
0.0
 11
4715.190901516231
 21
2822.4603548447549
 31
0.0
  0
INSERT
  5
7F12
  8
0
  6
BYBLOCK
 62
     0
  2
_OPEN
 10
2755.190901516231
 20
2822.4603548447549
 30
0.0
 41
90.0
 42
90.0
 43
90.0
 50
180.0
  0
INSERT
  5
7F13
  8
0
  6
BYBLOCK
 62
     0
  2
_OPEN
 10
4805.190901516231
 20
2822.4603548447549
 30
0.0
 41
90.0
 42
90.0
 43
90.0
  0
TEXT
  5
7F14
  8
3
 62
     0
 10
3542.3337586590878
 20
2867.4603548447549
 30
0.0
 40
135.0
  1
2050
  0
POINT
  5
7F15
  8
DEFPOINTS
  6
BYBLOCK
 62
     0
 10
2755.190901516231
 20
3126.9965571829512
 30
0.0
  0
POINT
  5
7F16
  8
DEFPOINTS
  6
BYBLOCK
 62
     0
 10
4805.190901516231
 20
3126.9965571829498
 30
0.0
  0
POINT
  5
7F17
  8
DEFPOINTS
  6
BYBLOCK
 62
     0
 10
4805.190901516231
 20
2822.4603548447549
 30
0.0
  0
ENDBLK
  5
7F18
  8
0
  0
BLOCK
  8
0
  2
*D20
 70
     1
 10
0.0
 20
0.0
 30
0.0
  3
*D20
  1

  0
LINE
  5
7F1C
  8
0
  6
BYBLOCK
 62
     0
 10
5795.160212244522
 20
3104.4965571829512
 30
0.0
 11
5795.160212244522
 21
2777.4603548447549
 31
0.0
  0
LINE
  5
7F1D
  8
0
  6
BYBLOCK
 62
     0
 10
7126.1602122445202
 20
3104.4965571829512
 30
0.0
 11
7126.1602122445202
 21
2777.4603548447549
 31
0.0
  0
LINE
  5
7F1E
  8
0
  6
BYBLOCK
 62
     0
 10
5885.160212244522
 20
2822.4603548447549
 30
0.0
 11
7036.1602122445211
 21
2822.4603548447549
 31
0.0
  0
INSERT
  5
7F1F
  8
0
  6
BYBLOCK
 62
     0
  2
_OPEN
 10
5795.160212244522
 20
2822.4603548447549
 30
0.0
 41
90.0
 42
90.0
 43
90.0
 50
180.0
  0
INSERT
  5
7F20
  8
0
  6
BYBLOCK
 62
     0
  2
_OPEN
 10
7126.1602122445202
 20
2822.4603548447549
 30
0.0
 41
90.0
 42
90.0
 43
90.0
  0
TEXT
  5
7F21
  8
3
 62
     0
 10
6264.5887836730926
 20
2867.4603548447549
 30
0.0
 40
135.0
  1
1331
  0
POINT
  5
7F22
  8
DEFPOINTS
  6
BYBLOCK
 62
     0
 10
5795.160212244522
 20
3126.9965571829498
 30
0.0
  0
POINT
  5
7F23
  8
DEFPOINTS
  6
BYBLOCK
 62
     0
 10
7126.1602122445202
 20
3126.9965571829498
 30
0.0
  0
POINT
  5
7F24
  8
DEFPOINTS
  6
BYBLOCK
 62
     0
 10
7126.1602122445202
 20
2822.4603548447549
 30
0.0
  0
ENDBLK
  5
7F25
  8
0
  0
BLOCK
  8
0
  2
*D21
 70
     1
 10
0.0
 20
0.0
 30
0.0
  3
*D21
  1

  0
LINE
  5
7F29
  8
0
  6
BYBLOCK
 62
     0
 10
7126.1602122445202
 20
3104.4965571829512
 30
0.0
 11
7126.1602122445202
 21
2777.4603548447549
 31
0.0
  0
LINE
  5
7F2A
  8
0
  6
BYBLOCK
 62
     0
 10
8155.160212244522
 20
3104.4965571829512
 30
0.0
 11
8155.160212244522
 21
2777.4603548447549
 31
0.0
  0
LINE
  5
7F2B
  8
0
  6
BYBLOCK
 62
     0
 10
7216.1602122445202
 20
2822.4603548447549
 30
0.0
 11
8065.160212244522
 21
2822.4603548447549
 31
0.0
  0
INSERT
  5
7F2C
  8
0
  6
BYBLOCK
 62
     0
  2
_OPEN
 10
7126.1602122445202
 20
2822.4603548447549
 30
0.0
 41
90.0
 42
90.0
 43
90.0
 50
180.0
  0
INSERT
  5
7F2D
  8
0
  6
BYBLOCK
 62
     0
  2
_OPEN
 10
8155.160212244522
 20
2822.4603548447549
 30
0.0
 41
90.0
 42
90.0
 43
90.0
  0
TEXT
  5
7F2E
  8
3
 62
     0
 10
7418.8744979588073
 20
2867.4603548447549
 30
0.0
 40
135.0
  1
1029
  0
POINT
  5
7F2F
  8
DEFPOINTS
  6
BYBLOCK
 62
     0
 10
7126.1602122445202
 20
3126.9965571829498
 30
0.0
  0
POINT
  5
7F30
  8
DEFPOINTS
  6
BYBLOCK
 62
     0
 10
8155.160212244522
 20
3126.9965571829498
 30
0.0
  0
POINT
  5
7F31
  8
DEFPOINTS
  6
BYBLOCK
 62
     0
 10
8155.160212244522
 20
2822.4603548447549
 30
0.0
  0
ENDBLK
  5
7F32
  8
0
  0
BLOCK
  8
0
  2
*D22
 70
     1
 10
0.0
 20
0.0
 30
0.0
  3
*D22
  1

  0
LINE
  5
7F36
  8
0
  6
BYBLOCK
 62
     0
 10
1882.690901516231
 20
3126.9965571829498
 30
0.0
 11
968.47810487614333
 21
3126.9965571829498
 31
0.0
  0
LINE
  5
7F37
  8
0
  6
BYBLOCK
 62
     0
 10
1780.19090151623
 20
5657.9965571829507
 30
0.0
 11
968.47810487614333
 21
5657.9965571829507
 31
0.0
  0
LINE
  5
7F38
  8
0
  6
BYBLOCK
 62
     0
 10
1013.478104876143
 20
3216.9965571829498
 30
0.0
 11
1013.478104876143
 21
5567.9965571829507
 31
0.0
  0
INSERT
  5
7F39
  8
0
  6
BYBLOCK
 62
     0
  2
_OPEN
 10
1013.478104876143
 20
3126.9965571829498
 30
0.0
 41
90.0
 42
90.0
 43
90.0
 50
270.0
  0
INSERT
  5
7F3A
  8
0
  6
BYBLOCK
 62
     0
  2
_OPEN
 10
1013.478104876143
 20
5657.9965571829507
 30
0.0
 41
90.0
 42
90.0
 43
90.0
 50
90.0
  0
TEXT
  5
7F3B
  8
3
 62
     0
 10
968.47810487614333
 20
4183.5679857543792
 30
0.0
 40
135.0
  1
2531
 50
90.0
  0
POINT
  5
7F3C
  8
DEFPOINTS
  6
BYBLOCK
 62
     0
 10
1905.19090151623
 20
3126.9965571829498
 30
0.0
  0
POINT
  5
7F3D
  8
DEFPOINTS
  6
BYBLOCK
 62
     0
 10
1802.690901516231
 20
5657.9965571829507
 30
0.0
  0
POINT
  5
7F3E
  8
DEFPOINTS
  6
BYBLOCK
 62
     0
 10
1013.478104876143
 20
5657.9965571829507
 30
0.0
  0
ENDBLK
  5
7F3F
  8
0
  0
ENDSEC
  0
SECTION
  2
ENTITIES
  0
CIRCLE
  5
7AD3
  8
1
 10
2755.190901516231
 20
4166.9965571829498
 30
0.0
 40
225.0
  0
ARC
  5
7AD4
  8
1
 10
2755.190901516231
 20
4166.9965571829498
 30
0.0
 40
380.0
 50
59.005631948979243
 51
247.58680483708949
  0
LINE
  5
7AD6
  8
2
 10
2755.190901516231
 20
5723.4338445943467
 30
0.0
 11
2755.190901516231
 21
3126.9965571829512
 31
0.0
  0
LINE
  5
7AD7
  8
1
 10
2950.8733516948791
 20
4492.7393678358967
 30
0.0
 11
4529.7155292208572
 21
3744.2864913951662
 31
0.0
  0
LINE
  5
7AD8
  8
1
 10
2866.2404961220582
 20
4362.682498266825
 30
0.0
 11
4470.5867738952184
 21
3652.2338335990098
 31
0.0
  0
ARC
  5
7AD9
  8
1
 10
2653.19090151623
 20
4268.9965571829498
 30
0.0
 40
1309.0
 50
0.0
 51
85.530863344478917
  0
CIRCLE
  5
7ADA
  8
1
 10
2755.190901516231
 20
4166.9965571829498
 30
0.0
 40
750.0
  0
CIRCLE
  5
7ADB
  8
1
 10
2755.190901516231
 20
4166.9965571829498
 30
0.0
 40
700.0
  0
ARC
  5
7ADC
  8
1
 10
2857.190901516231
 20
4268.9965571829498
 30
0.0
 40
1105.0
 50
296.13774547310811
 51
0.0
  0
LINE
  5
7ADF
  8
1
 10
1905.19090151623
 20
3276.9965571829498
 30
0.0
 11
4805.190901516231
 21
3276.9965571829498
 31
0.0
  0
LINE
  5
7AE0
  8
1
 10
1905.19090151623
 20
3126.9965571829498
 30
0.0
 11
4805.190901516231
 21
3126.9965571829498
 31
0.0
  0
LINE
  5
7AE2
  8
1
 10
1905.19090151623
 20
3276.9965571829498
 30
0.0
 11
1905.19090151623
 21
3126.9965571829498
 31
0.0
  0
LINE
  5
7AE4
  8
2
 10
4405.19090151623
 20
3818.3427481829508
 30
0.0
 11
4405.190901516231
 21
3126.9965571829512
 31
0.0
  0
LINE
  5
7AE7
  8
2
 10
4148.6838197830721
 20
3536.9965571829512
 30
0.0
 11
4673.3222274551081
 21
3536.9965571829512
 31
0.0
  0
LINE
  5
7AE8
  8
1
 10
4155.2347046035484
 20
3336.9965571829512
 30
0.0
 11
4305.7953485417911
 21
3336.9965571829512
 31
0.0
  0
ARC
  5
7AE9
  8
1
 10
4405.19090151623
 20
3536.9965571829512
 30
0.0
 40
203.5
 50
285.60376000000002
 51
254.39630099999991
  0
LINE
  5
7AEA
  8
1
 10
2610.3032519602939
 20
3815.7024225803989
 30
0.0
 11
4312.990090439509
 21
3313.446763697304
 31
0.0
  0
LINE
  5
7AEB
  8
1
 10
4351.65104866002
 20
3415.7953436736161
 30
0.0
 11
2664.274170250967
 21
3961.1831757520049
 31
0.0
  0
LINE
  5
7AEE
  8
1
 10
4145.19090151623
 20
3276.9965571829498
 30
0.0
 11
4155.2347046035484
 21
3336.9965571829512
 31
0.0
  0
ARC
  5
7AF6
  8
1
 10
4405.19090151623
 20
3536.9965571829512
 30
0.0
 40
241.8170790715175
 50
247.5868048370896
 51
59.005631948979222
  0
LINE
  5
7AF7
  8
1
 10
4594.19090151623
 20
3411.3232171829509
 30
0.0
 11
4594.19090151623
 21
3336.9965571829512
 31
0.0
  0
LINE
  5
7AF8
  8
1
 10
4216.19090151623
 20
3411.3232171829509
 30
0.0
 11
4216.19090151623
 21
3336.9965571829512
 31
0.0
  0
LINE
  5
7AFA
  8
1
 10
4459.9289385162301
 20
3340.9965571829498
 30
0.0
 11
4350.45286451623
 21
3340.9965571829498
 31
0.0
  0
LINE
  5
7AFB
  8
1
 10
4405.19090151623
 20
3327.147917791815
 30
0.0
 11
4504.5864544906699
 21
3327.147917791815
 31
0.0
  0
LINE
  5
7AFC
  8
1
 10
4301.0883315162309
 20
3362.1397451829498
 30
0.0
 11
4294.3511359339409
 21
3336.9965571829512
 31
0.0
  0
LINE
  5
7AFD
  8
1
 10
4305.7953485417911
 20
3336.9965571829512
 30
0.0
 11
4305.7953485417911
 21
3327.147917791815
 31
0.0
  0
LINE
  5
7AFF
  8
1
 10
4216.19090151623
 20
3336.9965571829512
 30
0.0
 11
4295.690901516231
 21
3336.9965571829512
 31
0.0
  0
LINE
  5
7B00
  8
1
 10
4405.19090151623
 20
3327.147917791815
 30
0.0
 11
4305.7953485417911
 21
3327.147917791815
 31
0.0
  0
LINE
  5
7B04
  8
1
 10
4665.190901516231
 20
3276.9965571829498
 30
0.0
 11
4655.1470984289144
 21
3336.9965571829512
 31
0.0
  0
LINE
  5
7B06
  8
1
 10
4509.2936845162312
 20
3362.1398671829502
 30
0.0
 11
4516.0306061129431
 21
3336.9965571829512
 31
0.0
  0
LINE
  5
7B07
  8
1
 10
4504.5864544906699
 20
3336.9965571829512
 30
0.0
 11
4504.5864544906699
 21
3327.147917791815
 31
0.0
  0
LINE
  5
7B08
  8
1
 10
4594.19090151623
 20
3336.9965571829512
 30
0.0
 11
4514.690901516231
 21
3336.9965571829512
 31
0.0
  0
LINE
  5
7B09
  8
1
 10
4594.19090151623
 20
3336.9965571829512
 30
0.0
 11
4514.190901516231
 21
3336.9965571829512
 31
0.0
  0
LINE
  5
7B0B
  8
1
 10
4655.1470984289144
 20
3336.9965571829512
 30
0.0
 11
4504.5864544906699
 21
3336.9965571829512
 31
0.0
  0
LINE
  5
7B0C
  8
1
 10
4805.190901516231
 20
3276.9965571829498
 30
0.0
 11
4805.190901516231
 21
3126.9965571829498
 31
0.0
  0
POINT
  5
7B0D
  8
1
 10
4805.190901516231
 20
3126.9965571829498
 30
0.0
  0
POINT
  5
7B0E
  8
1
 10
4805.190901516231
 20
3126.9965571829498
 30
0.0
  0
CIRCLE
  5
7B17
  8
1
 10
4405.19090151623
 20
3536.9965571829512
 30
0.0
 40
132.49999999999989
  0
ARC
  5
7B18
  8
1
 10
4221.190901516231
 20
3411.3232171829509
 30
0.0
 40
5.0000669999999987
 50
124.943665
 51
180.0
  0
LINE
  5
7B19
  8
1
 10
4218.327131516231
 20
3415.4218501829509
 30
0.0
 11
4234.2649985162307
 21
3426.5580801829501
 31
0.0
  0
ARC
  5
7B1A
  8
1
 10
4589.190901516231
 20
3411.3232171829509
 30
0.0
 40
5.0
 50
0.0
 51
55.05633899999998
  0
ARC
  5
7B1B
  8
1
 10
4405.19090151623
 20
3536.9965571829512
 30
0.0
 40
210.00001499999999
 50
326.23303199999992
 51
326.26702899999992
  0
LINE
  5
7B1C
  8
1
 10
4592.0547935162303
 20
3415.4218501829509
 30
0.0
 11
4576.1169265162298
 21
3426.5580801829501
 31
0.0
  0
ARC
  5
7B1D
  8
1
 10
2840.69090151623
 20
4081.4965571829498
 30
0.0
 40
917.5
 50
174.6529621965137
 51
241.2634017283458
  0
LINE
  5
7B1E
  8
2
 10
1584.90305418444
 20
4166.9965571829498
 30
0.0
 11
4235.6947304609712
 21
4166.9965571829498
 31
0.0
  0
LINE
  5
7B1F
  8
1
 10
1825.19090151623
 20
5657.9965571829507
 30
0.0
 11
2755.190901516231
 21
5574.1104104806609
 31
0.0
  0
LINE
  5
7B20
  8
1
 10
1875.19090151623
 20
4207.9965571829498
 30
0.0
 11
1875.19090151623
 21
5653.4865492957306
 31
0.0
  0
LINE
  5
7B21
  8
1
 10
1831.190901516231
 20
4153.9965571829498
 30
0.0
 11
1831.1909015162289
 21
5711.9965571829507
 31
0.0
  0
LINE
  5
7B22
  8
1
 10
1825.19090151623
 20
4153.9965571829498
 30
0.0
 11
1825.19090151623
 21
5711.9965571829507
 31
0.0
  0
LINE
  5
7B23
  8
1
 10
1825.19090151623
 20
4207.9965571829498
 30
0.0
 11
1934.2871567928539
 21
4207.9965571829498
 31
0.0
  0
ARC
  5
7B24
  8
1
 10
2669.9909015162302
 20
4081.4965571829498
 30
0.0
 40
746.49999999999989
 50
170.24372338188331
 51
173.42322386974391
  0
LINE
  5
7B25
  8
1
 10
1825.19090151623
 20
4153.9965571829498
 30
0.0
 11
1831.190901516231
 21
4153.9965571829516
 31
0.0
  0
LINE
  5
7B26
  8
1
 10
1825.19090151623
 20
5711.9965571829507
 30
0.0
 11
1831.1909015162289
 21
5711.9965571829507
 31
0.0
  0
LINE
  5
7B27
  8
1
 10
8076.160212244522
 20
4166.9965571829498
 30
0.0
 11
8076.160212244522
 21
3276.9965571829498
 31
0.0
  0
LINE
  5
7B28
  8
2
 10
7126.1602122445211
 20
5841.1148320044049
 30
0.0
 11
7126.1602122445202
 21
3126.9965571829498
 31
0.0
  0
LINE
  5
7B29
  8
1
 10
5907.160212244522
 20
4086.9965571829512
 30
0.0
 11
5907.160212244522
 21
4246.9965571829498
 31
0.0
  0
LINE
  5
7B2A
  8
1
 10
6176.1602122445211
 20
4166.9965571829498
 30
0.0
 11
6176.1602122445211
 21
3737.3921757754761
 31
0.0
  0
LINE
  5
7B2B
  8
1
 10
5757.160212244522
 20
3296.9965571829498
 30
0.0
 11
5757.160212244522
 21
4546.9965571829498
 31
0.0
  0
LINE
  5
7B2C
  8
1
 10
5892.5602122445207
 20
3404.4965571829498
 30
0.0
 11
5892.5602122445207
 21
4391.9965571829507
 31
0.0
  0
LINE
  5
7B2D
  8
1
 10
5807.160212244522
 20
3404.4965571829498
 30
0.0
 11
5807.160212244522
 21
4391.9965571829507
 31
0.0
  0
LINE
  5
7B31
  8
1
 10
8155.160212244522
 20
3126.9965571829498
 30
0.0
 11
5795.160212244522
 21
3126.9965571829498
 31
0.0
  0
LINE
  5
7B32
  8
1
 10
8081.1602122445211
 20
3276.9965571829498
 30
0.0
 11
5795.160212244522
 21
3276.9965571829498
 31
0.0
  0
LINE
  5
7B34
  8
1
 10
5993.5282392672516
 20
3737.3921757754761
 30
0.0
 11
5993.5282392672516
 21
3537.3921757754761
 31
0.0
  0
LINE
  5
7B35
  8
1
 10
6643.0282392672516
 20
3327.3921757754761
 30
0.0
 11
6643.0282392672516
 21
3737.3921757754761
 31
0.0
  0
LINE
  5
7B36
  8
1
 10
5983.5282392672516
 20
3567.3921757754761
 30
0.0
 11
5843.5282392672534
 21
3567.3921757754761
 31
0.0
  0
LINE
  5
7B37
  8
1
 10
5983.5282392672516
 20
3507.3921757754761
 30
0.0
 11
5843.5282392672534
 21
3507.3921757754761
 31
0.0
  0
LINE
  5
7B38
  8
1
 10
5953.5282392672534
 20
3503.3921757754761
 30
0.0
 11
5843.5282392672534
 21
3503.3921757754761
 31
0.0
  0
LINE
  5
7B3A
  8
2
 10
5724.6226707658816
 20
3537.3921757754761
 30
0.0
 11
6651.699992267253
 21
3537.3921757754761
 31
0.0
  0
LINE
  5
7B3B
  8
1
 10
5942.5602122445216
 20
3296.9965571829498
 30
0.0
 11
5757.160212244522
 21
3296.9965571829498
 31
0.0
  0
LINE
  5
7B3C
  8
1
 10
5795.1602122445211
 20
3276.9965571829498
 30
0.0
 11
5795.160212244522
 21
3126.9965571829498
 31
0.0
  0
LINE
  5
7B3D
  8
1
 10
5843.5282392672534
 20
3503.3921757754761
 30
0.0
 11
5843.5282392672534
 21
3567.3921757754761
 31
0.0
  0
LINE
  5
7B3E
  8
1
 10
5892.5602122445207
 20
3404.4965571829498
 30
0.0
 11
5807.160212244522
 21
3404.4965571829498
 31
0.0
  0
LINE
  5
7B3F
  8
1
 10
5892.5602122445207
 20
3669.4965571829498
 30
0.0
 11
5807.160212244522
 21
3669.4965571829498
 31
0.0
  0
LINE
  5
7B40
  8
1
 10
5993.5282392672516
 20
3327.3921757754761
 30
0.0
 11
5993.5282392672516
 21
3537.3921757754761
 31
0.0
  0
LINE
  5
7B41
  8
1
 10
5942.5602122445216
 20
3296.9965571829498
 30
0.0
 11
5942.5602122445216
 21
3473.317850130752
 31
0.0
  0
LINE
  5
7B42
  8
1
 10
6643.0282392672516
 20
3327.3921757754761
 30
0.0
 11
6269.0282392672534
 21
3327.3921757754761
 31
0.0
  0
LINE
  5
7B43
  8
1
 10
5993.5282392672516
 20
3327.3921757754761
 30
0.0
 11
6269.0282392672534
 21
3327.3921757754761
 31
0.0
  0
LINE
  5
7B44
  8
1
 10
6176.1602122445211
 20
3327.3921757754761
 30
0.0
 11
6176.1602122445211
 21
3276.9965571829498
 31
0.0
  0
LINE
  5
7B45
  8
1
 10
5983.5282392672516
 20
3569.8921757754761
 30
0.0
 11
5983.5282392672516
 21
3504.8921757754761
 31
0.0
  0
LINE
  5
7B46
  8
1
 10
5983.5282392672516
 20
3504.8921757754761
 30
0.0
 11
5993.5282392672516
 21
3504.8921757754761
 31
0.0
  0
LINE
  5
7B47
  8
1
 10
5953.5282392672534
 20
3503.3921757754761
 30
0.0
 11
5953.5282392672534
 21
3507.3921757754761
 31
0.0
  0
LINE
  5
7B48
  8
1
 10
5983.5282392672516
 20
3569.8921757754761
 30
0.0
 11
5993.5282392672516
 21
3569.8921757754761
 31
0.0
  0
LINE
  5
7B49
  8
1
 10
5907.160212244522
 20
4086.9965571829512
 30
0.0
 11
5892.5602122445207
 21
4086.9965571829512
 31
0.0
  0
LINE
  5
7B4A
  8
1
 10
5892.5602122445207
 20
3941.9965571829498
 30
0.0
 11
5807.160212244522
 21
3941.9965571829498
 31
0.0
  0
LINE
  5
7B4B
  8
1
 10
6643.0282392672516
 20
3737.3921757754752
 30
0.0
 11
5993.5282392672516
 21
3737.3921757754761
 31
0.0
  0
LINE
  5
7B4C
  8
1
 10
5972.9602122445222
 20
4096.9965571829498
 30
0.0
 11
5972.9602122445222
 21
3926.9965571829512
 31
0.0
  0
LINE
  5
7B4D
  8
1
 10
6016.3602122445218
 20
3926.9965571829512
 30
0.0
 11
6176.1602122445211
 21
3926.9965571829512
 31
0.0
  0
LINE
  5
7B4E
  8
1
 10
6097.9602122445222
 20
3926.9965571829512
 30
0.0
 11
5972.9602122445222
 21
3926.9965571829512
 31
0.0
  0
LINE
  5
7B4F
  8
1
 10
6016.3602122445218
 20
4096.9965571829498
 30
0.0
 11
6176.1602122445211
 21
4096.9965571829498
 31
0.0
  0
LINE
  5
7B50
  8
1
 10
6097.9602122445222
 20
4096.9965571829498
 30
0.0
 11
5972.9602122445222
 21
4096.9965571829498
 31
0.0
  0
LINE
  5
7B51
  8
1
 10
8155.160212244522
 20
3276.9965571829498
 30
0.0
 11
8155.160212244522
 21
3126.9965571829498
 31
0.0
  0
LINE
  5
7B52
  8
1
 10
8081.160212244522
 20
3276.9965571829498
 30
0.0
 11
8155.160212244522
 21
3276.9965571829498
 31
0.0
  0
LINE
  5
7B53
  8
1
 10
8256.3602122445209
 20
4096.9965571829498
 30
0.0
 11
8256.3602122445227
 21
3926.9965571829512
 31
0.0
  0
LINE
  5
7B54
  8
1
 10
8154.3602122445218
 20
3926.9965571829512
 30
0.0
 11
8256.3602122445227
 21
3926.9965571829512
 31
0.0
  0
LINE
  5
7B55
  8
1
 10
8209.3602122445191
 20
3926.9965571829512
 30
0.0
 11
8076.160212244522
 21
3926.9965571829512
 31
0.0
  0
LINE
  5
7B56
  8
1
 10
8256.3602122445209
 20
4096.9965571829498
 30
0.0
 11
8181.86021224452
 21
4096.9965571829498
 31
0.0
  0
LINE
  5
7B57
  8
1
 10
8076.160212244522
 20
4096.9965571829498
 30
0.0
 11
8181.86021224452
 21
4096.9965571829498
 31
0.0
  0
LINE
  5
7B59
  8
1
 10
8076.1602122445202
 20
5657.9965571829516
 30
0.0
 11
6176.1602122445202
 21
5657.9965571829507
 31
0.0
  0
LINE
  5
7B5A
  8
2
 10
8182.257736729297
 20
4166.9965571829498
 30
0.0
 11
5708.5888912990195
 21
4166.9965571829498
 31
0.0
  0
LINE
  5
7B5B
  8
1
 10
6176.1602122445211
 20
5607.9965571829507
 30
0.0
 11
6176.1602122445211
 21
4166.9965571829498
 31
0.0
  0
LINE
  5
7B5C
  8
1
 10
5942.5602122445216
 20
4546.9965571829498
 30
0.0
 11
5757.160212244522
 21
4546.9965571829498
 31
0.0
  0
LINE
  5
7B5D
  8
1
 10
5907.160212244522
 20
4246.9965571829498
 30
0.0
 11
5892.5602122445216
 21
4246.9965571829498
 31
0.0
  0
LINE
  5
7B5E
  8
1
 10
5892.5602122445216
 20
4391.9965571829507
 30
0.0
 11
5807.160212244522
 21
4391.9965571829507
 31
0.0
  0
LINE
  5
7B5F
  8
1
 10
5942.5602122445216
 20
4320.3248502483657
 30
0.0
 11
5942.5602122445216
 21
4546.9965571829498
 31
0.0
  0
LINE
  5
7B60
  8
1
 10
6176.1602122445211
 20
4214.4965571829498
 30
0.0
 11
5907.160212244522
 21
4214.4965571829498
 31
0.0
  0
LINE
  5
7B61
  8
1
 10
6176.1602122445211
 20
4119.4965571829507
 30
0.0
 11
5907.160212244522
 21
4119.4965571829507
 31
0.0
  0
LINE
  5
7B63
  8
1
 10
6176.1602122445211
 20
5657.9965571829507
 30
0.0
 11
6176.1602122445211
 21
5607.9965571829507
 31
0.0
  0
LINE
  5
7B64
  8
1
 10
8076.160212244522
 20
5607.9965571829507
 30
0.0
 11
8076.160212244522
 21
4166.9965571829498
 31
0.0
  0
LINE
  5
7B67
  8
1
 10
8076.160212244522
 20
5657.9965571829507
 30
0.0
 11
8076.160212244522
 21
5607.9965571829507
 31
0.0
  0
LINE
  5
7B68
  8
1
 10
4805.190901516231
 20
8176.5962472078554
 30
0.0
 11
4805.190901516231
 21
7076.5962472078563
 31
0.0
  0
LINE
  5
7B69
  8
1
 10
3962.190901516231
 20
9357.5962472078554
 30
0.0
 11
3962.190901516231
 21
7457.5962472078563
 31
0.0
  0
LINE
  5
7B6A
  8
2
 10
2755.190901516231
 20
9577.2826631784283
 30
0.0
 11
2755.190901516231
 21
7006.9981289651814
 31
0.0
  0
LINE
  5
7B6B
  8
1
 10
1825.19090151623
 20
9407.5962472078572
 30
0.0
 11
1825.19090151623
 21
7407.5962472078554
 31
0.0
  0
LINE
  5
7B6C
  8
1
 10
2755.190901516231
 20
7457.5962472078563
 30
0.0
 11
1831.19090151623
 21
7457.5962472078563
 31
0.0
  0
LINE
  5
7B6D
  8
1
 10
4805.190901516231
 20
7076.5962472078563
 30
0.0
 11
1905.19090151623
 21
7076.5962472078563
 31
0.0
  0
LINE
  5
7B6E
  8
1
 10
1905.19090151623
 20
7457.5962472078536
 30
0.0
 11
1905.19090151623
 21
7076.5962472078563
 31
0.0
  0
LINE
  5
7B6F
  8
1
 10
4645.19090151623
 20
7223.9962472078541
 30
0.0
 11
2366.190901516231
 21
7223.9962472078541
 31
0.0
  0
LINE
  5
7B70
  8
1
 10
4645.19090151623
 20
7038.5962472078563
 30
0.0
 11
2366.190901516231
 21
7038.5962472078563
 31
0.0
  0
LINE
  5
7B71
  8
1
 10
4537.690901516231
 20
7173.9962472078541
 30
0.0
 11
2521.19090151623
 21
7173.996247207856
 31
0.0
  0
LINE
  5
7B72
  8
1
 10
4537.690901516231
 20
7088.5962472078563
 30
0.0
 11
2521.19090151623
 21
7088.5962472078563
 31
0.0
  0
LINE
  5
7B73
  8
1
 10
3962.190901516231
 20
7457.5962472078563
 30
0.0
 11
2755.190901516231
 21
7457.5962472078563
 31
0.0
  0
LINE
  5
7B74
  8
1
 10
2793.690901516231
 20
7457.5962472078563
 30
0.0
 11
2793.690901516231
 21
7188.5962472078563
 31
0.0
  0
LINE
  5
7B75
  8
1
 10
2698.690901516231
 20
7457.5962472078563
 30
0.0
 11
2698.690901516231
 21
7188.5962472078563
 31
0.0
  0
LINE
  5
7B76
  8
1
 10
2826.19090151623
 20
7188.5962472078563
 30
0.0
 11
2666.19090151623
 21
7188.5962472078563
 31
0.0
  0
LINE
  5
7B77
  8
1
 10
2521.19090151623
 20
7173.9962472078569
 30
0.0
 11
2521.190901516231
 21
7088.5962472078563
 31
0.0
  0
LINE
  5
7B78
  8
1
 10
2366.190901516231
 20
7223.996247207856
 30
0.0
 11
2366.190901516231
 21
7038.5962472078563
 31
0.0
  0
LINE
  5
7B79
  8
1
 10
2666.19090151623
 20
7188.5962472078563
 30
0.0
 11
2666.19090151623
 21
7173.9962472078569
 31
0.0
  0
LINE
  5
7B7A
  8
1
 10
2971.19090151623
 20
7173.996247207856
 30
0.0
 11
2971.19090151623
 21
7088.5962472078563
 31
0.0
  0
LINE
  5
7B7B
  8
1
 10
2826.19090151623
 20
7188.5962472078563
 30
0.0
 11
2826.19090151623
 21
7173.9962472078541
 31
0.0
  0
LINE
  5
7B7C
  8
1
 10
4615.190901516231
 20
7281.2962472078552
 30
0.0
 11
4615.190901516231
 21
7556.7962472078552
 31
0.0
  0
LINE
  5
7B7D
  8
2
 10
4405.19090151623
 20
7005.6748968017391
 30
0.0
 11
4405.19090151623
 21
7939.4680002078539
 31
0.0
  0
LINE
  5
7B7E
  8
1
 10
4439.190901516231
 20
7241.2962472078552
 30
0.0
 11
4439.190901516231
 21
7131.2962472078552
 31
0.0
  0
LINE
  5
7B7F
  8
1
 10
4435.190901516231
 20
7271.2962472078561
 30
0.0
 11
4435.190901516231
 21
7131.2962472078552
 31
0.0
  0
LINE
  5
7B80
  8
1
 10
4375.190901516231
 20
7271.2962472078561
 30
0.0
 11
4375.190901516231
 21
7131.2962472078552
 31
0.0
  0
LINE
  5
7B81
  8
1
 10
4645.19090151623
 20
7223.9962472078541
 30
0.0
 11
4645.19090151623
 21
7038.5962472078563
 31
0.0
  0
LINE
  5
7B82
  8
1
 10
4537.690901516231
 20
7173.9962472078541
 30
0.0
 11
4537.690901516231
 21
7088.5962472078563
 31
0.0
  0
LINE
  5
7B83
  8
1
 10
4272.690901516231
 20
7173.9962472078541
 30
0.0
 11
4272.690901516231
 21
7088.5962472078563
 31
0.0
  0
LINE
  5
7B84
  8
1
 10
4439.190901516231
 20
7131.2962472078552
 30
0.0
 11
4375.190901516231
 21
7131.2962472078552
 31
0.0
  0
LINE
  5
7B85
  8
1
 10
4205.190901516231
 20
7930.7962472078552
 30
0.0
 11
4205.190901516231
 21
7281.2962472078552
 31
0.0
  0
LINE
  5
7B86
  8
1
 10
4615.190901516231
 20
7281.2962472078552
 30
0.0
 11
4405.19090151623
 21
7281.2962472078552
 31
0.0
  0
LINE
  5
7B87
  8
1
 10
4437.690901516231
 20
7271.2962472078561
 30
0.0
 11
4437.690901516231
 21
7281.2962472078552
 31
0.0
  0
LINE
  5
7B88
  8
1
 10
4439.190901516231
 20
7241.2962472078552
 30
0.0
 11
4435.190901516231
 21
7241.2962472078552
 31
0.0
  0
LINE
  5
7B89
  8
1
 10
4372.690901516231
 20
7271.2962472078561
 30
0.0
 11
4372.690901516231
 21
7281.2962472078552
 31
0.0
  0
LINE
  5
7B8A
  8
1
 10
4372.690901516231
 20
7271.2962472078561
 30
0.0
 11
4437.690901516231
 21
7271.2962472078561
 31
0.0
  0
LINE
  5
7B8B
  8
1
 10
4205.190901516231
 20
7281.2962472078552
 30
0.0
 11
4405.19090151623
 21
7281.2962472078552
 31
0.0
  0
LINE
  5
7B8C
  8
1
 10
4615.190901516231
 20
7930.7962472078552
 30
0.0
 11
4615.190901516231
 21
7556.7962472078552
 31
0.0
  0
LINE
  5
7B8D
  8
1
 10
4615.190901516231
 20
7930.7962472078552
 30
0.0
 11
4205.190901516231
 21
7930.7962472078552
 31
0.0
  0
LINE
  5
7B8E
  8
1
 10
2755.19090151623
 20
9357.5962472078554
 30
0.0
 11
1831.19090151623
 21
9357.5962472078554
 31
0.0
  0
LINE
  5
7B8F
  8
2
 10
3917.5821934818159
 20
8407.5962472078554
 30
0.0
 11
1767.669767603616
 21
8407.5962472078554
 31
0.0
  0
LINE
  5
7B90
  8
1
 10
3605.19090151623
 20
9436.5962472078554
 30
0.0
 11
1905.19090151623
 21
9436.5962472078554
 31
0.0
  0
LINE
  5
7B91
  8
1
 10
1905.19090151623
 20
9436.5962472078554
 30
0.0
 11
1905.19090151623
 21
9357.5962472078554
 31
0.0
  0
LINE
  5
7B92
  8
1
 10
4805.190901516231
 20
8176.5962472078554
 30
0.0
 11
3962.190901516231
 21
8176.5962472078554
 31
0.0
  0
LINE
  5
7B93
  8
1
 10
3962.190901516231
 20
9357.5962472078554
 30
0.0
 11
2755.190901516231
 21
9357.5962472078554
 31
0.0
  0
LINE
  5
7B94
  8
1
 10
3605.19090151623
 20
9436.5962472078554
 30
0.0
 11
3605.19090151623
 21
9357.5962472078554
 31
0.0
  0
LINE
  5
7B96
  8
1
 10
1831.190901516231
 20
9407.5962472078554
 30
0.0
 11
1825.19090151623
 21
9407.5962472078572
 31
0.0
  0
LINE
  5
7B97
  8
1
 10
1831.190901516231
 20
7407.5962472078554
 30
0.0
 11
1825.19090151623
 21
7407.5962472078554
 31
0.0
  0
LINE
  5
7B99
  8
1
 10
1831.190901516231
 20
9407.5962472078572
 30
0.0
 11
1831.190901516231
 21
7407.5962472078554
 31
0.0
  0
LINE
  5
7B9A
  8
4
 10
8325.0
 20
1790.2961559486059
 30
0.0
 11
8325.0
 21
890.2961559486065
 31
0.0
  0
LINE
  5
7B9B
  8
4
 10
5175.0
 20
1790.2961559486059
 30
0.0
 11
5175.0
 21
890.2961559486065
 31
0.0
  0
LINE
  5
7B9C
  8
4
 10
2925.0
 20
1790.2961559486059
 30
0.0
 11
2925.0
 21
890.2961559486065
 31
0.0
  0
LINE
  5
7B9F
  8
4
 10
2925.0
 20
890.2961559486065
 30
0.0
 11
8325.0
 21
890.2961559486065
 31
0.0
  0
LINE
  5
7BA0
  8
4
 10
2925.0
 20
1340.2961559486059
 30
0.0
 11
8325.0
 21
1340.2961559486059
 31
0.0
  0
TEXT
  5
7BA1
  8
4
 10
3098.259363811057
 20
1482.2397723483641
 30
0.0
 40
225.0
  1
機器名称
  0
TEXT
  5
7BA2
  8
4
 10
3088.1614771115892
 20
987.69936124265575
 30
0.0
 40
225.0
  1
機器型番
  0
TEXT
  5
7BA3
  8
4
 10
5300.5998145995309
 20
1445.305504263257
 30
0.0
 40
191.25
  1
ミツヤ多翼送風機
  0
TEXT
  5
7BA4
  8
4
 10
5339.9452301346628
 20
967.51428520835168
 30
0.0
 40
225.0
  1
MF#9-5
  0
TEXT
  5
7BA6
  8
4
 10
3652.2550631886188
 20
10725.429785996321
 30
0.0
 40
242.99999999999989
  1
床置ベット
  0
TEXT
  5
7BA7
  8
4
 10
1317.933979167283
 20
11402.46439289684
 30
0.0
 40
324.0
  1
遠心式両吸込両持多翼ファン
  0
LINE
  5
7BA8
  8
4
 10
1125.0
 20
11112.33939419162
 30
0.0
 11
8325.0
 21
11112.33939419162
 31
0.0
  0
LINE
  5
7BA9
  8
4
 10
1125.0
 20
12012.33939419162
 30
0.0
 11
8325.0
 21
12012.33939419162
 31
0.0
  0
LINE
  5
7BAA
  8
4
 10
2925.0
 20
1790.2961559486059
 30
0.0
 11
8325.0
 21
1790.2961559486059
 31
0.0
  0
LINE
  5
7BAB
  8
4
 10
1125.0
 20
12012.33939419162
 30
0.0
 11
1125.0
 21
11112.33939419162
 31
0.0
  0
TEXT
  5
7BAC
  8
4
 10
1690.890318096458
 20
10720.437648958539
 30
0.0
 40
242.99999999999989
  1
左回転左横向
  0
TEXT
  5
7BAD
  8
4
 10
6610.3630166218027
 20
12177.274866728891
 30
0.0
 40
252.0
  1
No.
  0
TEXT
  5
7BAE
  8
4
 10
5900.832281700059
 20
10725.429785996321
 30
0.0
 40
242.99999999999989
  1
縮尺：1/45
  0
LINE
  5
7BAF
  8
4
 10
8325.0
 20
12012.33939419162
 30
0.0
 11
8325.0
 21
11112.33939419162
 31
0.0
  0
LINE
  5
7BB0
  8
4
 10
9450.0
 20
13275.0
 30
0.0
 11
9450.0
 21
13275.0
 31
0.0
  0
LINE
  5
7BB1
  8
4
 10
6482.7784006193906
 20
12065.686124064299
 30
0.0
 11
6482.7784006193906
 21
12539.935176973881
 31
0.0
  0
LINE
  5
7BB2
  8
4
 10
6482.7784006193906
 20
12539.935176973881
 30
0.0
 11
8325.0
 21
12539.935176973881
 31
0.0
  0
LINE
  5
7BB3
  8
4
 10
8325.0
 20
12539.935176973881
 30
0.0
 11
8325.0
 21
12065.686124064299
 31
0.0
  0
LINE
  5
7BB4
  8
4
 10
8325.0
 20
12065.686124064299
 30
0.0
 11
6482.7784006193906
 21
12065.686124064299
 31
0.0
  0
LINE
  5
7BB5
  8
4
 10
0.0
 20
0.0
 30
0.0
 11
0.0
 21
13275.0
 31
0.0
  0
LINE
  5
7BB6
  8
4
 10
0.0
 20
13275.0
 30
0.0
 11
9450.0
 21
13275.0
 31
0.0
  0
LINE
  5
7BB7
  8
4
 10
9450.0
 20
13275.0
 30
0.0
 11
9450.0
 21
0.0
 31
0.0
  0
LINE
  5
7BB8
  8
4
 10
9450.0
 20
0.0
 30
0.0
 11
0.0
 21
0.0
 31
0.0
  0
DIMENSION
  5
7BC8
  8
3
  2
*D1
 10
8517.4963714202022
 20
3466.9965571829498
 30
0.0
 11
8517.4963714202022
 21
4140.4681832486822
 31
0.0
 70
   128
 13
8076.160212244522
 23
4866.9965571829498
 33
0.0
 14
8076.160212244522
 24
3466.9965571829498
 34
0.0
 50
90.0
1001
ACAD
1000
DSTYLE
1002
{
1070
   287
1070
     3
1070
   287
1070
     3
1070
     3
1000
φ<>
1070
    40
1040
45.0
1070
   143
1040
0.039
1070
   172
1070
     1
1070
   271
1070
     0
1070
   279
1070
     0
1070
   288
1070
     1
1002
}
  0
DIMENSION
  5
7C78
  8
3
  2
*D2
 10
3605.19090151623
 20
9725.3632812756696
 30
0.0
 11
2757.6299697717841
 21
9725.3632812756696
 31
0.0
 70
   128
 13
1905.19090151623
 23
9436.5962472078554
 33
0.0
 14
3605.19090151623
 24
9436.5962472078554
 34
0.0
1001
ACAD
1000
DSTYLE
1002
{
1070
   287
1070
     3
1070
   287
1070
     3
1070
    40
1040
45.0
1070
   143
1040
0.039
1070
   172
1070
     1
1070
   271
1070
     0
1070
   279
1070
     0
1070
   288
1070
     1
1002
}
  0
DIMENSION
  5
7C84
  8
3
  2
*D3
 10
4805.190901516231
 20
9725.3632812756696
 30
0.0
 11
4205.190901516231
 21
9837.8632812756696
 31
0.0
 70
     0
 13
3605.19090151623
 23
9436.5962472078554
 33
0.0
 14
4805.190901516231
 24
8176.5962472078554
 34
0.0
1001
ACAD
1000
DSTYLE
1002
{
1070
   287
1070
     4
1070
   287
1070
     4
1070
    40
1040
45.0
1070
    75
1070
     1
1070
   143
1040
0.039
1070
   172
1070
     1
1070
   271
1070
     0
1070
   279
1070
     1
1070
   288
1070
     1
1002
}
  0
DIMENSION
  5
7C91
  8
3
  2
*D4
 10
5246.8519401693347
 20
7076.5962472078563
 30
0.0
 11
5246.8519401693338
 21
7626.8154146195739
 31
0.0
 70
   128
 13
4805.190901516231
 23
8176.5962472078554
 33
0.0
 14
4805.190901516231
 24
7076.5962472078563
 34
0.0
 50
90.0
1001
ACAD
1000
DSTYLE
1002
{
1070
   287
1070
     3
1070
   287
1070
     3
1070
    40
1040
45.0
1070
   143
1040
0.039
1070
   172
1070
     1
1070
   271
1070
     0
1070
   279
1070
     0
1070
   288
1070
     1
1002
}
  0
DIMENSION
  5
7C9E
  8
3
  2
*D5
 10
1535.244146453414
 20
7076.5962472078563
 30
0.0
 11
1535.2441464534129
 21
8215.2970962390318
 31
0.0
 70
   128
 13
1905.19090151623
 23
9436.5962472078554
 33
0.0
 14
1905.19090151623
 24
7076.5962472078563
 34
0.0
 50
90.0
1001
ACAD
1000
DSTYLE
1002
{
1070
   287
1070
     3
1070
   287
1070
     3
1070
    40
1040
45.0
1070
   143
1040
0.039
1070
   172
1070
     1
1070
   271
1070
     0
1070
   279
1070
     0
1070
   288
1070
     1
1002
}
  0
DIMENSION
  5
7CAB
  8
3
  2
*D6
 10
4805.190901516231
 20
6616.4034622795371
 30
0.0
 11
3268.809490516403
 21
6616.4034622795371
 31
0.0
 70
   128
 13
1905.19090151623
 23
7076.5962472078563
 33
0.0
 14
4805.190901516231
 24
7076.5962472078563
 34
0.0
1001
ACAD
1000
DSTYLE
1002
{
1070
   287
1070
     3
1070
   287
1070
     3
1070
    40
1040
45.0
1070
   143
1040
0.039
1070
   172
1070
     1
1070
   271
1070
     0
1070
   279
1070
     0
1070
   288
1070
     1
1002
}
  0
DIMENSION
  5
7CD1
  8
3
  2
*D7
 10
2755.190901516231
 20
5918.7725373309513
 30
0.0
 11
2310.7433434395571
 21
5918.7725373309513
 31
0.0
 70
   128
 13
1825.19090151623
 23
5711.9965571829507
 33
0.0
 14
2755.190901516231
 24
5723.4338445943467
 34
0.0
1001
ACAD
1000
DSTYLE
1002
{
1070
   287
1070
     3
1070
   287
1070
     3
1070
    40
1040
45.0
1070
   143
1040
0.039
1070
   172
1070
     1
1070
   271
1070
     0
1070
   279
1070
     0
1070
   288
1070
     1
1002
}
  0
DIMENSION
  5
7CDE
  8
3
  2
*D8
 10
1549.1607358462279
 20
4207.9965571829498
 30
0.0
 11
1549.1607358462279
 21
4959.2493679297258
 31
0.0
 70
   128
 13
1825.19090151623
 23
5657.9965571829507
 33
0.0
 14
1825.19090151623
 24
4207.9965571829498
 34
0.0
 50
90.0
1001
ACAD
1000
DSTYLE
1002
{
1070
   287
1070
     3
1070
   287
1070
     3
1070
    40
1040
45.0
1070
   143
1040
0.039
1070
   172
1070
     1
1070
   271
1070
     0
1070
   279
1070
     0
1070
   288
1070
     1
1002
}
  0
DIMENSION
  5
7CEB
  8
3
  2
*D9
 10
1304.647477133316
 20
4166.9965571829498
 30
0.0
 11
1304.647477133316
 21
4951.6146469717569
 31
0.0
 70
   128
 13
1825.19090151623
 23
5657.9965571829507
 33
0.0
 14
1584.90305418444
 24
4166.9965571829498
 34
0.0
 50
90.0
1001
ACAD
1000
DSTYLE
1002
{
1070
   287
1070
     3
1070
   287
1070
     3
1070
    40
1040
45.0
1070
   143
1040
0.039
1070
   172
1070
     1
1070
   271
1070
     0
1070
   279
1070
     0
1070
   288
1070
     1
1002
}
  0
DIMENSION
  5
7D0E
  8
3
  2
*D10
 10
1304.647477133316
 20
3126.9965571829498
 30
0.0
 11
1192.1474771333151
 21
3646.9965571829498
 31
0.0
 70
     0
 13
1584.90305418444
 23
4166.9965571829498
 33
0.0
 14
1905.19090151623
 24
3126.9965571829498
 34
0.0
 50
90.0
1001
ACAD
1000
DSTYLE
1002
{
1070
   287
1070
     4
1070
   287
1070
     4
1070
    40
1040
45.0
1070
    75
1070
     1
1070
   143
1040
0.039
1070
   172
1070
     1
1070
   271
1070
     0
1070
   279
1070
     1
1070
   288
1070
     1
1002
}
  0
DIMENSION
  5
7DC6
  8
3
  2
*D12
 10
3962.190901516231
 20
5918.7725373309513
 30
0.0
 11
3358.690901516231
 21
6031.2725373309513
 31
0.0
 70
     0
 13
2755.190901516231
 23
5723.4338445943467
 33
0.0
 14
3962.190901516231
 24
4268.9965571829498
 34
0.0
1001
ACAD
1000
DSTYLE
1002
{
1070
   287
1070
     4
1070
   287
1070
     4
1070
    40
1040
45.0
1070
    75
1070
     1
1070
   143
1040
0.039
1070
   172
1070
     1
1070
   271
1070
     0
1070
   279
1070
     1
1070
   288
1070
     1
1002
}
  0
DIMENSION
  5
7DD3
  8
3
  2
*D13
 10
4805.190901516231
 20
6186.2360405014624
 30
0.0
 11
3297.5730214811119
 21
6186.2360405014624
 31
0.0
 70
   128
 13
1825.19090151623
 23
5711.9965571829507
 33
0.0
 14
4805.190901516231
 24
3276.9965571829498
 34
0.0
1001
ACAD
1000
DSTYLE
1002
{
1070
   287
1070
     3
1070
   287
1070
     3
1070
    40
1040
45.0
1070
   143
1040
0.039
1070
   172
1070
     1
1070
   271
1070
     0
1070
   279
1070
     0
1070
   288
1070
     1
1002
}
  0
LINE
  5
7DDF
  8
1
 10
1875.19090151623
 20
9357.5962472078572
 30
0.0
 11
1875.190901516231
 21
7457.5962472078563
 31
0.0
  0
DIMENSION
  5
7DED
  8
3
  2
*D14
 10
8076.160212244522
 20
5872.1381405516413
 30
0.0
 11
7124.0298205535873
 21
5872.1381405516413
 31
0.0
 70
   128
 13
6176.1602122445211
 23
5657.9965571829507
 33
0.0
 14
8076.160212244522
 24
5657.9965571829516
 34
0.0
1001
ACAD
1000
DSTYLE
1002
{
1070
   287
1070
     3
1070
   287
1070
     3
1070
    40
1040
45.0
1070
   143
1040
0.039
1070
   172
1070
     1
1070
   271
1070
     0
1070
   279
1070
     0
1070
   288
1070
     1
1002
}
  0
DIMENSION
  5
7E05
  8
3
  2
*D15
 10
7126.1602122445211
 20
6240.1236956323228
 30
0.0
 11
7657.0364409570611
 21
6240.1236956323228
 31
0.0
 70
   128
  1
(<>)
 13
8256.3602122445209
 23
4096.9965571829498
 33
0.0
 14
7126.1602122445211
 24
6061.3907026759771
 34
0.0
1001
ACAD
1000
DSTYLE
1002
{
1070
   287
1070
     3
1070
   287
1070
     3
1070
    40
1040
45.0
1070
   143
1040
0.039
1070
   172
1070
     1
1070
   271
1070
     0
1070
   279
1070
     0
1070
   288
1070
     1
1002
}
  0
DIMENSION
  5
7E11
  8
3
  2
*D16
 10
5757.160212244522
 20
6240.1236956323228
 30
0.0
 11
6441.6602122445229
 21
6465.1236956323228
 31
0.0
 70
     0
  1
MAX\P1450
 13
7126.1602122445211
 23
6061.3907026759771
 33
0.0
 14
5757.160212244522
 24
4546.9965571829498
 34
0.0
1001
ACAD
1000
DSTYLE
1002
{
1070
   287
1070
     4
1070
   287
1070
     4
1070
    40
1040
45.0
1070
    75
1070
     1
1070
   143
1040
0.039
1070
   172
1070
     1
1070
   271
1070
     0
1070
   279
1070
     1
1070
   288
1070
     1
1002
}
  0
DIMENSION
  5
7F0C
  8
3
  2
*D18
 10
2755.190901516231
 20
2822.4603548447549
 30
0.0
 11
2330.19090151623
 21
2934.9603548447558
 31
0.0
 70
     0
 13
1905.19090151623
 23
3126.9965571829498
 33
0.0
 14
2755.190901516231
 24
3126.9965571829512
 34
0.0
1001
ACAD
1000
DSTYLE
1002
{
1070
   172
1070
     1
1070
    40
1040
45.0
1070
   271
1070
     0
1070
   143
1040
0.039
1002
}
  0
DIMENSION
  5
7F19
  8
3
  2
*D19
 10
4805.190901516231
 20
2822.4603548447549
 30
0.0
 11
3780.190901516231
 21
2934.9603548447558
 31
0.0
 70
     0
 13
2755.190901516231
 23
3126.9965571829512
 33
0.0
 14
4805.190901516231
 24
3126.9965571829498
 34
0.0
1001
ACAD
1000
DSTYLE
1002
{
1070
   172
1070
     1
1070
    40
1040
45.0
1070
   271
1070
     0
1070
   143
1040
0.039
1002
}
  0
DIMENSION
  5
7F26
  8
3
  2
*D20
 10
7126.1602122445202
 20
2822.4603548447549
 30
0.0
 11
6460.6602122445211
 21
2934.9603548447558
 31
0.0
 70
     0
 13
5795.160212244522
 23
3126.9965571829498
 33
0.0
 14
7126.1602122445202
 24
3126.9965571829498
 34
0.0
1001
ACAD
1000
DSTYLE
1002
{
1070
   172
1070
     1
1070
    40
1040
45.0
1070
   271
1070
     0
1070
   143
1040
0.039
1002
}
  0
DIMENSION
  5
7F33
  8
3
  2
*D21
 10
8155.160212244522
 20
2822.4603548447549
 30
0.0
 11
7640.6602122445211
 21
2934.9603548447558
 31
0.0
 70
     0
 13
7126.1602122445202
 23
3126.9965571829498
 33
0.0
 14
8155.160212244522
 24
3126.9965571829498
 34
0.0
1001
ACAD
1000
DSTYLE
1002
{
1070
   172
1070
     1
1070
    40
1040
45.0
1070
   271
1070
     0
1070
   143
1040
0.039
1002
}
  0
DIMENSION
  5
7F40
  8
3
  2
*D22
 10
1013.478104876143
 20
5657.9965571829507
 30
0.0
 11
900.97810487614345
 21
4392.4965571829498
 31
0.0
 70
     0
 13
1905.19090151623
 23
3126.9965571829498
 33
0.0
 14
1802.690901516231
 24
5657.9965571829507
 34
0.0
 50
90.0
1001
ACAD
1000
DSTYLE
1002
{
1070
   172
1070
     1
1070
    40
1040
45.0
1070
   271
1070
     0
1070
   143
1040
0.039
1002
}
  0
ENDSEC
  0
EOF
