  0
SECTION
  2
HEADER
  9
$ACADVER
  1
AC1009
  9
$INSBASE
 10
0.0
 20
0.0
 30
0.0
  9
$EXTMIN
 10
0.0
 20
0.0
 30
0.0
  9
$EXTMAX
 10
8400.0
 20
11800.0
 30
0.0
  9
$LIMMIN
 10
0.0
 20
0.0
  9
$LIMMAX
 10
297.0
 20
210.0
  9
$ORTHOMODE
 70
     0
  9
$REGENMODE
 70
     1
  9
$FILLMODE
 70
     0
  9
$QTEXTMODE
 70
     0
  9
$MIRRTEXT
 70
     1
  9
$DRAGMODE
 70
     2
  9
$LTSCALE
 40
100.0
  9
$OSMODE
 70
   545
  9
$ATTMODE
 70
     1
  9
$TEXTSIZE
 40
180.0
  9
$TRACEWID
 40
0.05
  9
$TEXTSTYLE
  7
STANDARD
  9
$CLAYER
  8
3
  9
$CELTYPE
  6
BYLAYER
  9
$CECOLOR
 62
   256
  9
$DIMSCALE
 40
40.0
  9
$DIMASZ
 40
2.0
  9
$DIMEXO
 40
0.5
  9
$DIMDLI
 40
10.0
  9
$DIMRND
 40
0.0
  9
$DIMDLE
 40
0.0
  9
$DIMEXE
 40
1.0
  9
$DIMTP
 40
1.0
  9
$DIMTM
 40
1.0
  9
$DIMTXT
 40
3.0
  9
$DIMCEN
 40
0.0
  9
$DIMTSZ
 40
0.0
  9
$DIMTOL
 70
     0
  9
$DIMLIM
 70
     0
  9
$DIMTIH
 70
     0
  9
$DIMTOH
 70
     0
  9
$DIMSE1
 70
     0
  9
$DIMSE2
 70
     0
  9
$DIMTAD
 70
     1
  9
$DIMZIN
 70
     8
  9
$DIMBLK
  1

  9
$DIMASO
 70
     1
  9
$DIMSHO
 70
     1
  9
$DIMPOST
  1

  9
$DIMAPOST
  1

  9
$DIMALT
 70
     0
  9
$DIMALTD
 70
     2
  9
$DIMALTF
 40
0.039
  9
$DIMLFAC
 40
1.0
  9
$DIMTOFL
 70
     1
  9
$DIMTVP
 40
0.0
  9
$DIMTIX
 70
     0
  9
$DIMSOXD
 70
     0
  9
$DIMSAH
 70
     1
  9
$DIMBLK1
  1
OPEN
  9
$DIMBLK2
  1
OPEN
  9
$DIMSTYLE
  2
IGA
  9
$DIMCLRD
 70
     0
  9
$DIMCLRE
 70
     0
  9
$DIMCLRT
 70
     0
  9
$DIMTFAC
 40
10.0
  9
$DIMGAP
 40
1.0
  9
$LUNITS
 70
     2
  9
$LUPREC
 70
     3
  9
$SKETCHINC
 40
0.1
  9
$FILLETRAD
 40
50.0
  9
$AUNITS
 70
     0
  9
$AUPREC
 70
     0
  9
$MENU
  1
acad
  9
$ELEVATION
 40
0.0
  9
$PELEVATION
 40
0.0
  9
$THICKNESS
 40
0.0
  9
$LIMCHECK
 70
     0
  9
$BLIPMODE
 70
     0
  9
$CHAMFERA
 40
0.5
  9
$CHAMFERB
 40
0.5
  9
$SKPOLY
 70
     0
  9
$TDCREATE
 40
2451408.6481913188
  9
$TDUPDATE
 40
2455013.7302831942
  9
$TDINDWG
 40
0.0192588542
  9
$TDUSRTIMER
 40
0.0192588542
  9
$USRTIMER
 70
     1
  9
$ANGBASE
 50
0.0
  9
$ANGDIR
 70
     0
  9
$PDMODE
 70
     0
  9
$PDSIZE
 40
0.0
  9
$PLINEWID
 40
0.0
  9
$COORDS
 70
     2
  9
$SPLFRAME
 70
     0
  9
$SPLINETYPE
 70
     6
  9
$SPLINESEGS
 70
     8
  9
$ATTDIA
 70
     0
  9
$ATTREQ
 70
     1
  9
$HANDLING
 70
 22529
  9
$HANDSEED
  5
8556
  9
$SURFTAB1
 70
     6
  9
$SURFTAB2
 70
     6
  9
$SURFTYPE
 70
     6
  9
$SURFU
 70
     6
  9
$SURFV
 70
     6
  9
$UCSNAME
  2

  9
$UCSORG
 10
0.0
 20
0.0
 30
0.0
  9
$UCSXDIR
 10
1.0
 20
0.0
 30
0.0
  9
$UCSYDIR
 10
0.0
 20
1.0
 30
0.0
  9
$PUCSNAME
  2

  9
$PUCSORG
 10
0.0
 20
0.0
 30
0.0
  9
$PUCSXDIR
 10
1.0
 20
0.0
 30
0.0
  9
$PUCSYDIR
 10
0.0
 20
1.0
 30
0.0
  9
$USERI1
 70
     0
  9
$USERI2
 70
     0
  9
$USERI3
 70
     0
  9
$USERI4
 70
     0
  9
$USERI5
 70
     0
  9
$USERR1
 40
0.0
  9
$USERR2
 40
0.0
  9
$USERR3
 40
0.0
  9
$USERR4
 40
0.0
  9
$USERR5
 40
0.0
  9
$WORLDVIEW
 70
     1
  9
$SHADEDGE
 70
     3
  9
$SHADEDIF
 70
    70
  9
$TILEMODE
 70
     1
  9
$MAXACTVP
 70
    16
  9
$PLIMCHECK
 70
     0
  9
$PEXTMIN
 10
1.0000000000000000E+020
 20
1.0000000000000000E+020
 30
1.0000000000000000E+020
  9
$PEXTMAX
 10
-1.0000000000000000E+020
 20
-1.0000000000000000E+020
 30
-1.0000000000000000E+020
  9
$PLIMMIN
 10
0.0
 20
0.0
  9
$PLIMMAX
 10
12.0
 20
9.0
  9
$UNITMODE
 70
     0
  9
$VISRETAIN
 70
     0
  9
$PLINEGEN
 70
     0
  9
$PSLTSCALE
 70
     1
  0
ENDSEC
  0
SECTION
  2
TABLES
  0
TABLE
  2
VPORT
 70
     2
  0
VPORT
  2
*ACTIVE
 70
     0
 10
0.0
 20
0.0
 11
1.0
 21
1.0
 12
5015.3012937494541
 22
5900.0000274740123
 13
0.0
 23
0.0
 14
10.0
 24
10.0
 15
10.0
 25
10.0
 16
0.0
 26
0.0
 36
1.0
 17
0.0
 27
0.0
 37
0.0
 40
11890.45953206774
 41
1.6307901907356941
 42
50.0
 43
0.0
 44
0.0
 50
0.0
 51
0.0
 71
     0
 72
   100
 73
     1
 74
     0
 75
     0
 76
     0
 77
     0
 78
     0
  0
ENDTAB
  0
TABLE
  2
LTYPE
 70
     2
  0
LTYPE
  2
CONTINUOUS
 70
     0
  3
Solid line
 72
    65
 73
     0
 40
0.0
  0
LTYPE
  2
CENTER
 70
     0
  3
____ _ ____ _ ____ _ ____ _ ____ _ ____ _ ____ 
 72
    65
 73
     4
 40
2.0
 49
1.25
 49
-0.25
 49
0.25
 49
-0.25
  0
ENDTAB
  0
TABLE
  2
LAYER
 70
     6
  0
LAYER
  2
0
 70
     0
 62
     7
  6
CONTINUOUS
  0
LAYER
  2
3
 70
     0
 62
     2
  6
CONTINUOUS
  0
LAYER
  2
2
 70
     0
 62
     3
  6
CENTER
  0
LAYER
  2
1
 70
     0
 62
     4
  6
CONTINUOUS
  0
LAYER
  2
4
 70
     0
 62
     7
  6
CONTINUOUS
  0
LAYER
  2
DEFPOINTS
 70
     0
 62
     7
  6
CONTINUOUS
  0
ENDTAB
  0
TABLE
  2
STYLE
 70
     1
  0
STYLE
  2
STANDARD
 70
     0
 40
0.0
 41
1.0
 50
0.0
 71
     0
 42
180.0
  3
simplex.shx
  4
extfont.shx
  0
ENDTAB
  0
TABLE
  2
VIEW
 70
     0
  0
ENDTAB
  0
TABLE
  2
UCS
 70
     0
  0
ENDTAB
  0
TABLE
  2
APPID
 70
     1
  0
APPID
  2
ACAD
 70
     0
  0
ENDTAB
  0
TABLE
  2
DIMSTYLE
 70
     1
  0
DIMSTYLE
  2
IGA
 70
     0
  3

  4

  5

  6
OPEN
  7
OPEN
 40
2.0
 41
2.0
 42
0.5
 43
10.0
 44
1.0
 45
0.0
 46
0.0
 47
1.0
 48
1.0
140
3.0
141
0.0
142
0.0
143
0.03937
144
1.0
145
0.0
146
10.0
147
1.0
 71
     0
 72
     0
 73
     0
 74
     0
 75
     0
 76
     0
 77
     1
 78
     8
170
     0
171
     2
172
     0
173
     1
174
     0
175
     0
176
     0
177
     0
178
     0
  0
ENDTAB
  0
ENDSEC
  0
SECTION
  2
BLOCKS
  0
BLOCK
  8
0
  2
$MODEL_SPACE
 70
     0
 10
0.0
 20
0.0
 30
0.0
  3
$MODEL_SPACE
  1

  0
ENDBLK
  5
1B
  8
0
  0
BLOCK
 67
     1
  8
0
  2
$PAPER_SPACE
 70
     0
 10
0.0
 20
0.0
 30
0.0
  3
$PAPER_SPACE
  1

  0
ENDBLK
  5
18
 67
     1
  8
0
  0
BLOCK
  8
0
  2
_OPEN
 70
     0
 10
0.0
 20
0.0
 30
0.0
  3
_OPEN
  1

  0
LINE
  5
79FD
  8
0
  6
BYBLOCK
 62
     0
 10
-1.0
 20
0.1666666666666666
 30
0.0
 11
0.0
 21
0.0
 31
0.0
  0
LINE
  5
79FE
  8
0
  6
BYBLOCK
 62
     0
 10
0.0
 20
0.0
 30
0.0
 11
-1.0
 21
-0.1666666666666666
 31
0.0
  0
LINE
  5
79FF
  8
0
  6
BYBLOCK
 62
     0
 10
0.0
 20
0.0
 30
0.0
 11
-1.0
 21
0.0
 31
0.0
  0
ENDBLK
  5
7A01
  8
0
  0
BLOCK
  8
0
  2
YA_N
 70
     0
 10
0.0
 20
0.0
 30
0.0
  3
YA_N
  1

  0
ENDBLK
  5
7A0C
  8
0
  0
BLOCK
  8
0
  2
*D2
 70
     1
 10
0.0
 20
0.0
 30
0.0
  3
*D2
  1

  0
LINE
  5
8471
  8
3
 62
     0
 10
1944.0651809131159
 20
3066.5073936823392
 30
0.0
 11
1656.419035399445
 21
3066.5073936823392
 31
0.0
  0
LINE
  5
8472
  8
3
 62
     0
 10
1944.0651809131159
 20
4516.5073936823383
 30
0.0
 11
1656.419035399445
 21
4516.5073936823383
 31
0.0
  0
LINE
  5
8473
  8
3
 62
     0
 10
1696.419035399445
 20
3146.5073936823392
 30
0.0
 11
1696.419035399445
 21
4436.5073936823392
 31
0.0
  0
INSERT
  5
8474
  8
3
 62
     0
  2
_OPEN
 10
1696.419035399445
 20
3066.5073936823392
 30
0.0
 41
80.0
 42
80.0
 43
80.0
 50
270.0
  0
INSERT
  5
8475
  8
3
 62
     0
  2
_OPEN
 10
1696.419035399445
 20
4516.5073936823383
 30
0.0
 41
80.0
 42
80.0
 43
80.0
 50
90.0
  0
TEXT
  8
3
  40
120
  5
853F
  62
0
  72
0
  71
0
 10
1356.42
 20
3579.11
 30
0.000000
  1
1450
  0
POINT
  5
8477
  8
DEFPOINTS
 62
     0
 10
1964.0651809131159
 20
3066.5073936823392
 30
0.0
  0
POINT
  5
8478
  8
DEFPOINTS
 62
     0
 10
1964.0651809131159
 20
4516.5073936823383
 30
0.0
  0
POINT
  5
8479
  8
DEFPOINTS
 62
     0
 10
1696.419035399445
 20
4516.5073936823383
 30
0.0
  0
ENDBLK
  5
8014
  8
0
  0
BLOCK
  8
0
  2
*D3
 70
     1
 10
0.0
 20
0.0
 30
0.0
  3
*D3
  1

  0
LINE
  5
847A
  8
3
 62
     0
 10
2044.0651809131159
 20
2757.5073936823392
 30
0.0
 11
2044.0651809131159
 21
2390.7416080127418
 31
0.0
  0
LINE
  5
847B
  8
3
 62
     0
 10
2894.0651809131159
 20
2604.9231397555959
 30
0.0
 11
2894.0651809131159
 21
2390.7416080127418
 31
0.0
  0
LINE
  5
847C
  8
3
 62
     0
 10
2124.065180913115
 20
2430.7416080127418
 30
0.0
 11
2814.0651809131159
 21
2430.7416080127418
 31
0.0
  0
INSERT
  5
847D
  8
3
 62
     0
  2
_OPEN
 10
2044.0651809131159
 20
2430.7416080127418
 30
0.0
 41
80.0
 42
80.0
 43
80.0
 50
180.0
  0
INSERT
  5
847E
  8
3
 62
     0
  2
_OPEN
 10
2894.0651809131159
 20
2430.7416080127418
 30
0.0
 41
80.0
 42
80.0
 43
80.0
  0
TEXT
  8
3
  40
120
  5
8540
  62
0
  72
0
  71
0
 10
2229.07
 20
2318.34
 30
0.000000
  1
850
  0
POINT
  5
8480
  8
DEFPOINTS
 62
     0
 10
2044.0651809131159
 20
2777.5073936823392
 30
0.0
  0
POINT
  5
8481
  8
DEFPOINTS
 62
     0
 10
2894.0651809131159
 20
2624.9231397555959
 30
0.0
  0
POINT
  5
8482
  8
DEFPOINTS
 62
     0
 10
2894.0651809131159
 20
2430.7416080127418
 30
0.0
  0
ENDBLK
  5
8009
  8
0
  0
BLOCK
  8
0
  2
*D4
 70
     1
 10
0.0
 20
0.0
 30
0.0
  3
*D4
  1

  0
LINE
  5
8483
  8
3
 62
     0
 10
2894.0651809131159
 20
2604.9231397555959
 30
0.0
 11
2894.0651809131159
 21
2390.7416080127418
 31
0.0
  0
LINE
  5
8484
  8
3
 62
     0
 10
4794.0651809131159
 20
2757.5073936823392
 30
0.0
 11
4794.0651809131159
 21
2390.7416080127418
 31
0.0
  0
LINE
  5
8485
  8
3
 62
     0
 10
2974.0651809131159
 20
2430.7416080127418
 30
0.0
 11
4714.0651809131159
 21
2430.7416080127418
 31
0.0
  0
INSERT
  5
8486
  8
3
 62
     0
  2
_OPEN
 10
2894.0651809131159
 20
2430.7416080127418
 30
0.0
 41
80.0
 42
80.0
 43
80.0
 50
180.0
  0
INSERT
  5
8487
  8
3
 62
     0
  2
_OPEN
 10
4794.0651809131159
 20
2430.7416080127418
 30
0.0
 41
80.0
 42
80.0
 43
80.0
  0
TEXT
  8
3
  40
120
  5
8541
  62
0
  72
0
  71
0
 10
3604.07
 20
2318.34
 30
0.000000
  1
1900
  0
POINT
  5
8489
  8
DEFPOINTS
 62
     0
 10
2894.0651809131159
 20
2624.9231397555959
 30
0.0
  0
POINT
  5
848A
  8
DEFPOINTS
 62
     0
 10
4794.0651809131159
 20
2777.5073936823392
 30
0.0
  0
POINT
  5
848B
  8
DEFPOINTS
 62
     0
 10
4794.0651809131159
 20
2430.7416080127418
 30
0.0
  0
ENDBLK
  5
7FFE
  8
0
  0
BLOCK
  8
0
  2
*D5
 70
     1
 10
0.0
 20
0.0
 30
0.0
  3
*D5
  1

  0
LINE
  5
848C
  8
3
 62
     0
 10
6111.4657588505979
 20
2757.5073936823392
 30
0.0
 11
6111.4657588505979
 21
2421.499610395962
 31
0.0
  0
LINE
  5
848D
  8
3
 62
     0
 10
6902.465758850597
 20
2604.9231397555959
 30
0.0
 11
6902.465758850597
 21
2421.499610395962
 31
0.0
  0
LINE
  5
848E
  8
3
 62
     0
 10
6191.4657588505979
 20
2461.499610395962
 30
0.0
 11
6822.465758850597
 21
2461.499610395962
 31
0.0
  0
INSERT
  5
848F
  8
3
 62
     0
  2
_OPEN
 10
6111.4657588505979
 20
2461.499610395962
 30
0.0
 41
80.0
 42
80.0
 43
80.0
 50
180.0
  0
INSERT
  5
8490
  8
3
 62
     0
  2
_OPEN
 10
6902.465758850597
 20
2461.499610395962
 30
0.0
 41
80.0
 42
80.0
 43
80.0
  0
TEXT
  8
3
  40
120
  5
8542
  62
0
  72
0
  71
0
 10
6266.97
 20
2349.10
 30
0.000000
  1
791
  0
POINT
  5
8492
  8
DEFPOINTS
 62
     0
 10
6111.4657588505979
 20
2777.5073936823392
 30
0.0
  0
POINT
  5
8493
  8
DEFPOINTS
 62
     0
 10
6902.465758850597
 20
2624.9231397555968
 30
0.0
  0
POINT
  5
8494
  8
DEFPOINTS
 62
     0
 10
6902.465758850597
 20
2461.499610395962
 30
0.0
  0
ENDBLK
  5
7FE8
  8
0
  0
BLOCK
  8
0
  2
*D6
 70
     1
 10
0.0
 20
0.0
 30
0.0
  3
*D6
  1

  0
LINE
  5
8495
  8
3
 62
     0
 10
6902.465758850597
 20
2604.9231397555959
 30
0.0
 11
6902.465758850597
 21
2421.499610395962
 31
0.0
  0
LINE
  5
8496
  8
3
 62
     0
 10
7511.465758850597
 20
2757.5073936823401
 30
0.0
 11
7511.465758850597
 21
2421.499610395962
 31
0.0
  0
LINE
  5
8497
  8
3
 62
     0
 10
6982.4657588505979
 20
2461.499610395962
 30
0.0
 11
7431.4657588505979
 21
2461.499610395962
 31
0.0
  0
INSERT
  5
8498
  8
3
 62
     0
  2
_OPEN
 10
6902.465758850597
 20
2461.499610395962
 30
0.0
 41
80.0
 42
80.0
 43
80.0
 50
180.0
  0
INSERT
  5
8499
  8
3
 62
     0
  2
_OPEN
 10
7511.465758850597
 20
2461.499610395962
 30
0.0
 41
80.0
 42
80.0
 43
80.0
  0
TEXT
  8
3
  40
120
  5
8543
  62
0
  72
0
  71
0
 10
6933.89
 20
2349.10
 30
0.000000
  1
609
  0
POINT
  5
849B
  8
DEFPOINTS
 62
     0
 10
6902.465758850597
 20
2624.9231397555968
 30
0.0
  0
POINT
  5
849C
  8
DEFPOINTS
 62
     0
 10
7511.465758850597
 20
2777.5073936823401
 30
0.0
  0
POINT
  5
849D
  8
DEFPOINTS
 62
     0
 10
7511.465758850597
 20
2461.499610395962
 30
0.0
  0
ENDBLK
  5
8035
  8
0
  0
BLOCK
  8
0
  2
*D7
 70
     1
 10
0.0
 20
0.0
 30
0.0
  3
*D7
  1

  0
LINE
  5
849E
  8
3
 62
     0
 10
2044.0651809131159
 20
8725.6484671826584
 30
0.0
 11
2044.0651809131159
 21
9115.6950225414348
 31
0.0
  0
LINE
  5
849F
  8
3
 62
     0
 10
3744.0651809131159
 20
8725.6484671826584
 30
0.0
 11
3744.0651809131159
 21
9115.6950225414348
 31
0.0
  0
LINE
  5
84A0
  8
3
 62
     0
 10
2124.065180913115
 20
9075.695022541433
 30
0.0
 11
3664.065180913115
 21
9075.695022541433
 31
0.0
  0
INSERT
  5
84A1
  8
3
 62
     0
  2
_OPEN
 10
2044.0651809131159
 20
9075.695022541433
 30
0.0
 41
80.0
 42
80.0
 43
80.0
 50
180.0
  0
INSERT
  5
84A2
  8
3
 62
     0
  2
_OPEN
 10
3744.0651809131159
 20
9075.695022541433
 30
0.0
 41
80.0
 42
80.0
 43
80.0
  0
TEXT
  8
3
  40
120
  5
8544
  62
0
  72
0
  71
0
 10
2654.07
 20
8963.30
 30
0.000000
  1
1700
  0
POINT
  5
84A4
  8
DEFPOINTS
 62
     0
 10
2044.0651809131159
 20
8705.6484671826584
 30
0.0
  0
POINT
  5
84A5
  8
DEFPOINTS
 62
     0
 10
3744.0651809131159
 20
8705.6484671826584
 30
0.0
  0
POINT
  5
84A6
  8
DEFPOINTS
 62
     0
 10
3744.0651809131159
 20
9075.695022541433
 30
0.0
  0
ENDBLK
  5
7FC7
  8
0
  0
BLOCK
  8
0
  2
*D8
 70
     1
 10
0.0
 20
0.0
 30
0.0
  3
*D8
  1

  0
LINE
  5
84A7
  8
3
 62
     0
 10
3744.0651809131159
 20
8725.6484671826584
 30
0.0
 11
3744.0651809131159
 21
9115.6950225414348
 31
0.0
  0
LINE
  5
84A8
  8
3
 62
     0
 10
4794.0651809131159
 20
8425.6484671826584
 30
0.0
 11
4794.0651809131159
 21
9115.6950225414348
 31
0.0
  0
LINE
  5
84A9
  8
3
 62
     0
 10
3824.0651809131159
 20
9075.695022541433
 30
0.0
 11
4714.0651809131159
 21
9075.695022541433
 31
0.0
  0
INSERT
  5
84AA
  8
3
 62
     0
  2
_OPEN
 10
3744.0651809131159
 20
9075.695022541433
 30
0.0
 41
80.0
 42
80.0
 43
80.0
 50
180.0
  0
INSERT
  5
84AB
  8
3
 62
     0
  2
_OPEN
 10
4794.0651809131159
 20
9075.695022541433
 30
0.0
 41
80.0
 42
80.0
 43
80.0
  0
TEXT
  8
3
  40
120
  5
8545
  62
0
  72
0
  71
0
 10
4029.07
 20
8963.30
 30
0.000000
  1
1050
  0
POINT
  5
84AD
  8
DEFPOINTS
 62
     0
 10
3744.0651809131159
 20
8705.6484671826584
 30
0.0
  0
POINT
  5
84AE
  8
DEFPOINTS
 62
     0
 10
4794.0651809131159
 20
8405.6484671826584
 30
0.0
  0
POINT
  5
84AF
  8
DEFPOINTS
 62
     0
 10
4794.0651809131159
 20
9075.695022541433
 30
0.0
  0
ENDBLK
  5
7FBC
  8
0
  0
BLOCK
  8
0
  2
*D9
 70
     1
 10
0.0
 20
0.0
 30
0.0
  3
*D9
  1

  0
LINE
  5
84B0
  8
3
 62
     0
 10
4814.065180913115
 20
8405.6484671826584
 30
0.0
 11
5142.2420206041606
 21
8405.6484671826584
 31
0.0
  0
LINE
  5
84B1
  8
3
 62
     0
 10
4814.065180913115
 20
7305.6484671826584
 30
0.0
 11
5142.2420206041606
 21
7305.6484671826584
 31
0.0
  0
LINE
  5
84B2
  8
3
 62
     0
 10
5102.2420206041606
 20
8325.6484671826584
 30
0.0
 11
5102.2420206041606
 21
7385.6484671826584
 31
0.0
  0
INSERT
  5
84B3
  8
3
 62
     0
  2
_OPEN
 10
5102.2420206041606
 20
8405.6484671826584
 30
0.0
 41
80.0
 42
80.0
 43
80.0
 50
90.0
  0
INSERT
  5
84B4
  8
3
 62
     0
  2
_OPEN
 10
5102.2420206041606
 20
7305.6484671826584
 30
0.0
 41
80.0
 42
80.0
 43
80.0
 50
270.0
  0
TEXT
  8
3
  40
120
  5
8546
  62
0
  72
0
  71
0
 10
4762.24
 20
7643.25
 30
0.000000
  1
1100
  0
POINT
  5
84B6
  8
DEFPOINTS
 62
     0
 10
4794.0651809131159
 20
8405.6484671826584
 30
0.0
  0
POINT
  5
84B7
  8
DEFPOINTS
 62
     0
 10
4794.0651809131159
 20
7305.6484671826584
 30
0.0
  0
POINT
  5
84B8
  8
DEFPOINTS
 62
     0
 10
5102.2420206041606
 20
7305.6484671826584
 30
0.0
  0
ENDBLK
  5
7FB1
  8
0
  0
BLOCK
  8
0
  2
*D10
 70
     1
 10
0.0
 20
0.0
 30
0.0
  3
*D10
  1

  0
LINE
  5
84B9
  8
3
 62
     0
 10
2024.065180913115
 20
8705.6484671826584
 30
0.0
 11
1577.8032206572129
 21
8705.6484671826584
 31
0.0
  0
LINE
  5
84BA
  8
3
 62
     0
 10
2024.065180913115
 20
7305.6484671826584
 30
0.0
 11
1577.8032206572129
 21
7305.6484671826584
 31
0.0
  0
LINE
  5
84BB
  8
3
 62
     0
 10
1617.8032206572129
 20
8625.6484671826584
 30
0.0
 11
1617.8032206572129
 21
7385.6484671826584
 31
0.0
  0
INSERT
  5
84BC
  8
3
 62
     0
  2
_OPEN
 10
1617.8032206572129
 20
8705.6484671826584
 30
0.0
 41
80.0
 42
80.0
 43
80.0
 50
90.0
  0
INSERT
  5
84BD
  8
3
 62
     0
  2
_OPEN
 10
1617.8032206572129
 20
7305.6484671826584
 30
0.0
 41
80.0
 42
80.0
 43
80.0
 50
270.0
  0
TEXT
  8
3
  40
120
  5
8547
  62
0
  72
0
  71
0
 10
1277.80
 20
7793.25
 30
0.000000
  1
1400
  0
POINT
  5
84BF
  8
DEFPOINTS
 62
     0
 10
2044.0651809131159
 20
8705.6484671826584
 30
0.0
  0
POINT
  5
84C0
  8
DEFPOINTS
 62
     0
 10
2044.0651809131159
 20
7305.6484671826584
 30
0.0
  0
POINT
  5
84C1
  8
DEFPOINTS
 62
     0
 10
1617.8032206572129
 20
7305.6484671826584
 30
0.0
  0
ENDBLK
  5
7FA6
  8
0
  0
BLOCK
  8
0
  2
*D11
 70
     1
 10
0.0
 20
0.0
 30
0.0
  3
*D11
  1

  0
LINE
  5
84C2
  8
3
 62
     0
 10
2044.0651809131159
 20
7285.6484671826584
 30
0.0
 11
2044.0651809131159
 21
6716.0699606549379
 31
0.0
  0
LINE
  5
84C3
  8
3
 62
     0
 10
4794.0651809131159
 20
7285.6484671826584
 30
0.0
 11
4794.0651809131159
 21
6716.0699606549379
 31
0.0
  0
LINE
  5
84C4
  8
3
 62
     0
 10
2124.065180913115
 20
6756.0699606549388
 30
0.0
 11
4714.0651809131159
 21
6756.0699606549388
 31
0.0
  0
INSERT
  5
84C5
  8
3
 62
     0
  2
_OPEN
 10
2044.0651809131159
 20
6756.0699606549388
 30
0.0
 41
80.0
 42
80.0
 43
80.0
 50
180.0
  0
INSERT
  5
84C6
  8
3
 62
     0
  2
_OPEN
 10
4794.0651809131159
 20
6756.0699606549388
 30
0.0
 41
80.0
 42
80.0
 43
80.0
  0
TEXT
  8
3
  40
120
  5
8548
  62
0
  72
0
  71
0
 10
3179.07
 20
6643.67
 30
0.000000
  1
2750
  0
POINT
  5
84C8
  8
DEFPOINTS
 62
     0
 10
2044.0651809131159
 20
7305.6484671826584
 30
0.0
  0
POINT
  5
84C9
  8
DEFPOINTS
 62
     0
 10
4794.0651809131159
 20
7305.6484671826584
 30
0.0
  0
POINT
  5
84CA
  8
DEFPOINTS
 62
     0
 10
4794.0651809131159
 20
6756.0699606549388
 30
0.0
  0
ENDBLK
  5
7F9B
  8
0
  0
BLOCK
  8
0
  2
*D12
 70
     1
 10
0.0
 20
0.0
 30
0.0
  3
*D12
  1

  0
LINE
  5
84CB
  8
3
 62
     0
 10
7536.4657588505979
 20
5327.5073936823383
 30
0.0
 11
7536.4657588505979
 21
6186.2642390538103
 31
0.0
  0
LINE
  5
84CC
  8
3
 62
     0
 10
6902.465758850597
 20
6051.0216027308188
 30
0.0
 11
6902.465758850597
 21
6186.2642390538103
 31
0.0
  0
LINE
  5
84CD
  8
3
 62
     0
 10
7456.4657588505979
 20
6146.2642390538103
 30
0.0
 11
6982.4657588505979
 21
6146.2642390538103
 31
0.0
  0
INSERT
  5
84CE
  8
3
 62
     0
  2
_OPEN
 10
7536.4657588505979
 20
6146.2642390538103
 30
0.0
 41
80.0
 42
80.0
 43
80.0
  0
INSERT
  5
84CF
  8
3
 62
     0
  2
_OPEN
 10
6902.465758850597
 20
6146.2642390538103
 30
0.0
 41
80.0
 42
80.0
 43
80.0
 50
180.0
  0
TEXT
  8
3
  40
120
  5
8549
  62
0
  72
0
  71
0
 10
7019.32
 20
6033.86
 30
0.000000
  1
634
  0
POINT
  5
84D1
  8
DEFPOINTS
 62
     0
 10
7536.4657588505979
 20
5307.5073936823392
 30
0.0
  0
POINT
  5
84D2
  8
DEFPOINTS
 62
     0
 10
6902.465758850597
 20
6031.0216027308179
 30
0.0
  0
POINT
  5
84D3
  8
DEFPOINTS
 62
     0
 10
6902.465758850597
 20
6146.2642390538103
 30
0.0
  0
ENDBLK
  5
801F
  8
0
  0
BLOCK
  8
0
  2
*D13
 70
     1
 10
0.0
 20
0.0
 30
0.0
  3
*D13
  1

  0
LINE
  5
84D4
  8
3
 62
     0
 10
6902.465758850597
 20
6051.0216027308188
 30
0.0
 11
6902.465758850597
 21
6186.2642390538103
 31
0.0
  0
LINE
  5
84D5
  8
3
 62
     0
 10
5952.7657588505972
 20
5127.5073936823392
 30
0.0
 11
5952.7657588505972
 21
6186.2642390538103
 31
0.0
  0
LINE
  5
84D6
  8
3
 62
     0
 10
6822.465758850597
 20
6146.2642390538103
 30
0.0
 11
6032.7657588505972
 21
6146.2642390538103
 31
0.0
  0
INSERT
  5
84D7
  8
3
 62
     0
  2
_OPEN
 10
6902.465758850597
 20
6146.2642390538103
 30
0.0
 41
80.0
 42
80.0
 43
80.0
  0
INSERT
  5
84D8
  8
3
 62
     0
  2
_OPEN
 10
5952.7657588505972
 20
6146.2642390538103
 30
0.0
 41
80.0
 42
80.0
 43
80.0
 50
180.0
  0
TEXT
  8
3
  40
120
  5
854A
  62
0
  72
0
  71
0
 10
6187.62
 20
6133.86
 30
0.000000
  1
MAX
  0
TEXT
  8
3
  40
120
  5
854B
  62
0
  72
0
  71
0
 10
6187.62
 20
5977.86
 30
0.000000
  1
1030
  0
POINT
  5
84DA
  8
DEFPOINTS
 62
     0
 10
6902.465758850597
 20
6031.0216027308179
 30
0.0
  0
POINT
  5
84DB
  8
DEFPOINTS
 62
     0
 10
5952.7657588505972
 20
5107.5073936823401
 30
0.0
  0
POINT
  5
84DC
  8
DEFPOINTS
 62
     0
 10
5952.7657588505972
 20
6146.2642390538103
 30
0.0
  0
ENDBLK
  5
8099
  8
0
  0
BLOCK
  8
0
  2
*D14
 70
     1
 10
0.0
 20
0.0
 30
0.0
  3
*D14
  1

  0
LINE
  5
84DD
  8
3
 62
     0
 10
1964.0651809131159
 20
4536.5073936823392
 30
0.0
 11
1964.0651809131159
 21
6236.6963800647791
 31
0.0
  0
LINE
  5
84DE
  8
3
 62
     0
 10
4794.0651809131159
 20
3137.5073936823392
 30
0.0
 11
4794.0651809131159
 21
6236.6963800647791
 31
0.0
  0
LINE
  5
84DF
  8
3
 62
     0
 10
2044.0651809131159
 20
6196.6963800647782
 30
0.0
 11
4714.0651809131159
 21
6196.6963800647782
 31
0.0
  0
INSERT
  5
84E0
  8
3
 62
     0
  2
_OPEN
 10
1964.0651809131159
 20
6196.6963800647782
 30
0.0
 41
80.0
 42
80.0
 43
80.0
 50
180.0
  0
INSERT
  5
84E1
  8
3
 62
     0
  2
_OPEN
 10
4794.0651809131159
 20
6196.6963800647782
 30
0.0
 41
80.0
 42
80.0
 43
80.0
  0
TEXT
  8
3
  40
120
  5
854C
  62
0
  72
0
  71
0
 10
3139.07
 20
6084.30
 30
0.000000
  1
2830
  0
POINT
  5
84E3
  8
DEFPOINTS
 62
     0
 10
1964.0651809131159
 20
4516.5073936823383
 30
0.0
  0
POINT
  5
84E4
  8
DEFPOINTS
 62
     0
 10
4794.0651809131159
 20
3117.5073936823392
 30
0.0
  0
POINT
  5
84E5
  8
DEFPOINTS
 62
     0
 10
4794.0651809131159
 20
6196.6963800647782
 30
0.0
  0
ENDBLK
  5
7F7A
  8
0
  0
BLOCK
  8
0
  2
*D15
 70
     1
 10
0.0
 20
0.0
 30
0.0
  3
*D15
  1

  0
LINE
  5
84E6
  8
3
 62
     0
 10
1792.30865403145
 20
4557.5073936823392
 30
0.0
 11
1390.3725496387631
 21
4557.5073936823392
 31
0.0
  0
LINE
  5
84E7
  8
3
 62
     0
 10
1944.0651809131159
 20
3066.5073936823392
 30
0.0
 11
1390.3725496387631
 21
3066.5073936823392
 31
0.0
  0
LINE
  5
84E8
  8
3
 62
     0
 10
1430.3725496387631
 20
4477.5073936823392
 30
0.0
 11
1430.3725496387631
 21
3146.5073936823392
 31
0.0
  0
INSERT
  5
84E9
  8
3
 62
     0
  2
_OPEN
 10
1430.3725496387631
 20
4557.5073936823392
 30
0.0
 41
80.0
 42
80.0
 43
80.0
 50
90.0
  0
INSERT
  5
84EA
  8
3
 62
     0
  2
_OPEN
 10
1430.3725496387631
 20
3066.5073936823392
 30
0.0
 41
80.0
 42
80.0
 43
80.0
 50
270.0
  0
TEXT
  8
3
  40
120
  5
854D
  62
0
  72
0
  71
0
 10
1090.37
 20
3599.61
 30
0.000000
  1
1491
  0
POINT
  5
84EC
  8
DEFPOINTS
 62
     0
 10
1812.30865403145
 20
4557.5073936823392
 30
0.0
  0
POINT
  5
84ED
  8
DEFPOINTS
 62
     0
 10
1964.0651809131159
 20
3066.5073936823392
 30
0.0
  0
POINT
  5
84EE
  8
DEFPOINTS
 62
     0
 10
1430.3725496387631
 20
3066.5073936823392
 30
0.0
  0
ENDBLK
  5
7F6F
  8
0
  0
BLOCK
  8
0
  2
*D16
 70
     1
 10
0.0
 20
0.0
 30
0.0
  3
*D16
  1

  0
LINE
  5
84EF
  8
3
 62
     0
 10
2976.0651809131159
 20
5560.5073936823392
 30
0.0
 11
1117.8783684894991
 21
5560.5073936823401
 31
0.0
  0
LINE
  5
84F0
  8
3
 62
     0
 10
1792.30865403145
 20
4557.5073936823392
 30
0.0
 11
1117.8783684894979
 21
4557.5073936823392
 31
0.0
  0
LINE
  5
84F1
  8
3
 62
     0
 10
1157.8783684894991
 20
5480.507393682341
 30
0.0
 11
1157.8783684894991
 21
4637.5073936823392
 31
0.0
  0
INSERT
  5
84F2
  8
3
 62
     0
  2
_OPEN
 10
1157.8783684894991
 20
5560.5073936823401
 30
0.0
 41
80.0
 42
80.0
 43
80.0
 50
90.0
  0
INSERT
  5
84F3
  8
3
 62
     0
  2
_OPEN
 10
1157.8783684894979
 20
4557.5073936823392
 30
0.0
 41
80.0
 42
80.0
 43
80.0
 50
270.0
  0
TEXT
  8
3
  40
120
  5
854E
  62
0
  72
0
  71
0
 10
817.878
 20
4846.61
 30
0.000000
  1
1003
  0
POINT
  5
84F5
  8
DEFPOINTS
 62
     0
 10
2996.0651809131159
 20
5560.5073936823392
 30
0.0
  0
POINT
  5
84F6
  8
DEFPOINTS
 62
     0
 10
1812.30865403145
 20
4557.5073936823392
 30
0.0
  0
POINT
  5
84F7
  8
DEFPOINTS
 62
     0
 10
1157.8783684894979
 20
4557.5073936823392
 30
0.0
  0
ENDBLK
  5
7F64
  8
0
  0
BLOCK
  8
0
  2
*D17
 70
     1
 10
0.0
 20
0.0
 30
0.0
  3
*D17
  1

  0
LINE
  5
84F8
  8
3
 62
     0
 10
1792.30865403145
 20
4557.5073936823392
 30
0.0
 11
1117.8783684894991
 21
4557.5073936823392
 31
0.0
  0
LINE
  5
84F9
  8
3
 62
     0
 10
2024.065180913115
 20
2967.5073936823392
 30
0.0
 11
1117.8783684894979
 21
2967.5073936823392
 31
0.0
  0
LINE
  5
84FA
  8
3
 62
     0
 10
1157.8783684894991
 20
4477.5073936823392
 30
0.0
 11
1157.8783684894979
 21
3047.5073936823392
 31
0.0
  0
INSERT
  5
84FB
  8
3
 62
     0
  2
_OPEN
 10
1157.8783684894991
 20
4557.5073936823392
 30
0.0
 41
80.0
 42
80.0
 43
80.0
 50
90.0
  0
INSERT
  5
84FC
  8
3
 62
     0
  2
_OPEN
 10
1157.8783684894979
 20
2967.5073936823392
 30
0.0
 41
80.0
 42
80.0
 43
80.0
 50
270.0
  0
TEXT
  8
3
  40
120
  5
854F
  62
0
  72
0
  71
0
 10
817.878
 20
3550.11
 30
0.000000
  1
1590
  0
POINT
  5
84FE
  8
DEFPOINTS
 62
     0
 10
1812.30865403145
 20
4557.5073936823392
 30
0.0
  0
POINT
  5
84FF
  8
DEFPOINTS
 62
     0
 10
2044.0651809131159
 20
2967.5073936823392
 30
0.0
  0
POINT
  5
8500
  8
DEFPOINTS
 62
     0
 10
1157.8783684894979
 20
2967.5073936823392
 30
0.0
  0
ENDBLK
  5
7F59
  8
0
  0
BLOCK
  8
0
  2
*D18
 70
     1
 10
0.0
 20
0.0
 30
0.0
  3
*D18
  1

  0
LINE
  5
8501
  8
3
 62
     0
 10
1964.0651809131159
 20
4586.5073936823392
 30
0.0
 11
1964.0651809131159
 21
5938.6305664538522
 31
0.0
  0
LINE
  5
8502
  8
3
 62
     0
 10
2894.0651809131159
 20
5763.9736192769878
 30
0.0
 11
2894.0651809131159
 21
5938.6305664538522
 31
0.0
  0
LINE
  5
8503
  8
3
 62
     0
 10
2044.0651809131159
 20
5898.6305664538522
 30
0.0
 11
2814.0651809131159
 21
5898.6305664538522
 31
0.0
  0
INSERT
  5
8504
  8
3
 62
     0
  2
_OPEN
 10
1964.0651809131159
 20
5898.6305664538522
 30
0.0
 41
80.0
 42
80.0
 43
80.0
 50
180.0
  0
INSERT
  5
8505
  8
3
 62
     0
  2
_OPEN
 10
2894.0651809131159
 20
5898.6305664538522
 30
0.0
 41
80.0
 42
80.0
 43
80.0
  0
TEXT
  8
3
  40
120
  5
8550
  62
0
  72
0
  71
0
 10
2189.07
 20
5786.23
 30
0.000000
  1
930
  0
POINT
  5
8507
  8
DEFPOINTS
 62
     0
 10
1964.0651809131159
 20
4566.5073936823383
 30
0.0
  0
POINT
  5
8508
  8
DEFPOINTS
 62
     0
 10
2894.0651809131159
 20
5743.9736192769888
 30
0.0
  0
POINT
  5
8509
  8
DEFPOINTS
 62
     0
 10
2894.0651809131159
 20
5898.6305664538522
 30
0.0
  0
ENDBLK
  5
7F29
  8
0
  0
BLOCK
  8
0
  2
*D19
 70
     1
 10
0.0
 20
0.0
 30
0.0
  3
*D19
  1

  0
LINE
  5
850A
  8
3
 62
     0
 10
2894.0651809131159
 20
5763.9736192769878
 30
0.0
 11
2894.0651809131159
 21
5938.6305664538522
 31
0.0
  0
LINE
  5
850B
  8
3
 62
     0
 10
4101.0651809131159
 20
4475.5073936823392
 30
0.0
 11
4101.0651809131159
 21
5938.6305664538522
 31
0.0
  0
LINE
  5
850C
  8
3
 62
     0
 10
2974.0651809131159
 20
5898.6305664538522
 30
0.0
 11
4021.065180913115
 21
5898.6305664538522
 31
0.0
  0
INSERT
  5
850D
  8
3
 62
     0
  2
_OPEN
 10
2894.0651809131159
 20
5898.6305664538522
 30
0.0
 41
80.0
 42
80.0
 43
80.0
 50
180.0
  0
INSERT
  5
850E
  8
3
 62
     0
  2
_OPEN
 10
4101.0651809131159
 20
5898.6305664538522
 30
0.0
 41
80.0
 42
80.0
 43
80.0
  0
TEXT
  8
3
  40
120
  5
8551
  62
0
  72
0
  71
0
 10
3257.57
 20
5786.23
 30
0.000000
  1
1207
  0
POINT
  5
8510
  8
DEFPOINTS
 62
     0
 10
2894.0651809131159
 20
5743.9736192769888
 30
0.0
  0
POINT
  5
8511
  8
DEFPOINTS
 62
     0
 10
4101.0651809131159
 20
4455.5073936823392
 30
0.0
  0
POINT
  5
8512
  8
DEFPOINTS
 62
     0
 10
4101.0651809131159
 20
5898.6305664538522
 30
0.0
  0
ENDBLK
  5
7F1E
  8
0
  0
BLOCK
  8
0
  2
*D20
 70
     1
 10
0.0
 20
0.0
 30
0.0
  3
*D20
  1

  0
LINE
  5
8513
  8
3
 62
     0
 10
7432.4657588505979
 20
5580.5073936823392
 30
0.0
 11
7432.4657588505979
 21
5860.1857145850336
 31
0.0
  0
LINE
  5
8514
  8
3
 62
     0
 10
6372.4657588505979
 20
5580.5073936823401
 30
0.0
 11
6372.4657588505979
 21
5860.1857145850336
 31
0.0
  0
LINE
  5
8515
  8
3
 62
     0
 10
7352.465758850597
 20
5820.1857145850336
 30
0.0
 11
6452.465758850597
 21
5820.1857145850336
 31
0.0
  0
INSERT
  5
8516
  8
3
 62
     0
  2
_OPEN
 10
7432.4657588505979
 20
5820.1857145850336
 30
0.0
 41
80.0
 42
80.0
 43
80.0
  0
INSERT
  5
8517
  8
3
 62
     0
  2
_OPEN
 10
6372.4657588505979
 20
5820.1857145850336
 30
0.0
 41
80.0
 42
80.0
 43
80.0
 50
180.0
  0
TEXT
  8
3
  40
120
  5
8552
  62
0
  72
0
  71
0
 10
6662.47
 20
5707.79
 30
0.000000
  1
1060
  0
POINT
  5
8519
  8
DEFPOINTS
 62
     0
 10
7432.4657588505979
 20
5560.5073936823392
 30
0.0
  0
POINT
  5
851A
  8
DEFPOINTS
 62
     0
 10
6372.4657588505979
 20
5560.5073936823401
 30
0.0
  0
POINT
  5
851B
  8
DEFPOINTS
 62
     0
 10
6372.4657588505979
 20
5820.1857145850336
 30
0.0
  0
ENDBLK
  5
7F13
  8
0
  0
BLOCK
  8
0
  2
*D21
 70
     1
 10
0.0
 20
0.0
 30
0.0
  3
*D21
  1

  0
LINE
  5
851C
  8
3
 62
     0
 10
7556.4657588505979
 20
5257.5073936823392
 30
0.0
 11
7945.0599854174934
 21
5257.5073936823392
 31
0.0
  0
LINE
  5
851D
  8
3
 62
     0
 10
7556.4657588505979
 20
3857.5073936823392
 30
0.0
 11
7945.0599854174934
 21
3857.5073936823392
 31
0.0
  0
LINE
  5
851E
  8
3
 62
     0
 10
7905.0599854174943
 20
5177.5073936823392
 30
0.0
 11
7905.0599854174943
 21
3937.5073936823392
 31
0.0
  0
INSERT
  5
851F
  8
3
 62
     0
  2
_OPEN
 10
7905.0599854174943
 20
5257.5073936823392
 30
0.0
 41
80.0
 42
80.0
 43
80.0
 50
90.0
  0
INSERT
  5
8520
  8
3
 62
     0
  2
_OPEN
 10
7905.0599854174943
 20
3857.5073936823392
 30
0.0
 41
80.0
 42
80.0
 43
80.0
 50
270.0
  0
TEXT
  8
3
  40
120
  5
8553
  62
0
  72
0
  71
0
 10
7565.06
 20
4345.11
 30
0.000000
  1
φ1400
  0
POINT
  5
8522
  8
DEFPOINTS
 62
     0
 10
7536.4657588505979
 20
5257.5073936823392
 30
0.0
  0
POINT
  5
8523
  8
DEFPOINTS
 62
     0
 10
7536.4657588505979
 20
3857.5073936823392
 30
0.0
  0
POINT
  5
8524
  8
DEFPOINTS
 62
     0
 10
7905.0599854174943
 20
3857.5073936823392
 30
0.0
  0
ENDBLK
  5
802A
  8
0
  0
BLOCK
  8
0
  2
_DOT
 70
     0
 10
0.0
 20
0.0
 30
0.0
  3
_DOT
  1

  0
POLYLINE
  5
8082
  8
0
  6
BYBLOCK
 62
     0
 66
     1
 10
0.0
 20
0.0
 30
0.0
 70
     1
 40
0.25
 41
0.25
  0
VERTEX
  5
8525
  8
0
  6
BYBLOCK
 62
     0
 10
-0.125
 20
0.0
 30
0.0
 42
1.0
  0
VERTEX
  5
8526
  8
0
  6
BYBLOCK
 62
     0
 10
0.125
 20
0.0
 30
0.0
 42
1.0
  0
SEQEND
  5
8527
  8
0
  6
BYBLOCK
 62
     0
  0
LINE
  5
8086
  8
0
  6
BYBLOCK
 62
     0
 10
-0.25
 20
0.0
 30
0.0
 11
-1.0
 21
0.0
 31
0.0
  0
ENDBLK
  5
8064
  8
0
  0
BLOCK
  8
0
  2
*D23
 70
     1
 10
0.0
 20
0.0
 30
0.0
  3
*D23
  1

  0
LINE
  5
8528
  8
3
 62
     0
 10
2024.065180913115
 20
2967.5073936823392
 30
0.0
 11
1117.8783684894979
 21
2967.5073936823392
 31
0.0
  0
LINE
  5
8529
  8
3
 62
     0
 10
2024.065180913115
 20
2852.5073936823392
 30
0.0
 11
1117.8783684894979
 21
2852.5073936823392
 31
0.0
  0
LINE
  5
852A
  8
3
 62
     0
 10
1157.8783684894979
 20
2967.5073936823392
 30
0.0
 11
1157.8783684894979
 21
2852.5073936823392
 31
0.0
  0
LINE
  5
852B
  8
3
 62
     0
 10
1157.8783684894979
 20
2910.0073936823392
 30
0.0
 11
966.44979706092727
 21
2967.4359651109112
 31
0.0
  0
LINE
  5
852C
  8
3
 62
     0
 10
966.44979706092727
 20
2967.4359651109112
 30
0.0
 11
966.44979706092749
 21
3464.578822253769
 31
0.0
  0
TEXT
  8
3
  40
120
  5
8554
  62
0
  72
0
  71
0
 10
595.021
 20
3003.61
 30
0.000000
  1
(115)
  0
POINT
  5
852E
  8
DEFPOINTS
 62
     0
 10
2044.0651809131159
 20
2967.5073936823392
 30
0.0
  0
POINT
  5
852F
  8
DEFPOINTS
 62
     0
 10
2044.0651809131159
 20
2852.5073936823392
 30
0.0
  0
POINT
  5
8530
  8
DEFPOINTS
 62
     0
 10
1157.8783684894979
 20
2852.5073936823392
 30
0.0
  0
ENDBLK
  5
8206
  8
0
  0
BLOCK
  8
0
  2
*D24
 70
     1
 10
0.0
 20
0.0
 30
0.0
  3
*D24
  1

  0
LINE
  5
8531
  8
3
 62
     0
 10
2024.065180913115
 20
2852.5073936823392
 30
0.0
 11
1117.8783684894979
 21
2852.5073936823392
 31
0.0
  0
LINE
  5
8532
  8
3
 62
     0
 10
2024.065180913115
 20
2777.5073936823392
 30
0.0
 11
1117.8783684894979
 21
2777.5073936823392
 31
0.0
  0
LINE
  5
8533
  8
3
 62
     0
 10
1157.8783684894979
 20
2852.5073936823392
 30
0.0
 11
1157.8783684894979
 21
2932.5073936823392
 31
0.0
  0
LINE
  5
8534
  8
3
 62
     0
 10
1157.8783684894979
 20
2697.5073936823392
 30
0.0
 11
1157.8783684894979
 21
2617.5073936823392
 31
0.0
  0
TEXT
  8
3
  40
120
  5
8555
  62
0
  72
0
  71
0
 10
915.309
 20
2271.32
 30
0.000000
  1
75
  0
LINE
  5
8536
  8
3
 62
     0
 10
1157.8783684894979
 20
2852.5073936823392
 30
0.0
 11
1157.8783684894979
 21
2777.5073936823392
 31
0.0
  0
INSERT
  5
8537
  8
3
 62
     0
  2
_DOTSMALL
 10
1157.8783684894979
 20
2852.5073936823392
 30
0.0
 41
80.0
 42
80.0
 43
80.0
 50
270.0
  0
INSERT
  5
8538
  8
3
 62
     0
  2
_OPEN
 10
1157.8783684894979
 20
2777.5073936823392
 30
0.0
 41
80.0
 42
80.0
 43
80.0
 50
90.0
  0
POINT
  5
8539
  8
DEFPOINTS
 62
     0
 10
2044.0651809131159
 20
2852.5073936823392
 30
0.0
  0
POINT
  5
853A
  8
DEFPOINTS
 62
     0
 10
2044.0651809131159
 20
2777.5073936823392
 30
0.0
  0
POINT
  5
853B
  8
DEFPOINTS
 62
     0
 10
1157.8783684894979
 20
2777.5073936823392
 30
0.0
  0
ENDBLK
  5
8218
  8
0
  0
BLOCK
  8
0
  2
_DOTSMALL
 70
     0
 10
0.0
 20
0.0
 30
0.0
  3
_DOTSMALL
  1

  0
POLYLINE
  5
8233
  8
3
 62
     0
 66
     1
 10
0.0
 20
0.0
 30
0.0
 70
     1
 40
0.5
 41
0.5
  0
VERTEX
  5
853C
  8
3
 62
     0
 10
-0.0625
 20
0.0
 30
0.0
 42
1.0
  0
VERTEX
  5
853D
  8
3
 62
     0
 10
0.0625
 20
0.0
 30
0.0
 42
1.0
  0
SEQEND
  5
853E
  8
3
 62
     0
  0
ENDBLK
  5
8235
  8
0
  0
BLOCK
  8
0
  2
_NONE
 70
     0
 10
0.0
 20
0.0
 30
0.0
  3
_NONE
  1

  0
ENDBLK
  5
8243
  8
0
  0
ENDSEC
  0
SECTION
  2
ENTITIES
  0
INSERT
  5
7BE9
  8
0
  2
YA_N
 10
6.0
 20
5.0
 30
0.0
  0
INSERT
  5
7BEB
  8
0
  2
YA_N
 10
6.0
 20
5.0
 30
0.0
  0
LINE
  5
7BED
  8
2
 10
2894.0651809131159
 20
5743.9736192769888
 30
0.0
 11
2894.0651809131159
 21
2624.9231397555959
 31
0.0
  0
LINE
  5
7BEE
  8
1
 10
1964.0651809131159
 20
4570.5073936823392
 30
0.0
 11
1964.0651809131159
 21
3012.5073936823392
 31
0.0
  0
LINE
  5
7BEF
  8
1
 10
1964.0651809131159
 20
4516.5073936823383
 30
0.0
 11
2073.1614361897391
 21
4516.5073936823383
 31
0.0
  0
ARC
  5
7BF0
  8
1
 10
2792.0651809131159
 20
4455.5073936823392
 30
0.0
 40
1309.0
 50
274.46913665552103
 51
0.0
  0
ARC
  5
7BF1
  8
1
 10
2996.0651809131159
 20
4455.5073936823392
 30
0.0
 40
1105.0
 50
0.0
 51
95.296380911852324
  0
ARC
  5
7BF2
  8
1
 10
2979.5651809131159
 20
4643.0073936823392
 30
0.0
 40
917.5
 50
95.347037803486259
 51
180.0
  0
ARC
  5
7BF3
  8
1
 10
23225.672655865092
 20
5192.4162117654832
 30
0.0
 40
21163.30748320909
 50
181.2250304412612
 51
181.8302105824049
  0
LINE
  5
7BF4
  8
1
 10
1964.0651809131159
 20
3066.5073936823392
 30
0.0
 11
2894.0651809131159
 21
3150.3935403846272
 31
0.0
  0
LINE
  5
7BF5
  8
1
 10
2044.0651809131159
 20
2967.5073936823392
 30
0.0
 11
4794.0651809131159
 21
2967.5073936823392
 31
0.0
  0
LINE
  5
7BF6
  8
1
 10
2044.0651809131159
 20
3117.5073936823392
 30
0.0
 11
4794.0651809131159
 21
3117.5073936823392
 31
0.0
  0
LINE
  5
7BF7
  8
1
 10
2044.0651809131159
 20
3117.5073936823392
 30
0.0
 11
2044.0651809131159
 21
2967.5073936823392
 31
0.0
  0
LINE
  5
7BF8
  8
1
 10
4794.0651809131159
 20
3117.5073936823392
 30
0.0
 11
4794.0651809131159
 21
2967.5073936823392
 31
0.0
  0
LINE
  5
7BF9
  8
1
 10
2014.0651809131159
 20
4516.5073936823383
 30
0.0
 11
2014.0651809131159
 21
3071.0174015695579
 31
0.0
  0
LINE
  5
7BFA
  8
2
 10
5765.7159151684828
 20
4557.5073936823392
 30
0.0
 11
7656.6986348986939
 21
4557.5073936823392
 31
0.0
  0
LINE
  5
7BFB
  8
2
 10
6902.465758850597
 20
5788.3034314082906
 30
0.0
 11
6902.465758850597
 21
2624.9231397555968
 31
0.0
  0
LINE
  5
7BFC
  8
1
 10
6111.4657588505979
 20
3117.5073936823392
 30
0.0
 11
7511.465758850597
 21
3117.5073936823392
 31
0.0
  0
LINE
  5
7BFD
  8
1
 10
6111.4657588505979
 20
2967.5073936823392
 30
0.0
 11
7511.465758850597
 21
2967.5073936823401
 31
0.0
  0
LINE
  5
7BFE
  8
1
 10
2044.0651809131159
 20
7305.6484671826584
 30
0.0
 11
4794.0651809131159
 21
7305.6484671826584
 31
0.0
  0
LINE
  5
7BFF
  8
1
 10
2044.0651809131159
 20
8705.6484671826584
 30
0.0
 11
3744.0651809131159
 21
8705.6484671826584
 31
0.0
  0
LINE
  5
7C00
  8
1
 10
2044.0651809131159
 20
8705.6484671826584
 30
0.0
 11
2044.0651809131159
 21
8626.6484671826584
 31
0.0
  0
LINE
  5
7C01
  8
1
 10
3744.0651809131159
 20
8705.6484671826584
 30
0.0
 11
3744.0651809131159
 21
8626.6484671826565
 31
0.0
  0
LINE
  5
7C02
  8
1
 10
4101.0651809131159
 20
8405.6484671826565
 30
0.0
 11
4794.0651809131159
 21
8405.6484671826584
 31
0.0
  0
LINE
  5
7C03
  8
1
 10
4794.0651809131159
 20
8405.6484671826584
 30
0.0
 11
4794.0651809131159
 21
7305.6484671826584
 31
0.0
  0
LINE
  5
7C04
  8
1
 10
7432.4657588505979
 20
5560.5073936823392
 30
0.0
 11
7432.4657588505979
 21
4566.5073936823401
 31
0.0
  0
LINE
  5
7C05
  8
1
 10
6372.4657588505979
 20
5560.5073936823401
 30
0.0
 11
6372.4657588505979
 21
4557.5073936823392
 31
0.0
  0
LINE
  5
7C06
  8
2
 10
1812.30865403145
 20
4557.5073936823392
 30
0.0
 11
4570.7423615071857
 21
4557.5073936823392
 31
0.0
  0
LINE
  5
7C07
  8
2
 10
4494.0651809131159
 20
3790.5037123049001
 30
0.0
 11
4494.0651809131159
 21
3037.1560670300551
 31
0.0
  0
LINE
  5
7C08
  8
2
 10
4267.1024618728079
 20
3352.5073936823392
 30
0.0
 11
4794.0651809131159
 21
3352.5073936823392
 31
0.0
  0
LINE
  5
7C09
  8
2
 10
6455.4677085922494
 20
3352.5073936823392
 30
0.0
 11
5935.4406776209253
 21
3352.5073936823392
 31
0.0
  0
CIRCLE
  5
7C0A
  8
1
 10
2894.0651809131159
 20
4557.5073936823392
 30
0.0
 40
700.0
  0
CIRCLE
  5
7C0B
  8
1
 10
2894.0651809131159
 20
4557.5073936823392
 30
0.0
 40
750.0
  0
LINE
  5
7C0C
  8
1
 10
7435.6657588505977
 20
5257.5073936823392
 30
0.0
 11
7536.4657588505979
 21
5257.5073936823392
 31
0.0
  0
LINE
  5
7C0D
  8
1
 10
7435.6657588505977
 20
3857.5073936823392
 30
0.0
 11
7536.4657588505979
 21
3857.5073936823392
 31
0.0
  0
LINE
  5
7C0E
  8
1
 10
7536.4657588505979
 20
5307.5073936823392
 30
0.0
 11
7536.4657588505979
 21
3807.5073936823392
 31
0.0
  0
LINE
  5
7C0F
  8
1
 10
4656.0651809131159
 20
3242.509898453081
 30
0.0
 11
4646.436127023363
 21
3252.0616631535231
 31
0.0
  0
LINE
  5
7C10
  8
1
 10
4332.065180913115
 20
3242.509898453081
 30
0.0
 11
4341.6942348028679
 21
3252.0616631535231
 31
0.0
  0
LINE
  5
7C11
  8
1
 10
4656.0651809131159
 20
3172.5073936823392
 30
0.0
 11
4656.0651809131159
 21
3242.509898453081
 31
0.0
  0
LINE
  5
7C12
  8
1
 10
4744.8908729952136
 20
3172.5073936823392
 30
0.0
 11
4577.403500491364
 21
3172.5073936823392
 31
0.0
  0
ARC
  5
7C13
  8
1
 10
4494.0651809131159
 20
3352.5073936823392
 30
0.0
 40
182.5
 50
285.78279193357162
 51
254.2172080664283
  0
LINE
  5
7C14
  8
1
 10
4444.426778755751
 20
3176.8876936733009
 30
0.0
 11
4543.7035830704799
 21
3176.8876936733009
 31
0.0
  0
LINE
  5
7C15
  8
1
 10
4332.065180913115
 20
3172.5073936823392
 30
0.0
 11
4332.065180913115
 21
3242.5098984530832
 31
0.0
  0
LINE
  5
7C16
  8
1
 10
4332.065180913115
 20
3172.5073936823392
 30
0.0
 11
4392.0651809131159
 21
3172.5073936823392
 31
0.0
  0
CIRCLE
  5
7C17
  8
1
 10
4494.0651809131159
 20
3352.5073936823392
 30
0.0
 40
106.0
  0
LINE
  5
7C18
  8
1
 10
4754.0651809131177
 20
3117.5073936823392
 30
0.0
 11
4744.8908729952136
 21
3172.5073936823392
 31
0.0
  0
LINE
  5
7C19
  8
1
 10
4577.403500491364
 20
3172.5073936823392
 30
0.0
 11
4577.403500491364
 21
3163.0310491207379
 31
0.0
  0
LINE
  5
7C1A
  8
1
 10
4577.403500491364
 20
3163.0310491207379
 30
0.0
 11
4494.05240002559
 21
3163.0310491207379
 31
0.0
  0
LINE
  5
7C1B
  8
1
 10
4234.065180913115
 20
3117.5073936823392
 30
0.0
 11
4243.2394888310191
 21
3172.5073936823392
 31
0.0
  0
LINE
  5
7C1C
  8
1
 10
4243.2394888310191
 20
3172.5073936823392
 30
0.0
 11
4410.726861334867
 21
3172.5073936823392
 31
0.0
  0
LINE
  5
7C1D
  8
1
 10
4410.726861334867
 20
3163.0310491207379
 30
0.0
 11
4494.0779618006409
 21
3163.0310491207379
 31
0.0
  0
LINE
  5
7C1E
  8
1
 10
4410.726861334867
 20
3172.5073936823392
 30
0.0
 11
4410.726861334867
 21
3163.0310491207379
 31
0.0
  0
LINE
  5
7C1F
  8
1
 10
6102.7657588505981
 20
4637.5073936823392
 30
0.0
 11
6102.7657588505981
 21
4477.5073936823392
 31
0.0
  0
LINE
  5
7C20
  8
1
 10
6002.7657588505972
 20
4957.5073936823392
 30
0.0
 11
6002.7657588505972
 21
3246.5073936823392
 31
0.0
  0
LINE
  5
7C21
  8
1
 10
6080.6657588505986
 20
4957.5073936823392
 30
0.0
 11
6080.6657588505968
 21
3246.5073936823392
 31
0.0
  0
LINE
  5
7C22
  8
1
 10
6080.6657588505986
 20
4637.5073936823392
 30
0.0
 11
6102.7657588505981
 21
4637.5073936823392
 31
0.0
  0
LINE
  5
7C23
  8
1
 10
6080.6657588505986
 20
4477.5073936823392
 30
0.0
 11
6102.7657588505981
 21
4477.5073936823392
 31
0.0
  0
LINE
  5
7C24
  8
1
 10
6002.7657588505972
 20
3458.5073936823401
 30
0.0
 11
6080.6657588505968
 21
3458.5073936823401
 31
0.0
  0
LINE
  5
7C25
  8
1
 10
6002.7657588505972
 20
3246.5073936823392
 30
0.0
 11
6080.6657588505968
 21
3246.5073936823392
 31
0.0
  0
LINE
  5
7C26
  8
1
 10
6095.7657588505972
 20
3412.5073936823392
 30
0.0
 11
6095.7657588505972
 21
3292.5073936823401
 31
0.0
  0
LINE
  5
7C27
  8
1
 10
6080.6657588505968
 20
3412.5073936823392
 30
0.0
 11
6095.7657588505972
 21
3412.5073936823392
 31
0.0
  0
LINE
  5
7C28
  8
1
 10
6080.6657588505968
 20
3292.5073936823392
 30
0.0
 11
6095.7657588505972
 21
3292.5073936823401
 31
0.0
  0
LINE
  5
7C29
  8
1
 10
5952.7657588505972
 20
3132.5073936823392
 30
0.0
 11
6152.7657588505972
 21
3132.5073936823392
 31
0.0
  0
LINE
  5
7C2A
  8
1
 10
5952.7657588505972
 20
5107.5073936823401
 30
0.0
 11
5952.7657588505972
 21
3132.5073936823392
 31
0.0
  0
LINE
  5
7C2B
  8
1
 10
6152.7657588505972
 20
5107.5073936823401
 30
0.0
 11
6152.7657588505972
 21
3132.5073936823392
 31
0.0
  0
LINE
  5
7C2C
  8
1
 10
6102.7657588505981
 20
4600.0073936823383
 30
0.0
 11
6372.4657588505979
 21
4600.0073936823383
 31
0.0
  0
LINE
  5
7C2D
  8
1
 10
6102.7657588505981
 20
4515.0073936823383
 30
0.0
 11
6372.4657588505979
 21
4515.0073936823401
 31
0.0
  0
LINE
  5
7C2E
  8
1
 10
2044.0651809131159
 20
2852.5073936823392
 30
0.0
 11
2044.0651809131159
 21
2777.5073936823392
 31
0.0
  0
LINE
  5
7C2F
  8
1
 10
2044.0651809131159
 20
2852.5073936823392
 30
0.0
 11
4794.0651809131159
 21
2852.5073936823392
 31
0.0
  0
LINE
  5
7C30
  8
1
 10
4794.0651809131159
 20
2852.5073936823392
 30
0.0
 11
4794.0651809131159
 21
2777.5073936823392
 31
0.0
  0
LINE
  5
7C31
  8
1
 10
2044.0651809131159
 20
2777.5073936823392
 30
0.0
 11
4794.0651809131159
 21
2777.5073936823392
 31
0.0
  0
LINE
  5
7C32
  8
1
 10
6111.4657588505979
 20
2852.5073936823392
 30
0.0
 11
7511.465758850597
 21
2852.5073936823401
 31
0.0
  0
LINE
  5
7C33
  8
1
 10
6111.4657588505979
 20
2777.5073936823392
 30
0.0
 11
7511.465758850597
 21
2777.5073936823401
 31
0.0
  0
LINE
  5
7C34
  8
1
 10
6111.4657588505979
 20
2852.5073936823392
 30
0.0
 11
6111.4657588505979
 21
2777.5073936823392
 31
0.0
  0
LINE
  5
7C35
  8
1
 10
7511.465758850597
 20
2852.5073936823401
 30
0.0
 11
7511.465758850597
 21
2777.5073936823401
 31
0.0
  0
POINT
  5
7C36
  8
1
 10
4794.0651809131159
 20
2967.5073936823392
 30
0.0
  0
POINT
  5
7C37
  8
1
 10
4794.0651809131159
 20
2852.5073936823392
 30
0.0
  0
POINT
  5
7C38
  8
1
 10
4794.0651809131159
 20
2852.5073936823392
 30
0.0
  0
POINT
  5
7C39
  8
1
 10
4794.0651809131159
 20
2777.5073936823392
 30
0.0
  0
LINE
  5
7C3A
  8
1
 10
6372.4657588505979
 20
4557.5073936823392
 30
0.0
 11
6372.4657588505979
 21
3066.5073936823392
 31
0.0
  0
LINE
  5
7C3B
  8
1
 10
7432.4657588505979
 20
4548.5073936823392
 30
0.0
 11
7432.4657588505979
 21
3066.5073936823392
 31
0.0
  0
POINT
  5
7C3C
  8
1
 10
6902.465758850597
 20
6031.0216027308179
 30
0.0
  0
INSERT
  5
7C3D
  8
0
  6
BYBLOCK
 62
     2
  2
YA_N
 10
5372.4018783245183
 20
-226.14356067562309
 30
0.0
 41
90.0
 42
90.0
 43
90.0
 50
210.0117675348119
  0
CIRCLE
  5
7C3E
  8
1
 10
2894.0651809131159
 20
4557.5073936823392
 30
0.0
 40
400.0
  0
ARC
  5
7C3F
  8
1
 10
2894.0651809131159
 20
4557.5073936823392
 30
0.0
 40
550.0
 50
51.400236102065762
 51
242.49854202380939
  0
ARC
  5
7C40
  8
1
 10
4494.0651809131159
 20
3352.5073936823392
 30
0.0
 40
220.0
 50
242.49854202380939
 51
51.400236102065762
  0
LINE
  5
7C41
  8
1
 10
3237.1971878489799
 20
4987.3450674804444
 30
0.0
 11
4631.3179836874624
 21
3524.4424632015812
 31
0.0
  0
LINE
  5
7C42
  8
1
 10
3137.268047115263
 20
4875.0800087974676
 30
0.0
 11
4558.5139404566853
 21
3436.664136687848
 31
0.0
  0
LINE
  5
7C43
  8
1
 10
6002.7657588505972
 20
4957.5073936823392
 30
0.0
 11
6080.6657588505968
 21
4957.5073936823392
 31
0.0
  0
LINE
  5
7C44
  8
1
 10
5952.7657588505972
 20
5107.5073936823401
 30
0.0
 11
6152.7657588505972
 21
5107.5073936823401
 31
0.0
  0
LINE
  5
7C45
  8
1
 10
6095.7657588505972
 20
3395.0073936823392
 30
0.0
 11
6372.4657588505979
 21
3395.0073936823392
 31
0.0
  0
LINE
  5
7C46
  8
1
 10
6095.7657588505972
 20
3310.0073936823392
 30
0.0
 11
6372.4657588505979
 21
3310.0073936823392
 31
0.0
  0
DIMENSION
  5
7C47
  8
3
  2
*D2
 10
1696.419035399445
 20
4516.5073936823383
 30
0.0
 11
1596.419035399445
 21
3791.5073936823392
 31
0.0
 70
     0
 13
1964.0651809131159
 23
3066.5073936823392
 33
0.0
 14
1964.0651809131159
 24
4516.5073936823383
 34
0.0
 50
90.0
1001
ACAD
1000
DSTYLE
1002
{
1070
   287
1070
     3
1070
   287
1070
     3
1070
    40
1040
40.0
1070
   143
1040
0.039
1070
   172
1070
     1
1070
   271
1070
     0
1070
   279
1070
     0
1070
   288
1070
     1
1002
}
  0
DIMENSION
  5
7C48
  8
3
  2
*D3
 10
2894.0651809131159
 20
2430.7416080127418
 30
0.0
 11
2469.0651809131159
 21
2530.7416080127418
 31
0.0
 70
     0
 13
2044.0651809131159
 23
2777.5073936823392
 33
0.0
 14
2894.0651809131159
 24
2624.9231397555959
 34
0.0
1001
ACAD
1000
DSTYLE
1002
{
1070
   287
1070
     3
1070
   287
1070
     3
1070
    40
1040
40.0
1070
   143
1040
0.039
1070
   172
1070
     1
1070
   271
1070
     0
1070
   279
1070
     0
1070
   288
1070
     1
1002
}
  0
DIMENSION
  5
7C49
  8
3
  2
*D4
 10
4794.0651809131159
 20
2430.7416080127418
 30
0.0
 11
3844.0651809131159
 21
2530.7416080127418
 31
0.0
 70
     0
 13
2894.0651809131159
 23
2624.9231397555959
 33
0.0
 14
4794.0651809131159
 24
2777.5073936823392
 34
0.0
1001
ACAD
1000
DSTYLE
1002
{
1070
   287
1070
     3
1070
   287
1070
     3
1070
    40
1040
40.0
1070
   143
1040
0.039
1070
   172
1070
     1
1070
   271
1070
     0
1070
   279
1070
     0
1070
   288
1070
     1
1002
}
  0
DIMENSION
  5
7C4B
  8
3
  2
*D5
 10
6902.465758850597
 20
2461.499610395962
 30
0.0
 11
6506.965758850597
 21
2561.499610395962
 31
0.0
 70
     0
 13
6111.4657588505979
 23
2777.5073936823392
 33
0.0
 14
6902.465758850597
 24
2624.9231397555968
 34
0.0
1001
ACAD
1000
DSTYLE
1002
{
1070
   287
1070
     3
1070
   287
1070
     3
1070
    40
1040
40.0
1070
   143
1040
0.039
1070
   172
1070
     1
1070
   271
1070
     0
1070
   279
1070
     0
1070
   288
1070
     1
1002
}
  0
DIMENSION
  5
7C4C
  8
3
  2
*D6
 10
7511.465758850597
 20
2461.499610395962
 30
0.0
 11
7173.8943302791704
 21
2461.499610395962
 31
0.0
 70
   128
 13
6902.465758850597
 23
2624.9231397555968
 33
0.0
 14
7511.465758850597
 24
2777.5073936823401
 34
0.0
1001
ACAD
1000
DSTYLE
1002
{
1070
   287
1070
     3
1070
   287
1070
     3
1070
    40
1040
40.0
1070
   143
1040
0.039
1070
   172
1070
     1
1070
   271
1070
     0
1070
   279
1070
     0
1070
   288
1070
     1
1002
}
  0
DIMENSION
  5
7C4E
  8
3
  2
*D7
 10
3744.0651809131159
 20
9075.695022541433
 30
0.0
 11
2894.0651809131159
 21
9175.6950225414312
 31
0.0
 70
     0
 13
2044.0651809131159
 23
8705.6484671826584
 33
0.0
 14
3744.0651809131159
 24
8705.6484671826584
 34
0.0
1001
ACAD
1000
DSTYLE
1002
{
1070
   287
1070
     3
1070
   287
1070
     3
1070
    40
1040
40.0
1070
   143
1040
0.039
1070
   172
1070
     1
1070
   271
1070
     0
1070
   279
1070
     0
1070
   288
1070
     1
1002
}
  0
DIMENSION
  5
7C4F
  8
3
  2
*D8
 10
4794.0651809131159
 20
9075.695022541433
 30
0.0
 11
4269.065180913115
 21
9175.6950225414312
 31
0.0
 70
     0
 13
3744.0651809131159
 23
8705.6484671826584
 33
0.0
 14
4794.0651809131159
 24
8405.6484671826584
 34
0.0
1001
ACAD
1000
DSTYLE
1002
{
1070
   287
1070
     3
1070
   287
1070
     3
1070
    40
1040
40.0
1070
   143
1040
0.039
1070
   172
1070
     1
1070
   271
1070
     0
1070
   279
1070
     0
1070
   288
1070
     1
1002
}
  0
DIMENSION
  5
7C50
  8
3
  2
*D9
 10
5102.2420206041606
 20
7305.6484671826584
 30
0.0
 11
5002.2420206041597
 21
7855.6484671826602
 31
0.0
 70
     0
 13
4794.0651809131159
 23
8405.6484671826584
 33
0.0
 14
4794.0651809131159
 24
7305.6484671826584
 34
0.0
 50
90.0
1001
ACAD
1000
DSTYLE
1002
{
1070
   287
1070
     3
1070
   287
1070
     3
1070
    40
1040
40.0
1070
   143
1040
0.039
1070
   172
1070
     1
1070
   271
1070
     0
1070
   279
1070
     0
1070
   288
1070
     1
1002
}
  0
DIMENSION
  5
7C51
  8
3
  2
*D10
 10
1617.8032206572129
 20
7305.6484671826584
 30
0.0
 11
1517.803220657212
 21
8005.6484671826574
 31
0.0
 70
     0
 13
2044.0651809131159
 23
8705.6484671826584
 33
0.0
 14
2044.0651809131159
 24
7305.6484671826584
 34
0.0
 50
90.0
1001
ACAD
1000
DSTYLE
1002
{
1070
   287
1070
     3
1070
   287
1070
     3
1070
    40
1040
40.0
1070
   143
1040
0.039
1070
   172
1070
     1
1070
   271
1070
     0
1070
   279
1070
     0
1070
   288
1070
     1
1002
}
  0
DIMENSION
  5
7C52
  8
3
  2
*D11
 10
4794.0651809131159
 20
6756.0699606549388
 30
0.0
 11
3419.0651809131159
 21
6756.0699606549388
 31
0.0
 70
   128
 13
2044.0651809131159
 23
7305.6484671826584
 33
0.0
 14
4794.0651809131159
 24
7305.6484671826584
 34
0.0
1001
ACAD
1000
DSTYLE
1002
{
1070
   287
1070
     3
1070
   287
1070
     3
1070
    40
1040
40.0
1070
   143
1040
0.039
1070
   172
1070
     1
1070
   271
1070
     0
1070
   279
1070
     0
1070
   288
1070
     1
1002
}
  0
DIMENSION
  5
7C53
  8
3
  2
*D12
 10
6902.465758850597
 20
6146.2642390538103
 30
0.0
 11
7259.3229017077401
 21
6146.2642390538103
 31
0.0
 70
   128
 13
7536.4657588505979
 23
5307.5073936823392
 33
0.0
 14
6902.465758850597
 24
6031.0216027308179
 34
0.0
1001
ACAD
1000
DSTYLE
1002
{
1070
   287
1070
     3
1070
   287
1070
     3
1070
    40
1040
40.0
1070
   143
1040
0.039
1070
   172
1070
     1
1070
   271
1070
     0
1070
   279
1070
     0
1070
   288
1070
     1
1002
}
  0
DIMENSION
  5
7C54
  8
3
  2
*D13
 10
5952.7657588505972
 20
6146.2642390538103
 30
0.0
 11
6427.6157588505976
 21
6346.2642390538094
 31
0.0
 70
     0
  1
MAX\P1030
 13
6902.465758850597
 23
6031.0216027308179
 33
0.0
 14
5952.7657588505972
 24
5107.5073936823401
 34
0.0
1001
ACAD
1000
DSTYLE
1002
{
1070
   287
1070
     3
1070
   287
1070
     3
1070
    40
1040
40.0
1070
   143
1040
0.039
1070
   172
1070
     1
1070
   271
1070
     0
1070
   279
1070
     0
1070
   288
1070
     1
1002
}
  0
LINE
  5
7C55
  8
2
 10
2894.0651809131159
 20
7122.1078178990056
 30
0.0
 11
2894.0651809131159
 21
8566.4842741879056
 31
0.0
  0
LINE
  5
7C56
  8
2
 10
2044.0651809131159
 20
8096.6484671826584
 30
0.0
 11
4641.9640296723001
 21
8096.6484671826574
 31
0.0
  0
LINE
  5
7C57
  8
1
 10
1964.0651809131159
 20
8626.6484671826584
 30
0.0
 11
4101.0651809131159
 21
8626.6484671826565
 31
0.0
  0
LINE
  5
7C58
  8
1
 10
1964.0651809131159
 20
7566.6484671826584
 30
0.0
 11
4101.0651809131159
 21
7566.6484671826584
 31
0.0
  0
LINE
  5
7C59
  8
1
 10
2044.0651809131159
 20
7566.6484671826584
 30
0.0
 11
2044.0651809131159
 21
7305.6484671826584
 31
0.0
  0
DIMENSION
  5
7C5A
  8
3
  2
*D14
 10
4794.0651809131159
 20
6196.6963800647782
 30
0.0
 11
3379.0651809131159
 21
6296.6963800647791
 31
0.0
 70
     0
 13
1964.0651809131159
 23
4516.5073936823383
 33
0.0
 14
4794.0651809131159
 24
3117.5073936823392
 34
0.0
1001
ACAD
1000
DSTYLE
1002
{
1070
   287
1070
     3
1070
   287
1070
     3
1070
    40
1040
40.0
1070
   143
1040
0.039
1070
   172
1070
     1
1070
   271
1070
     0
1070
   279
1070
     0
1070
   288
1070
     1
1002
}
  0
LINE
  5
7C5B
  8
1
 10
7511.465758850597
 20
3117.5073936823392
 30
0.0
 11
7511.465758850597
 21
2967.5073936823401
 31
0.0
  0
LINE
  5
7C5C
  8
1
 10
6111.4657588505979
 20
3117.5073936823392
 30
0.0
 11
6111.4657588505979
 21
2967.5073936823392
 31
0.0
  0
LINE
  5
7C5D
  8
1
 10
1964.0651809131159
 20
7516.6484671826584
 30
0.0
 11
1964.0651809131159
 21
8676.6484671826584
 31
0.0
  0
LINE
  5
7C5E
  8
1
 10
4101.0651809131159
 20
7566.6484671826584
 30
0.0
 11
4101.0651809131159
 21
8626.6484671826565
 31
0.0
  0
LINE
  5
7C5F
  8
1
 10
2640.0910294967762
 20
4069.6578980257891
 30
0.0
 11
4392.4755203465802
 21
3157.3675954197188
 31
0.0
  0
LINE
  5
7C60
  8
1
 10
2702.93192986143
 20
4206.1271433232541
 30
0.0
 11
4443.414869384419
 21
3259.3916273371819
 31
0.0
  0
DIMENSION
  5
7C61
  8
3
  2
*D15
 10
1430.3725496387631
 20
3066.5073936823392
 30
0.0
 11
1330.3725496387619
 21
3812.0073936823392
 31
0.0
 70
     0
 13
1812.30865403145
 23
4557.5073936823392
 33
0.0
 14
1964.0651809131159
 24
3066.5073936823392
 34
0.0
 50
270.0
1001
ACAD
1000
DSTYLE
1002
{
1070
   287
1070
     3
1070
   287
1070
     3
1070
    40
1040
40.0
1070
   143
1040
0.039
1070
   172
1070
     1
1070
   271
1070
     0
1070
   279
1070
     0
1070
   288
1070
     1
1002
}
  0
DIMENSION
  5
7C62
  8
3
  2
*D16
 10
1157.8783684894979
 20
4557.5073936823392
 30
0.0
 11
1057.8783684894979
 21
5059.0073936823392
 31
0.0
 70
     0
 13
2996.0651809131159
 23
5560.5073936823392
 33
0.0
 14
1812.30865403145
 24
4557.5073936823392
 34
0.0
 50
270.0
1001
ACAD
1000
DSTYLE
1002
{
1070
   287
1070
     3
1070
   287
1070
     3
1070
    40
1040
40.0
1070
   143
1040
0.039
1070
   172
1070
     1
1070
   271
1070
     0
1070
   279
1070
     0
1070
   288
1070
     1
1002
}
  0
DIMENSION
  5
7C63
  8
3
  2
*D17
 10
1157.8783684894979
 20
2967.5073936823392
 30
0.0
 11
1057.8783684894979
 21
3762.5073936823392
 31
0.0
 70
     0
 13
1812.30865403145
 23
4557.5073936823392
 33
0.0
 14
2044.0651809131159
 24
2967.5073936823392
 34
0.0
 50
270.0
1001
ACAD
1000
DSTYLE
1002
{
1070
   287
1070
     3
1070
   287
1070
     3
1070
    40
1040
40.0
1070
   143
1040
0.039
1070
   172
1070
     1
1070
   271
1070
     0
1070
   279
1070
     0
1070
   288
1070
     1
1002
}
  0
LINE
  5
7C67
  8
1
 10
6002.7657588505972
 20
4157.5073936823392
 30
0.0
 11
6080.6657588505968
 21
4157.5073936823392
 31
0.0
  0
LINE
  5
7C68
  8
1
 10
6372.4657588505979
 20
5560.5073936823401
 30
0.0
 11
7432.4657588505979
 21
5560.5073936823392
 31
0.0
  0
LINE
  5
7C69
  8
1
 10
6372.4657588505979
 20
3066.5073936823392
 30
0.0
 11
7432.4657588505979
 21
3066.5073936823392
 31
0.0
  0
LINE
  5
7C6A
  8
1
 10
6372.4657588505997
 20
4516.5073936823383
 30
0.0
 11
7432.4657588505979
 21
4516.5073936823383
 31
0.0
  0
LINE
  5
7C6B
  8
1
 10
7432.4657588505979
 20
4516.5073936823383
 30
0.0
 11
6372.4657588505979
 21
3066.5073936823392
 31
0.0
  0
LINE
  5
7C6C
  8
1
 10
6372.4657588505979
 20
4515.0073936823401
 30
0.0
 11
7432.4657588505979
 21
3066.5073936823392
 31
0.0
  0
DIMENSION
  5
7C6D
  8
3
  2
*D18
 10
2894.0651809131159
 20
5898.6305664538522
 30
0.0
 11
2429.0651809131159
 21
5998.6305664538522
 31
0.0
 70
     0
 13
1964.0651809131159
 23
4566.5073936823383
 33
0.0
 14
2894.0651809131159
 24
5743.9736192769888
 34
0.0
1001
ACAD
1000
DSTYLE
1002
{
1070
   287
1070
     3
1070
   287
1070
     3
1070
    40
1040
40.0
1070
   143
1040
0.039
1070
   172
1070
     1
1070
   271
1070
     0
1070
   279
1070
     0
1070
   288
1070
     1
1002
}
  0
DIMENSION
  5
7C6E
  8
3
  2
*D19
 10
4101.0651809131159
 20
5898.6305664538522
 30
0.0
 11
3497.565180913115
 21
5998.6305664538522
 31
0.0
 70
     0
 13
2894.0651809131159
 23
5743.9736192769888
 33
0.0
 14
4101.0651809131159
 24
4455.5073936823392
 34
0.0
1001
ACAD
1000
DSTYLE
1002
{
1070
   287
1070
     3
1070
   287
1070
     3
1070
    40
1040
40.0
1070
   143
1040
0.039
1070
   172
1070
     1
1070
   271
1070
     0
1070
   279
1070
     0
1070
   288
1070
     1
1002
}
  0
DIMENSION
  5
7C6F
  8
3
  2
*D20
 10
6372.4657588505979
 20
5820.1857145850336
 30
0.0
 11
6902.465758850597
 21
5920.1857145850336
 31
0.0
 70
     0
 13
7432.4657588505979
 23
5560.5073936823392
 33
0.0
 14
6372.4657588505979
 24
5560.5073936823401
 34
0.0
1001
ACAD
1000
DSTYLE
1002
{
1070
   287
1070
     3
1070
   287
1070
     3
1070
    40
1040
40.0
1070
   143
1040
0.039
1070
   172
1070
     1
1070
   271
1070
     0
1070
   279
1070
     0
1070
   288
1070
     1
1002
}
  0
LINE
  5
7C70
  8
1
 10
2494.0651809131159
 20
7196.9484671826558
 30
0.0
 11
3294.0651809131159
 21
7196.9484671826567
 31
0.0
  0
LINE
  5
7C71
  8
1
 10
2494.0651809131159
 20
7274.8484671826573
 30
0.0
 11
3294.0651809131159
 21
7274.8484671826573
 31
0.0
  0
LINE
  5
7C72
  8
1
 10
2344.0651809131159
 20
7146.9484671826567
 30
0.0
 11
4714.0651809131159
 21
7146.9484671826567
 31
0.0
  0
LINE
  5
7C73
  8
1
 10
2344.0651809131159
 20
7346.9484671826576
 30
0.0
 11
4714.0651809131159
 21
7346.9484671826576
 31
0.0
  0
LINE
  5
7C74
  8
2
 10
4494.0651809131159
 20
7997.4318895698052
 30
0.0
 11
4494.0651809131159
 21
7129.6233859529848
 31
0.0
  0
LINE
  5
7C75
  8
1
 10
4600.0651809131159
 20
7196.9484671826567
 30
0.0
 11
4600.0651809131159
 21
7274.8484671826563
 31
0.0
  0
LINE
  5
7C76
  8
1
 10
4714.0651809131159
 20
7146.9484671826567
 30
0.0
 11
4714.0651809131159
 21
7346.9484671826576
 31
0.0
  0
LINE
  5
7C77
  8
1
 10
4451.5651809131159
 20
7289.9484671826576
 30
0.0
 11
4451.5651809131159
 21
7404.9484671826567
 31
0.0
  0
LINE
  5
7C78
  8
1
 10
4536.5651809131159
 20
7289.9484671826576
 30
0.0
 11
4536.5651809131159
 21
7404.9484671826558
 31
0.0
  0
LINE
  5
7C79
  8
1
 10
4434.065180913115
 20
7289.9484671826576
 30
0.0
 11
4554.065180913115
 21
7289.9484671826576
 31
0.0
  0
LINE
  5
7C7A
  8
1
 10
4554.0651809131159
 20
7274.8484671826563
 30
0.0
 11
4554.065180913115
 21
7289.9484671826576
 31
0.0
  0
LINE
  5
7C7B
  8
1
 10
4434.065180913115
 20
7274.8484671826573
 30
0.0
 11
4434.065180913115
 21
7289.9484671826576
 31
0.0
  0
LINE
  5
7C7C
  8
1
 10
2814.0651809131159
 20
7296.9484671826576
 30
0.0
 11
2974.0651809131159
 21
7296.9484671826576
 31
0.0
  0
LINE
  5
7C7D
  8
1
 10
3294.0651809131159
 20
7196.9484671826567
 30
0.0
 11
3294.0651809131159
 21
7274.8484671826573
 31
0.0
  0
LINE
  5
7C7E
  8
1
 10
4388.065180913115
 20
7196.9484671826567
 30
0.0
 11
4388.065180913115
 21
7274.8484671826563
 31
0.0
  0
LINE
  5
7C7F
  8
1
 10
2974.0651809131159
 20
7274.8484671826573
 30
0.0
 11
2974.0651809131159
 21
7296.9484671826576
 31
0.0
  0
LINE
  5
7C80
  8
1
 10
2344.0651809131159
 20
7146.9484671826567
 30
0.0
 11
2344.0651809131159
 21
7346.9484671826576
 31
0.0
  0
LINE
  5
7C81
  8
1
 10
2494.0651809131159
 20
7196.9484671826567
 30
0.0
 11
2494.0651809131159
 21
7274.8484671826573
 31
0.0
  0
LINE
  5
7C82
  8
1
 10
2851.5651809131159
 20
7296.9484671826576
 30
0.0
 11
2851.5651809131159
 21
7566.6484671826584
 31
0.0
  0
LINE
  5
7C83
  8
1
 10
2936.565180913115
 20
7296.9484671826576
 30
0.0
 11
2936.565180913115
 21
7566.6484671826584
 31
0.0
  0
LINE
  5
7C84
  8
1
 10
2814.0651809131159
 20
7274.8484671826573
 30
0.0
 11
2814.0651809131159
 21
7296.9484671826576
 31
0.0
  0
LINE
  5
7C85
  8
1
 10
4311.5651809131159
 20
7966.4484671826567
 30
0.0
 11
4311.5651809131159
 21
7404.9484671826594
 31
0.0
  0
LINE
  5
7C86
  8
1
 10
4676.565180913115
 20
7966.4484671826549
 30
0.0
 11
4676.565180913115
 21
7404.9484671826558
 31
0.0
  0
LINE
  5
7C87
  8
1
 10
4311.5651809131159
 20
7966.4484671826567
 30
0.0
 11
4676.565180913115
 21
7966.4484671826549
 31
0.0
  0
LINE
  5
7C88
  8
1
 10
4311.5651809131159
 20
7404.9484671826567
 30
0.0
 11
4676.565180913115
 21
7404.9484671826558
 31
0.0
  0
LINE
  5
7C89
  8
1
 10
4388.065180913115
 20
7274.8484671826573
 30
0.0
 11
4600.0651809131159
 21
7274.8484671826573
 31
0.0
  0
LINE
  5
7C8A
  8
1
 10
4388.065180913115
 20
7196.9484671826567
 30
0.0
 11
4600.0651809131159
 21
7196.9484671826567
 31
0.0
  0
DIMENSION
  5
7C8B
  8
3
  2
*D21
 10
7905.0599854174943
 20
3857.5073936823392
 30
0.0
 11
7805.0599854174934
 21
4557.5073936823401
 31
0.0
 70
     0
 13
7536.4657588505979
 23
5257.5073936823392
 33
0.0
 14
7536.4657588505979
 24
3857.5073936823392
 34
0.0
 50
90.0
1001
ACAD
1000
DSTYLE
1002
{
1070
   287
1070
     3
1070
   287
1070
     3
1070
     3
1000
φ<>
1070
    40
1040
40.0
1070
   143
1040
0.039
1070
   172
1070
     1
1070
   271
1070
     0
1070
   279
1070
     0
1070
   288
1070
     1
1002
}
  0
LINE
  5
7EC5
  8
4
 10
7400.0
 20
2000.0
 30
0.0
 11
7400.0
 21
1200.0
 31
0.0
  0
LINE
  5
7EC6
  8
4
 10
4600.0
 20
2000.0
 30
0.0
 11
4600.0
 21
1200.0
 31
0.0
  0
LINE
  5
7EC7
  8
4
 10
2600.0
 20
2000.0
 30
0.0
 11
2600.0
 21
1200.0
 31
0.0
  0
LINE
  5
7ECA
  8
4
 10
2600.0
 20
1200.0
 30
0.0
 11
7400.0
 21
1200.0
 31
0.0
  0
LINE
  5
7ECB
  8
4
 10
2600.0
 20
1600.0
 30
0.0
 11
7400.0
 21
1600.0
 31
0.0
  0
TEXT
  5
7ECC
  8
4
 10
2754.0083233876071
 20
1726.1721034664511
 30
0.0
 40
200.0
  1
機器名称
  0
TEXT
  5
7ECD
  8
4
 10
2745.0324240991899
 20
1286.5806269280431
 30
0.0
 40
200.0
  1
機器型番
  0
TEXT
  5
7ECE
  8
4
 10
4710.7149819506594
 20
1690.287075830274
 30
0.0
 40
200.0
  1
ミツヤ多翼送風機
  0
TEXT
  5
7ECF
  8
4
 10
4746.6179823419234
 20
1268.638337119773
 30
0.0
 40
200.0
  1
MF#9-4
  0
TEXT
  5
7ED1
  8
4
 10
3260.073380874142
 20
9533.7153653300629
 30
0.0
 40
215.99999999999989
  1
床置防振ベット
  0
TEXT
  5
7ED2
  8
4
 10
1264.6703733177851
 20
10135.52390479719
 30
0.0
 40
288.0
  1
ベルト駆動式片吸込両持多翼ファン
  0
LINE
  5
7ED3
  8
4
 10
1000.0
 20
9877.6350170592195
 30
0.0
 11
7400.0
 21
9877.6350170592195
 31
0.0
  0
LINE
  5
7ED4
  8
4
 10
1000.0
 20
10677.63501705921
 30
0.0
 11
7400.0
 21
10677.63501705921
 31
0.0
  0
LINE
  5
7ED5
  8
4
 10
2600.0
 20
2000.0
 30
0.0
 11
7400.0
 21
2000.0
 31
0.0
  0
LINE
  5
7ED6
  8
4
 10
1000.0
 20
10677.63501705921
 30
0.0
 11
1000.0
 21
9877.6350170592195
 31
0.0
  0
TEXT
  5
7ED7
  8
4
 10
1516.638051903333
 20
9529.2779101853739
 30
0.0
 40
215.99999999999989
  1
右回転左横向
  0
TEXT
  5
7ED8
  8
4
 10
5875.8782369971586
 20
10824.24432598123
 30
0.0
 40
224.0
  1
No.
  0
TEXT
  5
7ED9
  8
4
 10
5245.1842504000524
 20
9533.7153653300629
 30
0.0
 40
215.99999999999989
  1
縮尺：1/40
  0
LINE
  5
7EDA
  8
4
 10
7400.0
 20
10677.63501705921
 30
0.0
 11
7400.0
 21
9877.6350170592195
 31
0.0
  0
LINE
  5
7EDB
  8
4
 10
8400.0
 20
11800.0
 30
0.0
 11
8400.0
 21
11800.0
 31
0.0
  0
LINE
  5
7EDC
  8
4
 10
5762.4696894394583
 20
10725.054332501601
 30
0.0
 11
5762.4696894394583
 21
11146.609046199001
 31
0.0
  0
LINE
  5
7EDD
  8
4
 10
5762.4696894394583
 20
11146.609046199001
 30
0.0
 11
7400.0
 21
11146.609046199001
 31
0.0
  0
LINE
  5
7EDE
  8
4
 10
7400.0
 20
11146.609046199001
 30
0.0
 11
7400.0
 21
10725.054332501601
 31
0.0
  0
LINE
  5
7EDF
  8
4
 10
7400.0
 20
10725.054332501601
 30
0.0
 11
5762.4696894394583
 21
10725.054332501601
 31
0.0
  0
LINE
  5
7EE0
  8
4
 10
0.0
 20
0.0
 30
0.0
 11
0.0
 21
11800.0
 31
0.0
  0
LINE
  5
7EE1
  8
4
 10
0.0
 20
11800.0
 30
0.0
 11
8400.0
 21
11800.0
 31
0.0
  0
LINE
  5
7EE2
  8
4
 10
8400.0
 20
11800.0
 30
0.0
 11
8400.0
 21
0.0
 31
0.0
  0
LINE
  5
7EE3
  8
4
 10
8400.0
 20
0.0
 30
0.0
 11
0.0
 21
0.0
 31
0.0
  0
DIMENSION
  5
81F5
  8
3
  2
*D23
 10
1157.8783684894979
 20
2852.5073936823392
 30
0.0
 11
835.02122563235548
 21
3007.4359651109112
 31
0.0
 70
     0
  1
(<>)
 13
2044.0651809131159
 23
2967.5073936823392
 33
0.0
 14
2044.0651809131159
 24
2852.5073936823392
 34
0.0
 50
270.0
1001
ACAD
1000
DSTYLE
1002
{
1070
   287
1070
     4
1070
   287
1070
     4
1070
     7
1000
NONE
1070
     6
1000
NONE
1070
    40
1040
40.0
1070
   143
1040
0.039
1070
   172
1070
     1
1070
   271
1070
     0
1070
   279
1070
     1
1070
   288
1070
     1
1002
}
  0
DIMENSION
  5
8207
  8
3
  2
*D24
 10
1157.8783684894979
 20
2777.5073936823392
 30
0.0
 11
1255.30856234012
 21
2483.7216003180511
 31
0.0
 70
   128
 13
2044.0651809131159
 23
2852.5073936823392
 33
0.0
 14
2044.0651809131159
 24
2777.5073936823392
 34
0.0
 50
270.0
1001
ACAD
1000
DSTYLE
1002
{
1070
   287
1070
     4
1070
   287
1070
     4
1070
     6
1000
DOTSMALL
1070
    40
1040
40.0
1070
   143
1040
0.039
1070
   172
1070
     1
1070
   271
1070
     0
1070
   279
1070
     1
1070
   288
1070
     1
1002
}
  0
ENDSEC
  0
EOF
