  0
SECTION
  2
HEADER
  9
$ACADVER
  1
AC1009
  9
$INSBASE
 10
0.0
 20
0.0
 30
0.0
  9
$EXTMIN
 10
0.0
 20
0.0
 30
0.0
  9
$EXTMAX
 10
8400.0
 20
11800.0
 30
0.0
  9
$LIMMIN
 10
0.0
 20
0.0
  9
$LIMMAX
 10
297.0
 20
210.0
  9
$ORTHOMODE
 70
     0
  9
$REGENMODE
 70
     1
  9
$FILLMODE
 70
     0
  9
$QTEXTMODE
 70
     0
  9
$MIRRTEXT
 70
     1
  9
$DRAGMODE
 70
     2
  9
$LTSCALE
 40
100.0
  9
$OSMODE
 70
   545
  9
$ATTMODE
 70
     1
  9
$TEXTSIZE
 40
180.0
  9
$TRACEWID
 40
0.05
  9
$TEXTSTYLE
  7
STANDARD
  9
$CLAYER
  8
3
  9
$CELTYPE
  6
BYLAYER
  9
$CECOLOR
 62
   256
  9
$DIMSCALE
 40
40.0
  9
$DIMASZ
 40
2.0
  9
$DIMEXO
 40
0.5
  9
$DIMDLI
 40
10.0
  9
$DIMRND
 40
0.0
  9
$DIMDLE
 40
0.0
  9
$DIMEXE
 40
1.0
  9
$DIMTP
 40
1.0
  9
$DIMTM
 40
1.0
  9
$DIMTXT
 40
3.0
  9
$DIMCEN
 40
0.0
  9
$DIMTSZ
 40
0.0
  9
$DIMTOL
 70
     0
  9
$DIMLIM
 70
     0
  9
$DIMTIH
 70
     0
  9
$DIMTOH
 70
     0
  9
$DIMSE1
 70
     0
  9
$DIMSE2
 70
     0
  9
$DIMTAD
 70
     1
  9
$DIMZIN
 70
     8
  9
$DIMBLK
  1

  9
$DIMASO
 70
     1
  9
$DIMSHO
 70
     1
  9
$DIMPOST
  1

  9
$DIMAPOST
  1

  9
$DIMALT
 70
     0
  9
$DIMALTD
 70
     2
  9
$DIMALTF
 40
0.039
  9
$DIMLFAC
 40
1.0
  9
$DIMTOFL
 70
     1
  9
$DIMTVP
 40
0.0
  9
$DIMTIX
 70
     0
  9
$DIMSOXD
 70
     0
  9
$DIMSAH
 70
     1
  9
$DIMBLK1
  1
OPEN
  9
$DIMBLK2
  1
OPEN
  9
$DIMSTYLE
  2
IGA
  9
$DIMCLRD
 70
     0
  9
$DIMCLRE
 70
     0
  9
$DIMCLRT
 70
     0
  9
$DIMTFAC
 40
10.0
  9
$DIMGAP
 40
1.0
  9
$LUNITS
 70
     2
  9
$LUPREC
 70
     3
  9
$SKETCHINC
 40
0.1
  9
$FILLETRAD
 40
50.0
  9
$AUNITS
 70
     0
  9
$AUPREC
 70
     0
  9
$MENU
  1
acad
  9
$ELEVATION
 40
0.0
  9
$PELEVATION
 40
0.0
  9
$THICKNESS
 40
0.0
  9
$LIMCHECK
 70
     0
  9
$BLIPMODE
 70
     0
  9
$CHAMFERA
 40
0.5
  9
$CHAMFERB
 40
0.5
  9
$SKPOLY
 70
     0
  9
$TDCREATE
 40
2451408.6593862269
  9
$TDUPDATE
 40
2455013.729267939
  9
$TDINDWG
 40
0.0114612963
  9
$TDUSRTIMER
 40
0.0114612963
  9
$USRTIMER
 70
     1
  9
$ANGBASE
 50
0.0
  9
$ANGDIR
 70
     0
  9
$PDMODE
 70
     0
  9
$PDSIZE
 40
0.0
  9
$PLINEWID
 40
0.0
  9
$COORDS
 70
     2
  9
$SPLFRAME
 70
     0
  9
$SPLINETYPE
 70
     6
  9
$SPLINESEGS
 70
     8
  9
$ATTDIA
 70
     0
  9
$ATTREQ
 70
     1
  9
$HANDLING
 70
 22529
  9
$HANDSEED
  5
81B4
  9
$SURFTAB1
 70
     6
  9
$SURFTAB2
 70
     6
  9
$SURFTYPE
 70
     6
  9
$SURFU
 70
     6
  9
$SURFV
 70
     6
  9
$UCSNAME
  2

  9
$UCSORG
 10
0.0
 20
0.0
 30
0.0
  9
$UCSXDIR
 10
1.0
 20
0.0
 30
0.0
  9
$UCSYDIR
 10
0.0
 20
1.0
 30
0.0
  9
$PUCSNAME
  2

  9
$PUCSORG
 10
0.0
 20
0.0
 30
0.0
  9
$PUCSXDIR
 10
1.0
 20
0.0
 30
0.0
  9
$PUCSYDIR
 10
0.0
 20
1.0
 30
0.0
  9
$USERI1
 70
     0
  9
$USERI2
 70
     0
  9
$USERI3
 70
     0
  9
$USERI4
 70
     0
  9
$USERI5
 70
     0
  9
$USERR1
 40
0.0
  9
$USERR2
 40
0.0
  9
$USERR3
 40
0.0
  9
$USERR4
 40
0.0
  9
$USERR5
 40
0.0
  9
$WORLDVIEW
 70
     1
  9
$SHADEDGE
 70
     3
  9
$SHADEDIF
 70
    70
  9
$TILEMODE
 70
     1
  9
$MAXACTVP
 70
    16
  9
$PLIMCHECK
 70
     0
  9
$PEXTMIN
 10
1.0000000000000000E+020
 20
1.0000000000000000E+020
 30
1.0000000000000000E+020
  9
$PEXTMAX
 10
-1.0000000000000000E+020
 20
-1.0000000000000000E+020
 30
-1.0000000000000000E+020
  9
$PLIMMIN
 10
0.0
 20
0.0
  9
$PLIMMAX
 10
12.0
 20
9.0
  9
$UNITMODE
 70
     0
  9
$VISRETAIN
 70
     0
  9
$PLINEGEN
 70
     0
  9
$PSLTSCALE
 70
     1
  0
ENDSEC
  0
SECTION
  2
TABLES
  0
TABLE
  2
VPORT
 70
     2
  0
VPORT
  2
*ACTIVE
 70
     0
 10
0.0
 20
0.0
 11
1.0
 21
1.0
 12
5015.3012937494541
 22
5900.0000274740123
 13
0.0
 23
0.0
 14
10.0
 24
10.0
 15
10.0
 25
10.0
 16
0.0
 26
0.0
 36
1.0
 17
0.0
 27
0.0
 37
0.0
 40
11890.45953206774
 41
1.6307901907356941
 42
50.0
 43
0.0
 44
0.0
 50
0.0
 51
0.0
 71
     0
 72
   100
 73
     1
 74
     0
 75
     0
 76
     0
 77
     0
 78
     0
  0
ENDTAB
  0
TABLE
  2
LTYPE
 70
     2
  0
LTYPE
  2
CONTINUOUS
 70
     0
  3
Solid line
 72
    65
 73
     0
 40
0.0
  0
LTYPE
  2
CENTER
 70
     0
  3
____ _ ____ _ ____ _ ____ _ ____ _ ____ _ ____ 
 72
    65
 73
     4
 40
2.0
 49
1.25
 49
-0.25
 49
0.25
 49
-0.25
  0
ENDTAB
  0
TABLE
  2
LAYER
 70
     6
  0
LAYER
  2
0
 70
     0
 62
     7
  6
CONTINUOUS
  0
LAYER
  2
3
 70
     0
 62
     2
  6
CONTINUOUS
  0
LAYER
  2
2
 70
     0
 62
     3
  6
CENTER
  0
LAYER
  2
1
 70
     0
 62
     4
  6
CONTINUOUS
  0
LAYER
  2
4
 70
     0
 62
     7
  6
CONTINUOUS
  0
LAYER
  2
DEFPOINTS
 70
     0
 62
     7
  6
CONTINUOUS
  0
ENDTAB
  0
TABLE
  2
STYLE
 70
     1
  0
STYLE
  2
STANDARD
 70
     0
 40
0.0
 41
1.0
 50
0.0
 71
     0
 42
180.0
  3
simplex.shx
  4
extfont.shx
  0
ENDTAB
  0
TABLE
  2
VIEW
 70
     0
  0
ENDTAB
  0
TABLE
  2
UCS
 70
     0
  0
ENDTAB
  0
TABLE
  2
APPID
 70
     1
  0
APPID
  2
ACAD
 70
     0
  0
ENDTAB
  0
TABLE
  2
DIMSTYLE
 70
     1
  0
DIMSTYLE
  2
IGA
 70
     0
  3

  4

  5

  6
OPEN
  7
OPEN
 40
2.0
 41
2.0
 42
0.5
 43
10.0
 44
1.0
 45
0.0
 46
0.0
 47
1.0
 48
1.0
140
3.0
141
0.0
142
0.0
143
0.03937
144
1.0
145
0.0
146
10.0
147
1.0
 71
     0
 72
     0
 73
     0
 74
     0
 75
     0
 76
     0
 77
     1
 78
     8
170
     0
171
     2
172
     0
173
     1
174
     0
175
     0
176
     0
177
     0
178
     0
  0
ENDTAB
  0
ENDSEC
  0
SECTION
  2
BLOCKS
  0
BLOCK
  8
0
  2
$MODEL_SPACE
 70
     0
 10
0.0
 20
0.0
 30
0.0
  3
$MODEL_SPACE
  1

  0
ENDBLK
  5
1B
  8
0
  0
BLOCK
 67
     1
  8
0
  2
$PAPER_SPACE
 70
     0
 10
0.0
 20
0.0
 30
0.0
  3
$PAPER_SPACE
  1

  0
ENDBLK
  5
18
 67
     1
  8
0
  0
BLOCK
  8
0
  2
_OPEN
 70
     0
 10
0.0
 20
0.0
 30
0.0
  3
_OPEN
  1

  0
LINE
  5
79FD
  8
0
  6
BYBLOCK
 62
     0
 10
-1.0
 20
0.1666666666666666
 30
0.0
 11
0.0
 21
0.0
 31
0.0
  0
LINE
  5
79FE
  8
0
  6
BYBLOCK
 62
     0
 10
0.0
 20
0.0
 30
0.0
 11
-1.0
 21
-0.1666666666666666
 31
0.0
  0
LINE
  5
79FF
  8
0
  6
BYBLOCK
 62
     0
 10
0.0
 20
0.0
 30
0.0
 11
-1.0
 21
0.0
 31
0.0
  0
ENDBLK
  5
7A01
  8
0
  0
BLOCK
  8
0
  2
YA_N
 70
     0
 10
0.0
 20
0.0
 30
0.0
  3
YA_N
  1

  0
ENDBLK
  5
7A0C
  8
0
  0
BLOCK
  8
0
  2
*D2
 70
     1
 10
0.0
 20
0.0
 30
0.0
  3
*D2
  1

  0
LINE
  5
80E8
  8
3
 62
     0
 10
1480.249113847439
 20
5640.7542924437548
 30
0.0
 11
1192.602968333769
 21
5640.7542924437548
 31
0.0
  0
LINE
  5
80E9
  8
3
 62
     0
 10
1480.249113847439
 20
4190.7542924437548
 30
0.0
 11
1192.602968333769
 21
4190.7542924437548
 31
0.0
  0
LINE
  5
80EA
  8
3
 62
     0
 10
1232.602968333769
 20
5560.7542924437548
 30
0.0
 11
1232.602968333769
 21
4270.7542924437539
 31
0.0
  0
INSERT
  5
80EB
  8
3
 62
     0
  2
_OPEN
 10
1232.602968333769
 20
5640.7542924437548
 30
0.0
 41
80.0
 42
80.0
 43
80.0
 50
90.0
  0
INSERT
  5
80EC
  8
3
 62
     0
  2
_OPEN
 10
1232.602968333769
 20
4190.7542924437548
 30
0.0
 41
80.0
 42
80.0
 43
80.0
 50
270.0
  0
TEXT
  8
3
  40
120
  5
819F
  62
0
  72
0
  71
0
 10
892.603
 20
4703.35
 30
0.000000
  1
1450
  0
POINT
  5
80EE
  8
DEFPOINTS
 62
     0
 10
1500.249113847439
 20
5640.7542924437548
 30
0.0
  0
POINT
  5
80EF
  8
DEFPOINTS
 62
     0
 10
1500.249113847439
 20
4190.7542924437548
 30
0.0
  0
POINT
  5
80F0
  8
DEFPOINTS
 62
     0
 10
1232.602968333769
 20
4190.7542924437548
 30
0.0
  0
ENDBLK
  5
7FA9
  8
0
  0
BLOCK
  8
0
  2
*D3
 70
     1
 10
0.0
 20
0.0
 30
0.0
  3
*D3
  1

  0
LINE
  5
80F1
  8
3
 62
     0
 10
1480.249113847439
 20
5640.7542924437548
 30
0.0
 11
942.25040462524385
 21
5640.7542924437548
 31
0.0
  0
LINE
  5
80F2
  8
3
 62
     0
 10
1392.254355996356
 20
4149.7542924437548
 30
0.0
 11
942.25040462524339
 21
4149.7542924437548
 31
0.0
  0
LINE
  5
80F3
  8
3
 62
     0
 10
982.25040462524362
 20
5560.7542924437548
 30
0.0
 11
982.25040462524328
 21
4229.7542924437548
 31
0.0
  0
INSERT
  5
80F4
  8
3
 62
     0
  2
_OPEN
 10
982.25040462524362
 20
5640.7542924437548
 30
0.0
 41
80.0
 42
80.0
 43
80.0
 50
90.0
  0
INSERT
  5
80F5
  8
3
 62
     0
  2
_OPEN
 10
982.25040462524328
 20
4149.7542924437548
 30
0.0
 41
80.0
 42
80.0
 43
80.0
 50
270.0
  0
TEXT
  8
3
  40
120
  5
81A0
  62
0
  72
0
  71
0
 10
642.250
 20
4682.85
 30
0.000000
  1
1491
  0
POINT
  5
80F7
  8
DEFPOINTS
 62
     0
 10
1500.249113847439
 20
5640.7542924437548
 30
0.0
  0
POINT
  5
80F8
  8
DEFPOINTS
 62
     0
 10
1412.254355996356
 20
4149.7542924437548
 30
0.0
  0
POINT
  5
80F9
  8
DEFPOINTS
 62
     0
 10
982.25040462524328
 20
4149.7542924437548
 30
0.0
  0
ENDBLK
  5
7F9E
  8
0
  0
BLOCK
  8
0
  2
*D4
 70
     1
 10
0.0
 20
0.0
 30
0.0
  3
*D4
  1

  0
LINE
  5
80FA
  8
3
 62
     0
 10
1580.249113847439
 20
8664.7265031985953
 30
0.0
 11
1580.249113847439
 21
9054.7730585573718
 31
0.0
  0
LINE
  5
80FB
  8
3
 62
     0
 10
3280.2491138474388
 20
8664.7265031985953
 30
0.0
 11
3280.2491138474388
 21
9054.7730585573718
 31
0.0
  0
LINE
  5
80FC
  8
3
 62
     0
 10
1660.24911384744
 20
9014.7730585573699
 30
0.0
 11
3200.2491138474388
 21
9014.7730585573699
 31
0.0
  0
INSERT
  5
80FD
  8
3
 62
     0
  2
_OPEN
 10
1580.249113847439
 20
9014.7730585573699
 30
0.0
 41
80.0
 42
80.0
 43
80.0
 50
180.0
  0
INSERT
  5
80FE
  8
3
 62
     0
  2
_OPEN
 10
3280.2491138474388
 20
9014.7730585573699
 30
0.0
 41
80.0
 42
80.0
 43
80.0
  0
TEXT
  8
3
  40
120
  5
81A1
  62
0
  72
0
  71
0
 10
2190.25
 20
8902.37
 30
0.000000
  1
1700
  0
POINT
  5
8100
  8
DEFPOINTS
 62
     0
 10
1580.249113847439
 20
8644.7265031985953
 30
0.0
  0
POINT
  5
8101
  8
DEFPOINTS
 62
     0
 10
3280.2491138474388
 20
8644.7265031985953
 30
0.0
  0
POINT
  5
8102
  8
DEFPOINTS
 62
     0
 10
3280.2491138474388
 20
9014.7730585573699
 30
0.0
  0
ENDBLK
  5
7F51
  8
0
  0
BLOCK
  8
0
  2
*D5
 70
     1
 10
0.0
 20
0.0
 30
0.0
  3
*D5
  1

  0
LINE
  5
8103
  8
3
 62
     0
 10
3280.2491138474388
 20
8664.7265031985953
 30
0.0
 11
3280.2491138474388
 21
9054.7730585573718
 31
0.0
  0
LINE
  5
8104
  8
3
 62
     0
 10
4330.2491138474397
 20
8364.7265031985935
 30
0.0
 11
4330.2491138474397
 21
9054.7730585573718
 31
0.0
  0
LINE
  5
8105
  8
3
 62
     0
 10
3360.2491138474388
 20
9014.7730585573699
 30
0.0
 11
4250.2491138474397
 21
9014.7730585573699
 31
0.0
  0
INSERT
  5
8106
  8
3
 62
     0
  2
_OPEN
 10
3280.2491138474388
 20
9014.7730585573699
 30
0.0
 41
80.0
 42
80.0
 43
80.0
 50
180.0
  0
INSERT
  5
8107
  8
3
 62
     0
  2
_OPEN
 10
4330.2491138474397
 20
9014.7730585573699
 30
0.0
 41
80.0
 42
80.0
 43
80.0
  0
TEXT
  8
3
  40
120
  5
81A2
  62
0
  72
0
  71
0
 10
3565.25
 20
8902.37
 30
0.000000
  1
1050
  0
POINT
  5
8109
  8
DEFPOINTS
 62
     0
 10
3280.2491138474388
 20
8644.7265031985953
 30
0.0
  0
POINT
  5
810A
  8
DEFPOINTS
 62
     0
 10
4330.2491138474397
 20
8344.7265031985953
 30
0.0
  0
POINT
  5
810B
  8
DEFPOINTS
 62
     0
 10
4330.2491138474397
 20
9014.7730585573699
 30
0.0
  0
ENDBLK
  5
7F46
  8
0
  0
BLOCK
  8
0
  2
*D6
 70
     1
 10
0.0
 20
0.0
 30
0.0
  3
*D6
  1

  0
LINE
  5
810C
  8
3
 62
     0
 10
4350.2491138474388
 20
8344.7265031985953
 30
0.0
 11
4678.4259535384854
 21
8344.7265031985953
 31
0.0
  0
LINE
  5
810D
  8
3
 62
     0
 10
4350.2491138474388
 20
7244.7265031985953
 30
0.0
 11
4678.4259535384854
 21
7244.7265031985953
 31
0.0
  0
LINE
  5
810E
  8
3
 62
     0
 10
4638.4259535384836
 20
8264.7265031985953
 30
0.0
 11
4638.4259535384836
 21
7324.7265031985962
 31
0.0
  0
INSERT
  5
810F
  8
3
 62
     0
  2
_OPEN
 10
4638.4259535384836
 20
8344.7265031985953
 30
0.0
 41
80.0
 42
80.0
 43
80.0
 50
90.0
  0
INSERT
  5
8110
  8
3
 62
     0
  2
_OPEN
 10
4638.4259535384836
 20
7244.7265031985953
 30
0.0
 41
80.0
 42
80.0
 43
80.0
 50
270.0
  0
TEXT
  8
3
  40
120
  5
81A3
  62
0
  72
0
  71
0
 10
4298.43
 20
7582.33
 30
0.000000
  1
1100
  0
POINT
  5
8112
  8
DEFPOINTS
 62
     0
 10
4330.2491138474397
 20
8344.7265031985953
 30
0.0
  0
POINT
  5
8113
  8
DEFPOINTS
 62
     0
 10
4330.2491138474397
 20
7244.7265031985953
 30
0.0
  0
POINT
  5
8114
  8
DEFPOINTS
 62
     0
 10
4638.4259535384836
 20
7244.7265031985953
 30
0.0
  0
ENDBLK
  5
7F3B
  8
0
  0
BLOCK
  8
0
  2
*D7
 70
     1
 10
0.0
 20
0.0
 30
0.0
  3
*D7
  1

  0
LINE
  5
8115
  8
3
 62
     0
 10
1560.249113847439
 20
8644.7265031985953
 30
0.0
 11
1113.987153591537
 21
8644.7265031985953
 31
0.0
  0
LINE
  5
8116
  8
3
 62
     0
 10
1560.249113847439
 20
7244.7265031985953
 30
0.0
 11
1113.987153591537
 21
7244.7265031985953
 31
0.0
  0
LINE
  5
8117
  8
3
 62
     0
 10
1153.987153591537
 20
8564.7265031985953
 30
0.0
 11
1153.987153591537
 21
7324.7265031985962
 31
0.0
  0
INSERT
  5
8118
  8
3
 62
     0
  2
_OPEN
 10
1153.987153591537
 20
8644.7265031985953
 30
0.0
 41
80.0
 42
80.0
 43
80.0
 50
90.0
  0
INSERT
  5
8119
  8
3
 62
     0
  2
_OPEN
 10
1153.987153591537
 20
7244.7265031985953
 30
0.0
 41
80.0
 42
80.0
 43
80.0
 50
270.0
  0
TEXT
  8
3
  40
120
  5
81A4
  62
0
  72
0
  71
0
 10
813.987
 20
7732.33
 30
0.000000
  1
1400
  0
POINT
  5
811B
  8
DEFPOINTS
 62
     0
 10
1580.249113847439
 20
8644.7265031985953
 30
0.0
  0
POINT
  5
811C
  8
DEFPOINTS
 62
     0
 10
1580.249113847439
 20
7244.7265031985953
 30
0.0
  0
POINT
  5
811D
  8
DEFPOINTS
 62
     0
 10
1153.987153591537
 20
7244.7265031985953
 30
0.0
  0
ENDBLK
  5
7F30
  8
0
  0
BLOCK
  8
0
  2
*D8
 70
     1
 10
0.0
 20
0.0
 30
0.0
  3
*D8
  1

  0
LINE
  5
811E
  8
3
 62
     0
 10
1580.249113847439
 20
7224.7265031985962
 30
0.0
 11
1580.249113847439
 21
6628.5030492389742
 31
0.0
  0
LINE
  5
811F
  8
3
 62
     0
 10
4330.2491138474397
 20
7224.7265031985962
 30
0.0
 11
4330.2491138474397
 21
6628.5030492389742
 31
0.0
  0
LINE
  5
8120
  8
3
 62
     0
 10
1660.24911384744
 20
6668.5030492389742
 30
0.0
 11
4250.2491138474397
 21
6668.5030492389742
 31
0.0
  0
INSERT
  5
8121
  8
3
 62
     0
  2
_OPEN
 10
1580.249113847439
 20
6668.5030492389742
 30
0.0
 41
80.0
 42
80.0
 43
80.0
 50
180.0
  0
INSERT
  5
8122
  8
3
 62
     0
  2
_OPEN
 10
4330.2491138474397
 20
6668.5030492389742
 30
0.0
 41
80.0
 42
80.0
 43
80.0
  0
TEXT
  8
3
  40
120
  5
81A5
  62
0
  72
0
  71
0
 10
2715.25
 20
6556.10
 30
0.000000
  1
2750
  0
POINT
  5
8124
  8
DEFPOINTS
 62
     0
 10
1580.249113847439
 20
7244.7265031985953
 30
0.0
  0
POINT
  5
8125
  8
DEFPOINTS
 62
     0
 10
4330.2491138474397
 20
7244.7265031985953
 30
0.0
  0
POINT
  5
8126
  8
DEFPOINTS
 62
     0
 10
4330.2491138474397
 20
6668.5030492389742
 30
0.0
  0
ENDBLK
  5
7F25
  8
0
  0
BLOCK
  8
0
  2
*D9
 70
     1
 10
0.0
 20
0.0
 30
0.0
  3
*D9
  1

  0
LINE
  5
8127
  8
3
 62
     0
 10
6084.4772353086337
 20
5660.7542924437548
 30
0.0
 11
6084.4772353086337
 21
5904.3799163372132
 31
0.0
  0
LINE
  5
8128
  8
3
 62
     0
 10
7144.4772353086337
 20
5660.7542924437548
 30
0.0
 11
7144.4772353086337
 21
5904.3799163372132
 31
0.0
  0
LINE
  5
8129
  8
3
 62
     0
 10
6164.4772353086337
 20
5864.3799163372132
 30
0.0
 11
7064.4772353086337
 21
5864.3799163372132
 31
0.0
  0
INSERT
  5
812A
  8
3
 62
     0
  2
_OPEN
 10
6084.4772353086337
 20
5864.3799163372132
 30
0.0
 41
80.0
 42
80.0
 43
80.0
 50
180.0
  0
INSERT
  5
812B
  8
3
 62
     0
  2
_OPEN
 10
7144.4772353086337
 20
5864.3799163372132
 30
0.0
 41
80.0
 42
80.0
 43
80.0
  0
TEXT
  8
3
  40
120
  5
81A6
  62
0
  72
0
  71
0
 10
6374.48
 20
5751.98
 30
0.000000
  1
1060
  0
POINT
  5
812D
  8
DEFPOINTS
 62
     0
 10
6084.4772353086337
 20
5640.7542924437548
 30
0.0
  0
POINT
  5
812E
  8
DEFPOINTS
 62
     0
 10
7144.4772353086337
 20
5640.7542924437548
 30
0.0
  0
POINT
  5
812F
  8
DEFPOINTS
 62
     0
 10
7144.4772353086337
 20
5864.3799163372132
 30
0.0
  0
ENDBLK
  5
7F1A
  8
0
  0
BLOCK
  8
0
  2
*D10
 70
     1
 10
0.0
 20
0.0
 30
0.0
  3
*D10
  1

  0
LINE
  5
8130
  8
3
 62
     0
 10
7248.4772353086337
 20
4919.7542924437548
 30
0.0
 11
7248.4772353086337
 21
6241.2819698002158
 31
0.0
  0
LINE
  5
8131
  8
3
 62
     0
 10
6614.4772353086328
 20
6106.039333477227
 30
0.0
 11
6614.4772353086328
 21
6241.2819698002158
 31
0.0
  0
LINE
  5
8132
  8
3
 62
     0
 10
7168.4772353086346
 20
6201.2819698002158
 30
0.0
 11
6694.4772353086328
 21
6201.2819698002158
 31
0.0
  0
INSERT
  5
8133
  8
3
 62
     0
  2
_OPEN
 10
7248.4772353086337
 20
6201.2819698002158
 30
0.0
 41
80.0
 42
80.0
 43
80.0
  0
INSERT
  5
8134
  8
3
 62
     0
  2
_OPEN
 10
6614.4772353086328
 20
6201.2819698002158
 30
0.0
 41
80.0
 42
80.0
 43
80.0
 50
180.0
  0
TEXT
  8
3
  40
120
  5
81A7
  62
0
  72
0
  71
0
 10
6731.33
 20
6088.88
 30
0.000000
  1
634
  0
POINT
  5
8136
  8
DEFPOINTS
 62
     0
 10
7248.4772353086337
 20
4899.7542924437548
 30
0.0
  0
POINT
  5
8137
  8
DEFPOINTS
 62
     0
 10
6614.4772353086328
 20
6086.0393334772261
 30
0.0
  0
POINT
  5
8138
  8
DEFPOINTS
 62
     0
 10
6614.4772353086328
 20
6201.2819698002158
 30
0.0
  0
ENDBLK
  5
7FB4
  8
0
  0
BLOCK
  8
0
  2
*D11
 70
     1
 10
0.0
 20
0.0
 30
0.0
  3
*D11
  1

  0
LINE
  5
8139
  8
3
 62
     0
 10
6614.4772353086328
 20
6106.039333477227
 30
0.0
 11
6614.4772353086328
 21
6241.2819698002158
 31
0.0
  0
LINE
  5
813A
  8
3
 62
     0
 10
5664.777235308633
 20
4719.7542924437548
 30
0.0
 11
5664.777235308633
 21
6241.2819698002158
 31
0.0
  0
LINE
  5
813B
  8
3
 62
     0
 10
6534.4772353086337
 20
6201.2819698002158
 30
0.0
 11
5744.777235308633
 21
6201.2819698002158
 31
0.0
  0
INSERT
  5
813C
  8
3
 62
     0
  2
_OPEN
 10
6614.4772353086328
 20
6201.2819698002158
 30
0.0
 41
80.0
 42
80.0
 43
80.0
  0
INSERT
  5
813D
  8
3
 62
     0
  2
_OPEN
 10
5664.777235308633
 20
6201.2819698002158
 30
0.0
 41
80.0
 42
80.0
 43
80.0
 50
180.0
  0
TEXT
  8
3
  40
120
  5
81A8
  62
0
  72
0
  71
0
 10
5899.63
 20
6188.88
 30
0.000000
  1
MAX
  0
TEXT
  8
3
  40
120
  5
81A9
  62
0
  72
0
  71
0
 10
5899.63
 20
6032.88
 30
0.000000
  1
1030
  0
POINT
  5
813F
  8
DEFPOINTS
 62
     0
 10
6614.4772353086328
 20
6086.0393334772261
 30
0.0
  0
POINT
  5
8140
  8
DEFPOINTS
 62
     0
 10
5664.777235308633
 20
4699.7542924437539
 30
0.0
  0
POINT
  5
8141
  8
DEFPOINTS
 62
     0
 10
5664.777235308633
 20
6201.2819698002158
 30
0.0
  0
ENDBLK
  5
8076
  8
0
  0
BLOCK
  8
0
  2
*D12
 70
     1
 10
0.0
 20
0.0
 30
0.0
  3
*D12
  1

  0
LINE
  5
8142
  8
3
 62
     0
 10
1392.254355996356
 20
4149.7542924437548
 30
0.0
 11
942.38543507528152
 21
4149.7542924437548
 31
0.0
  0
LINE
  5
8143
  8
3
 62
     0
 10
1560.249113847439
 20
3109.7542924437548
 30
0.0
 11
942.38543507528129
 21
3109.7542924437548
 31
0.0
  0
LINE
  5
8144
  8
3
 62
     0
 10
982.38543507528152
 20
4069.7542924437548
 30
0.0
 11
982.38543507528118
 21
3189.7542924437548
 31
0.0
  0
INSERT
  5
8145
  8
3
 62
     0
  2
_OPEN
 10
982.38543507528152
 20
4149.7542924437548
 30
0.0
 41
80.0
 42
80.0
 43
80.0
 50
90.0
  0
INSERT
  5
8146
  8
3
 62
     0
  2
_OPEN
 10
982.38543507528118
 20
3109.7542924437548
 30
0.0
 41
80.0
 42
80.0
 43
80.0
 50
270.0
  0
TEXT
  8
3
  40
120
  5
81AA
  62
0
  72
0
  71
0
 10
642.385
 20
3512.97
 30
0.000000
  1
1040
  0
POINT
  5
8148
  8
DEFPOINTS
 62
     0
 10
1412.254355996356
 20
4149.7542924437548
 30
0.0
  0
POINT
  5
8149
  8
DEFPOINTS
 62
     0
 10
1580.249113847439
 20
3109.7542924437548
 30
0.0
  0
POINT
  5
814A
  8
DEFPOINTS
 62
     0
 10
982.38543507528118
 20
3109.7542924437548
 30
0.0
  0
ENDBLK
  5
804D
  8
0
  0
BLOCK
  8
0
  2
*D13
 70
     1
 10
0.0
 20
0.0
 30
0.0
  3
*D13
  1

  0
LINE
  5
814B
  8
3
 62
     0
 10
1500.249113847439
 20
5714.7542924437548
 30
0.0
 11
1500.249113847439
 21
5998.283094290342
 31
0.0
  0
LINE
  5
814C
  8
3
 62
     0
 10
2430.2491138474388
 20
5802.6321232158807
 30
0.0
 11
2430.2491138474388
 21
5998.283094290342
 31
0.0
  0
LINE
  5
814D
  8
3
 62
     0
 10
1580.249113847439
 20
5958.283094290342
 30
0.0
 11
2350.2491138474388
 21
5958.283094290342
 31
0.0
  0
INSERT
  5
814E
  8
3
 62
     0
  2
_OPEN
 10
1500.249113847439
 20
5958.283094290342
 30
0.0
 41
80.0
 42
80.0
 43
80.0
 50
180.0
  0
INSERT
  5
814F
  8
3
 62
     0
  2
_OPEN
 10
2430.2491138474388
 20
5958.283094290342
 30
0.0
 41
80.0
 42
80.0
 43
80.0
  0
TEXT
  8
3
  40
120
  5
81AB
  62
0
  72
0
  71
0
 10
1725.25
 20
5845.88
 30
0.000000
  1
930
  0
POINT
  5
8151
  8
DEFPOINTS
 62
     0
 10
1500.249113847439
 20
5694.7542924437548
 30
0.0
  0
POINT
  5
8152
  8
DEFPOINTS
 62
     0
 10
2430.2491138474388
 20
5782.6321232158807
 30
0.0
  0
POINT
  5
8153
  8
DEFPOINTS
 62
     0
 10
2430.2491138474388
 20
5958.283094290342
 30
0.0
  0
ENDBLK
  5
7ED4
  8
0
  0
BLOCK
  8
0
  2
*D14
 70
     1
 10
0.0
 20
0.0
 30
0.0
  3
*D14
  1

  0
LINE
  5
8154
  8
3
 62
     0
 10
2430.2491138474388
 20
5802.6321232158807
 30
0.0
 11
2430.2491138474388
 21
5998.283094290342
 31
0.0
  0
LINE
  5
8155
  8
3
 62
     0
 10
3637.2491138474388
 20
4271.7542924437548
 30
0.0
 11
3637.2491138474388
 21
5998.283094290342
 31
0.0
  0
LINE
  5
8156
  8
3
 62
     0
 10
2510.2491138474388
 20
5958.283094290342
 30
0.0
 11
3557.2491138474402
 21
5958.283094290342
 31
0.0
  0
INSERT
  5
8157
  8
3
 62
     0
  2
_OPEN
 10
2430.2491138474388
 20
5958.283094290342
 30
0.0
 41
80.0
 42
80.0
 43
80.0
 50
180.0
  0
INSERT
  5
8158
  8
3
 62
     0
  2
_OPEN
 10
3637.2491138474388
 20
5958.283094290342
 30
0.0
 41
80.0
 42
80.0
 43
80.0
  0
TEXT
  8
3
  40
120
  5
81AC
  62
0
  72
0
  71
0
 10
2793.75
 20
5845.88
 30
0.000000
  1
1207
  0
POINT
  5
815A
  8
DEFPOINTS
 62
     0
 10
2430.2491138474388
 20
5782.6321232158807
 30
0.0
  0
POINT
  5
815B
  8
DEFPOINTS
 62
     0
 10
3637.2491138474388
 20
4251.7542924437548
 30
0.0
  0
POINT
  5
815C
  8
DEFPOINTS
 62
     0
 10
3637.2491138474388
 20
5958.283094290342
 30
0.0
  0
ENDBLK
  5
7EC9
  8
0
  0
BLOCK
  8
0
  2
*D15
 70
     1
 10
0.0
 20
0.0
 30
0.0
  3
*D15
  1

  0
LINE
  5
815D
  8
3
 62
     0
 10
1500.249113847439
 20
5660.7542924437548
 30
0.0
 11
1500.249113847439
 21
6279.3246526290204
 31
0.0
  0
LINE
  5
815E
  8
3
 62
     0
 10
4330.2491138474397
 20
3279.7542924437548
 30
0.0
 11
4330.2491138474397
 21
6279.3246526290204
 31
0.0
  0
LINE
  5
815F
  8
3
 62
     0
 10
1580.249113847439
 20
6239.3246526290204
 30
0.0
 11
4250.2491138474397
 21
6239.3246526290204
 31
0.0
  0
INSERT
  5
8160
  8
3
 62
     0
  2
_OPEN
 10
1500.249113847439
 20
6239.3246526290204
 30
0.0
 41
80.0
 42
80.0
 43
80.0
 50
180.0
  0
INSERT
  5
8161
  8
3
 62
     0
  2
_OPEN
 10
4330.2491138474397
 20
6239.3246526290204
 30
0.0
 41
80.0
 42
80.0
 43
80.0
  0
TEXT
  8
3
  40
120
  5
81AD
  62
0
  72
0
  71
0
 10
2675.25
 20
6126.92
 30
0.000000
  1
2830
  0
POINT
  5
8163
  8
DEFPOINTS
 62
     0
 10
1500.249113847439
 20
5640.7542924437548
 30
0.0
  0
POINT
  5
8164
  8
DEFPOINTS
 62
     0
 10
4330.2491138474397
 20
3259.7542924437548
 30
0.0
  0
POINT
  5
8165
  8
DEFPOINTS
 62
     0
 10
4330.2491138474397
 20
6239.3246526290204
 30
0.0
  0
ENDBLK
  5
7EBE
  8
0
  0
BLOCK
  8
0
  2
*D16
 70
     1
 10
0.0
 20
0.0
 30
0.0
  3
*D16
  1

  0
LINE
  5
8166
  8
3
 62
     0
 10
7268.4772353086337
 20
4849.7542924437548
 30
0.0
 11
7663.6989578745934
 21
4849.7542924437548
 31
0.0
  0
LINE
  5
8167
  8
3
 62
     0
 10
7268.4772353086337
 20
3449.7542924437539
 30
0.0
 11
7663.6989578745934
 21
3449.7542924437539
 31
0.0
  0
LINE
  5
8168
  8
3
 62
     0
 10
7623.6989578745925
 20
4769.7542924437548
 30
0.0
 11
7623.6989578745925
 21
3529.7542924437548
 31
0.0
  0
INSERT
  5
8169
  8
3
 62
     0
  2
_OPEN
 10
7623.6989578745925
 20
4849.7542924437548
 30
0.0
 41
80.0
 42
80.0
 43
80.0
 50
90.0
  0
INSERT
  5
816A
  8
3
 62
     0
  2
_OPEN
 10
7623.6989578745925
 20
3449.7542924437539
 30
0.0
 41
80.0
 42
80.0
 43
80.0
 50
270.0
  0
TEXT
  8
3
  40
120
  5
81AE
  62
0
  72
0
  71
0
 10
7283.70
 20
3937.35
 30
0.000000
  1
φ1400
  0
POINT
  5
816C
  8
DEFPOINTS
 62
     0
 10
7248.4772353086337
 20
4849.7542924437548
 30
0.0
  0
POINT
  5
816D
  8
DEFPOINTS
 62
     0
 10
7248.4772353086337
 20
3449.7542924437539
 30
0.0
  0
POINT
  5
816E
  8
DEFPOINTS
 62
     0
 10
7623.6989578745925
 20
3449.7542924437539
 30
0.0
  0
ENDBLK
  5
7FCA
  8
0
  0
BLOCK
  8
0
  2
_DOT
 70
     0
 10
0.0
 20
0.0
 30
0.0
  3
_DOT
  1

  0
POLYLINE
  5
8036
  8
0
  6
BYBLOCK
 62
     0
 66
     1
 10
0.0
 20
0.0
 30
0.0
 70
     1
 40
0.25
 41
0.25
  0
VERTEX
  5
816F
  8
0
  6
BYBLOCK
 62
     0
 10
-0.125
 20
0.0
 30
0.0
 42
1.0
  0
VERTEX
  5
8170
  8
0
  6
BYBLOCK
 62
     0
 10
0.125
 20
0.0
 30
0.0
 42
1.0
  0
SEQEND
  5
8171
  8
0
  6
BYBLOCK
 62
     0
  0
LINE
  5
803A
  8
0
  6
BYBLOCK
 62
     0
 10
-0.25
 20
0.0
 30
0.0
 11
-1.0
 21
0.0
 31
0.0
  0
ENDBLK
  5
8018
  8
0
  0
BLOCK
  8
0
  2
*D18
 70
     1
 10
0.0
 20
0.0
 30
0.0
  3
*D18
  1

  0
LINE
  5
8172
  8
3
 62
     0
 10
1580.249113847439
 20
3089.7542924437548
 30
0.0
 11
1580.249113847439
 21
2779.4112160889381
 31
0.0
  0
LINE
  5
8173
  8
3
 62
     0
 10
2430.2491138474388
 20
3089.7542924437548
 30
0.0
 11
2430.2491138474388
 21
2779.4112160889381
 31
0.0
  0
LINE
  5
8174
  8
3
 62
     0
 10
1660.24911384744
 20
2819.4112160889381
 30
0.0
 11
2350.2491138474388
 21
2819.4112160889381
 31
0.0
  0
INSERT
  5
8175
  8
3
 62
     0
  2
_OPEN
 10
1580.249113847439
 20
2819.4112160889381
 30
0.0
 41
80.0
 42
80.0
 43
80.0
 50
180.0
  0
INSERT
  5
8176
  8
3
 62
     0
  2
_OPEN
 10
2430.2491138474388
 20
2819.4112160889381
 30
0.0
 41
80.0
 42
80.0
 43
80.0
  0
TEXT
  8
3
  40
120
  5
81AF
  62
0
  72
0
  71
0
 10
1765.25
 20
2707.01
 30
0.000000
  1
850
  0
POINT
  5
8178
  8
DEFPOINTS
 62
     0
 10
1580.249113847439
 20
3109.7542924437548
 30
0.0
  0
POINT
  5
8179
  8
DEFPOINTS
 62
     0
 10
2430.2491138474388
 20
3109.7542924437548
 30
0.0
  0
POINT
  5
817A
  8
DEFPOINTS
 62
     0
 10
2430.2491138474388
 20
2819.4112160889381
 30
0.0
  0
ENDBLK
  5
8092
  8
0
  0
BLOCK
  8
0
  2
*D19
 70
     1
 10
0.0
 20
0.0
 30
0.0
  3
*D19
  1

  0
LINE
  5
817B
  8
3
 62
     0
 10
2430.2491138474388
 20
3089.7542924437548
 30
0.0
 11
2430.2491138474388
 21
2779.4112160889381
 31
0.0
  0
LINE
  5
817C
  8
3
 62
     0
 10
4330.2491138474397
 20
3089.7542924437548
 30
0.0
 11
4330.2491138474397
 21
2779.4112160889381
 31
0.0
  0
LINE
  5
817D
  8
3
 62
     0
 10
2510.2491138474388
 20
2819.4112160889381
 30
0.0
 11
4250.2491138474397
 21
2819.4112160889381
 31
0.0
  0
INSERT
  5
817E
  8
3
 62
     0
  2
_OPEN
 10
2430.2491138474388
 20
2819.4112160889381
 30
0.0
 41
80.0
 42
80.0
 43
80.0
 50
180.0
  0
INSERT
  5
817F
  8
3
 62
     0
  2
_OPEN
 10
4330.2491138474397
 20
2819.4112160889381
 30
0.0
 41
80.0
 42
80.0
 43
80.0
  0
TEXT
  8
3
  40
120
  5
81B0
  62
0
  72
0
  71
0
 10
3140.25
 20
2707.01
 30
0.000000
  1
1900
  0
POINT
  5
8181
  8
DEFPOINTS
 62
     0
 10
2430.2491138474388
 20
3109.7542924437548
 30
0.0
  0
POINT
  5
8182
  8
DEFPOINTS
 62
     0
 10
4330.2491138474397
 20
3109.7542924437548
 30
0.0
  0
POINT
  5
8183
  8
DEFPOINTS
 62
     0
 10
4330.2491138474397
 20
2819.4112160889381
 30
0.0
  0
ENDBLK
  5
809F
  8
0
  0
BLOCK
  8
0
  2
*D20
 70
     1
 10
0.0
 20
0.0
 30
0.0
  3
*D20
  1

  0
LINE
  5
8184
  8
3
 62
     0
 10
5823.4772353086328
 20
3089.7542924437548
 30
0.0
 11
5823.4772353086328
 21
2779.4112160889381
 31
0.0
  0
LINE
  5
8185
  8
3
 62
     0
 10
6614.4772353086346
 20
3089.7542924437539
 30
0.0
 11
6614.4772353086346
 21
2779.4112160889381
 31
0.0
  0
LINE
  5
8186
  8
3
 62
     0
 10
5903.4772353086337
 20
2819.4112160889381
 30
0.0
 11
6534.4772353086337
 21
2819.4112160889381
 31
0.0
  0
INSERT
  5
8187
  8
3
 62
     0
  2
_OPEN
 10
5823.4772353086328
 20
2819.4112160889381
 30
0.0
 41
80.0
 42
80.0
 43
80.0
 50
180.0
  0
INSERT
  5
8188
  8
3
 62
     0
  2
_OPEN
 10
6614.4772353086346
 20
2819.4112160889381
 30
0.0
 41
80.0
 42
80.0
 43
80.0
  0
TEXT
  8
3
  40
120
  5
81B1
  62
0
  72
0
  71
0
 10
5978.98
 20
2707.01
 30
0.000000
  1
791
  0
POINT
  5
818A
  8
DEFPOINTS
 62
     0
 10
5823.4772353086328
 20
3109.7542924437548
 30
0.0
  0
POINT
  5
818B
  8
DEFPOINTS
 62
     0
 10
6614.4772353086346
 20
3109.7542924437539
 30
0.0
  0
POINT
  5
818C
  8
DEFPOINTS
 62
     0
 10
6614.4772353086346
 20
2819.4112160889381
 30
0.0
  0
ENDBLK
  5
80AC
  8
0
  0
BLOCK
  8
0
  2
*D21
 70
     1
 10
0.0
 20
0.0
 30
0.0
  3
*D21
  1

  0
LINE
  5
818D
  8
3
 62
     0
 10
6614.4772353086346
 20
3089.7542924437539
 30
0.0
 11
6614.4772353086346
 21
2779.4112160889381
 31
0.0
  0
LINE
  5
818E
  8
3
 62
     0
 10
7223.4772353086337
 20
3089.7542924437548
 30
0.0
 11
7223.4772353086337
 21
2779.4112160889381
 31
0.0
  0
LINE
  5
818F
  8
3
 62
     0
 10
6694.4772353086346
 20
2819.4112160889381
 30
0.0
 11
7143.4772353086337
 21
2819.4112160889381
 31
0.0
  0
INSERT
  5
8190
  8
3
 62
     0
  2
_OPEN
 10
6614.4772353086346
 20
2819.4112160889381
 30
0.0
 41
80.0
 42
80.0
 43
80.0
 50
180.0
  0
INSERT
  5
8191
  8
3
 62
     0
  2
_OPEN
 10
7223.4772353086337
 20
2819.4112160889381
 30
0.0
 41
80.0
 42
80.0
 43
80.0
  0
TEXT
  8
3
  40
120
  5
81B2
  62
0
  72
0
  71
0
 10
6678.98
 20
2707.01
 30
0.000000
  1
609
  0
POINT
  5
8193
  8
DEFPOINTS
 62
     0
 10
6614.4772353086346
 20
3109.7542924437539
 30
0.0
  0
POINT
  5
8194
  8
DEFPOINTS
 62
     0
 10
7223.4772353086337
 20
3109.7542924437548
 30
0.0
  0
POINT
  5
8195
  8
DEFPOINTS
 62
     0
 10
7223.4772353086337
 20
2819.4112160889381
 30
0.0
  0
ENDBLK
  5
80B9
  8
0
  0
BLOCK
  8
0
  2
*D22
 70
     1
 10
0.0
 20
0.0
 30
0.0
  3
*D22
  1

  0
LINE
  5
8196
  8
3
 62
     0
 10
1480.249113847439
 20
5640.7542924437548
 30
0.0
 11
671.71312647098296
 21
5640.7542924437548
 31
0.0
  0
LINE
  5
8197
  8
3
 62
     0
 10
1560.249113847439
 20
3109.7542924437548
 30
0.0
 11
671.71312647098239
 21
3109.7542924437548
 31
0.0
  0
LINE
  5
8198
  8
3
 62
     0
 10
711.71312647098296
 20
5560.7542924437548
 30
0.0
 11
711.71312647098239
 21
3189.7542924437548
 31
0.0
  0
INSERT
  5
8199
  8
3
 62
     0
  2
_OPEN
 10
711.71312647098296
 20
5640.7542924437548
 30
0.0
 41
80.0
 42
80.0
 43
80.0
 50
90.0
  0
INSERT
  5
819A
  8
3
 62
     0
  2
_OPEN
 10
711.71312647098239
 20
3109.7542924437548
 30
0.0
 41
80.0
 42
80.0
 43
80.0
 50
270.0
  0
TEXT
  8
3
  40
120
  5
81B3
  62
0
  72
0
  71
0
 10
371.713
 20
4162.85
 30
0.000000
  1
2531
  0
POINT
  5
819C
  8
DEFPOINTS
 62
     0
 10
1500.249113847439
 20
5640.7542924437548
 30
0.0
  0
POINT
  5
819D
  8
DEFPOINTS
 62
     0
 10
1580.249113847439
 20
3109.7542924437548
 30
0.0
  0
POINT
  5
819E
  8
DEFPOINTS
 62
     0
 10
711.71312647098239
 20
3109.7542924437548
 30
0.0
  0
ENDBLK
  5
80C6
  8
0
  0
ENDSEC
  0
SECTION
  2
ENTITIES
  0
INSERT
  5
7BDB
  8
0
  2
YA_N
 10
6.0
 20
5.0
 30
0.0
  0
INSERT
  5
7BDD
  8
0
  2
YA_N
 10
6.0
 20
5.0
 30
0.0
  0
LINE
  5
7BDF
  8
2
 10
2430.2491138474388
 20
5782.6321232158807
 30
0.0
 11
2430.2491138474388
 21
3109.7542924437548
 31
0.0
  0
LINE
  5
7BE0
  8
1
 10
1500.249113847439
 20
4136.7542924437548
 30
0.0
 11
1500.249113847439
 21
5694.7542924437548
 31
0.0
  0
LINE
  5
7BE1
  8
1
 10
1500.249113847439
 20
4190.7542924437548
 30
0.0
 11
1609.3453691240629
 21
4190.7542924437548
 31
0.0
  0
ARC
  5
7BE2
  8
1
 10
2328.2491138474388
 20
4251.7542924437548
 30
0.0
 40
1309.0
 50
0.0
 51
85.530863344478945
  0
ARC
  5
7BE3
  8
1
 10
2532.2491138474402
 20
4251.7542924437548
 30
0.0
 40
1105.0
 50
264.7036190881476
 51
0.0
  0
ARC
  5
7BE4
  8
1
 10
2515.7491138474388
 20
4064.2542924437548
 30
0.0
 40
917.5
 50
180.0
 51
264.65296219651373
  0
ARC
  5
7BE5
  8
1
 10
2345.0491138474399
 20
4064.2542924437548
 30
0.0
 40
746.49999999999989
 50
170.24372338188331
 51
180.0
  0
LINE
  5
7BE6
  8
1
 10
1500.249113847439
 20
5640.7542924437548
 30
0.0
 11
2430.2491138474388
 21
5556.8681457414668
 31
0.0
  0
LINE
  5
7BE7
  8
1
 10
1580.249113847439
 20
3109.7542924437548
 30
0.0
 11
4330.2491138474397
 21
3109.7542924437548
 31
0.0
  0
LINE
  5
7BE8
  8
1
 10
1580.249113847439
 20
3259.7542924437548
 30
0.0
 11
4330.2491138474397
 21
3259.7542924437548
 31
0.0
  0
LINE
  5
7BE9
  8
1
 10
1580.249113847439
 20
3259.7542924437548
 30
0.0
 11
1580.249113847439
 21
3109.7542924437548
 31
0.0
  0
LINE
  5
7BEA
  8
1
 10
4330.2491138474397
 20
3259.7542924437548
 30
0.0
 11
4330.2491138474397
 21
3109.7542924437548
 31
0.0
  0
LINE
  5
7BEB
  8
1
 10
1550.249113847439
 20
4190.7542924437548
 30
0.0
 11
1550.249113847439
 21
5636.2442845565356
 31
0.0
  0
LINE
  5
7BEC
  8
2
 10
5576.5143039975619
 20
4149.7542924437548
 30
0.0
 11
7368.7101113567296
 21
4149.7542924437548
 31
0.0
  0
LINE
  5
7BED
  8
2
 10
6614.4772353086328
 20
5843.321162154698
 30
0.0
 11
6614.4772353086346
 21
3109.7542924437539
 31
0.0
  0
LINE
  5
7BEE
  8
1
 10
5823.4772353086328
 20
3259.7542924437548
 30
0.0
 11
7223.4772353086337
 21
3259.7542924437548
 31
0.0
  0
LINE
  5
7BEF
  8
1
 10
5823.4772353086328
 20
3109.7542924437548
 30
0.0
 11
7223.4772353086337
 21
3109.7542924437548
 31
0.0
  0
LINE
  5
7BF0
  8
1
 10
1580.249113847439
 20
7244.7265031985953
 30
0.0
 11
4330.2491138474397
 21
7244.7265031985953
 31
0.0
  0
LINE
  5
7BF1
  8
1
 10
1580.249113847439
 20
8644.7265031985953
 30
0.0
 11
3280.2491138474388
 21
8644.7265031985953
 31
0.0
  0
LINE
  5
7BF2
  8
1
 10
1580.249113847439
 20
8644.7265031985953
 30
0.0
 11
1580.249113847439
 21
8565.7265031985953
 31
0.0
  0
LINE
  5
7BF3
  8
1
 10
3280.2491138474388
 20
8644.7265031985953
 30
0.0
 11
3280.2491138474388
 21
8565.7265031985953
 31
0.0
  0
LINE
  5
7BF4
  8
1
 10
3637.2491138474388
 20
8344.7265031985935
 30
0.0
 11
4330.2491138474397
 21
8344.7265031985953
 31
0.0
  0
LINE
  5
7BF5
  8
1
 10
4330.2491138474397
 20
8344.7265031985953
 30
0.0
 11
4330.2491138474397
 21
7244.7265031985953
 31
0.0
  0
LINE
  5
7BF6
  8
1
 10
6084.4772353086337
 20
5640.7542924437548
 30
0.0
 11
7144.4772353086337
 21
5640.7542924437548
 31
0.0
  0
LINE
  5
7BF7
  8
1
 10
7144.4772353086337
 20
5640.7542924437548
 30
0.0
 11
7144.4772353086337
 21
4158.7542924437548
 31
0.0
  0
LINE
  5
7BF8
  8
1
 10
6084.4772353086337
 20
5640.7542924437548
 30
0.0
 11
6084.4772353086337
 21
4149.7542924437548
 31
0.0
  0
LINE
  5
7BF9
  8
2
 10
1348.4925869657741
 20
4149.7542924437548
 30
0.0
 11
3823.8589485670091
 21
4149.7542924437548
 31
0.0
  0
LINE
  5
7BFA
  8
2
 10
4030.2491138474402
 20
3932.7506110663162
 30
0.0
 11
4030.2491138474402
 21
3179.4029657914712
 31
0.0
  0
LINE
  5
7BFB
  8
2
 10
3803.2863948071308
 20
3494.7542924437539
 30
0.0
 11
4330.2491138474397
 21
3494.7542924437539
 31
0.0
  0
LINE
  5
7BFC
  8
2
 10
6167.4791850502843
 20
3494.7542924437539
 30
0.0
 11
5647.452154078961
 21
3494.7542924437539
 31
0.0
  0
CIRCLE
  5
7BFD
  8
1
 10
2430.2491138474388
 20
4149.7542924437548
 30
0.0
 40
700.0
  0
CIRCLE
  5
7BFE
  8
1
 10
2430.2491138474388
 20
4149.7542924437548
 30
0.0
 40
750.0
  0
LINE
  5
7BFF
  8
1
 10
7147.6772353086344
 20
4849.7542924437548
 30
0.0
 11
7248.4772353086337
 21
4849.7542924437548
 31
0.0
  0
LINE
  5
7C00
  8
1
 10
7147.6772353086344
 20
3449.7542924437539
 30
0.0
 11
7248.4772353086337
 21
3449.7542924437539
 31
0.0
  0
LINE
  5
7C01
  8
1
 10
7248.4772353086337
 20
4899.7542924437548
 30
0.0
 11
7248.4772353086337
 21
3399.7542924437539
 31
0.0
  0
LINE
  5
7C02
  8
1
 10
4192.2491138474397
 20
3384.7567972144971
 30
0.0
 11
4182.6200599576869
 21
3394.3085619149379
 31
0.0
  0
LINE
  5
7C03
  8
1
 10
3868.2491138474402
 20
3384.7567972144971
 30
0.0
 11
3877.8781677371921
 21
3394.3085619149379
 31
0.0
  0
LINE
  5
7C04
  8
1
 10
4192.2491138474397
 20
3314.7542924437548
 30
0.0
 11
4192.2491138474397
 21
3384.7567972144971
 31
0.0
  0
LINE
  5
7C05
  8
1
 10
4281.0748059295383
 20
3314.7542924437548
 30
0.0
 11
4113.5874334256878
 21
3314.7542924437548
 31
0.0
  0
ARC
  5
7C06
  8
1
 10
4030.2491138474402
 20
3494.7542924437539
 30
0.0
 40
182.5
 50
285.78279193357162
 51
254.2172080664283
  0
LINE
  5
7C07
  8
1
 10
3980.6107116900739
 20
3319.1345924347161
 30
0.0
 11
4079.8875160048051
 21
3319.1345924347161
 31
0.0
  0
LINE
  5
7C08
  8
1
 10
3868.2491138474402
 20
3314.7542924437548
 30
0.0
 11
3868.2491138474402
 21
3384.756797214498
 31
0.0
  0
LINE
  5
7C09
  8
1
 10
3868.2491138474402
 20
3314.7542924437548
 30
0.0
 11
3928.2491138474402
 21
3314.7542924437548
 31
0.0
  0
CIRCLE
  5
7C0A
  8
1
 10
4030.2491138474402
 20
3494.7542924437539
 30
0.0
 40
106.0
  0
LINE
  5
7C0B
  8
1
 10
4290.2491138474406
 20
3259.7542924437548
 30
0.0
 11
4281.0748059295383
 21
3314.7542924437548
 31
0.0
  0
LINE
  5
7C0C
  8
1
 10
4113.5874334256878
 20
3314.7542924437548
 30
0.0
 11
4113.5874334256878
 21
3305.277947882154
 31
0.0
  0
LINE
  5
7C0D
  8
1
 10
4113.5874334256878
 20
3305.277947882154
 30
0.0
 11
4030.2363329599139
 21
3305.277947882154
 31
0.0
  0
LINE
  5
7C0E
  8
1
 10
3770.2491138474379
 20
3259.7542924437548
 30
0.0
 11
3779.4234217653429
 21
3314.7542924437548
 31
0.0
  0
LINE
  5
7C0F
  8
1
 10
3779.423421765342
 20
3314.7542924437548
 30
0.0
 11
3946.910794269193
 21
3314.7542924437548
 31
0.0
  0
LINE
  5
7C10
  8
1
 10
3946.910794269193
 20
3305.277947882154
 30
0.0
 11
4030.2618947349652
 21
3305.277947882154
 31
0.0
  0
LINE
  5
7C11
  8
1
 10
3946.910794269193
 20
3314.7542924437548
 30
0.0
 11
3946.910794269193
 21
3305.277947882154
 31
0.0
  0
LINE
  5
7C12
  8
1
 10
5814.7772353086339
 20
4229.7542924437548
 30
0.0
 11
5814.777235308633
 21
4069.7542924437548
 31
0.0
  0
LINE
  5
7C13
  8
1
 10
5714.777235308633
 20
4549.7542924437539
 30
0.0
 11
5714.777235308633
 21
3388.7542924437548
 31
0.0
  0
LINE
  5
7C14
  8
1
 10
5792.6772353086344
 20
4549.7542924437539
 30
0.0
 11
5792.6772353086326
 21
3388.7542924437548
 31
0.0
  0
LINE
  5
7C15
  8
1
 10
5792.6772353086344
 20
4229.7542924437548
 30
0.0
 11
5814.777235308633
 21
4229.7542924437548
 31
0.0
  0
LINE
  5
7C16
  8
1
 10
5792.6772353086344
 20
4069.7542924437548
 30
0.0
 11
5814.777235308633
 21
4069.7542924437548
 31
0.0
  0
LINE
  5
7C17
  8
1
 10
5714.777235308633
 20
3600.7542924437548
 30
0.0
 11
5792.6772353086326
 21
3600.7542924437548
 31
0.0
  0
LINE
  5
7C18
  8
1
 10
5714.777235308633
 20
3388.7542924437548
 30
0.0
 11
5792.6772353086326
 21
3388.7542924437548
 31
0.0
  0
LINE
  5
7C19
  8
1
 10
5807.777235308633
 20
3554.7542924437548
 30
0.0
 11
5807.777235308633
 21
3434.7542924437539
 31
0.0
  0
LINE
  5
7C1A
  8
1
 10
5792.6772353086326
 20
3554.7542924437548
 30
0.0
 11
5807.777235308633
 21
3554.7542924437548
 31
0.0
  0
LINE
  5
7C1B
  8
1
 10
5792.6772353086326
 20
3434.7542924437539
 30
0.0
 11
5807.777235308633
 21
3434.7542924437539
 31
0.0
  0
LINE
  5
7C1C
  8
1
 10
5664.777235308633
 20
3274.7542924437539
 30
0.0
 11
5864.777235308633
 21
3274.7542924437539
 31
0.0
  0
LINE
  5
7C1D
  8
1
 10
5664.777235308633
 20
4699.7542924437539
 30
0.0
 11
5664.777235308633
 21
3274.7542924437539
 31
0.0
  0
LINE
  5
7C1E
  8
1
 10
5864.777235308633
 20
4699.7542924437539
 30
0.0
 11
5864.777235308633
 21
3274.7542924437539
 31
0.0
  0
LINE
  5
7C1F
  8
1
 10
5814.7772353086339
 20
4192.2542924437548
 30
0.0
 11
6084.4772353086337
 21
4192.2542924437548
 31
0.0
  0
LINE
  5
7C20
  8
1
 10
5814.777235308633
 20
4107.2542924437539
 30
0.0
 11
6084.4772353086337
 21
4107.2542924437539
 31
0.0
  0
LINE
  5
7C2D
  8
1
 10
6084.4772353086337
 20
4149.7542924437548
 30
0.0
 11
6084.4772353086337
 21
3259.7542924437548
 31
0.0
  0
LINE
  5
7C2E
  8
1
 10
7144.4772353086337
 20
4140.7542924437539
 30
0.0
 11
7144.4772353086337
 21
3259.7542924437548
 31
0.0
  0
POINT
  5
7C2F
  8
1
 10
6614.4772353086328
 20
6086.0393334772261
 30
0.0
  0
INSERT
  5
7C30
  8
0
  6
BYBLOCK
 62
     2
  2
YA_N
 10
5372.4018783245183
 20
-226.14356067562309
 30
0.0
 41
90.0
 42
90.0
 43
90.0
 50
210.0117675348119
  0
CIRCLE
  5
7C31
  8
1
 10
2430.2491138474388
 20
4149.7542924437548
 30
0.0
 40
400.0
  0
ARC
  5
7C32
  8
1
 10
2430.2491138474388
 20
4149.7542924437548
 30
0.0
 40
550.0
 50
51.400236102065762
 51
258.7408896399366
  0
ARC
  5
7C33
  8
1
 10
4030.2491138474402
 20
3494.7542924437539
 30
0.0
 40
220.0
 50
258.7408896399366
 51
51.400236102065762
  0
LINE
  5
7C34
  8
1
 10
2773.3811207833041
 20
4579.5919662418601
 30
0.0
 11
4167.5019166217871
 21
3666.6893619629968
 31
0.0
  0
LINE
  5
7C35
  8
1
 10
2673.4519800495868
 20
4467.3269075588832
 30
0.0
 11
4094.6978733910091
 21
3578.9110354492641
 31
0.0
  0
LINE
  5
7C36
  8
1
 10
5714.777235308633
 20
4549.7542924437539
 30
0.0
 11
5792.6772353086326
 21
4549.7542924437539
 31
0.0
  0
LINE
  5
7C37
  8
1
 10
5714.777235308633
 20
3749.7542924437539
 30
0.0
 11
5792.6772353086326
 21
3749.7542924437539
 31
0.0
  0
LINE
  5
7C38
  8
1
 10
5664.777235308633
 20
4699.7542924437539
 30
0.0
 11
5864.777235308633
 21
4699.7542924437539
 31
0.0
  0
LINE
  5
7C39
  8
1
 10
5807.7772353086339
 20
3537.2542924437539
 30
0.0
 11
6084.4772353086337
 21
3537.2542924437539
 31
0.0
  0
LINE
  5
7C3A
  8
1
 10
5807.777235308633
 20
3452.2542924437548
 30
0.0
 11
6084.4772353086337
 21
3452.2542924437548
 31
0.0
  0
DIMENSION
  5
7C3B
  8
3
  2
*D2
 10
1232.602968333769
 20
4190.7542924437548
 30
0.0
 11
1132.6029683337681
 21
4915.7542924437548
 31
0.0
 70
     0
 13
1500.249113847439
 23
5640.7542924437548
 33
0.0
 14
1500.249113847439
 24
4190.7542924437548
 34
0.0
 50
90.0
1001
ACAD
1000
DSTYLE
1002
{
1070
   287
1070
     3
1070
    40
1040
40.0
1070
   143
1040
0.039
1070
   172
1070
     1
1070
   271
1070
     0
1070
   279
1070
     0
1070
   288
1070
     1
1002
}
  0
DIMENSION
  5
7C3C
  8
3
  2
*D3
 10
982.25040462524328
 20
4149.7542924437548
 30
0.0
 11
882.25040462524282
 21
4895.2542924437548
 31
0.0
 70
     0
 13
1500.249113847439
 23
5640.7542924437548
 33
0.0
 14
1412.254355996356
 24
4149.7542924437548
 34
0.0
 50
90.0
1001
ACAD
1000
DSTYLE
1002
{
1070
   287
1070
     3
1070
    40
1040
40.0
1070
   143
1040
0.039
1070
   172
1070
     1
1070
   271
1070
     0
1070
   279
1070
     0
1070
   288
1070
     1
1002
}
  0
DIMENSION
  5
7C43
  8
3
  2
*D4
 10
3280.2491138474388
 20
9014.7730585573699
 30
0.0
 11
2430.2491138474388
 21
9114.7730585573699
 31
0.0
 70
     0
 13
1580.249113847439
 23
8644.7265031985953
 33
0.0
 14
3280.2491138474388
 24
8644.7265031985953
 34
0.0
1001
ACAD
1000
DSTYLE
1002
{
1070
   287
1070
     3
1070
    40
1040
40.0
1070
   143
1040
0.039
1070
   172
1070
     1
1070
   271
1070
     0
1070
   279
1070
     0
1070
   288
1070
     1
1002
}
  0
DIMENSION
  5
7C44
  8
3
  2
*D5
 10
4330.2491138474397
 20
9014.7730585573699
 30
0.0
 11
3805.2491138474402
 21
9114.7730585573699
 31
0.0
 70
     0
 13
3280.2491138474388
 23
8644.7265031985953
 33
0.0
 14
4330.2491138474397
 24
8344.7265031985953
 34
0.0
1001
ACAD
1000
DSTYLE
1002
{
1070
   287
1070
     3
1070
    40
1040
40.0
1070
   143
1040
0.039
1070
   172
1070
     1
1070
   271
1070
     0
1070
   279
1070
     0
1070
   288
1070
     1
1002
}
  0
DIMENSION
  5
7C45
  8
3
  2
*D6
 10
4638.4259535384836
 20
7244.7265031985953
 30
0.0
 11
4538.4259535384826
 21
7794.726503198598
 31
0.0
 70
     0
 13
4330.2491138474397
 23
8344.7265031985953
 33
0.0
 14
4330.2491138474397
 24
7244.7265031985953
 34
0.0
 50
90.0
1001
ACAD
1000
DSTYLE
1002
{
1070
   287
1070
     3
1070
    40
1040
40.0
1070
   143
1040
0.039
1070
   172
1070
     1
1070
   271
1070
     0
1070
   279
1070
     0
1070
   288
1070
     1
1002
}
  0
DIMENSION
  5
7C46
  8
3
  2
*D7
 10
1153.987153591537
 20
7244.7265031985953
 30
0.0
 11
1053.9871535915361
 21
7944.7265031985944
 31
0.0
 70
     0
 13
1580.249113847439
 23
8644.7265031985953
 33
0.0
 14
1580.249113847439
 24
7244.7265031985953
 34
0.0
 50
90.0
1001
ACAD
1000
DSTYLE
1002
{
1070
   287
1070
     3
1070
    40
1040
40.0
1070
   143
1040
0.039
1070
   172
1070
     1
1070
   271
1070
     0
1070
   279
1070
     0
1070
   288
1070
     1
1002
}
  0
DIMENSION
  5
7C47
  8
3
  2
*D8
 10
4330.2491138474397
 20
6668.5030492389742
 30
0.0
 11
2955.2491138474402
 21
6668.5030492389742
 31
0.0
 70
   128
 13
1580.249113847439
 23
7244.7265031985953
 33
0.0
 14
4330.2491138474397
 24
7244.7265031985953
 34
0.0
1001
ACAD
1000
DSTYLE
1002
{
1070
   287
1070
     3
1070
    40
1040
40.0
1070
   143
1040
0.039
1070
   172
1070
     1
1070
   271
1070
     0
1070
   279
1070
     0
1070
   288
1070
     1
1002
}
  0
DIMENSION
  5
7C48
  8
3
  2
*D9
 10
7144.4772353086337
 20
5864.3799163372132
 30
0.0
 11
6614.4772353086328
 21
5964.3799163372141
 31
0.0
 70
     0
 13
6084.4772353086337
 23
5640.7542924437548
 33
0.0
 14
7144.4772353086337
 24
5640.7542924437548
 34
0.0
1001
ACAD
1000
DSTYLE
1002
{
1070
   287
1070
     3
1070
    40
1040
40.0
1070
   143
1040
0.039
1070
   172
1070
     1
1070
   271
1070
     0
1070
   279
1070
     0
1070
   288
1070
     1
1002
}
  0
DIMENSION
  5
7C49
  8
3
  2
*D10
 10
6614.4772353086328
 20
6201.2819698002158
 30
0.0
 11
6971.3343781657768
 21
6201.2819698002158
 31
0.0
 70
   128
 13
7248.4772353086337
 23
4899.7542924437548
 33
0.0
 14
6614.4772353086328
 24
6086.0393334772261
 34
0.0
1001
ACAD
1000
DSTYLE
1002
{
1070
   287
1070
     3
1070
    40
1040
40.0
1070
   143
1040
0.039
1070
   172
1070
     1
1070
   271
1070
     0
1070
   279
1070
     0
1070
   288
1070
     1
1002
}
  0
DIMENSION
  5
7C4A
  8
3
  2
*D11
 10
5664.777235308633
 20
6201.2819698002158
 30
0.0
 11
6139.6272353086333
 21
6401.2819698002168
 31
0.0
 70
     0
  1
MAX\P1030
 13
6614.4772353086328
 23
6086.0393334772261
 33
0.0
 14
5664.777235308633
 24
4699.7542924437539
 34
0.0
1001
ACAD
1000
DSTYLE
1002
{
1070
   287
1070
     3
1070
    40
1040
40.0
1070
   143
1040
0.039
1070
   172
1070
     1
1070
   271
1070
     0
1070
   279
1070
     0
1070
   288
1070
     1
1002
}
  0
LINE
  5
7C4B
  8
2
 10
2430.2491138474388
 20
7061.0596496642638
 30
0.0
 11
2430.2491138474388
 21
8505.5623102038408
 31
0.0
  0
LINE
  5
7C4C
  8
1
 10
1500.249113847439
 20
8565.7265031985953
 30
0.0
 11
3637.2491138474388
 21
8565.7265031985953
 31
0.0
  0
LINE
  5
7C4D
  8
1
 10
1500.249113847439
 20
7505.7265031985944
 30
0.0
 11
3637.2491138474388
 21
7505.7265031985944
 31
0.0
  0
LINE
  5
7C4E
  8
1
 10
1580.249113847439
 20
7505.7265031985944
 30
0.0
 11
1580.249113847439
 21
7244.7265031985953
 31
0.0
  0
LINE
  5
7C4F
  8
1
 10
2343.8634063411969
 20
3759.1937855582719
 30
0.0
 11
4007.3569013582851
 21
3391.2557581191031
 31
0.0
  0
LINE
  5
7C50
  8
1
 10
2322.8636653051249
 20
3610.3394563098509
 30
0.0
 11
3987.2949344305139
 21
3278.9883579901939
 31
0.0
  0
DIMENSION
  5
7C51
  8
3
  2
*D12
 10
982.38543507528118
 20
3109.7542924437548
 30
0.0
 11
982.38543507528084
 21
3725.3735416339368
 31
0.0
 70
   128
 13
1412.254355996356
 23
4149.7542924437548
 33
0.0
 14
1580.249113847439
 24
3109.7542924437548
 34
0.0
 50
270.0
1001
ACAD
1000
DSTYLE
1002
{
1070
   287
1070
     3
1070
    40
1040
40.0
1070
   143
1040
0.039
1070
   172
1070
     1
1070
   271
1070
     0
1070
   279
1070
     0
1070
   288
1070
     1
1002
}
  0
DIMENSION
  5
7C54
  8
3
  2
*D13
 10
2430.2491138474388
 20
5958.283094290342
 30
0.0
 11
1965.249113847439
 21
6058.283094290342
 31
0.0
 70
     0
 13
1500.249113847439
 23
5694.7542924437548
 33
0.0
 14
2430.2491138474388
 24
5782.6321232158807
 34
0.0
1001
ACAD
1000
DSTYLE
1002
{
1070
   287
1070
     3
1070
    40
1040
40.0
1070
   143
1040
0.039
1070
   172
1070
     1
1070
   271
1070
     0
1070
   279
1070
     0
1070
   288
1070
     1
1002
}
  0
DIMENSION
  5
7C55
  8
3
  2
*D14
 10
3637.2491138474388
 20
5958.283094290342
 30
0.0
 11
3033.7491138474402
 21
6058.283094290342
 31
0.0
 70
     0
 13
2430.2491138474388
 23
5782.6321232158807
 33
0.0
 14
3637.2491138474388
 24
4251.7542924437548
 34
0.0
1001
ACAD
1000
DSTYLE
1002
{
1070
   287
1070
     3
1070
    40
1040
40.0
1070
   143
1040
0.039
1070
   172
1070
     1
1070
   271
1070
     0
1070
   279
1070
     0
1070
   288
1070
     1
1002
}
  0
DIMENSION
  5
7C56
  8
3
  2
*D15
 10
4330.2491138474397
 20
6239.3246526290204
 30
0.0
 11
2915.2491138474402
 21
6339.3246526290204
 31
0.0
 70
     0
 13
1500.249113847439
 23
5640.7542924437548
 33
0.0
 14
4330.2491138474397
 24
3259.7542924437548
 34
0.0
1001
ACAD
1000
DSTYLE
1002
{
1070
   287
1070
     3
1070
    40
1040
40.0
1070
   143
1040
0.039
1070
   172
1070
     1
1070
   271
1070
     0
1070
   279
1070
     0
1070
   288
1070
     1
1002
}
  0
LINE
  5
7C58
  8
1
 10
7223.4772353086337
 20
3259.7542924437548
 30
0.0
 11
7223.4772353086337
 21
3109.7542924437548
 31
0.0
  0
LINE
  5
7C59
  8
1
 10
5823.4772353086328
 20
3259.7542924437548
 30
0.0
 11
5823.4772353086328
 21
3109.7542924437548
 31
0.0
  0
LINE
  5
7C5A
  8
1
 10
1500.249113847439
 20
7455.7265031985953
 30
0.0
 11
1500.249113847439
 21
8615.7265031985953
 31
0.0
  0
LINE
  5
7C5B
  8
1
 10
3637.2491138474388
 20
7505.7265031985944
 30
0.0
 11
3637.2491138474388
 21
8565.7265031985953
 31
0.0
  0
LINE
  5
7C5C
  8
1
 10
6084.4772353086337
 20
4190.7542924437548
 30
0.0
 11
7144.4772353086337
 21
4190.7542924437548
 31
0.0
  0
LINE
  5
7C5D
  8
1
 10
7144.4772353086337
 20
5640.7542924437548
 30
0.0
 11
6084.4772353086337
 21
4190.7542924437548
 31
0.0
  0
LINE
  5
7C5E
  8
1
 10
6084.4772353086337
 20
5640.7542924437548
 30
0.0
 11
7144.4772353086337
 21
4190.7542924437548
 31
0.0
  0
LINE
  5
7C5F
  8
1
 10
1880.249113847439
 20
7286.0265031985946
 30
0.0
 11
4250.2491138474397
 21
7286.0265031985946
 31
0.0
  0
LINE
  5
7C60
  8
1
 10
1880.249113847439
 20
7086.0265031985946
 30
0.0
 11
4250.2491138474397
 21
7086.0265031985946
 31
0.0
  0
LINE
  5
7C61
  8
1
 10
2030.249113847439
 20
7213.9265031985942
 30
0.0
 11
2830.2491138474402
 21
7213.9265031985942
 31
0.0
  0
LINE
  5
7C62
  8
1
 10
2030.249113847439
 20
7136.0265031985937
 30
0.0
 11
2830.2491138474402
 21
7136.0265031985937
 31
0.0
  0
LINE
  5
7C63
  8
1
 10
4250.2491138474397
 20
7086.0265031985946
 30
0.0
 11
4250.2491138474397
 21
7286.0265031985946
 31
0.0
  0
LINE
  5
7C64
  8
1
 10
4136.2491138474397
 20
7136.0265031985937
 30
0.0
 11
4136.2491138474397
 21
7213.9265031985942
 31
0.0
  0
LINE
  5
7C65
  8
2
 10
4030.2491138474402
 20
7963.7594072378424
 30
0.0
 11
4030.2491138474402
 21
7068.7014219689227
 31
0.0
  0
LINE
  5
7C66
  8
1
 10
4072.7491138474388
 20
7229.0265031985946
 30
0.0
 11
4072.7491138474388
 21
7344.0265031985946
 31
0.0
  0
LINE
  5
7C67
  8
1
 10
3987.7491138474388
 20
7229.0265031985946
 30
0.0
 11
3987.7491138474388
 21
7344.0265031985946
 31
0.0
  0
LINE
  5
7C68
  8
1
 10
3970.2491138474402
 20
7229.0265031985946
 30
0.0
 11
4090.2491138474388
 21
7229.0265031985946
 31
0.0
  0
LINE
  5
7C69
  8
1
 10
4090.2491138474388
 20
7213.9265031985942
 30
0.0
 11
4090.2491138474388
 21
7229.0265031985946
 31
0.0
  0
LINE
  5
7C6A
  8
1
 10
3970.2491138474402
 20
7213.9265031985942
 30
0.0
 11
3970.2491138474402
 21
7229.0265031985946
 31
0.0
  0
LINE
  5
7C6B
  8
1
 10
2830.2491138474402
 20
7136.0265031985937
 30
0.0
 11
2830.2491138474402
 21
7213.9265031985942
 31
0.0
  0
LINE
  5
7C6C
  8
1
 10
2030.249113847439
 20
7136.0265031985937
 30
0.0
 11
2030.249113847439
 21
7213.9265031985942
 31
0.0
  0
LINE
  5
7C6D
  8
1
 10
3924.2491138474388
 20
7136.0265031985937
 30
0.0
 11
3924.2491138474388
 21
7213.9265031985942
 31
0.0
  0
LINE
  5
7C6E
  8
1
 10
2350.2491138474388
 20
7236.0265031985937
 30
0.0
 11
2510.2491138474388
 21
7236.0265031985937
 31
0.0
  0
LINE
  5
7C6F
  8
1
 10
2472.7491138474402
 20
7236.0265031985937
 30
0.0
 11
2472.7491138474402
 21
7505.7265031985944
 31
0.0
  0
LINE
  5
7C70
  8
1
 10
2510.2491138474388
 20
7213.9265031985942
 30
0.0
 11
2510.2491138474388
 21
7236.0265031985937
 31
0.0
  0
LINE
  5
7C71
  8
1
 10
2387.7491138474388
 20
7236.0265031985937
 30
0.0
 11
2387.7491138474388
 21
7505.7265031985944
 31
0.0
  0
LINE
  5
7C72
  8
1
 10
2350.2491138474388
 20
7213.9265031985942
 30
0.0
 11
2350.2491138474388
 21
7236.0265031985937
 31
0.0
  0
LINE
  5
7C73
  8
1
 10
1880.249113847439
 20
7086.0265031985946
 30
0.0
 11
1880.249113847439
 21
7286.0265031985946
 31
0.0
  0
LINE
  5
7C74
  8
2
 10
1433.64161263451
 20
8035.7265031985962
 30
0.0
 11
3717.833367774183
 21
8035.7265031985962
 31
0.0
  0
LINE
  5
7C75
  8
1
 10
3847.7491138474402
 20
7905.5265031985946
 30
0.0
 11
4212.7491138474388
 21
7905.5265031985928
 31
0.0
  0
LINE
  5
7C76
  8
1
 10
3847.7491138474402
 20
7344.0265031985946
 30
0.0
 11
4212.7491138474388
 21
7344.0265031985946
 31
0.0
  0
LINE
  5
7C77
  8
1
 10
4212.7491138474388
 20
7905.5265031985928
 30
0.0
 11
4212.7491138474388
 21
7344.0265031985946
 31
0.0
  0
LINE
  5
7C78
  8
1
 10
3847.7491138474402
 20
7905.5265031985946
 30
0.0
 11
3847.7491138474402
 21
7344.0265031985964
 31
0.0
  0
LINE
  5
7C79
  8
1
 10
3924.2491138474388
 20
7213.9265031985942
 30
0.0
 11
4136.2491138474397
 21
7213.9265031985942
 31
0.0
  0
LINE
  5
7C7A
  8
1
 10
3924.2491138474388
 20
7136.0265031985937
 30
0.0
 11
4136.2491138474397
 21
7136.0265031985937
 31
0.0
  0
DIMENSION
  5
7C7B
  8
3
  2
*D16
 10
7623.6989578745925
 20
3449.7542924437539
 30
0.0
 11
7523.6989578745925
 21
4149.7542924437557
 31
0.0
 70
     0
 13
7248.4772353086337
 23
4849.7542924437548
 33
0.0
 14
7248.4772353086337
 24
3449.7542924437539
 34
0.0
 50
90.0
1001
ACAD
1000
DSTYLE
1002
{
1070
   287
1070
     3
1070
     3
1000
φ<>
1070
    40
1040
40.0
1070
   143
1040
0.039
1070
   172
1070
     1
1070
   271
1070
     0
1070
   279
1070
     0
1070
   288
1070
     1
1002
}
  0
LINE
  5
7FCB
  8
4
 10
7400.0
 20
2000.0
 30
0.0
 11
7400.0
 21
1200.0
 31
0.0
  0
LINE
  5
7FCC
  8
4
 10
4600.0
 20
2000.0
 30
0.0
 11
4600.0
 21
1200.0
 31
0.0
  0
LINE
  5
7FCD
  8
4
 10
2600.0
 20
2000.0
 30
0.0
 11
2600.0
 21
1200.0
 31
0.0
  0
LINE
  5
7FD0
  8
4
 10
2600.0
 20
1200.0
 30
0.0
 11
7400.0
 21
1200.0
 31
0.0
  0
LINE
  5
7FD1
  8
4
 10
2600.0
 20
1600.0
 30
0.0
 11
7400.0
 21
1600.0
 31
0.0
  0
TEXT
  5
7FD2
  8
4
 10
2754.0083233876071
 20
1726.1721034664511
 30
0.0
 40
200.0
  1
機器名称
  0
TEXT
  5
7FD3
  8
4
 10
2745.0324240991899
 20
1286.5806269280431
 30
0.0
 40
200.0
  1
機器型番
  0
TEXT
  5
7FD4
  8
4
 10
4710.7149819506594
 20
1690.287075830274
 30
0.0
 40
200.0
  1
ミツヤ多翼送風機
  0
TEXT
  5
7FD5
  8
4
 10
4746.6179823419234
 20
1268.638337119773
 30
0.0
 40
200.0
  1
MF#9-4
  0
TEXT
  5
7FD7
  8
4
 10
3133.34282512142
 20
9533.7153653300629
 30
0.0
 40
215.99999999999989
  1
床置ベット
  0
TEXT
  5
7FD8
  8
4
 10
1264.6703733177851
 20
10135.52390479719
 30
0.0
 40
288.0
  1
ベルト駆動式片吸込両持多翼ファン
  0
LINE
  5
7FD9
  8
4
 10
1000.0
 20
9877.6350170592195
 30
0.0
 11
7400.0
 21
9877.6350170592195
 31
0.0
  0
LINE
  5
7FDA
  8
4
 10
1000.0
 20
10677.63501705921
 30
0.0
 11
7400.0
 21
10677.63501705921
 31
0.0
  0
LINE
  5
7FDB
  8
4
 10
2600.0
 20
2000.0
 30
0.0
 11
7400.0
 21
2000.0
 31
0.0
  0
LINE
  5
7FDC
  8
4
 10
1000.0
 20
10677.63501705921
 30
0.0
 11
1000.0
 21
9877.6350170592195
 31
0.0
  0
TEXT
  5
7FDD
  8
4
 10
1389.9074961506119
 20
9529.2779101853739
 30
0.0
 40
215.99999999999989
  1
左回転左横向
  0
TEXT
  5
7FDE
  8
4
 10
5875.8782369971586
 20
10824.24432598123
 30
0.0
 40
224.0
  1
No.
  0
TEXT
  5
7FDF
  8
4
 10
5245.1842504000524
 20
9533.7153653300629
 30
0.0
 40
215.99999999999989
  1
縮尺：1/40
  0
LINE
  5
7FE0
  8
4
 10
7400.0
 20
10677.63501705921
 30
0.0
 11
7400.0
 21
9877.6350170592195
 31
0.0
  0
LINE
  5
7FE1
  8
4
 10
8400.0
 20
11800.0
 30
0.0
 11
8400.0
 21
11800.0
 31
0.0
  0
LINE
  5
7FE2
  8
4
 10
5762.4696894394583
 20
10725.054332501601
 30
0.0
 11
5762.4696894394583
 21
11146.609046199001
 31
0.0
  0
LINE
  5
7FE3
  8
4
 10
5762.4696894394583
 20
11146.609046199001
 30
0.0
 11
7400.0
 21
11146.609046199001
 31
0.0
  0
LINE
  5
7FE4
  8
4
 10
7400.0
 20
11146.609046199001
 30
0.0
 11
7400.0
 21
10725.054332501601
 31
0.0
  0
LINE
  5
7FE5
  8
4
 10
7400.0
 20
10725.054332501601
 30
0.0
 11
5762.4696894394583
 21
10725.054332501601
 31
0.0
  0
LINE
  5
7FE6
  8
4
 10
0.0
 20
0.0
 30
0.0
 11
0.0
 21
11800.0
 31
0.0
  0
LINE
  5
7FE7
  8
4
 10
0.0
 20
11800.0
 30
0.0
 11
8400.0
 21
11800.0
 31
0.0
  0
LINE
  5
7FE8
  8
4
 10
8400.0
 20
11800.0
 30
0.0
 11
8400.0
 21
0.0
 31
0.0
  0
LINE
  5
7FE9
  8
4
 10
8400.0
 20
0.0
 30
0.0
 11
0.0
 21
0.0
 31
0.0
  0
DIMENSION
  5
8093
  8
3
  2
*D18
 10
2430.2491138474388
 20
2819.4112160889381
 30
0.0
 11
2005.249113847439
 21
2919.4112160889381
 31
0.0
 70
     0
 13
1580.249113847439
 23
3109.7542924437548
 33
0.0
 14
2430.2491138474388
 24
3109.7542924437548
 34
0.0
1001
ACAD
1000
DSTYLE
1002
{
1070
   287
1070
     3
1070
    40
1040
40.0
1070
   143
1040
0.039
1070
   172
1070
     1
1070
   271
1070
     0
1070
   279
1070
     0
1002
}
  0
DIMENSION
  5
80A0
  8
3
  2
*D19
 10
4330.2491138474397
 20
2819.4112160889381
 30
0.0
 11
3380.2491138474388
 21
2919.4112160889381
 31
0.0
 70
     0
 13
2430.2491138474388
 23
3109.7542924437548
 33
0.0
 14
4330.2491138474397
 24
3109.7542924437548
 34
0.0
1001
ACAD
1000
DSTYLE
1002
{
1070
   287
1070
     3
1070
    40
1040
40.0
1070
   143
1040
0.039
1070
   172
1070
     1
1070
   271
1070
     0
1070
   279
1070
     0
1002
}
  0
DIMENSION
  5
80AD
  8
3
  2
*D20
 10
6614.4772353086346
 20
2819.4112160889381
 30
0.0
 11
6218.9772353086337
 21
2919.4112160889381
 31
0.0
 70
     0
 13
5823.4772353086328
 23
3109.7542924437548
 33
0.0
 14
6614.4772353086346
 24
3109.7542924437539
 34
0.0
1001
ACAD
1000
DSTYLE
1002
{
1070
   287
1070
     3
1070
    40
1040
40.0
1070
   143
1040
0.039
1070
   172
1070
     1
1070
   271
1070
     0
1070
   279
1070
     0
1002
}
  0
DIMENSION
  5
80BA
  8
3
  2
*D21
 10
7223.4772353086337
 20
2819.4112160889381
 30
0.0
 11
6918.9772353086337
 21
2919.4112160889381
 31
0.0
 70
     0
 13
6614.4772353086346
 23
3109.7542924437539
 33
0.0
 14
7223.4772353086337
 24
3109.7542924437548
 34
0.0
1001
ACAD
1000
DSTYLE
1002
{
1070
   287
1070
     3
1070
    40
1040
40.0
1070
   143
1040
0.039
1070
   172
1070
     1
1070
   271
1070
     0
1070
   279
1070
     0
1002
}
  0
DIMENSION
  5
80C7
  8
3
  2
*D22
 10
711.71312647098239
 20
3109.7542924437548
 30
0.0
 11
611.71312647098193
 21
4375.2542924437548
 31
0.0
 70
     0
 13
1500.249113847439
 23
5640.7542924437548
 33
0.0
 14
1580.249113847439
 24
3109.7542924437548
 34
0.0
 50
90.0
1001
ACAD
1000
DSTYLE
1002
{
1070
   287
1070
     3
1070
    40
1040
40.0
1070
   143
1040
0.039
1070
   172
1070
     1
1070
   271
1070
     0
1070
   279
1070
     0
1002
}
  0
ENDSEC
  0
EOF
