  0
SECTION
  2
HEADER
  9
$ACADVER
  1
AC1015
  9
$ACADMAINTVER
 70
    20
  9
$DWGCODEPAGE
  3
ANSI_932
  9
$INSBASE
 10
0.0
 20
0.0
 30
0.0
  9
$EXTMIN
 10
-0.2563280987742473
 20
-0.3600799482810544
 30
-0.0015258207003583
  9
$EXTMAX
 10
8400.256367214323
 20
11800.3601348963
 30
0.0000000349246037
  9
$LIMMIN
 10
0.0
 20
0.0
  9
$LIMMAX
 10
297.0
 20
210.0
  9
$ORTHOMODE
 70
     1
  9
$REGENMODE
 70
     1
  9
$FILLMODE
 70
     0
  9
$QTEXTMODE
 70
     0
  9
$MIRRTEXT
 70
     1
  9
$LTSCALE
 40
100.0
  9
$ATTMODE
 70
     1
  9
$TEXTSIZE
 40
180.0
  9
$TRACEWID
 40
0.05
  9
$TEXTSTYLE
  7
STANDARD
  9
$CLAYER
  8
3
  9
$CELTYPE
  6
ByLayer
  9
$CECOLOR
 62
   256
  9
$CELTSCALE
 40
1.0
  9
$DISPSILH
 70
     0
  9
$DIMSCALE
 40
40.0
  9
$DIMASZ
 40
2.0
  9
$DIMEXO
 40
0.5
  9
$DIMDLI
 40
10.0
  9
$DIMRND
 40
0.0
  9
$DIMDLE
 40
0.0
  9
$DIMEXE
 40
1.0
  9
$DIMTP
 40
1.0
  9
$DIMTM
 40
1.0
  9
$DIMTXT
 40
3.0
  9
$DIMCEN
 40
0.0
  9
$DIMTSZ
 40
0.0
  9
$DIMTOL
 70
     0
  9
$DIMLIM
 70
     0
  9
$DIMTIH
 70
     0
  9
$DIMTOH
 70
     0
  9
$DIMSE1
 70
     0
  9
$DIMSE2
 70
     0
  9
$DIMTAD
 70
     1
  9
$DIMZIN
 70
     8
  9
$DIMBLK
  1

  9
$DIMASO
 70
     1
  9
$DIMSHO
 70
     1
  9
$DIMPOST
  1

  9
$DIMAPOST
  1

  9
$DIMALT
 70
     0
  9
$DIMALTD
 70
     2
  9
$DIMALTF
 40
0.039
  9
$DIMLFAC
 40
1.0
  9
$DIMTOFL
 70
     1
  9
$DIMTVP
 40
0.0
  9
$DIMTIX
 70
     0
  9
$DIMSOXD
 70
     0
  9
$DIMSAH
 70
     1
  9
$DIMBLK1
  1
OPEN
  9
$DIMBLK2
  1
OPEN
  9
$DIMSTYLE
  2
IGA
  9
$DIMCLRD
 70
     0
  9
$DIMCLRE
 70
     0
  9
$DIMCLRT
 70
     0
  9
$DIMTFAC
 40
10.0
  9
$DIMGAP
 40
1.0
  9
$DIMJUST
 70
     0
  9
$DIMSD1
 70
     0
  9
$DIMSD2
 70
     0
  9
$DIMTOLJ
 70
     1
  9
$DIMTZIN
 70
     0
  9
$DIMALTZ
 70
     0
  9
$DIMALTTZ
 70
     0
  9
$DIMUPT
 70
     0
  9
$DIMDEC
 70
     4
  9
$DIMTDEC
 70
     4
  9
$DIMALTU
 70
     2
  9
$DIMALTTD
 70
     2
  9
$DIMTXSTY
  7
STANDARD
  9
$DIMAUNIT
 70
     0
  9
$DIMADEC
 70
     0
  9
$DIMALTRND
 40
0.0
  9
$DIMAZIN
 70
     0
  9
$DIMDSEP
 70
    46
  9
$DIMATFIT
 70
     3
  9
$DIMFRAC
 70
     0
  9
$DIMLDRBLK
  1
OPEN
  9
$DIMLUNIT
 70
     2
  9
$DIMLWD
 70
    -2
  9
$DIMLWE
 70
    -2
  9
$DIMTMOVE
 70
     0
  9
$LUNITS
 70
     2
  9
$LUPREC
 70
     3
  9
$SKETCHINC
 40
0.1
  9
$FILLETRAD
 40
50.0
  9
$AUNITS
 70
     0
  9
$AUPREC
 70
     0
  9
$MENU
  1
acad
  9
$ELEVATION
 40
0.0
  9
$PELEVATION
 40
0.0
  9
$THICKNESS
 40
0.0
  9
$LIMCHECK
 70
     0
  9
$CHAMFERA
 40
0.5
  9
$CHAMFERB
 40
0.5
  9
$CHAMFERC
 40
0.0
  9
$CHAMFERD
 40
0.0
  9
$SKPOLY
 70
     0
  9
$TDCREATE
 40
2451898.461951968
  9
$TDUCREATE
 40
2451898.086951968
  9
$TDUPDATE
 40
2460280.794334456
  9
$TDUUPDATE
 40
2460280.419334456
  9
$TDINDWG
 40
0.0232160532
  9
$TDUSRTIMER
 40
0.0232158218
  9
$USRTIMER
 70
     1
  9
$ANGBASE
 50
0.0
  9
$ANGDIR
 70
     0
  9
$PDMODE
 70
     0
  9
$PDSIZE
 40
0.0
  9
$PLINEWID
 40
0.0
  9
$SPLFRAME
 70
     0
  9
$SPLINETYPE
 70
     6
  9
$SPLINESEGS
 70
     8
  9
$HANDSEED
  5
8801
  9
$SURFTAB1
 70
     6
  9
$SURFTAB2
 70
     6
  9
$SURFTYPE
 70
     6
  9
$SURFU
 70
     6
  9
$SURFV
 70
     6
  9
$UCSBASE
  2

  9
$UCSNAME
  2

  9
$UCSORG
 10
0.0
 20
0.0
 30
0.0
  9
$UCSXDIR
 10
1.0
 20
0.0
 30
0.0
  9
$UCSYDIR
 10
0.0
 20
1.0
 30
0.0
  9
$UCSORTHOREF
  2

  9
$UCSORTHOVIEW
 70
     0
  9
$UCSORGTOP
 10
0.0
 20
0.0
 30
0.0
  9
$UCSORGBOTTOM
 10
0.0
 20
0.0
 30
0.0
  9
$UCSORGLEFT
 10
0.0
 20
0.0
 30
0.0
  9
$UCSORGRIGHT
 10
0.0
 20
0.0
 30
0.0
  9
$UCSORGFRONT
 10
0.0
 20
0.0
 30
0.0
  9
$UCSORGBACK
 10
0.0
 20
0.0
 30
0.0
  9
$PUCSBASE
  2

  9
$PUCSNAME
  2

  9
$PUCSORG
 10
0.0
 20
0.0
 30
0.0
  9
$PUCSXDIR
 10
1.0
 20
0.0
 30
0.0
  9
$PUCSYDIR
 10
0.0
 20
1.0
 30
0.0
  9
$PUCSORTHOREF
  2

  9
$PUCSORTHOVIEW
 70
     0
  9
$PUCSORGTOP
 10
0.0
 20
0.0
 30
0.0
  9
$PUCSORGBOTTOM
 10
0.0
 20
0.0
 30
0.0
  9
$PUCSORGLEFT
 10
0.0
 20
0.0
 30
0.0
  9
$PUCSORGRIGHT
 10
0.0
 20
0.0
 30
0.0
  9
$PUCSORGFRONT
 10
0.0
 20
0.0
 30
0.0
  9
$PUCSORGBACK
 10
0.0
 20
0.0
 30
0.0
  9
$USERI1
 70
     0
  9
$USERI2
 70
     0
  9
$USERI3
 70
     0
  9
$USERI4
 70
     0
  9
$USERI5
 70
     0
  9
$USERR1
 40
0.0
  9
$USERR2
 40
0.0
  9
$USERR3
 40
0.0
  9
$USERR4
 40
0.0
  9
$USERR5
 40
0.0
  9
$WORLDVIEW
 70
     1
  9
$SHADEDGE
 70
     3
  9
$SHADEDIF
 70
    70
  9
$TILEMODE
 70
     1
  9
$MAXACTVP
 70
    16
  9
$PINSBASE
 10
0.0
 20
0.0
 30
0.0
  9
$PLIMCHECK
 70
     0
  9
$PEXTMIN
 10
1.000000000000000E+20
 20
1.000000000000000E+20
 30
1.000000000000000E+20
  9
$PEXTMAX
 10
-1.000000000000000E+20
 20
-1.000000000000000E+20
 30
-1.000000000000000E+20
  9
$PLIMMIN
 10
0.0
 20
0.0
  9
$PLIMMAX
 10
12.0
 20
9.0
  9
$UNITMODE
 70
     0
  9
$VISRETAIN
 70
     0
  9
$PLINEGEN
 70
     0
  9
$PSLTSCALE
 70
     1
  9
$TREEDEPTH
 70
  3020
  9
$CMLSTYLE
  2
Standard
  9
$CMLJUST
 70
     0
  9
$CMLSCALE
 40
1.0
  9
$PROXYGRAPHICS
 70
     1
  9
$MEASUREMENT
 70
     0
  9
$CELWEIGHT
370
    -1
  9
$ENDCAPS
280
     0
  9
$JOINSTYLE
280
     0
  9
$LWDISPLAY
290
     0
  9
$INSUNITS
 70
     0
  9
$HYPERLINKBASE
  1

  9
$STYLESHEET
  1

  9
$XEDIT
290
     1
  9
$CEPSNTYPE
380
     0
  9
$PSTYLEMODE
290
     1
  9
$FINGERPRINTGUID
  2
{786A025C-5D8D-4EA3-BF0F-F2E6BC4571AC}
  9
$VERSIONGUID
  2
{1D90C363-9F50-4AEC-99AE-A6A0C20E8419}
  9
$EXTNAMES
290
     1
  9
$PSVPSCALE
 40
0.0
  9
$OLESTARTUP
290
     0
  0
ENDSEC
  0
SECTION
  2
CLASSES
  0
CLASS
  1
ACDBDICTIONARYWDFLT
  2
AcDbDictionaryWithDefault
  3
ObjectDBX Classes
 90
        0
280
     0
281
     0
  0
CLASS
  1
MATERIAL
  2
AcDbMaterial
  3
ObjectDBX Classes
 90
     1153
280
     0
281
     0
  0
CLASS
  1
VISUALSTYLE
  2
AcDbVisualStyle
  3
ObjectDBX Classes
 90
     4095
280
     0
281
     0
  0
CLASS
  1
SCALE
  2
AcDbScale
  3
ObjectDBX Classes
 90
     1153
280
     0
281
     0
  0
CLASS
  1
TABLESTYLE
  2
AcDbTableStyle
  3
ObjectDBX Classes
 90
     4095
280
     0
281
     0
  0
CLASS
  1
MLEADERSTYLE
  2
AcDbMLeaderStyle
  3
ACDB_MLEADERSTYLE_CLASS
 90
     4095
280
     0
281
     0
  0
CLASS
  1
ACDBSECTIONVIEWSTYLE
  2
AcDbSectionViewStyle
  3
ObjectDBX Classes
 90
     1025
280
     0
281
     0
  0
CLASS
  1
ACDBDETAILVIEWSTYLE
  2
AcDbDetailViewStyle
  3
ObjectDBX Classes
 90
     1025
280
     0
281
     0
  0
CLASS
  1
DICTIONARYVAR
  2
AcDbDictionaryVar
  3
ObjectDBX Classes
 90
        0
280
     0
281
     0
  0
CLASS
  1
CELLSTYLEMAP
  2
AcDbCellStyleMap
  3
ObjectDBX Classes
 90
     1152
280
     0
281
     0
  0
CLASS
  1
SORTENTSTABLE
  2
AcDbSortentsTable
  3
ObjectDBX Classes
 90
        0
280
     0
281
     0
  0
CLASS
  1
ACDBPLACEHOLDER
  2
AcDbPlaceHolder
  3
ObjectDBX Classes
 90
        0
280
     0
281
     0
  0
CLASS
  1
LAYOUT
  2
AcDbLayout
  3
ObjectDBX Classes
 90
        0
280
     0
281
     0
  0
ENDSEC
  0
SECTION
  2
TABLES
  0
TABLE
  2
VPORT
  5
83D9
330
0
100
AcDbSymbolTable
 70
     1
  0
VPORT
  5
8445
330
83D9
100
AcDbSymbolTableRecord
100
AcDbViewportTableRecord
  2
*ACTIVE
 70
     0
 10
0.0
 20
0.0
 11
1.0
 21
1.0
 12
4200.000019557773
 22
5900.000027474012
 13
0.0
 23
0.0
 14
10.0
 24
10.0
 15
10.0
 25
10.0
 16
0.0
 26
0.0
 36
1.0
 17
0.0
 27
0.0
 37
0.0
 40
11876.28512550527
 41
2.050213675213675
 42
50.0
 43
0.0
 44
0.0
 50
0.0
 51
0.0
 71
     0
 72
   100
 73
     1
 74
     0
 75
     0
 76
     0
 77
     0
 78
     0
281
     0
 65
     1
110
0.0
120
0.0
130
0.0
111
1.0
121
0.0
131
0.0
112
0.0
122
1.0
132
0.0
 79
     0
146
0.0
1001
ACAD_NAV_VCDISPLAY
1070
     3
  0
ENDTAB
  0
TABLE
  2
LTYPE
  5
83D6
330
0
100
AcDbSymbolTable
 70
     3
  0
LTYPE
  5
842B
330
83D6
100
AcDbSymbolTableRecord
100
AcDbLinetypeTableRecord
  2
ByBlock
 70
     0
  3

 72
    65
 73
     0
 40
0.0
  0
LTYPE
  5
842C
330
83D6
100
AcDbSymbolTableRecord
100
AcDbLinetypeTableRecord
  2
ByLayer
 70
     0
  3

 72
    65
 73
     0
 40
0.0
  0
LTYPE
  5
842D
330
83D6
100
AcDbSymbolTableRecord
100
AcDbLinetypeTableRecord
  2
CONTINUOUS
 70
     0
  3
Solid line
 72
    65
 73
     0
 40
0.0
  0
LTYPE
  5
8446
330
83D6
100
AcDbSymbolTableRecord
100
AcDbLinetypeTableRecord
  2
CENTER
 70
     0
  3
____ _ ____ _ ____ _ ____ _ ____ _ ____ _ ____ 
 72
    65
 73
     4
 40
2.0
 49
1.25
 74
     0
 49
-0.25
 74
     0
 49
0.25
 74
     0
 49
-0.25
 74
     0
  0
ENDTAB
  0
TABLE
  2
LAYER
  5
83D3
330
0
100
AcDbSymbolTable
 70
     6
  0
LAYER
  5
8425
102
{ACAD_XDICTIONARY
360
848A
102
}
330
83D3
100
AcDbSymbolTableRecord
100
AcDbLayerTableRecord
  2
0
 70
     0
 62
     7
  6
CONTINUOUS
370
    -3
390
83E0
  0
LAYER
  5
8444
102
{ACAD_XDICTIONARY
360
848C
102
}
330
83D3
100
AcDbSymbolTableRecord
100
AcDbLayerTableRecord
  2
3
 70
     0
 62
     2
  6
CONTINUOUS
370
    -3
390
83E0
  0
LAYER
  5
8447
102
{ACAD_XDICTIONARY
360
848E
102
}
330
83D3
100
AcDbSymbolTableRecord
100
AcDbLayerTableRecord
  2
2
 70
     0
 62
     3
  6
CENTER
370
    -3
390
83E0
  0
LAYER
  5
8448
102
{ACAD_XDICTIONARY
360
8490
102
}
330
83D3
100
AcDbSymbolTableRecord
100
AcDbLayerTableRecord
  2
1
 70
     0
 62
     4
  6
CONTINUOUS
370
    -3
390
83E0
  0
LAYER
  5
8449
102
{ACAD_XDICTIONARY
360
8492
102
}
330
83D3
100
AcDbSymbolTableRecord
100
AcDbLayerTableRecord
  2
4
 70
     0
 62
     7
  6
CONTINUOUS
370
    -3
390
83E0
  0
LAYER
  5
844A
330
83D3
100
AcDbSymbolTableRecord
100
AcDbLayerTableRecord
  2
DEFPOINTS
 70
     0
 62
     7
  6
CONTINUOUS
290
     0
370
    -3
390
83E0
  0
ENDTAB
  0
TABLE
  2
STYLE
  5
83D4
330
0
100
AcDbSymbolTable
 70
     2
  0
STYLE
  5
8426
330
83D4
100
AcDbSymbolTableRecord
100
AcDbTextStyleTableRecord
  2
STANDARD
 70
     0
 40
0.0
 41
1.0
 50
0.0
 71
     0
 42
180.0
  3
simplex.shx
  4
extfont.shx
  0
STYLE
  5
842A
330
83D4
100
AcDbSymbolTableRecord
100
AcDbTextStyleTableRecord
  2
Annotative
 70
     0
 40
0.0
 41
1.0
 50
0.0
 71
     0
 42
0.2
  3
txt
  4

1001
AcadAnnotative
1000
AnnotativeData
1002
{
1070
     1
1070
     1
1002
}
  0
ENDTAB
  0
TABLE
  2
VIEW
  5
83D7
330
0
100
AcDbSymbolTable
 70
     0
  0
ENDTAB
  0
TABLE
  2
UCS
  5
83D8
330
0
100
AcDbSymbolTable
 70
     0
  0
ENDTAB
  0
TABLE
  2
APPID
  5
83DA
330
0
100
AcDbSymbolTable
 70
     8
  0
APPID
  5
8427
330
83DA
100
AcDbSymbolTableRecord
100
AcDbRegAppTableRecord
  2
ACAD
 70
     0
  0
APPID
  5
842E
330
83DA
100
AcDbSymbolTableRecord
100
AcDbRegAppTableRecord
  2
AcadAnnotative
 70
     0
  0
APPID
  5
849E
330
83DA
100
AcDbSymbolTableRecord
100
AcDbRegAppTableRecord
  2
ACAD_NAV_VCDISPLAY
 70
     0
  0
APPID
  5
8561
330
83DA
100
AcDbSymbolTableRecord
100
AcDbRegAppTableRecord
  2
ACAD_DSTYLE_DIMJAG
 70
     0
  0
APPID
  5
8562
330
83DA
100
AcDbSymbolTableRecord
100
AcDbRegAppTableRecord
  2
ACAD_DSTYLE_DIMTALN
 70
     0
  0
APPID
  5
8593
330
83DA
100
AcDbSymbolTableRecord
100
AcDbRegAppTableRecord
  2
AcadAnnoMonitorAlertIconDisabled
 70
     0
  0
APPID
  5
8594
330
83DA
100
AcDbSymbolTableRecord
100
AcDbRegAppTableRecord
  2
ACAD_EXEMPT_FROM_CAD_STANDARDS
 70
     0
  0
APPID
  5
87F8
330
83DA
100
AcDbSymbolTableRecord
100
AcDbRegAppTableRecord
  2
ACAD_MLEADERVER
 70
     0
  0
ENDTAB
  0
TABLE
  2
DIMSTYLE
  5
83DB
330
0
100
AcDbSymbolTable
 70
     3
100
AcDbDimStyleTable
 71
     1
340
844B
  0
DIMSTYLE
105
8428
102
{ACAD_REACTORS
330
8214
102
}
330
83DB
100
AcDbSymbolTableRecord
100
AcDbDimStyleTableRecord
  2
Standard
 70
     0
340
8426
  0
DIMSTYLE
105
8429
330
83DB
100
AcDbSymbolTableRecord
100
AcDbDimStyleTableRecord
  2
Annotative
 70
     0
340
8426
1001
AcadAnnotative
1000
AnnotativeData
1002
{
1070
     1
1070
     1
1002
}
  0
DIMSTYLE
105
844B
102
{ACAD_REACTORS
330
8546
330
8553
330
8563
330
8586
330
85B1
330
85BE
330
85CB
330
85D8
330
85E5
330
85F2
330
85FF
330
860C
330
8619
330
8626
330
8633
330
8640
330
864D
330
8667
330
8674
330
8686
330
8698
330
86A5
102
}
330
83DB
100
AcDbSymbolTableRecord
100
AcDbDimStyleTableRecord
  2
IGA
 70
     0
 40
2.0
 41
2.0
 42
0.5
 43
10.0
 44
1.0
 47
1.0
 48
1.0
 73
     0
 74
     0
 77
     1
 78
     8
140
3.0
141
0.0
143
0.03937
146
10.0
147
1.0
173
     1
271
     3
272
     3
279
     2
284
     8
285
     8
286
     8
340
8426
  0
ENDTAB
  0
TABLE
  2
BLOCK_RECORD
  5
83D2
330
0
100
AcDbSymbolTable
 70
    61
  0
BLOCK_RECORD
  5
8440
102
{ACAD_XDICTIONARY
360
8583
102
}
330
83D2
100
AcDbSymbolTableRecord
100
AcDbBlockTableRecord
  2
*Model_Space
340
8443
  0
BLOCK_RECORD
  5
843C
330
83D2
100
AcDbSymbolTableRecord
100
AcDbBlockTableRecord
  2
*Paper_Space
340
843F
  0
BLOCK_RECORD
  5
844F
330
83D2
100
AcDbSymbolTableRecord
100
AcDbBlockTableRecord
  2
$MODEL_SPACE
340
0
  0
BLOCK_RECORD
  5
8451
330
83D2
100
AcDbSymbolTableRecord
100
AcDbBlockTableRecord
  2
$PAPER_SPACE
340
0
  0
BLOCK_RECORD
  5
8453
330
83D2
100
AcDbSymbolTableRecord
100
AcDbBlockTableRecord
  2
YA_N
340
0
102
{BLKREFS
331
7C0C
331
7C28
331
7C29
331
7C4E
331
7C8E
331
7CA1
331
7CC7
331
7CDE
102
}
  0
BLOCK_RECORD
  5
8455
330
83D2
100
AcDbSymbolTableRecord
100
AcDbBlockTableRecord
  2
*D3
340
0
  0
BLOCK_RECORD
  5
8457
330
83D2
100
AcDbSymbolTableRecord
100
AcDbBlockTableRecord
  2
_OPEN
340
0
102
{BLKREFS
331
8365
331
8366
331
836E
331
836F
331
87BC
331
8377
331
8762
331
8378
331
86EE
331
86EF
331
832F
331
8330
331
8338
331
8339
331
8341
331
8342
331
834A
331
834B
331
8353
331
8354
331
835C
331
835D
331
8380
331
8381
331
869F
331
86A0
331
8389
331
838A
331
8613
331
8614
331
8620
331
8621
331
862D
331
862E
331
863A
331
863B
331
8647
331
8648
331
8654
331
8655
331
8661
331
8662
331
866E
331
866F
331
8392
331
8393
331
85AB
331
85AC
331
85B8
331
85B9
331
85C5
331
85C6
331
85D2
331
85D3
331
85DF
331
85E0
331
85EC
331
85ED
331
85F9
331
85FA
331
8606
331
8607
331
839B
331
839C
331
83A4
331
83A5
331
856A
331
856B
331
8573
331
8574
331
85A2
331
85A3
331
81C8
331
81C9
331
820D
331
820E
331
8247
331
8248
331
83B0
331
83B8
331
83B9
331
81A1
331
81A2
331
81AE
331
81AF
331
81BB
331
81BC
102
}
  0
BLOCK_RECORD
  5
8458
330
83D2
100
AcDbSymbolTableRecord
100
AcDbBlockTableRecord
  2
*D5
340
0
  0
BLOCK_RECORD
  5
845A
330
83D2
100
AcDbSymbolTableRecord
100
AcDbBlockTableRecord
  2
*D6
340
0
  0
BLOCK_RECORD
  5
845C
330
83D2
100
AcDbSymbolTableRecord
100
AcDbBlockTableRecord
  2
*D7
340
0
  0
BLOCK_RECORD
  5
845E
330
83D2
100
AcDbSymbolTableRecord
100
AcDbBlockTableRecord
  2
*D8
340
0
  0
BLOCK_RECORD
  5
8460
330
83D2
100
AcDbSymbolTableRecord
100
AcDbBlockTableRecord
  2
*D9
340
0
  0
BLOCK_RECORD
  5
8462
330
83D2
100
AcDbSymbolTableRecord
100
AcDbBlockTableRecord
  2
*D10
340
0
  0
BLOCK_RECORD
  5
8464
330
83D2
100
AcDbSymbolTableRecord
100
AcDbBlockTableRecord
  2
*D11
340
0
  0
BLOCK_RECORD
  5
8466
330
83D2
100
AcDbSymbolTableRecord
100
AcDbBlockTableRecord
  2
*D12
340
0
  0
BLOCK_RECORD
  5
8468
330
83D2
100
AcDbSymbolTableRecord
100
AcDbBlockTableRecord
  2
*D13
340
0
  0
BLOCK_RECORD
  5
846A
330
83D2
100
AcDbSymbolTableRecord
100
AcDbBlockTableRecord
  2
*D14
340
0
  0
BLOCK_RECORD
  5
846C
330
83D2
100
AcDbSymbolTableRecord
100
AcDbBlockTableRecord
  2
*D15
340
0
  0
BLOCK_RECORD
  5
846E
330
83D2
100
AcDbSymbolTableRecord
100
AcDbBlockTableRecord
  2
*D16
340
0
  0
BLOCK_RECORD
  5
8470
330
83D2
100
AcDbSymbolTableRecord
100
AcDbBlockTableRecord
  2
*D17
340
0
  0
BLOCK_RECORD
  5
8473
330
83D2
100
AcDbSymbolTableRecord
100
AcDbBlockTableRecord
  2
*D18
340
0
  0
BLOCK_RECORD
  5
8475
330
83D2
100
AcDbSymbolTableRecord
100
AcDbBlockTableRecord
  2
_DOT
340
0
102
{BLKREFS
331
83AF
102
}
  0
BLOCK_RECORD
  5
8476
330
83D2
100
AcDbSymbolTableRecord
100
AcDbBlockTableRecord
  2
*D20
340
0
  0
BLOCK_RECORD
  5
8479
330
83D2
100
AcDbSymbolTableRecord
100
AcDbBlockTableRecord
  2
*D21
340
0
  0
BLOCK_RECORD
  5
847B
330
83D2
100
AcDbSymbolTableRecord
100
AcDbBlockTableRecord
  2
*D22
340
0
  0
BLOCK_RECORD
  5
847D
330
83D2
100
AcDbSymbolTableRecord
100
AcDbBlockTableRecord
  2
*D23
340
0
  0
BLOCK_RECORD
  5
847F
330
83D2
100
AcDbSymbolTableRecord
100
AcDbBlockTableRecord
  2
*D24
340
0
  0
BLOCK_RECORD
  5
8481
330
83D2
100
AcDbSymbolTableRecord
100
AcDbBlockTableRecord
  2
_NONE
340
0
  0
BLOCK_RECORD
  5
8483
330
83D2
100
AcDbSymbolTableRecord
100
AcDbBlockTableRecord
  2
*D26
340
0
  0
BLOCK_RECORD
  5
8485
330
83D2
100
AcDbSymbolTableRecord
100
AcDbBlockTableRecord
  2
*D27
340
0
  0
BLOCK_RECORD
  5
8487
330
83D2
100
AcDbSymbolTableRecord
100
AcDbBlockTableRecord
  2
*D28
340
0
  0
BLOCK_RECORD
  5
84E0
330
83D2
100
AcDbSymbolTableRecord
100
AcDbBlockTableRecord
  2
*D29
340
0
  0
BLOCK_RECORD
  5
84ED
330
83D2
100
AcDbSymbolTableRecord
100
AcDbBlockTableRecord
  2
*D30
340
0
  0
BLOCK_RECORD
  5
84FA
330
83D2
100
AcDbSymbolTableRecord
100
AcDbBlockTableRecord
  2
*D31
340
0
  0
BLOCK_RECORD
  5
8507
330
83D2
100
AcDbSymbolTableRecord
100
AcDbBlockTableRecord
  2
*D32
340
0
  0
BLOCK_RECORD
  5
8514
330
83D2
100
AcDbSymbolTableRecord
100
AcDbBlockTableRecord
  2
*D33
340
0
  0
BLOCK_RECORD
  5
8521
330
83D2
100
AcDbSymbolTableRecord
100
AcDbBlockTableRecord
  2
*D34
340
0
  0
BLOCK_RECORD
  5
852E
330
83D2
100
AcDbSymbolTableRecord
100
AcDbBlockTableRecord
  2
*D35
340
0
  0
BLOCK_RECORD
  5
8539
330
83D2
100
AcDbSymbolTableRecord
100
AcDbBlockTableRecord
  2
*D36
340
0
  0
BLOCK_RECORD
  5
8547
330
83D2
100
AcDbSymbolTableRecord
100
AcDbBlockTableRecord
  2
*D37
340
0
  0
BLOCK_RECORD
  5
8554
330
83D2
100
AcDbSymbolTableRecord
100
AcDbBlockTableRecord
  2
*D38
340
0
  0
BLOCK_RECORD
  5
8564
330
83D2
100
AcDbSymbolTableRecord
100
AcDbBlockTableRecord
  2
*D39
340
0
  0
BLOCK_RECORD
  5
8587
330
83D2
100
AcDbSymbolTableRecord
100
AcDbBlockTableRecord
  2
*D40
340
0
  0
BLOCK_RECORD
  5
85B2
330
83D2
100
AcDbSymbolTableRecord
100
AcDbBlockTableRecord
  2
*D41
340
0
  0
BLOCK_RECORD
  5
85BF
330
83D2
100
AcDbSymbolTableRecord
100
AcDbBlockTableRecord
  2
*D42
340
0
  0
BLOCK_RECORD
  5
85CC
330
83D2
100
AcDbSymbolTableRecord
100
AcDbBlockTableRecord
  2
*D43
340
0
  0
BLOCK_RECORD
  5
85D9
330
83D2
100
AcDbSymbolTableRecord
100
AcDbBlockTableRecord
  2
*D44
340
0
  0
BLOCK_RECORD
  5
85E6
330
83D2
100
AcDbSymbolTableRecord
100
AcDbBlockTableRecord
  2
*D45
340
0
  0
BLOCK_RECORD
  5
85F3
330
83D2
100
AcDbSymbolTableRecord
100
AcDbBlockTableRecord
  2
*D46
340
0
  0
BLOCK_RECORD
  5
8600
330
83D2
100
AcDbSymbolTableRecord
100
AcDbBlockTableRecord
  2
*D47
340
0
  0
BLOCK_RECORD
  5
860D
330
83D2
100
AcDbSymbolTableRecord
100
AcDbBlockTableRecord
  2
*D48
340
0
  0
BLOCK_RECORD
  5
861A
330
83D2
100
AcDbSymbolTableRecord
100
AcDbBlockTableRecord
  2
*D49
340
0
  0
BLOCK_RECORD
  5
8627
330
83D2
100
AcDbSymbolTableRecord
100
AcDbBlockTableRecord
  2
*D50
340
0
  0
BLOCK_RECORD
  5
8634
330
83D2
100
AcDbSymbolTableRecord
100
AcDbBlockTableRecord
  2
*D51
340
0
  0
BLOCK_RECORD
  5
8641
330
83D2
100
AcDbSymbolTableRecord
100
AcDbBlockTableRecord
  2
*D52
340
0
  0
BLOCK_RECORD
  5
864E
330
83D2
100
AcDbSymbolTableRecord
100
AcDbBlockTableRecord
  2
*D53
340
0
  0
BLOCK_RECORD
  5
865B
330
83D2
100
AcDbSymbolTableRecord
100
AcDbBlockTableRecord
  2
*D54
340
0
  0
BLOCK_RECORD
  5
8668
330
83D2
100
AcDbSymbolTableRecord
100
AcDbBlockTableRecord
  2
*D55
340
0
  0
BLOCK_RECORD
  5
8675
330
83D2
100
AcDbSymbolTableRecord
100
AcDbBlockTableRecord
  2
*D56
340
0
  0
BLOCK_RECORD
  5
8687
330
83D2
100
AcDbSymbolTableRecord
100
AcDbBlockTableRecord
  2
*D57
340
0
  0
BLOCK_RECORD
  5
8699
330
83D2
100
AcDbSymbolTableRecord
100
AcDbBlockTableRecord
  2
*D58
340
0
  0
BLOCK_RECORD
  5
86A6
330
83D2
100
AcDbSymbolTableRecord
100
AcDbBlockTableRecord
  2
*D59
340
0
  0
BLOCK_RECORD
  5
8755
330
83D2
100
AcDbSymbolTableRecord
100
AcDbBlockTableRecord
  2
_DotSmall
340
0
102
{BLKREFS
331
87BB
331
8763
102
}
  0
ENDTAB
  0
ENDSEC
  0
SECTION
  2
BLOCKS
  0
BLOCK
  5
8441
330
8440
100
AcDbEntity
  8
0
100
AcDbBlockBegin
  2
*Model_Space
 70
     0
 10
0.0
 20
0.0
 30
0.0
  3
*Model_Space
  1

  0
ENDBLK
  5
8442
330
8440
100
AcDbEntity
  8
0
100
AcDbBlockEnd
  0
BLOCK
  5
843D
330
843C
100
AcDbEntity
 67
     1
  8
0
100
AcDbBlockBegin
  2
*Paper_Space
 70
     0
 10
0.0
 20
0.0
 30
0.0
  3
*Paper_Space
  1

  0
ENDBLK
  5
843E
330
843C
100
AcDbEntity
 67
     1
  8
0
100
AcDbBlockEnd
  0
BLOCK
  5
8450
330
844F
100
AcDbEntity
  8
0
100
AcDbBlockBegin
  2
$MODEL_SPACE
 70
     0
 10
0.0
 20
0.0
 30
0.0
  3
$MODEL_SPACE
  1

  0
ENDBLK
  5
1B
330
844F
100
AcDbEntity
  8
0
100
AcDbBlockEnd
  0
BLOCK
  5
8452
330
8451
100
AcDbEntity
  8
0
100
AcDbBlockBegin
  2
$PAPER_SPACE
 70
     0
 10
0.0
 20
0.0
 30
0.0
  3
$PAPER_SPACE
  1

  0
ENDBLK
  5
18
330
8451
100
AcDbEntity
  8
0
100
AcDbBlockEnd
  0
BLOCK
  5
8454
330
8453
100
AcDbEntity
  8
0
100
AcDbBlockBegin
  2
YA_N
 70
     0
 10
0.0
 20
0.0
 30
0.0
  3
YA_N
  1

  0
ENDBLK
  5
79FE
330
8453
100
AcDbEntity
  8
0
100
AcDbBlockEnd
  0
BLOCK
  5
8456
330
8455
100
AcDbEntity
  8
0
100
AcDbBlockBegin
  2
*D3
 70
     1
 10
0.0
 20
0.0
 30
0.0
  3
*D3
  1

  0
LINE
  5
832C
330
8455
100
AcDbEntity
  8
3
 62
     0
100
AcDbLine
 10
5531.407928765325
 20
5310.856382047695
 30
0.0
 11
5531.407928765325
 21
5579.256168514262
 31
0.0
  0
LINE
  5
832D
330
8455
100
AcDbEntity
  8
3
 62
     0
100
AcDbLine
 10
7231.407928765325
 20
5310.856382047695
 30
0.0
 11
7231.407928765325
 21
5579.256168514262
 31
0.0
  0
LINE
  5
832E
330
8455
100
AcDbEntity
  8
3
 62
     0
100
AcDbLine
 10
5611.407928765326
 20
5539.256168514262
 30
0.0
 11
7151.407928765326
 21
5539.256168514262
 31
0.0
  0
INSERT
  5
832F
330
8455
100
AcDbEntity
  8
3
 62
     0
100
AcDbBlockReference
  2
_OPEN
 10
5531.407928765325
 20
5539.256168514262
 30
0.0
 41
80.0
 42
80.0
 43
80.0
 50
180.0
  0
INSERT
  5
8330
330
8455
100
AcDbEntity
  8
3
 62
     0
100
AcDbBlockReference
  2
_OPEN
 10
7231.407928765325
 20
5539.256168514262
 30
0.0
 41
80.0
 42
80.0
 43
80.0
  0
TEXT
  5
83C1
330
8455
100
AcDbEntity
  8
3
 62
     0
100
AcDbText
 10
6141.41
 20
5426.86
 30
0.0
 40
120.0
  1
1700
100
AcDbText
  0
POINT
  5
8332
330
8455
100
AcDbEntity
  8
DEFPOINTS
 62
     0
100
AcDbPoint
 10
5531.407928765325
 20
5290.856382047696
 30
0.0
  0
POINT
  5
8333
330
8455
100
AcDbEntity
  8
DEFPOINTS
 62
     0
100
AcDbPoint
 10
7231.407928765325
 20
5290.856382047696
 30
0.0
  0
POINT
  5
8334
330
8455
100
AcDbEntity
  8
DEFPOINTS
 62
     0
100
AcDbPoint
 10
7231.407928765325
 20
5539.256168514262
 30
0.0
  0
ENDBLK
  5
8046
330
8455
100
AcDbEntity
  8
0
100
AcDbBlockEnd
  0
BLOCK
  5
8472
330
8457
100
AcDbEntity
  8
0
100
AcDbBlockBegin
  2
_OPEN
 70
     0
 10
0.0
 20
0.0
 30
0.0
  3
_OPEN
  1

  0
LINE
  5
7EFD
330
8457
100
AcDbEntity
  8
0
  6
ByBlock
 62
     0
100
AcDbLine
 10
-1.0
 20
0.1666666666666666
 30
0.0
 11
0.0
 21
0.0
 31
0.0
  0
LINE
  5
7EFE
330
8457
100
AcDbEntity
  8
0
  6
ByBlock
 62
     0
100
AcDbLine
 10
0.0
 20
0.0
 30
0.0
 11
-1.0
 21
-0.1666666666666666
 31
0.0
  0
LINE
  5
7EFF
330
8457
100
AcDbEntity
  8
0
  6
ByBlock
 62
     0
100
AcDbLine
 10
0.0
 20
0.0
 30
0.0
 11
-1.0
 21
0.0
 31
0.0
  0
ENDBLK
  5
7F00
330
8457
100
AcDbEntity
  8
0
100
AcDbBlockEnd
  0
BLOCK
  5
8459
330
8458
100
AcDbEntity
  8
0
100
AcDbBlockBegin
  2
*D5
 70
     1
 10
0.0
 20
0.0
 30
0.0
  3
*D5
  1

  0
LINE
  5
8335
330
8458
100
AcDbEntity
  8
3
 62
     0
100
AcDbLine
 10
5146.407928765327
 20
4669.935954207627
 30
0.0
 11
5146.407928765327
 21
5861.298092940816
 31
0.0
  0
LINE
  5
8336
330
8458
100
AcDbEntity
  8
3
 62
     0
100
AcDbLine
 10
6381.407928765326
 20
5742.787629067658
 30
0.0
 11
6381.407928765326
 21
5861.298092940816
 31
0.0
  0
LINE
  5
8337
330
8458
100
AcDbEntity
  8
3
 62
     0
100
AcDbLine
 10
5226.407928765326
 20
5821.298092940816
 30
0.0
 11
6301.407928765326
 21
5821.298092940816
 31
0.0
  0
INSERT
  5
8338
330
8458
100
AcDbEntity
  8
3
 62
     0
100
AcDbBlockReference
  2
_OPEN
 10
5146.407928765327
 20
5821.298092940816
 30
0.0
 41
80.0
 42
80.0
 43
80.0
 50
180.0
  0
INSERT
  5
8339
330
8458
100
AcDbEntity
  8
3
 62
     0
100
AcDbBlockReference
  2
_OPEN
 10
6381.407928765326
 20
5821.298092940816
 30
0.0
 41
80.0
 42
80.0
 43
80.0
  0
TEXT
  5
83C2
330
8458
100
AcDbEntity
  8
3
 62
     0
100
AcDbText
 10
5523.91
 20
5808.9
 30
0.0
 40
120.0
  1
MAX
100
AcDbText
  0
TEXT
  5
83C3
330
8458
100
AcDbEntity
  8
3
 62
     0
100
AcDbText
 10
5523.91
 20
5652.899999999999
 30
0.0
 40
120.0
  1
1280
100
AcDbText
  0
POINT
  5
833B
330
8458
100
AcDbEntity
  8
DEFPOINTS
 62
     0
100
AcDbPoint
 10
5146.407928765327
 20
4649.935954207625
 30
0.0
  0
POINT
  5
833C
330
8458
100
AcDbEntity
  8
DEFPOINTS
 62
     0
100
AcDbPoint
 10
6381.407928765326
 20
5722.787629067657
 30
0.0
  0
POINT
  5
833D
330
8458
100
AcDbEntity
  8
DEFPOINTS
 62
     0
100
AcDbPoint
 10
6381.407928765326
 20
5821.298092940816
 30
0.0
  0
ENDBLK
  5
8174
330
8458
100
AcDbEntity
  8
0
100
AcDbBlockEnd
  0
BLOCK
  5
845B
330
845A
100
AcDbEntity
  8
0
100
AcDbBlockBegin
  2
*D6
 70
     1
 10
0.0
 20
0.0
 30
0.0
  3
*D6
  1

  0
LINE
  5
833E
330
845A
100
AcDbEntity
  8
3
 62
     0
100
AcDbLine
 10
6381.407928765326
 20
5742.787629067658
 30
0.0
 11
6381.407928765326
 21
5860.910505835629
 31
0.0
  0
LINE
  5
833F
330
845A
100
AcDbEntity
  8
3
 62
     0
100
AcDbLine
 10
7391.407928765325
 20
4285.273885309893
 30
0.0
 11
7391.407928765325
 21
5860.910505835629
 31
0.0
  0
LINE
  5
8340
330
845A
100
AcDbEntity
  8
3
 62
     0
100
AcDbLine
 10
6461.407928765325
 20
5820.910505835629
 30
0.0
 11
7311.407928765325
 21
5820.910505835629
 31
0.0
  0
INSERT
  5
8341
330
845A
100
AcDbEntity
  8
3
 62
     0
100
AcDbBlockReference
  2
_OPEN
 10
6381.407928765326
 20
5820.910505835629
 30
0.0
 41
80.0
 42
80.0
 43
80.0
 50
180.0
  0
INSERT
  5
8342
330
845A
100
AcDbEntity
  8
3
 62
     0
100
AcDbBlockReference
  2
_OPEN
 10
7391.407928765325
 20
5820.910505835629
 30
0.0
 41
80.0
 42
80.0
 43
80.0
  0
TEXT
  5
83C4
330
845A
100
AcDbEntity
  8
3
 62
     0
100
AcDbText
 10
6646.41
 20
5739.94
 30
0.0
 40
120.0
  1
(1020)
100
AcDbText
  0
POINT
  5
8344
330
845A
100
AcDbEntity
  8
DEFPOINTS
 62
     0
100
AcDbPoint
 10
6381.407928765326
 20
5722.787629067657
 30
0.0
  0
POINT
  5
8345
330
845A
100
AcDbEntity
  8
DEFPOINTS
 62
     0
100
AcDbPoint
 10
7391.407928765325
 20
4265.273885309894
 30
0.0
  0
POINT
  5
8346
330
845A
100
AcDbEntity
  8
DEFPOINTS
 62
     0
100
AcDbPoint
 10
7391.407928765325
 20
5820.910505835629
 30
0.0
  0
ENDBLK
  5
817F
330
845A
100
AcDbEntity
  8
0
100
AcDbBlockEnd
  0
BLOCK
  5
845D
330
845C
100
AcDbEntity
  8
0
100
AcDbBlockBegin
  2
*D7
 70
     1
 10
0.0
 20
0.0
 30
0.0
  3
*D7
  1

  0
LINE
  5
8347
330
845C
100
AcDbEntity
  8
3
 62
     0
100
AcDbLine
 10
7253.707928765328
 20
4994.935954207627
 30
0.0
 11
7682.67755367783
 21
4994.935954207627
 31
0.0
  0
LINE
  5
8348
330
845C
100
AcDbEntity
  8
3
 62
     0
100
AcDbLine
 10
7253.707928765328
 20
3744.935954207626
 30
0.0
 11
7682.67755367783
 21
3744.935954207626
 31
0.0
  0
LINE
  5
8349
330
845C
100
AcDbEntity
  8
3
 62
     0
100
AcDbLine
 10
7642.677553677827
 20
4914.935954207628
 30
0.0
 11
7642.677553677827
 21
3824.935954207626
 31
0.0
  0
INSERT
  5
834A
330
845C
100
AcDbEntity
  8
3
 62
     0
100
AcDbBlockReference
  2
_OPEN
 10
7642.677553677827
 20
4994.935954207627
 30
0.0
 41
80.0
 42
80.0
 43
80.0
 50
90.0
  0
INSERT
  5
834B
330
845C
100
AcDbEntity
  8
3
 62
     0
100
AcDbBlockReference
  2
_OPEN
 10
7642.677553677827
 20
3744.935954207626
 30
0.0
 41
80.0
 42
80.0
 43
80.0
 50
270.0
  0
TEXT
  5
83C5
330
845C
100
AcDbEntity
  8
3
 62
     0
100
AcDbText
 10
7302.680000000001
 20
4157.54
 30
0.0
 40
120.0
  1
\U+03C61250
100
AcDbText
  0
POINT
  5
834D
330
845C
100
AcDbEntity
  8
DEFPOINTS
 62
     0
100
AcDbPoint
 10
7233.707928765326
 20
4994.935954207627
 30
0.0
  0
POINT
  5
834E
330
845C
100
AcDbEntity
  8
DEFPOINTS
 62
     0
100
AcDbPoint
 10
7233.707928765326
 20
3744.935954207626
 30
0.0
  0
POINT
  5
834F
330
845C
100
AcDbEntity
  8
DEFPOINTS
 62
     0
100
AcDbPoint
 10
7642.677553677827
 20
3744.935954207626
 30
0.0
  0
ENDBLK
  5
8025
330
845C
100
AcDbEntity
  8
0
100
AcDbBlockEnd
  0
BLOCK
  5
845F
330
845E
100
AcDbEntity
  8
0
100
AcDbBlockBegin
  2
*D8
 70
     1
 10
0.0
 20
0.0
 30
0.0
  3
*D8
  1

  0
LINE
  5
8350
330
845E
100
AcDbEntity
  8
3
 62
     0
100
AcDbLine
 10
2006.831659683934
 20
8875.623467839007
 30
0.0
 11
1537.8155184481
 21
8875.623467839007
 31
0.0
  0
LINE
  5
8351
330
845E
100
AcDbEntity
  8
3
 62
     0
100
AcDbLine
 10
2006.831659683934
 20
6755.623467839007
 30
0.0
 11
1537.8155184481
 21
6755.623467839007
 31
0.0
  0
LINE
  5
8352
330
845E
100
AcDbEntity
  8
3
 62
     0
100
AcDbLine
 10
1577.8155184481
 20
8795.623467839005
 30
0.0
 11
1577.8155184481
 21
6835.623467839008
 31
0.0
  0
INSERT
  5
8353
330
845E
100
AcDbEntity
  8
3
 62
     0
100
AcDbBlockReference
  2
_OPEN
 10
1577.8155184481
 20
8875.623467839007
 30
0.0
 41
80.0
 42
80.0
 43
80.0
 50
90.0
  0
INSERT
  5
8354
330
845E
100
AcDbEntity
  8
3
 62
     0
100
AcDbBlockReference
  2
_OPEN
 10
1577.8155184481
 20
6755.623467839007
 30
0.0
 41
80.0
 42
80.0
 43
80.0
 50
270.0
  0
TEXT
  5
83C6
330
845E
100
AcDbEntity
  8
3
 62
     0
100
AcDbText
 10
1237.82
 20
7603.22
 30
0.0
 40
120.0
  1
2120
100
AcDbText
  0
POINT
  5
8356
330
845E
100
AcDbEntity
  8
DEFPOINTS
 62
     0
100
AcDbPoint
 10
2026.831659683934
 20
8875.623467839007
 30
0.0
  0
POINT
  5
8357
330
845E
100
AcDbEntity
  8
DEFPOINTS
 62
     0
100
AcDbPoint
 10
2026.831659683934
 20
6755.623467839007
 30
0.0
  0
POINT
  5
8358
330
845E
100
AcDbEntity
  8
DEFPOINTS
 62
     0
100
AcDbPoint
 10
1577.8155184481
 20
6755.623467839007
 30
0.0
  0
ENDBLK
  5
7FF9
330
845E
100
AcDbEntity
  8
0
100
AcDbBlockEnd
  0
BLOCK
  5
8461
330
8460
100
AcDbEntity
  8
0
100
AcDbBlockBegin
  2
*D9
 70
     1
 10
0.0
 20
0.0
 30
0.0
  3
*D9
  1

  0
LINE
  5
8359
330
8460
100
AcDbEntity
  8
3
 62
     0
100
AcDbLine
 10
2026.831659683934
 20
8895.623467839007
 30
0.0
 11
2026.831659683934
 21
9120.259606344193
 31
0.0
  0
LINE
  5
835A
330
8460
100
AcDbEntity
  8
3
 62
     0
100
AcDbLine
 10
3526.831659683934
 20
8895.623467839008
 30
0.0
 11
3526.831659683934
 21
9120.259606344193
 31
0.0
  0
LINE
  5
835B
330
8460
100
AcDbEntity
  8
3
 62
     0
100
AcDbLine
 10
2106.831659683934
 20
9080.259606344192
 30
0.0
 11
3446.831659683934
 21
9080.259606344192
 31
0.0
  0
INSERT
  5
835C
330
8460
100
AcDbEntity
  8
3
 62
     0
100
AcDbBlockReference
  2
_OPEN
 10
2026.831659683934
 20
9080.259606344192
 30
0.0
 41
80.0
 42
80.0
 43
80.0
 50
180.0
  0
INSERT
  5
835D
330
8460
100
AcDbEntity
  8
3
 62
     0
100
AcDbBlockReference
  2
_OPEN
 10
3526.831659683934
 20
9080.259606344192
 30
0.0
 41
80.0
 42
80.0
 43
80.0
  0
TEXT
  5
83C7
330
8460
100
AcDbEntity
  8
3
 62
     0
100
AcDbText
 10
2536.83
 20
8967.859999999999
 30
0.0
 40
120.0
  1
1500
100
AcDbText
  0
POINT
  5
835F
330
8460
100
AcDbEntity
  8
DEFPOINTS
 62
     0
100
AcDbPoint
 10
2026.831659683934
 20
8875.623467839007
 30
0.0
  0
POINT
  5
8360
330
8460
100
AcDbEntity
  8
DEFPOINTS
 62
     0
100
AcDbPoint
 10
3526.831659683934
 20
8875.623467839009
 30
0.0
  0
POINT
  5
8361
330
8460
100
AcDbEntity
  8
DEFPOINTS
 62
     0
100
AcDbPoint
 10
3526.831659683934
 20
9080.259606344192
 30
0.0
  0
ENDBLK
  5
7FEE
330
8460
100
AcDbEntity
  8
0
100
AcDbBlockEnd
  0
BLOCK
  5
8463
330
8462
100
AcDbEntity
  8
0
100
AcDbBlockBegin
  2
*D10
 70
     1
 10
0.0
 20
0.0
 30
0.0
  3
*D10
  1

  0
LINE
  5
8362
330
8462
100
AcDbEntity
  8
3
 62
     0
100
AcDbLine
 10
3526.831659683934
 20
8895.623467839008
 30
0.0
 11
3526.831659683934
 21
9120.259606344193
 31
0.0
  0
LINE
  5
8363
330
8462
100
AcDbEntity
  8
3
 62
     0
100
AcDbLine
 10
4476.831659683933
 20
7775.623467839007
 30
0.0
 11
4476.831659683933
 21
9120.259606344193
 31
0.0
  0
LINE
  5
8364
330
8462
100
AcDbEntity
  8
3
 62
     0
100
AcDbLine
 10
3606.831659683933
 20
9080.259606344192
 30
0.0
 11
4396.831659683934
 21
9080.259606344192
 31
0.0
  0
INSERT
  5
8365
330
8462
100
AcDbEntity
  8
3
 62
     0
100
AcDbBlockReference
  2
_OPEN
 10
3526.831659683934
 20
9080.259606344192
 30
0.0
 41
80.0
 42
80.0
 43
80.0
 50
180.0
  0
INSERT
  5
8366
330
8462
100
AcDbEntity
  8
3
 62
     0
100
AcDbBlockReference
  2
_OPEN
 10
4476.831659683933
 20
9080.259606344192
 30
0.0
 41
80.0
 42
80.0
 43
80.0
  0
TEXT
  5
83C8
330
8462
100
AcDbEntity
  8
3
 62
     0
100
AcDbText
 10
3761.83
 20
8967.859999999999
 30
0.0
 40
120.0
  1
950
100
AcDbText
  0
POINT
  5
8368
330
8462
100
AcDbEntity
  8
DEFPOINTS
 62
     0
100
AcDbPoint
 10
3526.831659683934
 20
8875.623467839009
 30
0.0
  0
POINT
  5
8369
330
8462
100
AcDbEntity
  8
DEFPOINTS
 62
     0
100
AcDbPoint
 10
4476.831659683933
 20
7755.623467839007
 30
0.0
  0
POINT
  5
836A
330
8462
100
AcDbEntity
  8
DEFPOINTS
 62
     0
100
AcDbPoint
 10
4476.831659683933
 20
9080.259606344192
 30
0.0
  0
ENDBLK
  5
7FE3
330
8462
100
AcDbEntity
  8
0
100
AcDbBlockEnd
  0
BLOCK
  5
8465
330
8464
100
AcDbEntity
  8
0
100
AcDbBlockBegin
  2
*D11
 70
     1
 10
0.0
 20
0.0
 30
0.0
  3
*D11
  1

  0
LINE
  5
836B
330
8464
100
AcDbEntity
  8
3
 62
     0
100
AcDbLine
 10
4496.831659683934
 20
7755.623467839007
 30
0.0
 11
4783.158060791513
 21
7755.623467839007
 31
0.0
  0
LINE
  5
836C
330
8464
100
AcDbEntity
  8
3
 62
     0
100
AcDbLine
 10
4496.831659683934
 20
6755.623467839007
 30
0.0
 11
4783.158060791513
 21
6755.623467839007
 31
0.0
  0
LINE
  5
836D
330
8464
100
AcDbEntity
  8
3
 62
     0
100
AcDbLine
 10
4743.158060791513
 20
7675.62346783901
 30
0.0
 11
4743.158060791513
 21
6835.623467839008
 31
0.0
  0
INSERT
  5
836E
330
8464
100
AcDbEntity
  8
3
 62
     0
100
AcDbBlockReference
  2
_OPEN
 10
4743.158060791513
 20
7755.623467839007
 30
0.0
 41
80.0
 42
80.0
 43
80.0
 50
90.0
  0
INSERT
  5
836F
330
8464
100
AcDbEntity
  8
3
 62
     0
100
AcDbBlockReference
  2
_OPEN
 10
4743.158060791513
 20
6755.623467839007
 30
0.0
 41
80.0
 42
80.0
 43
80.0
 50
270.0
  0
TEXT
  5
83C9
330
8464
100
AcDbEntity
  8
3
 62
     0
100
AcDbText
 10
4403.159999999999
 20
7043.220000000001
 30
0.0
 40
120.0
  1
1000
100
AcDbText
  0
POINT
  5
8371
330
8464
100
AcDbEntity
  8
DEFPOINTS
 62
     0
100
AcDbPoint
 10
4476.831659683933
 20
7755.623467839007
 30
0.0
  0
POINT
  5
8372
330
8464
100
AcDbEntity
  8
DEFPOINTS
 62
     0
100
AcDbPoint
 10
4476.831659683933
 20
6755.623467839007
 30
0.0
  0
POINT
  5
8373
330
8464
100
AcDbEntity
  8
DEFPOINTS
 62
     0
100
AcDbPoint
 10
4743.158060791513
 20
6755.623467839007
 30
0.0
  0
ENDBLK
  5
7FD8
330
8464
100
AcDbEntity
  8
0
100
AcDbBlockEnd
  0
BLOCK
  5
8467
330
8466
100
AcDbEntity
  8
0
100
AcDbBlockBegin
  2
*D12
 70
     1
 10
0.0
 20
0.0
 30
0.0
  3
*D12
  1

  0
LINE
  5
8374
330
8466
100
AcDbEntity
  8
3
 62
     0
100
AcDbLine
 10
4476.831659683933
 20
6735.623467839008
 30
0.0
 11
4476.831659683933
 21
6350.869589649356
 31
0.0
  0
LINE
  5
8375
330
8466
100
AcDbEntity
  8
3
 62
     0
100
AcDbLine
 10
2026.831659683934
 20
6735.623467839008
 30
0.0
 11
2026.831659683934
 21
6350.869589649356
 31
0.0
  0
LINE
  5
8376
330
8466
100
AcDbEntity
  8
3
 62
     0
100
AcDbLine
 10
4396.831659683934
 20
6390.869589649355
 30
0.0
 11
2106.831659683934
 21
6390.869589649355
 31
0.0
  0
INSERT
  5
8377
330
8466
100
AcDbEntity
  8
3
 62
     0
100
AcDbBlockReference
  2
_OPEN
 10
4476.831659683933
 20
6390.869589649355
 30
0.0
 41
80.0
 42
80.0
 43
80.0
  0
INSERT
  5
8378
330
8466
100
AcDbEntity
  8
3
 62
     0
100
AcDbBlockReference
  2
_OPEN
 10
2026.831659683934
 20
6390.869589649355
 30
0.0
 41
80.0
 42
80.0
 43
80.0
 50
180.0
  0
TEXT
  5
83CA
330
8466
100
AcDbEntity
  8
3
 62
     0
100
AcDbText
 10
3011.83
 20
6278.47
 30
0.0
 40
120.0
  1
2450
100
AcDbText
  0
POINT
  5
837A
330
8466
100
AcDbEntity
  8
DEFPOINTS
 62
     0
100
AcDbPoint
 10
4476.831659683933
 20
6755.623467839007
 30
0.0
  0
POINT
  5
837B
330
8466
100
AcDbEntity
  8
DEFPOINTS
 62
     0
100
AcDbPoint
 10
2026.831659683934
 20
6755.623467839007
 30
0.0
  0
POINT
  5
837C
330
8466
100
AcDbEntity
  8
DEFPOINTS
 62
     0
100
AcDbPoint
 10
2026.831659683934
 20
6390.869589649355
 30
0.0
  0
ENDBLK
  5
7FCD
330
8466
100
AcDbEntity
  8
0
100
AcDbBlockEnd
  0
BLOCK
  5
8469
330
8468
100
AcDbEntity
  8
0
100
AcDbBlockBegin
  2
*D13
 70
     1
 10
0.0
 20
0.0
 30
0.0
  3
*D13
  1

  0
LINE
  5
837D
330
8468
100
AcDbEntity
  8
3
 62
     0
100
AcDbLine
 10
1931.831659683934
 20
3035.935954207627
 30
0.0
 11
1658.820626993976
 21
3035.935954207627
 31
0.0
  0
LINE
  5
837E
330
8468
100
AcDbEntity
  8
3
 62
     0
100
AcDbLine
 10
1931.831659683934
 20
4315.935954207627
 30
0.0
 11
1658.820626993976
 21
4315.935954207627
 31
0.0
  0
LINE
  5
837F
330
8468
100
AcDbEntity
  8
3
 62
     0
100
AcDbLine
 10
1698.820626993976
 20
3115.935954207627
 30
0.0
 11
1698.820626993976
 21
4235.935954207627
 31
0.0
  0
INSERT
  5
8380
330
8468
100
AcDbEntity
  8
3
 62
     0
100
AcDbBlockReference
  2
_OPEN
 10
1698.820626993976
 20
3035.935954207627
 30
0.0
 41
80.0
 42
80.0
 43
80.0
 50
270.0
  0
INSERT
  5
8381
330
8468
100
AcDbEntity
  8
3
 62
     0
100
AcDbBlockReference
  2
_OPEN
 10
1698.820626993976
 20
4315.935954207627
 30
0.0
 41
80.0
 42
80.0
 43
80.0
 50
90.0
  0
TEXT
  5
83CB
330
8468
100
AcDbEntity
  8
3
 62
     0
100
AcDbText
 10
1358.82
 20
3463.54
 30
0.0
 40
120.0
  1
1280
100
AcDbText
  0
POINT
  5
8383
330
8468
100
AcDbEntity
  8
DEFPOINTS
 62
     0
100
AcDbPoint
 10
1951.831659683934
 20
3035.935954207627
 30
0.0
  0
POINT
  5
8384
330
8468
100
AcDbEntity
  8
DEFPOINTS
 62
     0
100
AcDbPoint
 10
1951.831659683934
 20
4315.935954207627
 30
0.0
  0
POINT
  5
8385
330
8468
100
AcDbEntity
  8
DEFPOINTS
 62
     0
100
AcDbPoint
 10
1698.820626993976
 20
4315.935954207627
 30
0.0
  0
ENDBLK
  5
7FB7
330
8468
100
AcDbEntity
  8
0
100
AcDbBlockEnd
  0
BLOCK
  5
846B
330
846A
100
AcDbEntity
  8
0
100
AcDbBlockBegin
  2
*D14
 70
     1
 10
0.0
 20
0.0
 30
0.0
  3
*D14
  1

  0
LINE
  5
8386
330
846A
100
AcDbEntity
  8
3
 62
     0
100
AcDbLine
 10
1931.831659683934
 20
3035.935954207627
 30
0.0
 11
1411.757784537447
 21
3035.935954207627
 31
0.0
  0
LINE
  5
8387
330
846A
100
AcDbEntity
  8
3
 62
     0
100
AcDbLine
 10
1853.395121435081
 20
4369.935954207627
 30
0.0
 11
1411.757784537447
 21
4369.935954207627
 31
0.0
  0
LINE
  5
8388
330
846A
100
AcDbEntity
  8
3
 62
     0
100
AcDbLine
 10
1451.757784537447
 20
3115.935954207627
 30
0.0
 11
1451.757784537447
 21
4289.935954207627
 31
0.0
  0
INSERT
  5
8389
330
846A
100
AcDbEntity
  8
3
 62
     0
100
AcDbBlockReference
  2
_OPEN
 10
1451.757784537447
 20
3035.935954207627
 30
0.0
 41
80.0
 42
80.0
 43
80.0
 50
270.0
  0
INSERT
  5
838A
330
846A
100
AcDbEntity
  8
3
 62
     0
100
AcDbBlockReference
  2
_OPEN
 10
1451.757784537447
 20
4369.935954207627
 30
0.0
 41
80.0
 42
80.0
 43
80.0
 50
90.0
  0
TEXT
  5
83CC
330
846A
100
AcDbEntity
  8
3
 62
     0
100
AcDbText
 10
1111.76
 20
3490.54
 30
0.0
 40
120.0
  1
1334
100
AcDbText
  0
POINT
  5
838C
330
846A
100
AcDbEntity
  8
DEFPOINTS
 62
     0
100
AcDbPoint
 10
1951.831659683934
 20
3035.935954207627
 30
0.0
  0
POINT
  5
838D
330
846A
100
AcDbEntity
  8
DEFPOINTS
 62
     0
100
AcDbPoint
 10
1873.395121435081
 20
4369.935954207627
 30
0.0
  0
POINT
  5
838E
330
846A
100
AcDbEntity
  8
DEFPOINTS
 62
     0
100
AcDbPoint
 10
1451.757784537447
 20
4369.935954207627
 30
0.0
  0
ENDBLK
  5
7FAC
330
846A
100
AcDbEntity
  8
0
100
AcDbBlockEnd
  0
BLOCK
  5
846D
330
846C
100
AcDbEntity
  8
0
100
AcDbBlockBegin
  2
*D15
 70
     1
 10
0.0
 20
0.0
 30
0.0
  3
*D15
  1

  0
LINE
  5
838F
330
846C
100
AcDbEntity
  8
3
 62
     0
100
AcDbLine
 10
3852.287402522041
 20
4389.935954207627
 30
0.0
 11
3852.287402522041
 21
5574.448112292856
 31
0.0
  0
LINE
  5
8390
330
846C
100
AcDbEntity
  8
3
 62
     0
100
AcDbLine
 10
2776.831659683934
 20
5469.070503599152
 30
0.0
 11
2776.831659683934
 21
5574.448112292856
 31
0.0
  0
LINE
  5
8391
330
846C
100
AcDbEntity
  8
3
 62
     0
100
AcDbLine
 10
3772.28740252204
 20
5534.448112292857
 30
0.0
 11
2856.831659683934
 21
5534.448112292857
 31
0.0
  0
INSERT
  5
8392
330
846C
100
AcDbEntity
  8
3
 62
     0
100
AcDbBlockReference
  2
_OPEN
 10
3852.287402522041
 20
5534.448112292857
 30
0.0
 41
80.0
 42
80.0
 43
80.0
  0
INSERT
  5
8393
330
846C
100
AcDbEntity
  8
3
 62
     0
100
AcDbBlockReference
  2
_OPEN
 10
2776.831659683934
 20
5534.448112292857
 30
0.0
 41
80.0
 42
80.0
 43
80.0
 50
180.0
  0
TEXT
  5
83CD
330
846C
100
AcDbEntity
  8
3
 62
     0
100
AcDbText
 10
3074.56
 20
5422.05
 30
0.0
 40
120.0
  1
1079
100
AcDbText
  0
POINT
  5
8395
330
846C
100
AcDbEntity
  8
DEFPOINTS
 62
     0
100
AcDbPoint
 10
3852.287402522041
 20
4369.935954207627
 30
0.0
  0
POINT
  5
8396
330
846C
100
AcDbEntity
  8
DEFPOINTS
 62
     0
100
AcDbPoint
 10
2776.831659683934
 20
5449.070503599152
 30
0.0
  0
POINT
  5
8397
330
846C
100
AcDbEntity
  8
DEFPOINTS
 62
     0
100
AcDbPoint
 10
2776.831659683934
 20
5534.448112292857
 30
0.0
  0
ENDBLK
  5
7F8B
330
846C
100
AcDbEntity
  8
0
100
AcDbBlockEnd
  0
BLOCK
  5
846F
330
846E
100
AcDbEntity
  8
0
100
AcDbBlockBegin
  2
*D16
 70
     1
 10
0.0
 20
0.0
 30
0.0
  3
*D16
  1

  0
LINE
  5
8398
330
846E
100
AcDbEntity
  8
3
 62
     0
100
AcDbLine
 10
2776.831659683934
 20
5469.070503599152
 30
0.0
 11
2776.831659683934
 21
5574.448112292856
 31
0.0
  0
LINE
  5
8399
330
846E
100
AcDbEntity
  8
3
 62
     0
100
AcDbLine
 10
1951.831659683934
 20
4388.935954207627
 30
0.0
 11
1951.831659683934
 21
5574.448112292856
 31
0.0
  0
LINE
  5
839A
330
846E
100
AcDbEntity
  8
3
 62
     0
100
AcDbLine
 10
2696.831659683934
 20
5534.448112292857
 30
0.0
 11
2031.831659683934
 21
5534.448112292857
 31
0.0
  0
INSERT
  5
839B
330
846E
100
AcDbEntity
  8
3
 62
     0
100
AcDbBlockReference
  2
_OPEN
 10
2776.831659683934
 20
5534.448112292857
 30
0.0
 41
80.0
 42
80.0
 43
80.0
  0
INSERT
  5
839C
330
846E
100
AcDbEntity
  8
3
 62
     0
100
AcDbBlockReference
  2
_OPEN
 10
1951.831659683934
 20
5534.448112292857
 30
0.0
 41
80.0
 42
80.0
 43
80.0
 50
180.0
  0
TEXT
  5
83CE
330
846E
100
AcDbEntity
  8
3
 62
     0
100
AcDbText
 10
2124.33
 20
5422.05
 30
0.0
 40
120.0
  1
825
100
AcDbText
  0
POINT
  5
839E
330
846E
100
AcDbEntity
  8
DEFPOINTS
 62
     0
100
AcDbPoint
 10
2776.831659683934
 20
5449.070503599152
 30
0.0
  0
POINT
  5
839F
330
846E
100
AcDbEntity
  8
DEFPOINTS
 62
     0
100
AcDbPoint
 10
1951.831659683934
 20
4368.935954207628
 30
0.0
  0
POINT
  5
83A0
330
846E
100
AcDbEntity
  8
DEFPOINTS
 62
     0
100
AcDbPoint
 10
1951.831659683934
 20
5534.448112292857
 30
0.0
  0
ENDBLK
  5
7F80
330
846E
100
AcDbEntity
  8
0
100
AcDbBlockEnd
  0
BLOCK
  5
8471
330
8470
100
AcDbEntity
  8
0
100
AcDbBlockBegin
  2
*D17
 70
     1
 10
0.0
 20
0.0
 30
0.0
  3
*D17
  1

  0
LINE
  5
83A1
330
8470
100
AcDbEntity
  8
3
 62
     0
100
AcDbLine
 10
1853.395121435081
 20
4369.935954207627
 30
0.0
 11
1160.642070885875
 21
4369.935954207627
 31
0.0
  0
LINE
  5
83A2
330
8470
100
AcDbEntity
  8
3
 62
     0
100
AcDbLine
 10
2006.831659683934
 20
2939.935954207627
 30
0.0
 11
1160.642070885874
 21
2939.935954207627
 31
0.0
  0
LINE
  5
83A3
330
8470
100
AcDbEntity
  8
3
 62
     0
100
AcDbLine
 10
1200.642070885875
 20
4289.935954207627
 30
0.0
 11
1200.642070885875
 21
3019.935954207627
 31
0.0
  0
INSERT
  5
83A4
330
8470
100
AcDbEntity
  8
3
 62
     0
100
AcDbBlockReference
  2
_OPEN
 10
1200.642070885875
 20
4369.935954207627
 30
0.0
 41
80.0
 42
80.0
 43
80.0
 50
90.0
  0
INSERT
  5
83A5
330
8470
100
AcDbEntity
  8
3
 62
     0
100
AcDbBlockReference
  2
_OPEN
 10
1200.642070885875
 20
2939.935954207627
 30
0.0
 41
80.0
 42
80.0
 43
80.0
 50
270.0
  0
TEXT
  5
83CF
330
8470
100
AcDbEntity
  8
3
 62
     0
100
AcDbText
 10
860.6419999999999
 20
3442.540000000001
 30
0.0
 40
120.0
  1
1430
100
AcDbText
  0
POINT
  5
83A7
330
8470
100
AcDbEntity
  8
DEFPOINTS
 62
     0
100
AcDbPoint
 10
1873.395121435081
 20
4369.935954207627
 30
0.0
  0
POINT
  5
83A8
330
8470
100
AcDbEntity
  8
DEFPOINTS
 62
     0
100
AcDbPoint
 10
2026.831659683934
 20
2939.935954207627
 30
0.0
  0
POINT
  5
83A9
330
8470
100
AcDbEntity
  8
DEFPOINTS
 62
     0
100
AcDbPoint
 10
1200.642070885875
 20
2939.935954207627
 30
0.0
  0
ENDBLK
  5
7F6A
330
8470
100
AcDbEntity
  8
0
100
AcDbBlockEnd
  0
BLOCK
  5
8474
330
8473
100
AcDbEntity
  8
0
100
AcDbBlockBegin
  2
*D18
 70
     1
 10
0.0
 20
0.0
 30
0.0
  3
*D18
  1

  0
LINE
  5
83AA
330
8473
100
AcDbEntity
  8
3
 62
     0
100
AcDbLine
 10
2006.831659683934
 20
2824.935954207627
 30
0.0
 11
1160.642070885874
 21
2824.935954207627
 31
0.0
  0
LINE
  5
83AB
330
8473
100
AcDbEntity
  8
3
 62
     0
100
AcDbLine
 10
2006.831659683934
 20
2759.935954207627
 30
0.0
 11
1160.642070885874
 21
2759.935954207627
 31
0.0
  0
LINE
  5
83AC
330
8473
100
AcDbEntity
  8
3
 62
     0
100
AcDbLine
 10
1200.642070885875
 20
2904.935954207627
 30
0.0
 11
1200.642070885875
 21
2984.935954207627
 31
0.0
  0
LINE
  5
83AD
330
8473
100
AcDbEntity
  8
3
 62
     0
100
AcDbLine
 10
1200.642070885875
 20
2679.935954207627
 30
0.0
 11
1200.642070885874
 21
2325.650239921912
 31
0.0
  0
LINE
  5
83AE
330
8473
100
AcDbEntity
  8
3
 62
     0
100
AcDbLine
 10
1200.642070885875
 20
2824.935954207627
 30
0.0
 11
1200.642070885875
 21
2759.935954207627
 31
0.0
  0
INSERT
  5
83AF
330
8473
100
AcDbEntity
  8
3
 62
     0
100
AcDbBlockReference
  2
_DOT
 10
1200.642070885875
 20
2824.935954207627
 30
0.0
 41
80.0
 42
80.0
 43
80.0
 50
270.0
  0
INSERT
  5
83B0
330
8473
100
AcDbEntity
  8
3
 62
     0
100
AcDbBlockReference
  2
_OPEN
 10
1200.642070885875
 20
2759.935954207627
 30
0.0
 41
80.0
 42
80.0
 43
80.0
 50
90.0
  0
TEXT
  5
83D0
330
8473
100
AcDbEntity
  8
3
 62
     0
100
AcDbText
 10
860.6419999999999
 20
2250.39
 30
0.0
 40
120.0
  1
65
100
AcDbText
  0
POINT
  5
83B2
330
8473
100
AcDbEntity
  8
DEFPOINTS
 62
     0
100
AcDbPoint
 10
2026.831659683934
 20
2824.935954207627
 30
0.0
  0
POINT
  5
83B3
330
8473
100
AcDbEntity
  8
DEFPOINTS
 62
     0
100
AcDbPoint
 10
2026.831659683934
 20
2759.935954207627
 30
0.0
  0
POINT
  5
83B4
330
8473
100
AcDbEntity
  8
DEFPOINTS
 62
     0
100
AcDbPoint
 10
1200.642070885875
 20
2759.935954207627
 30
0.0
  0
ENDBLK
  5
8103
330
8473
100
AcDbEntity
  8
0
100
AcDbBlockEnd
  0
BLOCK
  5
8478
330
8475
100
AcDbEntity
  8
0
100
AcDbBlockBegin
  2
_DOT
 70
     0
 10
0.0
 20
0.0
 30
0.0
  3
_DOT
  1

  0
LINE
  5
8104
330
8475
100
AcDbEntity
  8
0
  6
ByBlock
 62
     0
100
AcDbLine
 10
0.0
 20
0.0
 30
0.0
 11
-1.0
 21
-0.0000000000000284
 31
0.0
  0
LWPOLYLINE
  5
8105
330
8475
100
AcDbEntity
  8
0
  6
ByBlock
 62
     0
100
AcDbPolyline
 90
        2
 70
     1
 43
0.1666666666666666
 10
-0.0833333333333286
 20
-0.0000000000000284
 42
1.0
 10
0.0833333333333286
 20
-0.0000000000000284
 42
1.0
  0
ENDBLK
  5
80C2
330
8475
100
AcDbEntity
  8
0
100
AcDbBlockEnd
  0
BLOCK
  5
8477
330
8476
100
AcDbEntity
  8
0
100
AcDbBlockBegin
  2
*D20
 70
     1
 10
0.0
 20
0.0
 30
0.0
  3
*D20
  1

  0
LINE
  5
83B5
330
8476
100
AcDbEntity
  8
3
 62
     0
100
AcDbLine
 10
1951.831659683934
 20
4408.935954207627
 30
0.0
 11
1951.831659683934
 21
5855.282770043522
 31
0.0
  0
LINE
  5
83B6
330
8476
100
AcDbEntity
  8
3
 62
     0
100
AcDbLine
 10
4476.831659683933
 20
3084.935954207627
 30
0.0
 11
4476.831659683933
 21
5855.282770043522
 31
0.0
  0
LINE
  5
83B7
330
8476
100
AcDbEntity
  8
3
 62
     0
100
AcDbLine
 10
2031.831659683934
 20
5815.282770043522
 30
0.0
 11
4396.831659683934
 21
5815.282770043522
 31
0.0
  0
INSERT
  5
83B8
330
8476
100
AcDbEntity
  8
3
 62
     0
100
AcDbBlockReference
  2
_OPEN
 10
1951.831659683934
 20
5815.282770043522
 30
0.0
 41
80.0
 42
80.0
 43
80.0
 50
180.0
  0
INSERT
  5
83B9
330
8476
100
AcDbEntity
  8
3
 62
     0
100
AcDbBlockReference
  2
_OPEN
 10
4476.831659683933
 20
5815.282770043522
 30
0.0
 41
80.0
 42
80.0
 43
80.0
  0
TEXT
  5
83D1
330
8476
100
AcDbEntity
  8
3
 62
     0
100
AcDbText
 10
3058.95
 20
5702.88
 30
0.0
 40
120.0
  1
2525
100
AcDbText
  0
POINT
  5
83BB
330
8476
100
AcDbEntity
  8
DEFPOINTS
 62
     0
100
AcDbPoint
 10
1951.831659683934
 20
4388.935954207627
 30
0.0
  0
POINT
  5
83BC
330
8476
100
AcDbEntity
  8
DEFPOINTS
 62
     0
100
AcDbPoint
 10
4476.831659683933
 20
3064.935954207627
 30
0.0
  0
POINT
  5
83BD
330
8476
100
AcDbEntity
  8
DEFPOINTS
 62
     0
100
AcDbPoint
 10
4476.831659683933
 20
5815.282770043522
 30
0.0
  0
ENDBLK
  5
806B
330
8476
100
AcDbEntity
  8
0
100
AcDbBlockEnd
  0
BLOCK
  5
847A
330
8479
100
AcDbEntity
  8
0
100
AcDbBlockBegin
  2
*D21
 70
     1
 10
0.0
 20
0.0
 30
0.0
  3
*D21
  1

  0
LINE
  5
819E
330
8479
100
AcDbEntity
  8
0
  6
ByBlock
 62
     0
100
AcDbLine
 10
2026.831659683934
 20
2834.935954207627
 30
0.0
 11
2026.831659683934
 21
2556.714947416167
 31
0.0
  0
LINE
  5
819F
330
8479
100
AcDbEntity
  8
0
  6
ByBlock
 62
     0
100
AcDbLine
 10
2776.831659683934
 20
2834.935954207626
 30
0.0
 11
2776.831659683934
 21
2556.714947416167
 31
0.0
  0
LINE
  5
81A0
330
8479
100
AcDbEntity
  8
0
  6
ByBlock
 62
     0
100
AcDbLine
 10
2106.831659683934
 20
2596.714947416167
 30
0.0
 11
2696.831659683934
 21
2596.714947416167
 31
0.0
  0
INSERT
  5
81A1
330
8479
100
AcDbEntity
  8
0
  6
ByBlock
 62
     0
100
AcDbBlockReference
  2
_OPEN
 10
2026.831659683934
 20
2596.714947416167
 30
0.0
 41
80.0
 42
80.0
 43
80.0
 50
180.0
  0
INSERT
  5
81A2
330
8479
100
AcDbEntity
  8
0
  6
ByBlock
 62
     0
100
AcDbBlockReference
  2
_OPEN
 10
2776.831659683934
 20
2596.714947416167
 30
0.0
 41
80.0
 42
80.0
 43
80.0
  0
TEXT
  5
81A3
330
8479
100
AcDbEntity
  8
3
 62
     0
100
AcDbText
 10
2247.54594539822
 20
2636.714947416167
 30
0.0
 40
120.0
  1
750
100
AcDbText
  0
POINT
  5
81A4
330
8479
100
AcDbEntity
  8
DEFPOINTS
  6
ByBlock
 62
     0
100
AcDbPoint
 10
2026.831659683934
 20
2854.935954207627
 30
0.0
  0
POINT
  5
81A5
330
8479
100
AcDbEntity
  8
DEFPOINTS
  6
ByBlock
 62
     0
100
AcDbPoint
 10
2776.831659683934
 20
2854.935954207626
 30
0.0
  0
POINT
  5
81A6
330
8479
100
AcDbEntity
  8
DEFPOINTS
  6
ByBlock
 62
     0
100
AcDbPoint
 10
2776.831659683934
 20
2596.714947416167
 30
0.0
  0
ENDBLK
  5
81A7
330
8479
100
AcDbEntity
  8
0
100
AcDbBlockEnd
  0
BLOCK
  5
847C
330
847B
100
AcDbEntity
  8
0
100
AcDbBlockBegin
  2
*D22
 70
     1
 10
0.0
 20
0.0
 30
0.0
  3
*D22
  1

  0
LINE
  5
81AB
330
847B
100
AcDbEntity
  8
0
  6
ByBlock
 62
     0
100
AcDbLine
 10
2776.831659683934
 20
2834.935954207626
 30
0.0
 11
2776.831659683934
 21
2556.714947416167
 31
0.0
  0
LINE
  5
81AC
330
847B
100
AcDbEntity
  8
0
  6
ByBlock
 62
     0
100
AcDbLine
 10
4476.831659683933
 20
2834.935954207627
 30
0.0
 11
4476.831659683933
 21
2556.714947416167
 31
0.0
  0
LINE
  5
81AD
330
847B
100
AcDbEntity
  8
0
  6
ByBlock
 62
     0
100
AcDbLine
 10
2856.831659683934
 20
2596.714947416167
 30
0.0
 11
4396.831659683934
 21
2596.714947416167
 31
0.0
  0
INSERT
  5
81AE
330
847B
100
AcDbEntity
  8
0
  6
ByBlock
 62
     0
100
AcDbBlockReference
  2
_OPEN
 10
2776.831659683934
 20
2596.714947416167
 30
0.0
 41
80.0
 42
80.0
 43
80.0
 50
180.0
  0
INSERT
  5
81AF
330
847B
100
AcDbEntity
  8
0
  6
ByBlock
 62
     0
100
AcDbBlockReference
  2
_OPEN
 10
4476.831659683933
 20
2596.714947416167
 30
0.0
 41
80.0
 42
80.0
 43
80.0
  0
TEXT
  5
81B0
330
847B
100
AcDbEntity
  8
3
 62
     0
100
AcDbText
 10
3426.831659683934
 20
2636.714947416167
 30
0.0
 40
120.0
  1
1700
100
AcDbText
  0
POINT
  5
81B1
330
847B
100
AcDbEntity
  8
DEFPOINTS
  6
ByBlock
 62
     0
100
AcDbPoint
 10
2776.831659683934
 20
2854.935954207626
 30
0.0
  0
POINT
  5
81B2
330
847B
100
AcDbEntity
  8
DEFPOINTS
  6
ByBlock
 62
     0
100
AcDbPoint
 10
4476.831659683933
 20
2854.935954207627
 30
0.0
  0
POINT
  5
81B3
330
847B
100
AcDbEntity
  8
DEFPOINTS
  6
ByBlock
 62
     0
100
AcDbPoint
 10
4476.831659683933
 20
2596.714947416167
 30
0.0
  0
ENDBLK
  5
81B4
330
847B
100
AcDbEntity
  8
0
100
AcDbBlockEnd
  0
BLOCK
  5
847E
330
847D
100
AcDbEntity
  8
0
100
AcDbBlockBegin
  2
*D23
 70
     1
 10
0.0
 20
0.0
 30
0.0
  3
*D23
  1

  0
LINE
  5
81B8
330
847D
100
AcDbEntity
  8
0
  6
ByBlock
 62
     0
100
AcDbLine
 10
5179.407928765328
 20
2834.935954207627
 30
0.0
 11
5179.407928765328
 21
2556.714947416167
 31
0.0
  0
LINE
  5
81B9
330
847D
100
AcDbEntity
  8
0
  6
ByBlock
 62
     0
100
AcDbLine
 10
6381.407928765328
 20
2834.935954207626
 30
0.0
 11
6381.407928765328
 21
2556.714947416167
 31
0.0
  0
LINE
  5
81BA
330
847D
100
AcDbEntity
  8
0
  6
ByBlock
 62
     0
100
AcDbLine
 10
5259.407928765328
 20
2596.714947416167
 30
0.0
 11
6301.407928765327
 21
2596.714947416167
 31
0.0
  0
INSERT
  5
81BB
330
847D
100
AcDbEntity
  8
0
  6
ByBlock
 62
     0
100
AcDbBlockReference
  2
_OPEN
 10
5179.407928765328
 20
2596.714947416167
 30
0.0
 41
80.0
 42
80.0
 43
80.0
 50
180.0
  0
INSERT
  5
81BC
330
847D
100
AcDbEntity
  8
0
  6
ByBlock
 62
     0
100
AcDbBlockReference
  2
_OPEN
 10
6381.407928765328
 20
2596.714947416167
 30
0.0
 41
80.0
 42
80.0
 43
80.0
  0
TEXT
  5
81BD
330
847D
100
AcDbEntity
  8
3
 62
     0
100
AcDbText
 10
5580.407928765326
 20
2636.714947416167
 30
0.0
 40
120.0
  1
1202
100
AcDbText
  0
POINT
  5
81BE
330
847D
100
AcDbEntity
  8
DEFPOINTS
  6
ByBlock
 62
     0
100
AcDbPoint
 10
5179.407928765328
 20
2854.935954207627
 30
0.0
  0
POINT
  5
81BF
330
847D
100
AcDbEntity
  8
DEFPOINTS
  6
ByBlock
 62
     0
100
AcDbPoint
 10
6381.407928765328
 20
2854.935954207626
 30
0.0
  0
POINT
  5
81C0
330
847D
100
AcDbEntity
  8
DEFPOINTS
  6
ByBlock
 62
     0
100
AcDbPoint
 10
6381.407928765328
 20
2596.714947416167
 30
0.0
  0
ENDBLK
  5
81C1
330
847D
100
AcDbEntity
  8
0
100
AcDbBlockEnd
  0
BLOCK
  5
8480
330
847F
100
AcDbEntity
  8
0
100
AcDbBlockBegin
  2
*D24
 70
     1
 10
0.0
 20
0.0
 30
0.0
  3
*D24
  1

  0
LINE
  5
81C5
330
847F
100
AcDbEntity
  8
0
  6
ByBlock
 62
     0
100
AcDbLine
 10
6381.407928765328
 20
2834.935954207626
 30
0.0
 11
6381.407928765328
 21
2556.714947416167
 31
0.0
  0
LINE
  5
81C6
330
847F
100
AcDbEntity
  8
0
  6
ByBlock
 62
     0
100
AcDbLine
 10
7299.407928765325
 20
2834.935954207627
 30
0.0
 11
7299.407928765325
 21
2556.714947416167
 31
0.0
  0
LINE
  5
81C7
330
847F
100
AcDbEntity
  8
0
  6
ByBlock
 62
     0
100
AcDbLine
 10
6461.407928765328
 20
2596.714947416167
 30
0.0
 11
7219.407928765325
 21
2596.714947416167
 31
0.0
  0
INSERT
  5
81C8
330
847F
100
AcDbEntity
  8
0
  6
ByBlock
 62
     0
100
AcDbBlockReference
  2
_OPEN
 10
6381.407928765328
 20
2596.714947416167
 30
0.0
 41
80.0
 42
80.0
 43
80.0
 50
180.0
  0
INSERT
  5
81C9
330
847F
100
AcDbEntity
  8
0
  6
ByBlock
 62
     0
100
AcDbBlockReference
  2
_OPEN
 10
7299.407928765325
 20
2596.714947416167
 30
0.0
 41
80.0
 42
80.0
 43
80.0
  0
TEXT
  5
81CA
330
847F
100
AcDbEntity
  8
3
 62
     0
100
AcDbText
 10
6697.550785908183
 20
2636.714947416167
 30
0.0
 40
120.0
  1
918
100
AcDbText
  0
POINT
  5
81CB
330
847F
100
AcDbEntity
  8
DEFPOINTS
  6
ByBlock
 62
     0
100
AcDbPoint
 10
6381.407928765328
 20
2854.935954207626
 30
0.0
  0
POINT
  5
81CC
330
847F
100
AcDbEntity
  8
DEFPOINTS
  6
ByBlock
 62
     0
100
AcDbPoint
 10
7299.407928765325
 20
2854.935954207627
 30
0.0
  0
POINT
  5
81CD
330
847F
100
AcDbEntity
  8
DEFPOINTS
  6
ByBlock
 62
     0
100
AcDbPoint
 10
7299.407928765325
 20
2596.714947416167
 30
0.0
  0
ENDBLK
  5
81CE
330
847F
100
AcDbEntity
  8
0
100
AcDbBlockEnd
  0
BLOCK
  5
8482
330
8481
100
AcDbEntity
  8
0
100
AcDbBlockBegin
  2
_NONE
 70
     0
 10
0.0
 20
0.0
 30
0.0
  3
_NONE
  1

  0
CIRCLE
  5
81D2
330
8481
100
AcDbEntity
  8
0
  6
ByBlock
 62
     0
100
AcDbCircle
 10
0.0
 20
0.0
 30
0.0
 40
0.25
  0
ENDBLK
  5
81D3
330
8481
100
AcDbEntity
  8
0
100
AcDbBlockEnd
  0
BLOCK
  5
8484
330
8483
100
AcDbEntity
  8
0
100
AcDbBlockBegin
  2
*D26
 70
     1
 10
0.0
 20
0.0
 30
0.0
  3
*D26
  1

  0
LINE
  5
820A
330
8483
100
AcDbEntity
  8
0
  6
ByBlock
 62
     0
100
AcDbLine
 10
2847.831659683933
 20
5266.935954207628
 30
0.0
 11
1163.170627867308
 21
5266.935954207628
 31
0.0
  0
LINE
  5
820B
330
8483
100
AcDbEntity
  8
0
  6
ByBlock
 62
     0
100
AcDbLine
 10
1919.310814992313
 20
4369.935954207627
 30
0.0
 11
1163.170627867308
 21
4369.935954207627
 31
0.0
  0
LINE
  5
820C
330
8483
100
AcDbEntity
  8
0
  6
ByBlock
 62
     0
100
AcDbLine
 10
1203.170627867308
 20
5186.935954207628
 30
0.0
 11
1203.170627867308
 21
4449.935954207627
 31
0.0
  0
INSERT
  5
820D
330
8483
100
AcDbEntity
  8
0
  6
ByBlock
 62
     0
100
AcDbBlockReference
  2
_OPEN
 10
1203.170627867308
 20
5266.935954207628
 30
0.0
 41
80.0
 42
80.0
 43
80.0
 50
90.0
  0
INSERT
  5
820E
330
8483
100
AcDbEntity
  8
0
  6
ByBlock
 62
     0
100
AcDbBlockReference
  2
_OPEN
 10
1203.170627867308
 20
4369.935954207627
 30
0.0
 41
80.0
 42
80.0
 43
80.0
 50
270.0
  0
TEXT
  5
820F
330
8483
100
AcDbEntity
  8
3
 62
     0
100
AcDbText
 10
1163.170627867308
 20
4664.150239921912
 30
0.0
 40
120.0
  1
897
 50
90.0
100
AcDbText
  0
POINT
  5
8210
330
8483
100
AcDbEntity
  8
DEFPOINTS
  6
ByBlock
 62
     0
100
AcDbPoint
 10
2867.831659683934
 20
5266.935954207628
 30
0.0
  0
POINT
  5
8211
330
8483
100
AcDbEntity
  8
DEFPOINTS
  6
ByBlock
 62
     0
100
AcDbPoint
 10
1939.310814992313
 20
4369.935954207627
 30
0.0
  0
POINT
  5
8212
330
8483
100
AcDbEntity
  8
DEFPOINTS
  6
ByBlock
 62
     0
100
AcDbPoint
 10
1203.170627867308
 20
4369.935954207627
 30
0.0
  0
ENDBLK
  5
8213
330
8483
100
AcDbEntity
  8
0
100
AcDbBlockEnd
  0
BLOCK
  5
8486
330
8485
100
AcDbEntity
  8
0
100
AcDbBlockBegin
  2
*D27
 70
     1
 10
0.0
 20
0.0
 30
0.0
  3
*D27
  1

  0
LINE
  5
823C
330
8485
100
AcDbEntity
  8
0
  6
ByBlock
 62
     0
100
AcDbLine
 10
1200.314400313349
 20
2824.935954207627
 30
0.0
 11
1200.314400313349
 21
2939.935954207627
 31
0.0
  0
TEXT
  5
823D
330
8485
100
AcDbEntity
  8
3
 62
     0
100
AcDbText
 10
1048.885828884777
 20
2565.864525636198
 30
0.0
 40
120.0
  1
   (115)
 50
90.0
100
AcDbText
  0
POINT
  5
823E
330
8485
100
AcDbEntity
  8
DEFPOINTS
  6
ByBlock
 62
     0
100
AcDbPoint
 10
2026.831659683934
 20
2824.935954207627
 30
0.0
  0
POINT
  5
823F
330
8485
100
AcDbEntity
  8
DEFPOINTS
  6
ByBlock
 62
     0
100
AcDbPoint
 10
2026.831659683934
 20
2939.935954207627
 30
0.0
  0
POINT
  5
8240
330
8485
100
AcDbEntity
  8
DEFPOINTS
  6
ByBlock
 62
     0
100
AcDbPoint
 10
1200.314400313349
 20
2939.935954207627
 30
0.0
  0
ENDBLK
  5
8241
330
8485
100
AcDbEntity
  8
0
100
AcDbBlockEnd
  0
BLOCK
  5
8488
330
8487
100
AcDbEntity
  8
0
100
AcDbBlockBegin
  2
*D28
 70
     1
 10
0.0
 20
0.0
 30
0.0
  3
*D28
  1

  0
LINE
  5
8244
330
8487
100
AcDbEntity
  8
0
  6
ByBlock
 62
     0
100
AcDbLine
 10
2006.831659683934
 20
2759.935954207627
 30
0.0
 11
804.8562851107636
 21
2759.935954207627
 31
0.0
  0
LINE
  5
8245
330
8487
100
AcDbEntity
  8
0
  6
ByBlock
 62
     0
100
AcDbLine
 10
2827.831659683934
 20
5266.935954207628
 30
0.0
 11
804.8562851107636
 21
5266.935954207628
 31
0.0
  0
LINE
  5
8246
330
8487
100
AcDbEntity
  8
0
  6
ByBlock
 62
     0
100
AcDbLine
 10
844.8562851107634
 20
2839.935954207627
 30
0.0
 11
844.8562851107634
 21
5186.935954207628
 31
0.0
  0
INSERT
  5
8247
330
8487
100
AcDbEntity
  8
0
  6
ByBlock
 62
     0
100
AcDbBlockReference
  2
_OPEN
 10
844.8562851107634
 20
2759.935954207627
 30
0.0
 41
80.0
 42
80.0
 43
80.0
 50
270.0
  0
INSERT
  5
8248
330
8487
100
AcDbEntity
  8
0
  6
ByBlock
 62
     0
100
AcDbBlockReference
  2
_OPEN
 10
844.8562851107634
 20
5266.935954207628
 30
0.0
 41
80.0
 42
80.0
 43
80.0
 50
90.0
  0
TEXT
  5
8249
330
8487
100
AcDbEntity
  8
3
 62
     0
100
AcDbText
 10
753.4277136821921
 20
3724.864525636199
 30
0.0
 40
120.0
  1
(2507)
 50
90.0
100
AcDbText
  0
POINT
  5
824A
330
8487
100
AcDbEntity
  8
DEFPOINTS
  6
ByBlock
 62
     0
100
AcDbPoint
 10
2026.831659683934
 20
2759.935954207627
 30
0.0
  0
POINT
  5
824B
330
8487
100
AcDbEntity
  8
DEFPOINTS
  6
ByBlock
 62
     0
100
AcDbPoint
 10
2847.831659683933
 20
5266.935954207628
 30
0.0
  0
POINT
  5
824C
330
8487
100
AcDbEntity
  8
DEFPOINTS
  6
ByBlock
 62
     0
100
AcDbPoint
 10
844.8562851107634
 20
5266.935954207628
 30
0.0
  0
ENDBLK
  5
824D
330
8487
100
AcDbEntity
  8
0
100
AcDbBlockEnd
  0
BLOCK
  5
84E1
330
84E0
100
AcDbEntity
  8
0
100
AcDbBlockBegin
  2
*D29
 70
     1
 10
0.0
 20
0.0
 30
0.0
  3
*D29
  1

  0
LINE
  5
84E3
330
84E0
100
AcDbEntity
  8
3
 62
     0
370
    -2
100
AcDbLine
 10
6381.407928765328
 20
2767.435954207627
 30
0.0
 11
6381.407928765328
 21
2504.514947416167
 31
0.0
  0
LINE
  5
84E4
330
84E0
100
AcDbEntity
  8
3
 62
     0
370
    -2
100
AcDbLine
 10
7299.407928765325
 20
2767.435954207627
 30
0.0
 11
7299.407928765325
 21
2504.514947416167
 31
0.0
  0
LINE
  5
84E5
330
84E0
100
AcDbEntity
  8
3
 62
     0
370
    -2
100
AcDbLine
 10
6388.607928765328
 20
2511.714947416167
 30
0.0
 11
6828.236500193897
 21
2511.714947416167
 31
0.0
  0
LINE
  5
84E6
330
84E0
100
AcDbEntity
  8
3
 62
     0
370
    -2
100
AcDbLine
 10
7292.207928765325
 20
2511.714947416167
 30
0.0
 11
6852.579357336755
 21
2511.714947416167
 31
0.0
  0
SOLID
  5
84E7
330
84E0
100
AcDbEntity
  8
3
 62
     0
100
AcDbTrace
 10
6388.607928765328
 20
2512.914947416167
 30
0.0
 11
6388.607928765328
 21
2510.514947416167
 31
0.0
 12
6381.407928765328
 22
2511.714947416167
 32
0.0
 13
6381.407928765328
 23
2511.714947416167
 33
0.0
  0
SOLID
  5
84E8
330
84E0
100
AcDbEntity
  8
3
 62
     0
100
AcDbTrace
 10
7292.207928765325
 20
2512.914947416167
 30
0.0
 11
7292.207928765325
 21
2510.514947416167
 31
0.0
 12
7299.407928765325
 22
2511.714947416167
 32
0.0
 13
7299.407928765325
 23
2511.714947416167
 33
0.0
  0
MTEXT
  5
84E9
330
84E0
100
AcDbEntity
  8
3
 62
     0
100
AcDbMText
 10
6840.407928765326
 20
2511.714947416167
 30
0.0
 40
7.199999999999999
 41
0.0
 71
     5
 72
     1
  1
\A1;918
 73
     1
 44
1.0
1001
ACAD
1000
MTEXTBEGIN
1070
    73
1070
     1
1070
    44
1040
1.0
1070
    74
1070
     0
1000
MTEXTEND
  0
POINT
  5
84EA
330
84E0
100
AcDbEntity
  8
DEFPOINTS
 62
     0
100
AcDbPoint
 10
6381.407928765328
 20
2769.935954207627
 30
0.0
  0
POINT
  5
84EB
330
84E0
100
AcDbEntity
  8
DEFPOINTS
 62
     0
100
AcDbPoint
 10
7299.407928765325
 20
2769.935954207627
 30
0.0
  0
POINT
  5
84EC
330
84E0
100
AcDbEntity
  8
DEFPOINTS
 62
     0
100
AcDbPoint
 10
7299.407928765325
 20
2511.714947416167
 30
0.0
  0
ENDBLK
  5
84E2
330
84E0
100
AcDbEntity
  8
0
100
AcDbBlockEnd
  0
BLOCK
  5
84EE
330
84ED
100
AcDbEntity
  8
0
100
AcDbBlockBegin
  2
*D30
 70
     1
 10
0.0
 20
0.0
 30
0.0
  3
*D30
  1

  0
LINE
  5
84F0
330
84ED
100
AcDbEntity
  8
3
 62
     0
370
    -2
100
AcDbLine
 10
2024.331659683934
 20
2769.935954207627
 30
0.0
 11
837.656285110763
 21
2769.935954207627
 31
0.0
  0
LINE
  5
84F1
330
84ED
100
AcDbEntity
  8
3
 62
     0
370
    -2
100
AcDbLine
 10
2845.331659683934
 20
5266.935954207628
 30
0.0
 11
837.6562851107632
 21
5266.935954207629
 31
0.0
  0
LINE
  5
84F2
330
84ED
100
AcDbEntity
  8
3
 62
     0
370
    -2
100
AcDbLine
 10
844.8562851107629
 20
2777.135954207627
 30
0.0
 11
844.8562851107633
 21
4009.350239921913
 31
0.0
  0
LINE
  5
84F3
330
84ED
100
AcDbEntity
  8
3
 62
     0
370
    -2
100
AcDbLine
 10
844.8562851107634
 20
5259.735954207629
 30
0.0
 11
844.8562851107633
 21
4027.521668493342
 31
0.0
  0
SOLID
  5
84F4
330
84ED
100
AcDbEntity
  8
3
 62
     0
100
AcDbTrace
 10
843.6562851107629
 20
2777.135954207627
 30
0.0
 11
846.056285110763
 21
2777.135954207627
 31
0.0
 12
844.8562851107629
 22
2769.935954207627
 32
0.0
 13
844.8562851107629
 23
2769.935954207627
 33
0.0
  0
SOLID
  5
84F5
330
84ED
100
AcDbEntity
  8
3
 62
     0
100
AcDbTrace
 10
843.6562851107634
 20
5259.735954207629
 30
0.0
 11
846.0562851107635
 21
5259.735954207629
 31
0.0
 12
844.8562851107634
 22
5266.935954207629
 32
0.0
 13
844.8562851107634
 23
5266.935954207629
 33
0.0
  0
MTEXT
  5
84F6
330
84ED
100
AcDbEntity
  8
3
 62
     0
100
AcDbMText
 10
844.8562851107626
 20
4018.435954207627
 30
0.0
 40
7.199999999999999
 41
0.0
 71
     5
 72
     1
  1
\A1;(2497)
 73
     1
 44
1.0
1001
ACAD
1000
MTEXTBEGIN
1070
    73
1070
     1
1070
    44
1040
1.0
1070
    74
1070
     0
1000
MTEXTEND
  0
POINT
  5
84F7
330
84ED
100
AcDbEntity
  8
DEFPOINTS
 62
     0
100
AcDbPoint
 10
2026.831659683934
 20
2769.935954207627
 30
0.0
  0
POINT
  5
84F8
330
84ED
100
AcDbEntity
  8
DEFPOINTS
 62
     0
100
AcDbPoint
 10
2847.831659683933
 20
5266.935954207628
 30
0.0
  0
POINT
  5
84F9
330
84ED
100
AcDbEntity
  8
DEFPOINTS
 62
     0
100
AcDbPoint
 10
844.8562851107634
 20
5266.935954207629
 30
0.0
  0
ENDBLK
  5
84EF
330
84ED
100
AcDbEntity
  8
0
100
AcDbBlockEnd
  0
BLOCK
  5
84FB
330
84FA
100
AcDbEntity
  8
0
100
AcDbBlockBegin
  2
*D31
 70
     1
 10
0.0
 20
0.0
 30
0.0
  3
*D31
  1

  0
LINE
  5
84FD
330
84FA
100
AcDbEntity
  8
3
 62
     0
370
    -2
100
AcDbLine
 10
2026.831659683934
 20
2767.435954207627
 30
0.0
 11
2026.831659683934
 21
2504.514947416167
 31
0.0
  0
LINE
  5
84FE
330
84FA
100
AcDbEntity
  8
3
 62
     0
370
    -2
100
AcDbLine
 10
2776.831659683934
 20
2767.435954207627
 30
0.0
 11
2776.831659683934
 21
2504.514947416167
 31
0.0
  0
LINE
  5
84FF
330
84FA
100
AcDbEntity
  8
3
 62
     0
370
    -2
100
AcDbLine
 10
2034.031659683934
 20
2511.714947416167
 30
0.0
 11
2388.974516826792
 21
2511.714947416167
 31
0.0
  0
LINE
  5
8500
330
84FA
100
AcDbEntity
  8
3
 62
     0
370
    -2
100
AcDbLine
 10
2769.631659683934
 20
2511.714947416167
 30
0.0
 11
2414.688802541077
 21
2511.714947416167
 31
0.0
  0
SOLID
  5
8501
330
84FA
100
AcDbEntity
  8
3
 62
     0
100
AcDbTrace
 10
2034.031659683934
 20
2512.914947416167
 30
0.0
 11
2034.031659683934
 21
2510.514947416167
 31
0.0
 12
2026.831659683934
 22
2511.714947416167
 32
0.0
 13
2026.831659683934
 23
2511.714947416167
 33
0.0
  0
SOLID
  5
8502
330
84FA
100
AcDbEntity
  8
3
 62
     0
100
AcDbTrace
 10
2769.631659683934
 20
2512.914947416167
 30
0.0
 11
2769.631659683934
 21
2510.514947416167
 31
0.0
 12
2776.831659683934
 22
2511.714947416167
 32
0.0
 13
2776.831659683934
 23
2511.714947416167
 33
0.0
  0
MTEXT
  5
8503
330
84FA
100
AcDbEntity
  8
3
 62
     0
100
AcDbMText
 10
2401.831659683934
 20
2511.714947416167
 30
0.0
 40
7.199999999999999
 41
0.0
 71
     5
 72
     1
  1
\A1;750
 73
     1
 44
1.0
1001
ACAD
1000
MTEXTBEGIN
1070
    73
1070
     1
1070
    44
1040
1.0
1070
    74
1070
     0
1000
MTEXTEND
  0
POINT
  5
8504
330
84FA
100
AcDbEntity
  8
DEFPOINTS
 62
     0
100
AcDbPoint
 10
2026.831659683934
 20
2769.935954207627
 30
0.0
  0
POINT
  5
8505
330
84FA
100
AcDbEntity
  8
DEFPOINTS
 62
     0
100
AcDbPoint
 10
2776.831659683934
 20
2769.935954207627
 30
0.0
  0
POINT
  5
8506
330
84FA
100
AcDbEntity
  8
DEFPOINTS
 62
     0
100
AcDbPoint
 10
2776.831659683934
 20
2511.714947416167
 30
0.0
  0
ENDBLK
  5
84FC
330
84FA
100
AcDbEntity
  8
0
100
AcDbBlockEnd
  0
BLOCK
  5
8508
330
8507
100
AcDbEntity
  8
0
100
AcDbBlockBegin
  2
*D32
 70
     1
 10
0.0
 20
0.0
 30
0.0
  3
*D32
  1

  0
LINE
  5
850A
330
8507
100
AcDbEntity
  8
3
 62
     0
370
    -2
100
AcDbLine
 10
2776.831659683934
 20
2767.435954207627
 30
0.0
 11
2776.831659683934
 21
2504.514947416167
 31
0.0
  0
LINE
  5
850B
330
8507
100
AcDbEntity
  8
3
 62
     0
370
    -2
100
AcDbLine
 10
4476.831659683933
 20
2767.435954207627
 30
0.0
 11
4476.831659683933
 21
2504.514947416167
 31
0.0
  0
LINE
  5
850C
330
8507
100
AcDbEntity
  8
3
 62
     0
370
    -2
100
AcDbLine
 10
2784.031659683933
 20
2511.714947416167
 30
0.0
 11
3611.231659683934
 21
2511.714947416167
 31
0.0
  0
LINE
  5
850D
330
8507
100
AcDbEntity
  8
3
 62
     0
370
    -2
100
AcDbLine
 10
4469.631659683932
 20
2511.714947416167
 30
0.0
 11
3642.431659683933
 21
2511.714947416167
 31
0.0
  0
SOLID
  5
850E
330
8507
100
AcDbEntity
  8
3
 62
     0
100
AcDbTrace
 10
2784.031659683933
 20
2512.914947416167
 30
0.0
 11
2784.031659683933
 21
2510.514947416167
 31
0.0
 12
2776.831659683934
 22
2511.714947416167
 32
0.0
 13
2776.831659683934
 23
2511.714947416167
 33
0.0
  0
SOLID
  5
850F
330
8507
100
AcDbEntity
  8
3
 62
     0
100
AcDbTrace
 10
4469.631659683932
 20
2512.914947416167
 30
0.0
 11
4469.631659683932
 21
2510.514947416167
 31
0.0
 12
4476.831659683933
 22
2511.714947416167
 32
0.0
 13
4476.831659683933
 23
2511.714947416167
 33
0.0
  0
MTEXT
  5
8510
330
8507
100
AcDbEntity
  8
3
 62
     0
100
AcDbMText
 10
3626.831659683933
 20
2511.714947416167
 30
0.0
 40
7.199999999999999
 41
0.0
 71
     5
 72
     1
  1
\A1;1700
 73
     1
 44
1.0
1001
ACAD
1000
MTEXTBEGIN
1070
    73
1070
     1
1070
    44
1040
1.0
1070
    74
1070
     0
1000
MTEXTEND
  0
POINT
  5
8511
330
8507
100
AcDbEntity
  8
DEFPOINTS
 62
     0
100
AcDbPoint
 10
2776.831659683934
 20
2769.935954207627
 30
0.0
  0
POINT
  5
8512
330
8507
100
AcDbEntity
  8
DEFPOINTS
 62
     0
100
AcDbPoint
 10
4476.831659683933
 20
2769.935954207627
 30
0.0
  0
POINT
  5
8513
330
8507
100
AcDbEntity
  8
DEFPOINTS
 62
     0
100
AcDbPoint
 10
4476.831659683933
 20
2511.714947416167
 30
0.0
  0
ENDBLK
  5
8509
330
8507
100
AcDbEntity
  8
0
100
AcDbBlockEnd
  0
BLOCK
  5
8515
330
8514
100
AcDbEntity
  8
0
100
AcDbBlockBegin
  2
*D33
 70
     1
 10
0.0
 20
0.0
 30
0.0
  3
*D33
  1

  0
LINE
  5
8517
330
8514
100
AcDbEntity
  8
3
 62
     0
370
    -2
100
AcDbLine
 10
5179.407928765328
 20
2767.435954207627
 30
0.0
 11
5179.407928765328
 21
2504.514947416167
 31
0.0
  0
LINE
  5
8518
330
8514
100
AcDbEntity
  8
3
 62
     0
370
    -2
100
AcDbLine
 10
6381.407928765328
 20
2767.435954207627
 30
0.0
 11
6381.407928765328
 21
2504.514947416167
 31
0.0
  0
LINE
  5
8519
330
8514
100
AcDbEntity
  8
3
 62
     0
370
    -2
100
AcDbLine
 10
5186.607928765328
 20
2511.714947416167
 30
0.0
 11
5764.807928765327
 21
2511.714947416167
 31
0.0
  0
LINE
  5
851A
330
8514
100
AcDbEntity
  8
3
 62
     0
370
    -2
100
AcDbLine
 10
6374.207928765327
 20
2511.714947416167
 30
0.0
 11
5796.007928765328
 21
2511.714947416167
 31
0.0
  0
SOLID
  5
851B
330
8514
100
AcDbEntity
  8
3
 62
     0
100
AcDbTrace
 10
5186.607928765328
 20
2512.914947416167
 30
0.0
 11
5186.607928765328
 21
2510.514947416167
 31
0.0
 12
5179.407928765328
 22
2511.714947416167
 32
0.0
 13
5179.407928765328
 23
2511.714947416167
 33
0.0
  0
SOLID
  5
851C
330
8514
100
AcDbEntity
  8
3
 62
     0
100
AcDbTrace
 10
6374.207928765327
 20
2512.914947416167
 30
0.0
 11
6374.207928765327
 21
2510.514947416167
 31
0.0
 12
6381.407928765328
 22
2511.714947416167
 32
0.0
 13
6381.407928765328
 23
2511.714947416167
 33
0.0
  0
MTEXT
  5
851D
330
8514
100
AcDbEntity
  8
3
 62
     0
100
AcDbMText
 10
5780.407928765328
 20
2511.714947416167
 30
0.0
 40
7.199999999999999
 41
0.0
 71
     5
 72
     1
  1
\A1;1202
 73
     1
 44
1.0
1001
ACAD
1000
MTEXTBEGIN
1070
    73
1070
     1
1070
    44
1040
1.0
1070
    74
1070
     0
1000
MTEXTEND
  0
POINT
  5
851E
330
8514
100
AcDbEntity
  8
DEFPOINTS
 62
     0
100
AcDbPoint
 10
5179.407928765328
 20
2769.935954207627
 30
0.0
  0
POINT
  5
851F
330
8514
100
AcDbEntity
  8
DEFPOINTS
 62
     0
100
AcDbPoint
 10
6381.407928765328
 20
2769.935954207627
 30
0.0
  0
POINT
  5
8520
330
8514
100
AcDbEntity
  8
DEFPOINTS
 62
     0
100
AcDbPoint
 10
6381.407928765328
 20
2511.714947416167
 30
0.0
  0
ENDBLK
  5
8516
330
8514
100
AcDbEntity
  8
0
100
AcDbBlockEnd
  0
BLOCK
  5
8522
330
8521
100
AcDbEntity
  8
0
100
AcDbBlockBegin
  2
*D34
 70
     1
 10
0.0
 20
0.0
 30
0.0
  3
*D34
  1

  0
LINE
  5
8524
330
8521
100
AcDbEntity
  8
3
 62
     0
370
    -2
100
AcDbLine
 10
2024.331659683934
 20
2834.935954207627
 30
0.0
 11
1193.442070885875
 21
2834.935954207627
 31
0.0
  0
LINE
  5
8525
330
8521
100
AcDbEntity
  8
3
 62
     0
370
    -2
100
AcDbLine
 10
2024.331659683934
 20
2769.935954207627
 30
0.0
 11
1193.442070885875
 21
2769.935954207627
 31
0.0
  0
LINE
  5
8526
330
8521
100
AcDbEntity
  8
3
 62
     0
370
    -2
100
AcDbLine
 10
1200.642070885875
 20
2827.735954207627
 30
0.0
 11
1200.642070885875
 21
2809.635954207627
 31
0.0
  0
LINE
  5
8527
330
8521
100
AcDbEntity
  8
3
 62
     0
370
    -2
100
AcDbLine
 10
1200.642070885875
 20
2777.135954207627
 30
0.0
 11
1200.642070885875
 21
2795.235954207627
 31
0.0
  0
SOLID
  5
8528
330
8521
100
AcDbEntity
  8
3
 62
     0
100
AcDbTrace
 10
1199.442070885875
 20
2827.735954207627
 30
0.0
 11
1201.842070885875
 21
2827.735954207627
 31
0.0
 12
1200.642070885875
 22
2834.935954207627
 32
0.0
 13
1200.642070885875
 23
2834.935954207627
 33
0.0
  0
SOLID
  5
8529
330
8521
100
AcDbEntity
  8
3
 62
     0
100
AcDbTrace
 10
1199.442070885875
 20
2777.135954207627
 30
0.0
 11
1201.842070885875
 21
2777.135954207627
 31
0.0
 12
1200.642070885875
 22
2769.935954207627
 32
0.0
 13
1200.642070885875
 23
2769.935954207627
 33
0.0
  0
MTEXT
  5
852A
330
8521
100
AcDbEntity
  8
3
 62
     0
100
AcDbMText
 10
1200.642070885874
 20
2802.435954207627
 30
0.0
 40
7.199999999999999
 41
0.0
 71
     5
 72
     1
  1
\A1;65
 73
     1
 44
1.0
1001
ACAD
1000
MTEXTBEGIN
1070
    73
1070
     1
1070
    44
1040
1.0
1070
    74
1070
     0
1000
MTEXTEND
  0
POINT
  5
852B
330
8521
100
AcDbEntity
  8
DEFPOINTS
 62
     0
100
AcDbPoint
 10
2026.831659683934
 20
2834.935954207627
 30
0.0
  0
POINT
  5
852C
330
8521
100
AcDbEntity
  8
DEFPOINTS
 62
     0
100
AcDbPoint
 10
2026.831659683934
 20
2769.935954207627
 30
0.0
  0
POINT
  5
852D
330
8521
100
AcDbEntity
  8
DEFPOINTS
 62
     0
100
AcDbPoint
 10
1200.642070885875
 20
2769.935954207627
 30
0.0
  0
ENDBLK
  5
8523
330
8521
100
AcDbEntity
  8
0
100
AcDbBlockEnd
  0
BLOCK
  5
852F
330
852E
100
AcDbEntity
  8
0
100
AcDbBlockBegin
  2
*D35
 70
     1
 10
0.0
 20
0.0
 30
0.0
  3
*D35
  1

  0
LINE
  5
8531
330
852E
100
AcDbEntity
  8
3
 62
     0
370
    -2
100
AcDbLine
 10
1200.314400313349
 20
2842.135954207627
 30
0.0
 11
1200.314400313349
 21
2878.350239921913
 31
0.0
  0
LINE
  5
8532
330
852E
100
AcDbEntity
  8
3
 62
     0
370
    -2
100
AcDbLine
 10
1200.314400313349
 20
2932.735954207627
 30
0.0
 11
1200.314400313349
 21
2896.521668493342
 31
0.0
  0
SOLID
  5
8533
330
852E
100
AcDbEntity
  8
3
 62
     0
100
AcDbTrace
 10
1199.114400313349
 20
2842.135954207627
 30
0.0
 11
1201.514400313349
 21
2842.135954207627
 31
0.0
 12
1200.314400313349
 22
2834.935954207627
 32
0.0
 13
1200.314400313349
 23
2834.935954207627
 33
0.0
  0
SOLID
  5
8534
330
852E
100
AcDbEntity
  8
3
 62
     0
100
AcDbTrace
 10
1199.114400313349
 20
2932.735954207627
 30
0.0
 11
1201.514400313349
 21
2932.735954207627
 31
0.0
 12
1200.314400313349
 22
2939.935954207627
 32
0.0
 13
1200.314400313349
 23
2939.935954207627
 33
0.0
  0
MTEXT
  5
8535
330
852E
100
AcDbEntity
  8
3
 62
     0
100
AcDbMText
 10
1200.314400313349
 20
2887.435954207628
 30
0.0
 40
7.199999999999999
 41
0.0
 71
     5
 72
     1
  1
\A1;   (105)
 73
     1
 44
1.0
1001
ACAD
1000
MTEXTBEGIN
1070
    73
1070
     1
1070
    44
1040
1.0
1070
    74
1070
     0
1000
MTEXTEND
  0
POINT
  5
8536
330
852E
100
AcDbEntity
  8
DEFPOINTS
 62
     0
100
AcDbPoint
 10
2026.831659683934
 20
2834.935954207627
 30
0.0
  0
POINT
  5
8537
330
852E
100
AcDbEntity
  8
DEFPOINTS
 62
     0
100
AcDbPoint
 10
2026.831659683934
 20
2939.935954207627
 30
0.0
  0
POINT
  5
8538
330
852E
100
AcDbEntity
  8
DEFPOINTS
 62
     0
100
AcDbPoint
 10
1200.314400313349
 20
2939.935954207627
 30
0.0
  0
ENDBLK
  5
8530
330
852E
100
AcDbEntity
  8
0
100
AcDbBlockEnd
  0
BLOCK
  5
853A
330
8539
100
AcDbEntity
  8
0
100
AcDbBlockBegin
  2
*D36
 70
     1
 10
0.0
 20
0.0
 30
0.0
  3
*D36
  1

  0
LINE
  5
853C
330
8539
100
AcDbEntity
  8
3
 62
     0
370
    -2
100
AcDbLine
 10
5101.407928765327
 20
4652.435954207625
 30
0.0
 11
5101.407928765327
 21
5828.498092940815
 31
0.0
  0
LINE
  5
853D
330
8539
100
AcDbEntity
  8
3
 62
     0
370
    -2
100
AcDbLine
 10
6381.407928765326
 20
5725.287629067658
 30
0.0
 11
6381.407928765326
 21
5828.498092940815
 31
0.0
  0
LINE
  5
853E
330
8539
100
AcDbEntity
  8
3
 62
     0
370
    -2
100
AcDbLine
 10
5108.607928765327
 20
5821.298092940816
 30
0.0
 11
5725.807928765327
 21
5821.298092940816
 31
0.0
  0
LINE
  5
853F
330
8539
100
AcDbEntity
  8
3
 62
     0
370
    -2
100
AcDbLine
 10
6374.207928765326
 20
5821.298092940816
 30
0.0
 11
5757.007928765327
 21
5821.298092940816
 31
0.0
  0
SOLID
  5
8540
330
8539
100
AcDbEntity
  8
3
 62
     0
100
AcDbTrace
 10
5108.607928765327
 20
5822.498092940816
 30
0.0
 11
5108.607928765327
 21
5820.098092940816
 31
0.0
 12
5101.407928765327
 22
5821.298092940816
 32
0.0
 13
5101.407928765327
 23
5821.298092940816
 33
0.0
  0
SOLID
  5
8541
330
8539
100
AcDbEntity
  8
3
 62
     0
100
AcDbTrace
 10
6374.207928765326
 20
5822.498092940816
 30
0.0
 11
6374.207928765326
 21
5820.098092940816
 31
0.0
 12
6381.407928765326
 22
5821.298092940816
 32
0.0
 13
6381.407928765326
 23
5821.298092940816
 33
0.0
  0
MTEXT
  5
8542
330
8539
100
AcDbEntity
  8
3
 62
     0
100
AcDbMText
 10
5741.407928765326
 20
5821.298092940816
 30
0.0
 40
7.199999999999999
 41
0.0
 71
     5
 72
     1
  1
\A1;MAX\P1280
 73
     1
 44
1.0
1001
ACAD
1000
MTEXTBEGIN
1070
    73
1070
     1
1070
    44
1040
1.0
1070
    74
1070
     0
1000
MTEXTEND
  0
POINT
  5
8543
330
8539
100
AcDbEntity
  8
DEFPOINTS
 62
     0
100
AcDbPoint
 10
5101.407928765327
 20
4649.935954207625
 30
0.0
  0
POINT
  5
8544
330
8539
100
AcDbEntity
  8
DEFPOINTS
 62
     0
100
AcDbPoint
 10
6381.407928765326
 20
5722.787629067657
 30
0.0
  0
POINT
  5
8545
330
8539
100
AcDbEntity
  8
DEFPOINTS
 62
     0
100
AcDbPoint
 10
6381.407928765326
 20
5821.298092940816
 30
0.0
  0
ENDBLK
  5
853B
330
8539
100
AcDbEntity
  8
0
100
AcDbBlockEnd
  0
BLOCK
  5
8548
330
8547
100
AcDbEntity
  8
0
100
AcDbBlockBegin
  2
*D37
 70
     1
 10
0.0
 20
0.0
 30
0.0
  3
*D37
  1

  0
LINE
  5
8570
330
8547
100
AcDbEntity
  8
3
 62
     0
370
    -2
100
AcDbLine
 10
5101.407928765326
 20
4769.935954207627
 30
0.0
 11
5101.407928765326
 21
5860.910505835629
 31
0.0
  0
LINE
  5
8571
330
8547
100
AcDbEntity
  8
3
 62
     0
370
    -2
100
AcDbLine
 10
6381.407928765326
 20
5840.910505835629
 30
0.0
 11
6381.407928765326
 21
5780.910505835629
 31
0.0
  0
LINE
  5
8572
330
8547
100
AcDbEntity
  8
3
 62
     0
370
    -2
100
AcDbLine
 10
5181.407928765325
 20
5820.910505835629
 30
0.0
 11
6301.407928765326
 21
5820.910505835629
 31
0.0
  0
INSERT
  5
8573
330
8547
100
AcDbEntity
  8
3
 62
     0
370
    -2
100
AcDbBlockReference
  2
_OPEN
 10
5101.407928765326
 20
5820.910505835629
 30
0.0
 41
80.0
 42
80.0
 43
80.0
 50
180.0
  0
INSERT
  5
8574
330
8547
100
AcDbEntity
  8
3
 62
     0
370
    -2
100
AcDbBlockReference
  2
_OPEN
 10
6381.407928765326
 20
5820.910505835629
 30
0.0
 41
80.0
 42
80.0
 43
80.0
  0
MTEXT
  5
8575
330
8547
100
AcDbEntity
  8
3
 62
     0
100
AcDbMText
 10
5741.407928765326
 20
5952.339077264201
 30
0.0
 40
120.0
 41
0.0
 71
     5
 72
     1
  1
\A1;(1280)
 73
     1
 44
1.0
1001
ACAD
1000
MTEXTBEGIN
1070
    73
1070
     1
1070
    44
1040
1.0
1070
    74
1070
     0
1000
MTEXTEND
  0
POINT
  5
8576
330
8547
100
AcDbEntity
  8
DEFPOINTS
 62
     0
100
AcDbPoint
 10
5101.407928765326
 20
4749.935954207627
 30
0.0
  0
POINT
  5
8577
330
8547
100
AcDbEntity
  8
DEFPOINTS
 62
     0
100
AcDbPoint
 10
6381.407928765326
 20
5860.910505835629
 30
0.0
  0
POINT
  5
8578
330
8547
100
AcDbEntity
  8
DEFPOINTS
 62
     0
100
AcDbPoint
 10
6381.407928765326
 20
5820.910505835629
 30
0.0
  0
ENDBLK
  5
8549
330
8547
100
AcDbEntity
  8
0
100
AcDbBlockEnd
  0
BLOCK
  5
8555
330
8554
100
AcDbEntity
  8
0
100
AcDbBlockBegin
  2
*D38
 70
     1
 10
0.0
 20
0.0
 30
0.0
  3
*D38
  1

  0
LINE
  5
85A8
330
8554
100
AcDbEntity
  8
3
 62
     0
370
    -2
100
AcDbLine
 10
6381.407928765326
 20
5840.910505835629
 30
0.0
 11
6381.407928765326
 21
5780.910505835629
 31
0.0
  0
LINE
  5
85A9
330
8554
100
AcDbEntity
  8
3
 62
     0
370
    -2
100
AcDbLine
 10
7401.407928765324
 20
4313.935954207627
 30
0.0
 11
7401.407928765324
 21
5860.910505835629
 31
0.0
  0
LINE
  5
85AA
330
8554
100
AcDbEntity
  8
3
 62
     0
370
    -2
100
AcDbLine
 10
6461.407928765325
 20
5820.910505835629
 30
0.0
 11
7321.407928765324
 21
5820.910505835629
 31
0.0
  0
INSERT
  5
85AB
330
8554
100
AcDbEntity
  8
3
 62
     0
370
    -2
100
AcDbBlockReference
  2
_OPEN
 10
6381.407928765326
 20
5820.910505835629
 30
0.0
 41
80.0
 42
80.0
 43
80.0
 50
180.0
  0
INSERT
  5
85AC
330
8554
100
AcDbEntity
  8
3
 62
     0
370
    -2
100
AcDbBlockReference
  2
_OPEN
 10
7401.407928765324
 20
5820.910505835629
 30
0.0
 41
80.0
 42
80.0
 43
80.0
  0
MTEXT
  5
85AD
330
8554
100
AcDbEntity
  8
3
 62
     0
100
AcDbMText
 10
6891.407928765326
 20
5952.339077264201
 30
0.0
 40
120.0
 41
0.0
 71
     5
 72
     1
  1
\A1;(1020)
 73
     1
 44
1.0
1001
ACAD
1000
MTEXTBEGIN
1070
    73
1070
     1
1070
    44
1040
1.0
1070
    74
1070
     0
1000
MTEXTEND
  0
POINT
  5
85AE
330
8554
100
AcDbEntity
  8
DEFPOINTS
 62
     0
100
AcDbPoint
 10
6381.407928765326
 20
5860.910505835629
 30
0.0
  0
POINT
  5
85AF
330
8554
100
AcDbEntity
  8
DEFPOINTS
 62
     0
100
AcDbPoint
 10
7401.407928765324
 20
4293.935954207627
 30
0.0
  0
POINT
  5
85B0
330
8554
100
AcDbEntity
  8
DEFPOINTS
 62
     0
100
AcDbPoint
 10
7401.407928765324
 20
5820.910505835629
 30
0.0
  0
ENDBLK
  5
8556
330
8554
100
AcDbEntity
  8
0
100
AcDbBlockEnd
  0
BLOCK
  5
8565
330
8564
100
AcDbEntity
  8
0
100
AcDbBlockBegin
  2
*D39
 70
     1
 10
0.0
 20
0.0
 30
0.0
  3
*D39
  1

  0
LINE
  5
8567
330
8564
100
AcDbEntity
  8
3
 62
     0
370
    -2
100
AcDbLine
 10
5531.407928765328
 20
5286.935954207628
 30
0.0
 11
5531.407928765328
 21
5579.256168514262
 31
0.0
  0
LINE
  5
8568
330
8564
100
AcDbEntity
  8
3
 62
     0
370
    -2
100
AcDbLine
 10
7231.407928765325
 20
5286.935954207628
 30
0.0
 11
7231.407928765325
 21
5579.256168514262
 31
0.0
  0
LINE
  5
8569
330
8564
100
AcDbEntity
  8
3
 62
     0
370
    -2
100
AcDbLine
 10
5611.407928765327
 20
5539.256168514262
 30
0.0
 11
7151.407928765326
 21
5539.256168514262
 31
0.0
  0
INSERT
  5
856A
330
8564
100
AcDbEntity
  8
3
 62
     0
370
    -2
100
AcDbBlockReference
  2
_OPEN
 10
5531.407928765328
 20
5539.256168514262
 30
0.0
 41
80.0
 42
80.0
 43
80.0
 50
180.0
  0
INSERT
  5
856B
330
8564
100
AcDbEntity
  8
3
 62
     0
370
    -2
100
AcDbBlockReference
  2
_OPEN
 10
7231.407928765325
 20
5539.256168514262
 30
0.0
 41
80.0
 42
80.0
 43
80.0
  0
MTEXT
  5
856C
330
8564
100
AcDbEntity
  8
3
 62
     0
100
AcDbMText
 10
6381.407928765327
 20
5639.256168514261
 30
0.0
 40
120.0
 41
0.0
 71
     5
 72
     1
  1
\A1;1700
 73
     1
 44
1.0
1001
ACAD
1000
MTEXTBEGIN
1070
    73
1070
     1
1070
    44
1040
1.0
1070
    74
1070
     0
1000
MTEXTEND
  0
POINT
  5
856D
330
8564
100
AcDbEntity
  8
DEFPOINTS
 62
     0
100
AcDbPoint
 10
5531.407928765328
 20
5266.935954207627
 30
0.0
  0
POINT
  5
856E
330
8564
100
AcDbEntity
  8
DEFPOINTS
 62
     0
100
AcDbPoint
 10
7231.407928765325
 20
5266.935954207627
 30
0.0
  0
POINT
  5
856F
330
8564
100
AcDbEntity
  8
DEFPOINTS
 62
     0
100
AcDbPoint
 10
7231.407928765325
 20
5539.256168514262
 30
0.0
  0
ENDBLK
  5
8566
330
8564
100
AcDbEntity
  8
0
100
AcDbBlockEnd
  0
BLOCK
  5
8588
330
8587
100
AcDbEntity
  8
0
100
AcDbBlockBegin
  2
*D40
 70
     1
 10
0.0
 20
0.0
 30
0.0
  3
*D40
  1

  0
LINE
  5
859F
330
8587
100
AcDbEntity
  8
3
 62
     0
370
    -2
100
AcDbLine
 10
7251.407928765326
 20
4994.935954207627
 30
0.0
 11
7682.677553677827
 21
4994.935954207627
 31
0.0
  0
LINE
  5
85A0
330
8587
100
AcDbEntity
  8
3
 62
     0
370
    -2
100
AcDbLine
 10
7251.407928765326
 20
3744.935954207627
 30
0.0
 11
7682.677553677827
 21
3744.935954207627
 31
0.0
  0
LINE
  5
85A1
330
8587
100
AcDbEntity
  8
3
 62
     0
370
    -2
100
AcDbLine
 10
7642.677553677827
 20
4914.935954207628
 30
0.0
 11
7642.677553677827
 21
3824.935954207627
 31
0.0
  0
INSERT
  5
85A2
330
8587
100
AcDbEntity
  8
3
 62
     0
370
    -2
100
AcDbBlockReference
  2
_OPEN
 10
7642.677553677827
 20
4994.935954207627
 30
0.0
 41
80.0
 42
80.0
 43
80.0
 50
90.0
  0
INSERT
  5
85A3
330
8587
100
AcDbEntity
  8
3
 62
     0
370
    -2
100
AcDbBlockReference
  2
_OPEN
 10
7642.677553677827
 20
3744.935954207627
 30
0.0
 41
80.0
 42
80.0
 43
80.0
 50
270.0
  0
MTEXT
  5
85A4
330
8587
100
AcDbEntity
  8
3
 62
     0
100
AcDbMText
 10
7542.677553677826
 20
4369.935954207628
 30
0.0
 40
120.0
 41
0.0
 71
     5
 72
     1
  1
\A1;\U+03C61250
 11
0.0000000000000001
 21
1.0
 31
0.0
 73
     1
 44
1.0
1001
ACAD
1000
MTEXTBEGIN
1070
    73
1070
     1
1070
    44
1040
1.0
1070
    74
1070
     0
1000
MTEXTEND
  0
POINT
  5
85A5
330
8587
100
AcDbEntity
  8
DEFPOINTS
 62
     0
100
AcDbPoint
 10
7231.407928765325
 20
4994.935954207627
 30
0.0
  0
POINT
  5
85A6
330
8587
100
AcDbEntity
  8
DEFPOINTS
 62
     0
100
AcDbPoint
 10
7231.407928765325
 20
3744.935954207627
 30
0.0
  0
POINT
  5
85A7
330
8587
100
AcDbEntity
  8
DEFPOINTS
 62
     0
100
AcDbPoint
 10
7642.677553677827
 20
3744.935954207627
 30
0.0
  0
ENDBLK
  5
8589
330
8587
100
AcDbEntity
  8
0
100
AcDbBlockEnd
  0
BLOCK
  5
85B3
330
85B2
100
AcDbEntity
  8
0
100
AcDbBlockBegin
  2
*D41
 70
     1
 10
0.0
 20
0.0
 30
0.0
  3
*D41
  1

  0
LINE
  5
85B5
330
85B2
100
AcDbEntity
  8
3
 62
     0
370
    -2
100
AcDbLine
 10
5179.407928765328
 20
2749.935954207627
 30
0.0
 11
5179.407928765328
 21
2481.868553695462
 31
0.0
  0
LINE
  5
85B6
330
85B2
100
AcDbEntity
  8
3
 62
     0
370
    -2
100
AcDbLine
 10
6381.407928765328
 20
2749.935954207627
 30
0.0
 11
6381.407928765328
 21
2481.868553695462
 31
0.0
  0
LINE
  5
85B7
330
85B2
100
AcDbEntity
  8
3
 62
     0
370
    -2
100
AcDbLine
 10
5259.407928765328
 20
2521.868553695462
 30
0.0
 11
6301.407928765328
 21
2521.868553695462
 31
0.0
  0
INSERT
  5
85B8
330
85B2
100
AcDbEntity
  8
3
 62
     0
370
    -2
100
AcDbBlockReference
  2
_OPEN
 10
5179.407928765328
 20
2521.868553695462
 30
0.0
 41
80.0
 42
80.0
 43
80.0
 50
180.0
  0
INSERT
  5
85B9
330
85B2
100
AcDbEntity
  8
3
 62
     0
370
    -2
100
AcDbBlockReference
  2
_OPEN
 10
6381.407928765328
 20
2521.868553695462
 30
0.0
 41
80.0
 42
80.0
 43
80.0
  0
MTEXT
  5
85BA
330
85B2
100
AcDbEntity
  8
3
 62
     0
100
AcDbMText
 10
5780.407928765328
 20
2621.868553695462
 30
0.0
 40
120.0
 41
0.0
 71
     5
 72
     1
  1
\A1;1202
 73
     1
 44
1.0
1001
ACAD
1000
MTEXTBEGIN
1070
    73
1070
     1
1070
    44
1040
1.0
1070
    74
1070
     0
1000
MTEXTEND
  0
POINT
  5
85BB
330
85B2
100
AcDbEntity
  8
DEFPOINTS
 62
     0
100
AcDbPoint
 10
5179.407928765328
 20
2769.935954207627
 30
0.0
  0
POINT
  5
85BC
330
85B2
100
AcDbEntity
  8
DEFPOINTS
 62
     0
100
AcDbPoint
 10
6381.407928765328
 20
2769.935954207627
 30
0.0
  0
POINT
  5
85BD
330
85B2
100
AcDbEntity
  8
DEFPOINTS
 62
     0
100
AcDbPoint
 10
6381.407928765328
 20
2521.868553695462
 30
0.0
  0
ENDBLK
  5
85B4
330
85B2
100
AcDbEntity
  8
0
100
AcDbBlockEnd
  0
BLOCK
  5
85C0
330
85BF
100
AcDbEntity
  8
0
100
AcDbBlockBegin
  2
*D42
 70
     1
 10
0.0
 20
0.0
 30
0.0
  3
*D42
  1

  0
LINE
  5
85C2
330
85BF
100
AcDbEntity
  8
3
 62
     0
370
    -2
100
AcDbLine
 10
6381.407928765328
 20
2749.935954207627
 30
0.0
 11
6381.407928765328
 21
2481.868553695462
 31
0.0
  0
LINE
  5
85C3
330
85BF
100
AcDbEntity
  8
3
 62
     0
370
    -2
100
AcDbLine
 10
7299.407928765325
 20
2749.935954207627
 30
0.0
 11
7299.407928765325
 21
2481.868553695462
 31
0.0
  0
LINE
  5
85C4
330
85BF
100
AcDbEntity
  8
3
 62
     0
370
    -2
100
AcDbLine
 10
6461.407928765328
 20
2521.868553695462
 30
0.0
 11
7219.407928765325
 21
2521.868553695462
 31
0.0
  0
INSERT
  5
85C5
330
85BF
100
AcDbEntity
  8
3
 62
     0
370
    -2
100
AcDbBlockReference
  2
_OPEN
 10
6381.407928765328
 20
2521.868553695462
 30
0.0
 41
80.0
 42
80.0
 43
80.0
 50
180.0
  0
INSERT
  5
85C6
330
85BF
100
AcDbEntity
  8
3
 62
     0
370
    -2
100
AcDbBlockReference
  2
_OPEN
 10
7299.407928765325
 20
2521.868553695462
 30
0.0
 41
80.0
 42
80.0
 43
80.0
  0
MTEXT
  5
85C7
330
85BF
100
AcDbEntity
  8
3
 62
     0
100
AcDbMText
 10
6840.407928765327
 20
2621.868553695462
 30
0.0
 40
120.0
 41
0.0
 71
     5
 72
     1
  1
\A1;918
 73
     1
 44
1.0
1001
ACAD
1000
MTEXTBEGIN
1070
    73
1070
     1
1070
    44
1040
1.0
1070
    74
1070
     0
1000
MTEXTEND
  0
POINT
  5
85C8
330
85BF
100
AcDbEntity
  8
DEFPOINTS
 62
     0
100
AcDbPoint
 10
6381.407928765328
 20
2769.935954207627
 30
0.0
  0
POINT
  5
85C9
330
85BF
100
AcDbEntity
  8
DEFPOINTS
 62
     0
100
AcDbPoint
 10
7299.407928765325
 20
2769.935954207627
 30
0.0
  0
POINT
  5
85CA
330
85BF
100
AcDbEntity
  8
DEFPOINTS
 62
     0
100
AcDbPoint
 10
7299.407928765325
 20
2521.868553695462
 30
0.0
  0
ENDBLK
  5
85C1
330
85BF
100
AcDbEntity
  8
0
100
AcDbBlockEnd
  0
BLOCK
  5
85CD
330
85CC
100
AcDbEntity
  8
0
100
AcDbBlockBegin
  2
*D43
 70
     1
 10
0.0
 20
0.0
 30
0.0
  3
*D43
  1

  0
LINE
  5
85CF
330
85CC
100
AcDbEntity
  8
3
 62
     0
370
    -2
100
AcDbLine
 10
2006.831659683934
 20
8875.623467839007
 30
0.0
 11
1537.8155184481
 21
8875.623467839007
 31
0.0
  0
LINE
  5
85D0
330
85CC
100
AcDbEntity
  8
3
 62
     0
370
    -2
100
AcDbLine
 10
2006.831659683934
 20
6755.623467839007
 30
0.0
 11
1537.8155184481
 21
6755.623467839007
 31
0.0
  0
LINE
  5
85D1
330
85CC
100
AcDbEntity
  8
3
 62
     0
370
    -2
100
AcDbLine
 10
1577.8155184481
 20
8795.623467839005
 30
0.0
 11
1577.8155184481
 21
6835.623467839008
 31
0.0
  0
INSERT
  5
85D2
330
85CC
100
AcDbEntity
  8
3
 62
     0
370
    -2
100
AcDbBlockReference
  2
_OPEN
 10
1577.8155184481
 20
8875.623467839007
 30
0.0
 41
80.0
 42
80.0
 43
80.0
 50
90.0
  0
INSERT
  5
85D3
330
85CC
100
AcDbEntity
  8
3
 62
     0
370
    -2
100
AcDbBlockReference
  2
_OPEN
 10
1577.8155184481
 20
6755.623467839007
 30
0.0
 41
80.0
 42
80.0
 43
80.0
 50
270.0
  0
MTEXT
  5
85D4
330
85CC
100
AcDbEntity
  8
3
 62
     0
100
AcDbMText
 10
1477.815518448099
 20
7815.623467839007
 30
0.0
 40
120.0
 41
0.0
 71
     5
 72
     1
  1
\A1;2120
 11
0.0000000000000001
 21
1.0
 31
0.0
 73
     1
 44
1.0
1001
ACAD
1000
MTEXTBEGIN
1070
    73
1070
     1
1070
    44
1040
1.0
1070
    74
1070
     0
1000
MTEXTEND
  0
POINT
  5
85D5
330
85CC
100
AcDbEntity
  8
DEFPOINTS
 62
     0
100
AcDbPoint
 10
2026.831659683934
 20
8875.623467839007
 30
0.0
  0
POINT
  5
85D6
330
85CC
100
AcDbEntity
  8
DEFPOINTS
 62
     0
100
AcDbPoint
 10
2026.831659683934
 20
6755.623467839007
 30
0.0
  0
POINT
  5
85D7
330
85CC
100
AcDbEntity
  8
DEFPOINTS
 62
     0
100
AcDbPoint
 10
1577.8155184481
 20
6755.623467839007
 30
0.0
  0
ENDBLK
  5
85CE
330
85CC
100
AcDbEntity
  8
0
100
AcDbBlockEnd
  0
BLOCK
  5
85DA
330
85D9
100
AcDbEntity
  8
0
100
AcDbBlockBegin
  2
*D44
 70
     1
 10
0.0
 20
0.0
 30
0.0
  3
*D44
  1

  0
LINE
  5
85DC
330
85D9
100
AcDbEntity
  8
3
 62
     0
370
    -2
100
AcDbLine
 10
2026.831659683934
 20
6735.623467839008
 30
0.0
 11
2026.831659683934
 21
6350.869589649355
 31
0.0
  0
LINE
  5
85DD
330
85D9
100
AcDbEntity
  8
3
 62
     0
370
    -2
100
AcDbLine
 10
4476.831659683933
 20
6735.623467839008
 30
0.0
 11
4476.831659683933
 21
6350.869589649355
 31
0.0
  0
LINE
  5
85DE
330
85D9
100
AcDbEntity
  8
3
 62
     0
370
    -2
100
AcDbLine
 10
2106.831659683934
 20
6390.869589649355
 30
0.0
 11
4396.831659683932
 21
6390.869589649355
 31
0.0
  0
INSERT
  5
85DF
330
85D9
100
AcDbEntity
  8
3
 62
     0
370
    -2
100
AcDbBlockReference
  2
_OPEN
 10
2026.831659683934
 20
6390.869589649355
 30
0.0
 41
80.0
 42
80.0
 43
80.0
 50
180.0
  0
INSERT
  5
85E0
330
85D9
100
AcDbEntity
  8
3
 62
     0
370
    -2
100
AcDbBlockReference
  2
_OPEN
 10
4476.831659683933
 20
6390.869589649355
 30
0.0
 41
80.0
 42
80.0
 43
80.0
  0
MTEXT
  5
85E1
330
85D9
100
AcDbEntity
  8
3
 62
     0
100
AcDbMText
 10
3251.831659683933
 20
6490.869589649354
 30
0.0
 40
120.0
 41
0.0
 71
     5
 72
     1
  1
\A1;2450
 73
     1
 44
1.0
1001
ACAD
1000
MTEXTBEGIN
1070
    73
1070
     1
1070
    44
1040
1.0
1070
    74
1070
     0
1000
MTEXTEND
  0
POINT
  5
85E2
330
85D9
100
AcDbEntity
  8
DEFPOINTS
 62
     0
100
AcDbPoint
 10
2026.831659683934
 20
6755.623467839007
 30
0.0
  0
POINT
  5
85E3
330
85D9
100
AcDbEntity
  8
DEFPOINTS
 62
     0
100
AcDbPoint
 10
4476.831659683933
 20
6755.623467839007
 30
0.0
  0
POINT
  5
85E4
330
85D9
100
AcDbEntity
  8
DEFPOINTS
 62
     0
100
AcDbPoint
 10
4476.831659683933
 20
6390.869589649355
 30
0.0
  0
ENDBLK
  5
85DB
330
85D9
100
AcDbEntity
  8
0
100
AcDbBlockEnd
  0
BLOCK
  5
85E7
330
85E6
100
AcDbEntity
  8
0
100
AcDbBlockBegin
  2
*D45
 70
     1
 10
0.0
 20
0.0
 30
0.0
  3
*D45
  1

  0
LINE
  5
85E9
330
85E6
100
AcDbEntity
  8
3
 62
     0
370
    -2
100
AcDbLine
 10
4496.831659683933
 20
6755.623467839007
 30
0.0
 11
4783.158060791513
 21
6755.623467839007
 31
0.0
  0
LINE
  5
85EA
330
85E6
100
AcDbEntity
  8
3
 62
     0
370
    -2
100
AcDbLine
 10
4496.831659683933
 20
7755.623467839007
 30
0.0
 11
4783.158060791513
 21
7755.623467839007
 31
0.0
  0
LINE
  5
85EB
330
85E6
100
AcDbEntity
  8
3
 62
     0
370
    -2
100
AcDbLine
 10
4743.158060791513
 20
6835.623467839008
 30
0.0
 11
4743.158060791513
 21
7675.623467839007
 31
0.0
  0
INSERT
  5
85EC
330
85E6
100
AcDbEntity
  8
3
 62
     0
370
    -2
100
AcDbBlockReference
  2
_OPEN
 10
4743.158060791513
 20
6755.623467839007
 30
0.0
 41
80.0
 42
80.0
 43
80.0
 50
270.0
  0
INSERT
  5
85ED
330
85E6
100
AcDbEntity
  8
3
 62
     0
370
    -2
100
AcDbBlockReference
  2
_OPEN
 10
4743.158060791513
 20
7755.623467839007
 30
0.0
 41
80.0
 42
80.0
 43
80.0
 50
90.0
  0
MTEXT
  5
85EE
330
85E6
100
AcDbEntity
  8
3
 62
     0
100
AcDbMText
 10
4643.158060791511
 20
7255.623467839008
 30
0.0
 40
120.0
 41
0.0
 71
     5
 72
     1
  1
\A1;1000
 11
0.0000000000000001
 21
1.0
 31
0.0
 73
     1
 44
1.0
1001
ACAD
1000
MTEXTBEGIN
1070
    73
1070
     1
1070
    44
1040
1.0
1070
    74
1070
     0
1000
MTEXTEND
  0
POINT
  5
85EF
330
85E6
100
AcDbEntity
  8
DEFPOINTS
 62
     0
100
AcDbPoint
 10
4476.831659683933
 20
6755.623467839007
 30
0.0
  0
POINT
  5
85F0
330
85E6
100
AcDbEntity
  8
DEFPOINTS
 62
     0
100
AcDbPoint
 10
4476.831659683933
 20
7755.623467839007
 30
0.0
  0
POINT
  5
85F1
330
85E6
100
AcDbEntity
  8
DEFPOINTS
 62
     0
100
AcDbPoint
 10
4743.158060791513
 20
7755.623467839007
 30
0.0
  0
ENDBLK
  5
85E8
330
85E6
100
AcDbEntity
  8
0
100
AcDbBlockEnd
  0
BLOCK
  5
85F4
330
85F3
100
AcDbEntity
  8
0
100
AcDbBlockBegin
  2
*D46
 70
     1
 10
0.0
 20
0.0
 30
0.0
  3
*D46
  1

  0
LINE
  5
85F6
330
85F3
100
AcDbEntity
  8
3
 62
     0
370
    -2
100
AcDbLine
 10
4476.831659683933
 20
7775.623467839007
 30
0.0
 11
4476.831659683933
 21
9120.259606344193
 31
0.0
  0
LINE
  5
85F7
330
85F3
100
AcDbEntity
  8
3
 62
     0
370
    -2
100
AcDbLine
 10
3526.831659683934
 20
8895.623467839007
 30
0.0
 11
3526.831659683934
 21
9120.259606344193
 31
0.0
  0
LINE
  5
85F8
330
85F3
100
AcDbEntity
  8
3
 62
     0
370
    -2
100
AcDbLine
 10
4396.831659683932
 20
9080.259606344192
 30
0.0
 11
3606.831659683934
 21
9080.259606344192
 31
0.0
  0
INSERT
  5
85F9
330
85F3
100
AcDbEntity
  8
3
 62
     0
370
    -2
100
AcDbBlockReference
  2
_OPEN
 10
4476.831659683933
 20
9080.259606344192
 30
0.0
 41
80.0
 42
80.0
 43
80.0
  0
INSERT
  5
85FA
330
85F3
100
AcDbEntity
  8
3
 62
     0
370
    -2
100
AcDbBlockReference
  2
_OPEN
 10
3526.831659683934
 20
9080.259606344192
 30
0.0
 41
80.0
 42
80.0
 43
80.0
 50
180.0
  0
MTEXT
  5
85FB
330
85F3
100
AcDbEntity
  8
3
 62
     0
100
AcDbMText
 10
4001.831659683933
 20
9180.259606344192
 30
0.0
 40
120.0
 41
0.0
 71
     5
 72
     1
  1
\A1;950
 73
     1
 44
1.0
1001
ACAD
1000
MTEXTBEGIN
1070
    73
1070
     1
1070
    44
1040
1.0
1070
    74
1070
     0
1000
MTEXTEND
  0
POINT
  5
85FC
330
85F3
100
AcDbEntity
  8
DEFPOINTS
 62
     0
100
AcDbPoint
 10
4476.831659683933
 20
7755.623467839007
 30
0.0
  0
POINT
  5
85FD
330
85F3
100
AcDbEntity
  8
DEFPOINTS
 62
     0
100
AcDbPoint
 10
3526.831659683934
 20
8875.623467839007
 30
0.0
  0
POINT
  5
85FE
330
85F3
100
AcDbEntity
  8
DEFPOINTS
 62
     0
100
AcDbPoint
 10
3526.831659683934
 20
9080.259606344192
 30
0.0
  0
ENDBLK
  5
85F5
330
85F3
100
AcDbEntity
  8
0
100
AcDbBlockEnd
  0
BLOCK
  5
8601
330
8600
100
AcDbEntity
  8
0
100
AcDbBlockBegin
  2
*D47
 70
     1
 10
0.0
 20
0.0
 30
0.0
  3
*D47
  1

  0
LINE
  5
8603
330
8600
100
AcDbEntity
  8
3
 62
     0
370
    -2
100
AcDbLine
 10
3526.831659683934
 20
8895.623467839007
 30
0.0
 11
3526.831659683934
 21
9120.259606344193
 31
0.0
  0
LINE
  5
8604
330
8600
100
AcDbEntity
  8
3
 62
     0
370
    -2
100
AcDbLine
 10
2026.831659683934
 20
8895.623467839007
 30
0.0
 11
2026.831659683934
 21
9120.259606344193
 31
0.0
  0
LINE
  5
8605
330
8600
100
AcDbEntity
  8
3
 62
     0
370
    -2
100
AcDbLine
 10
3446.831659683934
 20
9080.259606344192
 30
0.0
 11
2106.831659683934
 21
9080.259606344192
 31
0.0
  0
INSERT
  5
8606
330
8600
100
AcDbEntity
  8
3
 62
     0
370
    -2
100
AcDbBlockReference
  2
_OPEN
 10
3526.831659683934
 20
9080.259606344192
 30
0.0
 41
80.0
 42
80.0
 43
80.0
  0
INSERT
  5
8607
330
8600
100
AcDbEntity
  8
3
 62
     0
370
    -2
100
AcDbBlockReference
  2
_OPEN
 10
2026.831659683934
 20
9080.259606344192
 30
0.0
 41
80.0
 42
80.0
 43
80.0
 50
180.0
  0
MTEXT
  5
8608
330
8600
100
AcDbEntity
  8
3
 62
     0
100
AcDbMText
 10
2776.831659683934
 20
9180.259606344192
 30
0.0
 40
120.0
 41
0.0
 71
     5
 72
     1
  1
\A1;1500
 73
     1
 44
1.0
1001
ACAD
1000
MTEXTBEGIN
1070
    73
1070
     1
1070
    44
1040
1.0
1070
    74
1070
     0
1000
MTEXTEND
  0
POINT
  5
8609
330
8600
100
AcDbEntity
  8
DEFPOINTS
 62
     0
100
AcDbPoint
 10
3526.831659683934
 20
8875.623467839007
 30
0.0
  0
POINT
  5
860A
330
8600
100
AcDbEntity
  8
DEFPOINTS
 62
     0
100
AcDbPoint
 10
2026.831659683934
 20
8875.623467839007
 30
0.0
  0
POINT
  5
860B
330
8600
100
AcDbEntity
  8
DEFPOINTS
 62
     0
100
AcDbPoint
 10
2026.831659683934
 20
9080.259606344192
 30
0.0
  0
ENDBLK
  5
8602
330
8600
100
AcDbEntity
  8
0
100
AcDbBlockEnd
  0
BLOCK
  5
860E
330
860D
100
AcDbEntity
  8
0
100
AcDbBlockBegin
  2
*D48
 70
     1
 10
0.0
 20
0.0
 30
0.0
  3
*D48
  1

  0
LINE
  5
8610
330
860D
100
AcDbEntity
  8
3
 62
     0
370
    -2
100
AcDbLine
 10
1951.831659683934
 20
4388.935954207628
 30
0.0
 11
1951.831659683934
 21
5574.448112292856
 31
0.0
  0
LINE
  5
8611
330
860D
100
AcDbEntity
  8
3
 62
     0
370
    -2
100
AcDbLine
 10
2776.831659683934
 20
5438.534369238305
 30
0.0
 11
2776.831659683934
 21
5574.448112292856
 31
0.0
  0
LINE
  5
8612
330
860D
100
AcDbEntity
  8
3
 62
     0
370
    -2
100
AcDbLine
 10
2031.831659683934
 20
5534.448112292857
 30
0.0
 11
2696.831659683934
 21
5534.448112292857
 31
0.0
  0
INSERT
  5
8613
330
860D
100
AcDbEntity
  8
3
 62
     0
370
    -2
100
AcDbBlockReference
  2
_OPEN
 10
1951.831659683934
 20
5534.448112292857
 30
0.0
 41
80.0
 42
80.0
 43
80.0
 50
180.0
  0
INSERT
  5
8614
330
860D
100
AcDbEntity
  8
3
 62
     0
370
    -2
100
AcDbBlockReference
  2
_OPEN
 10
2776.831659683934
 20
5534.448112292857
 30
0.0
 41
80.0
 42
80.0
 43
80.0
  0
MTEXT
  5
8615
330
860D
100
AcDbEntity
  8
3
 62
     0
100
AcDbMText
 10
2364.331659683934
 20
5634.448112292856
 30
0.0
 40
120.0
 41
0.0
 71
     5
 72
     1
  1
\A1;825
 73
     1
 44
1.0
1001
ACAD
1000
MTEXTBEGIN
1070
    73
1070
     1
1070
    44
1040
1.0
1070
    74
1070
     0
1000
MTEXTEND
  0
POINT
  5
8616
330
860D
100
AcDbEntity
  8
DEFPOINTS
 62
     0
100
AcDbPoint
 10
1951.831659683934
 20
4368.935954207628
 30
0.0
  0
POINT
  5
8617
330
860D
100
AcDbEntity
  8
DEFPOINTS
 62
     0
100
AcDbPoint
 10
2776.831659683934
 20
5418.534369238305
 30
0.0
  0
POINT
  5
8618
330
860D
100
AcDbEntity
  8
DEFPOINTS
 62
     0
100
AcDbPoint
 10
2776.831659683934
 20
5534.448112292857
 30
0.0
  0
ENDBLK
  5
860F
330
860D
100
AcDbEntity
  8
0
100
AcDbBlockEnd
  0
BLOCK
  5
861B
330
861A
100
AcDbEntity
  8
0
100
AcDbBlockBegin
  2
*D49
 70
     1
 10
0.0
 20
0.0
 30
0.0
  3
*D49
  1

  0
LINE
  5
861D
330
861A
100
AcDbEntity
  8
3
 62
     0
370
    -2
100
AcDbLine
 10
2776.831659683934
 20
5438.534369238305
 30
0.0
 11
2776.831659683934
 21
5574.448112292856
 31
0.0
  0
LINE
  5
861E
330
861A
100
AcDbEntity
  8
3
 62
     0
370
    -2
100
AcDbLine
 10
3855.831659683934
 20
4298.935954207627
 30
0.0
 11
3855.831659683934
 21
5574.448112292856
 31
0.0
  0
LINE
  5
861F
330
861A
100
AcDbEntity
  8
3
 62
     0
370
    -2
100
AcDbLine
 10
2856.831659683934
 20
5534.448112292857
 30
0.0
 11
3775.831659683934
 21
5534.448112292857
 31
0.0
  0
INSERT
  5
8620
330
861A
100
AcDbEntity
  8
3
 62
     0
370
    -2
100
AcDbBlockReference
  2
_OPEN
 10
2776.831659683934
 20
5534.448112292857
 30
0.0
 41
80.0
 42
80.0
 43
80.0
 50
180.0
  0
INSERT
  5
8621
330
861A
100
AcDbEntity
  8
3
 62
     0
370
    -2
100
AcDbBlockReference
  2
_OPEN
 10
3855.831659683934
 20
5534.448112292857
 30
0.0
 41
80.0
 42
80.0
 43
80.0
  0
MTEXT
  5
8622
330
861A
100
AcDbEntity
  8
3
 62
     0
100
AcDbMText
 10
3316.331659683934
 20
5634.448112292856
 30
0.0
 40
120.0
 41
0.0
 71
     5
 72
     1
  1
\A1;1079
 73
     1
 44
1.0
1001
ACAD
1000
MTEXTBEGIN
1070
    73
1070
     1
1070
    44
1040
1.0
1070
    74
1070
     0
1000
MTEXTEND
  0
POINT
  5
8623
330
861A
100
AcDbEntity
  8
DEFPOINTS
 62
     0
100
AcDbPoint
 10
2776.831659683934
 20
5418.534369238305
 30
0.0
  0
POINT
  5
8624
330
861A
100
AcDbEntity
  8
DEFPOINTS
 62
     0
100
AcDbPoint
 10
3855.831659683934
 20
4278.935954207628
 30
0.0
  0
POINT
  5
8625
330
861A
100
AcDbEntity
  8
DEFPOINTS
 62
     0
100
AcDbPoint
 10
3855.831659683934
 20
5534.448112292857
 30
0.0
  0
ENDBLK
  5
861C
330
861A
100
AcDbEntity
  8
0
100
AcDbBlockEnd
  0
BLOCK
  5
8628
330
8627
100
AcDbEntity
  8
0
100
AcDbBlockBegin
  2
*D50
 70
     1
 10
0.0
 20
0.0
 30
0.0
  3
*D50
  1

  0
LINE
  5
862A
330
8627
100
AcDbEntity
  8
3
 62
     0
370
    -2
100
AcDbLine
 10
1951.831659683934
 20
4388.935954207628
 30
0.0
 11
1951.831659683934
 21
5855.282770043522
 31
0.0
  0
LINE
  5
862B
330
8627
100
AcDbEntity
  8
3
 62
     0
370
    -2
100
AcDbLine
 10
4476.831659683933
 20
3084.935954207627
 30
0.0
 11
4476.831659683933
 21
5855.282770043522
 31
0.0
  0
LINE
  5
862C
330
8627
100
AcDbEntity
  8
3
 62
     0
370
    -2
100
AcDbLine
 10
2031.831659683934
 20
5815.282770043522
 30
0.0
 11
4396.831659683932
 21
5815.282770043522
 31
0.0
  0
INSERT
  5
862D
330
8627
100
AcDbEntity
  8
3
 62
     0
370
    -2
100
AcDbBlockReference
  2
_OPEN
 10
1951.831659683934
 20
5815.282770043522
 30
0.0
 41
80.0
 42
80.0
 43
80.0
 50
180.0
  0
INSERT
  5
862E
330
8627
100
AcDbEntity
  8
3
 62
     0
370
    -2
100
AcDbBlockReference
  2
_OPEN
 10
4476.831659683933
 20
5815.282770043522
 30
0.0
 41
80.0
 42
80.0
 43
80.0
  0
MTEXT
  5
862F
330
8627
100
AcDbEntity
  8
3
 62
     0
100
AcDbMText
 10
3214.331659683934
 20
5915.282770043521
 30
0.0
 40
120.0
 41
0.0
 71
     5
 72
     1
  1
\A1;2525
 73
     1
 44
1.0
1001
ACAD
1000
MTEXTBEGIN
1070
    73
1070
     1
1070
    44
1040
1.0
1070
    74
1070
     0
1000
MTEXTEND
  0
POINT
  5
8630
330
8627
100
AcDbEntity
  8
DEFPOINTS
 62
     0
100
AcDbPoint
 10
1951.831659683934
 20
4368.935954207628
 30
0.0
  0
POINT
  5
8631
330
8627
100
AcDbEntity
  8
DEFPOINTS
 62
     0
100
AcDbPoint
 10
4476.831659683933
 20
3064.935954207627
 30
0.0
  0
POINT
  5
8632
330
8627
100
AcDbEntity
  8
DEFPOINTS
 62
     0
100
AcDbPoint
 10
4476.831659683933
 20
5815.282770043522
 30
0.0
  0
ENDBLK
  5
8629
330
8627
100
AcDbEntity
  8
0
100
AcDbBlockEnd
  0
BLOCK
  5
8635
330
8634
100
AcDbEntity
  8
0
100
AcDbBlockBegin
  2
*D51
 70
     1
 10
0.0
 20
0.0
 30
0.0
  3
*D51
  1

  0
LINE
  5
8637
330
8634
100
AcDbEntity
  8
3
 62
     0
370
    -2
100
AcDbLine
 10
2026.831659683934
 20
2749.935954207627
 30
0.0
 11
2026.831659683934
 21
2478.568335764325
 31
0.0
  0
LINE
  5
8638
330
8634
100
AcDbEntity
  8
3
 62
     0
370
    -2
100
AcDbLine
 10
2776.831659683934
 20
2749.935954207627
 30
0.0
 11
2776.831659683934
 21
2478.568335764325
 31
0.0
  0
LINE
  5
8639
330
8634
100
AcDbEntity
  8
3
 62
     0
370
    -2
100
AcDbLine
 10
2106.831659683934
 20
2518.568335764325
 30
0.0
 11
2696.831659683934
 21
2518.568335764325
 31
0.0
  0
INSERT
  5
863A
330
8634
100
AcDbEntity
  8
3
 62
     0
370
    -2
100
AcDbBlockReference
  2
_OPEN
 10
2026.831659683934
 20
2518.568335764325
 30
0.0
 41
80.0
 42
80.0
 43
80.0
 50
180.0
  0
INSERT
  5
863B
330
8634
100
AcDbEntity
  8
3
 62
     0
370
    -2
100
AcDbBlockReference
  2
_OPEN
 10
2776.831659683934
 20
2518.568335764325
 30
0.0
 41
80.0
 42
80.0
 43
80.0
  0
MTEXT
  5
863C
330
8634
100
AcDbEntity
  8
3
 62
     0
100
AcDbMText
 10
2401.831659683934
 20
2618.568335764325
 30
0.0
 40
120.0
 41
0.0
 71
     5
 72
     1
  1
\A1;750
 73
     1
 44
1.0
1001
ACAD
1000
MTEXTBEGIN
1070
    73
1070
     1
1070
    44
1040
1.0
1070
    74
1070
     0
1000
MTEXTEND
  0
POINT
  5
863D
330
8634
100
AcDbEntity
  8
DEFPOINTS
 62
     0
100
AcDbPoint
 10
2026.831659683934
 20
2769.935954207627
 30
0.0
  0
POINT
  5
863E
330
8634
100
AcDbEntity
  8
DEFPOINTS
 62
     0
100
AcDbPoint
 10
2776.831659683934
 20
2769.935954207627
 30
0.0
  0
POINT
  5
863F
330
8634
100
AcDbEntity
  8
DEFPOINTS
 62
     0
100
AcDbPoint
 10
2776.831659683934
 20
2518.568335764325
 30
0.0
  0
ENDBLK
  5
8636
330
8634
100
AcDbEntity
  8
0
100
AcDbBlockEnd
  0
BLOCK
  5
8642
330
8641
100
AcDbEntity
  8
0
100
AcDbBlockBegin
  2
*D52
 70
     1
 10
0.0
 20
0.0
 30
0.0
  3
*D52
  1

  0
LINE
  5
8644
330
8641
100
AcDbEntity
  8
3
 62
     0
370
    -2
100
AcDbLine
 10
2776.831659683934
 20
2749.935954207627
 30
0.0
 11
2776.831659683934
 21
2478.568335764325
 31
0.0
  0
LINE
  5
8645
330
8641
100
AcDbEntity
  8
3
 62
     0
370
    -2
100
AcDbLine
 10
4476.831659683933
 20
2749.935954207627
 30
0.0
 11
4476.831659683933
 21
2478.568335764325
 31
0.0
  0
LINE
  5
8646
330
8641
100
AcDbEntity
  8
3
 62
     0
370
    -2
100
AcDbLine
 10
2856.831659683934
 20
2518.568335764325
 30
0.0
 11
4396.831659683932
 21
2518.568335764325
 31
0.0
  0
INSERT
  5
8647
330
8641
100
AcDbEntity
  8
3
 62
     0
370
    -2
100
AcDbBlockReference
  2
_OPEN
 10
2776.831659683934
 20
2518.568335764325
 30
0.0
 41
80.0
 42
80.0
 43
80.0
 50
180.0
  0
INSERT
  5
8648
330
8641
100
AcDbEntity
  8
3
 62
     0
370
    -2
100
AcDbBlockReference
  2
_OPEN
 10
4476.831659683933
 20
2518.568335764325
 30
0.0
 41
80.0
 42
80.0
 43
80.0
  0
MTEXT
  5
8649
330
8641
100
AcDbEntity
  8
3
 62
     0
100
AcDbMText
 10
3626.831659683933
 20
2618.568335764325
 30
0.0
 40
120.0
 41
0.0
 71
     5
 72
     1
  1
\A1;1700
 73
     1
 44
1.0
1001
ACAD
1000
MTEXTBEGIN
1070
    73
1070
     1
1070
    44
1040
1.0
1070
    74
1070
     0
1000
MTEXTEND
  0
POINT
  5
864A
330
8641
100
AcDbEntity
  8
DEFPOINTS
 62
     0
100
AcDbPoint
 10
2776.831659683934
 20
2769.935954207627
 30
0.0
  0
POINT
  5
864B
330
8641
100
AcDbEntity
  8
DEFPOINTS
 62
     0
100
AcDbPoint
 10
4476.831659683933
 20
2769.935954207627
 30
0.0
  0
POINT
  5
864C
330
8641
100
AcDbEntity
  8
DEFPOINTS
 62
     0
100
AcDbPoint
 10
4476.831659683933
 20
2518.568335764325
 30
0.0
  0
ENDBLK
  5
8643
330
8641
100
AcDbEntity
  8
0
100
AcDbBlockEnd
  0
BLOCK
  5
864F
330
864E
100
AcDbEntity
  8
0
100
AcDbBlockBegin
  2
*D53
 70
     1
 10
0.0
 20
0.0
 30
0.0
  3
*D53
  1

  0
LINE
  5
8651
330
864E
100
AcDbEntity
  8
3
 62
     0
370
    -2
100
AcDbLine
 10
1931.831659683934
 20
4315.935954207627
 30
0.0
 11
1658.820626993976
 21
4315.935954207627
 31
0.0
  0
LINE
  5
8652
330
864E
100
AcDbEntity
  8
3
 62
     0
370
    -2
100
AcDbLine
 10
1931.831659683934
 20
3035.935954207627
 30
0.0
 11
1658.820626993976
 21
3035.935954207627
 31
0.0
  0
LINE
  5
8653
330
864E
100
AcDbEntity
  8
3
 62
     0
370
    -2
100
AcDbLine
 10
1698.820626993977
 20
4235.935954207627
 30
0.0
 11
1698.820626993976
 21
3115.935954207627
 31
0.0
  0
INSERT
  5
8654
330
864E
100
AcDbEntity
  8
3
 62
     0
370
    -2
100
AcDbBlockReference
  2
_OPEN
 10
1698.820626993977
 20
4315.935954207627
 30
0.0
 41
80.0
 42
80.0
 43
80.0
 50
90.0
  0
INSERT
  5
8655
330
864E
100
AcDbEntity
  8
3
 62
     0
370
    -2
100
AcDbBlockReference
  2
_OPEN
 10
1698.820626993976
 20
3035.935954207627
 30
0.0
 41
80.0
 42
80.0
 43
80.0
 50
270.0
  0
MTEXT
  5
8656
330
864E
100
AcDbEntity
  8
3
 62
     0
100
AcDbMText
 10
1598.820626993975
 20
3675.935954207627
 30
0.0
 40
120.0
 41
0.0
 71
     5
 72
     1
  1
\A1;1280
 11
0.0000000000000001
 21
1.0
 31
0.0
 73
     1
 44
1.0
1001
ACAD
1000
MTEXTBEGIN
1070
    73
1070
     1
1070
    44
1040
1.0
1070
    74
1070
     0
1000
MTEXTEND
  0
POINT
  5
8657
330
864E
100
AcDbEntity
  8
DEFPOINTS
 62
     0
100
AcDbPoint
 10
1951.831659683934
 20
4315.935954207627
 30
0.0
  0
POINT
  5
8658
330
864E
100
AcDbEntity
  8
DEFPOINTS
 62
     0
100
AcDbPoint
 10
1951.831659683934
 20
3035.935954207627
 30
0.0
  0
POINT
  5
8659
330
864E
100
AcDbEntity
  8
DEFPOINTS
 62
     0
100
AcDbPoint
 10
1698.820626993976
 20
3035.935954207627
 30
0.0
  0
ENDBLK
  5
8650
330
864E
100
AcDbEntity
  8
0
100
AcDbBlockEnd
  0
BLOCK
  5
865C
330
865B
100
AcDbEntity
  8
0
100
AcDbBlockBegin
  2
*D54
 70
     1
 10
0.0
 20
0.0
 30
0.0
  3
*D54
  1

  0
LINE
  5
865E
330
865B
100
AcDbEntity
  8
3
 62
     0
370
    -2
100
AcDbLine
 10
2847.831659683933
 20
5266.935954207628
 30
0.0
 11
1163.170627867308
 21
5266.935954207629
 31
0.0
  0
LINE
  5
865F
330
865B
100
AcDbEntity
  8
3
 62
     0
370
    -2
100
AcDbLine
 10
1919.310814992313
 20
4369.935954207627
 30
0.0
 11
1163.170627867308
 21
4369.935954207627
 31
0.0
  0
LINE
  5
8660
330
865B
100
AcDbEntity
  8
3
 62
     0
370
    -2
100
AcDbLine
 10
1203.170627867308
 20
5186.935954207629
 30
0.0
 11
1203.170627867308
 21
4449.935954207627
 31
0.0
  0
INSERT
  5
8661
330
865B
100
AcDbEntity
  8
3
 62
     0
370
    -2
100
AcDbBlockReference
  2
_OPEN
 10
1203.170627867308
 20
5266.935954207629
 30
0.0
 41
80.0
 42
80.0
 43
80.0
 50
90.0
  0
INSERT
  5
8662
330
865B
100
AcDbEntity
  8
3
 62
     0
370
    -2
100
AcDbBlockReference
  2
_OPEN
 10
1203.170627867308
 20
4369.935954207627
 30
0.0
 41
80.0
 42
80.0
 43
80.0
 50
270.0
  0
MTEXT
  5
8663
330
865B
100
AcDbEntity
  8
3
 62
     0
100
AcDbMText
 10
1103.170627867307
 20
4818.435954207628
 30
0.0
 40
120.0
 41
0.0
 71
     5
 72
     1
  1
\A1;897
 11
0.0000000000000001
 21
1.0
 31
0.0
 73
     1
 44
1.0
1001
ACAD
1000
MTEXTBEGIN
1070
    73
1070
     1
1070
    44
1040
1.0
1070
    74
1070
     0
1000
MTEXTEND
  0
POINT
  5
8664
330
865B
100
AcDbEntity
  8
DEFPOINTS
 62
     0
100
AcDbPoint
 10
2867.831659683934
 20
5266.935954207628
 30
0.0
  0
POINT
  5
8665
330
865B
100
AcDbEntity
  8
DEFPOINTS
 62
     0
100
AcDbPoint
 10
1939.310814992313
 20
4369.935954207627
 30
0.0
  0
POINT
  5
8666
330
865B
100
AcDbEntity
  8
DEFPOINTS
 62
     0
100
AcDbPoint
 10
1203.170627867308
 20
4369.935954207627
 30
0.0
  0
ENDBLK
  5
865D
330
865B
100
AcDbEntity
  8
0
100
AcDbBlockEnd
  0
BLOCK
  5
8669
330
8668
100
AcDbEntity
  8
0
100
AcDbBlockBegin
  2
*D55
 70
     1
 10
0.0
 20
0.0
 30
0.0
  3
*D55
  1

  0
LINE
  5
866B
330
8668
100
AcDbEntity
  8
3
 62
     0
370
    -2
100
AcDbLine
 10
1919.310814992313
 20
4369.935954207627
 30
0.0
 11
1163.170627867308
 21
4369.935954207627
 31
0.0
  0
LINE
  5
866C
330
8668
100
AcDbEntity
  8
3
 62
     0
370
    -2
100
AcDbLine
 10
2006.831659683934
 20
2939.935954207627
 30
0.0
 11
1163.170627867307
 21
2939.935954207627
 31
0.0
  0
LINE
  5
866D
330
8668
100
AcDbEntity
  8
3
 62
     0
370
    -2
100
AcDbLine
 10
1203.170627867308
 20
4289.935954207627
 30
0.0
 11
1203.170627867307
 21
3019.935954207627
 31
0.0
  0
INSERT
  5
866E
330
8668
100
AcDbEntity
  8
3
 62
     0
370
    -2
100
AcDbBlockReference
  2
_OPEN
 10
1203.170627867308
 20
4369.935954207627
 30
0.0
 41
80.0
 42
80.0
 43
80.0
 50
90.0
  0
INSERT
  5
866F
330
8668
100
AcDbEntity
  8
3
 62
     0
370
    -2
100
AcDbBlockReference
  2
_OPEN
 10
1203.170627867307
 20
2939.935954207627
 30
0.0
 41
80.0
 42
80.0
 43
80.0
 50
270.0
  0
MTEXT
  5
8670
330
8668
100
AcDbEntity
  8
3
 62
     0
100
AcDbMText
 10
1103.170627867307
 20
3654.935954207628
 30
0.0
 40
120.0
 41
0.0
 71
     5
 72
     1
  1
\A1;1430
 11
0.0000000000000001
 21
1.0
 31
0.0
 73
     1
 44
1.0
1001
ACAD
1000
MTEXTBEGIN
1070
    73
1070
     1
1070
    44
1040
1.0
1070
    74
1070
     0
1000
MTEXTEND
  0
POINT
  5
8671
330
8668
100
AcDbEntity
  8
DEFPOINTS
 62
     0
100
AcDbPoint
 10
1939.310814992313
 20
4369.935954207627
 30
0.0
  0
POINT
  5
8672
330
8668
100
AcDbEntity
  8
DEFPOINTS
 62
     0
100
AcDbPoint
 10
2026.831659683934
 20
2939.935954207627
 30
0.0
  0
POINT
  5
8673
330
8668
100
AcDbEntity
  8
DEFPOINTS
 62
     0
100
AcDbPoint
 10
1203.170627867307
 20
2939.935954207627
 30
0.0
  0
ENDBLK
  5
866A
330
8668
100
AcDbEntity
  8
0
100
AcDbBlockEnd
  0
BLOCK
  5
8676
330
8675
100
AcDbEntity
  8
0
100
AcDbBlockBegin
  2
*D56
 70
     1
 10
0.0
 20
0.0
 30
0.0
  3
*D56
  1

  0
LINE
  5
8759
330
8675
100
AcDbEntity
  8
3
 62
     0
370
    -2
100
AcDbLine
 10
2006.831659683934
 20
2939.935954207627
 30
0.0
 11
1163.170627867307
 21
2939.935954207627
 31
0.0
  0
LINE
  5
875A
330
8675
100
AcDbEntity
  8
3
 62
     0
370
    -2
100
AcDbLine
 10
2006.831659683934
 20
2834.935954207627
 30
0.0
 11
1163.170627867307
 21
2834.935954207627
 31
0.0
  0
LINE
  5
875B
330
8675
100
AcDbEntity
  8
3
 62
     0
370
    -2
100
AcDbLine
 10
1203.170627867307
 20
3019.935954207627
 30
0.0
 11
1203.170627867307
 21
3099.935954207627
 31
0.0
  0
LINE
  5
875C
330
8675
100
AcDbEntity
  8
3
 62
     0
370
    -2
100
AcDbLine
 10
1203.170627867307
 20
2834.935954207627
 30
0.0
 11
1203.170627867307
 21
2754.935954207627
 31
0.0
  0
LINE
  5
875D
330
8675
100
AcDbEntity
  8
3
 62
     0
370
    -2
100
AcDbLine
 10
1203.170627867307
 20
2887.435954207627
 30
0.0
 11
1011.742056438736
 21
2944.864525636199
 31
0.0
  0
LINE
  5
875E
330
8675
100
AcDbEntity
  8
3
 62
     0
370
    -2
100
AcDbLine
 10
1011.742056438736
 20
2944.864525636199
 30
0.0
 11
1011.742056438736
 21
3464.864525636199
 31
0.0
  0
MTEXT
  5
875F
330
8675
100
AcDbEntity
  8
3
 62
     0
100
AcDbMText
 10
880.3134850101644
 20
3204.864525636199
 30
0.0
 40
120.0
 41
0.0
 71
     5
 72
     1
  1
\A1;(105)
 11
0.0000000000000001
 21
1.0
 31
0.0
 73
     1
 44
1.0
1001
ACAD
1000
MTEXTBEGIN
1070
    73
1070
     1
1070
    44
1040
1.0
1070
    74
1070
     0
1000
MTEXTEND
  0
LINE
  5
8760
330
8675
100
AcDbEntity
  8
3
 62
     0
370
    -2
100
AcDbLine
 10
1203.170627867307
 20
2939.935954207627
 30
0.0
 11
1203.170627867307
 21
2834.935954207627
 31
0.0
  0
LINE
  5
8761
330
8675
100
AcDbEntity
  8
3
 62
     0
370
    -2
100
AcDbLine
 10
1203.170627867307
 20
2939.935954207627
 30
0.0
 11
1203.170627867307
 21
2834.935954207627
 31
0.0
  0
INSERT
  5
8762
330
8675
100
AcDbEntity
  8
3
 62
     0
370
    -2
100
AcDbBlockReference
  2
_OPEN
 10
1203.170627867307
 20
2939.935954207627
 30
0.0
 41
80.0
 42
80.0
 43
80.0
 50
270.0
  0
INSERT
  5
8763
330
8675
100
AcDbEntity
  8
3
 62
     0
370
    -2
100
AcDbBlockReference
  2
_DotSmall
 10
1203.170627867307
 20
2834.935954207627
 30
0.0
 41
80.0
 42
80.0
 43
80.0
 50
90.0
  0
POINT
  5
8764
330
8675
100
AcDbEntity
  8
DEFPOINTS
 62
     0
100
AcDbPoint
 10
2026.831659683934
 20
2939.935954207627
 30
0.0
  0
POINT
  5
8765
330
8675
100
AcDbEntity
  8
DEFPOINTS
 62
     0
100
AcDbPoint
 10
2026.831659683934
 20
2834.935954207627
 30
0.0
  0
POINT
  5
8766
330
8675
100
AcDbEntity
  8
DEFPOINTS
 62
     0
100
AcDbPoint
 10
1203.170627867307
 20
2834.935954207627
 30
0.0
  0
ENDBLK
  5
8677
330
8675
100
AcDbEntity
  8
0
100
AcDbBlockEnd
  0
BLOCK
  5
8688
330
8687
100
AcDbEntity
  8
0
100
AcDbBlockBegin
  2
*D57
 70
     1
 10
0.0
 20
0.0
 30
0.0
  3
*D57
  1

  0
LINE
  5
87B5
330
8687
100
AcDbEntity
  8
3
 62
     0
370
    -2
100
AcDbLine
 10
2006.831659683934
 20
2834.935954207627
 30
0.0
 11
1163.170627867307
 21
2834.935954207627
 31
0.0
  0
LINE
  5
87B6
330
8687
100
AcDbEntity
  8
3
 62
     0
370
    -2
100
AcDbLine
 10
2006.831659683934
 20
2769.935954207627
 30
0.0
 11
1163.170627867307
 21
2769.935954207627
 31
0.0
  0
LINE
  5
87B7
330
8687
100
AcDbEntity
  8
3
 62
     0
370
    -2
100
AcDbLine
 10
1203.170627867307
 20
2834.935954207627
 30
0.0
 11
1203.170627867307
 21
2914.935954207627
 31
0.0
  0
LINE
  5
87B8
330
8687
100
AcDbEntity
  8
3
 62
     0
370
    -2
100
AcDbLine
 10
1203.170627867307
 20
2689.935954207627
 30
0.0
 11
1203.170627867307
 21
2609.935954207627
 31
0.0
  0
MTEXT
  5
87B9
330
8687
100
AcDbEntity
  8
3
 62
     0
100
AcDbMText
 10
1076.06227071915
 20
2599.189938081098
 30
0.0
 40
120.0
 41
0.0
 71
     5
 72
     1
  1
\A1;65
 11
0.0000000000000001
 21
1.0
 31
0.0
 73
     1
 44
1.0
1001
ACAD
1000
MTEXTBEGIN
1070
    73
1070
     1
1070
    44
1040
1.0
1070
    74
1070
     0
1000
MTEXTEND
  0
LINE
  5
87BA
330
8687
100
AcDbEntity
  8
3
 62
     0
370
    -2
100
AcDbLine
 10
1203.170627867307
 20
2834.935954207627
 30
0.0
 11
1203.170627867307
 21
2769.935954207627
 31
0.0
  0
INSERT
  5
87BB
330
8687
100
AcDbEntity
  8
3
 62
     0
370
    -2
100
AcDbBlockReference
  2
_DotSmall
 10
1203.170627867307
 20
2834.935954207627
 30
0.0
 41
80.0
 42
80.0
 43
80.0
 50
270.0
  0
INSERT
  5
87BC
330
8687
100
AcDbEntity
  8
3
 62
     0
370
    -2
100
AcDbBlockReference
  2
_OPEN
 10
1203.170627867307
 20
2769.935954207627
 30
0.0
 41
80.0
 42
80.0
 43
80.0
 50
90.0
  0
POINT
  5
87BD
330
8687
100
AcDbEntity
  8
DEFPOINTS
 62
     0
100
AcDbPoint
 10
2026.831659683934
 20
2834.935954207627
 30
0.0
  0
POINT
  5
87BE
330
8687
100
AcDbEntity
  8
DEFPOINTS
 62
     0
100
AcDbPoint
 10
2026.831659683934
 20
2769.935954207627
 30
0.0
  0
POINT
  5
87BF
330
8687
100
AcDbEntity
  8
DEFPOINTS
 62
     0
100
AcDbPoint
 10
1203.170627867307
 20
2769.935954207627
 30
0.0
  0
ENDBLK
  5
8689
330
8687
100
AcDbEntity
  8
0
100
AcDbBlockEnd
  0
BLOCK
  5
869A
330
8699
100
AcDbEntity
  8
0
100
AcDbBlockBegin
  2
*D58
 70
     1
 10
0.0
 20
0.0
 30
0.0
  3
*D58
  1

  0
LINE
  5
869C
330
8699
100
AcDbEntity
  8
3
 62
     0
370
    -2
100
AcDbLine
 10
1931.831659683934
 20
3035.935954207627
 30
0.0
 11
1411.757784537447
 21
3035.935954207627
 31
0.0
  0
LINE
  5
869D
330
8699
100
AcDbEntity
  8
3
 62
     0
370
    -2
100
AcDbLine
 10
1919.310814992313
 20
4369.935954207627
 30
0.0
 11
1411.757784537447
 21
4369.935954207627
 31
0.0
  0
LINE
  5
869E
330
8699
100
AcDbEntity
  8
3
 62
     0
370
    -2
100
AcDbLine
 10
1451.757784537447
 20
3115.935954207627
 30
0.0
 11
1451.757784537447
 21
4289.935954207627
 31
0.0
  0
INSERT
  5
869F
330
8699
100
AcDbEntity
  8
3
 62
     0
370
    -2
100
AcDbBlockReference
  2
_OPEN
 10
1451.757784537447
 20
3035.935954207627
 30
0.0
 41
80.0
 42
80.0
 43
80.0
 50
270.0
  0
INSERT
  5
86A0
330
8699
100
AcDbEntity
  8
3
 62
     0
370
    -2
100
AcDbBlockReference
  2
_OPEN
 10
1451.757784537447
 20
4369.935954207627
 30
0.0
 41
80.0
 42
80.0
 43
80.0
 50
90.0
  0
MTEXT
  5
86A1
330
8699
100
AcDbEntity
  8
3
 62
     0
100
AcDbMText
 10
1351.757784537446
 20
3702.935954207627
 30
0.0
 40
120.0
 41
0.0
 71
     5
 72
     1
  1
\A1;1334
 11
0.0000000000000001
 21
1.0
 31
0.0
 73
     1
 44
1.0
1001
ACAD
1000
MTEXTBEGIN
1070
    73
1070
     1
1070
    44
1040
1.0
1070
    74
1070
     0
1000
MTEXTEND
  0
POINT
  5
86A2
330
8699
100
AcDbEntity
  8
DEFPOINTS
 62
     0
100
AcDbPoint
 10
1951.831659683934
 20
3035.935954207627
 30
0.0
  0
POINT
  5
86A3
330
8699
100
AcDbEntity
  8
DEFPOINTS
 62
     0
100
AcDbPoint
 10
1939.310814992313
 20
4369.935954207627
 30
0.0
  0
POINT
  5
86A4
330
8699
100
AcDbEntity
  8
DEFPOINTS
 62
     0
100
AcDbPoint
 10
1451.757784537447
 20
4369.935954207627
 30
0.0
  0
ENDBLK
  5
869B
330
8699
100
AcDbEntity
  8
0
100
AcDbBlockEnd
  0
BLOCK
  5
86A7
330
86A6
100
AcDbEntity
  8
0
100
AcDbBlockBegin
  2
*D59
 70
     1
 10
0.0
 20
0.0
 30
0.0
  3
*D59
  1

  0
LINE
  5
86EB
330
86A6
100
AcDbEntity
  8
3
 62
     0
370
    -2
100
AcDbLine
 10
2006.831659683934
 20
2769.935954207627
 30
0.0
 11
670.2612047087162
 21
2769.935954207627
 31
0.0
  0
LINE
  5
86EC
330
86A6
100
AcDbEntity
  8
3
 62
     0
370
    -2
100
AcDbLine
 10
2847.831659683933
 20
5266.935954207628
 30
0.0
 11
670.261204708717
 21
5266.935954207629
 31
0.0
  0
LINE
  5
86ED
330
86A6
100
AcDbEntity
  8
3
 62
     0
370
    -2
100
AcDbLine
 10
710.2612047087164
 20
2849.935954207627
 30
0.0
 11
710.2612047087169
 21
5186.935954207629
 31
0.0
  0
INSERT
  5
86EE
330
86A6
100
AcDbEntity
  8
3
 62
     0
370
    -2
100
AcDbBlockReference
  2
_OPEN
 10
710.2612047087164
 20
2769.935954207627
 30
0.0
 41
80.0
 42
80.0
 43
80.0
 50
270.0
  0
INSERT
  5
86EF
330
86A6
100
AcDbEntity
  8
3
 62
     0
370
    -2
100
AcDbBlockReference
  2
_OPEN
 10
710.2612047087169
 20
5266.935954207629
 30
0.0
 41
80.0
 42
80.0
 43
80.0
 50
90.0
  0
MTEXT
  5
86F0
330
86A6
100
AcDbEntity
  8
3
 62
     0
100
AcDbMText
 10
578.8326332801445
 20
4018.435954207627
 30
0.0
 40
120.0
 41
0.0
 71
     5
 72
     1
  1
\A1;(2497)
 11
0.0000000000000001
 21
1.0
 31
0.0
 73
     1
 44
1.0
1001
ACAD
1000
MTEXTBEGIN
1070
    73
1070
     1
1070
    44
1040
1.0
1070
    74
1070
     0
1000
MTEXTEND
  0
POINT
  5
86F1
330
86A6
100
AcDbEntity
  8
DEFPOINTS
 62
     0
100
AcDbPoint
 10
2026.831659683934
 20
2769.935954207627
 30
0.0
  0
POINT
  5
86F2
330
86A6
100
AcDbEntity
  8
DEFPOINTS
 62
     0
100
AcDbPoint
 10
2867.831659683934
 20
5266.935954207628
 30
0.0
  0
POINT
  5
86F3
330
86A6
100
AcDbEntity
  8
DEFPOINTS
 62
     0
100
AcDbPoint
 10
710.2612047087169
 20
5266.935954207629
 30
0.0
  0
ENDBLK
  5
86A8
330
86A6
100
AcDbEntity
  8
0
100
AcDbBlockEnd
  0
BLOCK
  5
8757
330
8755
100
AcDbEntity
  8
0
100
AcDbBlockBegin
  2
_DotSmall
 70
     0
 10
0.0
 20
0.0
 30
0.0
  3
_DotSmall
  1

  0
LWPOLYLINE
  5
8756
330
8755
100
AcDbEntity
  8
0
  6
ByBlock
 62
     0
100
AcDbPolyline
 90
        2
 70
     1
 43
0.5
 10
-0.0625
 20
0.0
 42
1.0
 10
0.0625
 20
0.0
 42
1.0
  0
ENDBLK
  5
8758
330
8755
100
AcDbEntity
  8
0
100
AcDbBlockEnd
  0
ENDSEC
  0
SECTION
  2
ENTITIES
  0
INSERT
  5
7C0C
330
8440
100
AcDbEntity
  8
1
100
AcDbBlockReference
  2
YA_N
 10
6.0
 20
5.0
 30
0.0
  0
LINE
  5
7C0D
330
8440
100
AcDbEntity
  8
2
100
AcDbLine
 10
2776.831659683934
 20
5418.534369238305
 30
0.0
 11
2776.831659683934
 21
2769.935954207627
 31
0.0
  0
LINE
  5
7C0E
330
8440
100
AcDbEntity
  8
1
100
AcDbLine
 10
5179.407928765326
 20
2939.935954207627
 30
0.0
 11
7299.407928765326
 21
2939.935954207627
 31
0.0
1001
ACAD
1000
ASC_BOUNDS
1002
{
1070
    19
1005
0
1005
0
1002
}
  0
LINE
  5
7C0F
330
8440
100
AcDbEntity
  8
1
100
AcDbLine
 10
5179.407928765326
 20
3064.935954207627
 30
0.0
 11
7299.407928765325
 21
3064.935954207627
 31
0.0
  0
LINE
  5
7C10
330
8440
100
AcDbEntity
  8
1
100
AcDbLine
 10
7231.407928765325
 20
3064.935954207627
 30
0.0
 11
7231.407928765325
 21
4315.935954207627
 31
0.0
  0
LINE
  5
7C12
330
8440
100
AcDbEntity
  8
1
100
AcDbLine
 10
5478.407928765324
 20
3064.935954207627
 30
0.0
 11
5478.407928765324
 21
3124.935954207629
 31
0.0
  0
LINE
  5
7C13
330
8440
100
AcDbEntity
  8
2
100
AcDbLine
 10
3984.37259322367
 20
4369.935954207627
 30
0.0
 11
1939.310814992313
 21
4369.935954207627
 31
0.0
  0
LINE
  5
7C14
330
8440
100
AcDbEntity
  8
2
100
AcDbLine
 10
5121.107928765328
 20
4369.935954207627
 30
0.0
 11
7414.918415004563
 21
4369.935954207627
 31
0.0
  0
LINE
  5
7C15
330
8440
100
AcDbEntity
  8
2
100
AcDbLine
 10
5109.90520216895
 20
3324.935954207627
 30
0.0
 11
6077.581026044529
 21
3324.935954207627
 31
0.0
  0
LINE
  5
7C16
330
8440
100
AcDbEntity
  8
1
100
AcDbLine
 10
5186.407928765326
 20
3430.935954207626
 30
0.0
 11
5264.307928765326
 21
3430.935954207626
 31
0.0
  0
LINE
  5
7C17
330
8440
100
AcDbEntity
  8
1
100
AcDbLine
 10
5186.407928765326
 20
3218.935954207627
 30
0.0
 11
5264.307928765326
 21
3218.935954207627
 31
0.0
  0
LINE
  5
7C18
330
8440
100
AcDbEntity
  8
1
100
AcDbLine
 10
5284.407928765325
 20
4439.935954207627
 30
0.0
 11
5284.407928765325
 21
4299.935954207627
 31
0.0
  0
LINE
  5
7C19
330
8440
100
AcDbEntity
  8
1
100
AcDbLine
 10
5264.307928765326
 20
4623.935954207627
 30
0.0
 11
5264.307928765326
 21
4439.935954207627
 31
0.0
  0
LINE
  5
7C1A
330
8440
100
AcDbEntity
  8
1
100
AcDbLine
 10
5264.307928765326
 20
4439.935954207627
 30
0.0
 11
5284.407928765325
 21
4439.935954207627
 31
0.0
  0
LINE
  5
7C1B
330
8440
100
AcDbEntity
  8
1
100
AcDbLine
 10
5264.307928765326
 20
4299.935954207627
 30
0.0
 11
5284.407928765325
 21
4299.935954207627
 31
0.0
  0
LINE
  5
7C1C
330
8440
100
AcDbEntity
  8
1
100
AcDbLine
 10
5264.307928765326
 20
4299.935954207627
 30
0.0
 11
5264.307928765326
 21
3384.935954207627
 31
0.0
  0
LINE
  5
7C1D
330
8440
100
AcDbEntity
  8
1
100
AcDbLine
 10
5186.407928765326
 20
4623.935954207627
 30
0.0
 11
5186.407928765326
 21
3218.935954207627
 31
0.0
  0
LINE
  5
7C1E
330
8440
100
AcDbEntity
  8
1
100
AcDbLine
 10
5279.407928765326
 20
3384.935954207627
 30
0.0
 11
5279.407928765326
 21
3264.935954207627
 31
0.0
  0
LINE
  5
7C1F
330
8440
100
AcDbEntity
  8
1
100
AcDbLine
 10
5264.307928765326
 20
3384.935954207627
 30
0.0
 11
5279.407928765326
 21
3384.935954207627
 31
0.0
  0
LINE
  5
7C20
330
8440
100
AcDbEntity
  8
1
100
AcDbLine
 10
5264.307928765326
 20
3264.935954207627
 30
0.0
 11
5279.407928765326
 21
3264.935954207627
 31
0.0
  0
LINE
  5
7C21
330
8440
100
AcDbEntity
  8
1
100
AcDbLine
 10
5264.307928765326
 20
3264.935954207627
 30
0.0
 11
5264.307928765326
 21
3218.935954207627
 31
0.0
  0
LINE
  5
7C22
330
8440
100
AcDbEntity
  8
1
100
AcDbLine
 10
5101.407928765327
 20
3104.935954207627
 30
0.0
 11
5346.407928765327
 21
3104.935954207627
 31
0.0
  0
LINE
  5
7C23
330
8440
100
AcDbEntity
  8
1
100
AcDbLine
 10
5101.407928765327
 20
4749.935954207627
 30
0.0
 11
5101.407928765327
 21
3104.935954207627
 31
0.0
  0
LINE
  5
7C24
330
8440
100
AcDbEntity
  8
1
100
AcDbLine
 10
5346.407928765326
 20
4749.935954207627
 30
0.0
 11
5346.407928765327
 21
4729.935954207627
 31
0.0
  0
LINE
  5
7C25
330
8440
100
AcDbEntity
  8
2
100
AcDbLine
 10
2776.831659683934
 20
8975.307810564771
 30
0.0
 11
2776.831659683934
 21
6595.130133296469
 31
0.0
  0
LINE
  5
7C26
330
8440
100
AcDbEntity
  8
2
100
AcDbLine
 10
4196.831659683934
 20
7630.440686962332
 30
0.0
 11
4196.831659683934
 21
6582.011154728185
 31
0.0
  0
LINE
  5
7C27
330
8440
100
AcDbEntity
  8
2
100
AcDbLine
 10
6381.407928765326
 20
5474.212796594279
 30
0.0
 11
6381.407928765328
 21
2769.935954207627
 31
0.0
  0
INSERT
  5
7C28
330
8440
100
AcDbEntity
  8
1
100
AcDbBlockReference
  2
YA_N
 10
-1757.227407310314
 20
-1218.78641745778
 30
0.0
 41
30.0
 42
30.0
 43
30.0
  0
INSERT
  5
7C29
330
8440
100
AcDbEntity
  8
1
100
AcDbBlockReference
  2
YA_N
 10
-755.2436758818473
 20
-538.554984833856
 30
0.0
 41
30.0
 42
30.0
 43
30.0
  0
LINE
  5
7C2A
330
8440
100
AcDbEntity
  8
1
100
AcDbLine
 10
5179.407928765324
 20
2834.935954207627
 30
0.0
 11
7299.407928765325
 21
2834.935954207627
 31
0.0
1001
ACAD
1000
ASC_BOUNDS
1002
{
1070
    19
1005
0
1005
0
1002
}
  0
LINE
  5
7C2B
330
8440
100
AcDbEntity
  8
1
100
AcDbLine
 10
5179.407928765325
 20
2769.935954207627
 30
0.0
 11
7299.407928765325
 21
2769.935954207627
 31
0.0
  0
LINE
  5
7C2C
330
8440
100
AcDbEntity
  8
1
100
AcDbLine
 10
7299.407928765325
 20
2834.935954207627
 30
0.0
 11
7299.407928765325
 21
2769.935954207627
 31
0.0
  0
LINE
  5
7C2D
330
8440
100
AcDbEntity
  8
1
100
AcDbLine
 10
7231.407928765325
 20
4315.935954207627
 30
0.0
 11
7231.407928765325
 21
5266.935954207627
 31
0.0
  0
LINE
  5
7C2E
330
8440
100
AcDbEntity
  8
1
100
AcDbLine
 10
5531.407928765325
 20
4315.935954207627
 30
0.0
 11
5531.407928765328
 21
5266.935954207627
 31
0.0
  0
LINE
  5
7C2F
330
8440
100
AcDbEntity
  8
1
100
AcDbLine
 10
2026.831659683934
 20
8875.623467839007
 30
0.0
 11
3526.831659683934
 21
8875.623467839009
 31
0.0
  0
LINE
  5
7C30
330
8440
100
AcDbEntity
  8
1
100
AcDbLine
 10
2026.831659683934
 20
6755.623467839007
 30
0.0
 11
4476.831659683933
 21
6755.623467839007
 31
0.0
  0
LINE
  5
7C31
330
8440
100
AcDbEntity
  8
1
100
AcDbLine
 10
2026.831659683934
 20
8875.623467839007
 30
0.0
 11
2026.831659683934
 21
8807.623467839011
 31
0.0
  0
LINE
  5
7C32
330
8440
100
AcDbEntity
  8
1
100
AcDbLine
 10
4476.831659683933
 20
7755.623467839007
 30
0.0
 11
4476.831659683933
 21
6755.623467839007
 31
0.0
  0
LINE
  5
7C33
330
8440
100
AcDbEntity
  8
1
100
AcDbLine
 10
3526.831659683934
 20
8875.623467839007
 30
0.0
 11
3526.831659683934
 21
8807.623467839011
 31
0.0
  0
LINE
  5
7C34
330
8440
100
AcDbEntity
  8
1
100
AcDbLine
 10
3855.831659683934
 20
7755.623467839007
 30
0.0
 11
4476.831659683933
 21
7755.623467839007
 31
0.0
  0
LINE
  5
7C36
330
8440
100
AcDbEntity
  8
1
100
AcDbLine
 10
5373.907928765326
 20
4293.935954207627
 30
0.0
 11
5373.907928765326
 21
4163.935954207627
 31
0.0
  0
LINE
  5
7C37
330
8440
100
AcDbEntity
  8
1
100
AcDbLine
 10
5513.907928765326
 20
4303.935954207627
 30
0.0
 11
5513.907928765326
 21
4153.935954207628
 31
0.0
  0
LINE
  5
7C38
330
8440
100
AcDbEntity
  8
1
100
AcDbLine
 10
5383.907928765328
 20
4303.935954207627
 30
0.0
 11
5454.107928765328
 21
4303.935954207627
 31
0.0
  0
LINE
  5
7C39
330
8440
100
AcDbEntity
  8
1
100
AcDbLine
 10
5383.907928765328
 20
4153.935954207628
 30
0.0
 11
5454.107928765328
 21
4153.935954207628
 31
0.0
  0
ARC
  5
7C3A
330
8440
100
AcDbEntity
  8
1
100
AcDbCircle
 10
5383.907928765328
 20
4293.935954207627
 30
0.0
 40
10.0
100
AcDbArc
 50
90.0
 51
180.0
  0
ARC
  5
7C3B
330
8440
100
AcDbEntity
  8
1
100
AcDbCircle
 10
5383.907928765328
 20
4163.935954207627
 30
0.0
 40
10.0
100
AcDbArc
 50
180.0
 51
270.0
  0
LINE
  5
7C3C
330
8440
100
AcDbEntity
  8
1
100
AcDbLine
 10
5454.107928765328
 20
4153.935954207628
 30
0.0
 11
5513.907928765326
 21
4153.935954207628
 31
0.0
  0
LINE
  5
7C3D
330
8440
100
AcDbEntity
  8
1
100
AcDbLine
 10
5454.107928765328
 20
4303.935954207627
 30
0.0
 11
5513.907928765326
 21
4303.935954207627
 31
0.0
  0
LINE
  5
7C3E
330
8440
100
AcDbEntity
  8
1
100
AcDbLine
 10
7401.407928765324
 20
4293.935954207627
 30
0.0
 11
7401.407928765324
 21
4163.935954207627
 31
0.0
  0
LINE
  5
7C3F
330
8440
100
AcDbEntity
  8
1
100
AcDbLine
 10
7248.907928765325
 20
4303.935954207627
 30
0.0
 11
7248.907928765325
 21
4153.935954207628
 31
0.0
  0
LINE
  5
7C40
330
8440
100
AcDbEntity
  8
1
100
AcDbLine
 10
7391.407928765325
 20
4153.935954207628
 30
0.0
 11
7308.707928765326
 21
4153.935954207628
 31
0.0
  0
ARC
  5
7C41
330
8440
100
AcDbEntity
  8
1
100
AcDbCircle
 10
7391.407928765325
 20
4163.935954207627
 30
0.0
 40
10.0
100
AcDbArc
 50
270.0
 51
0.0
  0
LINE
  5
7C42
330
8440
100
AcDbEntity
  8
1
100
AcDbLine
 10
7308.707928765326
 20
4153.935954207628
 30
0.0
 11
7248.907928765325
 21
4153.935954207628
 31
0.0
  0
LINE
  5
7C43
330
8440
100
AcDbEntity
  8
1
100
AcDbLine
 10
7391.407928765325
 20
4303.935954207627
 30
0.0
 11
7308.707928765326
 21
4303.935954207627
 31
0.0
  0
ARC
  5
7C44
330
8440
100
AcDbEntity
  8
1
100
AcDbCircle
 10
7391.407928765325
 20
4293.935954207627
 30
0.0
 40
10.0
100
AcDbArc
 50
0.0
 51
90.0
  0
LINE
  5
7C45
330
8440
100
AcDbEntity
  8
1
100
AcDbLine
 10
7308.707928765326
 20
4303.935954207627
 30
0.0
 11
7248.907928765325
 21
4303.935954207627
 31
0.0
  0
LINE
  5
7C4A
330
8440
100
AcDbEntity
  8
1
100
AcDbLine
 10
5186.407928765326
 20
4623.935954207627
 30
0.0
 11
5264.307928765326
 21
4623.935954207627
 31
0.0
  0
LINE
  5
7C4B
330
8440
100
AcDbEntity
  8
1
100
AcDbLine
 10
5186.407928765326
 20
4115.935954207627
 30
0.0
 11
5264.307928765326
 21
4115.935954207627
 31
0.0
  0
LINE
  5
7C4C
330
8440
100
AcDbEntity
  8
1
100
AcDbLine
 10
5101.407928765326
 20
4749.935954207627
 30
0.0
 11
5346.407928765325
 21
4749.935954207627
 31
0.0
  0
LINE
  5
7C4D
330
8440
100
AcDbEntity
  8
1
100
AcDbLine
 10
5346.407928765327
 20
3124.935954207627
 30
0.0
 11
5346.407928765327
 21
3104.935954207627
 31
0.0
  0
INSERT
  5
7C4E
330
8440
100
AcDbEntity
  8
1
100
AcDbBlockReference
  2
YA_N
 10
4767.943419715615
 20
-1494.695868425496
 30
0.0
  0
LINE
  5
7C4F
330
8440
100
AcDbEntity
  8
1
100
AcDbLine
 10
7299.407928765325
 20
3064.935954207627
 30
0.0
 11
7299.407928765326
 21
2939.935954207627
 31
0.0
  0
LINE
  5
7C50
330
8440
100
AcDbEntity
  8
1
100
AcDbLine
 10
5179.407928765325
 20
2834.935954207627
 30
0.0
 11
5179.407928765328
 21
2769.935954207627
 31
0.0
  0
LINE
  5
7C51
330
8440
100
AcDbEntity
  8
1
100
AcDbLine
 10
5179.407928765326
 20
3064.935954207627
 30
0.0
 11
5179.407928765326
 21
2939.935954207627
 31
0.0
  0
LINE
  5
7C55
330
8440
100
AcDbEntity
  8
1
100
AcDbLine
 10
5284.407928765325
 20
4407.435954207627
 30
0.0
 11
5531.407928765325
 21
4407.435954207627
 31
0.0
  0
LINE
  5
7C56
330
8440
100
AcDbEntity
  8
1
100
AcDbLine
 10
5284.407928765325
 20
4332.435954207627
 30
0.0
 11
5531.407928765325
 21
4332.435954207627
 31
0.0
  0
LINE
  5
7C57
330
8440
100
AcDbEntity
  8
1
100
AcDbLine
 10
5375.357928765327
 20
3124.935954207627
 30
0.0
 11
5375.357928765327
 21
3324.935954207628
 31
0.0
  0
LINE
  5
7C58
330
8440
100
AcDbEntity
  8
1
100
AcDbLine
 10
5375.357928765327
 20
3124.935954207628
 30
0.0
 11
6025.357928765328
 21
3124.93595420763
 31
0.0
  0
LINE
  5
7C59
330
8440
100
AcDbEntity
  8
1
100
AcDbLine
 10
6025.357928765328
 20
3534.935954207632
 30
0.0
 11
5375.357928765326
 21
3534.935954207627
 31
0.0
  0
LINE
  5
7C5A
330
8440
100
AcDbEntity
  8
1
100
AcDbLine
 10
5365.357928765327
 20
3294.935954207628
 30
0.0
 11
5279.407928765326
 21
3294.935954207628
 31
0.0
  0
LINE
  5
7C5B
330
8440
100
AcDbEntity
  8
1
100
AcDbLine
 10
5365.357928765327
 20
3354.935954207628
 30
0.0
 11
5279.407928765326
 21
3354.935954207627
 31
0.0
  0
LINE
  5
7C5C
330
8440
100
AcDbEntity
  8
1
100
AcDbLine
 10
5375.357928765327
 20
3534.935954207627
 30
0.0
 11
5375.357928765327
 21
3324.935954207628
 31
0.0
  0
LINE
  5
7C5D
330
8440
100
AcDbEntity
  8
1
100
AcDbLine
 10
5365.357928765327
 20
3292.435954207628
 30
0.0
 11
5365.357928765327
 21
3357.435954207628
 31
0.0
  0
LINE
  5
7C5E
330
8440
100
AcDbEntity
  8
1
100
AcDbLine
 10
5365.357928765327
 20
3292.435954207628
 30
0.0
 11
5375.357928765327
 21
3292.435954207628
 31
0.0
  0
LINE
  5
7C5F
330
8440
100
AcDbEntity
  8
1
100
AcDbLine
 10
5365.357928765327
 20
3357.435954207628
 30
0.0
 11
5375.357928765327
 21
3357.435954207628
 31
0.0
  0
LINE
  5
7C60
330
8440
100
AcDbEntity
  8
2
100
AcDbLine
 10
1801.004538962214
 20
7957.62346783901
 30
0.0
 11
3994.815363830051
 21
7957.623467839008
 31
0.0
  0
LINE
  5
7C61
330
8440
100
AcDbEntity
  8
1
100
AcDbLine
 10
2396.831659683934
 20
6677.623467839009
 30
0.0
 11
4416.831659683934
 21
6677.623467839009
 31
0.0
  0
LINE
  5
7C62
330
8440
100
AcDbEntity
  8
1
100
AcDbLine
 10
2522.831659683934
 20
6762.62346783901
 30
0.0
 11
3030.831659683934
 21
6762.62346783901
 31
0.0
  0
LINE
  5
7C63
330
8440
100
AcDbEntity
  8
1
100
AcDbLine
 10
2846.831659683934
 20
6840.52346783901
 30
0.0
 11
3030.831659683934
 21
6840.52346783901
 31
0.0
  0
LINE
  5
7C64
330
8440
100
AcDbEntity
  8
1
100
AcDbLine
 10
4226.831659683933
 20
6941.57346783901
 30
0.0
 11
4226.831659683933
 21
6855.623467839009
 31
0.0
  0
LINE
  5
7C65
330
8440
100
AcDbEntity
  8
1
100
AcDbLine
 10
4166.831659683934
 20
6941.57346783901
 30
0.0
 11
4166.831659683934
 21
6855.623467839009
 31
0.0
  0
LINE
  5
7C66
330
8440
100
AcDbEntity
  8
1
100
AcDbLine
 10
4416.831659683934
 20
6677.623467839009
 30
0.0
 11
4416.831659683934
 21
6922.623467839009
 31
0.0
  0
LINE
  5
7C67
330
8440
100
AcDbEntity
  8
1
100
AcDbLine
 10
3576.831659683934
 20
6755.62346783901
 30
0.0
 11
3701.831659683934
 21
6755.62346783901
 31
0.0
  0
LINE
  5
7C68
330
8440
100
AcDbEntity
  8
1
100
AcDbLine
 10
3720.831659683934
 20
6755.623467839007
 30
0.0
 11
3785.831659683934
 21
6755.62346783901
 31
0.0
  0
LINE
  5
7C69
330
8440
100
AcDbEntity
  8
1
100
AcDbLine
 10
4136.831659683934
 20
6855.623467839009
 30
0.0
 11
4256.831659683934
 21
6855.623467839009
 31
0.0
  0
LINE
  5
7C6A
330
8440
100
AcDbEntity
  8
1
100
AcDbLine
 10
4256.831659683934
 20
6840.52346783901
 30
0.0
 11
4302.831659683934
 21
6840.52346783901
 31
0.0
  0
LINE
  5
7C6B
330
8440
100
AcDbEntity
  8
1
100
AcDbLine
 10
4302.831659683934
 20
6762.62346783901
 30
0.0
 11
4302.831659683934
 21
6840.52346783901
 31
0.0
  0
LINE
  5
7C6C
330
8440
100
AcDbEntity
  8
1
100
AcDbLine
 10
4256.831659683934
 20
6840.52346783901
 30
0.0
 11
4256.831659683934
 21
6855.623467839009
 31
0.0
  0
LINE
  5
7C6D
330
8440
100
AcDbEntity
  8
1
100
AcDbLine
 10
4090.831659683933
 20
6762.62346783901
 30
0.0
 11
4090.831659683933
 21
6840.523467839009
 31
0.0
  0
LINE
  5
7C6E
330
8440
100
AcDbEntity
  8
1
100
AcDbLine
 10
4136.831659683934
 20
6840.52346783901
 30
0.0
 11
4136.831659683934
 21
6855.623467839009
 31
0.0
  0
LINE
  5
7C6F
330
8440
100
AcDbEntity
  8
1
100
AcDbLine
 10
3030.831659683934
 20
6762.62346783901
 30
0.0
 11
3030.831659683934
 21
6840.523467839009
 31
0.0
  0
LINE
  5
7C70
330
8440
100
AcDbEntity
  8
1
100
AcDbLine
 10
3986.831659683934
 20
6951.57346783901
 30
0.0
 11
4196.831659683934
 21
6951.57346783901
 31
0.0
  0
LINE
  5
7C71
330
8440
100
AcDbEntity
  8
1
100
AcDbLine
 10
4229.331659683934
 20
6941.57346783901
 30
0.0
 11
4164.331659683933
 21
6941.57346783901
 31
0.0
  0
LINE
  5
7C72
330
8440
100
AcDbEntity
  8
1
100
AcDbLine
 10
4396.831659683934
 20
6951.57346783901
 30
0.0
 11
4396.831659683925
 21
7601.073467839011
 31
0.0
  0
LINE
  5
7C73
330
8440
100
AcDbEntity
  8
1
100
AcDbLine
 10
4396.831659683934
 20
6951.57346783901
 30
0.0
 11
4196.831659683934
 21
6951.57346783901
 31
0.0
  0
LINE
  5
7C74
330
8440
100
AcDbEntity
  8
1
100
AcDbLine
 10
4229.331659683934
 20
6941.57346783901
 30
0.0
 11
4229.331659683934
 21
6951.57346783901
 31
0.0
  0
LINE
  5
7C75
330
8440
100
AcDbEntity
  8
1
100
AcDbLine
 10
4396.831659683932
 20
7127.07346783901
 30
0.0
 11
4395.831659683932
 21
7127.07346783901
 31
0.0
  0
LINE
  5
7C76
330
8440
100
AcDbEntity
  8
1
100
AcDbLine
 10
3986.831659683927
 20
7601.073467839009
 30
0.0
 11
3986.831659683934
 21
6951.573467839009
 31
0.0
  0
LINE
  5
7C77
330
8440
100
AcDbEntity
  8
1
100
AcDbLine
 10
4164.331659683933
 20
6941.57346783901
 30
0.0
 11
4164.331659683933
 21
6951.57346783901
 31
0.0
  0
LINE
  5
7C78
330
8440
100
AcDbEntity
  8
1
100
AcDbLine
 10
2814.331659683934
 20
6860.623467839011
 30
0.0
 11
2814.331659683934
 21
7107.623467839008
 31
0.0
  0
LINE
  5
7C79
330
8440
100
AcDbEntity
  8
1
100
AcDbLine
 10
2739.331659683934
 20
6860.623467839011
 30
0.0
 11
2739.331659683934
 21
7107.623467839009
 31
0.0
  0
LINE
  5
7C7A
330
8440
100
AcDbEntity
  8
1
100
AcDbLine
 10
2396.831659683934
 20
6677.623467839009
 30
0.0
 11
2396.831659683934
 21
6922.623467839009
 31
0.0
  0
LINE
  5
7C7B
330
8440
100
AcDbEntity
  8
1
100
AcDbLine
 10
2706.831659683934
 20
6860.623467839011
 30
0.0
 11
2846.831659683934
 21
6860.623467839011
 31
0.0
  0
LINE
  5
7C7C
330
8440
100
AcDbEntity
  8
1
100
AcDbLine
 10
2846.831659683934
 20
6840.523467839009
 30
0.0
 11
2846.831659683934
 21
6860.623467839011
 31
0.0
  0
LINE
  5
7C7D
330
8440
100
AcDbEntity
  8
1
100
AcDbLine
 10
2522.831659683934
 20
6840.52346783901
 30
0.0
 11
2706.831659683934
 21
6840.52346783901
 31
0.0
  0
LINE
  5
7C7E
330
8440
100
AcDbEntity
  8
1
100
AcDbLine
 10
2706.831659683934
 20
6840.52346783901
 30
0.0
 11
2706.831659683934
 21
6860.623467839011
 31
0.0
  0
LINE
  5
7C7F
330
8440
100
AcDbEntity
  8
1
100
AcDbLine
 10
2522.831659683934
 20
6762.62346783901
 30
0.0
 11
2522.831659683934
 21
6840.523467839009
 31
0.0
  0
LINE
  5
7C80
330
8440
100
AcDbEntity
  8
1
100
AcDbLine
 10
2396.831659683934
 20
6922.623467839009
 30
0.0
 11
4416.831659683934
 21
6922.623467839102
 31
0.0
  0
LINE
  5
7C81
330
8440
100
AcDbEntity
  8
1
100
AcDbLine
 10
4396.831659683932
 20
7601.073467839011
 30
0.0
 11
3986.831659683927
 21
7601.073467839009
 31
0.0
  0
LINE
  5
7C82
330
8440
100
AcDbEntity
  8
1
100
AcDbLine
 10
1951.831659683933
 20
8807.623467839011
 30
0.0
 11
3855.831659683934
 21
8807.623467839011
 31
0.0
  0
LINE
  5
7C83
330
8440
100
AcDbEntity
  8
1
100
AcDbLine
 10
1951.831659683934
 20
7107.623467839008
 30
0.0
 11
3855.831659683934
 21
7107.623467839008
 31
0.0
  0
LINE
  5
7C84
330
8440
100
AcDbEntity
  8
1
100
AcDbLine
 10
1951.831659683934
 20
8857.62346783901
 30
0.0
 11
1951.831659683933
 21
7057.623467839007
 31
0.0
  0
LINE
  5
7C85
330
8440
100
AcDbEntity
  8
1
100
AcDbLine
 10
3855.831659683934
 20
8807.623467839006
 30
0.0
 11
3855.831659683934
 21
7107.623467839008
 31
0.0
  0
LINE
  5
7C86
330
8440
100
AcDbEntity
  8
1
100
AcDbLine
 10
2026.831659683934
 20
7107.623467839008
 30
0.0
 11
2026.831659683934
 21
6755.623467839007
 31
0.0
  0
LINE
  5
7C87
330
8440
100
AcDbEntity
  8
1
100
AcDbLine
 10
4090.831659683933
 20
6840.52346783901
 30
0.0
 11
4136.831659683934
 21
6840.52346783901
 31
0.0
  0
LINE
  5
7C88
330
8440
100
AcDbEntity
  8
1
100
AcDbLine
 10
4090.831659683933
 20
6762.62346783901
 30
0.0
 11
4302.831659683934
 21
6762.62346783901
 31
0.0
  0
INSERT
  5
7C8E
330
8440
100
AcDbEntity
  8
1
100
AcDbBlockReference
  2
YA_N
 10
10491.49125510566
 20
1972.966762031963
 30
0.0
  0
ARC
  5
7C90
330
8440
100
AcDbEntity
  8
1
100
AcDbCircle
 10
2685.831659683934
 20
4278.935954207628
 30
0.0
 40
1170.0
100
AcDbArc
 50
274.460843697874
 51
4.460843697873976
  0
ARC
  5
7C91
330
8440
100
AcDbEntity
  8
1
100
AcDbCircle
 10
2867.831659683934
 20
4278.935954207628
 30
0.0
 40
988.0
100
AcDbArc
 50
5.284732954534544
 51
95.28473295453455
  0
ARC
  5
7C92
330
8440
100
AcDbEntity
  8
1
100
AcDbCircle
 10
2853.831659683934
 20
4446.935954207627
 30
0.0
 40
820.0
100
AcDbArc
 50
95.38815180432743
 51
182.757514755792
  0
LINE
  5
7C93
330
8440
100
AcDbEntity
  8
1
100
AcDbLine
 10
2776.831659683934
 20
3112.48021136952
 30
0.0
 11
1951.831659683934
 21
3035.935954207627
 31
0.0
  0
LINE
  5
7C94
330
8440
100
AcDbEntity
  8
1
100
AcDbLine
 10
2026.831659683934
 20
2939.935954207627
 30
0.0
 11
4476.831659683933
 21
2939.935954207627
 31
0.0
1001
ACAD
1000
ASC_BOUNDS
1002
{
1070
    19
1002
}
  0
LINE
  5
7C95
330
8440
100
AcDbEntity
  8
1
100
AcDbLine
 10
2026.831659683934
 20
3064.935954207627
 30
0.0
 11
4476.831659683933
 21
3064.935954207627
 31
0.0
  0
LINE
  5
7C96
330
8440
100
AcDbEntity
  8
1
100
AcDbLine
 10
2026.831659683934
 20
3064.935954207627
 30
0.0
 11
2026.831659683934
 21
2939.935954207627
 31
0.0
  0
LINE
  5
7C97
330
8440
100
AcDbEntity
  8
1
100
AcDbLine
 10
4476.831659683933
 20
3064.935954207627
 30
0.0
 11
4476.831659683933
 21
2939.935954207627
 31
0.0
  0
LINE
  5
7C98
330
8440
100
AcDbEntity
  8
2
100
AcDbLine
 10
4196.831659683934
 20
3615.790470813337
 30
0.0
 11
4196.831659683936
 21
2769.935954207627
 31
0.0
  0
LINE
  5
7C99
330
8440
100
AcDbEntity
  8
2
100
AcDbLine
 10
3916.517442925782
 20
3324.935954207627
 30
0.0
 11
4466.937680551182
 21
3324.935954207627
 31
0.0
  0
LINE
  5
7C9C
330
8440
100
AcDbEntity
  8
1
100
AcDbLine
 10
1951.831659683934
 20
4315.935954207627
 30
0.0
 11
2035.79657279533
 21
4315.935954207627
 31
0.0
  0
LINE
  5
7C9D
330
8440
100
AcDbEntity
  8
1
100
AcDbLine
 10
2001.831659683934
 20
3040.575000096227
 30
0.0
 11
2001.831659683934
 21
4315.935954207627
 31
0.0
  0
LINE
  5
7C9E
330
8440
100
AcDbEntity
  8
1
100
AcDbLine
 10
1951.831659683934
 20
2982.935954207627
 30
0.0
 11
1951.831659683934
 21
4368.935954207628
 31
0.0
  0
POINT
  5
7CA0
330
8440
100
AcDbEntity
  8
1
100
AcDbPoint
 10
3851.631944294587
 20
4369.935954207627
 30
0.0
  0
INSERT
  5
7CA1
330
8440
100
AcDbEntity
  8
1
100
AcDbBlockReference
  2
YA_N
 10
8728.26384779535
 20
749.1803445741823
 30
0.0
 41
30.0
 42
30.0
 43
30.0
  0
LINE
  5
7CA3
330
8440
100
AcDbEntity
  8
1
100
AcDbLine
 10
2026.831659683934
 20
2834.935954207627
 30
0.0
 11
4476.831659683933
 21
2834.935954207627
 31
0.0
1001
ACAD
1000
ASC_BOUNDS
1002
{
1070
    19
1002
}
  0
LINE
  5
7CA4
330
8440
100
AcDbEntity
  8
1
100
AcDbLine
 10
2026.831659683934
 20
2769.935954207627
 30
0.0
 11
4476.831659683933
 21
2769.935954207627
 31
0.0
  0
LINE
  5
7CA5
330
8440
100
AcDbEntity
  8
1
100
AcDbLine
 10
2026.831659683934
 20
2834.935954207627
 30
0.0
 11
2026.831659683934
 21
2769.935954207627
 31
0.0
  0
LINE
  5
7CA6
330
8440
100
AcDbEntity
  8
1
100
AcDbLine
 10
4476.831659683933
 20
2834.935954207627
 30
0.0
 11
4476.831659683933
 21
2769.935954207627
 31
0.0
  0
ARC
  5
7CA7
330
8440
100
AcDbEntity
  8
1
100
AcDbCircle
 10
4196.831659683934
 20
3324.935954207627
 30
0.0
 40
203.5
100
AcDbArc
 50
285.60376
 51
254.396301
  0
LINE
  5
7CA8
330
8440
100
AcDbEntity
  8
1
100
AcDbLine
 10
4251.569696683935
 20
3128.935954207627
 30
0.0
 11
4142.093622683932
 21
3128.935954207627
 31
0.0
  0
ARC
  5
7CA9
330
8440
100
AcDbEntity
  8
1
100
AcDbCircle
 10
4010.831659683933
 20
3141.935954207627
 30
0.0
 40
3.0
100
AcDbArc
 50
90.0
 51
180.0
  0
ARC
  5
7CAA
330
8440
100
AcDbEntity
  8
1
100
AcDbCircle
 10
4012.831659683933
 20
3199.262615207627
 30
0.0
 40
5.000066999999999
100
AcDbArc
 50
124.943665
 51
180.0
  0
LINE
  5
7CAB
330
8440
100
AcDbEntity
  8
1
100
AcDbLine
 10
4007.831659683933
 20
3199.262615207627
 30
0.0
 11
4007.831659683933
 21
3124.935954207627
 31
0.0
  0
LINE
  5
7CAE
330
8440
100
AcDbEntity
  8
1
100
AcDbLine
 10
4092.729089683933
 20
3150.079143207627
 30
0.0
 11
4087.331659683933
 21
3129.935954207627
 31
0.0
  0
LINE
  5
7CAF
330
8440
100
AcDbEntity
  8
1
100
AcDbLine
 10
4087.331659683933
 20
3141.935954207627
 30
0.0
 11
4087.331659683933
 21
3124.935954207627
 31
0.0
  0
LINE
  5
7CB0
330
8440
100
AcDbEntity
  8
1
100
AcDbLine
 10
4084.331659683933
 20
3144.935954207627
 30
0.0
 11
4010.831659683933
 21
3144.935954207627
 31
0.0
  0
ARC
  5
7CB1
330
8440
100
AcDbEntity
  8
1
100
AcDbCircle
 10
4084.331659683933
 20
3141.935954207627
 30
0.0
 40
3.0
100
AcDbArc
 50
0.0
 51
90.0
  0
LINE
  5
7CB2
330
8440
100
AcDbEntity
  8
1
100
AcDbLine
 10
4009.967889683934
 20
3203.361247207627
 30
0.0
 11
4025.905755683933
 21
3214.497722207627
 31
0.0
  0
LINE
  5
7CB3
330
8440
100
AcDbEntity
  8
1
100
AcDbLine
 10
4385.831659683934
 20
3199.262615207627
 30
0.0
 11
4385.831659683934
 21
3124.935954207627
 31
0.0
  0
LINE
  5
7CB6
330
8440
100
AcDbEntity
  8
1
100
AcDbLine
 10
4300.934442683934
 20
3150.079265207627
 30
0.0
 11
4306.331659683934
 21
3129.935954207627
 31
0.0
  0
LINE
  5
7CB7
330
8440
100
AcDbEntity
  8
1
100
AcDbLine
 10
4306.331659683934
 20
3141.935954207627
 30
0.0
 11
4306.331659683934
 21
3124.935954207627
 31
0.0
  0
LINE
  5
7CB8
330
8440
100
AcDbEntity
  8
1
100
AcDbLine
 10
4309.331659683934
 20
3144.935954207627
 30
0.0
 11
4382.831659683934
 21
3144.935954207627
 31
0.0
  0
ARC
  5
7CB9
330
8440
100
AcDbEntity
  8
1
100
AcDbCircle
 10
4309.331659683934
 20
3141.935954207627
 30
0.0
 40
3.0
100
AcDbArc
 50
90.0
 51
180.0
  0
ARC
  5
7CBA
330
8440
100
AcDbEntity
  8
1
100
AcDbCircle
 10
4382.831659683934
 20
3141.935954207627
 30
0.0
 40
3.0
100
AcDbArc
 50
0.0
 51
90.0
  0
LINE
  5
7CBB
330
8440
100
AcDbEntity
  8
1
100
AcDbLine
 10
4383.695550683933
 20
3203.361247207627
 30
0.0
 11
4367.757684683932
 21
3214.497722207627
 31
0.0
  0
ARC
  5
7CBC
330
8440
100
AcDbEntity
  8
1
100
AcDbCircle
 10
4380.831659683933
 20
3199.262615207627
 30
0.0
 40
5.0
100
AcDbArc
 50
0.0
 51
55.05633899999998
  0
LINE
  5
7CBD
330
8440
100
AcDbEntity
  8
1
100
AcDbLine
 10
3953.408634641323
 20
3124.935954207627
 30
0.0
 11
4126.831659683934
 21
3124.935954207627
 31
0.0
  0
LINE
  5
7CBE
330
8440
100
AcDbEntity
  8
1
100
AcDbLine
 10
3936.831659683934
 20
3064.935954207627
 30
0.0
 11
3953.408634641323
 21
3124.935954207627
 31
0.0
  0
LINE
  5
7CBF
330
8440
100
AcDbEntity
  8
1
100
AcDbLine
 10
4456.831659683934
 20
3064.935954207627
 30
0.0
 11
4440.650703138816
 21
3124.935954207627
 31
0.0
  0
LINE
  5
7CC0
330
8440
100
AcDbEntity
  8
1
100
AcDbLine
 10
4126.831659683934
 20
3114.935954207627
 30
0.0
 11
4266.831659683933
 21
3114.935954207627
 31
0.0
  0
LINE
  5
7CC2
330
8440
100
AcDbEntity
  8
1
100
AcDbLine
 10
4266.831659683933
 20
3124.935954207627
 30
0.0
 11
4266.831659683933
 21
3114.935954207627
 31
0.0
  0
LINE
  5
7CC3
330
8440
100
AcDbEntity
  8
1
100
AcDbLine
 10
4126.831659683934
 20
3124.935954207627
 30
0.0
 11
4126.831659683934
 21
3114.935954207627
 31
0.0
  0
LINE
  5
7CC6
330
8440
100
AcDbEntity
  8
1
100
AcDbLine
 10
4266.831659683933
 20
3124.935954207627
 30
0.0
 11
4440.650703138816
 21
3124.935954207627
 31
0.0
  0
INSERT
  5
7CC7
330
8440
100
AcDbEntity
  8
1
100
AcDbBlockReference
  2
YA_N
 10
9730.247579223819
 20
1429.411777198107
 30
0.0
 41
30.0
 42
30.0
 43
30.0
  0
CIRCLE
  5
7CCD
330
8440
100
AcDbEntity
  8
1
100
AcDbCircle
 10
4196.831659683934
 20
3324.935954207627
 30
0.0
 40
107.0
  0
POINT
  5
7CCE
330
8440
100
AcDbEntity
  8
1
100
AcDbPoint
 10
2026.831659683934
 20
2834.935954207627
 30
0.0
  0
POINT
  5
7CCF
330
8440
100
AcDbEntity
  8
1
100
AcDbPoint
 10
2026.831659683934
 20
2939.935954207627
 30
0.0
  0
POINT
  5
7CD0
330
8440
100
AcDbEntity
  8
1
100
AcDbPoint
 10
2026.831659683934
 20
2834.935954207627
 30
0.0
  0
ARC
  5
7CD2
330
8440
100
AcDbEntity
  8
1
100
AcDbCircle
 10
2776.831659683934
 20
4369.935954207627
 30
0.0
 40
625.0
100
AcDbArc
 50
0.0
 51
180.0
  0
ARC
  5
7CD3
330
8440
100
AcDbEntity
  8
1
100
AcDbCircle
 10
2776.831659683934
 20
4369.935954207627
 30
0.0
 40
675.0
100
AcDbArc
 50
0.0
 51
180.0
  0
ARC
  5
7CD4
330
8440
100
AcDbEntity
  8
1
100
AcDbCircle
 10
2776.831659683934
 20
4369.935954207627
 30
0.0
 40
625.0
100
AcDbArc
 50
180.0
 51
0.0
  0
ARC
  5
7CD5
330
8440
100
AcDbEntity
  8
1
100
AcDbCircle
 10
2776.831659683934
 20
4369.935954207627
 30
0.0
 40
675.0
100
AcDbArc
 50
180.0
 51
0.0
  0
CIRCLE
  5
7CD8
330
8440
100
AcDbEntity
  8
1
100
AcDbCircle
 10
2776.831659683934
 20
4369.935954207627
 30
0.0
 40
254.0
  0
POINT
  5
7CD9
330
8440
100
AcDbEntity
  8
1
100
AcDbPoint
 10
2026.831659683934
 20
2834.935954207627
 30
0.0
  0
POINT
  5
7CDB
330
8440
100
AcDbEntity
  8
1
100
AcDbPoint
 10
2026.831659683934
 20
2834.935954207627
 30
0.0
  0
POINT
  5
7CDC
330
8440
100
AcDbEntity
  8
1
100
AcDbPoint
 10
2026.831659683934
 20
2939.935954207627
 30
0.0
  0
ARC
  5
7CDD
330
8440
100
AcDbEntity
  8
1
100
AcDbCircle
 10
2776.831659683934
 20
4369.935954207627
 30
0.0
 40
743.0
100
AcDbArc
 50
177.103091958974
 51
184.1678363221618
  0
INSERT
  5
7CDE
330
8440
100
AcDbEntity
  8
1
100
AcDbBlockReference
  2
YA_N
 10
15253.43467482128
 20
473.2708936064663
 30
0.0
  0
ARC
  5
7CE0
330
8440
100
AcDbEntity
  8
1
100
AcDbCircle
 10
2776.831659683934
 20
4369.935954207627
 30
0.0
 40
380.0
100
AcDbArc
 50
48.44327906850633
 51
238.8568658610076
  0
ARC
  5
7CE1
330
8440
100
AcDbEntity
  8
1
100
AcDbCircle
 10
4196.831659683934
 20
3324.935954207627
 30
0.0
 40
220.0
100
AcDbArc
 50
238.8568658610076
 51
48.44327906850637
  0
LINE
  5
7CE2
330
8440
100
AcDbEntity
  8
1
100
AcDbLine
 10
3028.908902328605
 20
4654.289719332444
 30
0.0
 11
4342.771115951902
 21
3489.561818227258
 31
0.0
  0
LINE
  5
7CE3
330
8440
100
AcDbEntity
  8
1
100
AcDbLine
 10
2943.913982729283
 20
4561.245905140061
 30
0.0
 11
4267.216732777842
 21
3405.527154009873
 31
0.0
  0
LINE
  5
7CE4
330
8440
100
AcDbEntity
  8
1
100
AcDbLine
 10
2643.863050175184
 20
4153.521192961289
 30
0.0
 11
4140.817324182217
 21
3233.769105966059
 31
0.0
  0
LINE
  5
7CE5
330
8440
100
AcDbEntity
  8
1
100
AcDbLine
 10
2580.304092518002
 20
4044.70232226923
 30
0.0
 11
4083.052541851026
 21
3136.642798874872
 31
0.0
  0
POINT
  5
7CF0
330
8440
100
AcDbEntity
  8
1
100
AcDbPoint
 10
2026.831659683934
 20
2834.935954207627
 30
0.0
  0
POINT
  5
7CF8
330
8440
100
AcDbEntity
  8
1
100
AcDbPoint
 10
2026.831659683934
 20
2834.935954207627
 30
0.0
  0
POINT
  5
7CF9
330
8440
100
AcDbEntity
  8
1
100
AcDbPoint
 10
2026.831659683934
 20
2939.935954207627
 30
0.0
  0
LINE
  5
7CFD
330
8440
100
AcDbEntity
  8
1
100
AcDbLine
 10
5531.407928765328
 20
5266.935954207627
 30
0.0
 11
7231.407928765325
 21
5266.935954207627
 31
0.0
  0
LINE
  5
7D00
330
8440
100
AcDbEntity
  8
1
100
AcDbLine
 10
5913.557537593625
 20
3124.93595420763
 30
0.0
 11
5913.557537593625
 21
3070.399788374015
 31
0.0
  0
LINE
  5
7D07
330
8440
100
AcDbEntity
  8
1
100
AcDbLine
 10
5531.407928765325
 20
3534.935954207629
 30
0.0
 11
5531.407928765325
 21
4315.935954207627
 31
0.0
  0
LINE
  5
8092
330
8440
100
AcDbEntity
  8
1
100
AcDbLine
 10
6025.357928765328
 20
3534.935954207627
 30
0.0
 11
6025.357928765326
 21
3124.93595420763
 31
0.0
  0
LINE
  5
8093
330
8440
100
AcDbEntity
  8
4
100
AcDbLine
 10
7400.0
 20
2000.0
 30
0.0
 11
7400.0
 21
1200.0
 31
0.0
  0
LINE
  5
8094
330
8440
100
AcDbEntity
  8
4
100
AcDbLine
 10
4600.0
 20
2000.0
 30
0.0
 11
4600.0
 21
1200.0
 31
0.0
  0
LINE
  5
8095
330
8440
100
AcDbEntity
  8
4
100
AcDbLine
 10
2600.0
 20
2000.0
 30
0.0
 11
2600.0
 21
1200.0
 31
0.0
  0
LINE
  5
8098
330
8440
100
AcDbEntity
  8
4
100
AcDbLine
 10
2600.0
 20
1200.0
 30
0.0
 11
7400.0
 21
1200.0
 31
0.0
  0
LINE
  5
8099
330
8440
100
AcDbEntity
  8
4
100
AcDbLine
 10
2600.0
 20
1600.0
 30
0.0
 11
7400.0
 21
1600.0
 31
0.0
  0
TEXT
  5
809A
330
8440
100
AcDbEntity
  8
4
100
AcDbText
 10
2754.008323387607
 20
1726.172103466451
 30
0.0
 40
200.0
  1
機器名称
100
AcDbText
  0
TEXT
  5
809B
330
8440
100
AcDbEntity
  8
4
100
AcDbText
 10
2745.03242409919
 20
1286.580626928043
 30
0.0
 40
200.0
  1
機器型番
100
AcDbText
  0
TEXT
  5
809C
330
8440
100
AcDbEntity
  8
4
100
AcDbText
 10
4710.714981950659
 20
1690.287075830274
 30
0.0
 40
200.0
  1
ミツヤ多翼送風機
100
AcDbText
  0
TEXT
  5
809D
330
8440
100
AcDbEntity
  8
4
100
AcDbText
 10
4746.617982341923
 20
1268.638337119773
 30
0.0
 40
200.0
  1
MF#8-5
100
AcDbText
  0
TEXT
  5
809F
330
8440
100
AcDbEntity
  8
4
100
AcDbText
 10
3261.976911550468
 20
9533.715365330063
 30
0.0
 40
215.9999999999999
  1
床置防振ベット
100
AcDbText
  0
TEXT
  5
80A0
330
8440
100
AcDbEntity
  8
4
100
AcDbText
 10
1264.670373317785
 20
10135.52390479719
 30
0.0
 40
288.0
  1
遠心式両吸込両持多翼ファン
100
AcDbText
  0
LINE
  5
80A1
330
8440
100
AcDbEntity
  8
4
100
AcDbLine
 10
1000.0
 20
9877.635017059219
 30
0.0
 11
7400.0
 21
9877.635017059219
 31
0.0
  0
LINE
  5
80A2
330
8440
100
AcDbEntity
  8
4
100
AcDbLine
 10
1000.0
 20
10677.63501705921
 30
0.0
 11
7400.0
 21
10677.63501705921
 31
0.0
  0
LINE
  5
80A3
330
8440
100
AcDbEntity
  8
4
100
AcDbLine
 10
2600.0
 20
2000.0
 30
0.0
 11
7400.0
 21
2000.0
 31
0.0
  0
LINE
  5
80A4
330
8440
100
AcDbEntity
  8
4
100
AcDbLine
 10
1000.0
 20
10677.63501705921
 30
0.0
 11
1000.0
 21
9877.635017059219
 31
0.0
  0
TEXT
  5
80A5
330
8440
100
AcDbEntity
  8
4
100
AcDbText
 10
1518.541582579659
 20
9529.277910185374
 30
0.0
 40
215.9999999999999
  1
右回転左横向
100
AcDbText
  0
TEXT
  5
80A6
330
8440
100
AcDbEntity
  8
4
100
AcDbText
 10
5875.878236997159
 20
10824.24432598123
 30
0.0
 40
224.0
  1
No.
100
AcDbText
  0
TEXT
  5
80A7
330
8440
100
AcDbEntity
  8
4
100
AcDbText
 10
5245.184250400053
 20
9533.715365330063
 30
0.0
 40
215.9999999999999
  1
縮尺：1/40
100
AcDbText
  0
LINE
  5
80A8
330
8440
100
AcDbEntity
  8
4
100
AcDbLine
 10
7400.0
 20
10677.63501705921
 30
0.0
 11
7400.0
 21
9877.635017059219
 31
0.0
  0
LINE
  5
80A9
330
8440
100
AcDbEntity
  8
4
100
AcDbLine
 10
8400.0
 20
11800.0
 30
0.0
 11
8400.0
 21
11800.0
 31
0.0
  0
LINE
  5
80AA
330
8440
100
AcDbEntity
  8
4
100
AcDbLine
 10
5762.469689439458
 20
10725.0543325016
 30
0.0
 11
5762.469689439458
 21
11146.609046199
 31
0.0
  0
LINE
  5
80AB
330
8440
100
AcDbEntity
  8
4
100
AcDbLine
 10
5762.469689439458
 20
11146.609046199
 30
0.0
 11
7400.0
 21
11146.609046199
 31
0.0
  0
LINE
  5
80AC
330
8440
100
AcDbEntity
  8
4
100
AcDbLine
 10
7400.0
 20
11146.609046199
 30
0.0
 11
7400.0
 21
10725.0543325016
 31
0.0
  0
LINE
  5
80AD
330
8440
100
AcDbEntity
  8
4
100
AcDbLine
 10
7400.0
 20
10725.0543325016
 30
0.0
 11
5762.469689439458
 21
10725.0543325016
 31
0.0
  0
LINE
  5
80AE
330
8440
100
AcDbEntity
  8
4
100
AcDbLine
 10
0.0
 20
0.0
 30
0.0
 11
0.0
 21
11800.0
 31
0.0
  0
LINE
  5
80AF
330
8440
100
AcDbEntity
  8
4
100
AcDbLine
 10
0.0
 20
11800.0
 30
0.0
 11
8400.0
 21
11800.0
 31
0.0
  0
LINE
  5
80B0
330
8440
100
AcDbEntity
  8
4
100
AcDbLine
 10
8400.0
 20
11800.0
 30
0.0
 11
8400.0
 21
0.0
 31
0.0
  0
LINE
  5
80B1
330
8440
100
AcDbEntity
  8
4
100
AcDbLine
 10
8400.0
 20
0.0
 30
0.0
 11
0.0
 21
0.0
 31
0.0
  0
DIMENSION
  5
8214
330
8440
100
AcDbEntity
  8
3
100
AcDbDimension
  2
*D26
 10
1203.170627867308
 20
4369.935954207627
 30
0.0
 11
1103.170627867308
 21
4818.435954207627
 31
0.0
 71
     5
 42
-1.0
  3
Standard
100
AcDbAlignedDimension
 13
2867.831659683934
 23
5266.935954207628
 33
0.0
 14
1939.310814992313
 24
4369.935954207627
 34
0.0
 50
90.0
100
AcDbRotatedDimension
1001
ACAD
1000
DSTYLE
1002
{
1070
   172
1070
     1
1070
    40
1040
40.0
1070
   271
1070
     0
1070
   143
1040
0.039
1002
}
  0
DIMENSION
  5
8546
330
8440
100
AcDbEntity
  8
3
100
AcDbDimension
  2
*D37
 10
6381.407928765326
 20
5820.910505835629
 30
0.0
 11
5741.407928765326
 21
5952.339077264201
 31
0.0
 70
    32
 71
     5
 42
1280.000000000001
  3
IGA
100
AcDbAlignedDimension
 13
5101.407928765326
 23
4749.935954207627
 33
0.0
 14
6381.407928765326
 24
5860.910505835629
 34
0.0
100
AcDbRotatedDimension
1001
ACAD
1000
DSTYLE
1002
{
1070
     3
1000
(<>)
1070
    40
1040
40.0
1070
   143
1040
0.039
1070
   172
1070
     1
1070
   271
1070
     4
1070
   272
1070
     4
1070
   279
1070
     0
1070
   284
1070
     0
1070
   285
1070
     0
1070
   286
1070
     0
1070
   341
1005
8457
1070
   343
1005
8457
1070
   344
1005
8457
1002
}
  0
DIMENSION
  5
8553
330
8440
100
AcDbEntity
  8
3
100
AcDbDimension
  2
*D38
 10
7401.407928765324
 20
5820.910505835629
 30
0.0
 11
6891.407928765326
 21
5952.339077264201
 31
0.0
 70
    32
 71
     5
 42
1019.999999999999
  3
IGA
100
AcDbAlignedDimension
 13
6381.407928765326
 23
5860.910505835629
 33
0.0
 14
7401.407928765324
 24
4293.935954207627
 34
0.0
100
AcDbRotatedDimension
1001
ACAD
1000
DSTYLE
1002
{
1070
     3
1000
(<>)
1070
    40
1040
40.0
1070
   143
1040
0.039
1070
   172
1070
     1
1070
   271
1070
     4
1070
   272
1070
     4
1070
   279
1070
     1
1070
   284
1070
     0
1070
   285
1070
     0
1070
   286
1070
     0
1070
   341
1005
8457
1070
   343
1005
8457
1070
   344
1005
8457
1002
}
  0
DIMENSION
  5
8563
330
8440
100
AcDbEntity
  8
3
100
AcDbDimension
  2
*D39
 10
7231.407928765325
 20
5539.256168514262
 30
0.0
 11
6381.407928765327
 21
5639.256168514261
 31
0.0
 70
    32
 71
     5
 42
1699.999999999998
  3
IGA
100
AcDbAlignedDimension
 13
5531.407928765328
 23
5266.935954207627
 33
0.0
 14
7231.407928765325
 24
5266.935954207627
 34
0.0
100
AcDbRotatedDimension
1001
ACAD
1000
DSTYLE
1002
{
1070
    40
1040
40.0
1070
   143
1040
0.039
1070
   172
1070
     1
1070
   271
1070
     4
1070
   272
1070
     4
1070
   279
1070
     0
1070
   284
1070
     0
1070
   285
1070
     0
1070
   286
1070
     0
1070
   341
1005
8457
1070
   343
1005
8457
1070
   344
1005
8457
1002
}
  0
DIMENSION
  5
8586
330
8440
100
AcDbEntity
  8
3
100
AcDbDimension
  2
*D40
 10
7642.677553677827
 20
3744.935954207627
 30
0.0
 11
7542.677553677826
 21
4369.935954207628
 31
0.0
 70
    32
  1
\U+03C6<>
 71
     5
 42
1250.0
  3
IGA
100
AcDbAlignedDimension
 13
7231.407928765325
 23
4994.935954207627
 33
0.0
 14
7231.407928765325
 24
3744.935954207627
 34
0.0
 50
90.0
100
AcDbRotatedDimension
1001
ACAD
1000
DSTYLE
1002
{
1070
    40
1040
40.0
1070
   143
1040
0.039
1070
   172
1070
     1
1070
   271
1070
     4
1070
   272
1070
     4
1070
   279
1070
     0
1070
   284
1070
     0
1070
   285
1070
     0
1070
   286
1070
     0
1070
   341
1005
8457
1070
   343
1005
8457
1070
   344
1005
8457
1002
}
  0
DIMENSION
  5
85B1
330
8440
100
AcDbEntity
  8
3
100
AcDbDimension
  2
*D41
 10
6381.407928765328
 20
2521.868553695462
 30
0.0
 11
5780.407928765328
 21
2621.868553695462
 31
0.0
 70
    32
 71
     5
 42
1202.000000000001
  3
IGA
100
AcDbAlignedDimension
 13
5179.407928765328
 23
2769.935954207627
 33
0.0
 14
6381.407928765328
 24
2769.935954207627
 34
0.0
100
AcDbRotatedDimension
1001
ACAD
1000
DSTYLE
1002
{
1070
    40
1040
40.0
1070
   143
1040
0.039
1070
   172
1070
     1
1070
   271
1070
     4
1070
   272
1070
     4
1070
   279
1070
     0
1070
   284
1070
     0
1070
   285
1070
     0
1070
   286
1070
     0
1070
   341
1005
8457
1070
   343
1005
8457
1070
   344
1005
8457
1002
}
  0
DIMENSION
  5
85BE
330
8440
100
AcDbEntity
  8
3
100
AcDbDimension
  2
*D42
 10
7299.407928765325
 20
2521.868553695462
 30
0.0
 11
6840.407928765327
 21
2621.868553695462
 31
0.0
 70
    32
 71
     5
 42
917.9999999999964
  3
IGA
100
AcDbAlignedDimension
 13
6381.407928765328
 23
2769.935954207627
 33
0.0
 14
7299.407928765325
 24
2769.935954207627
 34
0.0
100
AcDbRotatedDimension
1001
ACAD
1000
DSTYLE
1002
{
1070
    40
1040
40.0
1070
   143
1040
0.039
1070
   172
1070
     1
1070
   271
1070
     4
1070
   272
1070
     4
1070
   279
1070
     1
1070
   284
1070
     0
1070
   285
1070
     0
1070
   286
1070
     0
1070
   341
1005
8457
1070
   343
1005
8457
1070
   344
1005
8457
1002
}
  0
DIMENSION
  5
85CB
330
8440
100
AcDbEntity
  8
3
100
AcDbDimension
  2
*D43
 10
1577.8155184481
 20
6755.623467839007
 30
0.0
 11
1477.815518448099
 21
7815.623467839007
 31
0.0
 70
    32
 71
     5
 42
2119.999999999999
  3
IGA
100
AcDbAlignedDimension
 13
2026.831659683934
 23
8875.623467839007
 33
0.0
 14
2026.831659683934
 24
6755.623467839007
 34
0.0
 50
90.0
100
AcDbRotatedDimension
1001
ACAD
1000
DSTYLE
1002
{
1070
    40
1040
40.0
1070
   143
1040
0.039
1070
   172
1070
     1
1070
   271
1070
     4
1070
   272
1070
     4
1070
   279
1070
     0
1070
   284
1070
     0
1070
   285
1070
     0
1070
   286
1070
     0
1070
   341
1005
8457
1070
   343
1005
8457
1070
   344
1005
8457
1002
}
  0
DIMENSION
  5
85D8
330
8440
100
AcDbEntity
  8
3
100
AcDbDimension
  2
*D44
 10
4476.831659683933
 20
6390.869589649355
 30
0.0
 11
3251.831659683933
 21
6490.869589649354
 31
0.0
 70
    32
 71
     5
 42
2449.999999999999
  3
IGA
100
AcDbAlignedDimension
 13
2026.831659683934
 23
6755.623467839007
 33
0.0
 14
4476.831659683933
 24
6755.623467839007
 34
0.0
100
AcDbRotatedDimension
1001
ACAD
1000
DSTYLE
1002
{
1070
    40
1040
40.0
1070
   143
1040
0.039
1070
   172
1070
     1
1070
   271
1070
     4
1070
   272
1070
     4
1070
   279
1070
     0
1070
   284
1070
     0
1070
   285
1070
     0
1070
   286
1070
     0
1070
   341
1005
8457
1070
   343
1005
8457
1070
   344
1005
8457
1002
}
  0
DIMENSION
  5
85E5
330
8440
100
AcDbEntity
  8
3
100
AcDbDimension
  2
*D45
 10
4743.158060791513
 20
7755.623467839007
 30
0.0
 11
4643.158060791511
 21
7255.623467839008
 31
0.0
 70
    32
 71
     5
 42
1000.0
  3
IGA
100
AcDbAlignedDimension
 13
4476.831659683933
 23
6755.623467839007
 33
0.0
 14
4476.831659683933
 24
7755.623467839007
 34
0.0
 50
90.0
100
AcDbRotatedDimension
1001
ACAD
1000
DSTYLE
1002
{
1070
    40
1040
40.0
1070
   143
1040
0.039
1070
   172
1070
     1
1070
   271
1070
     4
1070
   272
1070
     4
1070
   279
1070
     0
1070
   284
1070
     0
1070
   285
1070
     0
1070
   286
1070
     0
1070
   341
1005
8457
1070
   343
1005
8457
1070
   344
1005
8457
1002
}
  0
DIMENSION
  5
85F2
330
8440
100
AcDbEntity
  8
3
100
AcDbDimension
  2
*D46
 10
3526.831659683934
 20
9080.259606344192
 30
0.0
 11
4001.831659683933
 21
9180.259606344192
 31
0.0
 70
    32
 71
     5
 42
949.9999999999996
  3
IGA
100
AcDbAlignedDimension
 13
4476.831659683933
 23
7755.623467839007
 33
0.0
 14
3526.831659683934
 24
8875.623467839007
 34
0.0
100
AcDbRotatedDimension
1001
ACAD
1000
DSTYLE
1002
{
1070
    40
1040
40.0
1070
   143
1040
0.039
1070
   172
1070
     1
1070
   271
1070
     4
1070
   272
1070
     4
1070
   279
1070
     0
1070
   284
1070
     0
1070
   285
1070
     0
1070
   286
1070
     0
1070
   341
1005
8457
1070
   343
1005
8457
1070
   344
1005
8457
1002
}
  0
DIMENSION
  5
85FF
330
8440
100
AcDbEntity
  8
3
100
AcDbDimension
  2
*D47
 10
2026.831659683934
 20
9080.259606344192
 30
0.0
 11
2776.831659683934
 21
9180.259606344192
 31
0.0
 70
    32
 71
     5
 42
1500.0
  3
IGA
100
AcDbAlignedDimension
 13
3526.831659683934
 23
8875.623467839007
 33
0.0
 14
2026.831659683934
 24
8875.623467839007
 34
0.0
100
AcDbRotatedDimension
1001
ACAD
1000
DSTYLE
1002
{
1070
    40
1040
40.0
1070
   143
1040
0.039
1070
   172
1070
     1
1070
   271
1070
     4
1070
   272
1070
     4
1070
   279
1070
     1
1070
   284
1070
     0
1070
   285
1070
     0
1070
   286
1070
     0
1070
   341
1005
8457
1070
   343
1005
8457
1070
   344
1005
8457
1002
}
  0
DIMENSION
  5
860C
330
8440
100
AcDbEntity
  8
3
100
AcDbDimension
  2
*D48
 10
2776.831659683934
 20
5534.448112292857
 30
0.0
 11
2364.331659683934
 21
5634.448112292856
 31
0.0
 70
    32
 71
     5
 42
824.9999999999996
  3
IGA
100
AcDbAlignedDimension
 13
1951.831659683934
 23
4368.935954207628
 33
0.0
 14
2776.831659683934
 24
5418.534369238305
 34
0.0
100
AcDbRotatedDimension
1001
ACAD
1000
DSTYLE
1002
{
1070
    40
1040
40.0
1070
   143
1040
0.039
1070
   172
1070
     1
1070
   271
1070
     4
1070
   272
1070
     4
1070
   279
1070
     0
1070
   284
1070
     0
1070
   285
1070
     0
1070
   286
1070
     0
1070
   341
1005
8457
1070
   343
1005
8457
1070
   344
1005
8457
1002
}
  0
DIMENSION
  5
8619
330
8440
100
AcDbEntity
  8
3
100
AcDbDimension
  2
*D49
 10
3855.831659683934
 20
5534.448112292857
 30
0.0
 11
3316.331659683934
 21
5634.448112292856
 31
0.0
 70
    32
 71
     5
 42
1079.0
  3
IGA
100
AcDbAlignedDimension
 13
2776.831659683934
 23
5418.534369238305
 33
0.0
 14
3855.831659683934
 24
4278.935954207628
 34
0.0
100
AcDbRotatedDimension
1001
ACAD
1000
DSTYLE
1002
{
1070
    40
1040
40.0
1070
   143
1040
0.039
1070
   172
1070
     1
1070
   271
1070
     4
1070
   272
1070
     4
1070
   279
1070
     1
1070
   284
1070
     0
1070
   285
1070
     0
1070
   286
1070
     0
1070
   341
1005
8457
1070
   343
1005
8457
1070
   344
1005
8457
1002
}
  0
DIMENSION
  5
8626
330
8440
100
AcDbEntity
  8
3
100
AcDbDimension
  2
*D50
 10
4476.831659683933
 20
5815.282770043522
 30
0.0
 11
3214.331659683934
 21
5915.282770043521
 31
0.0
 70
    32
 71
     5
 42
2524.999999999999
  3
IGA
100
AcDbAlignedDimension
 13
1951.831659683934
 23
4368.935954207628
 33
0.0
 14
4476.831659683933
 24
3064.935954207627
 34
0.0
100
AcDbRotatedDimension
1001
ACAD
1000
DSTYLE
1002
{
1070
    40
1040
40.0
1070
   143
1040
0.039
1070
   172
1070
     1
1070
   271
1070
     4
1070
   272
1070
     4
1070
   279
1070
     0
1070
   284
1070
     0
1070
   285
1070
     0
1070
   286
1070
     0
1070
   341
1005
8457
1070
   343
1005
8457
1070
   344
1005
8457
1002
}
  0
DIMENSION
  5
8633
330
8440
100
AcDbEntity
  8
3
100
AcDbDimension
  2
*D51
 10
2776.831659683934
 20
2518.568335764325
 30
0.0
 11
2401.831659683934
 21
2618.568335764325
 31
0.0
 70
    32
 71
     5
 42
749.9999999999995
  3
IGA
100
AcDbAlignedDimension
 13
2026.831659683934
 23
2769.935954207627
 33
0.0
 14
2776.831659683934
 24
2769.935954207627
 34
0.0
100
AcDbRotatedDimension
1001
ACAD
1000
DSTYLE
1002
{
1070
    40
1040
40.0
1070
   143
1040
0.039
1070
   172
1070
     1
1070
   271
1070
     4
1070
   272
1070
     4
1070
   279
1070
     0
1070
   284
1070
     0
1070
   285
1070
     0
1070
   286
1070
     0
1070
   341
1005
8457
1070
   343
1005
8457
1070
   344
1005
8457
1002
}
  0
DIMENSION
  5
8640
330
8440
100
AcDbEntity
  8
3
100
AcDbDimension
  2
*D52
 10
4476.831659683933
 20
2518.568335764325
 30
0.0
 11
3626.831659683933
 21
2618.568335764325
 31
0.0
 70
    32
 71
     5
 42
1700.0
  3
IGA
100
AcDbAlignedDimension
 13
2776.831659683934
 23
2769.935954207627
 33
0.0
 14
4476.831659683933
 24
2769.935954207627
 34
0.0
100
AcDbRotatedDimension
1001
ACAD
1000
DSTYLE
1002
{
1070
    40
1040
40.0
1070
   143
1040
0.039
1070
   172
1070
     1
1070
   271
1070
     4
1070
   272
1070
     4
1070
   279
1070
     1
1070
   284
1070
     0
1070
   285
1070
     0
1070
   286
1070
     0
1070
   341
1005
8457
1070
   343
1005
8457
1070
   344
1005
8457
1002
}
  0
DIMENSION
  5
864D
330
8440
100
AcDbEntity
  8
3
100
AcDbDimension
  2
*D53
 10
1698.820626993976
 20
3035.935954207627
 30
0.0
 11
1598.820626993975
 21
3675.935954207627
 31
0.0
 70
    32
 71
     5
 42
1280.0
  3
IGA
100
AcDbAlignedDimension
 13
1951.831659683934
 23
4315.935954207627
 33
0.0
 14
1951.831659683934
 24
3035.935954207627
 34
0.0
 50
90.0
100
AcDbRotatedDimension
1001
ACAD
1000
DSTYLE
1002
{
1070
    40
1040
40.0
1070
   143
1040
0.039
1070
   172
1070
     1
1070
   271
1070
     4
1070
   272
1070
     4
1070
   279
1070
     0
1070
   284
1070
     0
1070
   285
1070
     0
1070
   286
1070
     0
1070
   341
1005
8457
1070
   343
1005
8457
1070
   344
1005
8457
1002
}
  0
DIMENSION
  5
8667
330
8440
100
AcDbEntity
  8
3
100
AcDbDimension
  2
*D55
 10
1203.170627867307
 20
2939.935954207627
 30
0.0
 11
1103.170627867307
 21
3654.935954207628
 31
0.0
 70
    32
 71
     5
 42
1430.0
  3
IGA
100
AcDbAlignedDimension
 13
1939.310814992313
 23
4369.935954207627
 33
0.0
 14
2026.831659683934
 24
2939.935954207627
 34
0.0
 50
90.0
100
AcDbRotatedDimension
1001
ACAD
1000
DSTYLE
1002
{
1070
    40
1040
40.0
1070
   143
1040
0.039
1070
   172
1070
     1
1070
   271
1070
     4
1070
   272
1070
     4
1070
   279
1070
     1
1070
   284
1070
     0
1070
   285
1070
     0
1070
   286
1070
     0
1070
   341
1005
8457
1070
   343
1005
8457
1070
   344
1005
8457
1002
}
  0
DIMENSION
  5
8674
330
8440
100
AcDbEntity
  8
3
100
AcDbDimension
  2
*D56
 10
1203.170627867307
 20
2834.935954207627
 30
0.0
 11
880.3134850101644
 21
2984.864525636199
 31
0.0
 70
    32
  1
(<>)
 71
     5
 42
105.0
  3
IGA
100
AcDbAlignedDimension
 13
2026.831659683934
 23
2939.935954207627
 33
0.0
 14
2026.831659683934
 24
2834.935954207627
 34
0.0
 50
90.0
100
AcDbRotatedDimension
1001
ACAD
1000
DSTYLE
1002
{
1070
    40
1040
40.0
1070
   143
1040
0.039
1070
   172
1070
     1
1070
   271
1070
     4
1070
   272
1070
     4
1070
   279
1070
     1
1070
   284
1070
     0
1070
   285
1070
     0
1070
   286
1070
     0
1070
   341
1005
8457
1070
   343
1005
8457
1070
   344
1005
8755
1002
}
  0
DIMENSION
  5
8686
330
8440
100
AcDbEntity
  8
3
100
AcDbDimension
  2
*D57
 10
1203.170627867307
 20
2769.935954207627
 30
0.0
 11
1176.06227071915
 21
2599.189938081098
 31
0.0
 70
   160
 71
     5
 42
65.0
  3
IGA
100
AcDbAlignedDimension
 13
2026.831659683934
 23
2834.935954207627
 33
0.0
 14
2026.831659683934
 24
2769.935954207627
 34
0.0
 50
90.0
100
AcDbRotatedDimension
1001
ACAD
1000
DSTYLE
1002
{
1070
    40
1040
40.0
1070
   143
1040
0.039
1070
   172
1070
     1
1070
   271
1070
     4
1070
   272
1070
     4
1070
   279
1070
     1
1070
   284
1070
     0
1070
   285
1070
     0
1070
   286
1070
     0
1070
   341
1005
8457
1070
   343
1005
8755
1070
   344
1005
8457
1002
}
  0
DIMENSION
  5
8698
330
8440
100
AcDbEntity
  8
3
100
AcDbDimension
  2
*D58
 10
1451.757784537447
 20
4369.935954207627
 30
0.0
 11
1351.757784537446
 21
3702.935954207627
 31
0.0
 70
    32
 71
     5
 42
1334.0
  3
IGA
100
AcDbAlignedDimension
 13
1951.831659683934
 23
3035.935954207627
 33
0.0
 14
1939.310814992313
 24
4369.935954207627
 34
0.0
 50
90.0
100
AcDbRotatedDimension
1001
ACAD
1000
DSTYLE
1002
{
1070
    40
1040
40.0
1070
   143
1040
0.039
1070
   172
1070
     1
1070
   271
1070
     4
1070
   272
1070
     4
1070
   279
1070
     0
1070
   284
1070
     0
1070
   285
1070
     0
1070
   286
1070
     0
1070
   341
1005
8457
1070
   343
1005
8457
1070
   344
1005
8457
1002
}
  0
DIMENSION
  5
86A5
330
8440
100
AcDbEntity
  8
3
100
AcDbDimension
  2
*D59
 10
710.2612047087169
 20
5266.935954207629
 30
0.0
 11
578.8326332801445
 21
4018.435954207627
 31
0.0
 70
    32
  1
(<>)
 71
     5
 42
2497.000000000002
  3
IGA
100
AcDbAlignedDimension
 13
2026.831659683934
 23
2769.935954207627
 33
0.0
 14
2867.831659683934
 24
5266.935954207628
 34
0.0
 50
90.0
100
AcDbRotatedDimension
1001
ACAD
1000
DSTYLE
1002
{
1070
    40
1040
40.0
1070
   143
1040
0.039
1070
   172
1070
     1
1070
   271
1070
     4
1070
   272
1070
     4
1070
   279
1070
     0
1070
   284
1070
     0
1070
   285
1070
     0
1070
   286
1070
     0
1070
   341
1005
8457
1070
   343
1005
8457
1070
   344
1005
8457
1002
}
  0
ENDSEC
  0
SECTION
  2
OBJECTS
  0
DICTIONARY
  5
83DD
330
0
100
AcDbDictionary
281
     1
  3
ACAD_CIP_PREVIOUS_PRODUCT_INFO
350
8489
  3
ACAD_COLOR
350
8433
  3
ACAD_DETAILVIEWSTYLE
350
843A
  3
ACAD_GROUP
350
83DE
  3
ACAD_LAYOUT
350
8432
  3
ACAD_MATERIAL
350
83E1
  3
ACAD_MLEADERSTYLE
350
8436
  3
ACAD_MLINESTYLE
350
842F
  3
ACAD_PLOTSETTINGS
350
8431
  3
ACAD_PLOTSTYLENAME
350
83DF
  3
ACAD_SCALELIST
350
8413
  3
ACAD_SECTIONVIEWSTYLE
350
8438
  3
ACAD_TABLESTYLE
350
8434
  3
ACAD_VISUALSTYLE
350
83FA
  3
ACDB_RECOMPOSE_DATA
350
87C2
  3
AcDbVariableDictionary
350
8494
  3
DWGPROPS
350
87C3
  0
DICTIONARY
  5
848A
330
8425
100
AcDbDictionary
280
     1
281
     1
  3
ADSK_XREC_LAYER_RECONCILED
360
848B
  0
DICTIONARY
  5
848C
330
8444
100
AcDbDictionary
280
     1
281
     1
  3
ADSK_XREC_LAYER_RECONCILED
360
848D
  0
DICTIONARY
  5
848E
330
8447
100
AcDbDictionary
280
     1
281
     1
  3
ADSK_XREC_LAYER_RECONCILED
360
848F
  0
DICTIONARY
  5
8490
330
8448
100
AcDbDictionary
280
     1
281
     1
  3
ADSK_XREC_LAYER_RECONCILED
360
8491
  0
DICTIONARY
  5
8492
330
8449
100
AcDbDictionary
280
     1
281
     1
  3
ADSK_XREC_LAYER_RECONCILED
360
8493
  0
DICTIONARY
  5
8583
330
8440
100
AcDbDictionary
280
     1
281
     1
  3
ACAD_SORTENTS
360
8584
  0
XRECORD
  5
8489
102
{ACAD_REACTORS
330
83DD
102
}
330
83DD
100
AcDbXrecord
280
     1
300
ACDLT
300
2015
300
INVLTS_F_S
  0
DICTIONARY
  5
8433
102
{ACAD_REACTORS
330
83DD
102
}
330
83DD
100
AcDbDictionary
281
     1
  0
DICTIONARY
  5
843A
102
{ACAD_REACTORS
330
83DD
102
}
330
83DD
100
AcDbDictionary
281
     1
  3
Imperial24
350
843B
  0
DICTIONARY
  5
83DE
102
{ACAD_REACTORS
330
83DD
102
}
330
83DD
100
AcDbDictionary
281
     1
  0
DICTIONARY
  5
8432
102
{ACAD_REACTORS
330
83DD
102
}
330
83DD
100
AcDbDictionary
281
     1
  3
Model
350
8443
  3
レイアウト1
350
843F
  0
DICTIONARY
  5
83E1
102
{ACAD_REACTORS
330
83DD
102
}
330
83DD
100
AcDbDictionary
281
     1
  3
ByBlock
350
83EA
  3
ByLayer
350
83E2
  3
Global
350
83F2
  0
DICTIONARY
  5
8436
102
{ACAD_REACTORS
330
83DD
102
}
330
83DD
100
AcDbDictionary
281
     1
  3
Standard
350
8437
  0
DICTIONARY
  5
842F
102
{ACAD_REACTORS
330
83DD
102
}
330
83DD
100
AcDbDictionary
281
     1
  3
Standard
350
8430
  0
DICTIONARY
  5
8431
102
{ACAD_REACTORS
330
83DD
102
}
330
83DD
100
AcDbDictionary
281
     1
  0
ACDBDICTIONARYWDFLT
  5
83DF
102
{ACAD_REACTORS
330
83DD
102
}
330
83DD
100
AcDbDictionary
281
     1
  3
Normal
350
83E0
100
AcDbDictionaryWithDefault
340
83E0
  0
DICTIONARY
  5
8413
102
{ACAD_REACTORS
330
83DD
102
}
330
83DD
100
AcDbDictionary
281
     1
  3
A0
350
8414
  3
A1
350
8415
  3
A2
350
8416
  3
A3
350
8417
  3
A4
350
8418
  3
A5
350
8419
  3
A6
350
841A
  3
A7
350
841B
  3
A8
350
841C
  3
A9
350
841D
  3
B0
350
841E
  3
B1
350
841F
  3
B2
350
8420
  3
B3
350
8421
  3
B4
350
8422
  3
B5
350
8423
  3
B6
350
8424
  0
DICTIONARY
  5
8438
102
{ACAD_REACTORS
330
83DD
102
}
330
83DD
100
AcDbDictionary
281
     1
  3
Imperial24
350
8439
  0
DICTIONARY
  5
8434
102
{ACAD_REACTORS
330
83DD
102
}
330
83DD
100
AcDbDictionary
281
     1
  3
Standard
350
8435
  0
DICTIONARY
  5
83FA
102
{ACAD_REACTORS
330
83DD
102
}
330
83DD
100
AcDbDictionary
281
     1
  3
2dWireframe
350
8400
  3
Basic
350
83FF
  3
Brighten
350
8406
  3
ColorChange
350
840A
  3
Conceptual
350
8403
  3
Dim
350
8405
  3
EdgeColorOff
350
8412
  3
Facepattern
350
8409
  3
Flat
350
83FB
  3
FlatWithEdges
350
83FC
  3
Gouraud
350
83FD
  3
GouraudWithEdges
350
83FE
  3
Hidden
350
8402
  3
JitterOff
350
8410
  3
Linepattern
350
8408
  3
OverhangOff
350
8411
  3
Realistic
350
8404
  3
Shaded
350
840F
  3
Shaded with edges
350
840E
  3
Shades of Gray
350
840B
  3
Sketchy
350
840C
  3
Thicken
350
8407
  3
Wireframe
350
8401
  3
X-Ray
350
840D
  0
XRECORD
  5
87C2
102
{ACAD_REACTORS
330
83DD
102
}
330
83DD
100
AcDbXrecord
280
     1
 90
        1
330
8435
  0
DICTIONARY
  5
8494
102
{ACAD_REACTORS
330
83DD
102
}
330
83DD
100
AcDbDictionary
281
     1
  3
CANNOSCALE
350
8499
  3
CMLEADERSTYLE
350
8496
  3
CTABLESTYLE
350
8495
  3
CVIEWDETAILSTYLE
350
8497
  3
CVIEWSECTIONSTYLE
350
8498
  3
DIMASSOC
350
849C
  3
INDEXCTL
350
849B
  3
SORTENTS
350
849A
  3
XCLIPFRAME
350
849D
  0
XRECORD
  5
87C3
102
{ACAD_REACTORS
330
83DD
102
}
330
83DD
100
AcDbXrecord
280
     1
  1
DWGPROPS COOKIE
  2

  3

  4

  6

  7

  8
yasukiyo.ogawa
  9

300
=
301
=
302
=
303
=
304
=
305
=
306
=
307
=
308
=
309
=
 40
0.0232152083333333
 41
2451898.461951968
 42
2460280.794334456
  1

 90
        0
  0
XRECORD
  5
848B
102
{ACAD_REACTORS
330
848A
102
}
330
848A
100
AcDbXrecord
280
     1
290
     1
  0
XRECORD
  5
848D
102
{ACAD_REACTORS
330
848C
102
}
330
848C
100
AcDbXrecord
280
     1
290
     1
  0
XRECORD
  5
848F
102
{ACAD_REACTORS
330
848E
102
}
330
848E
100
AcDbXrecord
280
     1
290
     1
  0
XRECORD
  5
8491
102
{ACAD_REACTORS
330
8490
102
}
330
8490
100
AcDbXrecord
280
     1
290
     1
  0
XRECORD
  5
8493
102
{ACAD_REACTORS
330
8492
102
}
330
8492
100
AcDbXrecord
280
     1
290
     1
  0
SORTENTSTABLE
  5
8584
102
{ACAD_REACTORS
330
8583
102
}
330
8583
100
AcDbSortentsTable
330
8440
331
7C92
  5
7C94
331
7C81
  5
7C83
331
7CA3
  5
7CA5
331
7C1B
  5
7C1D
331
7C5F
  5
7C61
331
7C4E
  5
7C50
331
7C3D
  5
7C3F
331
7C2C
  5
7C2E
331
80AC
  5
80AE
331
809B
  5
809D
331
7C70
  5
7C72
331
7C93
  5
7C95
331
7C82
  5
7C84
331
7CA4
  5
7CA6
331
7C1C
  5
7C1E
331
7CC6
  5
7CCA
331
7C3E
  5
7C40
331
7C2D
  5
7C2F
331
80AD
  5
80AF
331
809C
  5
809F
331
7C71
  5
7C73
331
7C60
  5
7C62
331
7C4F
  5
7C51
331
7C83
  5
7C85
331
7C94
  5
7C96
331
7CA5
  5
7CA7
331
7C1D
  5
7C1F
331
7CB6
  5
7CB8
331
7C2E
  5
7C30
331
7CC7
  5
7CCB
331
7CD8
  5
7CDB
331
7C50
  5
7C55
331
80AE
  5
80B0
331
809D
  5
80A0
331
7C72
  5
7C74
331
7C61
  5
7C63
331
7C3F
  5
7C41
331
7C0C
  5
7C0C
331
7C84
  5
7C86
331
7C95
  5
7C97
331
7CA6
  5
7CA8
331
7C1E
  5
7C20
331
7CB7
  5
7CB9
331
7C2F
  5
7C31
331
7CD9
  5
7CDC
331
7C51
  5
7C56
331
80AF
  5
80B1
331
7C73
  5
7C75
331
7C62
  5
7C64
331
7C40
  5
7C42
331
7C0D
  5
7C0D
331
80B0
  5
81A8
331
8546
  5
8563
331
7C85
  5
7C87
331
7C96
  5
7C98
331
7CA7
  5
7CA9
331
7C1F
  5
7C21
331
7CB8
  5
7CBA
331
7C30
  5
7C32
331
809F
  5
80A1
331
7C74
  5
7C76
331
7C63
  5
7C65
331
7C41
  5
7C43
331
7C0E
  5
7C0E
331
80B1
  5
81B5
331
80A0
  5
80A2
331
7C86
  5
7C88
331
7C97
  5
7C99
331
7CA8
  5
7CAA
331
7C20
  5
7C22
331
7CB9
  5
7CBB
331
7C31
  5
7C33
331
7CDB
  5
7CDD
331
7C75
  5
7C77
331
7C64
  5
7C66
331
7C42
  5
7C44
331
7C0F
  5
7C0F
331
80A1
  5
80A3
331
7C87
  5
7C89
331
7C98
  5
7C9C
331
7CA9
  5
7CAB
331
7C21
  5
7C23
331
7CBA
  5
7CBC
331
7C32
  5
7C34
331
7CDC
  5
7CDE
331
7D07
  5
8060
331
7C76
  5
7C78
331
7C65
  5
7C67
331
7C43
  5
7C45
331
7C10
  5
7C10
331
80A2
  5
80A4
331
7C99
  5
7C9D
331
7C88
  5
7C8A
331
7CAA
  5
7CAE
331
7C22
  5
7C24
331
7CBB
  5
7CBD
331
7C33
  5
7C36
331
7CDD
  5
7CE0
331
7C55
  5
7C57
331
7C77
  5
7C79
331
7C66
  5
7C68
331
7C44
  5
7C47
331
80A3
  5
80A5
331
8092
  5
8094
331
7CF8
  5
7CFD
331
7C78
  5
7C7A
331
7CAB
  5
7CAF
331
7C23
  5
7C25
331
7CBC
  5
7CBE
331
7C34
  5
7C37
331
7CCD
  5
7CCF
331
7C45
  5
7C49
331
7CDE
  5
7CE1
331
7C67
  5
7C69
331
7C56
  5
7C58
331
7C12
  5
7C12
331
7CF0
  5
7CF9
331
7C68
  5
7C6A
331
7CF9
  5
7D00
331
7C79
  5
7C7B
331
80A4
  5
80A6
331
8093
  5
8095
331
7CCE
  5
7CD0
331
7CBD
  5
7CBF
331
7C24
  5
7C26
331
7C57
  5
7C59
331
7C13
  5
7C13
331
7CE0
  5
7CE2
331
7C58
  5
7C5A
331
80A5
  5
80A7
331
8094
  5
8098
331
7C7A
  5
7C7C
331
7C69
  5
7C6B
331
7C9C
  5
7C9E
331
7CBE
  5
7CC0
331
7C36
  5
7C38
331
7C25
  5
7C27
331
7CCF
  5
7CD2
331
7C14
  5
7C14
331
7CD0
  5
7CD3
331
7CE1
  5
7CE3
331
7C59
  5
7C5B
331
80A6
  5
80A8
331
8095
  5
8099
331
7C7B
  5
7C7D
331
7C6A
  5
7C6C
331
7C9D
  5
7CA0
331
7CAE
  5
7CB0
331
7C26
  5
7C28
331
7C15
  5
7C17
331
7CBF
  5
7CC2
331
7C37
  5
7C39
331
7CC0
  5
7CC3
331
7C38
  5
7C3A
331
8563
  5
8585
331
7CE2
  5
7CE4
331
7C5A
  5
7C5C
331
7C7C
  5
7C7E
331
7C6B
  5
7C6D
331
80A7
  5
80A9
331
7C9E
  5
7CA1
331
7CAF
  5
7CB1
331
7C27
  5
7C29
331
7C16
  5
7C18
331
7CB0
  5
7CB2
331
7C28
  5
7C2A
331
8553
  5
8582
331
7CD2
  5
7CD4
331
7C4A
  5
7C4C
331
7C39
  5
7C3B
331
7CE3
  5
7CE5
331
7C5B
  5
7C5D
331
80A8
  5
80AA
331
7CFD
  5
7D01
331
7C7D
  5
7C7F
331
7C8E
  5
7C91
331
7C17
  5
7C19
331
7C6C
  5
7C6E
331
7CA0
  5
7CA3
331
7C18
  5
7C1A
331
7CB1
  5
7CB3
331
7C29
  5
7C2B
331
7CC2
  5
7CC6
331
7C3A
  5
7C3C
331
7CD3
  5
7CD5
331
7CE4
  5
7CE6
331
7C5C
  5
7C5E
331
80A9
  5
80AB
331
8098
  5
809A
331
7C7E
  5
7C80
331
7C6D
  5
7C6F
331
7C4B
  5
7C4D
331
7C90
  5
7C92
331
7CA1
  5
7CA4
331
7C19
  5
7C1B
331
7CB2
  5
7CB6
331
7C2A
  5
7C2C
331
7CC3
  5
7CC7
331
7CD4
  5
7CD8
331
7C4C
  5
7C4E
331
7CE5
  5
7CE7
331
80AA
  5
80AC
331
8099
  5
809B
331
7C7F
  5
7C81
331
7C6E
  5
7C70
331
7C5D
  5
7C5F
331
7C3B
  5
7C3D
331
7C91
  5
7C93
331
7C80
  5
7C82
331
8214
  5
824E
331
7CB3
  5
7CB7
331
7C2B
  5
7C2D
331
7C1A
  5
7C1C
331
7CD5
  5
7CD9
331
7C4D
  5
7C4F
331
7C3C
  5
7C3E
331
80AB
  5
80AD
331
809A
  5
809C
331
7D00
  5
7D07
331
7C6F
  5
7C71
331
7C5E
  5
7C60
  0
ACDBDETAILVIEWSTYLE
  5
843B
102
{ACAD_XDICTIONARY
360
87FB
102
}
102
{ACAD_REACTORS
330
843A
102
}
330
843A
100
AcDbModelDocViewStyle
 70
     0
  3
Imperial24
290
     0
100
AcDbDetailViewStyle
 70
     0
 71
     0
 90
        3
 71
     1
340
8426
 40
0.24
340
0
 40
0.24
300

 40
0.36
280
     3
 71
     2
340
842D
 90
       25
 71
     3
340
8426
 40
0.24
 90
        1
 40
0.75
 90
        1
300
%<\AcVar ViewType \f "%tc1">% %<\AcVar ViewDetailId>%\PSCALE %<\AcVar ViewScale \f "%sn">%
 71
     4
340
842D
 90
       25
340
842D
 90
       25
280
     0
  0
LAYOUT
  5
8443
102
{ACAD_XDICTIONARY
360
87FF
102
}
102
{ACAD_REACTORS
330
8432
102
}
330
8432
100
AcDbPlotSettings
  1

  2
RICOH imagio MP W3600 RPCS
  4

  6

 40
0.0
 41
0.0
 42
0.0
 43
0.0
 44
0.0
 45
0.0
 46
0.0
 47
0.0
 48
0.0
 49
0.0
140
0.0
141
0.0
142
1.0
143
1.0
 70
  1712
 72
     0
 73
     0
 74
     0
  7

 75
     0
147
1.0
148
0.0
149
0.0
100
AcDbLayout
  1
Model
 70
     1
 71
     0
 10
0.0
 20
0.0
 11
12.0
 21
9.0
 12
0.0
 22
0.0
 32
0.0
 14
0.0
 24
0.0
 34
0.0
 15
0.0
 25
0.0
 35
0.0
146
0.0
 13
0.0
 23
0.0
 33
0.0
 16
1.0
 26
0.0
 36
0.0
 17
0.0
 27
1.0
 37
0.0
 76
     0
330
8440
331
8445
  0
LAYOUT
  5
843F
102
{ACAD_XDICTIONARY
360
87FD
102
}
102
{ACAD_REACTORS
330
8432
102
}
330
8432
100
AcDbPlotSettings
  1

  2
RICOH imagio MP W3600 RPCS
  4

  6

 40
0.0
 41
0.0
 42
0.0
 43
0.0
 44
0.0
 45
0.0
 46
0.0
 47
0.0
 48
0.0
 49
0.0
140
0.0
141
0.0
142
1.0
143
1.0
 70
   688
 72
     0
 73
     0
 74
     5
  7

 75
    16
147
1.0
148
0.0
149
0.0
100
AcDbLayout
  1
レイアウト1
 70
     1
 71
     1
 10
0.0
 20
0.0
 11
12.0
 21
9.0
 12
0.0
 22
0.0
 32
0.0
 14
1.000000000000000E+20
 24
1.000000000000000E+20
 34
1.000000000000000E+20
 15
-1.000000000000000E+20
 25
-1.000000000000000E+20
 35
-1.000000000000000E+20
146
0.0
 13
0.0
 23
0.0
 33
0.0
 16
1.0
 26
0.0
 36
0.0
 17
0.0
 27
1.0
 37
0.0
 76
     0
330
843C
  0
MATERIAL
  5
83EA
102
{ACAD_XDICTIONARY
360
83EB
102
}
102
{ACAD_REACTORS
330
83E1
102
}
330
83E1
100
AcDbMaterial
  1
ByBlock
 72
     0
 43
0.0208333333333333
 43
0.0
 43
0.0
 43
0.0
 43
0.0
 43
0.0208333333333333
 43
0.0
 43
0.0
 43
0.0
 43
0.0
 43
1.0
 43
0.0
 43
0.0
 43
0.0
 43
0.0
 43
1.0
 77
     0
 47
0.0208333333333333
 47
0.0
 47
0.0
 47
0.0
 47
0.0
 47
0.0208333333333333
 47
0.0
 47
0.0
 47
0.0
 47
0.0
 47
1.0
 47
0.0
 47
0.0
 47
0.0
 47
0.0
 47
1.0
171
     0
 49
0.0208333333333333
 49
0.0
 49
0.0
 49
0.0
 49
0.0
 49
0.0208333333333333
 49
0.0
 49
0.0
 49
0.0
 49
0.0
 49
1.0
 49
0.0
 49
0.0
 49
0.0
 49
0.0
 49
1.0
175
     0
142
0.0208333333333333
142
0.0
142
0.0
142
0.0
142
0.0
142
0.0208333333333333
142
0.0
142
0.0
142
0.0
142
0.0
142
1.0
142
0.0
142
0.0
142
0.0
142
0.0
142
1.0
179
     0
144
0.0208333333333333
144
0.0
144
0.0
144
0.0
144
0.0
144
0.0208333333333333
144
0.0
144
0.0
144
0.0
144
0.0
144
1.0
144
0.0
144
0.0
144
0.0
144
0.0
144
1.0
147
0.0208333333333333
147
0.0
147
0.0
147
0.0
147
0.0
147
0.0208333333333333
147
0.0
147
0.0
147
0.0
147
0.0
147
1.0
147
0.0
147
0.0
147
0.0
147
0.0
147
1.0
  0
MATERIAL
  5
83E2
102
{ACAD_XDICTIONARY
360
83E3
102
}
102
{ACAD_REACTORS
330
83E1
102
}
330
83E1
100
AcDbMaterial
  1
ByLayer
 72
     0
 43
0.0208333333333333
 43
0.0
 43
0.0
 43
0.0
 43
0.0
 43
0.0208333333333333
 43
0.0
 43
0.0
 43
0.0
 43
0.0
 43
1.0
 43
0.0
 43
0.0
 43
0.0
 43
0.0
 43
1.0
 77
     0
 47
0.0208333333333333
 47
0.0
 47
0.0
 47
0.0
 47
0.0
 47
0.0208333333333333
 47
0.0
 47
0.0
 47
0.0
 47
0.0
 47
1.0
 47
0.0
 47
0.0
 47
0.0
 47
0.0
 47
1.0
171
     0
 49
0.0208333333333333
 49
0.0
 49
0.0
 49
0.0
 49
0.0
 49
0.0208333333333333
 49
0.0
 49
0.0
 49
0.0
 49
0.0
 49
1.0
 49
0.0
 49
0.0
 49
0.0
 49
0.0
 49
1.0
175
     0
142
0.0208333333333333
142
0.0
142
0.0
142
0.0
142
0.0
142
0.0208333333333333
142
0.0
142
0.0
142
0.0
142
0.0
142
1.0
142
0.0
142
0.0
142
0.0
142
0.0
142
1.0
179
     0
144
0.0208333333333333
144
0.0
144
0.0
144
0.0
144
0.0
144
0.0208333333333333
144
0.0
144
0.0
144
0.0
144
0.0
144
1.0
144
0.0
144
0.0
144
0.0
144
0.0
144
1.0
147
0.0208333333333333
147
0.0
147
0.0
147
0.0
147
0.0
147
0.0208333333333333
147
0.0
147
0.0
147
0.0
147
0.0
147
1.0
147
0.0
147
0.0
147
0.0
147
0.0
147
1.0
  0
MATERIAL
  5
83F2
102
{ACAD_XDICTIONARY
360
83F3
102
}
102
{ACAD_REACTORS
330
83E1
102
}
330
83E1
100
AcDbMaterial
  1
Global
 72
     0
 43
0.0208333333333333
 43
0.0
 43
0.0
 43
0.0
 43
0.0
 43
0.0208333333333333
 43
0.0
 43
0.0
 43
0.0
 43
0.0
 43
1.0
 43
0.0
 43
0.0
 43
0.0
 43
0.0
 43
1.0
 77
     0
 47
0.0208333333333333
 47
0.0
 47
0.0
 47
0.0
 47
0.0
 47
0.0208333333333333
 47
0.0
 47
0.0
 47
0.0
 47
0.0
 47
1.0
 47
0.0
 47
0.0
 47
0.0
 47
0.0
 47
1.0
171
     0
 49
0.0208333333333333
 49
0.0
 49
0.0
 49
0.0
 49
0.0
 49
0.0208333333333333
 49
0.0
 49
0.0
 49
0.0
 49
0.0
 49
1.0
 49
0.0
 49
0.0
 49
0.0
 49
0.0
 49
1.0
175
     0
142
0.0208333333333333
142
0.0
142
0.0
142
0.0
142
0.0
142
0.0208333333333333
142
0.0
142
0.0
142
0.0
142
0.0
142
1.0
142
0.0
142
0.0
142
0.0
142
0.0
142
1.0
179
     0
144
0.0208333333333333
144
0.0
144
0.0
144
0.0
144
0.0
144
0.0208333333333333
144
0.0
144
0.0
144
0.0
144
0.0
144
1.0
144
0.0
144
0.0
144
0.0
144
0.0
144
1.0
147
0.0208333333333333
147
0.0
147
0.0
147
0.0
147
0.0
147
0.0208333333333333
147
0.0
147
0.0
147
0.0
147
0.0
147
1.0
147
0.0
147
0.0
147
0.0
147
0.0
147
1.0
  0
MLEADERSTYLE
  5
8437
102
{ACAD_REACTORS
330
8436
102
}
330
8436
100
AcDbMLeaderStyle
170
     2
171
     1
172
     0
 90
        2
 40
0.0
 41
0.0
173
     1
 91
-1056964608
340
842B
 92
       -2
290
     1
 42
0.09
291
     1
 43
0.36
  3
Standard
 44
0.18
300

342
8426
174
     1
178
     6
175
     1
176
     0
 93
-1056964608
 45
0.18
292
     0
297
     0
 46
0.18
 94
-1056964608
 47
1.0
 49
1.0
140
1.0
293
     1
141
0.0
294
     1
177
     0
142
1.0
295
     0
296
     0
143
0.125
1001
ACAD_MLEADERVER
1070
     2
  0
MLINESTYLE
  5
8430
102
{ACAD_REACTORS
330
842F
102
}
330
842F
100
AcDbMlineStyle
  2
STANDARD
 70
     0
  3

 62
   256
 51
90.0
 52
90.0
 71
     2
 49
0.5
 62
   256
  6
BYLAYER
 49
-0.5
 62
   256
  6
BYLAYER
  0
ACDBPLACEHOLDER
  5
83E0
102
{ACAD_REACTORS
330
83DF
102
}
330
83DF
  0
SCALE
  5
8414
102
{ACAD_REACTORS
330
8413
102
}
330
8413
100
AcDbScale
 70
     0
300
1:1
140
1.0
141
1.0
290
     1
  0
SCALE
  5
8415
102
{ACAD_REACTORS
330
8413
102
}
330
8413
100
AcDbScale
 70
     0
300
1/128" = 1'-0"
140
0.0078125
141
12.0
290
     0
  0
SCALE
  5
8416
102
{ACAD_REACTORS
330
8413
102
}
330
8413
100
AcDbScale
 70
     0
300
1/64" = 1'-0"
140
0.015625
141
12.0
290
     0
  0
SCALE
  5
8417
102
{ACAD_REACTORS
330
8413
102
}
330
8413
100
AcDbScale
 70
     0
300
1/32" = 1'-0"
140
0.03125
141
12.0
290
     0
  0
SCALE
  5
8418
102
{ACAD_REACTORS
330
8413
102
}
330
8413
100
AcDbScale
 70
     0
300
1/16" = 1'-0"
140
0.0625
141
12.0
290
     0
  0
SCALE
  5
8419
102
{ACAD_REACTORS
330
8413
102
}
330
8413
100
AcDbScale
 70
     0
300
3/32" = 1'-0"
140
0.09375
141
12.0
290
     0
  0
SCALE
  5
841A
102
{ACAD_REACTORS
330
8413
102
}
330
8413
100
AcDbScale
 70
     0
300
1/8" = 1'-0"
140
0.125
141
12.0
290
     0
  0
SCALE
  5
841B
102
{ACAD_REACTORS
330
8413
102
}
330
8413
100
AcDbScale
 70
     0
300
3/16" = 1'-0"
140
0.1875
141
12.0
290
     0
  0
SCALE
  5
841C
102
{ACAD_REACTORS
330
8413
102
}
330
8413
100
AcDbScale
 70
     0
300
1/4" = 1'-0"
140
0.25
141
12.0
290
     0
  0
SCALE
  5
841D
102
{ACAD_REACTORS
330
8413
102
}
330
8413
100
AcDbScale
 70
     0
300
3/8" = 1'-0"
140
0.375
141
12.0
290
     0
  0
SCALE
  5
841E
102
{ACAD_REACTORS
330
8413
102
}
330
8413
100
AcDbScale
 70
     0
300
1/2" = 1'-0"
140
0.5
141
12.0
290
     0
  0
SCALE
  5
841F
102
{ACAD_REACTORS
330
8413
102
}
330
8413
100
AcDbScale
 70
     0
300
3/4" = 1'-0"
140
0.75
141
12.0
290
     0
  0
SCALE
  5
8420
102
{ACAD_REACTORS
330
8413
102
}
330
8413
100
AcDbScale
 70
     0
300
1" = 1'-0"
140
1.0
141
12.0
290
     0
  0
SCALE
  5
8421
102
{ACAD_REACTORS
330
8413
102
}
330
8413
100
AcDbScale
 70
     0
300
1-1/2" = 1'-0"
140
1.5
141
12.0
290
     0
  0
SCALE
  5
8422
102
{ACAD_REACTORS
330
8413
102
}
330
8413
100
AcDbScale
 70
     0
300
3" = 1'-0"
140
3.0
141
12.0
290
     0
  0
SCALE
  5
8423
102
{ACAD_REACTORS
330
8413
102
}
330
8413
100
AcDbScale
 70
     0
300
6" = 1'-0"
140
6.0
141
12.0
290
     0
  0
SCALE
  5
8424
102
{ACAD_REACTORS
330
8413
102
}
330
8413
100
AcDbScale
 70
     0
300
1'-0" = 1'-0"
140
12.0
141
12.0
290
     0
  0
ACDBSECTIONVIEWSTYLE
  5
8439
102
{ACAD_XDICTIONARY
360
87F9
102
}
102
{ACAD_REACTORS
330
8438
102
}
330
8438
100
AcDbModelDocViewStyle
 70
     0
  3
Imperial24
290
     0
100
AcDbSectionViewStyle
 70
     0
 71
     0
 90
       78
 71
     1
340
8426
 40
0.24
340
0
340
0
 40
0.24
300
I, O, Q, S, X, Z
 40
0.48
 90
        3
 40
0.18
 90
        1
 71
     2
340
842D
 90
       25
340
842D
 90
       50
 40
0.24
 40
0.0
 40
0.24
 71
     3
340
8426
 40
0.24
 90
        1
 40
0.75
 90
        1
300
%<\AcVar ViewType \f "%tc1">% %<\AcVar ViewSectionStartId>%-%<\AcVar ViewSectionEndId>%\PSCALE %<\AcVar ViewScale \f "%sn">%
 71
     4
300
ANSI31
 40
1.0
 90
        0
290
     0
290
     0
 90
        6
 40
0.0
 40
1.570796326794896
 40
0.2617993877991494
 40
1.308996938995747
 40
-0.2617993877991494
 40
1.832595714594046
  0
TABLESTYLE
  5
8435
102
{ACAD_XDICTIONARY
360
87C0
102
}
102
{ACAD_REACTORS
330
8434
102
}
330
8434
100
AcDbTableStyle
  3
Standard
 70
     0
 71
     0
 40
0.06
 41
0.06
280
     0
281
     0
  7
STANDARD
140
0.18
170
     2
 62
     0
 63
     7
283
     0
274
    -2
284
     1
 64
     0
275
    -2
285
     1
 65
     0
276
    -2
286
     1
 66
     0
277
    -2
287
     1
 67
     0
278
    -2
288
     1
 68
     0
279
    -2
289
     1
 69
     0
  7
STANDARD
140
0.25
170
     5
 62
     0
 63
     7
283
     0
274
    -2
284
     1
 64
     0
275
    -2
285
     1
 65
     0
276
    -2
286
     1
 66
     0
277
    -2
287
     1
 67
     0
278
    -2
288
     1
 68
     0
279
    -2
289
     1
 69
     0
  7
STANDARD
140
0.18
170
     5
 62
     0
 63
     7
283
     0
274
    -2
284
     1
 64
     0
275
    -2
285
     1
 65
     0
276
    -2
286
     1
 66
     0
277
    -2
287
     1
 67
     0
278
    -2
288
     1
 68
     0
279
    -2
289
     1
 69
     0
  0
VISUALSTYLE
  5
8400
102
{ACAD_XDICTIONARY
360
87D1
102
}
102
{ACAD_REACTORS
330
83FA
102
}
330
83FA
100
AcDbVisualStyle
  2
2dWireframe
 70
     4
 71
     0
 72
     2
 73
     0
 90
        0
 40
-0.6
 41
-30.0
 62
     5
 63
     7
 74
     1
 91
        4
 64
     7
 65
   257
 75
     1
175
     1
 42
1.0
 92
        0
 66
   257
 43
1.0
 76
     1
 77
     6
 78
     2
 67
     7
 79
     5
170
     0
171
     0
290
     0
174
     0
 93
        1
 44
0.0
173
     0
291
     0
 45
0.0
1001
ACAD
1000
AcDbSavedByObjectVersion
1070
     0
  0
VISUALSTYLE
  5
83FF
102
{ACAD_XDICTIONARY
360
87CF
102
}
102
{ACAD_REACTORS
330
83FA
102
}
330
83FA
100
AcDbVisualStyle
  2
Basic
 70
     7
 71
     1
 72
     0
 73
     1
 90
        0
 40
-0.6
 41
-30.0
 62
     5
 63
     7
 74
     0
 91
        4
 64
     7
 65
   257
 75
     1
175
     1
 42
1.0
 92
        8
 66
     7
 43
1.0
 76
     1
 77
     6
 78
     2
 67
     7
 79
     5
170
     0
171
     0
290
     0
174
     0
 93
        1
 44
0.0
173
     0
291
     1
 45
0.0
1001
ACAD
1000
AcDbSavedByObjectVersion
1070
     0
  0
VISUALSTYLE
  5
8406
102
{ACAD_XDICTIONARY
360
87DD
102
}
102
{ACAD_REACTORS
330
83FA
102
}
330
83FA
100
AcDbVisualStyle
  2
Brighten
 70
    12
 71
     2
 72
     2
 73
     0
 90
        0
 40
-0.6
 41
-30.0
 62
     5
 63
     7
 74
     1
 91
        4
 64
     7
 65
   257
 75
     1
175
     1
 42
1.0
 92
        8
 66
     7
 43
1.0
 76
     1
 77
     6
 78
     2
 67
     7
 79
     5
170
     0
171
     0
290
     0
174
     0
 93
        1
 44
50.0
173
     0
291
     1
 45
0.0
1001
ACAD
1000
AcDbSavedByObjectVersion
1070
     0
  0
VISUALSTYLE
  5
840A
102
{ACAD_XDICTIONARY
360
87E5
102
}
102
{ACAD_REACTORS
330
83FA
102
}
330
83FA
100
AcDbVisualStyle
  2
ColorChange
 70
    16
 71
     2
 72
     2
 73
     3
 90
        0
 40
-0.6
 41
-30.0
 62
     5
 63
     8
 74
     1
 91
        4
 64
     7
 65
   257
 75
     1
175
     1
 42
1.0
 92
        8
 66
     8
 43
1.0
 76
     1
 77
     6
 78
     2
 67
     7
 79
     5
170
     0
171
     0
290
     0
174
     0
 93
        1
 44
0.0
173
     0
291
     1
 45
0.0
1001
ACAD
1000
AcDbSavedByObjectVersion
1070
     0
  0
VISUALSTYLE
  5
8403
102
{ACAD_XDICTIONARY
360
87D7
102
}
102
{ACAD_REACTORS
330
83FA
102
}
330
83FA
100
AcDbVisualStyle
  2
Conceptual
 70
     9
 71
     3
 72
     2
 73
     0
 90
        0
 40
-0.6
 41
-30.0
 62
     5
 63
     7
 74
     2
 91
        2
 64
     7
 65
   257
 75
     1
175
     1
 42
179.0
 92
        8
 66
     7
 43
1.0
 76
     1
 77
     6
 78
     2
 67
     7
 79
     3
170
     0
171
     0
290
     0
174
     0
 93
        1
 44
0.0
173
     0
291
     0
 45
0.0
1001
ACAD
1000
AcDbSavedByObjectVersion
1070
     0
  0
VISUALSTYLE
  5
8405
102
{ACAD_XDICTIONARY
360
87DB
102
}
102
{ACAD_REACTORS
330
83FA
102
}
330
83FA
100
AcDbVisualStyle
  2
Dim
 70
    11
 71
     2
 72
     2
 73
     0
 90
        0
 40
-0.6
 41
-30.0
 62
     5
 63
     7
 74
     1
 91
        4
 64
     7
 65
   257
 75
     1
175
     1
 42
1.0
 92
        8
 66
     7
 43
1.0
 76
     1
 77
     6
 78
     2
 67
     7
 79
     5
170
     0
171
     0
290
     0
174
     0
 93
        1
 44
-50.0
173
     0
291
     1
 45
0.0
1001
ACAD
1000
AcDbSavedByObjectVersion
1070
     0
  0
VISUALSTYLE
  5
8412
102
{ACAD_XDICTIONARY
360
87F5
102
}
102
{ACAD_REACTORS
330
83FA
102
}
330
83FA
100
AcDbVisualStyle
  2
EdgeColorOff
 70
    22
 71
     2
 72
     2
 73
     0
 90
        0
 40
-0.6
 41
-30.0
 62
     5
 63
     7
 74
     1
 91
        4
 64
     7
 65
   257
 75
     1
175
     1
 42
1.0
 92
        8
 66
     7
 43
1.0
 76
     1
 77
     6
 78
     2
 67
     7
 79
     5
170
     0
171
     0
290
     0
174
     0
 93
        1
 44
0.0
173
     0
291
     1
 45
0.0
1001
ACAD
1000
AcDbSavedByObjectVersion
1070
     0
  0
VISUALSTYLE
  5
8409
102
{ACAD_XDICTIONARY
360
87E3
102
}
102
{ACAD_REACTORS
330
83FA
102
}
330
83FA
100
AcDbVisualStyle
  2
Facepattern
 70
    15
 71
     2
 72
     2
 73
     0
 90
        0
 40
-0.6
 41
-30.0
 62
     5
 63
     7
 74
     1
 91
        4
 64
     7
 65
   257
 75
     1
175
     1
 42
1.0
 92
        8
 66
     7
 43
1.0
 76
     1
 77
     6
 78
     2
 67
     7
 79
     5
170
     0
171
     0
290
     0
174
     0
 93
        1
 44
0.0
173
     0
291
     1
 45
0.0
1001
ACAD
1000
AcDbSavedByObjectVersion
1070
     0
  0
VISUALSTYLE
  5
83FB
102
{ACAD_XDICTIONARY
360
87C7
102
}
102
{ACAD_REACTORS
330
83FA
102
}
330
83FA
100
AcDbVisualStyle
  2
Flat
 70
     0
 71
     2
 72
     1
 73
     1
 90
        2
 40
-0.6
 41
30.0
 62
     5
 63
     7
 74
     0
 91
        0
 64
     7
 65
   257
 75
     1
175
     1
 42
1.0
 92
        8
 66
     7
 43
1.0
 76
     1
 77
     6
 78
     2
 67
     7
 79
     5
170
     0
171
     0
290
     0
174
     0
 93
       13
 44
0.0
173
     0
291
     1
 45
0.0
1001
ACAD
1000
AcDbSavedByObjectVersion
1070
     0
  0
VISUALSTYLE
  5
83FC
102
{ACAD_XDICTIONARY
360
87C9
102
}
102
{ACAD_REACTORS
330
83FA
102
}
330
83FA
100
AcDbVisualStyle
  2
FlatWithEdges
 70
     1
 71
     2
 72
     1
 73
     1
 90
        2
 40
-0.6
 41
30.0
 62
     5
 63
     7
 74
     1
 91
        0
 64
     7
 65
   257
 75
     1
175
     1
 42
1.0
 92
        0
 66
   257
 43
1.0
 76
     1
 77
     6
 78
     2
 67
     7
 79
     5
170
     0
171
     0
290
     0
174
     0
 93
       13
 44
0.0
173
     0
291
     1
 45
0.0
1001
ACAD
1000
AcDbSavedByObjectVersion
1070
     0
  0
VISUALSTYLE
  5
83FD
102
{ACAD_XDICTIONARY
360
87CB
102
}
102
{ACAD_REACTORS
330
83FA
102
}
330
83FA
100
AcDbVisualStyle
  2
Gouraud
 70
     2
 71
     2
 72
     2
 73
     1
 90
        2
 40
-0.6
 41
30.0
 62
     5
 63
     7
 74
     0
 91
        0
 64
     7
 65
   257
 75
     1
175
     1
 42
1.0
 92
        0
 66
     7
 43
1.0
 76
     1
 77
     6
 78
     2
 67
     7
 79
     5
170
     0
171
     0
290
     0
174
     0
 93
       13
 44
0.0
173
     0
291
     1
 45
0.0
1001
ACAD
1000
AcDbSavedByObjectVersion
1070
     0
  0
VISUALSTYLE
  5
83FE
102
{ACAD_XDICTIONARY
360
87CD
102
}
102
{ACAD_REACTORS
330
83FA
102
}
330
83FA
100
AcDbVisualStyle
  2
GouraudWithEdges
 70
     3
 71
     2
 72
     2
 73
     1
 90
        2
 40
-0.6
 41
30.0
 62
     5
 63
     7
 74
     1
 91
        0
 64
     7
 65
   257
 75
     1
175
     1
 42
1.0
 92
        0
 66
   257
 43
1.0
 76
     1
 77
     6
 78
     2
 67
     7
 79
     5
170
     0
171
     0
290
     0
174
     0
 93
       13
 44
0.0
173
     0
291
     1
 45
0.0
1001
ACAD
1000
AcDbSavedByObjectVersion
1070
     0
  0
VISUALSTYLE
  5
8402
102
{ACAD_XDICTIONARY
360
87D5
102
}
102
{ACAD_REACTORS
330
83FA
102
}
330
83FA
100
AcDbVisualStyle
  2
Hidden
 70
     6
 71
     1
 72
     2
 73
     2
 90
        0
 40
-0.6
 41
-30.0
 62
     5
 63
     7
 74
     2
 91
        2
 64
     7
 65
   257
 75
     2
175
     1
 42
40.0
 92
        0
 66
   257
 43
1.0
 76
     1
 77
     6
 78
     2
 67
     7
 79
     3
170
     0
171
     0
290
     0
174
     0
 93
        1
 44
0.0
173
     0
291
     0
 45
0.0
1001
ACAD
1000
AcDbSavedByObjectVersion
1070
     0
  0
VISUALSTYLE
  5
8410
102
{ACAD_XDICTIONARY
360
87F1
102
}
102
{ACAD_REACTORS
330
83FA
102
}
330
83FA
100
AcDbVisualStyle
  2
JitterOff
 70
    20
 71
     2
 72
     2
 73
     0
 90
        0
 40
-0.6
 41
-30.0
 62
     5
 63
     7
 74
     1
 91
        4
 64
     7
 65
   257
 75
     1
175
     1
 42
1.0
 92
       10
 66
     7
 43
1.0
 76
     1
 77
     6
 78
     2
 67
     7
 79
     5
170
     0
171
     0
290
     0
174
     0
 93
        1
 44
0.0
173
     0
291
     1
 45
0.0
1001
ACAD
1000
AcDbSavedByObjectVersion
1070
     0
  0
VISUALSTYLE
  5
8408
102
{ACAD_XDICTIONARY
360
87E1
102
}
102
{ACAD_REACTORS
330
83FA
102
}
330
83FA
100
AcDbVisualStyle
  2
Linepattern
 70
    14
 71
     2
 72
     2
 73
     0
 90
        0
 40
-0.6
 41
-30.0
 62
     5
 63
     7
 74
     1
 91
        4
 64
     7
 65
   257
 75
     7
175
     7
 42
1.0
 92
        8
 66
     7
 43
1.0
 76
     1
 77
     6
 78
     2
 67
     7
 79
     5
170
     0
171
     0
290
     0
174
     0
 93
        1
 44
0.0
173
     0
291
     1
 45
0.0
1001
ACAD
1000
AcDbSavedByObjectVersion
1070
     0
  0
VISUALSTYLE
  5
8411
102
{ACAD_XDICTIONARY
360
87F3
102
}
102
{ACAD_REACTORS
330
83FA
102
}
330
83FA
100
AcDbVisualStyle
  2
OverhangOff
 70
    21
 71
     2
 72
     2
 73
     0
 90
        0
 40
-0.6
 41
-30.0
 62
     5
 63
     7
 74
     1
 91
        4
 64
     7
 65
   257
 75
     1
175
     1
 42
1.0
 92
        9
 66
     7
 43
1.0
 76
     1
 77
     6
 78
     2
 67
     7
 79
     5
170
     0
171
     0
290
     0
174
     0
 93
        1
 44
0.0
173
     0
291
     1
 45
0.0
1001
ACAD
1000
AcDbSavedByObjectVersion
1070
     0
  0
VISUALSTYLE
  5
8404
102
{ACAD_XDICTIONARY
360
87D9
102
}
102
{ACAD_REACTORS
330
83FA
102
}
330
83FA
100
AcDbVisualStyle
  2
Realistic
 70
     8
 71
     2
 72
     3
 73
     0
 90
        2
 40
-0.6
 41
30.0
 62
     5
 63
     7
 74
     0
 91
        0
 64
     7
 65
   257
 75
     1
175
     1
 42
1.0
 92
        8
 66
   257
 43
1.0
 76
     1
 77
     6
 78
     2
 67
     7
 79
     3
170
     0
171
     0
290
     0
174
     0
 93
       13
 44
0.0
173
     0
291
     0
 45
0.0
1001
ACAD
1000
AcDbSavedByObjectVersion
1070
     0
  0
VISUALSTYLE
  5
840F
102
{ACAD_XDICTIONARY
360
87EF
102
}
102
{ACAD_REACTORS
330
83FA
102
}
330
83FA
100
AcDbVisualStyle
  2
Shaded
 70
    27
 71
     2
 72
     2
 73
     1
 90
        2
 40
-0.6
 41
30.0
 62
     5
 63
     7
 74
     0
 91
        4
 64
     7
 65
   257
 75
     1
175
     1
 42
1.0
 92
        8
 66
   257
 43
1.0
 76
     1
 77
     6
 78
     2
 67
     8
 79
     3
170
     0
171
     0
290
     0
174
     0
 93
        5
 44
0.0
173
     0
291
     0
 45
0.0
1001
ACAD
1000
AcDbSavedByObjectVersion
1070
     0
  0
VISUALSTYLE
  5
840E
102
{ACAD_XDICTIONARY
360
87ED
102
}
102
{ACAD_REACTORS
330
83FA
102
}
330
83FA
100
AcDbVisualStyle
  2
Shaded with edges
 70
    26
 71
     2
 72
     2
 73
     1
 90
        2
 40
-0.6
 41
30.0
 62
     5
 63
     7
 74
     1
 91
       10
 64
     7
 65
   257
 75
     2
175
     1
 42
1.0
 92
        8
 66
   257
 43
1.0
 76
     1
 77
     6
 78
     2
 67
     7
 79
     3
170
     0
171
     0
290
     0
174
     0
 93
        5
 44
0.0
173
     0
291
     0
 45
0.0
1001
ACAD
1000
AcDbSavedByObjectVersion
1070
     0
  0
VISUALSTYLE
  5
840B
102
{ACAD_XDICTIONARY
360
87E7
102
}
102
{ACAD_REACTORS
330
83FA
102
}
330
83FA
100
AcDbVisualStyle
  2
Shades of Gray
 70
    23
 71
     2
 72
     2
 73
     3
 90
        0
 40
-0.6
 41
-30.0
 62
     5
 63
     7
 74
     2
 91
        2
 64
     7
 65
     7
 75
     1
175
     1
 42
40.0
 92
        8
 66
     7
 43
1.0
 76
     1
 77
     6
 78
     2
 67
     7
 79
     3
170
     0
171
     0
290
     0
174
     0
 93
        1
 44
0.0
173
     0
291
     0
 45
0.0
1001
ACAD
1000
AcDbSavedByObjectVersion
1070
     0
  0
VISUALSTYLE
  5
840C
102
{ACAD_XDICTIONARY
360
87E9
102
}
102
{ACAD_REACTORS
330
83FA
102
}
330
83FA
100
AcDbVisualStyle
  2
Sketchy
 70
    24
 71
     1
 72
     2
 73
     2
 90
        0
 40
-0.6
 41
-30.0
 62
     5
 63
     7
 74
     2
 91
        2
 64
     7
 65
     7
 75
     1
175
     1
 42
40.0
 92
       11
 66
     7
 43
1.0
 76
     1
 77
     6
 78
     2
 67
     7
 79
     6
170
     0
171
     0
290
     0
174
     0
 93
        1
 44
0.0
173
     0
291
     0
 45
0.0
1001
ACAD
1000
AcDbSavedByObjectVersion
1070
     0
  0
VISUALSTYLE
  5
8407
102
{ACAD_XDICTIONARY
360
87DF
102
}
102
{ACAD_REACTORS
330
83FA
102
}
330
83FA
100
AcDbVisualStyle
  2
Thicken
 70
    13
 71
     2
 72
     2
 73
     0
 90
        0
 40
-0.6
 41
-30.0
 62
     5
 63
     7
 74
     1
 91
        4
 64
     7
 65
   257
 75
     1
175
     1
 42
1.0
 92
       12
 66
     7
 43
1.0
 76
     1
 77
     6
 78
     2
 67
     7
 79
     5
170
     0
171
     0
290
     0
174
     0
 93
        1
 44
0.0
173
     0
291
     1
 45
0.0
1001
ACAD
1000
AcDbSavedByObjectVersion
1070
     0
  0
VISUALSTYLE
  5
8401
102
{ACAD_XDICTIONARY
360
87D3
102
}
102
{ACAD_REACTORS
330
83FA
102
}
330
83FA
100
AcDbVisualStyle
  2
Wireframe
 70
     5
 71
     0
 72
     2
 73
     0
 90
        0
 40
-0.6
 41
-30.0
 62
     5
 63
     7
 74
     1
 91
        4
 64
     7
 65
   257
 75
     1
175
     1
 42
1.0
 92
        0
 66
   257
 43
1.0
 76
     1
 77
     6
 78
     2
 67
     7
 79
     3
170
     0
171
     0
290
     0
174
     0
 93
        1
 44
0.0
173
     0
291
     0
 45
0.0
1001
ACAD
1000
AcDbSavedByObjectVersion
1070
     0
  0
VISUALSTYLE
  5
840D
102
{ACAD_XDICTIONARY
360
87EB
102
}
102
{ACAD_REACTORS
330
83FA
102
}
330
83FA
100
AcDbVisualStyle
  2
X-Ray
 70
    25
 71
     2
 72
     2
 73
     1
 90
        1
 40
0.5
 41
-30.0
 62
     5
 63
     7
 74
     1
 91
        0
 64
     7
 65
   257
 75
     1
175
     1
 42
1.0
 92
        8
 66
     7
 43
1.0
 76
     1
 77
     6
 78
     2
 67
     7
 79
     3
170
     0
171
     0
290
     0
174
     0
 93
       13
 44
0.0
173
     0
291
     0
 45
0.0
1001
ACAD
1000
AcDbSavedByObjectVersion
1070
     0
  0
DICTIONARYVAR
  5
8499
102
{ACAD_REACTORS
330
8494
102
}
330
8494
100
DictionaryVariables
280
     0
  1
1:1
  0
DICTIONARYVAR
  5
8496
102
{ACAD_REACTORS
330
8494
102
}
330
8494
100
DictionaryVariables
280
     0
  1
STANDARD
  0
DICTIONARYVAR
  5
8495
102
{ACAD_REACTORS
330
8494
102
}
330
8494
100
DictionaryVariables
280
     0
  1
STANDARD
  0
DICTIONARYVAR
  5
8497
102
{ACAD_REACTORS
330
8494
102
}
330
8494
100
DictionaryVariables
280
     0
  1
Imperial24
  0
DICTIONARYVAR
  5
8498
102
{ACAD_REACTORS
330
8494
102
}
330
8494
100
DictionaryVariables
280
     0
  1
Imperial24
  0
DICTIONARYVAR
  5
849C
102
{ACAD_REACTORS
330
8494
102
}
330
8494
100
DictionaryVariables
280
     0
  1
1
  0
DICTIONARYVAR
  5
849B
102
{ACAD_REACTORS
330
8494
102
}
330
8494
100
DictionaryVariables
280
     0
  1
0
  0
DICTIONARYVAR
  5
849A
102
{ACAD_REACTORS
330
8494
102
}
330
8494
100
DictionaryVariables
280
     0
  1
127
  0
DICTIONARYVAR
  5
849D
102
{ACAD_REACTORS
330
8494
102
}
330
8494
100
DictionaryVariables
280
     0
  1
2
  0
DICTIONARY
  5
87FB
330
843B
100
AcDbDictionary
280
     1
281
     1
  3
ACAD_XREC_ROUNDTRIP
360
87FC
  0
DICTIONARY
  5
87FF
330
8443
100
AcDbDictionary
280
     1
281
     1
  3
ACAD_XREC_ROUNDTRIP
360
8800
  0
DICTIONARY
  5
87FD
330
843F
100
AcDbDictionary
280
     1
281
     1
  3
ACAD_XREC_ROUNDTRIP
360
87FE
  0
DICTIONARY
  5
83EB
330
83EA
100
AcDbDictionary
280
     1
281
     1
  3
ACAD_XREC_ROUNDTRIP
360
87C5
  3
BUMPTILE
360
83ED
  3
DIFFUSETILE
360
83EC
  3
OPACITYTILE
360
83F0
  3
REFLECTIONTILE
360
83EF
  3
REFRACTIONTILE
360
83F1
  3
SPECULARTILE
360
83EE
  0
DICTIONARY
  5
83E3
330
83E2
100
AcDbDictionary
280
     1
281
     1
  3
ACAD_XREC_ROUNDTRIP
360
87C4
  3
BUMPTILE
360
83E5
  3
DIFFUSETILE
360
83E4
  3
OPACITYTILE
360
83E8
  3
REFLECTIONTILE
360
83E7
  3
REFRACTIONTILE
360
83E9
  3
SPECULARTILE
360
83E6
  0
DICTIONARY
  5
83F3
330
83F2
100
AcDbDictionary
280
     1
281
     1
  3
ACAD_XREC_ROUNDTRIP
360
87C6
  3
BUMPTILE
360
83F5
  3
DIFFUSETILE
360
83F4
  3
FBXASSET
360
8560
  3
OPACITYTILE
360
83F8
  3
REFLECTIONTILE
360
83F7
  3
REFRACTIONTILE
360
83F9
  3
SPECULARTILE
360
83F6
  0
DICTIONARY
  5
87F9
330
8439
100
AcDbDictionary
280
     1
281
     1
  3
ACAD_XREC_ROUNDTRIP
360
87FA
  0
DICTIONARY
  5
87C0
330
8435
100
AcDbDictionary
280
     1
281
     1
  3
ACAD_ROUNDTRIP_2008_TABLESTYLE_CELLSTYLEMAP
360
87C1
  3
ACAD_XREC_ROUNDTRIP
360
87F7
  0
DICTIONARY
  5
87D1
330
8400
100
AcDbDictionary
280
     1
281
     1
  3
ACAD_XREC_ROUNDTRIP
360
87D2
  0
DICTIONARY
  5
87CF
330
83FF
100
AcDbDictionary
280
     1
281
     1
  3
ACAD_XREC_ROUNDTRIP
360
87D0
  0
DICTIONARY
  5
87DD
330
8406
100
AcDbDictionary
280
     1
281
     1
  3
ACAD_XREC_ROUNDTRIP
360
87DE
  0
DICTIONARY
  5
87E5
330
840A
100
AcDbDictionary
280
     1
281
     1
  3
ACAD_XREC_ROUNDTRIP
360
87E6
  0
DICTIONARY
  5
87D7
330
8403
100
AcDbDictionary
280
     1
281
     1
  3
ACAD_XREC_ROUNDTRIP
360
87D8
  0
DICTIONARY
  5
87DB
330
8405
100
AcDbDictionary
280
     1
281
     1
  3
ACAD_XREC_ROUNDTRIP
360
87DC
  0
DICTIONARY
  5
87F5
330
8412
100
AcDbDictionary
280
     1
281
     1
  3
ACAD_XREC_ROUNDTRIP
360
87F6
  0
DICTIONARY
  5
87E3
330
8409
100
AcDbDictionary
280
     1
281
     1
  3
ACAD_XREC_ROUNDTRIP
360
87E4
  0
DICTIONARY
  5
87C7
330
83FB
100
AcDbDictionary
280
     1
281
     1
  3
ACAD_XREC_ROUNDTRIP
360
87C8
  0
DICTIONARY
  5
87C9
330
83FC
100
AcDbDictionary
280
     1
281
     1
  3
ACAD_XREC_ROUNDTRIP
360
87CA
  0
DICTIONARY
  5
87CB
330
83FD
100
AcDbDictionary
280
     1
281
     1
  3
ACAD_XREC_ROUNDTRIP
360
87CC
  0
DICTIONARY
  5
87CD
330
83FE
100
AcDbDictionary
280
     1
281
     1
  3
ACAD_XREC_ROUNDTRIP
360
87CE
  0
DICTIONARY
  5
87D5
330
8402
100
AcDbDictionary
280
     1
281
     1
  3
ACAD_XREC_ROUNDTRIP
360
87D6
  0
DICTIONARY
  5
87F1
330
8410
100
AcDbDictionary
280
     1
281
     1
  3
ACAD_XREC_ROUNDTRIP
360
87F2
  0
DICTIONARY
  5
87E1
330
8408
100
AcDbDictionary
280
     1
281
     1
  3
ACAD_XREC_ROUNDTRIP
360
87E2
  0
DICTIONARY
  5
87F3
330
8411
100
AcDbDictionary
280
     1
281
     1
  3
ACAD_XREC_ROUNDTRIP
360
87F4
  0
DICTIONARY
  5
87D9
330
8404
100
AcDbDictionary
280
     1
281
     1
  3
ACAD_XREC_ROUNDTRIP
360
87DA
  0
DICTIONARY
  5
87EF
330
840F
100
AcDbDictionary
280
     1
281
     1
  3
ACAD_XREC_ROUNDTRIP
360
87F0
  0
DICTIONARY
  5
87ED
330
840E
100
AcDbDictionary
280
     1
281
     1
  3
ACAD_XREC_ROUNDTRIP
360
87EE
  0
DICTIONARY
  5
87E7
330
840B
100
AcDbDictionary
280
     1
281
     1
  3
ACAD_XREC_ROUNDTRIP
360
87E8
  0
DICTIONARY
  5
87E9
330
840C
100
AcDbDictionary
280
     1
281
     1
  3
ACAD_XREC_ROUNDTRIP
360
87EA
  0
DICTIONARY
  5
87DF
330
8407
100
AcDbDictionary
280
     1
281
     1
  3
ACAD_XREC_ROUNDTRIP
360
87E0
  0
DICTIONARY
  5
87D3
330
8401
100
AcDbDictionary
280
     1
281
     1
  3
ACAD_XREC_ROUNDTRIP
360
87D4
  0
DICTIONARY
  5
87EB
330
840D
100
AcDbDictionary
280
     1
281
     1
  3
ACAD_XREC_ROUNDTRIP
360
87EC
  0
XRECORD
  5
87FC
102
{ACAD_REACTORS
330
87FB
102
}
330
87FB
100
AcDbXrecord
280
     1
102
DISPLAYNAME
  1
Imperial24
102
FLAGS
 90
        0
  0
XRECORD
  5
8800
102
{ACAD_REACTORS
330
87FF
102
}
330
87FF
100
AcDbXrecord
280
     1
102
SHADEPLOT
 70
     0
102
SHADEPLOTRESLEVEL
 70
     2
102
SHADEPLOTCUSTOMDPI
 70
   300
  0
XRECORD
  5
87FE
102
{ACAD_REACTORS
330
87FD
102
}
330
87FD
100
AcDbXrecord
280
     1
102
SHADEPLOT
 70
     0
102
SHADEPLOTRESLEVEL
 70
     2
102
SHADEPLOTCUSTOMDPI
 70
   300
  0
XRECORD
  5
87C5
102
{ACAD_REACTORS
330
83EB
102
}
330
83EB
100
AcDbXrecord
280
     1
102
MATERIAL
148
0.0
149
0.0
149
0.0
 93
        0
 94
      127
282
     0
 72
     0
 77
     0
171
     0
175
     0
179
     0
273
     0
  0
XRECORD
  5
83ED
102
{ACAD_REACTORS
330
83EB
102
}
330
83EB
100
AcDbXrecord
280
     1
270
     1
271
     1
  0
XRECORD
  5
83EC
102
{ACAD_REACTORS
330
83EB
102
}
330
83EB
100
AcDbXrecord
280
     1
270
     1
271
     1
  0
XRECORD
  5
83F0
102
{ACAD_REACTORS
330
83EB
102
}
330
83EB
100
AcDbXrecord
280
     1
270
     1
271
     1
  0
XRECORD
  5
83EF
102
{ACAD_REACTORS
330
83EB
102
}
330
83EB
100
AcDbXrecord
280
     1
270
     1
271
     1
  0
XRECORD
  5
83F1
102
{ACAD_REACTORS
330
83EB
102
}
330
83EB
100
AcDbXrecord
280
     1
270
     1
271
     1
  0
XRECORD
  5
83EE
102
{ACAD_REACTORS
330
83EB
102
}
330
83EB
100
AcDbXrecord
280
     1
270
     1
271
     1
  0
XRECORD
  5
87C4
102
{ACAD_REACTORS
330
83E3
102
}
330
83E3
100
AcDbXrecord
280
     1
102
MATERIAL
148
0.0
149
0.0
149
0.0
 93
        0
 94
      127
282
     0
 72
     0
 77
     0
171
     0
175
     0
179
     0
273
     0
  0
XRECORD
  5
83E5
102
{ACAD_REACTORS
330
83E3
102
}
330
83E3
100
AcDbXrecord
280
     1
270
     1
271
     1
  0
XRECORD
  5
83E4
102
{ACAD_REACTORS
330
83E3
102
}
330
83E3
100
AcDbXrecord
280
     1
270
     1
271
     1
  0
XRECORD
  5
83E8
102
{ACAD_REACTORS
330
83E3
102
}
330
83E3
100
AcDbXrecord
280
     1
270
     1
271
     1
  0
XRECORD
  5
83E7
102
{ACAD_REACTORS
330
83E3
102
}
330
83E3
100
AcDbXrecord
280
     1
270
     1
271
     1
  0
XRECORD
  5
83E9
102
{ACAD_REACTORS
330
83E3
102
}
330
83E3
100
AcDbXrecord
280
     1
270
     1
271
     1
  0
XRECORD
  5
83E6
102
{ACAD_REACTORS
330
83E3
102
}
330
83E3
100
AcDbXrecord
280
     1
270
     1
271
     1
  0
XRECORD
  5
87C6
102
{ACAD_REACTORS
330
83F3
102
}
330
83F3
100
AcDbXrecord
280
     1
102
MATERIAL
148
0.0
149
0.0
149
0.0
 93
        0
 94
      127
282
     0
 72
     0
 77
     0
171
     0
175
     0
179
     0
273
     0
  0
XRECORD
  5
83F5
102
{ACAD_REACTORS
330
83F3
102
}
330
83F3
100
AcDbXrecord
280
     1
270
     1
271
     1
  0
XRECORD
  5
83F4
102
{ACAD_REACTORS
330
83F3
102
}
330
83F3
100
AcDbXrecord
280
     1
270
     1
271
     1
  0
XRECORD
  5
8560
102
{ACAD_REACTORS
330
83F3
102
}
330
83F3
100
AcDbXrecord
280
     1
 70
     1
 90
1959938040
 71
     1
  1
D5B066A8-2054-489F-A17E-B54E146E7475
311
504B03041400060808005197815733AE9C36CC000000200100004F00000039393142393530372D414338442D343730322D383738332D3239363242434437413737302F4173736574446174612F446566696E6974696F6E4974657261746F7250726F706572746965732E62696EEB606060F80F0540260323103700495E20ED
311
9E9A975A94991C9C9C919A9BC8C00612C9C94F4ACC6147C831019920AE4B6A5A62694E0948976F6671726A4E4E625E6A7E69B12042A9426E6209D0B8C41C3D90264E20860914834C48875806B2DF0F88414E02D189290556F689C5C5A925B6FA694915FA064E868E2ECEAE8EBA46A66616BA26CEE696BA8E66CECEBA96A6E6
311
46AE962E962606CE8EFA45A9C5F9A545C9A9C5FA46FA06F15093E30BF2D219185A322C9BE7012DD14981D057E221744D3484560987D06782203400504B03041400060808005197815743FADE7111010000300200004500000039393142393530372D414338442D343730322D383738332D3239363242434437413737302F41
311
73736574446174612F496E7374616E636550726F706572746965732E62696EEB606060F80F0540260323103700495E20ED9E9A975A94991C9C9C919A9BA8021470317532303373B4D035323035D135B1B074D375343477D5753235713534317335373137654768046931363471713532B5D435353131D635313332D4757273
311
72D13534373670367376B67474B5042A03DBCBA019D37FE8ABC6157B20CD04146B0062181F4C03F940F0C11EA29A8141C08141002C0426541C106CAC2CA046088033B02A030AC2157C6006F21A8018AAF50194E6010A610250382264E08660284CD9E98021862280A91564B406929A0FF62C401E28B6F88038B83CB1243943
311
D7A928312F25350524B344DCB2791E505A064A4F1183F079A0748B2884FF4704429740E937C2107E0A94BE2304E187406900504B03041400060808005197815728BB58AF800100009E0500003D00000039393142393530372D414338442D343730322D383738332D3239363242434437413737302F536368656D61732F436F
311
6D6D6F6E536368656D612E786D6CBD544D4FC23018BEFB2B96DE15493C78601010A34B880709DEDFB52FD0D8B54BD70DF6EFED3AC0B12E6442E2716BFB3CEFF3D18E26FB440405EA8C2B1992E1C323095052C5B8DC842437EBFB673219DF8DA659866649B798C078B48AE6410122242F2A4994AC7F93815DF85C049C8564CA
311
0A901499DD886B2EB9B1E02448F358701A9235880C49A0119892A20C89D1B9FD768815CAD268CB5E0355B40B1E47F3E37A2020464BED06AA57CE8FCC20C3C3446D46761A2632A8C1283D07031EFF2AE7CCB1BFEEE916E406DFAC8E36FFD99A9D60A6944090EEDC3B670C7DC13DE86B6B2C5C240D6E503BB85ACD579D513F1B
311
9F9A69DC9CC22AFA80C426D40AF0B21EA168559156B6276F0F726A6BFF04DCD513A87A62CAD41FB24FCB2858B3952E3D852084DA25B9303C15687973CC8E8AAE11DF2836C38C6A9E765E8C1BA1BFB1DC29CDFE518C8B5A7655A4ED7E77291ABEB80DBD82EC866ADE1B8D05AF9E35CF09D7A061F38A986D9EC412B8F0F65E5D
311
81534D9B231D1E5A8FE577A241F3A5FD01504B0304140006080800519781572CCEBD668A040000E01200003E00000039393142393530372D414338442D343730322D383738332D3239363242434437413737302F536368656D61732F47656E65726963536368656D612E786D6CD5586D6FDB380CFE7EBF42F0F7A649B70E1B
311
90744856B4970F450FCD7A5F05459613EDE4174872DADCAF3F522F8ED3B88D2F1D06AC4050DBA2493EE4438AF2F8EB73AEC8466823CB62928C06C384888297A92C5693A4B6D9D9E7E4EBD51FE3A931C22EF85AE4EC6AFC38BF261BA626C9AD288496DC3F4FCEAFC63366845F7A10452AF41DB320C0D44EC26EAB2091873556
311
5582695670811A6A49643A49A6E9069FA4604A64B29016DC4B48552F95E4932463CA888468C1D2B250DB4962750DF7CE273069CE8363F1FF4EDB00E0A21999574AE4A2B00C353B93F3BD4777B8A61ED8F604ABFEDD79CE56A2B7BDFBDBC50996E0ADDE16FED26223C5D30956C29BDF4A55EA686E5E58B112DA45CE67F76F4F
311
A27EFA3FB672FD7372FC388FAECDCA5209E693CAD167BADCD272F943701B3812F8A3D852008B1D2E32DB927B2F833C6EA95879925356D254582695095A3CE982924720BE5774A3CB9CDCDB350427D2DF20DA1B5532EBE2D5D6288D75D4F7E4FD9890A0EF8E3D93EBB8F8BA4758158EF6FB90A6F9520281C93DE7AAC6D24607
311
DA296BB96018123F821A7D6A5C5884050C475DA4865442732C8B95684A50165CBB3A32F25F783A4A480ED59AD7F924B968AEA50131F46303223E6A397B0E52976030DC1DCA81D7E7C1EDEEA42C19FF27635C505E2BD5198A599020DF50A2330FCB3AAF28CB0124108429553EF1B228802E2265D8F7CC2401042B155BCC7070
311
F1E5C55F13B4A9577362CCCE46C32174E010C3C378C44841A4BDA00FE3A12006CE11EE6AEC59894D3526DDE1CD59D503ECC324017F8061B7F162162FA62EDD81AE3308617770796DCBDAD2B2625C5AE8A63DE20B2C8AA5E95E76E5730823955956E33E705425A2187C185D36489A1B44D3DCEC2172F6BA2105C3546287A719
311
4B2331768EBBE64F6E70A9930ABE0ADEA89E9E2C38523B810287AD67A54A039C1606EAFE68F8304610BB9093DBDDABC0B2AE4E290DCDA15376D7E39F72B556F0B32EAB5D3D498B4C41ABADEC3A1434C422D87E8025A84BDCB2B1417ED750FAE4DA8976863974C577C7F902D3F156AD354DEA3540DE6BEAE2BEA52F7A2EB4CA
311
43802ECE5BF2CE2EDC9347179FFB023CE412E60BE16DA0BE29B374988A553F561DC04615DD35F7D2C8979F60E5955CE93DF29DED8AFA1EE6642D53418086C03C47C377910F75F7E8F5EF665F70B60FFB22AEDF897D119E8423C773E819A3C1E55E550599EE6EDCA34D0C86FD72057DF2CD46F16A470682471C164E4346D530
311
6BF12D7D12D82CFF673D41636C347443FEB51B50D72EA171A8E4A58623A4A16E0FA2B8B10A0D23268D87C33896EE8FB73305A74BF224EDBADFA0BD674AB354D63DB7BD5D83426761C077DE767728235446A552754EB93B755891C3C4CC6CADE37CF0E912A7BB38DBA010F9DE1282EDF470CA69A9CDA482E334C4A6EA410798
311
7980B17E72F31730EBF88BBD39E7C629F56797A3C0009C2C5AE7951D9A05A02773440F02EEB4DE396A3B6A570C72CCFBCD823B0B8ED3F1D5CEDDFED772FA70236C83FB7D86C385D570B87107535572A60A96035F8F7C6A7192F13007246BBE0521855E6AC46F3E27689CEE7D186A6FD679D98CDCAD13333E04EBE7ED6F55FF
311
01504B0304140006080800519781576180134D5F0100006B0300004500000039393142393530372D414338442D343730322D383738332D3239363242434437413737302F536368656D61732F52656E6465724D6174657269616C536368656D612E786D6CA5934D6FC2300C86EFFB1551EEE343DBA41D1A103009551ADAD40E
311
AE28A4A68D9426284961FCFBE5A340113B2071746D3F765EBF4DC6BFB5407BD0862B49F0B037C0082453059725C18DDD3EBFE3F1E829991803366715D474942CD30FB4A782E00C64017A412D684E454CE3FE28995203B162A6EA5AC94B66997D225E109CD63B0135484BAD1B3C07E9080CA35DB3119C11BCA5C200461A68A1
311
A438126C75E3E230D40FF81FB3F03C91D1E3A3A0AF79FE28E25BC39EC3E17E4C2A2D94A0833A51AF55BCCA7D88572FCBAC529C4140B020FC3AAFA886621DCED7EAD7664CC86024E806DC297DA1BB393E4156543457A4537DB8817349A70F8ACBF09B3EEE2CB2F33E91B65D60786E4E3B39B77E3FEEEF5650424525DA657FB8
311
B46BE6BF064646F0A0F7327C0BC1BC1B4CBBC1C419FA3CCB23500007872A2580CAAE5461865565294E4EDB4617B62FF579DF9A5B2F54E834076A597573A020912FED777F9B3F504B030414000608080051978157233872B351000000570000004700000039393142393530372D414338442D343730322D383738332D323936
311
3242434437413737302F4173736574446174612F41737365745461626C654F66436F6E74656E74732E62696E5361606070317532303373B4D035323035D135B1B074D375343477D57532357135343173353731371502AACB4D2C492DCA4CCC492C28484D2C4ACC4B4E050A82012F90744FCD03CA26072767A4E6260200504B
311
030414000608080051978157F865834058000000680000004500000039393142393530372D414338442D343730322D383738332D3239363242434437413737302F4173736574446174612F53747265616D56657273696F6E5461626C652E696E66558CBD0A80300C06F73E4B117FB66E451741D041DC5BF98480A492E4FDD1
311
8EAEC7DD4555D89EF28DF51A0B1BD8340C4DE7DD848B988C0ACF0649566493F2408C508DDEBB99D5129FF8F1AF8CF5B9503E20FAE5A16B5AF702504B030414000608080051978157B125921E350100009A0400003600000039393142393530372D414338442D343730322D383738332D3239363242434437413737302F4173
311
736574446174612F636E782E786D6CCD94316FC3201085FF8AC56EB01D458A224C54B54BA6566AD4A1DB059F13140C169CABF6DF17120FAD5275CA90F578773C3EF14E6E3E075B7C6088C6BB96D5BC62053AED3BE30E2D9BA82F57ACD82819BCA71F32563818B065B9CC943C043F8D73A9C31E269BABD6B8D35C7C88116907
311
7B8BCFFDA377848E222BB485185B16F51107E03091EF309E780704BCE601A39F82C63489CC80F3241D10083BA69AAA5994755356F5AE5EAD97ABF562F92E45562AB9F7DECE7A932E0B7E2CF4E556A62A29F2B1925330B326BF85A9BF3CF2BD715224A5929142623277D0D7983A601CADD140099DF09A90CA244218A4B88895
311
1499C12F124FD81B6772CB361903F2E125D9C34006EF8EC87F5E6F4F66EB2281D378BF3CAE1DDE9EC2EBF907BD5D02794ECCBDE5E4DA2137AEBF414AC4798DA4D0E4ADA2BE01504B030414000608080051978157EC977882080100004F0300003400000039393142393530372D414338442D343730322D383738332D323936
311
3242434437413737302F536368656D61732F636E782E786D6CCD93BD6EC32014855FC5620FD88E2259112643864E5DDA4EDD28DCA428C0B5F8A9DAB72FB80C89D4AD1DB2C1E1133AE770E1874F67BB0F08D1A09FC9407BD28157A88D3FCF24A7D36622DD41F08098AE30D279E960265526829F03E6A5491A4E32DBAA5AE32F
311
4D3CA273E89FD53B38493A65658C3389EB96CA9C5043BC502D93A4030D10310705E586641CB41B540099401331F6E376338C9B7E7819A6FD6EDA6F77AF9C5552F03744DB78E313045C3A8565E18B9D9EB37A2C780EA631350311D7DE686983B342081E53281D34327D2D8594CB628D92A954C556F087119CD5A837811FC043
311
30EA3E13DF98FBB7C84FE03584C7F24AC1487B9FC97FF3F8B702D83AFB6504EA5710DF504B030414000608080051978157410A3D5871000000A40000002C00000039393142393530372D414338442D343730322D383738332D3239363242434437413737302F636E782E786D6C55CC4D0E82301086E1AB34B31774E7A22D31
311
F1069E60020334B633A63FC6E34B0909B07DDE2F9FEE7EC1AB2FC5E4840DDC9A2B28E25E06C7938192C7CB1D54677514C9871928C640062A83D55394F2D968A0118BAFEA1DBF377CA444F98919176EAB9FEAAB9F2960DA5BBB1E2ED3FA6FFF504B0304140006080800519781571E3BC97C7E000000A300000007000000636E
311
782E786D6C4D8CCB0AC32014057F45EEDED6D8C75550431E3F121A13428D061B4B3FBF5AB2E8EAC0706654FD591D79DBF85A82D7509D1810EB1F615CFCAC21ED1315406AA36208FBDF0D881F56ABA160306A8E216D071AED342457A85BFCF3805256ADBC31A44D277A7A45C6A94071A15CDE79DBF5D820B26C9C8B92E7D7CB
311
5BF2E60B504B03041400060808005197815716E99B5DA600000035010000130000005B436F6E74656E745F54797065735D2E786D6C9590410E82301045AFD2740F4517C6180A0BF5065E60AC53688469D30E066F6F91AD9AB89CF9FFFD3F99BA9DC7413C3026E749CB4D59498164FCCD51A7E5C4B6D84BD136F5E5193089EC
311
A5A465CF1C0E4A25D3E308A9F401292BD6C711388FB15301CC1D3A54DBAADA29E38991B8E0254336F5092D4C038BF39CD76B6FC6A538AEBEA54A4B08617006389FA516557DE4AE8E7E70DE30729138228C5F021CD93F02D4FB0DCD0B504B0304140006080800519781573DEE336E64000000790000001B0000006175746F64
311
65736B2D64657369676E2D7061636B6167652E786D6C35CBC10E83200C00D05F21DCA56CA76D41FC96062B120735B69A7DBE268BB7777961F8D5AF396893C2ADB70FE7ADA196782C2DF776D7A97B5933C430F15651E5469C55D70F80A4992A3ADC954792C525AE70A1E4D6AD9816CC044FEFDF01FE3FDE907802504B030414
311
0006080800519781573DBD0404F8000000960100003700000039393142393530372D414338442D343730322D383738332D3239363242434437413737302F4173736574446174612F636F72652E786D6C8550CB6EC32010FC158B3B36E0B8B1234CE496F60B7AEA0D01715062B07854FDFC42EC4AEDA9A75DCDCECEEC0E3D7F
311
2DF7EA53FB609C1D01AE11A8B4954E193B8F20C50BEC417566D43B177FD14065C5A2475060C0E8EC5D5A77483A1BB52DA8754AEFA008414750C97B6E4610E4552FA216296646B8D5AB903731EB1AD71B8FD1948CDA578DCA6AE662B4076C42AFCF681A5EE0B16D0778E06F1C0EF8F804C9C4C981F3AE4788D0A62C331ACDF2
311
E32EBD16512BC008222DC40422FC8EFB53D79FDAEE833685C968883EFFBC9B96EFB25DB99A8B2868B34DFFA8A655FDAF9A8C8D2DD955B78D0018CE473E068C3625A55C1E11E65A1265DF504B0304140006080800519781577E78F73BF8000000940100003500000039393142393530372D414338442D343730322D38373833
311
2D3239363242434437413737302F536368656D61732F636F72652E786D6C8550CB4EC33010FC9568EF4E6CA7A169E5B80A047E004EDCACD80D561B3BF203F1F9D84990E0C46957B333B3BBC32E5FF3BDF854CE6B6B3A2025864299D14A6DA60E62B8A2168A0B67CEDAF08B068511B3EA20C3C0D9E46C5C7668B42628935163
311
A5DA41E1BD0A508CF7D474E0C70F358B52C49018FE562E62BC894995A4DC789CC5A8E52ED532B9E9AB560E788F9F1F717F7A42C7BA3EA1C3F032A013393E20DA0FF4300C4D8B316555167316F4FCB37D744A042581534C6B4428C2E48DB4E7A63DD7CD3BAB3293331F5CFA795F9ABF03FEBADEE959B5CDFE78C645FEEF19B5
311
0935DD3D3785074ED289EB80B32A6794CA1A60AA394FFE0D504B0304140006080800519781572A4F555600010000D70100002D00000039393142393530372D414338442D343730322D383738332D3239363242434437413737302F636F72652E786D6C95914D52C4201085AF92EA3D4920C69029C2D4FC1CC1953B849E919A
311
09A402B13CBE6062A93B5D413DBED7CDEB16FBF7F15EBCE11CAC7703D0B286029DF6C6BAEB004BBC100EC55E8AD9FBF80383C2A91107C83248719DFD326D92F62EA2CBAAF30637518580110A7D4F9701827EC551956A898908B77252FAA6AE58D272E5A48876FCB2EA1955440392D5AC2194919A3E51BE6BF9AE699F459549
311
2916EB62C3B66638BEA029FC14532490ADA8D6D7442DD66C8C35E98FF6627106D9F7F4D8B775470E277E260F5DCD08EF784358FFC88EA77377E8BA3A15496629429CD364B62279067FB5AFC65FC996C9FC33D9EA0820E977A82A8F598AEA7307E9CC2B911F504B030414000608080051978157D223739307010000B2010000
311
08000000636F72652E786D6C8D50C16E842014FC15F2EE28E0DAD50DB2B1B5FD829E7AA3C25AB20A4670D3FE7D61B5497BEBE99199796F86E1E7CF694437BD78E36C03342380B4ED9D327668600D175C013A0BBE38177EC9005939E906120C820F8B5BE71DEA9D0DDA26D43AA577507AAF03A07E8C8F067CFFA12799C93544
311
85BF66B3ECAF72D019CD369DE0C14C3FABFDA265D00A0423ACC09461425F69752AAB5351BEF13C29055F57A3762BA3A2BBB918BD8068C9F32369EB277C2C8A1A1FBA970ED7F4F88059DBB143D79515218CE76959701F96F8E7FD48CC199097B7E4CBF38D12FCDDB97117C4500A393B7E81203C4FC49FD0EBACFE11DAD850B0
311
FDE0B6E141D018E84E44E3D4601CF77AE34C6D8B6F504B010214001400060808005197815733AE9C36CC000000200100004F000000000000000000000000000000000039393142393530372D414338442D343730322D383738332D3239363242434437413737302F4173736574446174612F446566696E6974696F6E497465
311
7261746F7250726F706572746965732E62696E504B010214001400060808005197815743FADE71110100003002000045000000000000000000000000003901000039393142393530372D414338442D343730322D383738332D3239363242434437413737302F4173736574446174612F496E7374616E636550726F70657274
311
6965732E62696E504B010214001400060808005197815728BB58AF800100009E0500003D00000000000000000000000000AD02000039393142393530372D414338442D343730322D383738332D3239363242434437413737302F536368656D61732F436F6D6D6F6E536368656D612E786D6C504B0102140014000608080051
311
9781572CCEBD668A040000E01200003E000000000000000000000000008804000039393142393530372D414338442D343730322D383738332D3239363242434437413737302F536368656D61732F47656E65726963536368656D612E786D6C504B01021400140006080800519781576180134D5F0100006B03000045000000
311
000000000000000000006E09000039393142393530372D414338442D343730322D383738332D3239363242434437413737302F536368656D61732F52656E6465724D6174657269616C536368656D612E786D6C504B0102140014000608080051978157233872B351000000570000004700000000000000000000000000300B
311
000039393142393530372D414338442D343730322D383738332D3239363242434437413737302F4173736574446174612F41737365745461626C654F66436F6E74656E74732E62696E504B0102140014000608080051978157F865834058000000680000004500000000000000000000000000E60B00003939314239353037
311
2D414338442D343730322D383738332D3239363242434437413737302F4173736574446174612F53747265616D56657273696F6E5461626C652E696E66504B0102140014000608080051978157B125921E350100009A0400003600000000000000000000000000A10C000039393142393530372D414338442D343730322D38
311
3738332D3239363242434437413737302F4173736574446174612F636E782E786D6C504B0102140014000608080051978157EC977882080100004F03000034000000000000000000000000002A0E000039393142393530372D414338442D343730322D383738332D3239363242434437413737302F536368656D61732F636E
311
782E786D6C504B0102140014000608080051978157410A3D5871000000A40000002C00000000000000000000000000840F000039393142393530372D414338442D343730322D383738332D3239363242434437413737302F636E782E786D6C504B01021400140006080800519781571E3BC97C7E000000A300000007000000
311
000000000000000000003F100000636E782E786D6C504B010214001400060808005197815716E99B5DA6000000350100001300000000000000000000000000E21000005B436F6E74656E745F54797065735D2E786D6C504B01021400140006080800519781573DEE336E64000000790000001B000000000000000000000000
311
00B91100006175746F6465736B2D64657369676E2D7061636B6167652E786D6C504B01021400140006080800519781573DBD0404F80000009601000037000000000000000000000000005612000039393142393530372D414338442D343730322D383738332D3239363242434437413737302F4173736574446174612F636F
311
72652E786D6C504B01021400140006080800519781577E78F73BF8000000940100003500000000000000000000000000A313000039393142393530372D414338442D343730322D383738332D3239363242434437413737302F536368656D61732F636F72652E786D6C504B01021400140006080800519781572A4F55560001
311
0000D70100002D00000000000000000000000000EE14000039393142393530372D414338442D343730322D383738332D3239363242434437413737302F636F72652E786D6C504B0102140014000608080051978157D223739307010000B2010000080000000000000000000000000039160000636F72652E786D6C504B0506
311
00000000110011005A060000661700000000
310
504B030414000608080051978157000000000000000000000000370000006662782F42333238373635412D313531462D344338392D413236332D3742363644413138303644342F617474726962757465732E62696E504B030414000608080051978157000000000000000000000000350000006662782F4233323837363541
310
2D313531462D344338392D413236332D3742363644413138303644342F76657274696365732E62696E504B030414000608080051978157F270F1330600000004000000360000006662782F42333238373635412D313531462D344338392D413236332D3742363644413138303644342F747269616E676C65732E62696E6366
310
60600000504B03041400060808005197815751464CB48900000043010000360000006662782F42333238373635412D313531462D344338392D413236332D3742363644413138303644342F6469726563746F72792E786D6C9D8F310EC2300C45AF127987122606C71DD918B841D4B851A43646695A717C52A85029031293A5
310
A76FBF6FACEF7DA7264E43906840EF0FA03836E242F406C6DCEE4EA06AC22492573150D1F66C60C640E8938CB705396EEDD86DE9B5042FE27813D640EA63BB001C722AF6E55CB61E4863F58284D5D3F53DD715CE1C3985E63FD7F1B7EBDD617E9F1E504B030414000608080051978157FD44797436070000201C0000340000
310
006662782F42333238373635412D313531462D344338392D413236332D3742363644413138303644342F6F626A656374732E786D6CDD59596FDB3810FE2B84F665F74197AFD885E2C2B193C228D20635BAD837819669871B5D20A5C4D95FBF438A942559B6956C0B149B00B14293C3996FEE91F7711F85E899304E93F8DA70
310
2DC740240E920D8D77D7469E6DCDB1813E4E91C79224ABEC33508C23726D886563EAED5892A76A6943B6380F9BAB77377F211E909818280831E7D7060F1E49842D9C67C986F0276B83336CEDB67BCBB58A8D75B23B86D3C7C655296624CE8055588F818AE2C0ADFF0B22D953CF161B6ADB7ADDB6F5CF6CB3A5E0754669CC33
310
1C07475C35E8F4BA71D577078BDBDE70620E0783BE3918F55CF3E6EE6661BA577D673E9ACF27B3DB8981A6DE3A49C25201298937A0C55763EA7AB6F8A6145FA1D0C67790C43109149A6D1B3644D1A5843731A901EB4AD12A0A2964AD2CF43B0A7F625B27506A2CD5D0D6C2E9CFAAF526EBBF0104DEC54A1927C2CA79C640D7
310
0AFBC21F1CCF2E566B7AA11C4538238CE2108574CD300305C1D642413532C25B04292430935AD4F4AABC82615FF6A5362EB779180AFF35A6D2D37CF0479271C919FD87B003F7D5DB80279036A7713656C266AF29909878B65C2CBEEBF7D4970590681BE21D580B882936F57B0DBCE622162C17C6F4F3DD7ABF12F1A1FDF294
310
25296199B03CE9CCCAEFB4062BA605C6D7019402D7BAEE0EA87C03E8BF00F2252FC803CD31BA1FEC075A768663BE4D5804DA410E321DF8E320F178F4E4D9E5E12942B558790A5370DB1F84694D8CDADD1548A7DE33187DC2FA4AB8558043B0E97B1A0B3F07434161024B10EFB7EBBD315D42308545388543901E7E3D5B3C22
310
F828E840BC6968A82DFC7650947698A69F1D74F5096C86D1A054554DC653F80E7F08BEB3C5EAF32A675B1C907BE5D80BB2A531CD2099B6335403BDE6F2DF975FA4471EC953DB15C03DBB44048E16BDAC945E90540CB022F270A11AB9724FC1DDC310C724C9B95A6F0B54411226CC5FBFFA850FB7DEF5A73682E232F06F6101
310
ADC10CB27BC0682A4031A64ABC32125A079C441C5406B82B94EAAF71F024E0F5038858EFE103AC16B326D13C4A7D1C25792CC2F7B1793745B3FA8EFC71DD49CF99F4C6939116964BF2DA7B7468289917F744383D71C9BCA62D153534E5C28F06102DDB2408A066CA333F497140B3765B6808A13C14C03ECBF2866EB73987A0
310
DE0A4B8363ABEF0E9153F95B5E729E7B75894F23BC23FE168B0CD77A5F0DA092B896A015995D98704E63C265857214B91AA838160482C26E35D51623A4DC8F4886DF637F32E535CC8F916DE8432D95896AF6B2F5690655F63C4551546E49EC4BF95F7D8EA3342CAAB44B18B8BDC60DADB80AA6C515CF606F3ECE7C674364D1
310
7D897A191734BE9DA84FDE4DFE043C0CFF7478F415144A6FC8919735EB5A4377227EC610544643B77FA51571092B7D55266A903087AA2978F55F08DD3D760B689DEEE124DCFA340CF3C82FF241462228C17096B34EFE3A1A3A47CA5771A1E110959BB6348402B973D094B587AE3E402A597C9C0A9A956B40281A438FD64990
310
23295A4D58EA42F6A3A2EDBAACFDB753FDCFF1B2DAA73C91D797846D5A39AD9711BA02D3058308972AC3957624294FBDAAF345B271B98CC3401351F1ADE812948530F24CC560427640ADFD037FC159008174253FCD1BF0880DD91C6A8A1A3935E630A670A9A6A6EBD46AA703C14EA48F5AE1B51401358269031671F65E3C84
310
DF30A81A2A3F6EABAAC62ED69722B159305839F07186D6D74FAB061558E97CFA4160445E1A14D4EA5C147267487D5F1EEAD5060525D1F7E599E3D9631EAD634C456614668137E9878FB297BCB6A151B09D1B77B698DFCECCDE70343607F3AB893983918539195EF56E278BC9C099CF6C467892B38070BB673BBEAE9DD278A7
310
0DA380AE4B47015385CBAD9FB6E7A682FFC71D4598ACF1295BFC551B8AB2DC130559C317BB3614AD817AFDB6EADF3D0AD4ED49EC4D9573312BD0067E3E6D4130D2F9BE7B69A149EB4AA29DE74A467C63E23DD9ADFCF41C530BE8ADF9A1B6A32DE4D76331CC9E5AB294EE6E8B4E7A78E38C46B3B1D973860373309EDC9933F7
310
EAD6BC190E6EDDC1E8F66A7075E823542EEC9A577E8918AA99AD8CD1601ACC9390C2509E6CD08E24D001C1D4A1437C6511E1B2B3810240A571FD46A0C3E9E762A69AE175A84F078F1806D3A1CAC879004351E83AAE0DB58E7E8331A89844CAE194F504894759BB817246AF0D30818C427EB1D630CE92C34349BD31AE04B5E1
310
78277AA6E254F9FFE19840076CE52057B9A70B2E4AB29A75C2702095EF0920DAE982E4FDA26B7610CEE0719D67A530878583340A04FD42A0100EA67E4F0ADE3D049EF372B996DC5383A4D364FEAC1D1454CD0CB39D1CAF57F09E2D1E6C31195F7E456998EF843ACFE5FB1A2553D419615E0CA13C300C25668A451F3EFF603F
310
B0045E3145E88E8211A0DFF7E3D11FF63C89A2242E96EC997A5185568FF0DA6963EB911F142E8E3BB465DDA3C6FA30B7E2C4C21BFE040BA05A46C56CB480B866006578AA1880D688D0051CABED5F2E904A029512B65ABA0A78E44C1F8123897739C26DAA1B2A0348F005E0AA98D3960F7AC1B3190CC1A7FF02504B03041400
310
060808005197815711F96FAB3E01000046050000300000006662782F42333238373635412D313531462D344338392D413236332D3742363644413138303644342F636E782E786D6CCD94C16A032110865F45BCAFBB9B1008C135D0439FA087D29BEB4EB636AE2E3A96E6EDABA9495B4A4A0F81F426E33FF07F333FC3B76F93
310
21AFE08376B6A32D6B2801ABDCA0EDD8D188BB6A4DC95670EF1C7E915162E5041DCD652AF8E85D9C4B69809D8C26578DB6FB5294885EF7112150A28C0CA1A3413DC324998CE806087B364894AC651E828B5E41EA473D41E9571E24C240C5A2592CAB765135ED43BBDEACD69BE5EA89D7592978EF9C297A6D11BC9B8972E961
310
939986D7F95BF0E875D164022A3E9DB15E5B5EA77FC143726BC7A2C3C39C75F36CB49298C6543B85805512819C78FD2116BCCEBCDFA8EFEF1E4F0EC8A03D2874FE70A301B497067036C65212FEC67F14FE8EEDFA97847BAB6D5F842DB6AE867A4A6B4871FDB9FF94226947F3FF427F3676FDCCA753825AFD3FE493AF2B11D7
310
C79397969E2FA07807504B030414000608080051978157A30E07107F000000A30000000B0000006662782F636E782E786D6C4D8CDF0A83201C465F457EF7B6EC8F3950C3167B8F581632D36139F6F8D3D1C5AE3E387CE7F0FEB359F4D66137DE0920450948BB879F8D5B05C463C10C502F79F0FEF8BB0172D3A605640C92AF
310
C1C7D78966BD4CD1666A8D7B9E70A82BD6D15661D2923B6E6EEC8A55456BDC0D948E8AB0928E4D322E5949F3EBA5CD79F905504B030414000608080051978157A6D797065F0000008200000007000000636E782E786D6C4DCB3B0E80201045D1AD90E9FD7516806B51190811670C8A61F982B1B0BAC9C97B72CA7B1037C6D3
310
332918DA1E04D2CAC69353902EDB8C20262D23F3F59B81A079470595414B17391D1F19B4730A5583A7ED43BBE4025D9592775E5ADFFA01504B0304140006080800519781574FEB6A7CA0000000F4000000130000005B436F6E74656E745F54797065735D2E786D6C7D8F4B0EC2300C44AF1279DFA6B0400835ED02B8011730
310
C16D239A8F121795DB93D02D6269CFBC19BBED573B8B17C564BC53B0AB1B10E4B47F18372A5878A88E20FAAEBDBD032591BD2E299898C349CAA427B2986A1FC86565F0D122E7318E32A07EE24872DF3407A9BD63725C71C980AEBDD080CBCCE2BAE6F5D69B7110E7CD57AA146008B3D1C8F92C5954F993BB1BF787F39A89AB
310
C491D09600F9FDA2FB00504B0304140006080800519781573DEE336E64000000790000001B0000006175746F6465736B2D64657369676E2D7061636B6167652E786D6C35CBC10E83200C00D05F21DCA56CA76D41FC96062B120735B69A7DBE268BB7777961F8D5AF396893C2ADB70FE7ADA196782C2DF776D7A97B5933C430
310
F15651E5469C55D70F80A4992A3ADC954792C525AE70A1E4D6AD9816CC044FEFDF01FE3FDE907802504B030414000608080051978157E4D5EF97F8000000960100003B0000006662782F42333238373635412D313531462D344338392D413236332D3742363644413138303644342F7265736F75726365732F636F72652E78
310
6D6C8550CB6E833010FC15B477836D424522E34855E00B7AEACD329BD44AB0911F553FBF76A0527BEA6957B333B3BB23CE5FCBA3FA441F8CB303B09A428556BBD9D8DB00295E490FD5590AEF5CFC4583CAAA050728304871F32EAD3BA49D8D680B6ADD8C3BA842C008957EE46680A03F7051B54A3133C2BD5E95BEAB1BD6AC
310
DE7852A464E65D6AE6EC66AE063DC8F6D2727E3C1E08A5F4420ED348C9EB0BEF09EFA6B1676CEAA6E3289A2296229AE567BBF6A822CE2039E52D619C50F6C6FA53D79FDAEE5D34852945883EFFBC2F2DDF81F4185CF21A8368B6E91FD7B4CEFFBB266363CB77D74D1140B27CE47320455352CAE51961AE2551F90D504B0304
310
1400060808005197815703EC1B6CF2000000B1010000310000006662782F42333238373635412D313531462D344338392D413236332D3742363644413138303644342F636F72652E786D6C8D50CB6EC32010FC156BEF3806C70E8D3091D3A85FD0536F08888B1283C5A3EAE71762576A6F392D9A9D6166879DBEE77BF5A57D
310
30CE0E80EB062A6DA553C64E03A4784514AA1367DEB9F887069515B31EA0C0C0D9E45D5A36483A1BB52DA8754A6FA0084147A8E43D3F0608F253CFA216296646B8D58B903731E91AD72B8FB368E65FA9F45A44AD809386B40813D4E0774C8F1D3DB6DD07DB1526672919B5591995DDCDD5680FFCDC127AE8BB11E10EBFA1FD
310
2B7D4123E95B7438F7FD65C4B4E92F7BB62B62CE42F4F9E6ED9372DDB3F255F82F735AD413998D8D2DD90C5745008E739EC782B35D29308F47BB7996B2F90F504B03041400060808005197815738EEFD0253010000DD0200000C0000006662782F636F72652E786D6C8D525D6F832014FD2B867714B12EB6419A2CADBF604F
310
7BA3481DA9824130FDF9033FE27C58B7982039F7DE73EE39819C9F5D1B8DC20C52AB12A4310291505CD752352570F60E0B109D29315ADB1F6D2052AC13250830A0A431DAF50BC4B5B2420554E95A2C201B066141C45B7F29C1C0BF44C762E6ACEF181E71CFF88335224EE3B98F12E764BD8CCADAB3C9BB1406D0EC92617C3C
310
1E2042E8020FD515C1F7375C409C57D7224DABBC3A5E49128629B1B25BD5B911CC8A1A508C7006530C51FA9116A7BC3865F927494227258335DEF3221ADC017ABF3D4932E33B3ED7D77FF339A96C8617BE79620034F5EB4D054A92908FFF4DE1ED33F4C23E3FCB6EED6AE1E1A15170ABCDC1576AEDB6D2C85A273C358AA68F
310
2473D5334F04BFF1E0173CAF397C504C357E3566FDF5E66C50DFEFD40B0347FB8C94361D6BB7E5E615B77313DA595AC7B96EB5F9CFF46A750D33090F937E03504B03041400060808005197815730F8A10F06010000B201000008000000636F72652E786D6C8D50416EC32010FC0ADA3B36E0B872224CA42AF60B7AEA8D1AE2
310
A0D860191CB5BF2FC4546A6F3D2D9A99DD19869F3FE7093DF4EA8DB32DD08200D27670CAD8B1852D5C7103E82CF8EA5CF8250364E5AC5B4830083EAE6E5B3234381BB44DA8754A67507AAF03A0618A8F16FC70D3B32CE416A2C2DF8B450E7739EA8216BB4EF060E69FD561D532680582115661CA30A16FB439D5CDA9AADF79
310
9994826F9B51D9CAA8E86EAE46AF20AA4BC5D8F178C084900B3EF41DC1AF2FACC1ACEEBB86D2BEEE8F1D2FD3B2E03EACF1CFF948CC1990978FE4CBCB9D12FCC3B9290B6228859C9DBE40105E26E24FE86D51FF086D6CA8583EB86F781034067A12D1383518C7B3DE3853DBE21B504B01021400140006080800519781570000
310
000000000000000000003700000000000000000000000000000000006662782F42333238373635412D313531462D344338392D413236332D3742363644413138303644342F617474726962757465732E62696E504B010214001400060808005197815700000000000000000000000035000000000000000000000000005500
310
00006662782F42333238373635412D313531462D344338392D413236332D3742363644413138303644342F76657274696365732E62696E504B0102140014000608080051978157F270F13306000000040000003600000000000000000000000000A80000006662782F42333238373635412D313531462D344338392D413236
310
332D3742363644413138303644342F747269616E676C65732E62696E504B010214001400060808005197815751464CB489000000430100003600000000000000000000000000020100006662782F42333238373635412D313531462D344338392D413236332D3742363644413138303644342F6469726563746F72792E786D
310
6C504B0102140014000608080051978157FD44797436070000201C00003400000000000000000000000000DF0100006662782F42333238373635412D313531462D344338392D413236332D3742363644413138303644342F6F626A656374732E786D6C504B010214001400060808005197815711F96FAB3E01000046050000
310
3000000000000000000000000000670900006662782F42333238373635412D313531462D344338392D413236332D3742363644413138303644342F636E782E786D6C504B0102140014000608080051978157A30E07107F000000A30000000B00000000000000000000000000F30A00006662782F636E782E786D6C504B0102
310
140014000608080051978157A6D797065F0000008200000007000000000000000000000000009B0B0000636E782E786D6C504B01021400140006080800519781574FEB6A7CA0000000F400000013000000000000000000000000001F0C00005B436F6E74656E745F54797065735D2E786D6C504B0102140014000608080051
310
9781573DEE336E64000000790000001B00000000000000000000000000F00C00006175746F6465736B2D64657369676E2D7061636B6167652E786D6C504B0102140014000608080051978157E4D5EF97F8000000960100003B000000000000000000000000008D0D00006662782F42333238373635412D313531462D344338
310
392D413236332D3742363644413138303644342F7265736F75726365732F636F72652E786D6C504B010214001400060808005197815703EC1B6CF2000000B10100003100000000000000000000000000DE0E00006662782F42333238373635412D313531462D344338392D413236332D3742363644413138303644342F636F
310
72652E786D6C504B010214001400060808005197815738EEFD0253010000DD0200000C000000000000000000000000001F1000006662782F636F72652E786D6C504B010214001400060808005197815730F8A10F06010000B201000008000000000000000000000000009C110000636F72652E786D6C504B0506000000000E
310
000E0080040000C81200000000
  0
XRECORD
  5
83F8
102
{ACAD_REACTORS
330
83F3
102
}
330
83F3
100
AcDbXrecord
280
     1
270
     1
271
     1
  0
XRECORD
  5
83F7
102
{ACAD_REACTORS
330
83F3
102
}
330
83F3
100
AcDbXrecord
280
     1
270
     1
271
     1
  0
XRECORD
  5
83F9
102
{ACAD_REACTORS
330
83F3
102
}
330
83F3
100
AcDbXrecord
280
     1
270
     1
271
     1
  0
XRECORD
  5
83F6
102
{ACAD_REACTORS
330
83F3
102
}
330
83F3
100
AcDbXrecord
280
     1
270
     1
271
     1
  0
XRECORD
  5
87FA
102
{ACAD_REACTORS
330
87F9
102
}
330
87F9
100
AcDbXrecord
280
     1
102
DISPLAYNAME
  1
Imperial24
102
FLAGS
 90
        0
  0
CELLSTYLEMAP
  5
87C1
102
{ACAD_REACTORS
330
87C0
102
}
330
87C0
100
AcDbCellStyleMap
 90
        3
300
CELLSTYLE
  1
TABLEFORMAT_BEGIN
 90
        5
170
     1
 91
        0
 92
    32768
 62
   257
 93
        1
300
CONTENTFORMAT
  1
CONTENTFORMAT_BEGIN
 90
        0
 91
        0
 92
      512
 93
        0
300

 40
0.0
140
1.0
 94
        5
 62
     0
340
8426
144
0.25
309
CONTENTFORMAT_END
171
     0
 94
        0
309
TABLEFORMAT_END
  1
CELLSTYLE_BEGIN
 90
        1
 91
        1
300
_TITLE
309
CELLSTYLE_END
300
CELLSTYLE
  1
TABLEFORMAT_BEGIN
 90
        5
170
     1
 91
        0
 92
        0
 62
   257
 93
        1
300
CONTENTFORMAT
  1
CONTENTFORMAT_BEGIN
 90
        0
 91
        0
 92
      512
 93
        0
300

 40
0.0
140
1.0
 94
        5
 62
     0
340
8426
144
0.18
309
CONTENTFORMAT_END
171
     0
 94
        0
309
TABLEFORMAT_END
  1
CELLSTYLE_BEGIN
 90
        2
 91
        1
300
_HEADER
309
CELLSTYLE_END
300
CELLSTYLE
  1
TABLEFORMAT_BEGIN
 90
        5
170
     1
 91
        0
 92
        0
 62
   257
 93
        1
300
CONTENTFORMAT
  1
CONTENTFORMAT_BEGIN
 90
        0
 91
        0
 92
      512
 93
        0
300

 40
0.0
140
1.0
 94
        2
 62
     0
340
8426
144
0.18
309
CONTENTFORMAT_END
171
     0
 94
        0
309
TABLEFORMAT_END
  1
CELLSTYLE_BEGIN
 90
        3
 91
        2
300
_DATA
309
CELLSTYLE_END
  0
XRECORD
  5
87F7
102
{ACAD_REACTORS
330
87C0
102
}
330
87C0
100
AcDbXrecord
280
     1
102
ACAD_ROUNDTRIP_PRE2007_TABLESTYLE
 90
      512
 91
        0
  1

 92
      512
 93
        0
  2

 94
      512
 95
        0
  3

  0
XRECORD
  5
87D2
102
{ACAD_REACTORS
330
87D1
102
}
330
87D1
100
AcDbXrecord
280
     1
102
RTVSPost2010Prop28
280
     1
102
RTVSPost2010PropOp28
 70
     1
102
RTVSPost2010Prop29
280
     1
102
RTVSPost2010PropOp29
 70
     1
102
RTVSPost2010Prop30
280
     0
102
RTVSPost2010PropOp30
 70
     1
102
RTVSPost2010Prop31
280
     0
102
RTVSPost2010PropOp31
 70
     1
102
RTVSPost2010Prop32
280
     0
102
RTVSPost2010PropOp32
 70
     1
102
RTVSPost2010Prop33
280
     0
102
RTVSPost2010PropOp33
 70
     1
102
RTVSPost2010Prop34
280
     0
102
RTVSPost2010PropOp34
 70
     1
102
RTVSPost2010Prop35
280
     0
102
RTVSPost2010PropOp35
 70
     1
102
RTVSPost2010Prop36
280
     0
102
RTVSPost2010PropOp36
 70
     1
102
RTVSPost2010Prop37
 90
       50
102
RTVSPost2010PropOp37
 70
     1
102
RTVSPost2010Prop38
140
0.0
102
RTVSPost2010PropOp38
 70
     1
102
RTVSPost2010Prop39
140
1.0
102
RTVSPost2010PropOp39
 70
     1
102
RTVSPost2010Prop40
 90
        0
102
RTVSPost2010PropOp40
 70
     1
102
RTVSPost2010Prop41ColorIndex
 90
       18
102
RTVSPost2010Prop41ColorRGB
 90
        0
102
RTVSPost2010PropOp41
 70
     1
102
RTVSPost2010Prop42
 90
       50
102
RTVSPost2010PropOp42
 70
     1
102
RTVSPost2010Prop43
 90
        3
102
RTVSPost2010PropOp43
 70
     1
102
RTVSPost2010Prop44ColorIndex
 90
        5
102
RTVSPost2010Prop44ColorRGB
 90
      255
102
RTVSPost2010PropOp44
 70
     1
102
RTVSPost2010Prop45
280
     0
102
RTVSPost2010PropOp45
 70
     1
102
RTVSPost2010Prop46
 90
       50
102
RTVSPost2010PropOp46
 70
     1
102
RTVSPost2010Prop47
 90
       50
102
RTVSPost2010PropOp47
 70
     1
102
RTVSPost2010Prop48
 90
       50
102
RTVSPost2010PropOp48
 70
     1
102
RTVSPost2010Prop49
280
     0
102
RTVSPost2010PropOp49
 70
     1
102
RTVSPost2010Prop50
 90
       50
102
RTVSPost2010PropOp50
 70
     1
102
RTVSPost2010Prop51ColorIndex
 90
      256
102
RTVSPost2010Prop51ColorRGB
 90
-16777216
102
RTVSPost2010PropOp51
 70
     0
102
RTVSPost2010Prop52
140
1.0
102
RTVSPost2010PropOp52
 70
     0
102
RTVSPost2010Prop53
 90
        2
102
RTVSPost2010PropOp53
 70
     1
102
RTVSPost2010Prop54
  1
strokes_ogs.tif
102
RTVSPost2010PropOp54
 70
     1
102
RTVSPost2010Prop55
280
     0
102
RTVSPost2010PropOp55
 70
     1
102
RTVSPost2010Prop56
140
1.0
102
RTVSPost2010PropOp56
 70
     1
102
RTVSPost2010Prop57
140
1.0
102
RTVSPost2010PropOp57
 70
     1
102
RTVSPropertyOp0
 70
     1
102
RTVSPropertyOp1
 70
     1
102
RTVSPropertyOp2
 70
     1
102
RTVSPropertyOp3
 70
     1
102
RTVSPropertyOp4
 70
     1
102
RTVSPropertyOp5
 70
     1
102
RTVSPropertyOp6
 70
     1
102
RTVSPropertyOp7
 70
     1
102
RTVSPropertyOp8
 70
     1
102
RTVSPropertyOp9
 70
     1
102
RTVSPropertyOp10
 70
     1
102
RTVSPropertyOp11
 70
     1
102
RTVSPropertyOp12
 70
     1
102
RTVSPropertyOp13
 70
     1
102
RTVSPropertyOp14
 70
     1
102
RTVSPropertyOp15
 70
     1
102
RTVSPropertyOp16
 70
     1
102
RTVSPropertyOp17
 70
     1
102
RTVSPropertyOp18
 70
     1
102
RTVSPropertyOp19
 70
     1
102
RTVSPropertyOp20
 70
     1
102
RTVSPropertyOp21
 70
     1
102
RTVSPropertyOp22
 70
     1
102
RTVSPropertyOp23
 70
     1
102
RTVSPropertyOp24
 70
     1
102
RTVSPropertyOp25
 70
     1
102
RTVSPropertyOp26
 70
     1
102
RTVSPropertyOp27
 70
     1
102
RTVSPropertyOp28
 70
     1
102
RTVSPropertyOp29
 70
     1
102
RTVSPropertyOp30
 70
     1
102
RTVSPropertyOp31
 70
     1
102
RTVSPropertyOp32
 70
     1
102
RTVSPropertyOp33
 70
     1
102
RTVSPropertyOp34
 70
     1
102
RTVSPropertyOp35
 70
     1
102
RTVSPropertyOp36
 70
     1
102
RTVSPropertyOp37
 70
     1
102
RTVSPropertyOp38
 70
     1
102
RTVSPropertyOp39
 70
     1
102
RTVSPropertyOp40
 70
     1
102
RTVSPropertyOp41
 70
     1
102
RTVSPropertyOp42
 70
     1
102
RTVSPropertyOp43
 70
     1
102
RTVSPropertyOp44
 70
     1
102
RTVSPropertyOp45
 70
     1
102
RTVSPropertyOp46
 70
     1
102
RTVSPropertyOp47
 70
     1
102
RTVSPropertyOp48
 70
     1
102
RTVSPropertyOp49
 70
     1
102
RTVSPropertyOp50
 70
     1
102
RTVSPropertyOp51
 70
     0
102
RTVSPropertyOp52
 70
     0
102
RTVSPropertyOp53
 70
     1
102
RTVSPropertyOp54
 70
     1
102
RTVSPropertyOp55
 70
     1
102
RTVSPropertyOp56
 70
     1
102
RTVSPropertyOp57
 70
     1
102
RTVSPropertyOp58
 70
     1
102
RTVSPropertyOp59
 70
     1
102
RTVSPropertyOp60
 70
     1
102
RTVSPropertyOp61
 70
     1
102
RTVSPropertyOp62
 70
     1
  0
XRECORD
  5
87D0
102
{ACAD_REACTORS
330
87CF
102
}
330
87CF
100
AcDbXrecord
280
     1
102
RTVSPost2010Prop28
280
     0
102
RTVSPost2010PropOp28
 70
     1
102
RTVSPost2010Prop29
280
     1
102
RTVSPost2010PropOp29
 70
     1
102
RTVSPost2010Prop30
280
     1
102
RTVSPost2010PropOp30
 70
     1
102
RTVSPost2010Prop31
280
     0
102
RTVSPost2010PropOp31
 70
     1
102
RTVSPost2010Prop32
280
     0
102
RTVSPost2010PropOp32
 70
     1
102
RTVSPost2010Prop33
280
     0
102
RTVSPost2010PropOp33
 70
     1
102
RTVSPost2010Prop34
280
     0
102
RTVSPost2010PropOp34
 70
     1
102
RTVSPost2010Prop35
280
     0
102
RTVSPost2010PropOp35
 70
     1
102
RTVSPost2010Prop36
280
     0
102
RTVSPost2010PropOp36
 70
     1
102
RTVSPost2010Prop37
 90
       50
102
RTVSPost2010PropOp37
 70
     1
102
RTVSPost2010Prop38
140
0.0
102
RTVSPost2010PropOp38
 70
     1
102
RTVSPost2010Prop39
140
1.0
102
RTVSPost2010PropOp39
 70
     1
102
RTVSPost2010Prop40
 90
        0
102
RTVSPost2010PropOp40
 70
     1
102
RTVSPost2010Prop41ColorIndex
 90
       18
102
RTVSPost2010Prop41ColorRGB
 90
        0
102
RTVSPost2010PropOp41
 70
     1
102
RTVSPost2010Prop42
 90
       50
102
RTVSPost2010PropOp42
 70
     1
102
RTVSPost2010Prop43
 90
        3
102
RTVSPost2010PropOp43
 70
     1
102
RTVSPost2010Prop44ColorIndex
 90
        5
102
RTVSPost2010Prop44ColorRGB
 90
      255
102
RTVSPost2010PropOp44
 70
     1
102
RTVSPost2010Prop45
280
     0
102
RTVSPost2010PropOp45
 70
     1
102
RTVSPost2010Prop46
 90
       50
102
RTVSPost2010PropOp46
 70
     1
102
RTVSPost2010Prop47
 90
       50
102
RTVSPost2010PropOp47
 70
     1
102
RTVSPost2010Prop48
 90
       50
102
RTVSPost2010PropOp48
 70
     1
102
RTVSPost2010Prop49
280
     0
102
RTVSPost2010PropOp49
 70
     1
102
RTVSPost2010Prop50
 90
       50
102
RTVSPost2010PropOp50
 70
     1
102
RTVSPost2010Prop51ColorIndex
 90
      256
102
RTVSPost2010Prop51ColorRGB
 90
-16777216
102
RTVSPost2010PropOp51
 70
     0
102
RTVSPost2010Prop52
140
1.0
102
RTVSPost2010PropOp52
 70
     0
102
RTVSPost2010Prop53
 90
        2
102
RTVSPost2010PropOp53
 70
     1
102
RTVSPost2010Prop54
  1
strokes_ogs.tif
102
RTVSPost2010PropOp54
 70
     1
102
RTVSPost2010Prop55
280
     0
102
RTVSPost2010PropOp55
 70
     1
102
RTVSPost2010Prop56
140
1.0
102
RTVSPost2010PropOp56
 70
     1
102
RTVSPost2010Prop57
140
1.0
102
RTVSPost2010PropOp57
 70
     1
102
RTVSPropertyOp0
 70
     1
102
RTVSPropertyOp1
 70
     1
102
RTVSPropertyOp2
 70
     1
102
RTVSPropertyOp3
 70
     1
102
RTVSPropertyOp4
 70
     1
102
RTVSPropertyOp5
 70
     1
102
RTVSPropertyOp6
 70
     1
102
RTVSPropertyOp7
 70
     1
102
RTVSPropertyOp8
 70
     1
102
RTVSPropertyOp9
 70
     1
102
RTVSPropertyOp10
 70
     1
102
RTVSPropertyOp11
 70
     1
102
RTVSPropertyOp12
 70
     1
102
RTVSPropertyOp13
 70
     1
102
RTVSPropertyOp14
 70
     1
102
RTVSPropertyOp15
 70
     1
102
RTVSPropertyOp16
 70
     1
102
RTVSPropertyOp17
 70
     1
102
RTVSPropertyOp18
 70
     1
102
RTVSPropertyOp19
 70
     1
102
RTVSPropertyOp20
 70
     1
102
RTVSPropertyOp21
 70
     1
102
RTVSPropertyOp22
 70
     1
102
RTVSPropertyOp23
 70
     1
102
RTVSPropertyOp24
 70
     1
102
RTVSPropertyOp25
 70
     1
102
RTVSPropertyOp26
 70
     1
102
RTVSPropertyOp27
 70
     1
102
RTVSPropertyOp28
 70
     1
102
RTVSPropertyOp29
 70
     1
102
RTVSPropertyOp30
 70
     1
102
RTVSPropertyOp31
 70
     1
102
RTVSPropertyOp32
 70
     1
102
RTVSPropertyOp33
 70
     1
102
RTVSPropertyOp34
 70
     1
102
RTVSPropertyOp35
 70
     1
102
RTVSPropertyOp36
 70
     1
102
RTVSPropertyOp37
 70
     1
102
RTVSPropertyOp38
 70
     1
102
RTVSPropertyOp39
 70
     1
102
RTVSPropertyOp40
 70
     1
102
RTVSPropertyOp41
 70
     1
102
RTVSPropertyOp42
 70
     1
102
RTVSPropertyOp43
 70
     1
102
RTVSPropertyOp44
 70
     1
102
RTVSPropertyOp45
 70
     1
102
RTVSPropertyOp46
 70
     1
102
RTVSPropertyOp47
 70
     1
102
RTVSPropertyOp48
 70
     1
102
RTVSPropertyOp49
 70
     1
102
RTVSPropertyOp50
 70
     1
102
RTVSPropertyOp51
 70
     0
102
RTVSPropertyOp52
 70
     0
102
RTVSPropertyOp53
 70
     1
102
RTVSPropertyOp54
 70
     1
102
RTVSPropertyOp55
 70
     1
102
RTVSPropertyOp56
 70
     1
102
RTVSPropertyOp57
 70
     1
102
RTVSPropertyOp58
 70
     1
102
RTVSPropertyOp59
 70
     1
102
RTVSPropertyOp60
 70
     1
102
RTVSPropertyOp61
 70
     1
102
RTVSPropertyOp62
 70
     1
  0
XRECORD
  5
87DE
102
{ACAD_REACTORS
330
87DD
102
}
330
87DD
100
AcDbXrecord
280
     1
102
RTVSPost2010Prop28
280
     0
102
RTVSPost2010PropOp28
 70
     1
102
RTVSPost2010Prop29
280
     1
102
RTVSPost2010PropOp29
 70
     1
102
RTVSPost2010Prop30
280
     1
102
RTVSPost2010PropOp30
 70
     1
102
RTVSPost2010Prop31
280
     0
102
RTVSPost2010PropOp31
 70
     1
102
RTVSPost2010Prop32
280
     0
102
RTVSPost2010PropOp32
 70
     1
102
RTVSPost2010Prop33
280
     0
102
RTVSPost2010PropOp33
 70
     1
102
RTVSPost2010Prop34
280
     0
102
RTVSPost2010PropOp34
 70
     1
102
RTVSPost2010Prop35
280
     0
102
RTVSPost2010PropOp35
 70
     1
102
RTVSPost2010Prop36
280
     0
102
RTVSPost2010PropOp36
 70
     1
102
RTVSPost2010Prop37
 90
       50
102
RTVSPost2010PropOp37
 70
     1
102
RTVSPost2010Prop38
140
0.0
102
RTVSPost2010PropOp38
 70
     1
102
RTVSPost2010Prop39
140
1.0
102
RTVSPost2010PropOp39
 70
     1
102
RTVSPost2010Prop40
 90
        0
102
RTVSPost2010PropOp40
 70
     1
102
RTVSPost2010Prop41ColorIndex
 90
       18
102
RTVSPost2010Prop41ColorRGB
 90
        0
102
RTVSPost2010PropOp41
 70
     1
102
RTVSPost2010Prop42
 90
       50
102
RTVSPost2010PropOp42
 70
     1
102
RTVSPost2010Prop43
 90
        3
102
RTVSPost2010PropOp43
 70
     1
102
RTVSPost2010Prop44ColorIndex
 90
        5
102
RTVSPost2010Prop44ColorRGB
 90
      255
102
RTVSPost2010PropOp44
 70
     1
102
RTVSPost2010Prop45
280
     0
102
RTVSPost2010PropOp45
 70
     1
102
RTVSPost2010Prop46
 90
       50
102
RTVSPost2010PropOp46
 70
     1
102
RTVSPost2010Prop47
 90
       50
102
RTVSPost2010PropOp47
 70
     1
102
RTVSPost2010Prop48
 90
       50
102
RTVSPost2010PropOp48
 70
     1
102
RTVSPost2010Prop49
280
     0
102
RTVSPost2010PropOp49
 70
     1
102
RTVSPost2010Prop50
 90
       50
102
RTVSPost2010PropOp50
 70
     1
102
RTVSPost2010Prop51ColorIndex
 90
      256
102
RTVSPost2010Prop51ColorRGB
 90
-16777216
102
RTVSPost2010PropOp51
 70
     0
102
RTVSPost2010Prop52
140
1.0
102
RTVSPost2010PropOp52
 70
     0
102
RTVSPost2010Prop53
 90
        2
102
RTVSPost2010PropOp53
 70
     1
102
RTVSPost2010Prop54
  1
strokes_ogs.tif
102
RTVSPost2010PropOp54
 70
     1
102
RTVSPost2010Prop55
280
     0
102
RTVSPost2010PropOp55
 70
     1
102
RTVSPost2010Prop56
140
1.0
102
RTVSPost2010PropOp56
 70
     1
102
RTVSPost2010Prop57
140
1.0
102
RTVSPost2010PropOp57
 70
     1
102
RTVSPropertyOp0
 70
     1
102
RTVSPropertyOp1
 70
     1
102
RTVSPropertyOp2
 70
     1
102
RTVSPropertyOp3
 70
     1
102
RTVSPropertyOp4
 70
     1
102
RTVSPropertyOp5
 70
     1
102
RTVSPropertyOp6
 70
     1
102
RTVSPropertyOp7
 70
     1
102
RTVSPropertyOp8
 70
     1
102
RTVSPropertyOp9
 70
     1
102
RTVSPropertyOp10
 70
     1
102
RTVSPropertyOp11
 70
     1
102
RTVSPropertyOp12
 70
     1
102
RTVSPropertyOp13
 70
     1
102
RTVSPropertyOp14
 70
     1
102
RTVSPropertyOp15
 70
     1
102
RTVSPropertyOp16
 70
     1
102
RTVSPropertyOp17
 70
     1
102
RTVSPropertyOp18
 70
     1
102
RTVSPropertyOp19
 70
     1
102
RTVSPropertyOp20
 70
     1
102
RTVSPropertyOp21
 70
     1
102
RTVSPropertyOp22
 70
     1
102
RTVSPropertyOp23
 70
     1
102
RTVSPropertyOp24
 70
     1
102
RTVSPropertyOp25
 70
     1
102
RTVSPropertyOp26
 70
     1
102
RTVSPropertyOp27
 70
     1
102
RTVSPropertyOp28
 70
     1
102
RTVSPropertyOp29
 70
     1
102
RTVSPropertyOp30
 70
     1
102
RTVSPropertyOp31
 70
     1
102
RTVSPropertyOp32
 70
     1
102
RTVSPropertyOp33
 70
     1
102
RTVSPropertyOp34
 70
     1
102
RTVSPropertyOp35
 70
     1
102
RTVSPropertyOp36
 70
     1
102
RTVSPropertyOp37
 70
     1
102
RTVSPropertyOp38
 70
     1
102
RTVSPropertyOp39
 70
     1
102
RTVSPropertyOp40
 70
     1
102
RTVSPropertyOp41
 70
     1
102
RTVSPropertyOp42
 70
     1
102
RTVSPropertyOp43
 70
     1
102
RTVSPropertyOp44
 70
     1
102
RTVSPropertyOp45
 70
     1
102
RTVSPropertyOp46
 70
     1
102
RTVSPropertyOp47
 70
     1
102
RTVSPropertyOp48
 70
     1
102
RTVSPropertyOp49
 70
     1
102
RTVSPropertyOp50
 70
     1
102
RTVSPropertyOp51
 70
     0
102
RTVSPropertyOp52
 70
     0
102
RTVSPropertyOp53
 70
     1
102
RTVSPropertyOp54
 70
     1
102
RTVSPropertyOp55
 70
     1
102
RTVSPropertyOp56
 70
     1
102
RTVSPropertyOp57
 70
     1
102
RTVSPropertyOp58
 70
     1
102
RTVSPropertyOp59
 70
     1
102
RTVSPropertyOp60
 70
     1
102
RTVSPropertyOp61
 70
     1
102
RTVSPropertyOp62
 70
     1
  0
XRECORD
  5
87E6
102
{ACAD_REACTORS
330
87E5
102
}
330
87E5
100
AcDbXrecord
280
     1
102
RTVSPost2010Prop28
280
     0
102
RTVSPost2010PropOp28
 70
     1
102
RTVSPost2010Prop29
280
     1
102
RTVSPost2010PropOp29
 70
     1
102
RTVSPost2010Prop30
280
     1
102
RTVSPost2010PropOp30
 70
     1
102
RTVSPost2010Prop31
280
     0
102
RTVSPost2010PropOp31
 70
     1
102
RTVSPost2010Prop32
280
     0
102
RTVSPost2010PropOp32
 70
     1
102
RTVSPost2010Prop33
280
     0
102
RTVSPost2010PropOp33
 70
     1
102
RTVSPost2010Prop34
280
     0
102
RTVSPost2010PropOp34
 70
     1
102
RTVSPost2010Prop35
280
     0
102
RTVSPost2010PropOp35
 70
     1
102
RTVSPost2010Prop36
280
     0
102
RTVSPost2010PropOp36
 70
     1
102
RTVSPost2010Prop37
 90
       50
102
RTVSPost2010PropOp37
 70
     1
102
RTVSPost2010Prop38
140
0.0
102
RTVSPost2010PropOp38
 70
     1
102
RTVSPost2010Prop39
140
1.0
102
RTVSPost2010PropOp39
 70
     1
102
RTVSPost2010Prop40
 90
        0
102
RTVSPost2010PropOp40
 70
     1
102
RTVSPost2010Prop41ColorIndex
 90
       18
102
RTVSPost2010Prop41ColorRGB
 90
        0
102
RTVSPost2010PropOp41
 70
     1
102
RTVSPost2010Prop42
 90
       50
102
RTVSPost2010PropOp42
 70
     1
102
RTVSPost2010Prop43
 90
        3
102
RTVSPost2010PropOp43
 70
     1
102
RTVSPost2010Prop44ColorIndex
 90
        5
102
RTVSPost2010Prop44ColorRGB
 90
      255
102
RTVSPost2010PropOp44
 70
     1
102
RTVSPost2010Prop45
280
     0
102
RTVSPost2010PropOp45
 70
     1
102
RTVSPost2010Prop46
 90
       50
102
RTVSPost2010PropOp46
 70
     1
102
RTVSPost2010Prop47
 90
       50
102
RTVSPost2010PropOp47
 70
     1
102
RTVSPost2010Prop48
 90
       50
102
RTVSPost2010PropOp48
 70
     1
102
RTVSPost2010Prop49
280
     0
102
RTVSPost2010PropOp49
 70
     1
102
RTVSPost2010Prop50
 90
       50
102
RTVSPost2010PropOp50
 70
     1
102
RTVSPost2010Prop51ColorIndex
 90
      256
102
RTVSPost2010Prop51ColorRGB
 90
-16777216
102
RTVSPost2010PropOp51
 70
     0
102
RTVSPost2010Prop52
140
1.0
102
RTVSPost2010PropOp52
 70
     0
102
RTVSPost2010Prop53
 90
        2
102
RTVSPost2010PropOp53
 70
     1
102
RTVSPost2010Prop54
  1
strokes_ogs.tif
102
RTVSPost2010PropOp54
 70
     1
102
RTVSPost2010Prop55
280
     0
102
RTVSPost2010PropOp55
 70
     1
102
RTVSPost2010Prop56
140
1.0
102
RTVSPost2010PropOp56
 70
     1
102
RTVSPost2010Prop57
140
1.0
102
RTVSPost2010PropOp57
 70
     1
102
RTVSPropertyOp0
 70
     1
102
RTVSPropertyOp1
 70
     1
102
RTVSPropertyOp2
 70
     1
102
RTVSPropertyOp3
 70
     1
102
RTVSPropertyOp4
 70
     1
102
RTVSPropertyOp5
 70
     1
102
RTVSPropertyOp6
 70
     1
102
RTVSPropertyOp7
 70
     1
102
RTVSPropertyOp8
 70
     1
102
RTVSPropertyOp9
 70
     1
102
RTVSPropertyOp10
 70
     1
102
RTVSPropertyOp11
 70
     1
102
RTVSPropertyOp12
 70
     1
102
RTVSPropertyOp13
 70
     1
102
RTVSPropertyOp14
 70
     1
102
RTVSPropertyOp15
 70
     1
102
RTVSPropertyOp16
 70
     1
102
RTVSPropertyOp17
 70
     1
102
RTVSPropertyOp18
 70
     1
102
RTVSPropertyOp19
 70
     1
102
RTVSPropertyOp20
 70
     1
102
RTVSPropertyOp21
 70
     1
102
RTVSPropertyOp22
 70
     1
102
RTVSPropertyOp23
 70
     1
102
RTVSPropertyOp24
 70
     1
102
RTVSPropertyOp25
 70
     1
102
RTVSPropertyOp26
 70
     1
102
RTVSPropertyOp27
 70
     1
102
RTVSPropertyOp28
 70
     1
102
RTVSPropertyOp29
 70
     1
102
RTVSPropertyOp30
 70
     1
102
RTVSPropertyOp31
 70
     1
102
RTVSPropertyOp32
 70
     1
102
RTVSPropertyOp33
 70
     1
102
RTVSPropertyOp34
 70
     1
102
RTVSPropertyOp35
 70
     1
102
RTVSPropertyOp36
 70
     1
102
RTVSPropertyOp37
 70
     1
102
RTVSPropertyOp38
 70
     1
102
RTVSPropertyOp39
 70
     1
102
RTVSPropertyOp40
 70
     1
102
RTVSPropertyOp41
 70
     1
102
RTVSPropertyOp42
 70
     1
102
RTVSPropertyOp43
 70
     1
102
RTVSPropertyOp44
 70
     1
102
RTVSPropertyOp45
 70
     1
102
RTVSPropertyOp46
 70
     1
102
RTVSPropertyOp47
 70
     1
102
RTVSPropertyOp48
 70
     1
102
RTVSPropertyOp49
 70
     1
102
RTVSPropertyOp50
 70
     1
102
RTVSPropertyOp51
 70
     0
102
RTVSPropertyOp52
 70
     0
102
RTVSPropertyOp53
 70
     1
102
RTVSPropertyOp54
 70
     1
102
RTVSPropertyOp55
 70
     1
102
RTVSPropertyOp56
 70
     1
102
RTVSPropertyOp57
 70
     1
102
RTVSPropertyOp58
 70
     1
102
RTVSPropertyOp59
 70
     1
102
RTVSPropertyOp60
 70
     1
102
RTVSPropertyOp61
 70
     1
102
RTVSPropertyOp62
 70
     1
  0
XRECORD
  5
87D8
102
{ACAD_REACTORS
330
87D7
102
}
330
87D7
100
AcDbXrecord
280
     1
102
RTVSPost2010Prop28
280
     0
102
RTVSPost2010PropOp28
 70
     1
102
RTVSPost2010Prop29
280
     1
102
RTVSPost2010PropOp29
 70
     1
102
RTVSPost2010Prop30
280
     1
102
RTVSPost2010PropOp30
 70
     1
102
RTVSPost2010Prop31
280
     0
102
RTVSPost2010PropOp31
 70
     1
102
RTVSPost2010Prop32
280
     0
102
RTVSPost2010PropOp32
 70
     1
102
RTVSPost2010Prop33
280
     0
102
RTVSPost2010PropOp33
 70
     1
102
RTVSPost2010Prop34
280
     0
102
RTVSPost2010PropOp34
 70
     1
102
RTVSPost2010Prop35
280
     0
102
RTVSPost2010PropOp35
 70
     1
102
RTVSPost2010Prop36
280
     0
102
RTVSPost2010PropOp36
 70
     1
102
RTVSPost2010Prop37
 90
       50
102
RTVSPost2010PropOp37
 70
     1
102
RTVSPost2010Prop38
140
0.0
102
RTVSPost2010PropOp38
 70
     1
102
RTVSPost2010Prop39
140
1.0
102
RTVSPost2010PropOp39
 70
     1
102
RTVSPost2010Prop40
 90
        0
102
RTVSPost2010PropOp40
 70
     1
102
RTVSPost2010Prop41ColorIndex
 90
       18
102
RTVSPost2010Prop41ColorRGB
 90
        0
102
RTVSPost2010PropOp41
 70
     1
102
RTVSPost2010Prop42
 90
       50
102
RTVSPost2010PropOp42
 70
     1
102
RTVSPost2010Prop43
 90
        3
102
RTVSPost2010PropOp43
 70
     1
102
RTVSPost2010Prop44ColorIndex
 90
        5
102
RTVSPost2010Prop44ColorRGB
 90
      255
102
RTVSPost2010PropOp44
 70
     1
102
RTVSPost2010Prop45
280
     0
102
RTVSPost2010PropOp45
 70
     1
102
RTVSPost2010Prop46
 90
       50
102
RTVSPost2010PropOp46
 70
     1
102
RTVSPost2010Prop47
 90
       50
102
RTVSPost2010PropOp47
 70
     1
102
RTVSPost2010Prop48
 90
       50
102
RTVSPost2010PropOp48
 70
     1
102
RTVSPost2010Prop49
280
     0
102
RTVSPost2010PropOp49
 70
     1
102
RTVSPost2010Prop50
 90
       50
102
RTVSPost2010PropOp50
 70
     1
102
RTVSPost2010Prop51ColorIndex
 90
      256
102
RTVSPost2010Prop51ColorRGB
 90
-16777216
102
RTVSPost2010PropOp51
 70
     0
102
RTVSPost2010Prop52
140
1.0
102
RTVSPost2010PropOp52
 70
     0
102
RTVSPost2010Prop53
 90
        2
102
RTVSPost2010PropOp53
 70
     1
102
RTVSPost2010Prop54
  1
strokes_ogs.tif
102
RTVSPost2010PropOp54
 70
     1
102
RTVSPost2010Prop55
280
     0
102
RTVSPost2010PropOp55
 70
     1
102
RTVSPost2010Prop56
140
1.0
102
RTVSPost2010PropOp56
 70
     1
102
RTVSPost2010Prop57
140
1.0
102
RTVSPost2010PropOp57
 70
     1
102
RTVSPropertyOp0
 70
     1
102
RTVSPropertyOp1
 70
     1
102
RTVSPropertyOp2
 70
     1
102
RTVSPropertyOp3
 70
     1
102
RTVSPropertyOp4
 70
     1
102
RTVSPropertyOp5
 70
     1
102
RTVSPropertyOp6
 70
     1
102
RTVSPropertyOp7
 70
     1
102
RTVSPropertyOp8
 70
     1
102
RTVSPropertyOp9
 70
     1
102
RTVSPropertyOp10
 70
     1
102
RTVSPropertyOp11
 70
     1
102
RTVSPropertyOp12
 70
     1
102
RTVSPropertyOp13
 70
     1
102
RTVSPropertyOp14
 70
     1
102
RTVSPropertyOp15
 70
     1
102
RTVSPropertyOp16
 70
     1
102
RTVSPropertyOp17
 70
     1
102
RTVSPropertyOp18
 70
     1
102
RTVSPropertyOp19
 70
     1
102
RTVSPropertyOp20
 70
     1
102
RTVSPropertyOp21
 70
     1
102
RTVSPropertyOp22
 70
     1
102
RTVSPropertyOp23
 70
     1
102
RTVSPropertyOp24
 70
     1
102
RTVSPropertyOp25
 70
     1
102
RTVSPropertyOp26
 70
     1
102
RTVSPropertyOp27
 70
     1
102
RTVSPropertyOp28
 70
     1
102
RTVSPropertyOp29
 70
     1
102
RTVSPropertyOp30
 70
     1
102
RTVSPropertyOp31
 70
     1
102
RTVSPropertyOp32
 70
     1
102
RTVSPropertyOp33
 70
     1
102
RTVSPropertyOp34
 70
     1
102
RTVSPropertyOp35
 70
     1
102
RTVSPropertyOp36
 70
     1
102
RTVSPropertyOp37
 70
     1
102
RTVSPropertyOp38
 70
     1
102
RTVSPropertyOp39
 70
     1
102
RTVSPropertyOp40
 70
     1
102
RTVSPropertyOp41
 70
     1
102
RTVSPropertyOp42
 70
     1
102
RTVSPropertyOp43
 70
     1
102
RTVSPropertyOp44
 70
     1
102
RTVSPropertyOp45
 70
     1
102
RTVSPropertyOp46
 70
     1
102
RTVSPropertyOp47
 70
     1
102
RTVSPropertyOp48
 70
     1
102
RTVSPropertyOp49
 70
     1
102
RTVSPropertyOp50
 70
     1
102
RTVSPropertyOp51
 70
     0
102
RTVSPropertyOp52
 70
     0
102
RTVSPropertyOp53
 70
     1
102
RTVSPropertyOp54
 70
     1
102
RTVSPropertyOp55
 70
     1
102
RTVSPropertyOp56
 70
     1
102
RTVSPropertyOp57
 70
     1
102
RTVSPropertyOp58
 70
     1
102
RTVSPropertyOp59
 70
     1
102
RTVSPropertyOp60
 70
     1
102
RTVSPropertyOp61
 70
     1
102
RTVSPropertyOp62
 70
     1
  0
XRECORD
  5
87DC
102
{ACAD_REACTORS
330
87DB
102
}
330
87DB
100
AcDbXrecord
280
     1
102
RTVSPost2010Prop28
280
     0
102
RTVSPost2010PropOp28
 70
     1
102
RTVSPost2010Prop29
280
     1
102
RTVSPost2010PropOp29
 70
     1
102
RTVSPost2010Prop30
280
     1
102
RTVSPost2010PropOp30
 70
     1
102
RTVSPost2010Prop31
280
     0
102
RTVSPost2010PropOp31
 70
     1
102
RTVSPost2010Prop32
280
     0
102
RTVSPost2010PropOp32
 70
     1
102
RTVSPost2010Prop33
280
     0
102
RTVSPost2010PropOp33
 70
     1
102
RTVSPost2010Prop34
280
     0
102
RTVSPost2010PropOp34
 70
     1
102
RTVSPost2010Prop35
280
     0
102
RTVSPost2010PropOp35
 70
     1
102
RTVSPost2010Prop36
280
     0
102
RTVSPost2010PropOp36
 70
     1
102
RTVSPost2010Prop37
 90
       50
102
RTVSPost2010PropOp37
 70
     1
102
RTVSPost2010Prop38
140
0.0
102
RTVSPost2010PropOp38
 70
     1
102
RTVSPost2010Prop39
140
1.0
102
RTVSPost2010PropOp39
 70
     1
102
RTVSPost2010Prop40
 90
        0
102
RTVSPost2010PropOp40
 70
     1
102
RTVSPost2010Prop41ColorIndex
 90
       18
102
RTVSPost2010Prop41ColorRGB
 90
        0
102
RTVSPost2010PropOp41
 70
     1
102
RTVSPost2010Prop42
 90
       50
102
RTVSPost2010PropOp42
 70
     1
102
RTVSPost2010Prop43
 90
        3
102
RTVSPost2010PropOp43
 70
     1
102
RTVSPost2010Prop44ColorIndex
 90
        5
102
RTVSPost2010Prop44ColorRGB
 90
      255
102
RTVSPost2010PropOp44
 70
     1
102
RTVSPost2010Prop45
280
     0
102
RTVSPost2010PropOp45
 70
     1
102
RTVSPost2010Prop46
 90
       50
102
RTVSPost2010PropOp46
 70
     1
102
RTVSPost2010Prop47
 90
       50
102
RTVSPost2010PropOp47
 70
     1
102
RTVSPost2010Prop48
 90
       50
102
RTVSPost2010PropOp48
 70
     1
102
RTVSPost2010Prop49
280
     0
102
RTVSPost2010PropOp49
 70
     1
102
RTVSPost2010Prop50
 90
       50
102
RTVSPost2010PropOp50
 70
     1
102
RTVSPost2010Prop51ColorIndex
 90
      256
102
RTVSPost2010Prop51ColorRGB
 90
-16777216
102
RTVSPost2010PropOp51
 70
     0
102
RTVSPost2010Prop52
140
1.0
102
RTVSPost2010PropOp52
 70
     0
102
RTVSPost2010Prop53
 90
        2
102
RTVSPost2010PropOp53
 70
     1
102
RTVSPost2010Prop54
  1
strokes_ogs.tif
102
RTVSPost2010PropOp54
 70
     1
102
RTVSPost2010Prop55
280
     0
102
RTVSPost2010PropOp55
 70
     1
102
RTVSPost2010Prop56
140
1.0
102
RTVSPost2010PropOp56
 70
     1
102
RTVSPost2010Prop57
140
1.0
102
RTVSPost2010PropOp57
 70
     1
102
RTVSPropertyOp0
 70
     1
102
RTVSPropertyOp1
 70
     1
102
RTVSPropertyOp2
 70
     1
102
RTVSPropertyOp3
 70
     1
102
RTVSPropertyOp4
 70
     1
102
RTVSPropertyOp5
 70
     1
102
RTVSPropertyOp6
 70
     1
102
RTVSPropertyOp7
 70
     1
102
RTVSPropertyOp8
 70
     1
102
RTVSPropertyOp9
 70
     1
102
RTVSPropertyOp10
 70
     1
102
RTVSPropertyOp11
 70
     1
102
RTVSPropertyOp12
 70
     1
102
RTVSPropertyOp13
 70
     1
102
RTVSPropertyOp14
 70
     1
102
RTVSPropertyOp15
 70
     1
102
RTVSPropertyOp16
 70
     1
102
RTVSPropertyOp17
 70
     1
102
RTVSPropertyOp18
 70
     1
102
RTVSPropertyOp19
 70
     1
102
RTVSPropertyOp20
 70
     1
102
RTVSPropertyOp21
 70
     1
102
RTVSPropertyOp22
 70
     1
102
RTVSPropertyOp23
 70
     1
102
RTVSPropertyOp24
 70
     1
102
RTVSPropertyOp25
 70
     1
102
RTVSPropertyOp26
 70
     1
102
RTVSPropertyOp27
 70
     1
102
RTVSPropertyOp28
 70
     1
102
RTVSPropertyOp29
 70
     1
102
RTVSPropertyOp30
 70
     1
102
RTVSPropertyOp31
 70
     1
102
RTVSPropertyOp32
 70
     1
102
RTVSPropertyOp33
 70
     1
102
RTVSPropertyOp34
 70
     1
102
RTVSPropertyOp35
 70
     1
102
RTVSPropertyOp36
 70
     1
102
RTVSPropertyOp37
 70
     1
102
RTVSPropertyOp38
 70
     1
102
RTVSPropertyOp39
 70
     1
102
RTVSPropertyOp40
 70
     1
102
RTVSPropertyOp41
 70
     1
102
RTVSPropertyOp42
 70
     1
102
RTVSPropertyOp43
 70
     1
102
RTVSPropertyOp44
 70
     1
102
RTVSPropertyOp45
 70
     1
102
RTVSPropertyOp46
 70
     1
102
RTVSPropertyOp47
 70
     1
102
RTVSPropertyOp48
 70
     1
102
RTVSPropertyOp49
 70
     1
102
RTVSPropertyOp50
 70
     1
102
RTVSPropertyOp51
 70
     0
102
RTVSPropertyOp52
 70
     0
102
RTVSPropertyOp53
 70
     1
102
RTVSPropertyOp54
 70
     1
102
RTVSPropertyOp55
 70
     1
102
RTVSPropertyOp56
 70
     1
102
RTVSPropertyOp57
 70
     1
102
RTVSPropertyOp58
 70
     1
102
RTVSPropertyOp59
 70
     1
102
RTVSPropertyOp60
 70
     1
102
RTVSPropertyOp61
 70
     1
102
RTVSPropertyOp62
 70
     1
  0
XRECORD
  5
87F6
102
{ACAD_REACTORS
330
87F5
102
}
330
87F5
100
AcDbXrecord
280
     1
102
RTVSPost2010Prop28
280
     0
102
RTVSPost2010PropOp28
 70
     1
102
RTVSPost2010Prop29
280
     1
102
RTVSPost2010PropOp29
 70
     1
102
RTVSPost2010Prop30
280
     1
102
RTVSPost2010PropOp30
 70
     1
102
RTVSPost2010Prop31
280
     0
102
RTVSPost2010PropOp31
 70
     1
102
RTVSPost2010Prop32
280
     0
102
RTVSPost2010PropOp32
 70
     1
102
RTVSPost2010Prop33
280
     0
102
RTVSPost2010PropOp33
 70
     1
102
RTVSPost2010Prop34
280
     0
102
RTVSPost2010PropOp34
 70
     1
102
RTVSPost2010Prop35
280
     0
102
RTVSPost2010PropOp35
 70
     1
102
RTVSPost2010Prop36
280
     0
102
RTVSPost2010PropOp36
 70
     1
102
RTVSPost2010Prop37
 90
       50
102
RTVSPost2010PropOp37
 70
     0
102
RTVSPost2010Prop38
140
0.0
102
RTVSPost2010PropOp38
 70
     0
102
RTVSPost2010Prop39
140
1.0
102
RTVSPost2010PropOp39
 70
     0
102
RTVSPost2010Prop40
 90
        0
102
RTVSPost2010PropOp40
 70
     0
102
RTVSPost2010Prop41ColorIndex
 90
       18
102
RTVSPost2010Prop41ColorRGB
 90
        0
102
RTVSPost2010PropOp41
 70
     0
102
RTVSPost2010Prop42
 90
       50
102
RTVSPost2010PropOp42
 70
     0
102
RTVSPost2010Prop43
 90
        3
102
RTVSPost2010PropOp43
 70
     0
102
RTVSPost2010Prop44ColorIndex
 90
        5
102
RTVSPost2010Prop44ColorRGB
 90
      255
102
RTVSPost2010PropOp44
 70
     0
102
RTVSPost2010Prop45
280
     0
102
RTVSPost2010PropOp45
 70
     1
102
RTVSPost2010Prop46
 90
       50
102
RTVSPost2010PropOp46
 70
     0
102
RTVSPost2010Prop47
 90
       50
102
RTVSPost2010PropOp47
 70
     0
102
RTVSPost2010Prop48
 90
       50
102
RTVSPost2010PropOp48
 70
     0
102
RTVSPost2010Prop49
280
     0
102
RTVSPost2010PropOp49
 70
     1
102
RTVSPost2010Prop50
 90
       50
102
RTVSPost2010PropOp50
 70
     0
102
RTVSPost2010Prop51ColorIndex
 90
      256
102
RTVSPost2010Prop51ColorRGB
 90
-16777216
102
RTVSPost2010PropOp51
 70
     0
102
RTVSPost2010Prop52
140
1.0
102
RTVSPost2010PropOp52
 70
     0
102
RTVSPost2010Prop53
 90
        2
102
RTVSPost2010PropOp53
 70
     0
102
RTVSPost2010Prop54
  1
strokes_ogs.tif
102
RTVSPost2010PropOp54
 70
     0
102
RTVSPost2010Prop55
280
     0
102
RTVSPost2010PropOp55
 70
     1
102
RTVSPost2010Prop56
140
1.0
102
RTVSPost2010PropOp56
 70
     0
102
RTVSPost2010Prop57
140
1.0
102
RTVSPost2010PropOp57
 70
     0
102
RTVSPropertyOp0
 70
     0
102
RTVSPropertyOp1
 70
     0
102
RTVSPropertyOp2
 70
     0
102
RTVSPropertyOp3
 70
     0
102
RTVSPropertyOp4
 70
     0
102
RTVSPropertyOp5
 70
     0
102
RTVSPropertyOp6
 70
     0
102
RTVSPropertyOp7
 70
     0
102
RTVSPropertyOp8
 70
     0
102
RTVSPropertyOp9
 70
     0
102
RTVSPropertyOp10
 70
     0
102
RTVSPropertyOp11
 70
     0
102
RTVSPropertyOp12
 70
     0
102
RTVSPropertyOp13
 70
     0
102
RTVSPropertyOp14
 70
     2
102
RTVSPropertyOp15
 70
     0
102
RTVSPropertyOp16
 70
     0
102
RTVSPropertyOp17
 70
     0
102
RTVSPropertyOp18
 70
     0
102
RTVSPropertyOp19
 70
     0
102
RTVSPropertyOp20
 70
     0
102
RTVSPropertyOp21
 70
     0
102
RTVSPropertyOp22
 70
     0
102
RTVSPropertyOp23
 70
     0
102
RTVSPropertyOp24
 70
     0
102
RTVSPropertyOp25
 70
     0
102
RTVSPropertyOp26
 70
     0
102
RTVSPropertyOp27
 70
     0
102
RTVSPropertyOp28
 70
     1
102
RTVSPropertyOp29
 70
     1
102
RTVSPropertyOp30
 70
     1
102
RTVSPropertyOp31
 70
     1
102
RTVSPropertyOp32
 70
     1
102
RTVSPropertyOp33
 70
     1
102
RTVSPropertyOp34
 70
     1
102
RTVSPropertyOp35
 70
     1
102
RTVSPropertyOp36
 70
     1
102
RTVSPropertyOp37
 70
     0
102
RTVSPropertyOp38
 70
     0
102
RTVSPropertyOp39
 70
     0
102
RTVSPropertyOp40
 70
     0
102
RTVSPropertyOp41
 70
     0
102
RTVSPropertyOp42
 70
     0
102
RTVSPropertyOp43
 70
     0
102
RTVSPropertyOp44
 70
     0
102
RTVSPropertyOp45
 70
     1
102
RTVSPropertyOp46
 70
     0
102
RTVSPropertyOp47
 70
     0
102
RTVSPropertyOp48
 70
     0
102
RTVSPropertyOp49
 70
     1
102
RTVSPropertyOp50
 70
     0
102
RTVSPropertyOp51
 70
     0
102
RTVSPropertyOp52
 70
     0
102
RTVSPropertyOp53
 70
     0
102
RTVSPropertyOp54
 70
     0
102
RTVSPropertyOp55
 70
     1
102
RTVSPropertyOp56
 70
     0
102
RTVSPropertyOp57
 70
     0
102
RTVSPropertyOp58
 70
     0
102
RTVSPropertyOp59
 70
     0
102
RTVSPropertyOp60
 70
     0
102
RTVSPropertyOp61
 70
     0
102
RTVSPropertyOp62
 70
     0
  0
XRECORD
  5
87E4
102
{ACAD_REACTORS
330
87E3
102
}
330
87E3
100
AcDbXrecord
280
     1
102
RTVSPost2010Prop28
280
     0
102
RTVSPost2010PropOp28
 70
     1
102
RTVSPost2010Prop29
280
     1
102
RTVSPost2010PropOp29
 70
     1
102
RTVSPost2010Prop30
280
     1
102
RTVSPost2010PropOp30
 70
     1
102
RTVSPost2010Prop31
280
     0
102
RTVSPost2010PropOp31
 70
     1
102
RTVSPost2010Prop32
280
     0
102
RTVSPost2010PropOp32
 70
     1
102
RTVSPost2010Prop33
280
     0
102
RTVSPost2010PropOp33
 70
     1
102
RTVSPost2010Prop34
280
     0
102
RTVSPost2010PropOp34
 70
     1
102
RTVSPost2010Prop35
280
     0
102
RTVSPost2010PropOp35
 70
     1
102
RTVSPost2010Prop36
280
     0
102
RTVSPost2010PropOp36
 70
     1
102
RTVSPost2010Prop37
 90
       50
102
RTVSPost2010PropOp37
 70
     1
102
RTVSPost2010Prop38
140
0.0
102
RTVSPost2010PropOp38
 70
     1
102
RTVSPost2010Prop39
140
1.0
102
RTVSPost2010PropOp39
 70
     1
102
RTVSPost2010Prop40
 90
        0
102
RTVSPost2010PropOp40
 70
     1
102
RTVSPost2010Prop41ColorIndex
 90
       18
102
RTVSPost2010Prop41ColorRGB
 90
        0
102
RTVSPost2010PropOp41
 70
     1
102
RTVSPost2010Prop42
 90
       50
102
RTVSPost2010PropOp42
 70
     1
102
RTVSPost2010Prop43
 90
        3
102
RTVSPost2010PropOp43
 70
     1
102
RTVSPost2010Prop44ColorIndex
 90
        5
102
RTVSPost2010Prop44ColorRGB
 90
      255
102
RTVSPost2010PropOp44
 70
     1
102
RTVSPost2010Prop45
280
     0
102
RTVSPost2010PropOp45
 70
     1
102
RTVSPost2010Prop46
 90
       50
102
RTVSPost2010PropOp46
 70
     1
102
RTVSPost2010Prop47
 90
       50
102
RTVSPost2010PropOp47
 70
     1
102
RTVSPost2010Prop48
 90
       50
102
RTVSPost2010PropOp48
 70
     1
102
RTVSPost2010Prop49
280
     0
102
RTVSPost2010PropOp49
 70
     1
102
RTVSPost2010Prop50
 90
       50
102
RTVSPost2010PropOp50
 70
     1
102
RTVSPost2010Prop51ColorIndex
 90
      256
102
RTVSPost2010Prop51ColorRGB
 90
-16777216
102
RTVSPost2010PropOp51
 70
     0
102
RTVSPost2010Prop52
140
1.0
102
RTVSPost2010PropOp52
 70
     0
102
RTVSPost2010Prop53
 90
        2
102
RTVSPost2010PropOp53
 70
     1
102
RTVSPost2010Prop54
  1
strokes_ogs.tif
102
RTVSPost2010PropOp54
 70
     1
102
RTVSPost2010Prop55
280
     0
102
RTVSPost2010PropOp55
 70
     1
102
RTVSPost2010Prop56
140
1.0
102
RTVSPost2010PropOp56
 70
     1
102
RTVSPost2010Prop57
140
1.0
102
RTVSPost2010PropOp57
 70
     1
102
RTVSPropertyOp0
 70
     1
102
RTVSPropertyOp1
 70
     1
102
RTVSPropertyOp2
 70
     1
102
RTVSPropertyOp3
 70
     1
102
RTVSPropertyOp4
 70
     1
102
RTVSPropertyOp5
 70
     1
102
RTVSPropertyOp6
 70
     1
102
RTVSPropertyOp7
 70
     1
102
RTVSPropertyOp8
 70
     1
102
RTVSPropertyOp9
 70
     1
102
RTVSPropertyOp10
 70
     1
102
RTVSPropertyOp11
 70
     1
102
RTVSPropertyOp12
 70
     1
102
RTVSPropertyOp13
 70
     1
102
RTVSPropertyOp14
 70
     1
102
RTVSPropertyOp15
 70
     1
102
RTVSPropertyOp16
 70
     1
102
RTVSPropertyOp17
 70
     1
102
RTVSPropertyOp18
 70
     1
102
RTVSPropertyOp19
 70
     1
102
RTVSPropertyOp20
 70
     1
102
RTVSPropertyOp21
 70
     1
102
RTVSPropertyOp22
 70
     1
102
RTVSPropertyOp23
 70
     1
102
RTVSPropertyOp24
 70
     1
102
RTVSPropertyOp25
 70
     1
102
RTVSPropertyOp26
 70
     1
102
RTVSPropertyOp27
 70
     1
102
RTVSPropertyOp28
 70
     1
102
RTVSPropertyOp29
 70
     1
102
RTVSPropertyOp30
 70
     1
102
RTVSPropertyOp31
 70
     1
102
RTVSPropertyOp32
 70
     1
102
RTVSPropertyOp33
 70
     1
102
RTVSPropertyOp34
 70
     1
102
RTVSPropertyOp35
 70
     1
102
RTVSPropertyOp36
 70
     1
102
RTVSPropertyOp37
 70
     1
102
RTVSPropertyOp38
 70
     1
102
RTVSPropertyOp39
 70
     1
102
RTVSPropertyOp40
 70
     1
102
RTVSPropertyOp41
 70
     1
102
RTVSPropertyOp42
 70
     1
102
RTVSPropertyOp43
 70
     1
102
RTVSPropertyOp44
 70
     1
102
RTVSPropertyOp45
 70
     1
102
RTVSPropertyOp46
 70
     1
102
RTVSPropertyOp47
 70
     1
102
RTVSPropertyOp48
 70
     1
102
RTVSPropertyOp49
 70
     1
102
RTVSPropertyOp50
 70
     1
102
RTVSPropertyOp51
 70
     0
102
RTVSPropertyOp52
 70
     0
102
RTVSPropertyOp53
 70
     1
102
RTVSPropertyOp54
 70
     1
102
RTVSPropertyOp55
 70
     1
102
RTVSPropertyOp56
 70
     1
102
RTVSPropertyOp57
 70
     1
102
RTVSPropertyOp58
 70
     1
102
RTVSPropertyOp59
 70
     1
102
RTVSPropertyOp60
 70
     1
102
RTVSPropertyOp61
 70
     1
102
RTVSPropertyOp62
 70
     1
  0
XRECORD
  5
87C8
102
{ACAD_REACTORS
330
87C7
102
}
330
87C7
100
AcDbXrecord
280
     1
102
RTVSPost2010Prop28
280
     0
102
RTVSPost2010PropOp28
 70
     1
102
RTVSPost2010Prop29
280
     1
102
RTVSPost2010PropOp29
 70
     1
102
RTVSPost2010Prop30
280
     1
102
RTVSPost2010PropOp30
 70
     1
102
RTVSPost2010Prop31
280
     0
102
RTVSPost2010PropOp31
 70
     1
102
RTVSPost2010Prop32
280
     0
102
RTVSPost2010PropOp32
 70
     1
102
RTVSPost2010Prop33
280
     0
102
RTVSPost2010PropOp33
 70
     1
102
RTVSPost2010Prop34
280
     0
102
RTVSPost2010PropOp34
 70
     1
102
RTVSPost2010Prop35
280
     0
102
RTVSPost2010PropOp35
 70
     1
102
RTVSPost2010Prop36
280
     0
102
RTVSPost2010PropOp36
 70
     1
102
RTVSPost2010Prop37
 90
       50
102
RTVSPost2010PropOp37
 70
     1
102
RTVSPost2010Prop38
140
0.0
102
RTVSPost2010PropOp38
 70
     1
102
RTVSPost2010Prop39
140
1.0
102
RTVSPost2010PropOp39
 70
     1
102
RTVSPost2010Prop40
 90
        0
102
RTVSPost2010PropOp40
 70
     1
102
RTVSPost2010Prop41ColorIndex
 90
       18
102
RTVSPost2010Prop41ColorRGB
 90
        0
102
RTVSPost2010PropOp41
 70
     1
102
RTVSPost2010Prop42
 90
       50
102
RTVSPost2010PropOp42
 70
     1
102
RTVSPost2010Prop43
 90
        3
102
RTVSPost2010PropOp43
 70
     1
102
RTVSPost2010Prop44ColorIndex
 90
        5
102
RTVSPost2010Prop44ColorRGB
 90
      255
102
RTVSPost2010PropOp44
 70
     1
102
RTVSPost2010Prop45
280
     0
102
RTVSPost2010PropOp45
 70
     1
102
RTVSPost2010Prop46
 90
       50
102
RTVSPost2010PropOp46
 70
     1
102
RTVSPost2010Prop47
 90
       50
102
RTVSPost2010PropOp47
 70
     1
102
RTVSPost2010Prop48
 90
       50
102
RTVSPost2010PropOp48
 70
     1
102
RTVSPost2010Prop49
280
     0
102
RTVSPost2010PropOp49
 70
     1
102
RTVSPost2010Prop50
 90
       50
102
RTVSPost2010PropOp50
 70
     1
102
RTVSPost2010Prop51ColorIndex
 90
      256
102
RTVSPost2010Prop51ColorRGB
 90
-16777216
102
RTVSPost2010PropOp51
 70
     0
102
RTVSPost2010Prop52
140
1.0
102
RTVSPost2010PropOp52
 70
     0
102
RTVSPost2010Prop53
 90
        2
102
RTVSPost2010PropOp53
 70
     1
102
RTVSPost2010Prop54
  1
strokes_ogs.tif
102
RTVSPost2010PropOp54
 70
     1
102
RTVSPost2010Prop55
280
     0
102
RTVSPost2010PropOp55
 70
     1
102
RTVSPost2010Prop56
140
1.0
102
RTVSPost2010PropOp56
 70
     1
102
RTVSPost2010Prop57
140
1.0
102
RTVSPost2010PropOp57
 70
     1
102
RTVSPropertyOp0
 70
     1
102
RTVSPropertyOp1
 70
     1
102
RTVSPropertyOp2
 70
     1
102
RTVSPropertyOp3
 70
     1
102
RTVSPropertyOp4
 70
     1
102
RTVSPropertyOp5
 70
     1
102
RTVSPropertyOp6
 70
     1
102
RTVSPropertyOp7
 70
     1
102
RTVSPropertyOp8
 70
     1
102
RTVSPropertyOp9
 70
     1
102
RTVSPropertyOp10
 70
     1
102
RTVSPropertyOp11
 70
     1
102
RTVSPropertyOp12
 70
     1
102
RTVSPropertyOp13
 70
     1
102
RTVSPropertyOp14
 70
     1
102
RTVSPropertyOp15
 70
     1
102
RTVSPropertyOp16
 70
     1
102
RTVSPropertyOp17
 70
     1
102
RTVSPropertyOp18
 70
     1
102
RTVSPropertyOp19
 70
     1
102
RTVSPropertyOp20
 70
     1
102
RTVSPropertyOp21
 70
     1
102
RTVSPropertyOp22
 70
     1
102
RTVSPropertyOp23
 70
     1
102
RTVSPropertyOp24
 70
     1
102
RTVSPropertyOp25
 70
     1
102
RTVSPropertyOp26
 70
     1
102
RTVSPropertyOp27
 70
     1
102
RTVSPropertyOp28
 70
     1
102
RTVSPropertyOp29
 70
     1
102
RTVSPropertyOp30
 70
     1
102
RTVSPropertyOp31
 70
     1
102
RTVSPropertyOp32
 70
     1
102
RTVSPropertyOp33
 70
     1
102
RTVSPropertyOp34
 70
     1
102
RTVSPropertyOp35
 70
     1
102
RTVSPropertyOp36
 70
     1
102
RTVSPropertyOp37
 70
     1
102
RTVSPropertyOp38
 70
     1
102
RTVSPropertyOp39
 70
     1
102
RTVSPropertyOp40
 70
     1
102
RTVSPropertyOp41
 70
     1
102
RTVSPropertyOp42
 70
     1
102
RTVSPropertyOp43
 70
     1
102
RTVSPropertyOp44
 70
     1
102
RTVSPropertyOp45
 70
     1
102
RTVSPropertyOp46
 70
     1
102
RTVSPropertyOp47
 70
     1
102
RTVSPropertyOp48
 70
     1
102
RTVSPropertyOp49
 70
     1
102
RTVSPropertyOp50
 70
     1
102
RTVSPropertyOp51
 70
     0
102
RTVSPropertyOp52
 70
     0
102
RTVSPropertyOp53
 70
     1
102
RTVSPropertyOp54
 70
     1
102
RTVSPropertyOp55
 70
     1
102
RTVSPropertyOp56
 70
     1
102
RTVSPropertyOp57
 70
     1
102
RTVSPropertyOp58
 70
     1
102
RTVSPropertyOp59
 70
     1
102
RTVSPropertyOp60
 70
     1
102
RTVSPropertyOp61
 70
     1
102
RTVSPropertyOp62
 70
     1
  0
XRECORD
  5
87CA
102
{ACAD_REACTORS
330
87C9
102
}
330
87C9
100
AcDbXrecord
280
     1
102
RTVSPost2010Prop28
280
     0
102
RTVSPost2010PropOp28
 70
     1
102
RTVSPost2010Prop29
280
     1
102
RTVSPost2010PropOp29
 70
     1
102
RTVSPost2010Prop30
280
     1
102
RTVSPost2010PropOp30
 70
     1
102
RTVSPost2010Prop31
280
     0
102
RTVSPost2010PropOp31
 70
     1
102
RTVSPost2010Prop32
280
     0
102
RTVSPost2010PropOp32
 70
     1
102
RTVSPost2010Prop33
280
     0
102
RTVSPost2010PropOp33
 70
     1
102
RTVSPost2010Prop34
280
     0
102
RTVSPost2010PropOp34
 70
     1
102
RTVSPost2010Prop35
280
     0
102
RTVSPost2010PropOp35
 70
     1
102
RTVSPost2010Prop36
280
     0
102
RTVSPost2010PropOp36
 70
     1
102
RTVSPost2010Prop37
 90
       50
102
RTVSPost2010PropOp37
 70
     1
102
RTVSPost2010Prop38
140
0.0
102
RTVSPost2010PropOp38
 70
     1
102
RTVSPost2010Prop39
140
1.0
102
RTVSPost2010PropOp39
 70
     1
102
RTVSPost2010Prop40
 90
        0
102
RTVSPost2010PropOp40
 70
     1
102
RTVSPost2010Prop41ColorIndex
 90
       18
102
RTVSPost2010Prop41ColorRGB
 90
        0
102
RTVSPost2010PropOp41
 70
     1
102
RTVSPost2010Prop42
 90
       50
102
RTVSPost2010PropOp42
 70
     1
102
RTVSPost2010Prop43
 90
        3
102
RTVSPost2010PropOp43
 70
     1
102
RTVSPost2010Prop44ColorIndex
 90
        5
102
RTVSPost2010Prop44ColorRGB
 90
      255
102
RTVSPost2010PropOp44
 70
     1
102
RTVSPost2010Prop45
280
     0
102
RTVSPost2010PropOp45
 70
     1
102
RTVSPost2010Prop46
 90
       50
102
RTVSPost2010PropOp46
 70
     1
102
RTVSPost2010Prop47
 90
       50
102
RTVSPost2010PropOp47
 70
     1
102
RTVSPost2010Prop48
 90
       50
102
RTVSPost2010PropOp48
 70
     1
102
RTVSPost2010Prop49
280
     0
102
RTVSPost2010PropOp49
 70
     1
102
RTVSPost2010Prop50
 90
       50
102
RTVSPost2010PropOp50
 70
     1
102
RTVSPost2010Prop51ColorIndex
 90
      256
102
RTVSPost2010Prop51ColorRGB
 90
-16777216
102
RTVSPost2010PropOp51
 70
     0
102
RTVSPost2010Prop52
140
1.0
102
RTVSPost2010PropOp52
 70
     0
102
RTVSPost2010Prop53
 90
        2
102
RTVSPost2010PropOp53
 70
     1
102
RTVSPost2010Prop54
  1
strokes_ogs.tif
102
RTVSPost2010PropOp54
 70
     1
102
RTVSPost2010Prop55
280
     0
102
RTVSPost2010PropOp55
 70
     1
102
RTVSPost2010Prop56
140
1.0
102
RTVSPost2010PropOp56
 70
     1
102
RTVSPost2010Prop57
140
1.0
102
RTVSPost2010PropOp57
 70
     1
102
RTVSPropertyOp0
 70
     1
102
RTVSPropertyOp1
 70
     1
102
RTVSPropertyOp2
 70
     1
102
RTVSPropertyOp3
 70
     1
102
RTVSPropertyOp4
 70
     1
102
RTVSPropertyOp5
 70
     1
102
RTVSPropertyOp6
 70
     1
102
RTVSPropertyOp7
 70
     1
102
RTVSPropertyOp8
 70
     1
102
RTVSPropertyOp9
 70
     1
102
RTVSPropertyOp10
 70
     1
102
RTVSPropertyOp11
 70
     1
102
RTVSPropertyOp12
 70
     1
102
RTVSPropertyOp13
 70
     1
102
RTVSPropertyOp14
 70
     1
102
RTVSPropertyOp15
 70
     1
102
RTVSPropertyOp16
 70
     1
102
RTVSPropertyOp17
 70
     1
102
RTVSPropertyOp18
 70
     1
102
RTVSPropertyOp19
 70
     1
102
RTVSPropertyOp20
 70
     1
102
RTVSPropertyOp21
 70
     1
102
RTVSPropertyOp22
 70
     1
102
RTVSPropertyOp23
 70
     1
102
RTVSPropertyOp24
 70
     1
102
RTVSPropertyOp25
 70
     1
102
RTVSPropertyOp26
 70
     1
102
RTVSPropertyOp27
 70
     1
102
RTVSPropertyOp28
 70
     1
102
RTVSPropertyOp29
 70
     1
102
RTVSPropertyOp30
 70
     1
102
RTVSPropertyOp31
 70
     1
102
RTVSPropertyOp32
 70
     1
102
RTVSPropertyOp33
 70
     1
102
RTVSPropertyOp34
 70
     1
102
RTVSPropertyOp35
 70
     1
102
RTVSPropertyOp36
 70
     1
102
RTVSPropertyOp37
 70
     1
102
RTVSPropertyOp38
 70
     1
102
RTVSPropertyOp39
 70
     1
102
RTVSPropertyOp40
 70
     1
102
RTVSPropertyOp41
 70
     1
102
RTVSPropertyOp42
 70
     1
102
RTVSPropertyOp43
 70
     1
102
RTVSPropertyOp44
 70
     1
102
RTVSPropertyOp45
 70
     1
102
RTVSPropertyOp46
 70
     1
102
RTVSPropertyOp47
 70
     1
102
RTVSPropertyOp48
 70
     1
102
RTVSPropertyOp49
 70
     1
102
RTVSPropertyOp50
 70
     1
102
RTVSPropertyOp51
 70
     0
102
RTVSPropertyOp52
 70
     0
102
RTVSPropertyOp53
 70
     1
102
RTVSPropertyOp54
 70
     1
102
RTVSPropertyOp55
 70
     1
102
RTVSPropertyOp56
 70
     1
102
RTVSPropertyOp57
 70
     1
102
RTVSPropertyOp58
 70
     1
102
RTVSPropertyOp59
 70
     1
102
RTVSPropertyOp60
 70
     1
102
RTVSPropertyOp61
 70
     1
102
RTVSPropertyOp62
 70
     1
  0
XRECORD
  5
87CC
102
{ACAD_REACTORS
330
87CB
102
}
330
87CB
100
AcDbXrecord
280
     1
102
RTVSPost2010Prop28
280
     0
102
RTVSPost2010PropOp28
 70
     1
102
RTVSPost2010Prop29
280
     1
102
RTVSPost2010PropOp29
 70
     1
102
RTVSPost2010Prop30
280
     1
102
RTVSPost2010PropOp30
 70
     1
102
RTVSPost2010Prop31
280
     0
102
RTVSPost2010PropOp31
 70
     1
102
RTVSPost2010Prop32
280
     0
102
RTVSPost2010PropOp32
 70
     1
102
RTVSPost2010Prop33
280
     0
102
RTVSPost2010PropOp33
 70
     1
102
RTVSPost2010Prop34
280
     0
102
RTVSPost2010PropOp34
 70
     1
102
RTVSPost2010Prop35
280
     0
102
RTVSPost2010PropOp35
 70
     1
102
RTVSPost2010Prop36
280
     0
102
RTVSPost2010PropOp36
 70
     1
102
RTVSPost2010Prop37
 90
       50
102
RTVSPost2010PropOp37
 70
     1
102
RTVSPost2010Prop38
140
0.0
102
RTVSPost2010PropOp38
 70
     1
102
RTVSPost2010Prop39
140
1.0
102
RTVSPost2010PropOp39
 70
     1
102
RTVSPost2010Prop40
 90
        0
102
RTVSPost2010PropOp40
 70
     1
102
RTVSPost2010Prop41ColorIndex
 90
       18
102
RTVSPost2010Prop41ColorRGB
 90
        0
102
RTVSPost2010PropOp41
 70
     1
102
RTVSPost2010Prop42
 90
       50
102
RTVSPost2010PropOp42
 70
     1
102
RTVSPost2010Prop43
 90
        3
102
RTVSPost2010PropOp43
 70
     1
102
RTVSPost2010Prop44ColorIndex
 90
        5
102
RTVSPost2010Prop44ColorRGB
 90
      255
102
RTVSPost2010PropOp44
 70
     1
102
RTVSPost2010Prop45
280
     0
102
RTVSPost2010PropOp45
 70
     1
102
RTVSPost2010Prop46
 90
       50
102
RTVSPost2010PropOp46
 70
     1
102
RTVSPost2010Prop47
 90
       50
102
RTVSPost2010PropOp47
 70
     1
102
RTVSPost2010Prop48
 90
       50
102
RTVSPost2010PropOp48
 70
     1
102
RTVSPost2010Prop49
280
     0
102
RTVSPost2010PropOp49
 70
     1
102
RTVSPost2010Prop50
 90
       50
102
RTVSPost2010PropOp50
 70
     1
102
RTVSPost2010Prop51ColorIndex
 90
      256
102
RTVSPost2010Prop51ColorRGB
 90
-16777216
102
RTVSPost2010PropOp51
 70
     0
102
RTVSPost2010Prop52
140
1.0
102
RTVSPost2010PropOp52
 70
     0
102
RTVSPost2010Prop53
 90
        2
102
RTVSPost2010PropOp53
 70
     1
102
RTVSPost2010Prop54
  1
strokes_ogs.tif
102
RTVSPost2010PropOp54
 70
     1
102
RTVSPost2010Prop55
280
     0
102
RTVSPost2010PropOp55
 70
     1
102
RTVSPost2010Prop56
140
1.0
102
RTVSPost2010PropOp56
 70
     1
102
RTVSPost2010Prop57
140
1.0
102
RTVSPost2010PropOp57
 70
     1
102
RTVSPropertyOp0
 70
     1
102
RTVSPropertyOp1
 70
     1
102
RTVSPropertyOp2
 70
     1
102
RTVSPropertyOp3
 70
     1
102
RTVSPropertyOp4
 70
     1
102
RTVSPropertyOp5
 70
     1
102
RTVSPropertyOp6
 70
     1
102
RTVSPropertyOp7
 70
     1
102
RTVSPropertyOp8
 70
     1
102
RTVSPropertyOp9
 70
     1
102
RTVSPropertyOp10
 70
     1
102
RTVSPropertyOp11
 70
     1
102
RTVSPropertyOp12
 70
     1
102
RTVSPropertyOp13
 70
     1
102
RTVSPropertyOp14
 70
     1
102
RTVSPropertyOp15
 70
     1
102
RTVSPropertyOp16
 70
     1
102
RTVSPropertyOp17
 70
     1
102
RTVSPropertyOp18
 70
     1
102
RTVSPropertyOp19
 70
     1
102
RTVSPropertyOp20
 70
     1
102
RTVSPropertyOp21
 70
     1
102
RTVSPropertyOp22
 70
     1
102
RTVSPropertyOp23
 70
     1
102
RTVSPropertyOp24
 70
     1
102
RTVSPropertyOp25
 70
     1
102
RTVSPropertyOp26
 70
     1
102
RTVSPropertyOp27
 70
     1
102
RTVSPropertyOp28
 70
     1
102
RTVSPropertyOp29
 70
     1
102
RTVSPropertyOp30
 70
     1
102
RTVSPropertyOp31
 70
     1
102
RTVSPropertyOp32
 70
     1
102
RTVSPropertyOp33
 70
     1
102
RTVSPropertyOp34
 70
     1
102
RTVSPropertyOp35
 70
     1
102
RTVSPropertyOp36
 70
     1
102
RTVSPropertyOp37
 70
     1
102
RTVSPropertyOp38
 70
     1
102
RTVSPropertyOp39
 70
     1
102
RTVSPropertyOp40
 70
     1
102
RTVSPropertyOp41
 70
     1
102
RTVSPropertyOp42
 70
     1
102
RTVSPropertyOp43
 70
     1
102
RTVSPropertyOp44
 70
     1
102
RTVSPropertyOp45
 70
     1
102
RTVSPropertyOp46
 70
     1
102
RTVSPropertyOp47
 70
     1
102
RTVSPropertyOp48
 70
     1
102
RTVSPropertyOp49
 70
     1
102
RTVSPropertyOp50
 70
     1
102
RTVSPropertyOp51
 70
     0
102
RTVSPropertyOp52
 70
     0
102
RTVSPropertyOp53
 70
     1
102
RTVSPropertyOp54
 70
     1
102
RTVSPropertyOp55
 70
     1
102
RTVSPropertyOp56
 70
     1
102
RTVSPropertyOp57
 70
     1
102
RTVSPropertyOp58
 70
     1
102
RTVSPropertyOp59
 70
     1
102
RTVSPropertyOp60
 70
     1
102
RTVSPropertyOp61
 70
     1
102
RTVSPropertyOp62
 70
     1
  0
XRECORD
  5
87CE
102
{ACAD_REACTORS
330
87CD
102
}
330
87CD
100
AcDbXrecord
280
     1
102
RTVSPost2010Prop28
280
     0
102
RTVSPost2010PropOp28
 70
     1
102
RTVSPost2010Prop29
280
     1
102
RTVSPost2010PropOp29
 70
     1
102
RTVSPost2010Prop30
280
     1
102
RTVSPost2010PropOp30
 70
     1
102
RTVSPost2010Prop31
280
     0
102
RTVSPost2010PropOp31
 70
     1
102
RTVSPost2010Prop32
280
     0
102
RTVSPost2010PropOp32
 70
     1
102
RTVSPost2010Prop33
280
     0
102
RTVSPost2010PropOp33
 70
     1
102
RTVSPost2010Prop34
280
     0
102
RTVSPost2010PropOp34
 70
     1
102
RTVSPost2010Prop35
280
     0
102
RTVSPost2010PropOp35
 70
     1
102
RTVSPost2010Prop36
280
     0
102
RTVSPost2010PropOp36
 70
     1
102
RTVSPost2010Prop37
 90
       50
102
RTVSPost2010PropOp37
 70
     1
102
RTVSPost2010Prop38
140
0.0
102
RTVSPost2010PropOp38
 70
     1
102
RTVSPost2010Prop39
140
1.0
102
RTVSPost2010PropOp39
 70
     1
102
RTVSPost2010Prop40
 90
        0
102
RTVSPost2010PropOp40
 70
     1
102
RTVSPost2010Prop41ColorIndex
 90
       18
102
RTVSPost2010Prop41ColorRGB
 90
        0
102
RTVSPost2010PropOp41
 70
     1
102
RTVSPost2010Prop42
 90
       50
102
RTVSPost2010PropOp42
 70
     1
102
RTVSPost2010Prop43
 90
        3
102
RTVSPost2010PropOp43
 70
     1
102
RTVSPost2010Prop44ColorIndex
 90
        5
102
RTVSPost2010Prop44ColorRGB
 90
      255
102
RTVSPost2010PropOp44
 70
     1
102
RTVSPost2010Prop45
280
     0
102
RTVSPost2010PropOp45
 70
     1
102
RTVSPost2010Prop46
 90
       50
102
RTVSPost2010PropOp46
 70
     1
102
RTVSPost2010Prop47
 90
       50
102
RTVSPost2010PropOp47
 70
     1
102
RTVSPost2010Prop48
 90
       50
102
RTVSPost2010PropOp48
 70
     1
102
RTVSPost2010Prop49
280
     0
102
RTVSPost2010PropOp49
 70
     1
102
RTVSPost2010Prop50
 90
       50
102
RTVSPost2010PropOp50
 70
     1
102
RTVSPost2010Prop51ColorIndex
 90
      256
102
RTVSPost2010Prop51ColorRGB
 90
-16777216
102
RTVSPost2010PropOp51
 70
     0
102
RTVSPost2010Prop52
140
1.0
102
RTVSPost2010PropOp52
 70
     0
102
RTVSPost2010Prop53
 90
        2
102
RTVSPost2010PropOp53
 70
     1
102
RTVSPost2010Prop54
  1
strokes_ogs.tif
102
RTVSPost2010PropOp54
 70
     1
102
RTVSPost2010Prop55
280
     0
102
RTVSPost2010PropOp55
 70
     1
102
RTVSPost2010Prop56
140
1.0
102
RTVSPost2010PropOp56
 70
     1
102
RTVSPost2010Prop57
140
1.0
102
RTVSPost2010PropOp57
 70
     1
102
RTVSPropertyOp0
 70
     1
102
RTVSPropertyOp1
 70
     1
102
RTVSPropertyOp2
 70
     1
102
RTVSPropertyOp3
 70
     1
102
RTVSPropertyOp4
 70
     1
102
RTVSPropertyOp5
 70
     1
102
RTVSPropertyOp6
 70
     1
102
RTVSPropertyOp7
 70
     1
102
RTVSPropertyOp8
 70
     1
102
RTVSPropertyOp9
 70
     1
102
RTVSPropertyOp10
 70
     1
102
RTVSPropertyOp11
 70
     1
102
RTVSPropertyOp12
 70
     1
102
RTVSPropertyOp13
 70
     1
102
RTVSPropertyOp14
 70
     1
102
RTVSPropertyOp15
 70
     1
102
RTVSPropertyOp16
 70
     1
102
RTVSPropertyOp17
 70
     1
102
RTVSPropertyOp18
 70
     1
102
RTVSPropertyOp19
 70
     1
102
RTVSPropertyOp20
 70
     1
102
RTVSPropertyOp21
 70
     1
102
RTVSPropertyOp22
 70
     1
102
RTVSPropertyOp23
 70
     1
102
RTVSPropertyOp24
 70
     1
102
RTVSPropertyOp25
 70
     1
102
RTVSPropertyOp26
 70
     1
102
RTVSPropertyOp27
 70
     1
102
RTVSPropertyOp28
 70
     1
102
RTVSPropertyOp29
 70
     1
102
RTVSPropertyOp30
 70
     1
102
RTVSPropertyOp31
 70
     1
102
RTVSPropertyOp32
 70
     1
102
RTVSPropertyOp33
 70
     1
102
RTVSPropertyOp34
 70
     1
102
RTVSPropertyOp35
 70
     1
102
RTVSPropertyOp36
 70
     1
102
RTVSPropertyOp37
 70
     1
102
RTVSPropertyOp38
 70
     1
102
RTVSPropertyOp39
 70
     1
102
RTVSPropertyOp40
 70
     1
102
RTVSPropertyOp41
 70
     1
102
RTVSPropertyOp42
 70
     1
102
RTVSPropertyOp43
 70
     1
102
RTVSPropertyOp44
 70
     1
102
RTVSPropertyOp45
 70
     1
102
RTVSPropertyOp46
 70
     1
102
RTVSPropertyOp47
 70
     1
102
RTVSPropertyOp48
 70
     1
102
RTVSPropertyOp49
 70
     1
102
RTVSPropertyOp50
 70
     1
102
RTVSPropertyOp51
 70
     0
102
RTVSPropertyOp52
 70
     0
102
RTVSPropertyOp53
 70
     1
102
RTVSPropertyOp54
 70
     1
102
RTVSPropertyOp55
 70
     1
102
RTVSPropertyOp56
 70
     1
102
RTVSPropertyOp57
 70
     1
102
RTVSPropertyOp58
 70
     1
102
RTVSPropertyOp59
 70
     1
102
RTVSPropertyOp60
 70
     1
102
RTVSPropertyOp61
 70
     1
102
RTVSPropertyOp62
 70
     1
  0
XRECORD
  5
87D6
102
{ACAD_REACTORS
330
87D5
102
}
330
87D5
100
AcDbXrecord
280
     1
102
RTVSPost2010Prop28
280
     0
102
RTVSPost2010PropOp28
 70
     1
102
RTVSPost2010Prop29
280
     1
102
RTVSPost2010PropOp29
 70
     1
102
RTVSPost2010Prop30
280
     1
102
RTVSPost2010PropOp30
 70
     1
102
RTVSPost2010Prop31
280
     0
102
RTVSPost2010PropOp31
 70
     1
102
RTVSPost2010Prop32
280
     0
102
RTVSPost2010PropOp32
 70
     1
102
RTVSPost2010Prop33
280
     0
102
RTVSPost2010PropOp33
 70
     1
102
RTVSPost2010Prop34
280
     0
102
RTVSPost2010PropOp34
 70
     1
102
RTVSPost2010Prop35
280
     0
102
RTVSPost2010PropOp35
 70
     1
102
RTVSPost2010Prop36
280
     0
102
RTVSPost2010PropOp36
 70
     1
102
RTVSPost2010Prop37
 90
       50
102
RTVSPost2010PropOp37
 70
     1
102
RTVSPost2010Prop38
140
0.0
102
RTVSPost2010PropOp38
 70
     1
102
RTVSPost2010Prop39
140
1.0
102
RTVSPost2010PropOp39
 70
     1
102
RTVSPost2010Prop40
 90
        0
102
RTVSPost2010PropOp40
 70
     1
102
RTVSPost2010Prop41ColorIndex
 90
       18
102
RTVSPost2010Prop41ColorRGB
 90
        0
102
RTVSPost2010PropOp41
 70
     1
102
RTVSPost2010Prop42
 90
       50
102
RTVSPost2010PropOp42
 70
     1
102
RTVSPost2010Prop43
 90
        3
102
RTVSPost2010PropOp43
 70
     1
102
RTVSPost2010Prop44ColorIndex
 90
        5
102
RTVSPost2010Prop44ColorRGB
 90
      255
102
RTVSPost2010PropOp44
 70
     1
102
RTVSPost2010Prop45
280
     0
102
RTVSPost2010PropOp45
 70
     1
102
RTVSPost2010Prop46
 90
       50
102
RTVSPost2010PropOp46
 70
     1
102
RTVSPost2010Prop47
 90
       50
102
RTVSPost2010PropOp47
 70
     1
102
RTVSPost2010Prop48
 90
       50
102
RTVSPost2010PropOp48
 70
     1
102
RTVSPost2010Prop49
280
     0
102
RTVSPost2010PropOp49
 70
     1
102
RTVSPost2010Prop50
 90
       50
102
RTVSPost2010PropOp50
 70
     1
102
RTVSPost2010Prop51ColorIndex
 90
      256
102
RTVSPost2010Prop51ColorRGB
 90
-16777216
102
RTVSPost2010PropOp51
 70
     0
102
RTVSPost2010Prop52
140
1.0
102
RTVSPost2010PropOp52
 70
     0
102
RTVSPost2010Prop53
 90
        2
102
RTVSPost2010PropOp53
 70
     1
102
RTVSPost2010Prop54
  1
strokes_ogs.tif
102
RTVSPost2010PropOp54
 70
     1
102
RTVSPost2010Prop55
280
     0
102
RTVSPost2010PropOp55
 70
     1
102
RTVSPost2010Prop56
140
1.0
102
RTVSPost2010PropOp56
 70
     1
102
RTVSPost2010Prop57
140
1.0
102
RTVSPost2010PropOp57
 70
     1
102
RTVSPropertyOp0
 70
     1
102
RTVSPropertyOp1
 70
     1
102
RTVSPropertyOp2
 70
     1
102
RTVSPropertyOp3
 70
     1
102
RTVSPropertyOp4
 70
     1
102
RTVSPropertyOp5
 70
     1
102
RTVSPropertyOp6
 70
     1
102
RTVSPropertyOp7
 70
     1
102
RTVSPropertyOp8
 70
     1
102
RTVSPropertyOp9
 70
     1
102
RTVSPropertyOp10
 70
     1
102
RTVSPropertyOp11
 70
     1
102
RTVSPropertyOp12
 70
     1
102
RTVSPropertyOp13
 70
     1
102
RTVSPropertyOp14
 70
     1
102
RTVSPropertyOp15
 70
     1
102
RTVSPropertyOp16
 70
     1
102
RTVSPropertyOp17
 70
     1
102
RTVSPropertyOp18
 70
     1
102
RTVSPropertyOp19
 70
     1
102
RTVSPropertyOp20
 70
     1
102
RTVSPropertyOp21
 70
     1
102
RTVSPropertyOp22
 70
     1
102
RTVSPropertyOp23
 70
     1
102
RTVSPropertyOp24
 70
     1
102
RTVSPropertyOp25
 70
     1
102
RTVSPropertyOp26
 70
     1
102
RTVSPropertyOp27
 70
     1
102
RTVSPropertyOp28
 70
     1
102
RTVSPropertyOp29
 70
     1
102
RTVSPropertyOp30
 70
     1
102
RTVSPropertyOp31
 70
     1
102
RTVSPropertyOp32
 70
     1
102
RTVSPropertyOp33
 70
     1
102
RTVSPropertyOp34
 70
     1
102
RTVSPropertyOp35
 70
     1
102
RTVSPropertyOp36
 70
     1
102
RTVSPropertyOp37
 70
     1
102
RTVSPropertyOp38
 70
     1
102
RTVSPropertyOp39
 70
     1
102
RTVSPropertyOp40
 70
     1
102
RTVSPropertyOp41
 70
     1
102
RTVSPropertyOp42
 70
     1
102
RTVSPropertyOp43
 70
     1
102
RTVSPropertyOp44
 70
     1
102
RTVSPropertyOp45
 70
     1
102
RTVSPropertyOp46
 70
     1
102
RTVSPropertyOp47
 70
     1
102
RTVSPropertyOp48
 70
     1
102
RTVSPropertyOp49
 70
     1
102
RTVSPropertyOp50
 70
     1
102
RTVSPropertyOp51
 70
     0
102
RTVSPropertyOp52
 70
     0
102
RTVSPropertyOp53
 70
     1
102
RTVSPropertyOp54
 70
     1
102
RTVSPropertyOp55
 70
     1
102
RTVSPropertyOp56
 70
     1
102
RTVSPropertyOp57
 70
     1
102
RTVSPropertyOp58
 70
     1
102
RTVSPropertyOp59
 70
     1
102
RTVSPropertyOp60
 70
     1
102
RTVSPropertyOp61
 70
     1
102
RTVSPropertyOp62
 70
     1
  0
XRECORD
  5
87F2
102
{ACAD_REACTORS
330
87F1
102
}
330
87F1
100
AcDbXrecord
280
     1
102
RTVSPost2010Prop28
280
     0
102
RTVSPost2010PropOp28
 70
     1
102
RTVSPost2010Prop29
280
     1
102
RTVSPost2010PropOp29
 70
     1
102
RTVSPost2010Prop30
280
     1
102
RTVSPost2010PropOp30
 70
     1
102
RTVSPost2010Prop31
280
     0
102
RTVSPost2010PropOp31
 70
     1
102
RTVSPost2010Prop32
280
     0
102
RTVSPost2010PropOp32
 70
     1
102
RTVSPost2010Prop33
280
     0
102
RTVSPost2010PropOp33
 70
     1
102
RTVSPost2010Prop34
280
     0
102
RTVSPost2010PropOp34
 70
     1
102
RTVSPost2010Prop35
280
     0
102
RTVSPost2010PropOp35
 70
     1
102
RTVSPost2010Prop36
280
     0
102
RTVSPost2010PropOp36
 70
     1
102
RTVSPost2010Prop37
 90
       50
102
RTVSPost2010PropOp37
 70
     0
102
RTVSPost2010Prop38
140
0.0
102
RTVSPost2010PropOp38
 70
     0
102
RTVSPost2010Prop39
140
1.0
102
RTVSPost2010PropOp39
 70
     0
102
RTVSPost2010Prop40
 90
        0
102
RTVSPost2010PropOp40
 70
     0
102
RTVSPost2010Prop41ColorIndex
 90
       18
102
RTVSPost2010Prop41ColorRGB
 90
        0
102
RTVSPost2010PropOp41
 70
     0
102
RTVSPost2010Prop42
 90
       50
102
RTVSPost2010PropOp42
 70
     0
102
RTVSPost2010Prop43
 90
        3
102
RTVSPost2010PropOp43
 70
     0
102
RTVSPost2010Prop44ColorIndex
 90
        5
102
RTVSPost2010Prop44ColorRGB
 90
      255
102
RTVSPost2010PropOp44
 70
     0
102
RTVSPost2010Prop45
280
     0
102
RTVSPost2010PropOp45
 70
     1
102
RTVSPost2010Prop46
 90
       50
102
RTVSPost2010PropOp46
 70
     0
102
RTVSPost2010Prop47
 90
       50
102
RTVSPost2010PropOp47
 70
     0
102
RTVSPost2010Prop48
 90
       50
102
RTVSPost2010PropOp48
 70
     0
102
RTVSPost2010Prop49
280
     0
102
RTVSPost2010PropOp49
 70
     1
102
RTVSPost2010Prop50
 90
       50
102
RTVSPost2010PropOp50
 70
     0
102
RTVSPost2010Prop51ColorIndex
 90
      256
102
RTVSPost2010Prop51ColorRGB
 90
-16777216
102
RTVSPost2010PropOp51
 70
     0
102
RTVSPost2010Prop52
140
1.0
102
RTVSPost2010PropOp52
 70
     0
102
RTVSPost2010Prop53
 90
        2
102
RTVSPost2010PropOp53
 70
     0
102
RTVSPost2010Prop54
  1
strokes_ogs.tif
102
RTVSPost2010PropOp54
 70
     0
102
RTVSPost2010Prop55
280
     0
102
RTVSPost2010PropOp55
 70
     1
102
RTVSPost2010Prop56
140
1.0
102
RTVSPost2010PropOp56
 70
     0
102
RTVSPost2010Prop57
140
1.0
102
RTVSPost2010PropOp57
 70
     0
102
RTVSPropertyOp0
 70
     0
102
RTVSPropertyOp1
 70
     0
102
RTVSPropertyOp2
 70
     0
102
RTVSPropertyOp3
 70
     0
102
RTVSPropertyOp4
 70
     0
102
RTVSPropertyOp5
 70
     0
102
RTVSPropertyOp6
 70
     0
102
RTVSPropertyOp7
 70
     0
102
RTVSPropertyOp8
 70
     0
102
RTVSPropertyOp9
 70
     0
102
RTVSPropertyOp10
 70
     0
102
RTVSPropertyOp11
 70
     0
102
RTVSPropertyOp12
 70
     0
102
RTVSPropertyOp13
 70
     0
102
RTVSPropertyOp14
 70
     2
102
RTVSPropertyOp15
 70
     0
102
RTVSPropertyOp16
 70
     0
102
RTVSPropertyOp17
 70
     0
102
RTVSPropertyOp18
 70
     0
102
RTVSPropertyOp19
 70
     0
102
RTVSPropertyOp20
 70
     0
102
RTVSPropertyOp21
 70
     0
102
RTVSPropertyOp22
 70
     0
102
RTVSPropertyOp23
 70
     0
102
RTVSPropertyOp24
 70
     0
102
RTVSPropertyOp25
 70
     0
102
RTVSPropertyOp26
 70
     0
102
RTVSPropertyOp27
 70
     0
102
RTVSPropertyOp28
 70
     1
102
RTVSPropertyOp29
 70
     1
102
RTVSPropertyOp30
 70
     1
102
RTVSPropertyOp31
 70
     1
102
RTVSPropertyOp32
 70
     1
102
RTVSPropertyOp33
 70
     1
102
RTVSPropertyOp34
 70
     1
102
RTVSPropertyOp35
 70
     1
102
RTVSPropertyOp36
 70
     1
102
RTVSPropertyOp37
 70
     0
102
RTVSPropertyOp38
 70
     0
102
RTVSPropertyOp39
 70
     0
102
RTVSPropertyOp40
 70
     0
102
RTVSPropertyOp41
 70
     0
102
RTVSPropertyOp42
 70
     0
102
RTVSPropertyOp43
 70
     0
102
RTVSPropertyOp44
 70
     0
102
RTVSPropertyOp45
 70
     1
102
RTVSPropertyOp46
 70
     0
102
RTVSPropertyOp47
 70
     0
102
RTVSPropertyOp48
 70
     0
102
RTVSPropertyOp49
 70
     1
102
RTVSPropertyOp50
 70
     0
102
RTVSPropertyOp51
 70
     0
102
RTVSPropertyOp52
 70
     0
102
RTVSPropertyOp53
 70
     0
102
RTVSPropertyOp54
 70
     0
102
RTVSPropertyOp55
 70
     1
102
RTVSPropertyOp56
 70
     0
102
RTVSPropertyOp57
 70
     0
102
RTVSPropertyOp58
 70
     0
102
RTVSPropertyOp59
 70
     0
102
RTVSPropertyOp60
 70
     0
102
RTVSPropertyOp61
 70
     0
102
RTVSPropertyOp62
 70
     0
  0
XRECORD
  5
87E2
102
{ACAD_REACTORS
330
87E1
102
}
330
87E1
100
AcDbXrecord
280
     1
102
RTVSPost2010Prop28
280
     0
102
RTVSPost2010PropOp28
 70
     1
102
RTVSPost2010Prop29
280
     1
102
RTVSPost2010PropOp29
 70
     1
102
RTVSPost2010Prop30
280
     1
102
RTVSPost2010PropOp30
 70
     1
102
RTVSPost2010Prop31
280
     0
102
RTVSPost2010PropOp31
 70
     1
102
RTVSPost2010Prop32
280
     0
102
RTVSPost2010PropOp32
 70
     1
102
RTVSPost2010Prop33
280
     0
102
RTVSPost2010PropOp33
 70
     1
102
RTVSPost2010Prop34
280
     0
102
RTVSPost2010PropOp34
 70
     1
102
RTVSPost2010Prop35
280
     0
102
RTVSPost2010PropOp35
 70
     1
102
RTVSPost2010Prop36
280
     0
102
RTVSPost2010PropOp36
 70
     1
102
RTVSPost2010Prop37
 90
       50
102
RTVSPost2010PropOp37
 70
     1
102
RTVSPost2010Prop38
140
0.0
102
RTVSPost2010PropOp38
 70
     1
102
RTVSPost2010Prop39
140
1.0
102
RTVSPost2010PropOp39
 70
     1
102
RTVSPost2010Prop40
 90
        0
102
RTVSPost2010PropOp40
 70
     1
102
RTVSPost2010Prop41ColorIndex
 90
       18
102
RTVSPost2010Prop41ColorRGB
 90
        0
102
RTVSPost2010PropOp41
 70
     1
102
RTVSPost2010Prop42
 90
       50
102
RTVSPost2010PropOp42
 70
     1
102
RTVSPost2010Prop43
 90
        3
102
RTVSPost2010PropOp43
 70
     1
102
RTVSPost2010Prop44ColorIndex
 90
        5
102
RTVSPost2010Prop44ColorRGB
 90
      255
102
RTVSPost2010PropOp44
 70
     1
102
RTVSPost2010Prop45
280
     0
102
RTVSPost2010PropOp45
 70
     1
102
RTVSPost2010Prop46
 90
       50
102
RTVSPost2010PropOp46
 70
     1
102
RTVSPost2010Prop47
 90
       50
102
RTVSPost2010PropOp47
 70
     1
102
RTVSPost2010Prop48
 90
       50
102
RTVSPost2010PropOp48
 70
     1
102
RTVSPost2010Prop49
280
     0
102
RTVSPost2010PropOp49
 70
     1
102
RTVSPost2010Prop50
 90
       50
102
RTVSPost2010PropOp50
 70
     1
102
RTVSPost2010Prop51ColorIndex
 90
      256
102
RTVSPost2010Prop51ColorRGB
 90
-16777216
102
RTVSPost2010PropOp51
 70
     0
102
RTVSPost2010Prop52
140
1.0
102
RTVSPost2010PropOp52
 70
     0
102
RTVSPost2010Prop53
 90
        2
102
RTVSPost2010PropOp53
 70
     1
102
RTVSPost2010Prop54
  1
strokes_ogs.tif
102
RTVSPost2010PropOp54
 70
     1
102
RTVSPost2010Prop55
280
     0
102
RTVSPost2010PropOp55
 70
     1
102
RTVSPost2010Prop56
140
1.0
102
RTVSPost2010PropOp56
 70
     1
102
RTVSPost2010Prop57
140
1.0
102
RTVSPost2010PropOp57
 70
     1
102
RTVSPropertyOp0
 70
     1
102
RTVSPropertyOp1
 70
     1
102
RTVSPropertyOp2
 70
     1
102
RTVSPropertyOp3
 70
     1
102
RTVSPropertyOp4
 70
     1
102
RTVSPropertyOp5
 70
     1
102
RTVSPropertyOp6
 70
     1
102
RTVSPropertyOp7
 70
     1
102
RTVSPropertyOp8
 70
     1
102
RTVSPropertyOp9
 70
     1
102
RTVSPropertyOp10
 70
     1
102
RTVSPropertyOp11
 70
     1
102
RTVSPropertyOp12
 70
     1
102
RTVSPropertyOp13
 70
     1
102
RTVSPropertyOp14
 70
     1
102
RTVSPropertyOp15
 70
     1
102
RTVSPropertyOp16
 70
     1
102
RTVSPropertyOp17
 70
     1
102
RTVSPropertyOp18
 70
     1
102
RTVSPropertyOp19
 70
     1
102
RTVSPropertyOp20
 70
     1
102
RTVSPropertyOp21
 70
     1
102
RTVSPropertyOp22
 70
     1
102
RTVSPropertyOp23
 70
     1
102
RTVSPropertyOp24
 70
     1
102
RTVSPropertyOp25
 70
     1
102
RTVSPropertyOp26
 70
     1
102
RTVSPropertyOp27
 70
     1
102
RTVSPropertyOp28
 70
     1
102
RTVSPropertyOp29
 70
     1
102
RTVSPropertyOp30
 70
     1
102
RTVSPropertyOp31
 70
     1
102
RTVSPropertyOp32
 70
     1
102
RTVSPropertyOp33
 70
     1
102
RTVSPropertyOp34
 70
     1
102
RTVSPropertyOp35
 70
     1
102
RTVSPropertyOp36
 70
     1
102
RTVSPropertyOp37
 70
     1
102
RTVSPropertyOp38
 70
     1
102
RTVSPropertyOp39
 70
     1
102
RTVSPropertyOp40
 70
     1
102
RTVSPropertyOp41
 70
     1
102
RTVSPropertyOp42
 70
     1
102
RTVSPropertyOp43
 70
     1
102
RTVSPropertyOp44
 70
     1
102
RTVSPropertyOp45
 70
     1
102
RTVSPropertyOp46
 70
     1
102
RTVSPropertyOp47
 70
     1
102
RTVSPropertyOp48
 70
     1
102
RTVSPropertyOp49
 70
     1
102
RTVSPropertyOp50
 70
     1
102
RTVSPropertyOp51
 70
     0
102
RTVSPropertyOp52
 70
     0
102
RTVSPropertyOp53
 70
     1
102
RTVSPropertyOp54
 70
     1
102
RTVSPropertyOp55
 70
     1
102
RTVSPropertyOp56
 70
     1
102
RTVSPropertyOp57
 70
     1
102
RTVSPropertyOp58
 70
     1
102
RTVSPropertyOp59
 70
     1
102
RTVSPropertyOp60
 70
     1
102
RTVSPropertyOp61
 70
     1
102
RTVSPropertyOp62
 70
     1
  0
XRECORD
  5
87F4
102
{ACAD_REACTORS
330
87F3
102
}
330
87F3
100
AcDbXrecord
280
     1
102
RTVSPost2010Prop28
280
     0
102
RTVSPost2010PropOp28
 70
     1
102
RTVSPost2010Prop29
280
     1
102
RTVSPost2010PropOp29
 70
     1
102
RTVSPost2010Prop30
280
     1
102
RTVSPost2010PropOp30
 70
     1
102
RTVSPost2010Prop31
280
     0
102
RTVSPost2010PropOp31
 70
     1
102
RTVSPost2010Prop32
280
     0
102
RTVSPost2010PropOp32
 70
     1
102
RTVSPost2010Prop33
280
     0
102
RTVSPost2010PropOp33
 70
     1
102
RTVSPost2010Prop34
280
     0
102
RTVSPost2010PropOp34
 70
     1
102
RTVSPost2010Prop35
280
     0
102
RTVSPost2010PropOp35
 70
     1
102
RTVSPost2010Prop36
280
     0
102
RTVSPost2010PropOp36
 70
     1
102
RTVSPost2010Prop37
 90
       50
102
RTVSPost2010PropOp37
 70
     0
102
RTVSPost2010Prop38
140
0.0
102
RTVSPost2010PropOp38
 70
     0
102
RTVSPost2010Prop39
140
1.0
102
RTVSPost2010PropOp39
 70
     0
102
RTVSPost2010Prop40
 90
        0
102
RTVSPost2010PropOp40
 70
     0
102
RTVSPost2010Prop41ColorIndex
 90
       18
102
RTVSPost2010Prop41ColorRGB
 90
        0
102
RTVSPost2010PropOp41
 70
     0
102
RTVSPost2010Prop42
 90
       50
102
RTVSPost2010PropOp42
 70
     0
102
RTVSPost2010Prop43
 90
        3
102
RTVSPost2010PropOp43
 70
     0
102
RTVSPost2010Prop44ColorIndex
 90
        5
102
RTVSPost2010Prop44ColorRGB
 90
      255
102
RTVSPost2010PropOp44
 70
     0
102
RTVSPost2010Prop45
280
     0
102
RTVSPost2010PropOp45
 70
     1
102
RTVSPost2010Prop46
 90
       50
102
RTVSPost2010PropOp46
 70
     0
102
RTVSPost2010Prop47
 90
       50
102
RTVSPost2010PropOp47
 70
     0
102
RTVSPost2010Prop48
 90
       50
102
RTVSPost2010PropOp48
 70
     0
102
RTVSPost2010Prop49
280
     0
102
RTVSPost2010PropOp49
 70
     1
102
RTVSPost2010Prop50
 90
       50
102
RTVSPost2010PropOp50
 70
     0
102
RTVSPost2010Prop51ColorIndex
 90
      256
102
RTVSPost2010Prop51ColorRGB
 90
-16777216
102
RTVSPost2010PropOp51
 70
     0
102
RTVSPost2010Prop52
140
1.0
102
RTVSPost2010PropOp52
 70
     0
102
RTVSPost2010Prop53
 90
        2
102
RTVSPost2010PropOp53
 70
     0
102
RTVSPost2010Prop54
  1
strokes_ogs.tif
102
RTVSPost2010PropOp54
 70
     0
102
RTVSPost2010Prop55
280
     0
102
RTVSPost2010PropOp55
 70
     1
102
RTVSPost2010Prop56
140
1.0
102
RTVSPost2010PropOp56
 70
     0
102
RTVSPost2010Prop57
140
1.0
102
RTVSPost2010PropOp57
 70
     0
102
RTVSPropertyOp0
 70
     0
102
RTVSPropertyOp1
 70
     0
102
RTVSPropertyOp2
 70
     0
102
RTVSPropertyOp3
 70
     0
102
RTVSPropertyOp4
 70
     0
102
RTVSPropertyOp5
 70
     0
102
RTVSPropertyOp6
 70
     0
102
RTVSPropertyOp7
 70
     0
102
RTVSPropertyOp8
 70
     0
102
RTVSPropertyOp9
 70
     0
102
RTVSPropertyOp10
 70
     0
102
RTVSPropertyOp11
 70
     0
102
RTVSPropertyOp12
 70
     0
102
RTVSPropertyOp13
 70
     0
102
RTVSPropertyOp14
 70
     2
102
RTVSPropertyOp15
 70
     0
102
RTVSPropertyOp16
 70
     0
102
RTVSPropertyOp17
 70
     0
102
RTVSPropertyOp18
 70
     0
102
RTVSPropertyOp19
 70
     0
102
RTVSPropertyOp20
 70
     0
102
RTVSPropertyOp21
 70
     0
102
RTVSPropertyOp22
 70
     0
102
RTVSPropertyOp23
 70
     0
102
RTVSPropertyOp24
 70
     0
102
RTVSPropertyOp25
 70
     0
102
RTVSPropertyOp26
 70
     0
102
RTVSPropertyOp27
 70
     0
102
RTVSPropertyOp28
 70
     1
102
RTVSPropertyOp29
 70
     1
102
RTVSPropertyOp30
 70
     1
102
RTVSPropertyOp31
 70
     1
102
RTVSPropertyOp32
 70
     1
102
RTVSPropertyOp33
 70
     1
102
RTVSPropertyOp34
 70
     1
102
RTVSPropertyOp35
 70
     1
102
RTVSPropertyOp36
 70
     1
102
RTVSPropertyOp37
 70
     0
102
RTVSPropertyOp38
 70
     0
102
RTVSPropertyOp39
 70
     0
102
RTVSPropertyOp40
 70
     0
102
RTVSPropertyOp41
 70
     0
102
RTVSPropertyOp42
 70
     0
102
RTVSPropertyOp43
 70
     0
102
RTVSPropertyOp44
 70
     0
102
RTVSPropertyOp45
 70
     1
102
RTVSPropertyOp46
 70
     0
102
RTVSPropertyOp47
 70
     0
102
RTVSPropertyOp48
 70
     0
102
RTVSPropertyOp49
 70
     1
102
RTVSPropertyOp50
 70
     0
102
RTVSPropertyOp51
 70
     0
102
RTVSPropertyOp52
 70
     0
102
RTVSPropertyOp53
 70
     0
102
RTVSPropertyOp54
 70
     0
102
RTVSPropertyOp55
 70
     1
102
RTVSPropertyOp56
 70
     0
102
RTVSPropertyOp57
 70
     0
102
RTVSPropertyOp58
 70
     0
102
RTVSPropertyOp59
 70
     0
102
RTVSPropertyOp60
 70
     0
102
RTVSPropertyOp61
 70
     0
102
RTVSPropertyOp62
 70
     0
  0
XRECORD
  5
87DA
102
{ACAD_REACTORS
330
87D9
102
}
330
87D9
100
AcDbXrecord
280
     1
102
RTVSPost2010Prop28
280
     0
102
RTVSPost2010PropOp28
 70
     1
102
RTVSPost2010Prop29
280
     1
102
RTVSPost2010PropOp29
 70
     1
102
RTVSPost2010Prop30
280
     1
102
RTVSPost2010PropOp30
 70
     1
102
RTVSPost2010Prop31
280
     0
102
RTVSPost2010PropOp31
 70
     1
102
RTVSPost2010Prop32
280
     0
102
RTVSPost2010PropOp32
 70
     1
102
RTVSPost2010Prop33
280
     0
102
RTVSPost2010PropOp33
 70
     1
102
RTVSPost2010Prop34
280
     0
102
RTVSPost2010PropOp34
 70
     1
102
RTVSPost2010Prop35
280
     0
102
RTVSPost2010PropOp35
 70
     1
102
RTVSPost2010Prop36
280
     0
102
RTVSPost2010PropOp36
 70
     1
102
RTVSPost2010Prop37
 90
       50
102
RTVSPost2010PropOp37
 70
     1
102
RTVSPost2010Prop38
140
0.0
102
RTVSPost2010PropOp38
 70
     1
102
RTVSPost2010Prop39
140
1.0
102
RTVSPost2010PropOp39
 70
     1
102
RTVSPost2010Prop40
 90
        0
102
RTVSPost2010PropOp40
 70
     1
102
RTVSPost2010Prop41ColorIndex
 90
       18
102
RTVSPost2010Prop41ColorRGB
 90
        0
102
RTVSPost2010PropOp41
 70
     1
102
RTVSPost2010Prop42
 90
       50
102
RTVSPost2010PropOp42
 70
     1
102
RTVSPost2010Prop43
 90
        3
102
RTVSPost2010PropOp43
 70
     1
102
RTVSPost2010Prop44ColorIndex
 90
        5
102
RTVSPost2010Prop44ColorRGB
 90
      255
102
RTVSPost2010PropOp44
 70
     1
102
RTVSPost2010Prop45
280
     0
102
RTVSPost2010PropOp45
 70
     1
102
RTVSPost2010Prop46
 90
       50
102
RTVSPost2010PropOp46
 70
     1
102
RTVSPost2010Prop47
 90
       50
102
RTVSPost2010PropOp47
 70
     1
102
RTVSPost2010Prop48
 90
       50
102
RTVSPost2010PropOp48
 70
     1
102
RTVSPost2010Prop49
280
     0
102
RTVSPost2010PropOp49
 70
     1
102
RTVSPost2010Prop50
 90
       50
102
RTVSPost2010PropOp50
 70
     1
102
RTVSPost2010Prop51ColorIndex
 90
      256
102
RTVSPost2010Prop51ColorRGB
 90
-16777216
102
RTVSPost2010PropOp51
 70
     0
102
RTVSPost2010Prop52
140
1.0
102
RTVSPost2010PropOp52
 70
     0
102
RTVSPost2010Prop53
 90
        2
102
RTVSPost2010PropOp53
 70
     1
102
RTVSPost2010Prop54
  1
strokes_ogs.tif
102
RTVSPost2010PropOp54
 70
     1
102
RTVSPost2010Prop55
280
     0
102
RTVSPost2010PropOp55
 70
     1
102
RTVSPost2010Prop56
140
1.0
102
RTVSPost2010PropOp56
 70
     1
102
RTVSPost2010Prop57
140
1.0
102
RTVSPost2010PropOp57
 70
     1
102
RTVSPropertyOp0
 70
     1
102
RTVSPropertyOp1
 70
     1
102
RTVSPropertyOp2
 70
     1
102
RTVSPropertyOp3
 70
     1
102
RTVSPropertyOp4
 70
     1
102
RTVSPropertyOp5
 70
     1
102
RTVSPropertyOp6
 70
     1
102
RTVSPropertyOp7
 70
     1
102
RTVSPropertyOp8
 70
     1
102
RTVSPropertyOp9
 70
     1
102
RTVSPropertyOp10
 70
     1
102
RTVSPropertyOp11
 70
     1
102
RTVSPropertyOp12
 70
     1
102
RTVSPropertyOp13
 70
     1
102
RTVSPropertyOp14
 70
     1
102
RTVSPropertyOp15
 70
     1
102
RTVSPropertyOp16
 70
     1
102
RTVSPropertyOp17
 70
     1
102
RTVSPropertyOp18
 70
     1
102
RTVSPropertyOp19
 70
     1
102
RTVSPropertyOp20
 70
     1
102
RTVSPropertyOp21
 70
     1
102
RTVSPropertyOp22
 70
     1
102
RTVSPropertyOp23
 70
     1
102
RTVSPropertyOp24
 70
     1
102
RTVSPropertyOp25
 70
     1
102
RTVSPropertyOp26
 70
     1
102
RTVSPropertyOp27
 70
     1
102
RTVSPropertyOp28
 70
     1
102
RTVSPropertyOp29
 70
     1
102
RTVSPropertyOp30
 70
     1
102
RTVSPropertyOp31
 70
     1
102
RTVSPropertyOp32
 70
     1
102
RTVSPropertyOp33
 70
     1
102
RTVSPropertyOp34
 70
     1
102
RTVSPropertyOp35
 70
     1
102
RTVSPropertyOp36
 70
     1
102
RTVSPropertyOp37
 70
     1
102
RTVSPropertyOp38
 70
     1
102
RTVSPropertyOp39
 70
     1
102
RTVSPropertyOp40
 70
     1
102
RTVSPropertyOp41
 70
     1
102
RTVSPropertyOp42
 70
     1
102
RTVSPropertyOp43
 70
     1
102
RTVSPropertyOp44
 70
     1
102
RTVSPropertyOp45
 70
     1
102
RTVSPropertyOp46
 70
     1
102
RTVSPropertyOp47
 70
     1
102
RTVSPropertyOp48
 70
     1
102
RTVSPropertyOp49
 70
     1
102
RTVSPropertyOp50
 70
     1
102
RTVSPropertyOp51
 70
     0
102
RTVSPropertyOp52
 70
     0
102
RTVSPropertyOp53
 70
     1
102
RTVSPropertyOp54
 70
     1
102
RTVSPropertyOp55
 70
     1
102
RTVSPropertyOp56
 70
     1
102
RTVSPropertyOp57
 70
     1
102
RTVSPropertyOp58
 70
     1
102
RTVSPropertyOp59
 70
     1
102
RTVSPropertyOp60
 70
     1
102
RTVSPropertyOp61
 70
     1
102
RTVSPropertyOp62
 70
     1
  0
XRECORD
  5
87F0
102
{ACAD_REACTORS
330
87EF
102
}
330
87EF
100
AcDbXrecord
280
     1
102
RTVSPost2010Prop28
280
     0
102
RTVSPost2010PropOp28
 70
     1
102
RTVSPost2010Prop29
280
     1
102
RTVSPost2010PropOp29
 70
     1
102
RTVSPost2010Prop30
280
     1
102
RTVSPost2010PropOp30
 70
     1
102
RTVSPost2010Prop31
280
     0
102
RTVSPost2010PropOp31
 70
     1
102
RTVSPost2010Prop32
280
     0
102
RTVSPost2010PropOp32
 70
     1
102
RTVSPost2010Prop33
280
     0
102
RTVSPost2010PropOp33
 70
     1
102
RTVSPost2010Prop34
280
     0
102
RTVSPost2010PropOp34
 70
     1
102
RTVSPost2010Prop35
280
     0
102
RTVSPost2010PropOp35
 70
     1
102
RTVSPost2010Prop36
280
     0
102
RTVSPost2010PropOp36
 70
     1
102
RTVSPost2010Prop37
 90
       50
102
RTVSPost2010PropOp37
 70
     1
102
RTVSPost2010Prop38
140
0.0
102
RTVSPost2010PropOp38
 70
     1
102
RTVSPost2010Prop39
140
1.0
102
RTVSPost2010PropOp39
 70
     1
102
RTVSPost2010Prop40
 90
        0
102
RTVSPost2010PropOp40
 70
     1
102
RTVSPost2010Prop41ColorIndex
 90
       18
102
RTVSPost2010Prop41ColorRGB
 90
        0
102
RTVSPost2010PropOp41
 70
     1
102
RTVSPost2010Prop42
 90
       50
102
RTVSPost2010PropOp42
 70
     1
102
RTVSPost2010Prop43
 90
        3
102
RTVSPost2010PropOp43
 70
     1
102
RTVSPost2010Prop44ColorIndex
 90
        5
102
RTVSPost2010Prop44ColorRGB
 90
      255
102
RTVSPost2010PropOp44
 70
     1
102
RTVSPost2010Prop45
280
     0
102
RTVSPost2010PropOp45
 70
     1
102
RTVSPost2010Prop46
 90
       50
102
RTVSPost2010PropOp46
 70
     1
102
RTVSPost2010Prop47
 90
       50
102
RTVSPost2010PropOp47
 70
     1
102
RTVSPost2010Prop48
 90
       50
102
RTVSPost2010PropOp48
 70
     1
102
RTVSPost2010Prop49
280
     0
102
RTVSPost2010PropOp49
 70
     1
102
RTVSPost2010Prop50
 90
       50
102
RTVSPost2010PropOp50
 70
     1
102
RTVSPost2010Prop51ColorIndex
 90
      256
102
RTVSPost2010Prop51ColorRGB
 90
-16777216
102
RTVSPost2010PropOp51
 70
     0
102
RTVSPost2010Prop52
140
1.0
102
RTVSPost2010PropOp52
 70
     0
102
RTVSPost2010Prop53
 90
        2
102
RTVSPost2010PropOp53
 70
     1
102
RTVSPost2010Prop54
  1
strokes_ogs.tif
102
RTVSPost2010PropOp54
 70
     1
102
RTVSPost2010Prop55
280
     0
102
RTVSPost2010PropOp55
 70
     1
102
RTVSPost2010Prop56
140
1.0
102
RTVSPost2010PropOp56
 70
     1
102
RTVSPost2010Prop57
140
1.0
102
RTVSPost2010PropOp57
 70
     1
102
RTVSPropertyOp0
 70
     1
102
RTVSPropertyOp1
 70
     1
102
RTVSPropertyOp2
 70
     1
102
RTVSPropertyOp3
 70
     1
102
RTVSPropertyOp4
 70
     1
102
RTVSPropertyOp5
 70
     1
102
RTVSPropertyOp6
 70
     1
102
RTVSPropertyOp7
 70
     1
102
RTVSPropertyOp8
 70
     1
102
RTVSPropertyOp9
 70
     1
102
RTVSPropertyOp10
 70
     1
102
RTVSPropertyOp11
 70
     1
102
RTVSPropertyOp12
 70
     1
102
RTVSPropertyOp13
 70
     1
102
RTVSPropertyOp14
 70
     1
102
RTVSPropertyOp15
 70
     1
102
RTVSPropertyOp16
 70
     1
102
RTVSPropertyOp17
 70
     1
102
RTVSPropertyOp18
 70
     1
102
RTVSPropertyOp19
 70
     1
102
RTVSPropertyOp20
 70
     1
102
RTVSPropertyOp21
 70
     1
102
RTVSPropertyOp22
 70
     1
102
RTVSPropertyOp23
 70
     1
102
RTVSPropertyOp24
 70
     1
102
RTVSPropertyOp25
 70
     1
102
RTVSPropertyOp26
 70
     1
102
RTVSPropertyOp27
 70
     1
102
RTVSPropertyOp28
 70
     1
102
RTVSPropertyOp29
 70
     1
102
RTVSPropertyOp30
 70
     1
102
RTVSPropertyOp31
 70
     1
102
RTVSPropertyOp32
 70
     1
102
RTVSPropertyOp33
 70
     1
102
RTVSPropertyOp34
 70
     1
102
RTVSPropertyOp35
 70
     1
102
RTVSPropertyOp36
 70
     1
102
RTVSPropertyOp37
 70
     1
102
RTVSPropertyOp38
 70
     1
102
RTVSPropertyOp39
 70
     1
102
RTVSPropertyOp40
 70
     1
102
RTVSPropertyOp41
 70
     1
102
RTVSPropertyOp42
 70
     1
102
RTVSPropertyOp43
 70
     1
102
RTVSPropertyOp44
 70
     1
102
RTVSPropertyOp45
 70
     1
102
RTVSPropertyOp46
 70
     1
102
RTVSPropertyOp47
 70
     1
102
RTVSPropertyOp48
 70
     1
102
RTVSPropertyOp49
 70
     1
102
RTVSPropertyOp50
 70
     1
102
RTVSPropertyOp51
 70
     0
102
RTVSPropertyOp52
 70
     0
102
RTVSPropertyOp53
 70
     1
102
RTVSPropertyOp54
 70
     1
102
RTVSPropertyOp55
 70
     1
102
RTVSPropertyOp56
 70
     1
102
RTVSPropertyOp57
 70
     1
102
RTVSPropertyOp58
 70
     1
102
RTVSPropertyOp59
 70
     1
102
RTVSPropertyOp60
 70
     1
102
RTVSPropertyOp61
 70
     1
102
RTVSPropertyOp62
 70
     1
  0
XRECORD
  5
87EE
102
{ACAD_REACTORS
330
87ED
102
}
330
87ED
100
AcDbXrecord
280
     1
102
RTVSPost2010Prop28
280
     0
102
RTVSPost2010PropOp28
 70
     1
102
RTVSPost2010Prop29
280
     1
102
RTVSPost2010PropOp29
 70
     1
102
RTVSPost2010Prop30
280
     1
102
RTVSPost2010PropOp30
 70
     1
102
RTVSPost2010Prop31
280
     0
102
RTVSPost2010PropOp31
 70
     1
102
RTVSPost2010Prop32
280
     0
102
RTVSPost2010PropOp32
 70
     1
102
RTVSPost2010Prop33
280
     0
102
RTVSPost2010PropOp33
 70
     1
102
RTVSPost2010Prop34
280
     0
102
RTVSPost2010PropOp34
 70
     1
102
RTVSPost2010Prop35
280
     0
102
RTVSPost2010PropOp35
 70
     1
102
RTVSPost2010Prop36
280
     0
102
RTVSPost2010PropOp36
 70
     1
102
RTVSPost2010Prop37
 90
       50
102
RTVSPost2010PropOp37
 70
     1
102
RTVSPost2010Prop38
140
0.0
102
RTVSPost2010PropOp38
 70
     1
102
RTVSPost2010Prop39
140
1.0
102
RTVSPost2010PropOp39
 70
     1
102
RTVSPost2010Prop40
 90
        0
102
RTVSPost2010PropOp40
 70
     1
102
RTVSPost2010Prop41ColorIndex
 90
       18
102
RTVSPost2010Prop41ColorRGB
 90
        0
102
RTVSPost2010PropOp41
 70
     1
102
RTVSPost2010Prop42
 90
       50
102
RTVSPost2010PropOp42
 70
     1
102
RTVSPost2010Prop43
 90
        3
102
RTVSPost2010PropOp43
 70
     1
102
RTVSPost2010Prop44ColorIndex
 90
        5
102
RTVSPost2010Prop44ColorRGB
 90
      255
102
RTVSPost2010PropOp44
 70
     1
102
RTVSPost2010Prop45
280
     0
102
RTVSPost2010PropOp45
 70
     1
102
RTVSPost2010Prop46
 90
       50
102
RTVSPost2010PropOp46
 70
     1
102
RTVSPost2010Prop47
 90
       50
102
RTVSPost2010PropOp47
 70
     1
102
RTVSPost2010Prop48
 90
       50
102
RTVSPost2010PropOp48
 70
     1
102
RTVSPost2010Prop49
280
     0
102
RTVSPost2010PropOp49
 70
     1
102
RTVSPost2010Prop50
 90
       50
102
RTVSPost2010PropOp50
 70
     1
102
RTVSPost2010Prop51ColorIndex
 90
      256
102
RTVSPost2010Prop51ColorRGB
 90
-16777216
102
RTVSPost2010PropOp51
 70
     0
102
RTVSPost2010Prop52
140
1.0
102
RTVSPost2010PropOp52
 70
     0
102
RTVSPost2010Prop53
 90
        2
102
RTVSPost2010PropOp53
 70
     1
102
RTVSPost2010Prop54
  1
strokes_ogs.tif
102
RTVSPost2010PropOp54
 70
     1
102
RTVSPost2010Prop55
280
     0
102
RTVSPost2010PropOp55
 70
     1
102
RTVSPost2010Prop56
140
1.0
102
RTVSPost2010PropOp56
 70
     1
102
RTVSPost2010Prop57
140
1.0
102
RTVSPost2010PropOp57
 70
     1
102
RTVSPropertyOp0
 70
     1
102
RTVSPropertyOp1
 70
     1
102
RTVSPropertyOp2
 70
     1
102
RTVSPropertyOp3
 70
     1
102
RTVSPropertyOp4
 70
     1
102
RTVSPropertyOp5
 70
     1
102
RTVSPropertyOp6
 70
     1
102
RTVSPropertyOp7
 70
     1
102
RTVSPropertyOp8
 70
     1
102
RTVSPropertyOp9
 70
     1
102
RTVSPropertyOp10
 70
     1
102
RTVSPropertyOp11
 70
     1
102
RTVSPropertyOp12
 70
     1
102
RTVSPropertyOp13
 70
     1
102
RTVSPropertyOp14
 70
     1
102
RTVSPropertyOp15
 70
     1
102
RTVSPropertyOp16
 70
     1
102
RTVSPropertyOp17
 70
     1
102
RTVSPropertyOp18
 70
     1
102
RTVSPropertyOp19
 70
     1
102
RTVSPropertyOp20
 70
     1
102
RTVSPropertyOp21
 70
     1
102
RTVSPropertyOp22
 70
     1
102
RTVSPropertyOp23
 70
     1
102
RTVSPropertyOp24
 70
     1
102
RTVSPropertyOp25
 70
     1
102
RTVSPropertyOp26
 70
     1
102
RTVSPropertyOp27
 70
     1
102
RTVSPropertyOp28
 70
     1
102
RTVSPropertyOp29
 70
     1
102
RTVSPropertyOp30
 70
     1
102
RTVSPropertyOp31
 70
     1
102
RTVSPropertyOp32
 70
     1
102
RTVSPropertyOp33
 70
     1
102
RTVSPropertyOp34
 70
     1
102
RTVSPropertyOp35
 70
     1
102
RTVSPropertyOp36
 70
     1
102
RTVSPropertyOp37
 70
     1
102
RTVSPropertyOp38
 70
     1
102
RTVSPropertyOp39
 70
     1
102
RTVSPropertyOp40
 70
     1
102
RTVSPropertyOp41
 70
     1
102
RTVSPropertyOp42
 70
     1
102
RTVSPropertyOp43
 70
     1
102
RTVSPropertyOp44
 70
     1
102
RTVSPropertyOp45
 70
     1
102
RTVSPropertyOp46
 70
     1
102
RTVSPropertyOp47
 70
     1
102
RTVSPropertyOp48
 70
     1
102
RTVSPropertyOp49
 70
     1
102
RTVSPropertyOp50
 70
     1
102
RTVSPropertyOp51
 70
     0
102
RTVSPropertyOp52
 70
     0
102
RTVSPropertyOp53
 70
     1
102
RTVSPropertyOp54
 70
     1
102
RTVSPropertyOp55
 70
     1
102
RTVSPropertyOp56
 70
     1
102
RTVSPropertyOp57
 70
     1
102
RTVSPropertyOp58
 70
     1
102
RTVSPropertyOp59
 70
     1
102
RTVSPropertyOp60
 70
     1
102
RTVSPropertyOp61
 70
     1
102
RTVSPropertyOp62
 70
     1
  0
XRECORD
  5
87E8
102
{ACAD_REACTORS
330
87E7
102
}
330
87E7
100
AcDbXrecord
280
     1
102
RTVSPost2010Prop28
280
     0
102
RTVSPost2010PropOp28
 70
     1
102
RTVSPost2010Prop29
280
     1
102
RTVSPost2010PropOp29
 70
     1
102
RTVSPost2010Prop30
280
     1
102
RTVSPost2010PropOp30
 70
     1
102
RTVSPost2010Prop31
280
     0
102
RTVSPost2010PropOp31
 70
     1
102
RTVSPost2010Prop32
280
     0
102
RTVSPost2010PropOp32
 70
     1
102
RTVSPost2010Prop33
280
     0
102
RTVSPost2010PropOp33
 70
     1
102
RTVSPost2010Prop34
280
     0
102
RTVSPost2010PropOp34
 70
     1
102
RTVSPost2010Prop35
280
     0
102
RTVSPost2010PropOp35
 70
     1
102
RTVSPost2010Prop36
280
     0
102
RTVSPost2010PropOp36
 70
     1
102
RTVSPost2010Prop37
 90
       50
102
RTVSPost2010PropOp37
 70
     1
102
RTVSPost2010Prop38
140
0.0
102
RTVSPost2010PropOp38
 70
     1
102
RTVSPost2010Prop39
140
1.0
102
RTVSPost2010PropOp39
 70
     1
102
RTVSPost2010Prop40
 90
        0
102
RTVSPost2010PropOp40
 70
     1
102
RTVSPost2010Prop41ColorIndex
 90
       18
102
RTVSPost2010Prop41ColorRGB
 90
        0
102
RTVSPost2010PropOp41
 70
     1
102
RTVSPost2010Prop42
 90
       50
102
RTVSPost2010PropOp42
 70
     1
102
RTVSPost2010Prop43
 90
        3
102
RTVSPost2010PropOp43
 70
     1
102
RTVSPost2010Prop44ColorIndex
 90
        5
102
RTVSPost2010Prop44ColorRGB
 90
      255
102
RTVSPost2010PropOp44
 70
     1
102
RTVSPost2010Prop45
280
     0
102
RTVSPost2010PropOp45
 70
     1
102
RTVSPost2010Prop46
 90
       50
102
RTVSPost2010PropOp46
 70
     1
102
RTVSPost2010Prop47
 90
       50
102
RTVSPost2010PropOp47
 70
     1
102
RTVSPost2010Prop48
 90
       50
102
RTVSPost2010PropOp48
 70
     1
102
RTVSPost2010Prop49
280
     0
102
RTVSPost2010PropOp49
 70
     1
102
RTVSPost2010Prop50
 90
       50
102
RTVSPost2010PropOp50
 70
     1
102
RTVSPost2010Prop51ColorIndex
 90
      256
102
RTVSPost2010Prop51ColorRGB
 90
-16777216
102
RTVSPost2010PropOp51
 70
     0
102
RTVSPost2010Prop52
140
1.0
102
RTVSPost2010PropOp52
 70
     0
102
RTVSPost2010Prop53
 90
        2
102
RTVSPost2010PropOp53
 70
     1
102
RTVSPost2010Prop54
  1
strokes_ogs.tif
102
RTVSPost2010PropOp54
 70
     1
102
RTVSPost2010Prop55
280
     0
102
RTVSPost2010PropOp55
 70
     1
102
RTVSPost2010Prop56
140
1.0
102
RTVSPost2010PropOp56
 70
     1
102
RTVSPost2010Prop57
140
1.0
102
RTVSPost2010PropOp57
 70
     1
102
RTVSPropertyOp0
 70
     1
102
RTVSPropertyOp1
 70
     1
102
RTVSPropertyOp2
 70
     1
102
RTVSPropertyOp3
 70
     1
102
RTVSPropertyOp4
 70
     1
102
RTVSPropertyOp5
 70
     1
102
RTVSPropertyOp6
 70
     1
102
RTVSPropertyOp7
 70
     1
102
RTVSPropertyOp8
 70
     1
102
RTVSPropertyOp9
 70
     1
102
RTVSPropertyOp10
 70
     1
102
RTVSPropertyOp11
 70
     1
102
RTVSPropertyOp12
 70
     1
102
RTVSPropertyOp13
 70
     1
102
RTVSPropertyOp14
 70
     1
102
RTVSPropertyOp15
 70
     1
102
RTVSPropertyOp16
 70
     1
102
RTVSPropertyOp17
 70
     1
102
RTVSPropertyOp18
 70
     1
102
RTVSPropertyOp19
 70
     1
102
RTVSPropertyOp20
 70
     1
102
RTVSPropertyOp21
 70
     1
102
RTVSPropertyOp22
 70
     1
102
RTVSPropertyOp23
 70
     1
102
RTVSPropertyOp24
 70
     1
102
RTVSPropertyOp25
 70
     1
102
RTVSPropertyOp26
 70
     1
102
RTVSPropertyOp27
 70
     1
102
RTVSPropertyOp28
 70
     1
102
RTVSPropertyOp29
 70
     1
102
RTVSPropertyOp30
 70
     1
102
RTVSPropertyOp31
 70
     1
102
RTVSPropertyOp32
 70
     1
102
RTVSPropertyOp33
 70
     1
102
RTVSPropertyOp34
 70
     1
102
RTVSPropertyOp35
 70
     1
102
RTVSPropertyOp36
 70
     1
102
RTVSPropertyOp37
 70
     1
102
RTVSPropertyOp38
 70
     1
102
RTVSPropertyOp39
 70
     1
102
RTVSPropertyOp40
 70
     1
102
RTVSPropertyOp41
 70
     1
102
RTVSPropertyOp42
 70
     1
102
RTVSPropertyOp43
 70
     1
102
RTVSPropertyOp44
 70
     1
102
RTVSPropertyOp45
 70
     1
102
RTVSPropertyOp46
 70
     1
102
RTVSPropertyOp47
 70
     1
102
RTVSPropertyOp48
 70
     1
102
RTVSPropertyOp49
 70
     1
102
RTVSPropertyOp50
 70
     1
102
RTVSPropertyOp51
 70
     0
102
RTVSPropertyOp52
 70
     0
102
RTVSPropertyOp53
 70
     1
102
RTVSPropertyOp54
 70
     1
102
RTVSPropertyOp55
 70
     1
102
RTVSPropertyOp56
 70
     1
102
RTVSPropertyOp57
 70
     1
102
RTVSPropertyOp58
 70
     1
102
RTVSPropertyOp59
 70
     1
102
RTVSPropertyOp60
 70
     1
102
RTVSPropertyOp61
 70
     1
102
RTVSPropertyOp62
 70
     1
  0
XRECORD
  5
87EA
102
{ACAD_REACTORS
330
87E9
102
}
330
87E9
100
AcDbXrecord
280
     1
102
RTVSPost2010Prop28
280
     0
102
RTVSPost2010PropOp28
 70
     1
102
RTVSPost2010Prop29
280
     1
102
RTVSPost2010PropOp29
 70
     1
102
RTVSPost2010Prop30
280
     1
102
RTVSPost2010PropOp30
 70
     1
102
RTVSPost2010Prop31
280
     0
102
RTVSPost2010PropOp31
 70
     1
102
RTVSPost2010Prop32
280
     0
102
RTVSPost2010PropOp32
 70
     1
102
RTVSPost2010Prop33
280
     0
102
RTVSPost2010PropOp33
 70
     1
102
RTVSPost2010Prop34
280
     0
102
RTVSPost2010PropOp34
 70
     1
102
RTVSPost2010Prop35
280
     0
102
RTVSPost2010PropOp35
 70
     1
102
RTVSPost2010Prop36
280
     0
102
RTVSPost2010PropOp36
 70
     1
102
RTVSPost2010Prop37
 90
       50
102
RTVSPost2010PropOp37
 70
     1
102
RTVSPost2010Prop38
140
0.0
102
RTVSPost2010PropOp38
 70
     1
102
RTVSPost2010Prop39
140
1.0
102
RTVSPost2010PropOp39
 70
     1
102
RTVSPost2010Prop40
 90
        0
102
RTVSPost2010PropOp40
 70
     1
102
RTVSPost2010Prop41ColorIndex
 90
       18
102
RTVSPost2010Prop41ColorRGB
 90
        0
102
RTVSPost2010PropOp41
 70
     1
102
RTVSPost2010Prop42
 90
       50
102
RTVSPost2010PropOp42
 70
     1
102
RTVSPost2010Prop43
 90
        3
102
RTVSPost2010PropOp43
 70
     1
102
RTVSPost2010Prop44ColorIndex
 90
        5
102
RTVSPost2010Prop44ColorRGB
 90
      255
102
RTVSPost2010PropOp44
 70
     1
102
RTVSPost2010Prop45
280
     0
102
RTVSPost2010PropOp45
 70
     1
102
RTVSPost2010Prop46
 90
       50
102
RTVSPost2010PropOp46
 70
     1
102
RTVSPost2010Prop47
 90
       50
102
RTVSPost2010PropOp47
 70
     1
102
RTVSPost2010Prop48
 90
       50
102
RTVSPost2010PropOp48
 70
     1
102
RTVSPost2010Prop49
280
     0
102
RTVSPost2010PropOp49
 70
     1
102
RTVSPost2010Prop50
 90
       50
102
RTVSPost2010PropOp50
 70
     1
102
RTVSPost2010Prop51ColorIndex
 90
      256
102
RTVSPost2010Prop51ColorRGB
 90
-16777216
102
RTVSPost2010PropOp51
 70
     0
102
RTVSPost2010Prop52
140
1.0
102
RTVSPost2010PropOp52
 70
     0
102
RTVSPost2010Prop53
 90
        2
102
RTVSPost2010PropOp53
 70
     1
102
RTVSPost2010Prop54
  1
strokes_ogs.tif
102
RTVSPost2010PropOp54
 70
     1
102
RTVSPost2010Prop55
280
     0
102
RTVSPost2010PropOp55
 70
     1
102
RTVSPost2010Prop56
140
1.0
102
RTVSPost2010PropOp56
 70
     1
102
RTVSPost2010Prop57
140
1.0
102
RTVSPost2010PropOp57
 70
     1
102
RTVSPropertyOp0
 70
     1
102
RTVSPropertyOp1
 70
     1
102
RTVSPropertyOp2
 70
     1
102
RTVSPropertyOp3
 70
     1
102
RTVSPropertyOp4
 70
     1
102
RTVSPropertyOp5
 70
     1
102
RTVSPropertyOp6
 70
     1
102
RTVSPropertyOp7
 70
     1
102
RTVSPropertyOp8
 70
     1
102
RTVSPropertyOp9
 70
     1
102
RTVSPropertyOp10
 70
     1
102
RTVSPropertyOp11
 70
     1
102
RTVSPropertyOp12
 70
     1
102
RTVSPropertyOp13
 70
     1
102
RTVSPropertyOp14
 70
     1
102
RTVSPropertyOp15
 70
     1
102
RTVSPropertyOp16
 70
     1
102
RTVSPropertyOp17
 70
     1
102
RTVSPropertyOp18
 70
     1
102
RTVSPropertyOp19
 70
     1
102
RTVSPropertyOp20
 70
     1
102
RTVSPropertyOp21
 70
     1
102
RTVSPropertyOp22
 70
     1
102
RTVSPropertyOp23
 70
     1
102
RTVSPropertyOp24
 70
     1
102
RTVSPropertyOp25
 70
     1
102
RTVSPropertyOp26
 70
     1
102
RTVSPropertyOp27
 70
     1
102
RTVSPropertyOp28
 70
     1
102
RTVSPropertyOp29
 70
     1
102
RTVSPropertyOp30
 70
     1
102
RTVSPropertyOp31
 70
     1
102
RTVSPropertyOp32
 70
     1
102
RTVSPropertyOp33
 70
     1
102
RTVSPropertyOp34
 70
     1
102
RTVSPropertyOp35
 70
     1
102
RTVSPropertyOp36
 70
     1
102
RTVSPropertyOp37
 70
     1
102
RTVSPropertyOp38
 70
     1
102
RTVSPropertyOp39
 70
     1
102
RTVSPropertyOp40
 70
     1
102
RTVSPropertyOp41
 70
     1
102
RTVSPropertyOp42
 70
     1
102
RTVSPropertyOp43
 70
     1
102
RTVSPropertyOp44
 70
     1
102
RTVSPropertyOp45
 70
     1
102
RTVSPropertyOp46
 70
     1
102
RTVSPropertyOp47
 70
     1
102
RTVSPropertyOp48
 70
     1
102
RTVSPropertyOp49
 70
     1
102
RTVSPropertyOp50
 70
     1
102
RTVSPropertyOp51
 70
     0
102
RTVSPropertyOp52
 70
     0
102
RTVSPropertyOp53
 70
     1
102
RTVSPropertyOp54
 70
     1
102
RTVSPropertyOp55
 70
     1
102
RTVSPropertyOp56
 70
     1
102
RTVSPropertyOp57
 70
     1
102
RTVSPropertyOp58
 70
     1
102
RTVSPropertyOp59
 70
     1
102
RTVSPropertyOp60
 70
     1
102
RTVSPropertyOp61
 70
     1
102
RTVSPropertyOp62
 70
     1
  0
XRECORD
  5
87E0
102
{ACAD_REACTORS
330
87DF
102
}
330
87DF
100
AcDbXrecord
280
     1
102
RTVSPost2010Prop28
280
     0
102
RTVSPost2010PropOp28
 70
     1
102
RTVSPost2010Prop29
280
     1
102
RTVSPost2010PropOp29
 70
     1
102
RTVSPost2010Prop30
280
     1
102
RTVSPost2010PropOp30
 70
     1
102
RTVSPost2010Prop31
280
     0
102
RTVSPost2010PropOp31
 70
     1
102
RTVSPost2010Prop32
280
     0
102
RTVSPost2010PropOp32
 70
     1
102
RTVSPost2010Prop33
280
     0
102
RTVSPost2010PropOp33
 70
     1
102
RTVSPost2010Prop34
280
     0
102
RTVSPost2010PropOp34
 70
     1
102
RTVSPost2010Prop35
280
     0
102
RTVSPost2010PropOp35
 70
     1
102
RTVSPost2010Prop36
280
     0
102
RTVSPost2010PropOp36
 70
     1
102
RTVSPost2010Prop37
 90
       50
102
RTVSPost2010PropOp37
 70
     1
102
RTVSPost2010Prop38
140
0.0
102
RTVSPost2010PropOp38
 70
     1
102
RTVSPost2010Prop39
140
1.0
102
RTVSPost2010PropOp39
 70
     1
102
RTVSPost2010Prop40
 90
        0
102
RTVSPost2010PropOp40
 70
     1
102
RTVSPost2010Prop41ColorIndex
 90
       18
102
RTVSPost2010Prop41ColorRGB
 90
        0
102
RTVSPost2010PropOp41
 70
     1
102
RTVSPost2010Prop42
 90
       50
102
RTVSPost2010PropOp42
 70
     1
102
RTVSPost2010Prop43
 90
        3
102
RTVSPost2010PropOp43
 70
     1
102
RTVSPost2010Prop44ColorIndex
 90
        5
102
RTVSPost2010Prop44ColorRGB
 90
      255
102
RTVSPost2010PropOp44
 70
     1
102
RTVSPost2010Prop45
280
     0
102
RTVSPost2010PropOp45
 70
     1
102
RTVSPost2010Prop46
 90
       50
102
RTVSPost2010PropOp46
 70
     1
102
RTVSPost2010Prop47
 90
       50
102
RTVSPost2010PropOp47
 70
     1
102
RTVSPost2010Prop48
 90
       50
102
RTVSPost2010PropOp48
 70
     1
102
RTVSPost2010Prop49
280
     0
102
RTVSPost2010PropOp49
 70
     1
102
RTVSPost2010Prop50
 90
       50
102
RTVSPost2010PropOp50
 70
     1
102
RTVSPost2010Prop51ColorIndex
 90
      256
102
RTVSPost2010Prop51ColorRGB
 90
-16777216
102
RTVSPost2010PropOp51
 70
     0
102
RTVSPost2010Prop52
140
1.0
102
RTVSPost2010PropOp52
 70
     0
102
RTVSPost2010Prop53
 90
        2
102
RTVSPost2010PropOp53
 70
     1
102
RTVSPost2010Prop54
  1
strokes_ogs.tif
102
RTVSPost2010PropOp54
 70
     1
102
RTVSPost2010Prop55
280
     0
102
RTVSPost2010PropOp55
 70
     1
102
RTVSPost2010Prop56
140
1.0
102
RTVSPost2010PropOp56
 70
     1
102
RTVSPost2010Prop57
140
1.0
102
RTVSPost2010PropOp57
 70
     1
102
RTVSPropertyOp0
 70
     1
102
RTVSPropertyOp1
 70
     1
102
RTVSPropertyOp2
 70
     1
102
RTVSPropertyOp3
 70
     1
102
RTVSPropertyOp4
 70
     1
102
RTVSPropertyOp5
 70
     1
102
RTVSPropertyOp6
 70
     1
102
RTVSPropertyOp7
 70
     1
102
RTVSPropertyOp8
 70
     1
102
RTVSPropertyOp9
 70
     1
102
RTVSPropertyOp10
 70
     1
102
RTVSPropertyOp11
 70
     1
102
RTVSPropertyOp12
 70
     1
102
RTVSPropertyOp13
 70
     1
102
RTVSPropertyOp14
 70
     1
102
RTVSPropertyOp15
 70
     1
102
RTVSPropertyOp16
 70
     1
102
RTVSPropertyOp17
 70
     1
102
RTVSPropertyOp18
 70
     1
102
RTVSPropertyOp19
 70
     1
102
RTVSPropertyOp20
 70
     1
102
RTVSPropertyOp21
 70
     1
102
RTVSPropertyOp22
 70
     1
102
RTVSPropertyOp23
 70
     1
102
RTVSPropertyOp24
 70
     1
102
RTVSPropertyOp25
 70
     1
102
RTVSPropertyOp26
 70
     1
102
RTVSPropertyOp27
 70
     1
102
RTVSPropertyOp28
 70
     1
102
RTVSPropertyOp29
 70
     1
102
RTVSPropertyOp30
 70
     1
102
RTVSPropertyOp31
 70
     1
102
RTVSPropertyOp32
 70
     1
102
RTVSPropertyOp33
 70
     1
102
RTVSPropertyOp34
 70
     1
102
RTVSPropertyOp35
 70
     1
102
RTVSPropertyOp36
 70
     1
102
RTVSPropertyOp37
 70
     1
102
RTVSPropertyOp38
 70
     1
102
RTVSPropertyOp39
 70
     1
102
RTVSPropertyOp40
 70
     1
102
RTVSPropertyOp41
 70
     1
102
RTVSPropertyOp42
 70
     1
102
RTVSPropertyOp43
 70
     1
102
RTVSPropertyOp44
 70
     1
102
RTVSPropertyOp45
 70
     1
102
RTVSPropertyOp46
 70
     1
102
RTVSPropertyOp47
 70
     1
102
RTVSPropertyOp48
 70
     1
102
RTVSPropertyOp49
 70
     1
102
RTVSPropertyOp50
 70
     1
102
RTVSPropertyOp51
 70
     0
102
RTVSPropertyOp52
 70
     0
102
RTVSPropertyOp53
 70
     1
102
RTVSPropertyOp54
 70
     1
102
RTVSPropertyOp55
 70
     1
102
RTVSPropertyOp56
 70
     1
102
RTVSPropertyOp57
 70
     1
102
RTVSPropertyOp58
 70
     1
102
RTVSPropertyOp59
 70
     1
102
RTVSPropertyOp60
 70
     1
102
RTVSPropertyOp61
 70
     1
102
RTVSPropertyOp62
 70
     1
  0
XRECORD
  5
87D4
102
{ACAD_REACTORS
330
87D3
102
}
330
87D3
100
AcDbXrecord
280
     1
102
RTVSPost2010Prop28
280
     0
102
RTVSPost2010PropOp28
 70
     1
102
RTVSPost2010Prop29
280
     1
102
RTVSPost2010PropOp29
 70
     1
102
RTVSPost2010Prop30
280
     1
102
RTVSPost2010PropOp30
 70
     1
102
RTVSPost2010Prop31
280
     0
102
RTVSPost2010PropOp31
 70
     1
102
RTVSPost2010Prop32
280
     0
102
RTVSPost2010PropOp32
 70
     1
102
RTVSPost2010Prop33
280
     0
102
RTVSPost2010PropOp33
 70
     1
102
RTVSPost2010Prop34
280
     0
102
RTVSPost2010PropOp34
 70
     1
102
RTVSPost2010Prop35
280
     0
102
RTVSPost2010PropOp35
 70
     1
102
RTVSPost2010Prop36
280
     0
102
RTVSPost2010PropOp36
 70
     1
102
RTVSPost2010Prop37
 90
       50
102
RTVSPost2010PropOp37
 70
     1
102
RTVSPost2010Prop38
140
0.0
102
RTVSPost2010PropOp38
 70
     1
102
RTVSPost2010Prop39
140
1.0
102
RTVSPost2010PropOp39
 70
     1
102
RTVSPost2010Prop40
 90
        0
102
RTVSPost2010PropOp40
 70
     1
102
RTVSPost2010Prop41ColorIndex
 90
       18
102
RTVSPost2010Prop41ColorRGB
 90
        0
102
RTVSPost2010PropOp41
 70
     1
102
RTVSPost2010Prop42
 90
       50
102
RTVSPost2010PropOp42
 70
     1
102
RTVSPost2010Prop43
 90
        3
102
RTVSPost2010PropOp43
 70
     1
102
RTVSPost2010Prop44ColorIndex
 90
        5
102
RTVSPost2010Prop44ColorRGB
 90
      255
102
RTVSPost2010PropOp44
 70
     1
102
RTVSPost2010Prop45
280
     0
102
RTVSPost2010PropOp45
 70
     1
102
RTVSPost2010Prop46
 90
       50
102
RTVSPost2010PropOp46
 70
     1
102
RTVSPost2010Prop47
 90
       50
102
RTVSPost2010PropOp47
 70
     1
102
RTVSPost2010Prop48
 90
       50
102
RTVSPost2010PropOp48
 70
     1
102
RTVSPost2010Prop49
280
     0
102
RTVSPost2010PropOp49
 70
     1
102
RTVSPost2010Prop50
 90
       50
102
RTVSPost2010PropOp50
 70
     1
102
RTVSPost2010Prop51ColorIndex
 90
      256
102
RTVSPost2010Prop51ColorRGB
 90
-16777216
102
RTVSPost2010PropOp51
 70
     0
102
RTVSPost2010Prop52
140
1.0
102
RTVSPost2010PropOp52
 70
     0
102
RTVSPost2010Prop53
 90
        2
102
RTVSPost2010PropOp53
 70
     1
102
RTVSPost2010Prop54
  1
strokes_ogs.tif
102
RTVSPost2010PropOp54
 70
     1
102
RTVSPost2010Prop55
280
     0
102
RTVSPost2010PropOp55
 70
     1
102
RTVSPost2010Prop56
140
1.0
102
RTVSPost2010PropOp56
 70
     1
102
RTVSPost2010Prop57
140
1.0
102
RTVSPost2010PropOp57
 70
     1
102
RTVSPropertyOp0
 70
     1
102
RTVSPropertyOp1
 70
     1
102
RTVSPropertyOp2
 70
     1
102
RTVSPropertyOp3
 70
     1
102
RTVSPropertyOp4
 70
     1
102
RTVSPropertyOp5
 70
     1
102
RTVSPropertyOp6
 70
     1
102
RTVSPropertyOp7
 70
     1
102
RTVSPropertyOp8
 70
     1
102
RTVSPropertyOp9
 70
     1
102
RTVSPropertyOp10
 70
     1
102
RTVSPropertyOp11
 70
     1
102
RTVSPropertyOp12
 70
     1
102
RTVSPropertyOp13
 70
     1
102
RTVSPropertyOp14
 70
     1
102
RTVSPropertyOp15
 70
     1
102
RTVSPropertyOp16
 70
     1
102
RTVSPropertyOp17
 70
     1
102
RTVSPropertyOp18
 70
     1
102
RTVSPropertyOp19
 70
     1
102
RTVSPropertyOp20
 70
     1
102
RTVSPropertyOp21
 70
     1
102
RTVSPropertyOp22
 70
     1
102
RTVSPropertyOp23
 70
     1
102
RTVSPropertyOp24
 70
     1
102
RTVSPropertyOp25
 70
     1
102
RTVSPropertyOp26
 70
     1
102
RTVSPropertyOp27
 70
     1
102
RTVSPropertyOp28
 70
     1
102
RTVSPropertyOp29
 70
     1
102
RTVSPropertyOp30
 70
     1
102
RTVSPropertyOp31
 70
     1
102
RTVSPropertyOp32
 70
     1
102
RTVSPropertyOp33
 70
     1
102
RTVSPropertyOp34
 70
     1
102
RTVSPropertyOp35
 70
     1
102
RTVSPropertyOp36
 70
     1
102
RTVSPropertyOp37
 70
     1
102
RTVSPropertyOp38
 70
     1
102
RTVSPropertyOp39
 70
     1
102
RTVSPropertyOp40
 70
     1
102
RTVSPropertyOp41
 70
     1
102
RTVSPropertyOp42
 70
     1
102
RTVSPropertyOp43
 70
     1
102
RTVSPropertyOp44
 70
     1
102
RTVSPropertyOp45
 70
     1
102
RTVSPropertyOp46
 70
     1
102
RTVSPropertyOp47
 70
     1
102
RTVSPropertyOp48
 70
     1
102
RTVSPropertyOp49
 70
     1
102
RTVSPropertyOp50
 70
     1
102
RTVSPropertyOp51
 70
     0
102
RTVSPropertyOp52
 70
     0
102
RTVSPropertyOp53
 70
     1
102
RTVSPropertyOp54
 70
     1
102
RTVSPropertyOp55
 70
     1
102
RTVSPropertyOp56
 70
     1
102
RTVSPropertyOp57
 70
     1
102
RTVSPropertyOp58
 70
     1
102
RTVSPropertyOp59
 70
     1
102
RTVSPropertyOp60
 70
     1
102
RTVSPropertyOp61
 70
     1
102
RTVSPropertyOp62
 70
     1
  0
XRECORD
  5
87EC
102
{ACAD_REACTORS
330
87EB
102
}
330
87EB
100
AcDbXrecord
280
     1
102
RTVSPost2010Prop28
280
     0
102
RTVSPost2010PropOp28
 70
     1
102
RTVSPost2010Prop29
280
     1
102
RTVSPost2010PropOp29
 70
     1
102
RTVSPost2010Prop30
280
     1
102
RTVSPost2010PropOp30
 70
     1
102
RTVSPost2010Prop31
280
     0
102
RTVSPost2010PropOp31
 70
     1
102
RTVSPost2010Prop32
280
     0
102
RTVSPost2010PropOp32
 70
     1
102
RTVSPost2010Prop33
280
     0
102
RTVSPost2010PropOp33
 70
     1
102
RTVSPost2010Prop34
280
     0
102
RTVSPost2010PropOp34
 70
     1
102
RTVSPost2010Prop35
280
     0
102
RTVSPost2010PropOp35
 70
     1
102
RTVSPost2010Prop36
280
     0
102
RTVSPost2010PropOp36
 70
     1
102
RTVSPost2010Prop37
 90
       50
102
RTVSPost2010PropOp37
 70
     1
102
RTVSPost2010Prop38
140
0.0
102
RTVSPost2010PropOp38
 70
     1
102
RTVSPost2010Prop39
140
1.0
102
RTVSPost2010PropOp39
 70
     1
102
RTVSPost2010Prop40
 90
        0
102
RTVSPost2010PropOp40
 70
     1
102
RTVSPost2010Prop41ColorIndex
 90
       18
102
RTVSPost2010Prop41ColorRGB
 90
        0
102
RTVSPost2010PropOp41
 70
     1
102
RTVSPost2010Prop42
 90
       50
102
RTVSPost2010PropOp42
 70
     1
102
RTVSPost2010Prop43
 90
        3
102
RTVSPost2010PropOp43
 70
     1
102
RTVSPost2010Prop44ColorIndex
 90
        5
102
RTVSPost2010Prop44ColorRGB
 90
      255
102
RTVSPost2010PropOp44
 70
     1
102
RTVSPost2010Prop45
280
     0
102
RTVSPost2010PropOp45
 70
     1
102
RTVSPost2010Prop46
 90
       50
102
RTVSPost2010PropOp46
 70
     1
102
RTVSPost2010Prop47
 90
       50
102
RTVSPost2010PropOp47
 70
     1
102
RTVSPost2010Prop48
 90
       50
102
RTVSPost2010PropOp48
 70
     1
102
RTVSPost2010Prop49
280
     0
102
RTVSPost2010PropOp49
 70
     1
102
RTVSPost2010Prop50
 90
       50
102
RTVSPost2010PropOp50
 70
     1
102
RTVSPost2010Prop51ColorIndex
 90
      256
102
RTVSPost2010Prop51ColorRGB
 90
-16777216
102
RTVSPost2010PropOp51
 70
     0
102
RTVSPost2010Prop52
140
1.0
102
RTVSPost2010PropOp52
 70
     0
102
RTVSPost2010Prop53
 90
        2
102
RTVSPost2010PropOp53
 70
     1
102
RTVSPost2010Prop54
  1
strokes_ogs.tif
102
RTVSPost2010PropOp54
 70
     1
102
RTVSPost2010Prop55
280
     0
102
RTVSPost2010PropOp55
 70
     1
102
RTVSPost2010Prop56
140
1.0
102
RTVSPost2010PropOp56
 70
     1
102
RTVSPost2010Prop57
140
1.0
102
RTVSPost2010PropOp57
 70
     1
102
RTVSPropertyOp0
 70
     1
102
RTVSPropertyOp1
 70
     1
102
RTVSPropertyOp2
 70
     1
102
RTVSPropertyOp3
 70
     1
102
RTVSPropertyOp4
 70
     1
102
RTVSPropertyOp5
 70
     1
102
RTVSPropertyOp6
 70
     1
102
RTVSPropertyOp7
 70
     1
102
RTVSPropertyOp8
 70
     1
102
RTVSPropertyOp9
 70
     1
102
RTVSPropertyOp10
 70
     1
102
RTVSPropertyOp11
 70
     1
102
RTVSPropertyOp12
 70
     1
102
RTVSPropertyOp13
 70
     1
102
RTVSPropertyOp14
 70
     1
102
RTVSPropertyOp15
 70
     1
102
RTVSPropertyOp16
 70
     1
102
RTVSPropertyOp17
 70
     1
102
RTVSPropertyOp18
 70
     1
102
RTVSPropertyOp19
 70
     1
102
RTVSPropertyOp20
 70
     1
102
RTVSPropertyOp21
 70
     1
102
RTVSPropertyOp22
 70
     1
102
RTVSPropertyOp23
 70
     1
102
RTVSPropertyOp24
 70
     1
102
RTVSPropertyOp25
 70
     1
102
RTVSPropertyOp26
 70
     1
102
RTVSPropertyOp27
 70
     1
102
RTVSPropertyOp28
 70
     1
102
RTVSPropertyOp29
 70
     1
102
RTVSPropertyOp30
 70
     1
102
RTVSPropertyOp31
 70
     1
102
RTVSPropertyOp32
 70
     1
102
RTVSPropertyOp33
 70
     1
102
RTVSPropertyOp34
 70
     1
102
RTVSPropertyOp35
 70
     1
102
RTVSPropertyOp36
 70
     1
102
RTVSPropertyOp37
 70
     1
102
RTVSPropertyOp38
 70
     1
102
RTVSPropertyOp39
 70
     1
102
RTVSPropertyOp40
 70
     1
102
RTVSPropertyOp41
 70
     1
102
RTVSPropertyOp42
 70
     1
102
RTVSPropertyOp43
 70
     1
102
RTVSPropertyOp44
 70
     1
102
RTVSPropertyOp45
 70
     1
102
RTVSPropertyOp46
 70
     1
102
RTVSPropertyOp47
 70
     1
102
RTVSPropertyOp48
 70
     1
102
RTVSPropertyOp49
 70
     1
102
RTVSPropertyOp50
 70
     1
102
RTVSPropertyOp51
 70
     0
102
RTVSPropertyOp52
 70
     0
102
RTVSPropertyOp53
 70
     1
102
RTVSPropertyOp54
 70
     1
102
RTVSPropertyOp55
 70
     1
102
RTVSPropertyOp56
 70
     1
102
RTVSPropertyOp57
 70
     1
102
RTVSPropertyOp58
 70
     1
102
RTVSPropertyOp59
 70
     1
102
RTVSPropertyOp60
 70
     1
102
RTVSPropertyOp61
 70
     1
102
RTVSPropertyOp62
 70
     1
  0
ENDSEC
  0
EOF
