  0
SECTION
  2
HEADER
  9
$ACADVER
  1
AC1015
  9
$ACADMAINTVER
 70
    20
  9
$DWGCODEPAGE
  3
ANSI_932
  9
$INSBASE
 10
0.0
 20
0.0
 30
0.0
  9
$EXTMIN
 10
-0.2563280987742473
 20
-0.3600799482810544
 30
-0.0015258207003583
  9
$EXTMAX
 10
8400.256367214323
 20
11800.3601348963
 30
0.0000000349246037
  9
$LIMMIN
 10
0.0
 20
0.0
  9
$LIMMAX
 10
297.0
 20
210.0
  9
$ORTHOMODE
 70
     1
  9
$REGENMODE
 70
     1
  9
$FILLMODE
 70
     0
  9
$QTEXTMODE
 70
     0
  9
$MIRRTEXT
 70
     1
  9
$LTSCALE
 40
100.0
  9
$ATTMODE
 70
     1
  9
$TEXTSIZE
 40
180.0
  9
$TRACEWID
 40
0.05
  9
$TEXTSTYLE
  7
STANDARD
  9
$CLAYER
  8
3
  9
$CELTYPE
  6
ByLayer
  9
$CECOLOR
 62
   256
  9
$CELTSCALE
 40
1.0
  9
$DISPSILH
 70
     0
  9
$DIMSCALE
 40
40.0
  9
$DIMASZ
 40
2.0
  9
$DIMEXO
 40
0.5
  9
$DIMDLI
 40
10.0
  9
$DIMRND
 40
0.0
  9
$DIMDLE
 40
0.0
  9
$DIMEXE
 40
1.0
  9
$DIMTP
 40
1.0
  9
$DIMTM
 40
1.0
  9
$DIMTXT
 40
3.0
  9
$DIMCEN
 40
0.0
  9
$DIMTSZ
 40
0.0
  9
$DIMTOL
 70
     0
  9
$DIMLIM
 70
     0
  9
$DIMTIH
 70
     0
  9
$DIMTOH
 70
     0
  9
$DIMSE1
 70
     0
  9
$DIMSE2
 70
     0
  9
$DIMTAD
 70
     1
  9
$DIMZIN
 70
     8
  9
$DIMBLK
  1

  9
$DIMASO
 70
     1
  9
$DIMSHO
 70
     1
  9
$DIMPOST
  1

  9
$DIMAPOST
  1

  9
$DIMALT
 70
     0
  9
$DIMALTD
 70
     2
  9
$DIMALTF
 40
0.039
  9
$DIMLFAC
 40
1.0
  9
$DIMTOFL
 70
     1
  9
$DIMTVP
 40
0.0
  9
$DIMTIX
 70
     0
  9
$DIMSOXD
 70
     0
  9
$DIMSAH
 70
     1
  9
$DIMBLK1
  1
OPEN
  9
$DIMBLK2
  1
OPEN
  9
$DIMSTYLE
  2
IGA
  9
$DIMCLRD
 70
     0
  9
$DIMCLRE
 70
     0
  9
$DIMCLRT
 70
     0
  9
$DIMTFAC
 40
10.0
  9
$DIMGAP
 40
1.0
  9
$DIMJUST
 70
     0
  9
$DIMSD1
 70
     0
  9
$DIMSD2
 70
     0
  9
$DIMTOLJ
 70
     1
  9
$DIMTZIN
 70
     0
  9
$DIMALTZ
 70
     0
  9
$DIMALTTZ
 70
     0
  9
$DIMUPT
 70
     0
  9
$DIMDEC
 70
     4
  9
$DIMTDEC
 70
     4
  9
$DIMALTU
 70
     2
  9
$DIMALTTD
 70
     2
  9
$DIMTXSTY
  7
STANDARD
  9
$DIMAUNIT
 70
     0
  9
$DIMADEC
 70
     0
  9
$DIMALTRND
 40
0.0
  9
$DIMAZIN
 70
     0
  9
$DIMDSEP
 70
    46
  9
$DIMATFIT
 70
     3
  9
$DIMFRAC
 70
     0
  9
$DIMLDRBLK
  1
OPEN
  9
$DIMLUNIT
 70
     2
  9
$DIMLWD
 70
    -2
  9
$DIMLWE
 70
    -2
  9
$DIMTMOVE
 70
     0
  9
$LUNITS
 70
     2
  9
$LUPREC
 70
     3
  9
$SKETCHINC
 40
0.1
  9
$FILLETRAD
 40
50.0
  9
$AUNITS
 70
     0
  9
$AUPREC
 70
     0
  9
$MENU
  1
acad
  9
$ELEVATION
 40
0.0
  9
$PELEVATION
 40
0.0
  9
$THICKNESS
 40
0.0
  9
$LIMCHECK
 70
     0
  9
$CHAMFERA
 40
0.5
  9
$CHAMFERB
 40
0.5
  9
$CHAMFERC
 40
0.0
  9
$CHAMFERD
 40
0.0
  9
$SKPOLY
 70
     0
  9
$TDCREATE
 40
2451897.649359722
  9
$TDUCREATE
 40
2451897.274359722
  9
$TDUPDATE
 40
2460280.776670926
  9
$TDUUPDATE
 40
2460280.401670926
  9
$TDINDWG
 40
0.0588433102
  9
$TDUSRTIMER
 40
0.0588430671
  9
$USRTIMER
 70
     1
  9
$ANGBASE
 50
0.0
  9
$ANGDIR
 70
     0
  9
$PDMODE
 70
     0
  9
$PDSIZE
 40
0.0
  9
$PLINEWID
 40
0.0
  9
$SPLFRAME
 70
     0
  9
$SPLINETYPE
 70
     6
  9
$SPLINESEGS
 70
     8
  9
$HANDSEED
  5
87EA
  9
$SURFTAB1
 70
     6
  9
$SURFTAB2
 70
     6
  9
$SURFTYPE
 70
     6
  9
$SURFU
 70
     6
  9
$SURFV
 70
     6
  9
$UCSBASE
  2

  9
$UCSNAME
  2

  9
$UCSORG
 10
0.0
 20
0.0
 30
0.0
  9
$UCSXDIR
 10
1.0
 20
0.0
 30
0.0
  9
$UCSYDIR
 10
0.0
 20
1.0
 30
0.0
  9
$UCSORTHOREF
  2

  9
$UCSORTHOVIEW
 70
     0
  9
$UCSORGTOP
 10
0.0
 20
0.0
 30
0.0
  9
$UCSORGBOTTOM
 10
0.0
 20
0.0
 30
0.0
  9
$UCSORGLEFT
 10
0.0
 20
0.0
 30
0.0
  9
$UCSORGRIGHT
 10
0.0
 20
0.0
 30
0.0
  9
$UCSORGFRONT
 10
0.0
 20
0.0
 30
0.0
  9
$UCSORGBACK
 10
0.0
 20
0.0
 30
0.0
  9
$PUCSBASE
  2

  9
$PUCSNAME
  2

  9
$PUCSORG
 10
0.0
 20
0.0
 30
0.0
  9
$PUCSXDIR
 10
1.0
 20
0.0
 30
0.0
  9
$PUCSYDIR
 10
0.0
 20
1.0
 30
0.0
  9
$PUCSORTHOREF
  2

  9
$PUCSORTHOVIEW
 70
     0
  9
$PUCSORGTOP
 10
0.0
 20
0.0
 30
0.0
  9
$PUCSORGBOTTOM
 10
0.0
 20
0.0
 30
0.0
  9
$PUCSORGLEFT
 10
0.0
 20
0.0
 30
0.0
  9
$PUCSORGRIGHT
 10
0.0
 20
0.0
 30
0.0
  9
$PUCSORGFRONT
 10
0.0
 20
0.0
 30
0.0
  9
$PUCSORGBACK
 10
0.0
 20
0.0
 30
0.0
  9
$USERI1
 70
     0
  9
$USERI2
 70
     0
  9
$USERI3
 70
     0
  9
$USERI4
 70
     0
  9
$USERI5
 70
     0
  9
$USERR1
 40
0.0
  9
$USERR2
 40
0.0
  9
$USERR3
 40
0.0
  9
$USERR4
 40
0.0
  9
$USERR5
 40
0.0
  9
$WORLDVIEW
 70
     1
  9
$SHADEDGE
 70
     3
  9
$SHADEDIF
 70
    70
  9
$TILEMODE
 70
     1
  9
$MAXACTVP
 70
    16
  9
$PINSBASE
 10
0.0
 20
0.0
 30
0.0
  9
$PLIMCHECK
 70
     0
  9
$PEXTMIN
 10
1.000000000000000E+20
 20
1.000000000000000E+20
 30
1.000000000000000E+20
  9
$PEXTMAX
 10
-1.000000000000000E+20
 20
-1.000000000000000E+20
 30
-1.000000000000000E+20
  9
$PLIMMIN
 10
0.0
 20
0.0
  9
$PLIMMAX
 10
12.0
 20
9.0
  9
$UNITMODE
 70
     0
  9
$VISRETAIN
 70
     0
  9
$PLINEGEN
 70
     0
  9
$PSLTSCALE
 70
     1
  9
$TREEDEPTH
 70
  3020
  9
$CMLSTYLE
  2
Standard
  9
$CMLJUST
 70
     0
  9
$CMLSCALE
 40
1.0
  9
$PROXYGRAPHICS
 70
     1
  9
$MEASUREMENT
 70
     0
  9
$CELWEIGHT
370
    -1
  9
$ENDCAPS
280
     0
  9
$JOINSTYLE
280
     0
  9
$LWDISPLAY
290
     0
  9
$INSUNITS
 70
     0
  9
$HYPERLINKBASE
  1

  9
$STYLESHEET
  1

  9
$XEDIT
290
     1
  9
$CEPSNTYPE
380
     0
  9
$PSTYLEMODE
290
     1
  9
$FINGERPRINTGUID
  2
{F232684C-5747-4DEC-B511-54644B1085C4}
  9
$VERSIONGUID
  2
{A1B9E8AB-9267-4296-BF85-2DEBF5EF479F}
  9
$EXTNAMES
290
     1
  9
$PSVPSCALE
 40
0.0
  9
$OLESTARTUP
290
     0
  0
ENDSEC
  0
SECTION
  2
CLASSES
  0
CLASS
  1
ACDBDICTIONARYWDFLT
  2
AcDbDictionaryWithDefault
  3
ObjectDBX Classes
 90
        0
280
     0
281
     0
  0
CLASS
  1
MATERIAL
  2
AcDbMaterial
  3
ObjectDBX Classes
 90
     1153
280
     0
281
     0
  0
CLASS
  1
VISUALSTYLE
  2
AcDbVisualStyle
  3
ObjectDBX Classes
 90
     4095
280
     0
281
     0
  0
CLASS
  1
SCALE
  2
AcDbScale
  3
ObjectDBX Classes
 90
     1153
280
     0
281
     0
  0
CLASS
  1
TABLESTYLE
  2
AcDbTableStyle
  3
ObjectDBX Classes
 90
     4095
280
     0
281
     0
  0
CLASS
  1
MLEADERSTYLE
  2
AcDbMLeaderStyle
  3
ACDB_MLEADERSTYLE_CLASS
 90
     4095
280
     0
281
     0
  0
CLASS
  1
ACDBSECTIONVIEWSTYLE
  2
AcDbSectionViewStyle
  3
ObjectDBX Classes
 90
     1025
280
     0
281
     0
  0
CLASS
  1
ACDBDETAILVIEWSTYLE
  2
AcDbDetailViewStyle
  3
ObjectDBX Classes
 90
     1025
280
     0
281
     0
  0
CLASS
  1
DICTIONARYVAR
  2
AcDbDictionaryVar
  3
ObjectDBX Classes
 90
        0
280
     0
281
     0
  0
CLASS
  1
CELLSTYLEMAP
  2
AcDbCellStyleMap
  3
ObjectDBX Classes
 90
     1152
280
     0
281
     0
  0
CLASS
  1
SORTENTSTABLE
  2
AcDbSortentsTable
  3
ObjectDBX Classes
 90
        0
280
     0
281
     0
  0
CLASS
  1
ACDBPLACEHOLDER
  2
AcDbPlaceHolder
  3
ObjectDBX Classes
 90
        0
280
     0
281
     0
  0
CLASS
  1
LAYOUT
  2
AcDbLayout
  3
ObjectDBX Classes
 90
        0
280
     0
281
     0
  0
ENDSEC
  0
SECTION
  2
TABLES
  0
TABLE
  2
VPORT
  5
8375
330
0
100
AcDbSymbolTable
 70
     1
  0
VPORT
  5
83E1
330
8375
100
AcDbSymbolTableRecord
100
AcDbViewportTableRecord
  2
*ACTIVE
 70
     0
 10
0.0
 20
0.0
 11
1.0
 21
1.0
 12
4200.000019557773
 22
5900.000027474012
 13
0.0
 23
0.0
 14
10.0
 24
10.0
 15
10.0
 25
10.0
 16
0.0
 26
0.0
 36
1.0
 17
0.0
 27
0.0
 37
0.0
 40
11876.28512550527
 41
2.050213675213675
 42
50.0
 43
0.0
 44
0.0
 50
0.0
 51
0.0
 71
     0
 72
   100
 73
     1
 74
     0
 75
     0
 76
     0
 77
     0
 78
     0
281
     0
 65
     1
110
0.0
120
0.0
130
0.0
111
1.0
121
0.0
131
0.0
112
0.0
122
1.0
132
0.0
 79
     0
146
0.0
1001
ACAD_NAV_VCDISPLAY
1070
     3
  0
ENDTAB
  0
TABLE
  2
LTYPE
  5
8372
330
0
100
AcDbSymbolTable
 70
     3
  0
LTYPE
  5
83C7
330
8372
100
AcDbSymbolTableRecord
100
AcDbLinetypeTableRecord
  2
ByBlock
 70
     0
  3

 72
    65
 73
     0
 40
0.0
  0
LTYPE
  5
83C8
330
8372
100
AcDbSymbolTableRecord
100
AcDbLinetypeTableRecord
  2
ByLayer
 70
     0
  3

 72
    65
 73
     0
 40
0.0
  0
LTYPE
  5
83C9
330
8372
100
AcDbSymbolTableRecord
100
AcDbLinetypeTableRecord
  2
CONTINUOUS
 70
     0
  3
Solid line
 72
    65
 73
     0
 40
0.0
  0
LTYPE
  5
83E2
330
8372
100
AcDbSymbolTableRecord
100
AcDbLinetypeTableRecord
  2
CENTER
 70
     0
  3
____ _ ____ _ ____ _ ____ _ ____ _ ____ _ ____ 
 72
    65
 73
     4
 40
2.0
 49
1.25
 74
     0
 49
-0.25
 74
     0
 49
0.25
 74
     0
 49
-0.25
 74
     0
  0
ENDTAB
  0
TABLE
  2
LAYER
  5
836F
330
0
100
AcDbSymbolTable
 70
     6
  0
LAYER
  5
83C1
102
{ACAD_XDICTIONARY
360
8424
102
}
330
836F
100
AcDbSymbolTableRecord
100
AcDbLayerTableRecord
  2
0
 70
     0
 62
     7
  6
CONTINUOUS
370
    -3
390
837C
  0
LAYER
  5
83E0
102
{ACAD_XDICTIONARY
360
8426
102
}
330
836F
100
AcDbSymbolTableRecord
100
AcDbLayerTableRecord
  2
3
 70
     0
 62
     2
  6
CONTINUOUS
370
    -3
390
837C
  0
LAYER
  5
83E3
102
{ACAD_XDICTIONARY
360
8428
102
}
330
836F
100
AcDbSymbolTableRecord
100
AcDbLayerTableRecord
  2
2
 70
     0
 62
     3
  6
CENTER
370
    -3
390
837C
  0
LAYER
  5
83E4
102
{ACAD_XDICTIONARY
360
842A
102
}
330
836F
100
AcDbSymbolTableRecord
100
AcDbLayerTableRecord
  2
1
 70
     0
 62
     4
  6
CONTINUOUS
370
    -3
390
837C
  0
LAYER
  5
83E5
102
{ACAD_XDICTIONARY
360
842C
102
}
330
836F
100
AcDbSymbolTableRecord
100
AcDbLayerTableRecord
  2
4
 70
     0
 62
     7
  6
CONTINUOUS
370
    -3
390
837C
  0
LAYER
  5
83E6
330
836F
100
AcDbSymbolTableRecord
100
AcDbLayerTableRecord
  2
DEFPOINTS
 70
     0
 62
     7
  6
CONTINUOUS
290
     0
370
    -3
390
837C
  0
ENDTAB
  0
TABLE
  2
STYLE
  5
8370
330
0
100
AcDbSymbolTable
 70
     2
  0
STYLE
  5
83C2
330
8370
100
AcDbSymbolTableRecord
100
AcDbTextStyleTableRecord
  2
STANDARD
 70
     0
 40
0.0
 41
1.0
 50
0.0
 71
     0
 42
180.0
  3
simplex.shx
  4
extfont.shx
  0
STYLE
  5
83C6
330
8370
100
AcDbSymbolTableRecord
100
AcDbTextStyleTableRecord
  2
Annotative
 70
     0
 40
0.0
 41
1.0
 50
0.0
 71
     0
 42
0.2
  3
txt
  4

1001
AcadAnnotative
1000
AnnotativeData
1002
{
1070
     1
1070
     1
1002
}
  0
ENDTAB
  0
TABLE
  2
VIEW
  5
8373
330
0
100
AcDbSymbolTable
 70
     0
  0
ENDTAB
  0
TABLE
  2
UCS
  5
8374
330
0
100
AcDbSymbolTable
 70
     0
  0
ENDTAB
  0
TABLE
  2
APPID
  5
8376
330
0
100
AcDbSymbolTable
 70
     8
  0
APPID
  5
83C3
330
8376
100
AcDbSymbolTableRecord
100
AcDbRegAppTableRecord
  2
ACAD
 70
     0
  0
APPID
  5
83CA
330
8376
100
AcDbSymbolTableRecord
100
AcDbRegAppTableRecord
  2
AcadAnnotative
 70
     0
  0
APPID
  5
8438
330
8376
100
AcDbSymbolTableRecord
100
AcDbRegAppTableRecord
  2
ACAD_NAV_VCDISPLAY
 70
     0
  0
APPID
  5
84D4
330
8376
100
AcDbSymbolTableRecord
100
AcDbRegAppTableRecord
  2
ACAD_DSTYLE_DIMJAG
 70
     0
  0
APPID
  5
84D5
330
8376
100
AcDbSymbolTableRecord
100
AcDbRegAppTableRecord
  2
ACAD_DSTYLE_DIMTALN
 70
     0
  0
APPID
  5
8520
330
8376
100
AcDbSymbolTableRecord
100
AcDbRegAppTableRecord
  2
AcadAnnoMonitorAlertIconDisabled
 70
     0
  0
APPID
  5
8521
330
8376
100
AcDbSymbolTableRecord
100
AcDbRegAppTableRecord
  2
ACAD_EXEMPT_FROM_CAD_STANDARDS
 70
     0
  0
APPID
  5
87E1
330
8376
100
AcDbSymbolTableRecord
100
AcDbRegAppTableRecord
  2
ACAD_MLEADERVER
 70
     0
  0
ENDTAB
  0
TABLE
  2
DIMSTYLE
  5
8377
330
0
100
AcDbSymbolTable
 70
     3
100
AcDbDimStyleTable
 71
     1
340
83E7
  0
DIMSTYLE
105
83C4
330
8377
100
AcDbSymbolTableRecord
100
AcDbDimStyleTableRecord
  2
Standard
 70
     0
340
83C2
  0
DIMSTYLE
105
83C5
330
8377
100
AcDbSymbolTableRecord
100
AcDbDimStyleTableRecord
  2
Annotative
 70
     0
340
83C2
1001
AcadAnnotative
1000
AnnotativeData
1002
{
1070
     1
1070
     1
1002
}
  0
DIMSTYLE
105
83E7
102
{ACAD_REACTORS
330
84DA
330
84E7
330
84F4
330
8501
330
8547
330
8554
330
8580
330
858D
330
859A
330
85A7
330
85B4
330
85CA
330
85D7
330
85E4
330
85F1
330
85FE
330
860B
330
8618
330
862A
330
863C
330
873C
330
8749
102
}
330
8377
100
AcDbSymbolTableRecord
100
AcDbDimStyleTableRecord
  2
IGA
 70
     0
 40
2.0
 41
2.0
 42
0.5
 43
10.0
 44
1.0
 47
1.0
 48
1.0
 73
     0
 74
     0
 77
     1
 78
     8
140
3.0
141
0.0
143
0.03937
146
10.0
147
1.0
173
     1
271
     3
272
     3
279
     2
284
     8
285
     8
286
     8
340
83C2
  0
ENDTAB
  0
TABLE
  2
BLOCK_RECORD
  5
836E
330
0
100
AcDbSymbolTable
 70
    59
  0
BLOCK_RECORD
  5
83DC
102
{ACAD_XDICTIONARY
360
84D7
102
}
330
836E
100
AcDbSymbolTableRecord
100
AcDbBlockTableRecord
  2
*Model_Space
340
83DF
  0
BLOCK_RECORD
  5
83D8
330
836E
100
AcDbSymbolTableRecord
100
AcDbBlockTableRecord
  2
*Paper_Space
340
83DB
  0
BLOCK_RECORD
  5
83EB
330
836E
100
AcDbSymbolTableRecord
100
AcDbBlockTableRecord
  2
$MODEL_SPACE
340
0
  0
BLOCK_RECORD
  5
83ED
330
836E
100
AcDbSymbolTableRecord
100
AcDbBlockTableRecord
  2
$PAPER_SPACE
340
0
  0
BLOCK_RECORD
  5
83EF
330
836E
100
AcDbSymbolTableRecord
100
AcDbBlockTableRecord
  2
YA_N
340
0
102
{BLKREFS
331
7C23
331
7C50
331
7C77
331
7CCF
102
}
  0
BLOCK_RECORD
  5
83F1
330
836E
100
AcDbSymbolTableRecord
100
AcDbBlockTableRecord
  2
*D3
340
0
  0
BLOCK_RECORD
  5
83F3
330
836E
100
AcDbSymbolTableRecord
100
AcDbBlockTableRecord
  2
_OPEN
340
0
102
{BLKREFS
331
8313
331
8314
331
831C
331
831D
331
8738
331
8743
331
8744
331
8750
331
8751
331
8325
331
8326
331
86DE
331
832E
331
832F
331
8337
331
85EB
331
85EC
331
85F8
331
85F9
331
8605
331
8606
331
8612
331
8613
331
82CB
331
82CC
331
82D4
331
82D5
331
82DD
331
82DE
331
82E6
331
82E7
331
82EF
331
82F0
331
82F8
331
82F9
331
8301
331
8302
331
830A
331
830B
331
87A3
331
87A4
331
8338
331
8587
331
8588
331
8594
331
8595
331
85A1
331
85A2
331
85AE
331
85AF
331
85BB
331
85BC
331
85C4
331
85C5
331
85D1
331
85D2
331
85DE
331
85DF
331
8340
331
8341
331
854E
331
854F
331
855B
331
855C
331
8564
331
8565
331
856D
331
856E
331
8349
331
834A
331
84E1
331
84E2
331
84EE
331
84EF
331
81BA
331
81BB
331
8355
331
8144
331
8145
331
8151
331
8152
331
815E
331
815F
331
816B
331
816C
102
}
  0
BLOCK_RECORD
  5
83F4
330
836E
100
AcDbSymbolTableRecord
100
AcDbBlockTableRecord
  2
*D5
340
0
  0
BLOCK_RECORD
  5
83F6
330
836E
100
AcDbSymbolTableRecord
100
AcDbBlockTableRecord
  2
*D6
340
0
  0
BLOCK_RECORD
  5
83F8
330
836E
100
AcDbSymbolTableRecord
100
AcDbBlockTableRecord
  2
*D7
340
0
  0
BLOCK_RECORD
  5
83FA
330
836E
100
AcDbSymbolTableRecord
100
AcDbBlockTableRecord
  2
*D8
340
0
  0
BLOCK_RECORD
  5
83FC
330
836E
100
AcDbSymbolTableRecord
100
AcDbBlockTableRecord
  2
*D9
340
0
  0
BLOCK_RECORD
  5
83FE
330
836E
100
AcDbSymbolTableRecord
100
AcDbBlockTableRecord
  2
*D10
340
0
  0
BLOCK_RECORD
  5
8400
330
836E
100
AcDbSymbolTableRecord
100
AcDbBlockTableRecord
  2
*D11
340
0
  0
BLOCK_RECORD
  5
8402
330
836E
100
AcDbSymbolTableRecord
100
AcDbBlockTableRecord
  2
*D12
340
0
  0
BLOCK_RECORD
  5
8404
330
836E
100
AcDbSymbolTableRecord
100
AcDbBlockTableRecord
  2
*D13
340
0
  0
BLOCK_RECORD
  5
8406
330
836E
100
AcDbSymbolTableRecord
100
AcDbBlockTableRecord
  2
*D14
340
0
  0
BLOCK_RECORD
  5
8408
330
836E
100
AcDbSymbolTableRecord
100
AcDbBlockTableRecord
  2
*D15
340
0
  0
BLOCK_RECORD
  5
840A
330
836E
100
AcDbSymbolTableRecord
100
AcDbBlockTableRecord
  2
*D16
340
0
  0
BLOCK_RECORD
  5
840C
330
836E
100
AcDbSymbolTableRecord
100
AcDbBlockTableRecord
  2
*D17
340
0
  0
BLOCK_RECORD
  5
840E
330
836E
100
AcDbSymbolTableRecord
100
AcDbBlockTableRecord
  2
*D18
340
0
  0
BLOCK_RECORD
  5
8411
330
836E
100
AcDbSymbolTableRecord
100
AcDbBlockTableRecord
  2
*D19
340
0
  0
BLOCK_RECORD
  5
8413
330
836E
100
AcDbSymbolTableRecord
100
AcDbBlockTableRecord
  2
_DOT
340
0
102
{BLKREFS
331
8354
102
}
  0
BLOCK_RECORD
  5
8415
330
836E
100
AcDbSymbolTableRecord
100
AcDbBlockTableRecord
  2
*D21
340
0
  0
BLOCK_RECORD
  5
8417
330
836E
100
AcDbSymbolTableRecord
100
AcDbBlockTableRecord
  2
*D22
340
0
  0
BLOCK_RECORD
  5
8419
330
836E
100
AcDbSymbolTableRecord
100
AcDbBlockTableRecord
  2
*D23
340
0
  0
BLOCK_RECORD
  5
841B
330
836E
100
AcDbSymbolTableRecord
100
AcDbBlockTableRecord
  2
*D24
340
0
  0
BLOCK_RECORD
  5
841D
330
836E
100
AcDbSymbolTableRecord
100
AcDbBlockTableRecord
  2
_NONE
340
0
  0
BLOCK_RECORD
  5
841F
330
836E
100
AcDbSymbolTableRecord
100
AcDbBlockTableRecord
  2
*D26
340
0
  0
BLOCK_RECORD
  5
8421
330
836E
100
AcDbSymbolTableRecord
100
AcDbBlockTableRecord
  2
*D27
340
0
  0
BLOCK_RECORD
  5
847A
330
836E
100
AcDbSymbolTableRecord
100
AcDbBlockTableRecord
  2
*D28
340
0
  0
BLOCK_RECORD
  5
8485
330
836E
100
AcDbSymbolTableRecord
100
AcDbBlockTableRecord
  2
*D29
340
0
  0
BLOCK_RECORD
  5
8492
330
836E
100
AcDbSymbolTableRecord
100
AcDbBlockTableRecord
  2
*D30
340
0
  0
BLOCK_RECORD
  5
849F
330
836E
100
AcDbSymbolTableRecord
100
AcDbBlockTableRecord
  2
*D31
340
0
  0
BLOCK_RECORD
  5
84AC
330
836E
100
AcDbSymbolTableRecord
100
AcDbBlockTableRecord
  2
*D32
340
0
  0
BLOCK_RECORD
  5
84B9
330
836E
100
AcDbSymbolTableRecord
100
AcDbBlockTableRecord
  2
*D33
340
0
  0
BLOCK_RECORD
  5
84C6
330
836E
100
AcDbSymbolTableRecord
100
AcDbBlockTableRecord
  2
*D34
340
0
  0
BLOCK_RECORD
  5
84DB
330
836E
100
AcDbSymbolTableRecord
100
AcDbBlockTableRecord
  2
*D35
340
0
  0
BLOCK_RECORD
  5
84E8
330
836E
100
AcDbSymbolTableRecord
100
AcDbBlockTableRecord
  2
*D36
340
0
  0
BLOCK_RECORD
  5
84F5
330
836E
100
AcDbSymbolTableRecord
100
AcDbBlockTableRecord
  2
*D37
340
0
  0
BLOCK_RECORD
  5
8502
330
836E
100
AcDbSymbolTableRecord
100
AcDbBlockTableRecord
  2
*D38
340
0
  0
BLOCK_RECORD
  5
8548
330
836E
100
AcDbSymbolTableRecord
100
AcDbBlockTableRecord
  2
*D39
340
0
  0
BLOCK_RECORD
  5
8555
330
836E
100
AcDbSymbolTableRecord
100
AcDbBlockTableRecord
  2
*D40
340
0
  0
BLOCK_RECORD
  5
8574
330
836E
100
AcDbSymbolTableRecord
100
AcDbBlockTableRecord
  2
*D41
340
0
  0
BLOCK_RECORD
  5
8581
330
836E
100
AcDbSymbolTableRecord
100
AcDbBlockTableRecord
  2
*D42
340
0
  0
BLOCK_RECORD
  5
858E
330
836E
100
AcDbSymbolTableRecord
100
AcDbBlockTableRecord
  2
*D43
340
0
  0
BLOCK_RECORD
  5
859B
330
836E
100
AcDbSymbolTableRecord
100
AcDbBlockTableRecord
  2
*D44
340
0
  0
BLOCK_RECORD
  5
85A8
330
836E
100
AcDbSymbolTableRecord
100
AcDbBlockTableRecord
  2
*D45
340
0
  0
BLOCK_RECORD
  5
85B5
330
836E
100
AcDbSymbolTableRecord
100
AcDbBlockTableRecord
  2
*D46
340
0
  0
BLOCK_RECORD
  5
85CB
330
836E
100
AcDbSymbolTableRecord
100
AcDbBlockTableRecord
  2
*D47
340
0
  0
BLOCK_RECORD
  5
85D8
330
836E
100
AcDbSymbolTableRecord
100
AcDbBlockTableRecord
  2
*D48
340
0
  0
BLOCK_RECORD
  5
85E5
330
836E
100
AcDbSymbolTableRecord
100
AcDbBlockTableRecord
  2
*D49
340
0
  0
BLOCK_RECORD
  5
85F2
330
836E
100
AcDbSymbolTableRecord
100
AcDbBlockTableRecord
  2
*D50
340
0
  0
BLOCK_RECORD
  5
85FF
330
836E
100
AcDbSymbolTableRecord
100
AcDbBlockTableRecord
  2
*D51
340
0
  0
BLOCK_RECORD
  5
860C
330
836E
100
AcDbSymbolTableRecord
100
AcDbBlockTableRecord
  2
*D52
340
0
  0
BLOCK_RECORD
  5
8619
330
836E
100
AcDbSymbolTableRecord
100
AcDbBlockTableRecord
  2
*D53
340
0
  0
BLOCK_RECORD
  5
862B
330
836E
100
AcDbSymbolTableRecord
100
AcDbBlockTableRecord
  2
*D54
340
0
  0
BLOCK_RECORD
  5
863D
330
836E
100
AcDbSymbolTableRecord
100
AcDbBlockTableRecord
  2
*D55
340
0
  0
BLOCK_RECORD
  5
86D1
330
836E
100
AcDbSymbolTableRecord
100
AcDbBlockTableRecord
  2
_DotSmall
340
0
102
{BLKREFS
331
8737
331
86DF
102
}
  0
BLOCK_RECORD
  5
873D
330
836E
100
AcDbSymbolTableRecord
100
AcDbBlockTableRecord
  2
*D57
340
0
  0
BLOCK_RECORD
  5
874A
330
836E
100
AcDbSymbolTableRecord
100
AcDbBlockTableRecord
  2
*D58
340
0
  0
ENDTAB
  0
ENDSEC
  0
SECTION
  2
BLOCKS
  0
BLOCK
  5
83DD
330
83DC
100
AcDbEntity
  8
0
100
AcDbBlockBegin
  2
*Model_Space
 70
     0
 10
0.0
 20
0.0
 30
0.0
  3
*Model_Space
  1

  0
ENDBLK
  5
83DE
330
83DC
100
AcDbEntity
  8
0
100
AcDbBlockEnd
  0
BLOCK
  5
83D9
330
83D8
100
AcDbEntity
 67
     1
  8
0
100
AcDbBlockBegin
  2
*Paper_Space
 70
     0
 10
0.0
 20
0.0
 30
0.0
  3
*Paper_Space
  1

  0
ENDBLK
  5
83DA
330
83D8
100
AcDbEntity
 67
     1
  8
0
100
AcDbBlockEnd
  0
BLOCK
  5
83EC
330
83EB
100
AcDbEntity
  8
0
100
AcDbBlockBegin
  2
$MODEL_SPACE
 70
     0
 10
0.0
 20
0.0
 30
0.0
  3
$MODEL_SPACE
  1

  0
ENDBLK
  5
1B
330
83EB
100
AcDbEntity
  8
0
100
AcDbBlockEnd
  0
BLOCK
  5
83EE
330
83ED
100
AcDbEntity
  8
0
100
AcDbBlockBegin
  2
$PAPER_SPACE
 70
     0
 10
0.0
 20
0.0
 30
0.0
  3
$PAPER_SPACE
  1

  0
ENDBLK
  5
18
330
83ED
100
AcDbEntity
  8
0
100
AcDbBlockEnd
  0
BLOCK
  5
83F0
330
83EF
100
AcDbEntity
  8
0
100
AcDbBlockBegin
  2
YA_N
 70
     0
 10
0.0
 20
0.0
 30
0.0
  3
YA_N
  1

  0
ENDBLK
  5
79FE
330
83EF
100
AcDbEntity
  8
0
100
AcDbBlockEnd
  0
BLOCK
  5
83F2
330
83F1
100
AcDbEntity
  8
0
100
AcDbBlockBegin
  2
*D3
 70
     1
 10
0.0
 20
0.0
 30
0.0
  3
*D3
  1

  0
LINE
  5
82C8
330
83F1
100
AcDbEntity
  8
3
 62
     0
100
AcDbLine
 10
3691.156955993245
 20
5080.144075523783
 30
0.0
 11
3964.167988683202
 21
5080.144075523783
 31
0.0
  0
LINE
  5
82C9
330
83F1
100
AcDbEntity
  8
3
 62
     0
100
AcDbLine
 10
3691.156955993245
 20
3800.144075523784
 30
0.0
 11
3964.167988683202
 21
3800.144075523784
 31
0.0
  0
LINE
  5
82CA
330
83F1
100
AcDbEntity
  8
3
 62
     0
100
AcDbLine
 10
3924.167988683201
 20
5000.144075523785
 30
0.0
 11
3924.167988683201
 21
3880.144075523784
 31
0.0
  0
INSERT
  5
82CB
330
83F1
100
AcDbEntity
  8
3
 62
     0
100
AcDbBlockReference
  2
_OPEN
 10
3924.167988683201
 20
5080.144075523783
 30
0.0
 41
80.0
 42
80.0
 43
80.0
 50
90.0
  0
INSERT
  5
82CC
330
83F1
100
AcDbEntity
  8
3
 62
     0
100
AcDbBlockReference
  2
_OPEN
 10
3924.167988683201
 20
3800.144075523784
 30
0.0
 41
80.0
 42
80.0
 43
80.0
 50
270.0
  0
TEXT
  5
835D
330
83F1
100
AcDbEntity
  8
3
 62
     0
100
AcDbText
 10
3584.17
 20
4227.739999999999
 30
0.0
 40
120.0
  1
1280
100
AcDbText
  0
POINT
  5
82CE
330
83F1
100
AcDbEntity
  8
DEFPOINTS
 62
     0
100
AcDbPoint
 10
3671.156955993246
 20
5080.144075523783
 30
0.0
  0
POINT
  5
82CF
330
83F1
100
AcDbEntity
  8
DEFPOINTS
 62
     0
100
AcDbPoint
 10
3671.156955993246
 20
3800.144075523784
 30
0.0
  0
POINT
  5
82D0
330
83F1
100
AcDbEntity
  8
DEFPOINTS
 62
     0
100
AcDbPoint
 10
3924.167988683201
 20
3800.144075523784
 30
0.0
  0
ENDBLK
  5
801D
330
83F1
100
AcDbEntity
  8
0
100
AcDbBlockEnd
  0
BLOCK
  5
8410
330
83F3
100
AcDbEntity
  8
0
100
AcDbBlockBegin
  2
_OPEN
 70
     0
 10
0.0
 20
0.0
 30
0.0
  3
_OPEN
  1

  0
LINE
  5
7F33
330
83F3
100
AcDbEntity
  8
0
  6
ByBlock
 62
     0
100
AcDbLine
 10
-1.0
 20
0.1666666666666666
 30
0.0
 11
0.0
 21
0.0
 31
0.0
  0
LINE
  5
7F34
330
83F3
100
AcDbEntity
  8
0
  6
ByBlock
 62
     0
100
AcDbLine
 10
0.0
 20
0.0
 30
0.0
 11
-1.0
 21
-0.1666666666666666
 31
0.0
  0
LINE
  5
7F35
330
83F3
100
AcDbEntity
  8
0
  6
ByBlock
 62
     0
100
AcDbLine
 10
0.0
 20
0.0
 30
0.0
 11
-1.0
 21
0.0
 31
0.0
  0
ENDBLK
  5
7F36
330
83F3
100
AcDbEntity
  8
0
100
AcDbBlockEnd
  0
BLOCK
  5
83F5
330
83F4
100
AcDbEntity
  8
0
100
AcDbBlockBegin
  2
*D5
 70
     1
 10
0.0
 20
0.0
 30
0.0
  3
*D5
  1

  0
LINE
  5
82D1
330
83F4
100
AcDbEntity
  8
3
 62
     0
100
AcDbLine
 10
3691.156955993245
 20
5080.144075523783
 30
0.0
 11
4211.230831139732
 21
5080.144075523783
 31
0.0
  0
LINE
  5
82D2
330
83F4
100
AcDbEntity
  8
3
 62
     0
100
AcDbLine
 10
3769.593494242098
 20
3746.144075523783
 30
0.0
 11
4211.230831139732
 21
3746.144075523783
 31
0.0
  0
LINE
  5
82D3
330
83F4
100
AcDbEntity
  8
3
 62
     0
100
AcDbLine
 10
4171.230831139732
 20
5000.144075523785
 30
0.0
 11
4171.230831139732
 21
3826.144075523784
 31
0.0
  0
INSERT
  5
82D4
330
83F4
100
AcDbEntity
  8
3
 62
     0
100
AcDbBlockReference
  2
_OPEN
 10
4171.230831139732
 20
5080.144075523783
 30
0.0
 41
80.0
 42
80.0
 43
80.0
 50
90.0
  0
INSERT
  5
82D5
330
83F4
100
AcDbEntity
  8
3
 62
     0
100
AcDbBlockReference
  2
_OPEN
 10
4171.230831139732
 20
3746.144075523783
 30
0.0
 41
80.0
 42
80.0
 43
80.0
 50
270.0
  0
TEXT
  5
835E
330
83F4
100
AcDbEntity
  8
3
 62
     0
100
AcDbText
 10
3831.23
 20
4200.739999999999
 30
0.0
 40
120.0
  1
1334
100
AcDbText
  0
POINT
  5
82D7
330
83F4
100
AcDbEntity
  8
DEFPOINTS
 62
     0
100
AcDbPoint
 10
3671.156955993246
 20
5080.144075523783
 30
0.0
  0
POINT
  5
82D8
330
83F4
100
AcDbEntity
  8
DEFPOINTS
 62
     0
100
AcDbPoint
 10
3749.593494242097
 20
3746.144075523783
 30
0.0
  0
POINT
  5
82D9
330
83F4
100
AcDbEntity
  8
DEFPOINTS
 62
     0
100
AcDbPoint
 10
4171.230831139732
 20
3746.144075523783
 30
0.0
  0
ENDBLK
  5
8012
330
83F4
100
AcDbEntity
  8
0
100
AcDbBlockEnd
  0
BLOCK
  5
83F7
330
83F6
100
AcDbEntity
  8
0
100
AcDbBlockBegin
  2
*D6
 70
     1
 10
0.0
 20
0.0
 30
0.0
  3
*D6
  1

  0
LINE
  5
82DA
330
83F6
100
AcDbEntity
  8
3
 62
     0
100
AcDbLine
 10
3671.156955993246
 20
5153.144075523783
 30
0.0
 11
3671.156955993246
 21
5422.667020841307
 31
0.0
  0
LINE
  5
82DB
330
83F6
100
AcDbEntity
  8
3
 62
     0
100
AcDbLine
 10
2846.156955993246
 20
5121.429794629097
 30
0.0
 11
2846.156955993246
 21
5422.667020841307
 31
0.0
  0
LINE
  5
82DC
330
83F6
100
AcDbEntity
  8
3
 62
     0
100
AcDbLine
 10
3591.156955993245
 20
5382.667020841306
 30
0.0
 11
2926.156955993246
 21
5382.667020841306
 31
0.0
  0
INSERT
  5
82DD
330
83F6
100
AcDbEntity
  8
3
 62
     0
100
AcDbBlockReference
  2
_OPEN
 10
3671.156955993246
 20
5382.667020841306
 30
0.0
 41
80.0
 42
80.0
 43
80.0
  0
INSERT
  5
82DE
330
83F6
100
AcDbEntity
  8
3
 62
     0
100
AcDbBlockReference
  2
_OPEN
 10
2846.156955993246
 20
5382.667020841306
 30
0.0
 41
80.0
 42
80.0
 43
80.0
 50
180.0
  0
TEXT
  5
835F
330
83F6
100
AcDbEntity
  8
3
 62
     0
100
AcDbText
 10
3018.66
 20
5270.27
 30
0.0
 40
120.0
  1
825
100
AcDbText
  0
POINT
  5
82E0
330
83F6
100
AcDbEntity
  8
DEFPOINTS
 62
     0
100
AcDbPoint
 10
3671.156955993246
 20
5133.144075523785
 30
0.0
  0
POINT
  5
82E1
330
83F6
100
AcDbEntity
  8
DEFPOINTS
 62
     0
100
AcDbPoint
 10
2846.156955993246
 20
5101.429794629098
 30
0.0
  0
POINT
  5
82E2
330
83F6
100
AcDbEntity
  8
DEFPOINTS
 62
     0
100
AcDbPoint
 10
2846.156955993246
 20
5382.667020841306
 30
0.0
  0
ENDBLK
  5
8007
330
83F6
100
AcDbEntity
  8
0
100
AcDbBlockEnd
  0
BLOCK
  5
83F9
330
83F8
100
AcDbEntity
  8
0
100
AcDbBlockBegin
  2
*D7
 70
     1
 10
0.0
 20
0.0
 30
0.0
  3
*D7
  1

  0
LINE
  5
82E3
330
83F8
100
AcDbEntity
  8
3
 62
     0
100
AcDbLine
 10
2846.156955993246
 20
5121.429794629097
 30
0.0
 11
2846.156955993246
 21
5422.667020841307
 31
0.0
  0
LINE
  5
82E4
330
83F8
100
AcDbEntity
  8
3
 62
     0
100
AcDbLine
 10
1771.356671382593
 20
3766.144075523783
 30
0.0
 11
1771.356671382593
 21
5422.667020841307
 31
0.0
  0
LINE
  5
82E5
330
83F8
100
AcDbEntity
  8
3
 62
     0
100
AcDbLine
 10
2766.156955993246
 20
5382.667020841306
 30
0.0
 11
1851.356671382593
 21
5382.667020841306
 31
0.0
  0
INSERT
  5
82E6
330
83F8
100
AcDbEntity
  8
3
 62
     0
100
AcDbBlockReference
  2
_OPEN
 10
2846.156955993246
 20
5382.667020841306
 30
0.0
 41
80.0
 42
80.0
 43
80.0
  0
INSERT
  5
82E7
330
83F8
100
AcDbEntity
  8
3
 62
     0
100
AcDbBlockReference
  2
_OPEN
 10
1771.356671382593
 20
5382.667020841306
 30
0.0
 41
80.0
 42
80.0
 43
80.0
 50
180.0
  0
TEXT
  5
8360
330
83F8
100
AcDbEntity
  8
3
 62
     0
100
AcDbText
 10
2068.760000000001
 20
5270.27
 30
0.0
 40
120.0
  1
1079
100
AcDbText
  0
POINT
  5
82E9
330
83F8
100
AcDbEntity
  8
DEFPOINTS
 62
     0
100
AcDbPoint
 10
2846.156955993246
 20
5101.429794629098
 30
0.0
  0
POINT
  5
82EA
330
83F8
100
AcDbEntity
  8
DEFPOINTS
 62
     0
100
AcDbPoint
 10
1771.356671382593
 20
3746.144075523783
 30
0.0
  0
POINT
  5
82EB
330
83F8
100
AcDbEntity
  8
DEFPOINTS
 62
     0
100
AcDbPoint
 10
1771.356671382593
 20
5382.667020841306
 30
0.0
  0
ENDBLK
  5
7FFC
330
83F8
100
AcDbEntity
  8
0
100
AcDbBlockEnd
  0
BLOCK
  5
83FB
330
83FA
100
AcDbEntity
  8
0
100
AcDbBlockBegin
  2
*D8
 70
     1
 10
0.0
 20
0.0
 30
0.0
  3
*D8
  1

  0
LINE
  5
82EC
330
83FA
100
AcDbEntity
  8
3
 62
     0
100
AcDbLine
 10
5476.500975653525
 20
5153.144075523783
 30
0.0
 11
5476.500975653525
 21
5421.543861990349
 31
0.0
  0
LINE
  5
82ED
330
83FA
100
AcDbEntity
  8
3
 62
     0
100
AcDbLine
 10
7176.500975653526
 20
5153.144075523783
 30
0.0
 11
7176.500975653526
 21
5421.543861990349
 31
0.0
  0
LINE
  5
82EE
330
83FA
100
AcDbEntity
  8
3
 62
     0
100
AcDbLine
 10
5556.500975653525
 20
5381.543861990349
 30
0.0
 11
7096.500975653525
 21
5381.543861990349
 31
0.0
  0
INSERT
  5
82EF
330
83FA
100
AcDbEntity
  8
3
 62
     0
100
AcDbBlockReference
  2
_OPEN
 10
5476.500975653525
 20
5381.543861990349
 30
0.0
 41
80.0
 42
80.0
 43
80.0
 50
180.0
  0
INSERT
  5
82F0
330
83FA
100
AcDbEntity
  8
3
 62
     0
100
AcDbBlockReference
  2
_OPEN
 10
7176.500975653526
 20
5381.543861990349
 30
0.0
 41
80.0
 42
80.0
 43
80.0
  0
TEXT
  5
8361
330
83FA
100
AcDbEntity
  8
3
 62
     0
100
AcDbText
 10
6086.5
 20
5269.14
 30
0.0
 40
120.0
  1
1700
100
AcDbText
  0
POINT
  5
82F2
330
83FA
100
AcDbEntity
  8
DEFPOINTS
 62
     0
100
AcDbPoint
 10
5476.500975653525
 20
5133.144075523785
 30
0.0
  0
POINT
  5
82F3
330
83FA
100
AcDbEntity
  8
DEFPOINTS
 62
     0
100
AcDbPoint
 10
7176.500975653526
 20
5133.144075523785
 30
0.0
  0
POINT
  5
82F4
330
83FA
100
AcDbEntity
  8
DEFPOINTS
 62
     0
100
AcDbPoint
 10
7176.500975653526
 20
5381.543861990349
 30
0.0
  0
ENDBLK
  5
7FF1
330
83FA
100
AcDbEntity
  8
0
100
AcDbBlockEnd
  0
BLOCK
  5
83FD
330
83FC
100
AcDbEntity
  8
0
100
AcDbBlockBegin
  2
*D9
 70
     1
 10
0.0
 20
0.0
 30
0.0
  3
*D9
  1

  0
LINE
  5
82F5
330
83FC
100
AcDbEntity
  8
3
 62
     0
100
AcDbLine
 10
5091.500975653526
 20
4046.144075523783
 30
0.0
 11
5091.500975653526
 21
5674.894753954436
 31
0.0
  0
LINE
  5
82F6
330
83FC
100
AcDbEntity
  8
3
 62
     0
100
AcDbLine
 10
6326.500975653526
 20
5570.201656594394
 30
0.0
 11
6326.500975653526
 21
5674.894753954436
 31
0.0
  0
LINE
  5
82F7
330
83FC
100
AcDbEntity
  8
3
 62
     0
100
AcDbLine
 10
5171.500975653526
 20
5634.894753954437
 30
0.0
 11
6246.500975653526
 21
5634.894753954437
 31
0.0
  0
INSERT
  5
82F8
330
83FC
100
AcDbEntity
  8
3
 62
     0
100
AcDbBlockReference
  2
_OPEN
 10
5091.500975653526
 20
5634.894753954437
 30
0.0
 41
80.0
 42
80.0
 43
80.0
 50
180.0
  0
INSERT
  5
82F9
330
83FC
100
AcDbEntity
  8
3
 62
     0
100
AcDbBlockReference
  2
_OPEN
 10
6326.500975653526
 20
5634.894753954437
 30
0.0
 41
80.0
 42
80.0
 43
80.0
  0
TEXT
  5
8362
330
83FC
100
AcDbEntity
  8
3
 62
     0
100
AcDbText
 10
5469.0
 20
5622.489999999999
 30
0.0
 40
120.0
  1
MAX
100
AcDbText
  0
TEXT
  5
8363
330
83FC
100
AcDbEntity
  8
3
 62
     0
100
AcDbText
 10
5469.0
 20
5466.49
 30
0.0
 40
120.0
  1
1280
100
AcDbText
  0
POINT
  5
82FB
330
83FC
100
AcDbEntity
  8
DEFPOINTS
 62
     0
100
AcDbPoint
 10
5091.500975653526
 20
4026.144075523784
 30
0.0
  0
POINT
  5
82FC
330
83FC
100
AcDbEntity
  8
DEFPOINTS
 62
     0
100
AcDbPoint
 10
6326.500975653526
 20
5550.201656594396
 30
0.0
  0
POINT
  5
82FD
330
83FC
100
AcDbEntity
  8
DEFPOINTS
 62
     0
100
AcDbPoint
 10
6326.500975653526
 20
5634.894753954437
 30
0.0
  0
ENDBLK
  5
8131
330
83FC
100
AcDbEntity
  8
0
100
AcDbBlockEnd
  0
BLOCK
  5
83FF
330
83FE
100
AcDbEntity
  8
0
100
AcDbBlockBegin
  2
*D10
 70
     1
 10
0.0
 20
0.0
 30
0.0
  3
*D10
  1

  0
LINE
  5
82FE
330
83FE
100
AcDbEntity
  8
3
 62
     0
100
AcDbLine
 10
6326.500975653526
 20
5619.504550509097
 30
0.0
 11
6326.500975653526
 21
5674.50716684925
 31
0.0
  0
LINE
  5
82FF
330
83FE
100
AcDbEntity
  8
3
 62
     0
100
AcDbLine
 10
7336.500975653523
 20
3661.48200662605
 30
0.0
 11
7336.500975653523
 21
5674.50716684925
 31
0.0
  0
LINE
  5
8300
330
83FE
100
AcDbEntity
  8
3
 62
     0
100
AcDbLine
 10
6406.500975653526
 20
5634.50716684925
 30
0.0
 11
7256.500975653526
 21
5634.50716684925
 31
0.0
  0
INSERT
  5
8301
330
83FE
100
AcDbEntity
  8
3
 62
     0
100
AcDbBlockReference
  2
_OPEN
 10
6326.500975653526
 20
5634.50716684925
 30
0.0
 41
80.0
 42
80.0
 43
80.0
 50
180.0
  0
INSERT
  5
8302
330
83FE
100
AcDbEntity
  8
3
 62
     0
100
AcDbBlockReference
  2
_OPEN
 10
7336.500975653523
 20
5634.50716684925
 30
0.0
 41
80.0
 42
80.0
 43
80.0
  0
TEXT
  5
8364
330
83FE
100
AcDbEntity
  8
3
 62
     0
100
AcDbText
 10
6591.5
 20
5553.54
 30
0.0
 40
120.0
  1
(1020)
100
AcDbText
  0
POINT
  5
8304
330
83FE
100
AcDbEntity
  8
DEFPOINTS
 62
     0
100
AcDbPoint
 10
6326.500975653526
 20
5599.504550509099
 30
0.0
  0
POINT
  5
8305
330
83FE
100
AcDbEntity
  8
DEFPOINTS
 62
     0
100
AcDbPoint
 10
7336.500975653523
 20
3641.482006626051
 30
0.0
  0
POINT
  5
8306
330
83FE
100
AcDbEntity
  8
DEFPOINTS
 62
     0
100
AcDbPoint
 10
7336.500975653523
 20
5634.50716684925
 30
0.0
  0
ENDBLK
  5
8126
330
83FE
100
AcDbEntity
  8
0
100
AcDbBlockEnd
  0
BLOCK
  5
8401
330
8400
100
AcDbEntity
  8
0
100
AcDbBlockBegin
  2
*D11
 70
     1
 10
0.0
 20
0.0
 30
0.0
  3
*D11
  1

  0
LINE
  5
8307
330
8400
100
AcDbEntity
  8
3
 62
     0
100
AcDbLine
 10
7198.800975653526
 20
4371.144075523782
 30
0.0
 11
7627.770600566029
 21
4371.144075523782
 31
0.0
  0
LINE
  5
8308
330
8400
100
AcDbEntity
  8
3
 62
     0
100
AcDbLine
 10
7198.800975653526
 20
3121.144075523782
 30
0.0
 11
7627.770600566029
 21
3121.144075523782
 31
0.0
  0
LINE
  5
8309
330
8400
100
AcDbEntity
  8
3
 62
     0
100
AcDbLine
 10
7587.77060056603
 20
4291.144075523782
 30
0.0
 11
7587.77060056603
 21
3201.144075523782
 31
0.0
  0
INSERT
  5
830A
330
8400
100
AcDbEntity
  8
3
 62
     0
100
AcDbBlockReference
  2
_OPEN
 10
7587.77060056603
 20
4371.144075523782
 30
0.0
 41
80.0
 42
80.0
 43
80.0
 50
90.0
  0
INSERT
  5
830B
330
8400
100
AcDbEntity
  8
3
 62
     0
100
AcDbBlockReference
  2
_OPEN
 10
7587.77060056603
 20
3121.144075523782
 30
0.0
 41
80.0
 42
80.0
 43
80.0
 50
270.0
  0
TEXT
  5
8365
330
8400
100
AcDbEntity
  8
3
 62
     0
100
AcDbText
 10
7247.770000000001
 20
3533.74
 30
0.0
 40
120.0
  1
\U+03C61250
100
AcDbText
  0
POINT
  5
830D
330
8400
100
AcDbEntity
  8
DEFPOINTS
 62
     0
100
AcDbPoint
 10
7178.800975653527
 20
4371.144075523782
 30
0.0
  0
POINT
  5
830E
330
8400
100
AcDbEntity
  8
DEFPOINTS
 62
     0
100
AcDbPoint
 10
7178.800975653527
 20
3121.144075523782
 30
0.0
  0
POINT
  5
830F
330
8400
100
AcDbEntity
  8
DEFPOINTS
 62
     0
100
AcDbPoint
 10
7587.77060056603
 20
3121.144075523782
 30
0.0
  0
ENDBLK
  5
7FD0
330
8400
100
AcDbEntity
  8
0
100
AcDbBlockEnd
  0
BLOCK
  5
8403
330
8402
100
AcDbEntity
  8
0
100
AcDbBlockBegin
  2
*D12
 70
     1
 10
0.0
 20
0.0
 30
0.0
  3
*D12
  1

  0
LINE
  5
8310
330
8402
100
AcDbEntity
  8
3
 62
     0
100
AcDbLine
 10
3769.593494242098
 20
3746.144075523783
 30
0.0
 11
4210.578222735581
 21
3746.144075523783
 31
0.0
  0
LINE
  5
8311
330
8402
100
AcDbEntity
  8
3
 62
     0
100
AcDbLine
 10
3616.156955993246
 20
2821.144075523783
 30
0.0
 11
4210.578222735581
 21
2821.144075523783
 31
0.0
  0
LINE
  5
8312
330
8402
100
AcDbEntity
  8
3
 62
     0
100
AcDbLine
 10
4170.57822273558
 20
3666.144075523784
 30
0.0
 11
4170.57822273558
 21
2901.144075523783
 31
0.0
  0
INSERT
  5
8313
330
8402
100
AcDbEntity
  8
3
 62
     0
100
AcDbBlockReference
  2
_OPEN
 10
4170.57822273558
 20
3746.144075523783
 30
0.0
 41
80.0
 42
80.0
 43
80.0
 50
90.0
  0
INSERT
  5
8314
330
8402
100
AcDbEntity
  8
3
 62
     0
100
AcDbBlockReference
  2
_OPEN
 10
4170.57822273558
 20
2821.144075523783
 30
0.0
 41
80.0
 42
80.0
 43
80.0
 50
270.0
  0
TEXT
  5
8366
330
8402
100
AcDbEntity
  8
3
 62
     0
100
AcDbText
 10
3830.58
 20
3071.24
 30
0.0
 40
120.0
  1
925
100
AcDbText
  0
POINT
  5
8316
330
8402
100
AcDbEntity
  8
DEFPOINTS
 62
     0
100
AcDbPoint
 10
3749.593494242097
 20
3746.144075523783
 30
0.0
  0
POINT
  5
8317
330
8402
100
AcDbEntity
  8
DEFPOINTS
 62
     0
100
AcDbPoint
 10
3596.156955993246
 20
2821.144075523783
 30
0.0
  0
POINT
  5
8318
330
8402
100
AcDbEntity
  8
DEFPOINTS
 62
     0
100
AcDbPoint
 10
4170.57822273558
 20
2821.144075523783
 30
0.0
  0
ENDBLK
  5
7FAF
330
8402
100
AcDbEntity
  8
0
100
AcDbBlockEnd
  0
BLOCK
  5
8405
330
8404
100
AcDbEntity
  8
0
100
AcDbBlockBegin
  2
*D13
 70
     1
 10
0.0
 20
0.0
 30
0.0
  3
*D13
  1

  0
LINE
  5
8319
330
8404
100
AcDbEntity
  8
3
 62
     0
100
AcDbLine
 10
3616.156955993246
 20
8525.027814553499
 30
0.0
 11
4085.17309722908
 21
8525.027814553499
 31
0.0
  0
LINE
  5
831A
330
8404
100
AcDbEntity
  8
3
 62
     0
100
AcDbLine
 10
3616.156955993246
 20
6405.027814553498
 30
0.0
 11
4085.173097229079
 21
6405.027814553498
 31
0.0
  0
LINE
  5
831B
330
8404
100
AcDbEntity
  8
3
 62
     0
100
AcDbLine
 10
4045.17309722908
 20
8445.027814553499
 30
0.0
 11
4045.173097229079
 21
6485.027814553497
 31
0.0
  0
INSERT
  5
831C
330
8404
100
AcDbEntity
  8
3
 62
     0
100
AcDbBlockReference
  2
_OPEN
 10
4045.17309722908
 20
8525.027814553499
 30
0.0
 41
80.0
 42
80.0
 43
80.0
 50
90.0
  0
INSERT
  5
831D
330
8404
100
AcDbEntity
  8
3
 62
     0
100
AcDbBlockReference
  2
_OPEN
 10
4045.173097229079
 20
6405.027814553498
 30
0.0
 41
80.0
 42
80.0
 43
80.0
 50
270.0
  0
TEXT
  5
8367
330
8404
100
AcDbEntity
  8
3
 62
     0
100
AcDbText
 10
3705.170000000001
 20
7252.63
 30
0.0
 40
120.0
  1
2120
100
AcDbText
  0
POINT
  5
831F
330
8404
100
AcDbEntity
  8
DEFPOINTS
 62
     0
100
AcDbPoint
 10
3596.156955993246
 20
8525.027814553499
 30
0.0
  0
POINT
  5
8320
330
8404
100
AcDbEntity
  8
DEFPOINTS
 62
     0
100
AcDbPoint
 10
3596.156955993246
 20
6405.027814553498
 30
0.0
  0
POINT
  5
8321
330
8404
100
AcDbEntity
  8
DEFPOINTS
 62
     0
100
AcDbPoint
 10
4045.173097229079
 20
6405.027814553498
 30
0.0
  0
ENDBLK
  5
7F83
330
8404
100
AcDbEntity
  8
0
100
AcDbBlockEnd
  0
BLOCK
  5
8407
330
8406
100
AcDbEntity
  8
0
100
AcDbBlockBegin
  2
*D14
 70
     1
 10
0.0
 20
0.0
 30
0.0
  3
*D14
  1

  0
LINE
  5
8322
330
8406
100
AcDbEntity
  8
3
 62
     0
100
AcDbLine
 10
3596.156955993246
 20
8545.027814553499
 30
0.0
 11
3596.156955993246
 21
8769.663953058682
 31
0.0
  0
LINE
  5
8323
330
8406
100
AcDbEntity
  8
3
 62
     0
100
AcDbLine
 10
2096.156955993245
 20
8545.027814553499
 30
0.0
 11
2096.156955993245
 21
8769.663953058682
 31
0.0
  0
LINE
  5
8324
330
8406
100
AcDbEntity
  8
3
 62
     0
100
AcDbLine
 10
3516.156955993245
 20
8729.663953058681
 30
0.0
 11
2176.156955993245
 21
8729.663953058681
 31
0.0
  0
INSERT
  5
8325
330
8406
100
AcDbEntity
  8
3
 62
     0
100
AcDbBlockReference
  2
_OPEN
 10
3596.156955993246
 20
8729.663953058681
 30
0.0
 41
80.0
 42
80.0
 43
80.0
  0
INSERT
  5
8326
330
8406
100
AcDbEntity
  8
3
 62
     0
100
AcDbBlockReference
  2
_OPEN
 10
2096.156955993245
 20
8729.663953058681
 30
0.0
 41
80.0
 42
80.0
 43
80.0
 50
180.0
  0
TEXT
  5
8368
330
8406
100
AcDbEntity
  8
3
 62
     0
100
AcDbText
 10
2606.16
 20
8617.259999999999
 30
0.0
 40
120.0
  1
1500
100
AcDbText
  0
POINT
  5
8328
330
8406
100
AcDbEntity
  8
DEFPOINTS
 62
     0
100
AcDbPoint
 10
3596.156955993246
 20
8525.027814553499
 30
0.0
  0
POINT
  5
8329
330
8406
100
AcDbEntity
  8
DEFPOINTS
 62
     0
100
AcDbPoint
 10
2096.156955993245
 20
8525.027814553499
 30
0.0
  0
POINT
  5
832A
330
8406
100
AcDbEntity
  8
DEFPOINTS
 62
     0
100
AcDbPoint
 10
2096.156955993245
 20
8729.663953058681
 30
0.0
  0
ENDBLK
  5
7F78
330
8406
100
AcDbEntity
  8
0
100
AcDbBlockEnd
  0
BLOCK
  5
8409
330
8408
100
AcDbEntity
  8
0
100
AcDbBlockBegin
  2
*D15
 70
     1
 10
0.0
 20
0.0
 30
0.0
  3
*D15
  1

  0
LINE
  5
832B
330
8408
100
AcDbEntity
  8
3
 62
     0
100
AcDbLine
 10
2096.156955993245
 20
8545.027814553499
 30
0.0
 11
2096.156955993245
 21
8769.663953058682
 31
0.0
  0
LINE
  5
832C
330
8408
100
AcDbEntity
  8
3
 62
     0
100
AcDbLine
 10
1146.156955993244
 20
7425.027814553499
 30
0.0
 11
1146.156955993244
 21
8769.663953058682
 31
0.0
  0
LINE
  5
832D
330
8408
100
AcDbEntity
  8
3
 62
     0
100
AcDbLine
 10
2016.156955993245
 20
8729.663953058681
 30
0.0
 11
1226.156955993245
 21
8729.663953058681
 31
0.0
  0
INSERT
  5
832E
330
8408
100
AcDbEntity
  8
3
 62
     0
100
AcDbBlockReference
  2
_OPEN
 10
2096.156955993245
 20
8729.663953058681
 30
0.0
 41
80.0
 42
80.0
 43
80.0
  0
INSERT
  5
832F
330
8408
100
AcDbEntity
  8
3
 62
     0
100
AcDbBlockReference
  2
_OPEN
 10
1146.156955993244
 20
8729.663953058681
 30
0.0
 41
80.0
 42
80.0
 43
80.0
 50
180.0
  0
TEXT
  5
8369
330
8408
100
AcDbEntity
  8
3
 62
     0
100
AcDbText
 10
1381.16
 20
8617.259999999999
 30
0.0
 40
120.0
  1
950
100
AcDbText
  0
POINT
  5
8331
330
8408
100
AcDbEntity
  8
DEFPOINTS
 62
     0
100
AcDbPoint
 10
2096.156955993245
 20
8525.027814553499
 30
0.0
  0
POINT
  5
8332
330
8408
100
AcDbEntity
  8
DEFPOINTS
 62
     0
100
AcDbPoint
 10
1146.156955993244
 20
7405.027814553498
 30
0.0
  0
POINT
  5
8333
330
8408
100
AcDbEntity
  8
DEFPOINTS
 62
     0
100
AcDbPoint
 10
1146.156955993244
 20
8729.663953058681
 30
0.0
  0
ENDBLK
  5
7F6D
330
8408
100
AcDbEntity
  8
0
100
AcDbBlockEnd
  0
BLOCK
  5
840B
330
840A
100
AcDbEntity
  8
0
100
AcDbBlockBegin
  2
*D16
 70
     1
 10
0.0
 20
0.0
 30
0.0
  3
*D16
  1

  0
LINE
  5
8334
330
840A
100
AcDbEntity
  8
3
 62
     0
100
AcDbLine
 10
1126.156955993245
 20
7405.027814553498
 30
0.0
 11
839.8305548856662
 21
7405.027814553498
 31
0.0
  0
LINE
  5
8335
330
840A
100
AcDbEntity
  8
3
 62
     0
100
AcDbLine
 10
1126.156955993245
 20
6405.027814553498
 30
0.0
 11
839.830554885666
 21
6405.027814553498
 31
0.0
  0
LINE
  5
8336
330
840A
100
AcDbEntity
  8
3
 62
     0
100
AcDbLine
 10
879.8305548856662
 20
7325.027814553497
 30
0.0
 11
879.8305548856658
 21
6485.027814553497
 31
0.0
  0
INSERT
  5
8337
330
840A
100
AcDbEntity
  8
3
 62
     0
100
AcDbBlockReference
  2
_OPEN
 10
879.8305548856662
 20
7405.027814553498
 30
0.0
 41
80.0
 42
80.0
 43
80.0
 50
90.0
  0
INSERT
  5
8338
330
840A
100
AcDbEntity
  8
3
 62
     0
100
AcDbBlockReference
  2
_OPEN
 10
879.8305548856658
 20
6405.027814553498
 30
0.0
 41
80.0
 42
80.0
 43
80.0
 50
270.0
  0
TEXT
  5
836A
330
840A
100
AcDbEntity
  8
3
 62
     0
100
AcDbText
 10
539.831
 20
6692.63
 30
0.0
 40
120.0
  1
1000
100
AcDbText
  0
POINT
  5
833A
330
840A
100
AcDbEntity
  8
DEFPOINTS
 62
     0
100
AcDbPoint
 10
1146.156955993244
 20
7405.027814553498
 30
0.0
  0
POINT
  5
833B
330
840A
100
AcDbEntity
  8
DEFPOINTS
 62
     0
100
AcDbPoint
 10
1146.156955993244
 20
6405.027814553498
 30
0.0
  0
POINT
  5
833C
330
840A
100
AcDbEntity
  8
DEFPOINTS
 62
     0
100
AcDbPoint
 10
879.8305548856658
 20
6405.027814553498
 30
0.0
  0
ENDBLK
  5
7F62
330
840A
100
AcDbEntity
  8
0
100
AcDbBlockEnd
  0
BLOCK
  5
840D
330
840C
100
AcDbEntity
  8
0
100
AcDbBlockBegin
  2
*D17
 70
     1
 10
0.0
 20
0.0
 30
0.0
  3
*D17
  1

  0
LINE
  5
833D
330
840C
100
AcDbEntity
  8
3
 62
     0
100
AcDbLine
 10
1146.156955993244
 20
6385.027814553499
 30
0.0
 11
1146.156955993244
 21
6000.273936363845
 31
0.0
  0
LINE
  5
833E
330
840C
100
AcDbEntity
  8
3
 62
     0
100
AcDbLine
 10
3596.156955993246
 20
6385.027814553495
 30
0.0
 11
3596.156955993246
 21
6000.273936363845
 31
0.0
  0
LINE
  5
833F
330
840C
100
AcDbEntity
  8
3
 62
     0
100
AcDbLine
 10
1226.156955993245
 20
6040.273936363845
 30
0.0
 11
3516.156955993245
 21
6040.273936363845
 31
0.0
  0
INSERT
  5
8340
330
840C
100
AcDbEntity
  8
3
 62
     0
100
AcDbBlockReference
  2
_OPEN
 10
1146.156955993244
 20
6040.273936363845
 30
0.0
 41
80.0
 42
80.0
 43
80.0
 50
180.0
  0
INSERT
  5
8341
330
840C
100
AcDbEntity
  8
3
 62
     0
100
AcDbBlockReference
  2
_OPEN
 10
3596.156955993246
 20
6040.273936363845
 30
0.0
 41
80.0
 42
80.0
 43
80.0
  0
TEXT
  5
836B
330
840C
100
AcDbEntity
  8
3
 62
     0
100
AcDbText
 10
2131.16
 20
5927.87
 30
0.0
 40
120.0
  1
2450
100
AcDbText
  0
POINT
  5
8343
330
840C
100
AcDbEntity
  8
DEFPOINTS
 62
     0
100
AcDbPoint
 10
1146.156955993244
 20
6405.027814553498
 30
0.0
  0
POINT
  5
8344
330
840C
100
AcDbEntity
  8
DEFPOINTS
 62
     0
100
AcDbPoint
 10
3596.156955993246
 20
6405.027814553498
 30
0.0
  0
POINT
  5
8345
330
840C
100
AcDbEntity
  8
DEFPOINTS
 62
     0
100
AcDbPoint
 10
3596.156955993246
 20
6040.273936363845
 30
0.0
  0
ENDBLK
  5
7F57
330
840C
100
AcDbEntity
  8
0
100
AcDbBlockEnd
  0
BLOCK
  5
840F
330
840E
100
AcDbEntity
  8
0
100
AcDbBlockBegin
  2
*D18
 70
     1
 10
0.0
 20
0.0
 30
0.0
  3
*D18
  1

  0
LINE
  5
8346
330
840E
100
AcDbEntity
  8
3
 62
     0
100
AcDbLine
 10
3671.156955993246
 20
5153.144075523783
 30
0.0
 11
3671.156955993246
 21
5647.120238149416
 31
0.0
  0
LINE
  5
8347
330
840E
100
AcDbEntity
  8
3
 62
     0
100
AcDbLine
 10
1146.156955993244
 20
2966.144075523784
 30
0.0
 11
1146.156955993245
 21
5647.120238149416
 31
0.0
  0
LINE
  5
8348
330
840E
100
AcDbEntity
  8
3
 62
     0
100
AcDbLine
 10
3591.156955993245
 20
5607.120238149416
 30
0.0
 11
1226.156955993245
 21
5607.120238149416
 31
0.0
  0
INSERT
  5
8349
330
840E
100
AcDbEntity
  8
3
 62
     0
100
AcDbBlockReference
  2
_OPEN
 10
3671.156955993246
 20
5607.120238149416
 30
0.0
 41
80.0
 42
80.0
 43
80.0
  0
INSERT
  5
834A
330
840E
100
AcDbEntity
  8
3
 62
     0
100
AcDbBlockReference
  2
_OPEN
 10
1146.156955993245
 20
5607.120238149416
 30
0.0
 41
80.0
 42
80.0
 43
80.0
 50
180.0
  0
TEXT
  5
836C
330
840E
100
AcDbEntity
  8
3
 62
     0
100
AcDbText
 10
2168.66
 20
5494.72
 30
0.0
 40
120.0
  1
2525
100
AcDbText
  0
POINT
  5
834C
330
840E
100
AcDbEntity
  8
DEFPOINTS
 62
     0
100
AcDbPoint
 10
3671.156955993246
 20
5133.144075523785
 30
0.0
  0
POINT
  5
834D
330
840E
100
AcDbEntity
  8
DEFPOINTS
 62
     0
100
AcDbPoint
 10
1146.156955993244
 20
2946.144075523783
 30
0.0
  0
POINT
  5
834E
330
840E
100
AcDbEntity
  8
DEFPOINTS
 62
     0
100
AcDbPoint
 10
1146.156955993245
 20
5607.120238149416
 30
0.0
  0
ENDBLK
  5
7F4C
330
840E
100
AcDbEntity
  8
0
100
AcDbBlockEnd
  0
BLOCK
  5
8412
330
8411
100
AcDbEntity
  8
0
100
AcDbBlockBegin
  2
*D19
 70
     1
 10
0.0
 20
0.0
 30
0.0
  3
*D19
  1

  0
LINE
  5
834F
330
8411
100
AcDbEntity
  8
3
 62
     0
100
AcDbLine
 10
3616.156955993246
 20
2706.144075523783
 30
0.0
 11
4210.578222735581
 21
2706.144075523783
 31
0.0
  0
LINE
  5
8350
330
8411
100
AcDbEntity
  8
3
 62
     0
100
AcDbLine
 10
3616.156955993246
 20
2641.144075523783
 30
0.0
 11
4210.578222735581
 21
2641.144075523783
 31
0.0
  0
LINE
  5
8351
330
8411
100
AcDbEntity
  8
3
 62
     0
100
AcDbLine
 10
4170.57822273558
 20
2786.144075523783
 30
0.0
 11
4170.57822273558
 21
2866.144075523783
 31
0.0
  0
LINE
  5
8352
330
8411
100
AcDbEntity
  8
3
 62
     0
100
AcDbLine
 10
4170.57822273558
 20
2561.144075523783
 30
0.0
 11
4170.57822273558
 21
2206.858361238069
 31
0.0
  0
LINE
  5
8353
330
8411
100
AcDbEntity
  8
3
 62
     0
100
AcDbLine
 10
4170.57822273558
 20
2706.144075523783
 30
0.0
 11
4170.57822273558
 21
2641.144075523783
 31
0.0
  0
INSERT
  5
8354
330
8411
100
AcDbEntity
  8
3
 62
     0
100
AcDbBlockReference
  2
_DOT
 10
4170.57822273558
 20
2706.144075523783
 30
0.0
 41
80.0
 42
80.0
 43
80.0
 50
270.0
  0
INSERT
  5
8355
330
8411
100
AcDbEntity
  8
3
 62
     0
100
AcDbBlockReference
  2
_OPEN
 10
4170.57822273558
 20
2641.144075523783
 30
0.0
 41
80.0
 42
80.0
 43
80.0
 50
90.0
  0
TEXT
  5
836D
330
8411
100
AcDbEntity
  8
3
 62
     0
100
AcDbText
 10
3830.58
 20
2131.6
 30
0.0
 40
120.0
  1
65
100
AcDbText
  0
POINT
  5
8357
330
8411
100
AcDbEntity
  8
DEFPOINTS
 62
     0
100
AcDbPoint
 10
3596.156955993246
 20
2706.144075523783
 30
0.0
  0
POINT
  5
8358
330
8411
100
AcDbEntity
  8
DEFPOINTS
 62
     0
100
AcDbPoint
 10
3596.156955993246
 20
2641.144075523783
 30
0.0
  0
POINT
  5
8359
330
8411
100
AcDbEntity
  8
DEFPOINTS
 62
     0
100
AcDbPoint
 10
4170.57822273558
 20
2641.144075523783
 30
0.0
  0
ENDBLK
  5
80D1
330
8411
100
AcDbEntity
  8
0
100
AcDbBlockEnd
  0
BLOCK
  5
8414
330
8413
100
AcDbEntity
  8
0
100
AcDbBlockBegin
  2
_DOT
 70
     0
 10
0.0
 20
0.0
 30
0.0
  3
_DOT
  1

  0
LINE
  5
80D2
330
8413
100
AcDbEntity
  8
0
  6
ByBlock
 62
     0
100
AcDbLine
 10
0.0
 20
0.0
 30
0.0
 11
-1.0
 21
-0.0000000000000284
 31
0.0
  0
LWPOLYLINE
  5
80D3
330
8413
100
AcDbEntity
  8
0
  6
ByBlock
 62
     0
100
AcDbPolyline
 90
        2
 70
     1
 43
0.1666666666666666
 10
-0.0833333333333286
 20
-0.0000000000000284
 42
1.0
 10
0.0833333333333286
 20
-0.0000000000000284
 42
1.0
  0
ENDBLK
  5
80B8
330
8413
100
AcDbEntity
  8
0
100
AcDbBlockEnd
  0
BLOCK
  5
8416
330
8415
100
AcDbEntity
  8
0
100
AcDbBlockBegin
  2
*D21
 70
     1
 10
0.0
 20
0.0
 30
0.0
  3
*D21
  1

  0
LINE
  5
8141
330
8415
100
AcDbEntity
  8
0
  6
ByBlock
 62
     0
100
AcDbLine
 10
1146.156955993244
 20
2716.144075523784
 30
0.0
 11
1146.156955993244
 21
2452.132715361301
 31
0.0
  0
LINE
  5
8142
330
8415
100
AcDbEntity
  8
0
  6
ByBlock
 62
     0
100
AcDbLine
 10
2846.156955993244
 20
2716.144075523784
 30
0.0
 11
2846.156955993244
 21
2452.132715361301
 31
0.0
  0
LINE
  5
8143
330
8415
100
AcDbEntity
  8
0
  6
ByBlock
 62
     0
100
AcDbLine
 10
1226.156955993245
 20
2492.132715361302
 30
0.0
 11
2766.156955993244
 21
2492.132715361302
 31
0.0
  0
INSERT
  5
8144
330
8415
100
AcDbEntity
  8
0
  6
ByBlock
 62
     0
100
AcDbBlockReference
  2
_OPEN
 10
1146.156955993244
 20
2492.132715361302
 30
0.0
 41
80.0
 42
80.0
 43
80.0
 50
180.0
  0
INSERT
  5
8145
330
8415
100
AcDbEntity
  8
0
  6
ByBlock
 62
     0
100
AcDbBlockReference
  2
_OPEN
 10
2846.156955993244
 20
2492.132715361302
 30
0.0
 41
80.0
 42
80.0
 43
80.0
  0
TEXT
  5
8146
330
8415
100
AcDbEntity
  8
3
 62
     0
100
AcDbText
 10
1796.156955993245
 20
2532.132715361302
 30
0.0
 40
120.0
  1
1700
100
AcDbText
  0
POINT
  5
8147
330
8415
100
AcDbEntity
  8
DEFPOINTS
  6
ByBlock
 62
     0
100
AcDbPoint
 10
1146.156955993244
 20
2736.144075523784
 30
0.0
  0
POINT
  5
8148
330
8415
100
AcDbEntity
  8
DEFPOINTS
  6
ByBlock
 62
     0
100
AcDbPoint
 10
2846.156955993244
 20
2736.144075523784
 30
0.0
  0
POINT
  5
8149
330
8415
100
AcDbEntity
  8
DEFPOINTS
  6
ByBlock
 62
     0
100
AcDbPoint
 10
2846.156955993244
 20
2492.132715361302
 30
0.0
  0
ENDBLK
  5
814A
330
8415
100
AcDbEntity
  8
0
100
AcDbBlockEnd
  0
BLOCK
  5
8418
330
8417
100
AcDbEntity
  8
0
100
AcDbBlockBegin
  2
*D22
 70
     1
 10
0.0
 20
0.0
 30
0.0
  3
*D22
  1

  0
LINE
  5
814E
330
8417
100
AcDbEntity
  8
0
  6
ByBlock
 62
     0
100
AcDbLine
 10
2846.156955993244
 20
2716.144075523784
 30
0.0
 11
2846.156955993244
 21
2452.132715361301
 31
0.0
  0
LINE
  5
814F
330
8417
100
AcDbEntity
  8
0
  6
ByBlock
 62
     0
100
AcDbLine
 10
3596.156955993246
 20
2716.144075523784
 30
0.0
 11
3596.156955993246
 21
2452.132715361301
 31
0.0
  0
LINE
  5
8150
330
8417
100
AcDbEntity
  8
0
  6
ByBlock
 62
     0
100
AcDbLine
 10
2926.156955993244
 20
2492.132715361302
 30
0.0
 11
3516.156955993245
 21
2492.132715361302
 31
0.0
  0
INSERT
  5
8151
330
8417
100
AcDbEntity
  8
0
  6
ByBlock
 62
     0
100
AcDbBlockReference
  2
_OPEN
 10
2846.156955993244
 20
2492.132715361302
 30
0.0
 41
80.0
 42
80.0
 43
80.0
 50
180.0
  0
INSERT
  5
8152
330
8417
100
AcDbEntity
  8
0
  6
ByBlock
 62
     0
100
AcDbBlockReference
  2
_OPEN
 10
3596.156955993246
 20
2492.132715361302
 30
0.0
 41
80.0
 42
80.0
 43
80.0
  0
TEXT
  5
8153
330
8417
100
AcDbEntity
  8
3
 62
     0
100
AcDbText
 10
3066.871241707531
 20
2532.132715361302
 30
0.0
 40
120.0
  1
750
100
AcDbText
  0
POINT
  5
8154
330
8417
100
AcDbEntity
  8
DEFPOINTS
  6
ByBlock
 62
     0
100
AcDbPoint
 10
2846.156955993244
 20
2736.144075523784
 30
0.0
  0
POINT
  5
8155
330
8417
100
AcDbEntity
  8
DEFPOINTS
  6
ByBlock
 62
     0
100
AcDbPoint
 10
3596.156955993246
 20
2736.144075523784
 30
0.0
  0
POINT
  5
8156
330
8417
100
AcDbEntity
  8
DEFPOINTS
  6
ByBlock
 62
     0
100
AcDbPoint
 10
3596.156955993246
 20
2492.132715361302
 30
0.0
  0
ENDBLK
  5
8157
330
8417
100
AcDbEntity
  8
0
100
AcDbBlockEnd
  0
BLOCK
  5
841A
330
8419
100
AcDbEntity
  8
0
100
AcDbBlockBegin
  2
*D23
 70
     1
 10
0.0
 20
0.0
 30
0.0
  3
*D23
  1

  0
LINE
  5
815B
330
8419
100
AcDbEntity
  8
0
  6
ByBlock
 62
     0
100
AcDbLine
 10
5124.500975653525
 20
2716.144075523784
 30
0.0
 11
5124.500975653525
 21
2452.132715361301
 31
0.0
  0
LINE
  5
815C
330
8419
100
AcDbEntity
  8
0
  6
ByBlock
 62
     0
100
AcDbLine
 10
6326.500975653526
 20
2716.144075523784
 30
0.0
 11
6326.500975653526
 21
2452.132715361301
 31
0.0
  0
LINE
  5
815D
330
8419
100
AcDbEntity
  8
0
  6
ByBlock
 62
     0
100
AcDbLine
 10
5204.500975653525
 20
2492.132715361302
 30
0.0
 11
6246.500975653526
 21
2492.132715361302
 31
0.0
  0
INSERT
  5
815E
330
8419
100
AcDbEntity
  8
0
  6
ByBlock
 62
     0
100
AcDbBlockReference
  2
_OPEN
 10
5124.500975653525
 20
2492.132715361302
 30
0.0
 41
80.0
 42
80.0
 43
80.0
 50
180.0
  0
INSERT
  5
815F
330
8419
100
AcDbEntity
  8
0
  6
ByBlock
 62
     0
100
AcDbBlockReference
  2
_OPEN
 10
6326.500975653526
 20
2492.132715361302
 30
0.0
 41
80.0
 42
80.0
 43
80.0
  0
TEXT
  5
8160
330
8419
100
AcDbEntity
  8
3
 62
     0
100
AcDbText
 10
5525.500975653526
 20
2532.132715361302
 30
0.0
 40
120.0
  1
1202
100
AcDbText
  0
POINT
  5
8161
330
8419
100
AcDbEntity
  8
DEFPOINTS
  6
ByBlock
 62
     0
100
AcDbPoint
 10
5124.500975653525
 20
2736.144075523784
 30
0.0
  0
POINT
  5
8162
330
8419
100
AcDbEntity
  8
DEFPOINTS
  6
ByBlock
 62
     0
100
AcDbPoint
 10
6326.500975653526
 20
2736.144075523784
 30
0.0
  0
POINT
  5
8163
330
8419
100
AcDbEntity
  8
DEFPOINTS
  6
ByBlock
 62
     0
100
AcDbPoint
 10
6326.500975653526
 20
2492.132715361302
 30
0.0
  0
ENDBLK
  5
8164
330
8419
100
AcDbEntity
  8
0
100
AcDbBlockEnd
  0
BLOCK
  5
841C
330
841B
100
AcDbEntity
  8
0
100
AcDbBlockBegin
  2
*D24
 70
     1
 10
0.0
 20
0.0
 30
0.0
  3
*D24
  1

  0
LINE
  5
8168
330
841B
100
AcDbEntity
  8
0
  6
ByBlock
 62
     0
100
AcDbLine
 10
6326.500975653526
 20
2716.144075523784
 30
0.0
 11
6326.500975653526
 21
2452.132715361301
 31
0.0
  0
LINE
  5
8169
330
841B
100
AcDbEntity
  8
0
  6
ByBlock
 62
     0
100
AcDbLine
 10
7244.500975653526
 20
2716.144075523784
 30
0.0
 11
7244.500975653526
 21
2452.132715361301
 31
0.0
  0
LINE
  5
816A
330
841B
100
AcDbEntity
  8
0
  6
ByBlock
 62
     0
100
AcDbLine
 10
6406.500975653526
 20
2492.132715361302
 30
0.0
 11
7164.500975653526
 21
2492.132715361302
 31
0.0
  0
INSERT
  5
816B
330
841B
100
AcDbEntity
  8
0
  6
ByBlock
 62
     0
100
AcDbBlockReference
  2
_OPEN
 10
6326.500975653526
 20
2492.132715361302
 30
0.0
 41
80.0
 42
80.0
 43
80.0
 50
180.0
  0
INSERT
  5
816C
330
841B
100
AcDbEntity
  8
0
  6
ByBlock
 62
     0
100
AcDbBlockReference
  2
_OPEN
 10
7244.500975653526
 20
2492.132715361302
 30
0.0
 41
80.0
 42
80.0
 43
80.0
  0
TEXT
  5
816D
330
841B
100
AcDbEntity
  8
3
 62
     0
100
AcDbText
 10
6642.643832796382
 20
2532.132715361302
 30
0.0
 40
120.0
  1
918
100
AcDbText
  0
POINT
  5
816E
330
841B
100
AcDbEntity
  8
DEFPOINTS
  6
ByBlock
 62
     0
100
AcDbPoint
 10
6326.500975653526
 20
2736.144075523784
 30
0.0
  0
POINT
  5
816F
330
841B
100
AcDbEntity
  8
DEFPOINTS
  6
ByBlock
 62
     0
100
AcDbPoint
 10
7244.500975653526
 20
2736.144075523784
 30
0.0
  0
POINT
  5
8170
330
841B
100
AcDbEntity
  8
DEFPOINTS
  6
ByBlock
 62
     0
100
AcDbPoint
 10
7244.500975653526
 20
2492.132715361302
 30
0.0
  0
ENDBLK
  5
8171
330
841B
100
AcDbEntity
  8
0
100
AcDbBlockEnd
  0
BLOCK
  5
841E
330
841D
100
AcDbEntity
  8
0
100
AcDbBlockBegin
  2
_NONE
 70
     0
 10
0.0
 20
0.0
 30
0.0
  3
_NONE
  1

  0
CIRCLE
  5
8175
330
841D
100
AcDbEntity
  8
0
  6
ByBlock
 62
     0
100
AcDbCircle
 10
0.0
 20
0.0
 30
0.0
 40
0.25
  0
ENDBLK
  5
8176
330
841D
100
AcDbEntity
  8
0
100
AcDbBlockEnd
  0
BLOCK
  5
8420
330
841F
100
AcDbEntity
  8
0
100
AcDbBlockBegin
  2
*D26
 70
     1
 10
0.0
 20
0.0
 30
0.0
  3
*D26
  1

  0
LINE
  5
81E6
330
841F
100
AcDbEntity
  8
0
  6
ByBlock
 62
     0
100
AcDbLine
 10
4171.727377900388
 20
2706.144075523783
 30
0.0
 11
4171.727377900388
 21
2821.144075523783
 31
0.0
  0
TEXT
  5
81E7
330
841F
100
AcDbEntity
  8
3
 62
     0
100
AcDbText
 10
4403.15594932896
 20
2447.072646952355
 30
0.0
 40
120.0
  1
   (115)
 50
90.0
100
AcDbText
  0
POINT
  5
81E8
330
841F
100
AcDbEntity
  8
DEFPOINTS
  6
ByBlock
 62
     0
100
AcDbPoint
 10
3596.156955993246
 20
2706.144075523783
 30
0.0
  0
POINT
  5
81E9
330
841F
100
AcDbEntity
  8
DEFPOINTS
  6
ByBlock
 62
     0
100
AcDbPoint
 10
3596.156955993246
 20
2821.144075523783
 30
0.0
  0
POINT
  5
81EA
330
841F
100
AcDbEntity
  8
DEFPOINTS
  6
ByBlock
 62
     0
100
AcDbPoint
 10
4171.727377900388
 20
2821.144075523783
 30
0.0
  0
ENDBLK
  5
81EB
330
841F
100
AcDbEntity
  8
0
100
AcDbBlockEnd
  0
BLOCK
  5
8422
330
8421
100
AcDbEntity
  8
0
100
AcDbBlockBegin
  2
*D27
 70
     1
 10
0.0
 20
0.0
 30
0.0
  3
*D27
  1

  0
LINE
  5
81B7
330
8421
100
AcDbEntity
  8
0
  6
ByBlock
 62
     0
100
AcDbLine
 10
3616.156955993246
 20
2641.144075523783
 30
0.0
 11
4544.711317784531
 21
2641.144075523783
 31
0.0
  0
LINE
  5
81B8
330
8421
100
AcDbEntity
  8
0
  6
ByBlock
 62
     0
100
AcDbLine
 10
3691.156955993245
 20
5080.144075523783
 30
0.0
 11
4544.711317784531
 21
5080.144075523783
 31
0.0
  0
LINE
  5
81B9
330
8421
100
AcDbEntity
  8
0
  6
ByBlock
 62
     0
100
AcDbLine
 10
4504.711317784531
 20
2721.144075523783
 30
0.0
 11
4504.711317784531
 21
5000.144075523785
 31
0.0
  0
INSERT
  5
81BA
330
8421
100
AcDbEntity
  8
0
  6
ByBlock
 62
     0
100
AcDbBlockReference
  2
_OPEN
 10
4504.711317784531
 20
2641.144075523783
 30
0.0
 41
80.0
 42
80.0
 43
80.0
 50
270.0
  0
INSERT
  5
81BB
330
8421
100
AcDbEntity
  8
0
  6
ByBlock
 62
     0
100
AcDbBlockReference
  2
_OPEN
 10
4504.711317784531
 20
5080.144075523783
 30
0.0
 41
80.0
 42
80.0
 43
80.0
 50
90.0
  0
TEXT
  5
81BC
330
8421
100
AcDbEntity
  8
3
 62
     0
100
AcDbText
 10
4413.282746355958
 20
3572.072646952355
 30
0.0
 40
120.0
  1
(2439)
 50
90.0
100
AcDbText
  0
POINT
  5
81BD
330
8421
100
AcDbEntity
  8
DEFPOINTS
  6
ByBlock
 62
     0
100
AcDbPoint
 10
3596.156955993246
 20
2641.144075523783
 30
0.0
  0
POINT
  5
81BE
330
8421
100
AcDbEntity
  8
DEFPOINTS
  6
ByBlock
 62
     0
100
AcDbPoint
 10
3671.156955993246
 20
5080.144075523783
 30
0.0
  0
POINT
  5
81BF
330
8421
100
AcDbEntity
  8
DEFPOINTS
  6
ByBlock
 62
     0
100
AcDbPoint
 10
4504.711317784531
 20
5080.144075523783
 30
0.0
  0
ENDBLK
  5
81C0
330
8421
100
AcDbEntity
  8
0
100
AcDbBlockEnd
  0
BLOCK
  5
847B
330
847A
100
AcDbEntity
  8
0
100
AcDbBlockBegin
  2
*D28
 70
     1
 10
0.0
 20
0.0
 30
0.0
  3
*D28
  1

  0
LINE
  5
847D
330
847A
100
AcDbEntity
  8
3
 62
     0
370
    -2
100
AcDbLine
 10
4171.727377900388
 20
2723.344075523783
 30
0.0
 11
4171.727377900388
 21
2759.558361238069
 31
0.0
  0
LINE
  5
847E
330
847A
100
AcDbEntity
  8
3
 62
     0
370
    -2
100
AcDbLine
 10
4171.727377900388
 20
2813.944075523784
 30
0.0
 11
4171.727377900388
 21
2777.729789809498
 31
0.0
  0
SOLID
  5
847F
330
847A
100
AcDbEntity
  8
3
 62
     0
100
AcDbTrace
 10
4170.527377900388
 20
2723.344075523783
 30
0.0
 11
4172.927377900388
 21
2723.344075523783
 31
0.0
 12
4171.727377900388
 22
2716.144075523784
 32
0.0
 13
4171.727377900388
 23
2716.144075523784
 33
0.0
  0
SOLID
  5
8480
330
847A
100
AcDbEntity
  8
3
 62
     0
100
AcDbTrace
 10
4170.527377900388
 20
2813.944075523784
 30
0.0
 11
4172.927377900388
 21
2813.944075523784
 31
0.0
 12
4171.727377900388
 22
2821.144075523783
 32
0.0
 13
4171.727377900388
 23
2821.144075523783
 33
0.0
  0
MTEXT
  5
8481
330
847A
100
AcDbEntity
  8
3
 62
     0
100
AcDbMText
 10
4171.727377900388
 20
2768.644075523784
 30
0.0
 40
7.199999999999999
 41
0.0
 71
     5
 72
     1
  1
\A1;   (105)
 73
     1
 44
1.0
1001
ACAD
1000
MTEXTBEGIN
1070
    73
1070
     1
1070
    44
1040
1.0
1070
    74
1070
     0
1000
MTEXTEND
  0
POINT
  5
8482
330
847A
100
AcDbEntity
  8
DEFPOINTS
 62
     0
100
AcDbPoint
 10
3596.156955993246
 20
2716.144075523784
 30
0.0
  0
POINT
  5
8483
330
847A
100
AcDbEntity
  8
DEFPOINTS
 62
     0
100
AcDbPoint
 10
3596.156955993246
 20
2821.144075523783
 30
0.0
  0
POINT
  5
8484
330
847A
100
AcDbEntity
  8
DEFPOINTS
 62
     0
100
AcDbPoint
 10
4171.727377900388
 20
2821.144075523783
 30
0.0
  0
ENDBLK
  5
847C
330
847A
100
AcDbEntity
  8
0
100
AcDbBlockEnd
  0
BLOCK
  5
8486
330
8485
100
AcDbEntity
  8
0
100
AcDbBlockBegin
  2
*D29
 70
     1
 10
0.0
 20
0.0
 30
0.0
  3
*D29
  1

  0
LINE
  5
8488
330
8485
100
AcDbEntity
  8
3
 62
     0
370
    -2
100
AcDbLine
 10
3598.656955993245
 20
2651.144075523783
 30
0.0
 11
4511.911317784531
 21
2651.144075523783
 31
0.0
  0
LINE
  5
8489
330
8485
100
AcDbEntity
  8
3
 62
     0
370
    -2
100
AcDbLine
 10
3673.656955993246
 20
5080.144075523783
 30
0.0
 11
4511.911317784531
 21
5080.144075523783
 31
0.0
  0
LINE
  5
848A
330
8485
100
AcDbEntity
  8
3
 62
     0
370
    -2
100
AcDbLine
 10
4504.711317784531
 20
2658.344075523783
 30
0.0
 11
4504.711317784531
 21
3856.558361238068
 31
0.0
  0
LINE
  5
848B
330
8485
100
AcDbEntity
  8
3
 62
     0
370
    -2
100
AcDbLine
 10
4504.711317784531
 20
5072.944075523783
 30
0.0
 11
4504.711317784531
 21
3874.729789809497
 31
0.0
  0
SOLID
  5
848C
330
8485
100
AcDbEntity
  8
3
 62
     0
100
AcDbTrace
 10
4503.511317784531
 20
2658.344075523783
 30
0.0
 11
4505.911317784531
 21
2658.344075523783
 31
0.0
 12
4504.711317784531
 22
2651.144075523783
 32
0.0
 13
4504.711317784531
 23
2651.144075523783
 33
0.0
  0
SOLID
  5
848D
330
8485
100
AcDbEntity
  8
3
 62
     0
100
AcDbTrace
 10
4503.511317784531
 20
5072.944075523783
 30
0.0
 11
4505.911317784531
 21
5072.944075523783
 31
0.0
 12
4504.711317784531
 22
5080.144075523783
 32
0.0
 13
4504.711317784531
 23
5080.144075523783
 33
0.0
  0
MTEXT
  5
848E
330
8485
100
AcDbEntity
  8
3
 62
     0
100
AcDbMText
 10
4504.71131778453
 20
3865.644075523783
 30
0.0
 40
7.199999999999999
 41
0.0
 71
     5
 72
     1
  1
\A1;(2429)
 73
     1
 44
1.0
1001
ACAD
1000
MTEXTBEGIN
1070
    73
1070
     1
1070
    44
1040
1.0
1070
    74
1070
     0
1000
MTEXTEND
  0
POINT
  5
848F
330
8485
100
AcDbEntity
  8
DEFPOINTS
 62
     0
100
AcDbPoint
 10
3596.156955993246
 20
2651.144075523783
 30
0.0
  0
POINT
  5
8490
330
8485
100
AcDbEntity
  8
DEFPOINTS
 62
     0
100
AcDbPoint
 10
3671.156955993246
 20
5080.144075523783
 30
0.0
  0
POINT
  5
8491
330
8485
100
AcDbEntity
  8
DEFPOINTS
 62
     0
100
AcDbPoint
 10
4504.711317784531
 20
5080.144075523783
 30
0.0
  0
ENDBLK
  5
8487
330
8485
100
AcDbEntity
  8
0
100
AcDbBlockEnd
  0
BLOCK
  5
8493
330
8492
100
AcDbEntity
  8
0
100
AcDbBlockBegin
  2
*D30
 70
     1
 10
0.0
 20
0.0
 30
0.0
  3
*D30
  1

  0
LINE
  5
8495
330
8492
100
AcDbEntity
  8
3
 62
     0
370
    -2
100
AcDbLine
 10
1146.156955993244
 20
2648.644075523784
 30
0.0
 11
1146.156955993244
 21
2399.932715361302
 31
0.0
  0
LINE
  5
8496
330
8492
100
AcDbEntity
  8
3
 62
     0
370
    -2
100
AcDbLine
 10
2846.156955993244
 20
2648.644075523784
 30
0.0
 11
2846.156955993244
 21
2399.932715361302
 31
0.0
  0
LINE
  5
8497
330
8492
100
AcDbEntity
  8
3
 62
     0
370
    -2
100
AcDbLine
 10
1153.356955993244
 20
2407.132715361302
 30
0.0
 11
1980.556955993244
 21
2407.132715361302
 31
0.0
  0
LINE
  5
8498
330
8492
100
AcDbEntity
  8
3
 62
     0
370
    -2
100
AcDbLine
 10
2838.956955993245
 20
2407.132715361302
 30
0.0
 11
2011.756955993244
 21
2407.132715361302
 31
0.0
  0
SOLID
  5
8499
330
8492
100
AcDbEntity
  8
3
 62
     0
100
AcDbTrace
 10
1153.356955993244
 20
2408.332715361302
 30
0.0
 11
1153.356955993244
 21
2405.932715361303
 31
0.0
 12
1146.156955993244
 22
2407.132715361302
 32
0.0
 13
1146.156955993244
 23
2407.132715361302
 33
0.0
  0
SOLID
  5
849A
330
8492
100
AcDbEntity
  8
3
 62
     0
100
AcDbTrace
 10
2838.956955993245
 20
2408.332715361302
 30
0.0
 11
2838.956955993245
 21
2405.932715361303
 31
0.0
 12
2846.156955993244
 22
2407.132715361302
 32
0.0
 13
2846.156955993244
 23
2407.132715361302
 33
0.0
  0
MTEXT
  5
849B
330
8492
100
AcDbEntity
  8
3
 62
     0
100
AcDbMText
 10
1996.156955993244
 20
2407.132715361302
 30
0.0
 40
7.199999999999999
 41
0.0
 71
     5
 72
     1
  1
\A1;1700
 73
     1
 44
1.0
1001
ACAD
1000
MTEXTBEGIN
1070
    73
1070
     1
1070
    44
1040
1.0
1070
    74
1070
     0
1000
MTEXTEND
  0
POINT
  5
849C
330
8492
100
AcDbEntity
  8
DEFPOINTS
 62
     0
100
AcDbPoint
 10
1146.156955993244
 20
2651.144075523783
 30
0.0
  0
POINT
  5
849D
330
8492
100
AcDbEntity
  8
DEFPOINTS
 62
     0
100
AcDbPoint
 10
2846.156955993244
 20
2651.144075523783
 30
0.0
  0
POINT
  5
849E
330
8492
100
AcDbEntity
  8
DEFPOINTS
 62
     0
100
AcDbPoint
 10
2846.156955993244
 20
2407.132715361302
 30
0.0
  0
ENDBLK
  5
8494
330
8492
100
AcDbEntity
  8
0
100
AcDbBlockEnd
  0
BLOCK
  5
84A0
330
849F
100
AcDbEntity
  8
0
100
AcDbBlockBegin
  2
*D31
 70
     1
 10
0.0
 20
0.0
 30
0.0
  3
*D31
  1

  0
LINE
  5
84A2
330
849F
100
AcDbEntity
  8
3
 62
     0
370
    -2
100
AcDbLine
 10
2846.156955993244
 20
2648.644075523784
 30
0.0
 11
2846.156955993244
 21
2399.932715361302
 31
0.0
  0
LINE
  5
84A3
330
849F
100
AcDbEntity
  8
3
 62
     0
370
    -2
100
AcDbLine
 10
3596.156955993246
 20
2648.644075523784
 30
0.0
 11
3596.156955993246
 21
2399.932715361302
 31
0.0
  0
LINE
  5
84A4
330
849F
100
AcDbEntity
  8
3
 62
     0
370
    -2
100
AcDbLine
 10
2853.356955993244
 20
2407.132715361302
 30
0.0
 11
3208.299813136103
 21
2407.132715361302
 31
0.0
  0
LINE
  5
84A5
330
849F
100
AcDbEntity
  8
3
 62
     0
370
    -2
100
AcDbLine
 10
3588.956955993245
 20
2407.132715361302
 30
0.0
 11
3234.014098850388
 21
2407.132715361302
 31
0.0
  0
SOLID
  5
84A6
330
849F
100
AcDbEntity
  8
3
 62
     0
100
AcDbTrace
 10
2853.356955993244
 20
2408.332715361302
 30
0.0
 11
2853.356955993244
 21
2405.932715361303
 31
0.0
 12
2846.156955993244
 22
2407.132715361302
 32
0.0
 13
2846.156955993244
 23
2407.132715361302
 33
0.0
  0
SOLID
  5
84A7
330
849F
100
AcDbEntity
  8
3
 62
     0
100
AcDbTrace
 10
3588.956955993245
 20
2408.332715361302
 30
0.0
 11
3588.956955993245
 21
2405.932715361303
 31
0.0
 12
3596.156955993246
 22
2407.132715361302
 32
0.0
 13
3596.156955993246
 23
2407.132715361302
 33
0.0
  0
MTEXT
  5
84A8
330
849F
100
AcDbEntity
  8
3
 62
     0
100
AcDbMText
 10
3221.156955993245
 20
2407.132715361302
 30
0.0
 40
7.199999999999999
 41
0.0
 71
     5
 72
     1
  1
\A1;750
 73
     1
 44
1.0
1001
ACAD
1000
MTEXTBEGIN
1070
    73
1070
     1
1070
    44
1040
1.0
1070
    74
1070
     0
1000
MTEXTEND
  0
POINT
  5
84A9
330
849F
100
AcDbEntity
  8
DEFPOINTS
 62
     0
100
AcDbPoint
 10
2846.156955993244
 20
2651.144075523783
 30
0.0
  0
POINT
  5
84AA
330
849F
100
AcDbEntity
  8
DEFPOINTS
 62
     0
100
AcDbPoint
 10
3596.156955993246
 20
2651.144075523783
 30
0.0
  0
POINT
  5
84AB
330
849F
100
AcDbEntity
  8
DEFPOINTS
 62
     0
100
AcDbPoint
 10
3596.156955993246
 20
2407.132715361302
 30
0.0
  0
ENDBLK
  5
84A1
330
849F
100
AcDbEntity
  8
0
100
AcDbBlockEnd
  0
BLOCK
  5
84AD
330
84AC
100
AcDbEntity
  8
0
100
AcDbBlockBegin
  2
*D32
 70
     1
 10
0.0
 20
0.0
 30
0.0
  3
*D32
  1

  0
LINE
  5
84AF
330
84AC
100
AcDbEntity
  8
3
 62
     0
370
    -2
100
AcDbLine
 10
5124.500975653525
 20
2648.644075523784
 30
0.0
 11
5124.500975653525
 21
2399.932715361302
 31
0.0
  0
LINE
  5
84B0
330
84AC
100
AcDbEntity
  8
3
 62
     0
370
    -2
100
AcDbLine
 10
6326.500975653526
 20
2648.644075523784
 30
0.0
 11
6326.500975653526
 21
2399.932715361302
 31
0.0
  0
LINE
  5
84B1
330
84AC
100
AcDbEntity
  8
3
 62
     0
370
    -2
100
AcDbLine
 10
5131.700975653524
 20
2407.132715361302
 30
0.0
 11
5709.900975653525
 21
2407.132715361302
 31
0.0
  0
LINE
  5
84B2
330
84AC
100
AcDbEntity
  8
3
 62
     0
370
    -2
100
AcDbLine
 10
6319.300975653526
 20
2407.132715361302
 30
0.0
 11
5741.100975653526
 21
2407.132715361302
 31
0.0
  0
SOLID
  5
84B3
330
84AC
100
AcDbEntity
  8
3
 62
     0
100
AcDbTrace
 10
5131.700975653524
 20
2408.332715361302
 30
0.0
 11
5131.700975653524
 21
2405.932715361303
 31
0.0
 12
5124.500975653525
 22
2407.132715361302
 32
0.0
 13
5124.500975653525
 23
2407.132715361302
 33
0.0
  0
SOLID
  5
84B4
330
84AC
100
AcDbEntity
  8
3
 62
     0
100
AcDbTrace
 10
6319.300975653526
 20
2408.332715361302
 30
0.0
 11
6319.300975653526
 21
2405.932715361303
 31
0.0
 12
6326.500975653526
 22
2407.132715361302
 32
0.0
 13
6326.500975653526
 23
2407.132715361302
 33
0.0
  0
MTEXT
  5
84B5
330
84AC
100
AcDbEntity
  8
3
 62
     0
100
AcDbMText
 10
5725.500975653526
 20
2407.132715361302
 30
0.0
 40
7.199999999999999
 41
0.0
 71
     5
 72
     1
  1
\A1;1202
 73
     1
 44
1.0
1001
ACAD
1000
MTEXTBEGIN
1070
    73
1070
     1
1070
    44
1040
1.0
1070
    74
1070
     0
1000
MTEXTEND
  0
POINT
  5
84B6
330
84AC
100
AcDbEntity
  8
DEFPOINTS
 62
     0
100
AcDbPoint
 10
5124.500975653525
 20
2651.144075523783
 30
0.0
  0
POINT
  5
84B7
330
84AC
100
AcDbEntity
  8
DEFPOINTS
 62
     0
100
AcDbPoint
 10
6326.500975653526
 20
2651.144075523783
 30
0.0
  0
POINT
  5
84B8
330
84AC
100
AcDbEntity
  8
DEFPOINTS
 62
     0
100
AcDbPoint
 10
6326.500975653526
 20
2407.132715361302
 30
0.0
  0
ENDBLK
  5
84AE
330
84AC
100
AcDbEntity
  8
0
100
AcDbBlockEnd
  0
BLOCK
  5
84BA
330
84B9
100
AcDbEntity
  8
0
100
AcDbBlockBegin
  2
*D33
 70
     1
 10
0.0
 20
0.0
 30
0.0
  3
*D33
  1

  0
LINE
  5
84BC
330
84B9
100
AcDbEntity
  8
3
 62
     0
370
    -2
100
AcDbLine
 10
6326.500975653526
 20
2648.644075523784
 30
0.0
 11
6326.500975653526
 21
2399.932715361302
 31
0.0
  0
LINE
  5
84BD
330
84B9
100
AcDbEntity
  8
3
 62
     0
370
    -2
100
AcDbLine
 10
7244.500975653526
 20
2648.644075523784
 30
0.0
 11
7244.500975653526
 21
2399.932715361302
 31
0.0
  0
LINE
  5
84BE
330
84B9
100
AcDbEntity
  8
3
 62
     0
370
    -2
100
AcDbLine
 10
6333.700975653525
 20
2407.132715361302
 30
0.0
 11
6773.329547082096
 21
2407.132715361302
 31
0.0
  0
LINE
  5
84BF
330
84B9
100
AcDbEntity
  8
3
 62
     0
370
    -2
100
AcDbLine
 10
7237.300975653525
 20
2407.132715361302
 30
0.0
 11
6797.672404224954
 21
2407.132715361302
 31
0.0
  0
SOLID
  5
84C0
330
84B9
100
AcDbEntity
  8
3
 62
     0
100
AcDbTrace
 10
6333.700975653525
 20
2408.332715361302
 30
0.0
 11
6333.700975653525
 21
2405.932715361303
 31
0.0
 12
6326.500975653526
 22
2407.132715361302
 32
0.0
 13
6326.500975653526
 23
2407.132715361302
 33
0.0
  0
SOLID
  5
84C1
330
84B9
100
AcDbEntity
  8
3
 62
     0
100
AcDbTrace
 10
7237.300975653525
 20
2408.332715361302
 30
0.0
 11
7237.300975653525
 21
2405.932715361303
 31
0.0
 12
7244.500975653526
 22
2407.132715361302
 32
0.0
 13
7244.500975653526
 23
2407.132715361302
 33
0.0
  0
MTEXT
  5
84C2
330
84B9
100
AcDbEntity
  8
3
 62
     0
100
AcDbMText
 10
6785.500975653525
 20
2407.132715361302
 30
0.0
 40
7.199999999999999
 41
0.0
 71
     5
 72
     1
  1
\A1;918
 73
     1
 44
1.0
1001
ACAD
1000
MTEXTBEGIN
1070
    73
1070
     1
1070
    44
1040
1.0
1070
    74
1070
     0
1000
MTEXTEND
  0
POINT
  5
84C3
330
84B9
100
AcDbEntity
  8
DEFPOINTS
 62
     0
100
AcDbPoint
 10
6326.500975653526
 20
2651.144075523783
 30
0.0
  0
POINT
  5
84C4
330
84B9
100
AcDbEntity
  8
DEFPOINTS
 62
     0
100
AcDbPoint
 10
7244.500975653526
 20
2651.144075523783
 30
0.0
  0
POINT
  5
84C5
330
84B9
100
AcDbEntity
  8
DEFPOINTS
 62
     0
100
AcDbPoint
 10
7244.500975653526
 20
2407.132715361302
 30
0.0
  0
ENDBLK
  5
84BB
330
84B9
100
AcDbEntity
  8
0
100
AcDbBlockEnd
  0
BLOCK
  5
84C7
330
84C6
100
AcDbEntity
  8
0
100
AcDbBlockBegin
  2
*D34
 70
     1
 10
0.0
 20
0.0
 30
0.0
  3
*D34
  1

  0
LINE
  5
84C9
330
84C6
100
AcDbEntity
  8
3
 62
     0
370
    -2
100
AcDbLine
 10
3598.656955993245
 20
2716.144075523784
 30
0.0
 11
4177.778222735579
 21
2716.144075523784
 31
0.0
  0
LINE
  5
84CA
330
84C6
100
AcDbEntity
  8
3
 62
     0
370
    -2
100
AcDbLine
 10
3598.656955993245
 20
2651.144075523783
 30
0.0
 11
4177.778222735579
 21
2651.144075523783
 31
0.0
  0
LINE
  5
84CB
330
84C6
100
AcDbEntity
  8
3
 62
     0
370
    -2
100
AcDbLine
 10
4170.57822273558
 20
2708.944075523783
 30
0.0
 11
4170.57822273558
 21
2690.844075523783
 31
0.0
  0
LINE
  5
84CC
330
84C6
100
AcDbEntity
  8
3
 62
     0
370
    -2
100
AcDbLine
 10
4170.57822273558
 20
2658.344075523783
 30
0.0
 11
4170.57822273558
 21
2676.444075523784
 31
0.0
  0
SOLID
  5
84CD
330
84C6
100
AcDbEntity
  8
3
 62
     0
100
AcDbTrace
 10
4169.37822273558
 20
2708.944075523783
 30
0.0
 11
4171.778222735579
 21
2708.944075523783
 31
0.0
 12
4170.57822273558
 22
2716.144075523784
 32
0.0
 13
4170.57822273558
 23
2716.144075523784
 33
0.0
  0
SOLID
  5
84CE
330
84C6
100
AcDbEntity
  8
3
 62
     0
100
AcDbTrace
 10
4169.37822273558
 20
2658.344075523783
 30
0.0
 11
4171.778222735579
 21
2658.344075523783
 31
0.0
 12
4170.57822273558
 22
2651.144075523783
 32
0.0
 13
4170.57822273558
 23
2651.144075523783
 33
0.0
  0
MTEXT
  5
84CF
330
84C6
100
AcDbEntity
  8
3
 62
     0
100
AcDbMText
 10
4170.578222735578
 20
2683.644075523784
 30
0.0
 40
7.199999999999999
 41
0.0
 71
     5
 72
     1
  1
\A1;65
 73
     1
 44
1.0
1001
ACAD
1000
MTEXTBEGIN
1070
    73
1070
     1
1070
    44
1040
1.0
1070
    74
1070
     0
1000
MTEXTEND
  0
POINT
  5
84D0
330
84C6
100
AcDbEntity
  8
DEFPOINTS
 62
     0
100
AcDbPoint
 10
3596.156955993246
 20
2716.144075523784
 30
0.0
  0
POINT
  5
84D1
330
84C6
100
AcDbEntity
  8
DEFPOINTS
 62
     0
100
AcDbPoint
 10
3596.156955993246
 20
2651.144075523783
 30
0.0
  0
POINT
  5
84D2
330
84C6
100
AcDbEntity
  8
DEFPOINTS
 62
     0
100
AcDbPoint
 10
4170.57822273558
 20
2651.144075523783
 30
0.0
  0
ENDBLK
  5
84C8
330
84C6
100
AcDbEntity
  8
0
100
AcDbBlockEnd
  0
BLOCK
  5
84DC
330
84DB
100
AcDbEntity
  8
0
100
AcDbBlockBegin
  2
*D35
 70
     1
 10
0.0
 20
0.0
 30
0.0
  3
*D35
  1

  0
LINE
  5
84DE
330
84DB
100
AcDbEntity
  8
3
 62
     0
370
    -2
100
AcDbLine
 10
7196.500975653525
 20
4371.144075523783
 30
0.0
 11
7627.77060056603
 21
4371.144075523783
 31
0.0
  0
LINE
  5
84DF
330
84DB
100
AcDbEntity
  8
3
 62
     0
370
    -2
100
AcDbLine
 10
7196.500975653525
 20
3121.144075523783
 30
0.0
 11
7627.77060056603
 21
3121.144075523783
 31
0.0
  0
LINE
  5
84E0
330
84DB
100
AcDbEntity
  8
3
 62
     0
370
    -2
100
AcDbLine
 10
7587.77060056603
 20
4291.144075523783
 30
0.0
 11
7587.77060056603
 21
3201.144075523784
 31
0.0
  0
INSERT
  5
84E1
330
84DB
100
AcDbEntity
  8
3
 62
     0
370
    -2
100
AcDbBlockReference
  2
_OPEN
 10
7587.77060056603
 20
4371.144075523783
 30
0.0
 41
80.0
 42
80.0
 43
80.0
 50
90.0
  0
INSERT
  5
84E2
330
84DB
100
AcDbEntity
  8
3
 62
     0
370
    -2
100
AcDbBlockReference
  2
_OPEN
 10
7587.77060056603
 20
3121.144075523783
 30
0.0
 41
80.0
 42
80.0
 43
80.0
 50
270.0
  0
MTEXT
  5
84E3
330
84DB
100
AcDbEntity
  8
3
 62
     0
100
AcDbMText
 10
7487.77060056603
 20
3746.144075523786
 30
0.0
 40
120.0
 41
0.0
 71
     5
 72
     1
  1
\A1;1250
 11
0.0000000000000001
 21
1.0
 31
0.0
 73
     1
 44
1.0
1001
ACAD
1000
MTEXTBEGIN
1070
    73
1070
     1
1070
    44
1040
1.0
1070
    74
1070
     0
1000
MTEXTEND
  0
POINT
  5
84E4
330
84DB
100
AcDbEntity
  8
DEFPOINTS
 62
     0
100
AcDbPoint
 10
7176.500975653526
 20
4371.144075523783
 30
0.0
  0
POINT
  5
84E5
330
84DB
100
AcDbEntity
  8
DEFPOINTS
 62
     0
100
AcDbPoint
 10
7176.500975653526
 20
3121.144075523783
 30
0.0
  0
POINT
  5
84E6
330
84DB
100
AcDbEntity
  8
DEFPOINTS
 62
     0
100
AcDbPoint
 10
7587.77060056603
 20
3121.144075523783
 30
0.0
  0
ENDBLK
  5
84DD
330
84DB
100
AcDbEntity
  8
0
100
AcDbBlockEnd
  0
BLOCK
  5
84E9
330
84E8
100
AcDbEntity
  8
0
100
AcDbBlockBegin
  2
*D36
 70
     1
 10
0.0
 20
0.0
 30
0.0
  3
*D36
  1

  0
LINE
  5
84EB
330
84E8
100
AcDbEntity
  8
3
 62
     0
370
    -2
100
AcDbLine
 10
5476.500975653525
 20
5100.144075523783
 30
0.0
 11
5476.500975653525
 21
5421.543861990349
 31
0.0
  0
LINE
  5
84EC
330
84E8
100
AcDbEntity
  8
3
 62
     0
370
    -2
100
AcDbLine
 10
7176.500975653526
 20
5100.144075523783
 30
0.0
 11
7176.500975653526
 21
5421.543861990349
 31
0.0
  0
LINE
  5
84ED
330
84E8
100
AcDbEntity
  8
3
 62
     0
370
    -2
100
AcDbLine
 10
5556.500975653524
 20
5381.543861990349
 30
0.0
 11
7096.500975653525
 21
5381.543861990349
 31
0.0
  0
INSERT
  5
84EE
330
84E8
100
AcDbEntity
  8
3
 62
     0
370
    -2
100
AcDbBlockReference
  2
_OPEN
 10
5476.500975653525
 20
5381.543861990349
 30
0.0
 41
80.0
 42
80.0
 43
80.0
 50
180.0
  0
INSERT
  5
84EF
330
84E8
100
AcDbEntity
  8
3
 62
     0
370
    -2
100
AcDbBlockReference
  2
_OPEN
 10
7176.500975653526
 20
5381.543861990349
 30
0.0
 41
80.0
 42
80.0
 43
80.0
  0
MTEXT
  5
84F0
330
84E8
100
AcDbEntity
  8
3
 62
     0
100
AcDbMText
 10
6326.500975653526
 20
5481.543861990349
 30
0.0
 40
120.0
 41
0.0
 71
     5
 72
     1
  1
\A1;1700
 73
     1
 44
1.0
1001
ACAD
1000
MTEXTBEGIN
1070
    73
1070
     1
1070
    44
1040
1.0
1070
    74
1070
     0
1000
MTEXTEND
  0
POINT
  5
84F1
330
84E8
100
AcDbEntity
  8
DEFPOINTS
 62
     0
100
AcDbPoint
 10
5476.500975653525
 20
5080.144075523783
 30
0.0
  0
POINT
  5
84F2
330
84E8
100
AcDbEntity
  8
DEFPOINTS
 62
     0
100
AcDbPoint
 10
7176.500975653526
 20
5080.144075523783
 30
0.0
  0
POINT
  5
84F3
330
84E8
100
AcDbEntity
  8
DEFPOINTS
 62
     0
100
AcDbPoint
 10
7176.500975653526
 20
5381.543861990349
 30
0.0
  0
ENDBLK
  5
84EA
330
84E8
100
AcDbEntity
  8
0
100
AcDbBlockEnd
  0
BLOCK
  5
84F6
330
84F5
100
AcDbEntity
  8
0
100
AcDbBlockBegin
  2
*D37
 70
     1
 10
0.0
 20
0.0
 30
0.0
  3
*D37
  1

  0
LINE
  5
856A
330
84F5
100
AcDbEntity
  8
3
 62
     0
370
    -2
100
AcDbLine
 10
5046.500975653525
 20
4146.144075523783
 30
0.0
 11
5046.500975653525
 21
5674.50716684925
 31
0.0
  0
LINE
  5
856B
330
84F5
100
AcDbEntity
  8
3
 62
     0
370
    -2
100
AcDbLine
 10
6326.500975653526
 20
5571.283124315389
 30
0.0
 11
6326.500975653526
 21
5674.50716684925
 31
0.0
  0
LINE
  5
856C
330
84F5
100
AcDbEntity
  8
3
 62
     0
370
    -2
100
AcDbLine
 10
5126.500975653525
 20
5634.50716684925
 30
0.0
 11
6246.500975653526
 21
5634.50716684925
 31
0.0
  0
INSERT
  5
856D
330
84F5
100
AcDbEntity
  8
3
 62
     0
370
    -2
100
AcDbBlockReference
  2
_OPEN
 10
5046.500975653525
 20
5634.50716684925
 30
0.0
 41
80.0
 42
80.0
 43
80.0
 50
180.0
  0
INSERT
  5
856E
330
84F5
100
AcDbEntity
  8
3
 62
     0
370
    -2
100
AcDbBlockReference
  2
_OPEN
 10
6326.500975653526
 20
5634.50716684925
 30
0.0
 41
80.0
 42
80.0
 43
80.0
  0
MTEXT
  5
856F
330
84F5
100
AcDbEntity
  8
3
 62
     0
100
AcDbMText
 10
5686.500975653526
 20
5765.935738277821
 30
0.0
 40
120.0
 41
0.0
 71
     5
 72
     1
  1
\A1;(1280)
 73
     1
 44
1.0
1001
ACAD
1000
MTEXTBEGIN
1070
    73
1070
     1
1070
    44
1040
1.0
1070
    74
1070
     0
1000
MTEXTEND
  0
POINT
  5
8570
330
84F5
100
AcDbEntity
  8
DEFPOINTS
 62
     0
100
AcDbPoint
 10
5046.500975653525
 20
4126.144075523782
 30
0.0
  0
POINT
  5
8571
330
84F5
100
AcDbEntity
  8
DEFPOINTS
 62
     0
100
AcDbPoint
 10
6326.500975653526
 20
5551.283124315389
 30
0.0
  0
POINT
  5
8572
330
84F5
100
AcDbEntity
  8
DEFPOINTS
 62
     0
100
AcDbPoint
 10
6326.500975653526
 20
5634.50716684925
 30
0.0
  0
ENDBLK
  5
84F7
330
84F5
100
AcDbEntity
  8
0
100
AcDbBlockEnd
  0
BLOCK
  5
8503
330
8502
100
AcDbEntity
  8
0
100
AcDbBlockBegin
  2
*D38
 70
     1
 10
0.0
 20
0.0
 30
0.0
  3
*D38
  1

  0
LINE
  5
8561
330
8502
100
AcDbEntity
  8
3
 62
     0
370
    -2
100
AcDbLine
 10
6326.500975653526
 20
5571.283124315389
 30
0.0
 11
6326.500975653526
 21
5674.50716684925
 31
0.0
  0
LINE
  5
8562
330
8502
100
AcDbEntity
  8
3
 62
     0
370
    -2
100
AcDbLine
 10
7346.500975653523
 20
3690.144075523785
 30
0.0
 11
7346.500975653523
 21
5674.50716684925
 31
0.0
  0
LINE
  5
8563
330
8502
100
AcDbEntity
  8
3
 62
     0
370
    -2
100
AcDbLine
 10
6406.500975653526
 20
5634.50716684925
 30
0.0
 11
7266.500975653523
 21
5634.50716684925
 31
0.0
  0
INSERT
  5
8564
330
8502
100
AcDbEntity
  8
3
 62
     0
370
    -2
100
AcDbBlockReference
  2
_OPEN
 10
6326.500975653526
 20
5634.50716684925
 30
0.0
 41
80.0
 42
80.0
 43
80.0
 50
180.0
  0
INSERT
  5
8565
330
8502
100
AcDbEntity
  8
3
 62
     0
370
    -2
100
AcDbBlockReference
  2
_OPEN
 10
7346.500975653523
 20
5634.50716684925
 30
0.0
 41
80.0
 42
80.0
 43
80.0
  0
MTEXT
  5
8566
330
8502
100
AcDbEntity
  8
3
 62
     0
100
AcDbMText
 10
6836.500975653525
 20
5765.935738277821
 30
0.0
 40
120.0
 41
0.0
 71
     5
 72
     1
  1
\A1;(1020)
 73
     1
 44
1.0
1001
ACAD
1000
MTEXTBEGIN
1070
    73
1070
     1
1070
    44
1040
1.0
1070
    74
1070
     0
1000
MTEXTEND
  0
POINT
  5
8567
330
8502
100
AcDbEntity
  8
DEFPOINTS
 62
     0
100
AcDbPoint
 10
6326.500975653526
 20
5551.283124315389
 30
0.0
  0
POINT
  5
8568
330
8502
100
AcDbEntity
  8
DEFPOINTS
 62
     0
100
AcDbPoint
 10
7346.500975653523
 20
3670.144075523784
 30
0.0
  0
POINT
  5
8569
330
8502
100
AcDbEntity
  8
DEFPOINTS
 62
     0
100
AcDbPoint
 10
7346.500975653523
 20
5634.50716684925
 30
0.0
  0
ENDBLK
  5
8504
330
8502
100
AcDbEntity
  8
0
100
AcDbBlockEnd
  0
BLOCK
  5
8549
330
8548
100
AcDbEntity
  8
0
100
AcDbBlockBegin
  2
*D39
 70
     1
 10
0.0
 20
0.0
 30
0.0
  3
*D39
  1

  0
LINE
  5
854B
330
8548
100
AcDbEntity
  8
3
 62
     0
370
    -2
100
AcDbLine
 10
5124.500975653525
 20
2631.144075523784
 30
0.0
 11
5124.500975653525
 21
2345.15033344473
 31
0.0
  0
LINE
  5
854C
330
8548
100
AcDbEntity
  8
3
 62
     0
370
    -2
100
AcDbLine
 10
6326.500975653526
 20
2631.144075523784
 30
0.0
 11
6326.500975653526
 21
2345.15033344473
 31
0.0
  0
LINE
  5
854D
330
8548
100
AcDbEntity
  8
3
 62
     0
370
    -2
100
AcDbLine
 10
5204.500975653525
 20
2385.15033344473
 30
0.0
 11
6246.500975653526
 21
2385.15033344473
 31
0.0
  0
INSERT
  5
854E
330
8548
100
AcDbEntity
  8
3
 62
     0
370
    -2
100
AcDbBlockReference
  2
_OPEN
 10
5124.500975653525
 20
2385.15033344473
 30
0.0
 41
80.0
 42
80.0
 43
80.0
 50
180.0
  0
INSERT
  5
854F
330
8548
100
AcDbEntity
  8
3
 62
     0
370
    -2
100
AcDbBlockReference
  2
_OPEN
 10
6326.500975653526
 20
2385.15033344473
 30
0.0
 41
80.0
 42
80.0
 43
80.0
  0
MTEXT
  5
8550
330
8548
100
AcDbEntity
  8
3
 62
     0
100
AcDbMText
 10
5725.500975653526
 20
2485.15033344473
 30
0.0
 40
120.0
 41
0.0
 71
     5
 72
     1
  1
\A1;1202
 73
     1
 44
1.0
1001
ACAD
1000
MTEXTBEGIN
1070
    73
1070
     1
1070
    44
1040
1.0
1070
    74
1070
     0
1000
MTEXTEND
  0
POINT
  5
8551
330
8548
100
AcDbEntity
  8
DEFPOINTS
 62
     0
100
AcDbPoint
 10
5124.500975653525
 20
2651.144075523783
 30
0.0
  0
POINT
  5
8552
330
8548
100
AcDbEntity
  8
DEFPOINTS
 62
     0
100
AcDbPoint
 10
6326.500975653526
 20
2651.144075523783
 30
0.0
  0
POINT
  5
8553
330
8548
100
AcDbEntity
  8
DEFPOINTS
 62
     0
100
AcDbPoint
 10
6326.500975653526
 20
2385.15033344473
 30
0.0
  0
ENDBLK
  5
854A
330
8548
100
AcDbEntity
  8
0
100
AcDbBlockEnd
  0
BLOCK
  5
8556
330
8555
100
AcDbEntity
  8
0
100
AcDbBlockBegin
  2
*D40
 70
     1
 10
0.0
 20
0.0
 30
0.0
  3
*D40
  1

  0
LINE
  5
8558
330
8555
100
AcDbEntity
  8
3
 62
     0
370
    -2
100
AcDbLine
 10
6326.500975653526
 20
2631.144075523784
 30
0.0
 11
6326.500975653526
 21
2345.15033344473
 31
0.0
  0
LINE
  5
8559
330
8555
100
AcDbEntity
  8
3
 62
     0
370
    -2
100
AcDbLine
 10
7244.500975653526
 20
2631.144075523784
 30
0.0
 11
7244.500975653526
 21
2345.15033344473
 31
0.0
  0
LINE
  5
855A
330
8555
100
AcDbEntity
  8
3
 62
     0
370
    -2
100
AcDbLine
 10
6406.500975653526
 20
2385.15033344473
 30
0.0
 11
7164.500975653526
 21
2385.15033344473
 31
0.0
  0
INSERT
  5
855B
330
8555
100
AcDbEntity
  8
3
 62
     0
370
    -2
100
AcDbBlockReference
  2
_OPEN
 10
6326.500975653526
 20
2385.15033344473
 30
0.0
 41
80.0
 42
80.0
 43
80.0
 50
180.0
  0
INSERT
  5
855C
330
8555
100
AcDbEntity
  8
3
 62
     0
370
    -2
100
AcDbBlockReference
  2
_OPEN
 10
7244.500975653526
 20
2385.15033344473
 30
0.0
 41
80.0
 42
80.0
 43
80.0
  0
MTEXT
  5
855D
330
8555
100
AcDbEntity
  8
3
 62
     0
100
AcDbMText
 10
6785.500975653525
 20
2485.15033344473
 30
0.0
 40
120.0
 41
0.0
 71
     5
 72
     1
  1
\A1;918
 73
     1
 44
1.0
1001
ACAD
1000
MTEXTBEGIN
1070
    73
1070
     1
1070
    44
1040
1.0
1070
    74
1070
     0
1000
MTEXTEND
  0
POINT
  5
855E
330
8555
100
AcDbEntity
  8
DEFPOINTS
 62
     0
100
AcDbPoint
 10
6326.500975653526
 20
2651.144075523783
 30
0.0
  0
POINT
  5
855F
330
8555
100
AcDbEntity
  8
DEFPOINTS
 62
     0
100
AcDbPoint
 10
7244.500975653526
 20
2651.144075523783
 30
0.0
  0
POINT
  5
8560
330
8555
100
AcDbEntity
  8
DEFPOINTS
 62
     0
100
AcDbPoint
 10
7244.500975653526
 20
2385.15033344473
 30
0.0
  0
ENDBLK
  5
8557
330
8555
100
AcDbEntity
  8
0
100
AcDbBlockEnd
  0
BLOCK
  5
8575
330
8574
100
AcDbEntity
  8
0
100
AcDbBlockBegin
  2
*D41
 70
     1
 10
0.0
 20
0.0
 30
0.0
  3
*D41
  1

  0
LINE
  5
85C1
330
8574
100
AcDbEntity
  8
3
 62
     0
370
    -2
100
AcDbLine
 10
3246.156955993246
 20
6327.027814553499
 30
0.0
 11
5131.435774378434
 21
6327.027814553499
 31
0.0
  0
LINE
  5
85C2
330
8574
100
AcDbEntity
  8
3
 62
     0
370
    -2
100
AcDbLine
 10
3841.984076714965
 20
7607.027814553496
 30
0.0
 11
5131.435774378434
 21
7607.027814553496
 31
0.0
  0
LINE
  5
85C3
330
8574
100
AcDbEntity
  8
3
 62
     0
370
    -2
100
AcDbLine
 10
5091.435774378435
 20
6407.027814553498
 30
0.0
 11
5091.435774378435
 21
7527.027814553496
 31
0.0
  0
INSERT
  5
85C4
330
8574
100
AcDbEntity
  8
3
 62
     0
370
    -2
100
AcDbBlockReference
  2
_OPEN
 10
5091.435774378435
 20
6327.027814553499
 30
0.0
 41
80.0
 42
80.0
 43
80.0
 50
270.0
  0
INSERT
  5
85C5
330
8574
100
AcDbEntity
  8
3
 62
     0
370
    -2
100
AcDbBlockReference
  2
_OPEN
 10
5091.435774378435
 20
7607.027814553496
 30
0.0
 41
80.0
 42
80.0
 43
80.0
 50
90.0
  0
MTEXT
  5
85C6
330
8574
100
AcDbEntity
  8
3
 62
     0
100
AcDbMText
 10
4991.435774378433
 20
6967.027814553498
 30
0.0
 40
120.0
 41
0.0
 71
     5
 72
     1
  1
\A1;1280
 11
0.0000000000000001
 21
1.0
 31
0.0
 73
     1
 44
1.0
1001
ACAD
1000
MTEXTBEGIN
1070
    73
1070
     1
1070
    44
1040
1.0
1070
    74
1070
     0
1000
MTEXTEND
  0
POINT
  5
85C7
330
8574
100
AcDbEntity
  8
DEFPOINTS
 62
     0
100
AcDbPoint
 10
3226.156955993245
 20
6327.027814553499
 30
0.0
  0
POINT
  5
85C8
330
8574
100
AcDbEntity
  8
DEFPOINTS
 62
     0
100
AcDbPoint
 10
3821.984076714965
 20
7607.027814553496
 30
0.0
  0
POINT
  5
85C9
330
8574
100
AcDbEntity
  8
DEFPOINTS
 62
     0
100
AcDbPoint
 10
5091.435774378435
 20
7607.027814553496
 30
0.0
  0
ENDBLK
  5
8576
330
8574
100
AcDbEntity
  8
0
100
AcDbBlockEnd
  0
BLOCK
  5
8582
330
8581
100
AcDbEntity
  8
0
100
AcDbBlockBegin
  2
*D42
 70
     1
 10
0.0
 20
0.0
 30
0.0
  3
*D42
  1

  0
LINE
  5
8584
330
8581
100
AcDbEntity
  8
3
 62
     0
370
    -2
100
AcDbLine
 10
1126.156955993244
 20
7405.027814553498
 30
0.0
 11
839.830554885666
 21
7405.027814553498
 31
0.0
  0
LINE
  5
8585
330
8581
100
AcDbEntity
  8
3
 62
     0
370
    -2
100
AcDbLine
 10
1126.156955993244
 20
6405.027814553498
 30
0.0
 11
839.830554885666
 21
6405.027814553498
 31
0.0
  0
LINE
  5
8586
330
8581
100
AcDbEntity
  8
3
 62
     0
370
    -2
100
AcDbLine
 10
879.830554885666
 20
7325.027814553499
 30
0.0
 11
879.8305548856658
 21
6485.027814553498
 31
0.0
  0
INSERT
  5
8587
330
8581
100
AcDbEntity
  8
3
 62
     0
370
    -2
100
AcDbBlockReference
  2
_OPEN
 10
879.830554885666
 20
7405.027814553498
 30
0.0
 41
80.0
 42
80.0
 43
80.0
 50
90.0
  0
INSERT
  5
8588
330
8581
100
AcDbEntity
  8
3
 62
     0
370
    -2
100
AcDbBlockReference
  2
_OPEN
 10
879.8305548856658
 20
6405.027814553498
 30
0.0
 41
80.0
 42
80.0
 43
80.0
 50
270.0
  0
MTEXT
  5
8589
330
8581
100
AcDbEntity
  8
3
 62
     0
100
AcDbMText
 10
779.8305548856649
 20
6905.027814553498
 30
0.0
 40
120.0
 41
0.0
 71
     5
 72
     1
  1
\A1;1000
 11
0.0000000000000001
 21
1.0
 31
0.0
 73
     1
 44
1.0
1001
ACAD
1000
MTEXTBEGIN
1070
    73
1070
     1
1070
    44
1040
1.0
1070
    74
1070
     0
1000
MTEXTEND
  0
POINT
  5
858A
330
8581
100
AcDbEntity
  8
DEFPOINTS
 62
     0
100
AcDbPoint
 10
1146.156955993244
 20
7405.027814553498
 30
0.0
  0
POINT
  5
858B
330
8581
100
AcDbEntity
  8
DEFPOINTS
 62
     0
100
AcDbPoint
 10
1146.156955993244
 20
6405.027814553498
 30
0.0
  0
POINT
  5
858C
330
8581
100
AcDbEntity
  8
DEFPOINTS
 62
     0
100
AcDbPoint
 10
879.8305548856658
 20
6405.027814553498
 30
0.0
  0
ENDBLK
  5
8583
330
8581
100
AcDbEntity
  8
0
100
AcDbBlockEnd
  0
BLOCK
  5
858F
330
858E
100
AcDbEntity
  8
0
100
AcDbBlockBegin
  2
*D43
 70
     1
 10
0.0
 20
0.0
 30
0.0
  3
*D43
  1

  0
LINE
  5
8591
330
858E
100
AcDbEntity
  8
3
 62
     0
370
    -2
100
AcDbLine
 10
1146.156955993244
 20
6385.027814553499
 30
0.0
 11
1146.156955993244
 21
6000.273936363845
 31
0.0
  0
LINE
  5
8592
330
858E
100
AcDbEntity
  8
3
 62
     0
370
    -2
100
AcDbLine
 10
3596.156955993246
 20
6385.027814553495
 30
0.0
 11
3596.156955993246
 21
6000.273936363845
 31
0.0
  0
LINE
  5
8593
330
858E
100
AcDbEntity
  8
3
 62
     0
370
    -2
100
AcDbLine
 10
1226.156955993244
 20
6040.273936363845
 30
0.0
 11
3516.156955993245
 21
6040.273936363845
 31
0.0
  0
INSERT
  5
8594
330
858E
100
AcDbEntity
  8
3
 62
     0
370
    -2
100
AcDbBlockReference
  2
_OPEN
 10
1146.156955993244
 20
6040.273936363845
 30
0.0
 41
80.0
 42
80.0
 43
80.0
 50
180.0
  0
INSERT
  5
8595
330
858E
100
AcDbEntity
  8
3
 62
     0
370
    -2
100
AcDbBlockReference
  2
_OPEN
 10
3596.156955993246
 20
6040.273936363845
 30
0.0
 41
80.0
 42
80.0
 43
80.0
  0
MTEXT
  5
8596
330
858E
100
AcDbEntity
  8
3
 62
     0
100
AcDbMText
 10
2371.156955993245
 20
6140.273936363844
 30
0.0
 40
120.0
 41
0.0
 71
     5
 72
     1
  1
\A1;2450
 73
     1
 44
1.0
1001
ACAD
1000
MTEXTBEGIN
1070
    73
1070
     1
1070
    44
1040
1.0
1070
    74
1070
     0
1000
MTEXTEND
  0
POINT
  5
8597
330
858E
100
AcDbEntity
  8
DEFPOINTS
 62
     0
100
AcDbPoint
 10
1146.156955993244
 20
6405.027814553498
 30
0.0
  0
POINT
  5
8598
330
858E
100
AcDbEntity
  8
DEFPOINTS
 62
     0
100
AcDbPoint
 10
3596.156955993246
 20
6405.027814553496
 30
0.0
  0
POINT
  5
8599
330
858E
100
AcDbEntity
  8
DEFPOINTS
 62
     0
100
AcDbPoint
 10
3596.156955993246
 20
6040.273936363845
 30
0.0
  0
ENDBLK
  5
8590
330
858E
100
AcDbEntity
  8
0
100
AcDbBlockEnd
  0
BLOCK
  5
859C
330
859B
100
AcDbEntity
  8
0
100
AcDbBlockBegin
  2
*D44
 70
     1
 10
0.0
 20
0.0
 30
0.0
  3
*D44
  1

  0
LINE
  5
859E
330
859B
100
AcDbEntity
  8
3
 62
     0
370
    -2
100
AcDbLine
 10
3616.156955993246
 20
6405.027814553498
 30
0.0
 11
4085.17309722908
 21
6405.027814553498
 31
0.0
  0
LINE
  5
859F
330
859B
100
AcDbEntity
  8
3
 62
     0
370
    -2
100
AcDbLine
 10
3616.156955993246
 20
8525.027814553494
 30
0.0
 11
4085.17309722908
 21
8525.027814553494
 31
0.0
  0
LINE
  5
85A0
330
859B
100
AcDbEntity
  8
3
 62
     0
370
    -2
100
AcDbLine
 10
4045.17309722908
 20
6485.027814553498
 30
0.0
 11
4045.17309722908
 21
8445.027814553494
 31
0.0
  0
INSERT
  5
85A1
330
859B
100
AcDbEntity
  8
3
 62
     0
370
    -2
100
AcDbBlockReference
  2
_OPEN
 10
4045.17309722908
 20
6405.027814553498
 30
0.0
 41
80.0
 42
80.0
 43
80.0
 50
270.0
  0
INSERT
  5
85A2
330
859B
100
AcDbEntity
  8
3
 62
     0
370
    -2
100
AcDbBlockReference
  2
_OPEN
 10
4045.17309722908
 20
8525.027814553494
 30
0.0
 41
80.0
 42
80.0
 43
80.0
 50
90.0
  0
MTEXT
  5
85A3
330
859B
100
AcDbEntity
  8
3
 62
     0
100
AcDbMText
 10
3945.173097229079
 20
7465.027814553497
 30
0.0
 40
120.0
 41
0.0
 71
     5
 72
     1
  1
\A1;2120
 11
0.0000000000000001
 21
1.0
 31
0.0
 73
     1
 44
1.0
1001
ACAD
1000
MTEXTBEGIN
1070
    73
1070
     1
1070
    44
1040
1.0
1070
    74
1070
     0
1000
MTEXTEND
  0
POINT
  5
85A4
330
859B
100
AcDbEntity
  8
DEFPOINTS
 62
     0
100
AcDbPoint
 10
3596.156955993246
 20
6405.027814553498
 30
0.0
  0
POINT
  5
85A5
330
859B
100
AcDbEntity
  8
DEFPOINTS
 62
     0
100
AcDbPoint
 10
3596.156955993246
 20
8525.027814553494
 30
0.0
  0
POINT
  5
85A6
330
859B
100
AcDbEntity
  8
DEFPOINTS
 62
     0
100
AcDbPoint
 10
4045.17309722908
 20
8525.027814553494
 30
0.0
  0
ENDBLK
  5
859D
330
859B
100
AcDbEntity
  8
0
100
AcDbBlockEnd
  0
BLOCK
  5
85A9
330
85A8
100
AcDbEntity
  8
0
100
AcDbBlockBegin
  2
*D45
 70
     1
 10
0.0
 20
0.0
 30
0.0
  3
*D45
  1

  0
LINE
  5
85AB
330
85A8
100
AcDbEntity
  8
3
 62
     0
370
    -2
100
AcDbLine
 10
3596.156955993246
 20
8545.027814553499
 30
0.0
 11
3596.156955993246
 21
8769.663953058682
 31
0.0
  0
LINE
  5
85AC
330
85A8
100
AcDbEntity
  8
3
 62
     0
370
    -2
100
AcDbLine
 10
2096.156955993245
 20
8545.027814553499
 30
0.0
 11
2096.156955993245
 21
8769.663953058682
 31
0.0
  0
LINE
  5
85AD
330
85A8
100
AcDbEntity
  8
3
 62
     0
370
    -2
100
AcDbLine
 10
3516.156955993245
 20
8729.663953058681
 30
0.0
 11
2176.156955993245
 21
8729.663953058681
 31
0.0
  0
INSERT
  5
85AE
330
85A8
100
AcDbEntity
  8
3
 62
     0
370
    -2
100
AcDbBlockReference
  2
_OPEN
 10
3596.156955993246
 20
8729.663953058681
 30
0.0
 41
80.0
 42
80.0
 43
80.0
  0
INSERT
  5
85AF
330
85A8
100
AcDbEntity
  8
3
 62
     0
370
    -2
100
AcDbBlockReference
  2
_OPEN
 10
2096.156955993245
 20
8729.663953058681
 30
0.0
 41
80.0
 42
80.0
 43
80.0
 50
180.0
  0
MTEXT
  5
85B0
330
85A8
100
AcDbEntity
  8
3
 62
     0
100
AcDbMText
 10
2846.156955993245
 20
8829.663953058682
 30
0.0
 40
120.0
 41
0.0
 71
     5
 72
     1
  1
\A1;1500
 73
     1
 44
1.0
1001
ACAD
1000
MTEXTBEGIN
1070
    73
1070
     1
1070
    44
1040
1.0
1070
    74
1070
     0
1000
MTEXTEND
  0
POINT
  5
85B1
330
85A8
100
AcDbEntity
  8
DEFPOINTS
 62
     0
100
AcDbPoint
 10
3596.156955993246
 20
8525.027814553499
 30
0.0
  0
POINT
  5
85B2
330
85A8
100
AcDbEntity
  8
DEFPOINTS
 62
     0
100
AcDbPoint
 10
2096.156955993245
 20
8525.027814553499
 30
0.0
  0
POINT
  5
85B3
330
85A8
100
AcDbEntity
  8
DEFPOINTS
 62
     0
100
AcDbPoint
 10
2096.156955993245
 20
8729.663953058681
 30
0.0
  0
ENDBLK
  5
85AA
330
85A8
100
AcDbEntity
  8
0
100
AcDbBlockEnd
  0
BLOCK
  5
85B6
330
85B5
100
AcDbEntity
  8
0
100
AcDbBlockBegin
  2
*D46
 70
     1
 10
0.0
 20
0.0
 30
0.0
  3
*D46
  1

  0
LINE
  5
85B8
330
85B5
100
AcDbEntity
  8
3
 62
     0
370
    -2
100
AcDbLine
 10
2096.156955993245
 20
8545.027814553499
 30
0.0
 11
2096.156955993245
 21
8769.663953058682
 31
0.0
  0
LINE
  5
85B9
330
85B5
100
AcDbEntity
  8
3
 62
     0
370
    -2
100
AcDbLine
 10
1146.156955993244
 20
7425.027814553499
 30
0.0
 11
1146.156955993244
 21
8769.663953058682
 31
0.0
  0
LINE
  5
85BA
330
85B5
100
AcDbEntity
  8
3
 62
     0
370
    -2
100
AcDbLine
 10
2016.156955993245
 20
8729.663953058681
 30
0.0
 11
1226.156955993244
 21
8729.663953058681
 31
0.0
  0
INSERT
  5
85BB
330
85B5
100
AcDbEntity
  8
3
 62
     0
370
    -2
100
AcDbBlockReference
  2
_OPEN
 10
2096.156955993245
 20
8729.663953058681
 30
0.0
 41
80.0
 42
80.0
 43
80.0
  0
INSERT
  5
85BC
330
85B5
100
AcDbEntity
  8
3
 62
     0
370
    -2
100
AcDbBlockReference
  2
_OPEN
 10
1146.156955993244
 20
8729.663953058681
 30
0.0
 41
80.0
 42
80.0
 43
80.0
 50
180.0
  0
MTEXT
  5
85BD
330
85B5
100
AcDbEntity
  8
3
 62
     0
100
AcDbMText
 10
1621.156955993244
 20
8829.663953058682
 30
0.0
 40
120.0
 41
0.0
 71
     5
 72
     1
  1
\A1;950
 73
     1
 44
1.0
1001
ACAD
1000
MTEXTBEGIN
1070
    73
1070
     1
1070
    44
1040
1.0
1070
    74
1070
     0
1000
MTEXTEND
  0
POINT
  5
85BE
330
85B5
100
AcDbEntity
  8
DEFPOINTS
 62
     0
100
AcDbPoint
 10
2096.156955993245
 20
8525.027814553499
 30
0.0
  0
POINT
  5
85BF
330
85B5
100
AcDbEntity
  8
DEFPOINTS
 62
     0
100
AcDbPoint
 10
1146.156955993244
 20
7405.027814553498
 30
0.0
  0
POINT
  5
85C0
330
85B5
100
AcDbEntity
  8
DEFPOINTS
 62
     0
100
AcDbPoint
 10
1146.156955993244
 20
8729.663953058681
 30
0.0
  0
ENDBLK
  5
85B7
330
85B5
100
AcDbEntity
  8
0
100
AcDbBlockEnd
  0
BLOCK
  5
85CC
330
85CB
100
AcDbEntity
  8
0
100
AcDbBlockBegin
  2
*D47
 70
     1
 10
0.0
 20
0.0
 30
0.0
  3
*D47
  1

  0
LINE
  5
85CE
330
85CB
100
AcDbEntity
  8
3
 62
     0
370
    -2
100
AcDbLine
 10
3671.156955993246
 20
5153.144075523784
 30
0.0
 11
3671.156955993246
 21
5422.667020841306
 31
0.0
  0
LINE
  5
85CF
330
85CB
100
AcDbEntity
  8
3
 62
     0
370
    -2
100
AcDbLine
 10
2846.156955993246
 20
5121.429794629098
 30
0.0
 11
2846.156955993246
 21
5422.667020841306
 31
0.0
  0
LINE
  5
85D0
330
85CB
100
AcDbEntity
  8
3
 62
     0
370
    -2
100
AcDbLine
 10
3591.156955993245
 20
5382.667020841306
 30
0.0
 11
2926.156955993246
 21
5382.667020841306
 31
0.0
  0
INSERT
  5
85D1
330
85CB
100
AcDbEntity
  8
3
 62
     0
370
    -2
100
AcDbBlockReference
  2
_OPEN
 10
3671.156955993246
 20
5382.667020841306
 30
0.0
 41
80.0
 42
80.0
 43
80.0
  0
INSERT
  5
85D2
330
85CB
100
AcDbEntity
  8
3
 62
     0
370
    -2
100
AcDbBlockReference
  2
_OPEN
 10
2846.156955993246
 20
5382.667020841306
 30
0.0
 41
80.0
 42
80.0
 43
80.0
 50
180.0
  0
MTEXT
  5
85D3
330
85CB
100
AcDbEntity
  8
3
 62
     0
100
AcDbMText
 10
3258.656955993246
 20
5482.667020841306
 30
0.0
 40
120.0
 41
0.0
 71
     5
 72
     1
  1
\A1;825
 73
     1
 44
1.0
1001
ACAD
1000
MTEXTBEGIN
1070
    73
1070
     1
1070
    44
1040
1.0
1070
    74
1070
     0
1000
MTEXTEND
  0
POINT
  5
85D4
330
85CB
100
AcDbEntity
  8
DEFPOINTS
 62
     0
100
AcDbPoint
 10
3671.156955993246
 20
5133.144075523785
 30
0.0
  0
POINT
  5
85D5
330
85CB
100
AcDbEntity
  8
DEFPOINTS
 62
     0
100
AcDbPoint
 10
2846.156955993246
 20
5101.429794629098
 30
0.0
  0
POINT
  5
85D6
330
85CB
100
AcDbEntity
  8
DEFPOINTS
 62
     0
100
AcDbPoint
 10
2846.156955993246
 20
5382.667020841306
 30
0.0
  0
ENDBLK
  5
85CD
330
85CB
100
AcDbEntity
  8
0
100
AcDbBlockEnd
  0
BLOCK
  5
85D9
330
85D8
100
AcDbEntity
  8
0
100
AcDbBlockBegin
  2
*D48
 70
     1
 10
0.0
 20
0.0
 30
0.0
  3
*D48
  1

  0
LINE
  5
85DB
330
85D8
100
AcDbEntity
  8
3
 62
     0
370
    -2
100
AcDbLine
 10
2846.156955993246
 20
5121.429794629098
 30
0.0
 11
2846.156955993246
 21
5422.667020841306
 31
0.0
  0
LINE
  5
85DC
330
85D8
100
AcDbEntity
  8
3
 62
     0
370
    -2
100
AcDbLine
 10
1767.156955993245
 20
3857.144075523783
 30
0.0
 11
1767.156955993245
 21
5422.667020841306
 31
0.0
  0
LINE
  5
85DD
330
85D8
100
AcDbEntity
  8
3
 62
     0
370
    -2
100
AcDbLine
 10
2766.156955993246
 20
5382.667020841306
 30
0.0
 11
1847.156955993245
 21
5382.667020841306
 31
0.0
  0
INSERT
  5
85DE
330
85D8
100
AcDbEntity
  8
3
 62
     0
370
    -2
100
AcDbBlockReference
  2
_OPEN
 10
2846.156955993246
 20
5382.667020841306
 30
0.0
 41
80.0
 42
80.0
 43
80.0
  0
INSERT
  5
85DF
330
85D8
100
AcDbEntity
  8
3
 62
     0
370
    -2
100
AcDbBlockReference
  2
_OPEN
 10
1767.156955993245
 20
5382.667020841306
 30
0.0
 41
80.0
 42
80.0
 43
80.0
 50
180.0
  0
MTEXT
  5
85E0
330
85D8
100
AcDbEntity
  8
3
 62
     0
100
AcDbMText
 10
2306.656955993245
 20
5482.667020841306
 30
0.0
 40
120.0
 41
0.0
 71
     5
 72
     1
  1
\A1;1079
 73
     1
 44
1.0
1001
ACAD
1000
MTEXTBEGIN
1070
    73
1070
     1
1070
    44
1040
1.0
1070
    74
1070
     0
1000
MTEXTEND
  0
POINT
  5
85E1
330
85D8
100
AcDbEntity
  8
DEFPOINTS
 62
     0
100
AcDbPoint
 10
2846.156955993246
 20
5101.429794629098
 30
0.0
  0
POINT
  5
85E2
330
85D8
100
AcDbEntity
  8
DEFPOINTS
 62
     0
100
AcDbPoint
 10
1767.156955993245
 20
3837.144075523784
 30
0.0
  0
POINT
  5
85E3
330
85D8
100
AcDbEntity
  8
DEFPOINTS
 62
     0
100
AcDbPoint
 10
1767.156955993245
 20
5382.667020841306
 30
0.0
  0
ENDBLK
  5
85DA
330
85D8
100
AcDbEntity
  8
0
100
AcDbBlockEnd
  0
BLOCK
  5
85E6
330
85E5
100
AcDbEntity
  8
0
100
AcDbBlockBegin
  2
*D49
 70
     1
 10
0.0
 20
0.0
 30
0.0
  3
*D49
  1

  0
LINE
  5
85E8
330
85E5
100
AcDbEntity
  8
3
 62
     0
370
    -2
100
AcDbLine
 10
3671.156955993246
 20
5153.144075523784
 30
0.0
 11
3671.156955993246
 21
5647.120238149416
 31
0.0
  0
LINE
  5
85E9
330
85E5
100
AcDbEntity
  8
3
 62
     0
370
    -2
100
AcDbLine
 10
1146.156955993244
 20
2966.144075523784
 30
0.0
 11
1146.156955993244
 21
5647.120238149416
 31
0.0
  0
LINE
  5
85EA
330
85E5
100
AcDbEntity
  8
3
 62
     0
370
    -2
100
AcDbLine
 10
3591.156955993245
 20
5607.120238149416
 30
0.0
 11
1226.156955993244
 21
5607.120238149416
 31
0.0
  0
INSERT
  5
85EB
330
85E5
100
AcDbEntity
  8
3
 62
     0
370
    -2
100
AcDbBlockReference
  2
_OPEN
 10
3671.156955993246
 20
5607.120238149416
 30
0.0
 41
80.0
 42
80.0
 43
80.0
  0
INSERT
  5
85EC
330
85E5
100
AcDbEntity
  8
3
 62
     0
370
    -2
100
AcDbBlockReference
  2
_OPEN
 10
1146.156955993244
 20
5607.120238149416
 30
0.0
 41
80.0
 42
80.0
 43
80.0
 50
180.0
  0
MTEXT
  5
85ED
330
85E5
100
AcDbEntity
  8
3
 62
     0
100
AcDbMText
 10
2408.656955993245
 20
5707.120238149417
 30
0.0
 40
120.0
 41
0.0
 71
     5
 72
     1
  1
\A1;2525
 73
     1
 44
1.0
1001
ACAD
1000
MTEXTBEGIN
1070
    73
1070
     1
1070
    44
1040
1.0
1070
    74
1070
     0
1000
MTEXTEND
  0
POINT
  5
85EE
330
85E5
100
AcDbEntity
  8
DEFPOINTS
 62
     0
100
AcDbPoint
 10
3671.156955993246
 20
5133.144075523785
 30
0.0
  0
POINT
  5
85EF
330
85E5
100
AcDbEntity
  8
DEFPOINTS
 62
     0
100
AcDbPoint
 10
1146.156955993244
 20
2946.144075523783
 30
0.0
  0
POINT
  5
85F0
330
85E5
100
AcDbEntity
  8
DEFPOINTS
 62
     0
100
AcDbPoint
 10
1146.156955993244
 20
5607.120238149416
 30
0.0
  0
ENDBLK
  5
85E7
330
85E5
100
AcDbEntity
  8
0
100
AcDbBlockEnd
  0
BLOCK
  5
85F3
330
85F2
100
AcDbEntity
  8
0
100
AcDbBlockBegin
  2
*D50
 70
     1
 10
0.0
 20
0.0
 30
0.0
  3
*D50
  1

  0
LINE
  5
85F5
330
85F2
100
AcDbEntity
  8
3
 62
     0
370
    -2
100
AcDbLine
 10
3691.156955993245
 20
5080.144075523783
 30
0.0
 11
3964.167988683202
 21
5080.144075523783
 31
0.0
  0
LINE
  5
85F6
330
85F2
100
AcDbEntity
  8
3
 62
     0
370
    -2
100
AcDbLine
 10
3691.156955993245
 20
3800.144075523784
 30
0.0
 11
3964.167988683202
 21
3800.144075523784
 31
0.0
  0
LINE
  5
85F7
330
85F2
100
AcDbEntity
  8
3
 62
     0
370
    -2
100
AcDbLine
 10
3924.167988683201
 20
5000.144075523783
 30
0.0
 11
3924.167988683201
 21
3880.144075523784
 31
0.0
  0
INSERT
  5
85F8
330
85F2
100
AcDbEntity
  8
3
 62
     0
370
    -2
100
AcDbBlockReference
  2
_OPEN
 10
3924.167988683201
 20
5080.144075523783
 30
0.0
 41
80.0
 42
80.0
 43
80.0
 50
90.0
  0
INSERT
  5
85F9
330
85F2
100
AcDbEntity
  8
3
 62
     0
370
    -2
100
AcDbBlockReference
  2
_OPEN
 10
3924.167988683201
 20
3800.144075523784
 30
0.0
 41
80.0
 42
80.0
 43
80.0
 50
270.0
  0
MTEXT
  5
85FA
330
85F2
100
AcDbEntity
  8
3
 62
     0
100
AcDbMText
 10
3824.167988683201
 20
4440.144075523784
 30
0.0
 40
120.0
 41
0.0
 71
     5
 72
     1
  1
\A1;1280
 11
0.0000000000000001
 21
1.0
 31
0.0
 73
     1
 44
1.0
1001
ACAD
1000
MTEXTBEGIN
1070
    73
1070
     1
1070
    44
1040
1.0
1070
    74
1070
     0
1000
MTEXTEND
  0
POINT
  5
85FB
330
85F2
100
AcDbEntity
  8
DEFPOINTS
 62
     0
100
AcDbPoint
 10
3671.156955993246
 20
5080.144075523783
 30
0.0
  0
POINT
  5
85FC
330
85F2
100
AcDbEntity
  8
DEFPOINTS
 62
     0
100
AcDbPoint
 10
3671.156955993246
 20
3800.144075523784
 30
0.0
  0
POINT
  5
85FD
330
85F2
100
AcDbEntity
  8
DEFPOINTS
 62
     0
100
AcDbPoint
 10
3924.167988683201
 20
3800.144075523784
 30
0.0
  0
ENDBLK
  5
85F4
330
85F2
100
AcDbEntity
  8
0
100
AcDbBlockEnd
  0
BLOCK
  5
8600
330
85FF
100
AcDbEntity
  8
0
100
AcDbBlockBegin
  2
*D51
 70
     1
 10
0.0
 20
0.0
 30
0.0
  3
*D51
  1

  0
LINE
  5
8602
330
85FF
100
AcDbEntity
  8
3
 62
     0
370
    -2
100
AcDbLine
 10
3691.156955993245
 20
5080.144075523783
 30
0.0
 11
4210.57822273558
 21
5080.144075523783
 31
0.0
  0
LINE
  5
8603
330
85FF
100
AcDbEntity
  8
3
 62
     0
370
    -2
100
AcDbLine
 10
3769.593494242098
 20
3746.144075523783
 30
0.0
 11
4210.57822273558
 21
3746.144075523783
 31
0.0
  0
LINE
  5
8604
330
85FF
100
AcDbEntity
  8
3
 62
     0
370
    -2
100
AcDbLine
 10
4170.57822273558
 20
5000.144075523783
 30
0.0
 11
4170.57822273558
 21
3826.144075523784
 31
0.0
  0
INSERT
  5
8605
330
85FF
100
AcDbEntity
  8
3
 62
     0
370
    -2
100
AcDbBlockReference
  2
_OPEN
 10
4170.57822273558
 20
5080.144075523783
 30
0.0
 41
80.0
 42
80.0
 43
80.0
 50
90.0
  0
INSERT
  5
8606
330
85FF
100
AcDbEntity
  8
3
 62
     0
370
    -2
100
AcDbBlockReference
  2
_OPEN
 10
4170.57822273558
 20
3746.144075523783
 30
0.0
 41
80.0
 42
80.0
 43
80.0
 50
270.0
  0
MTEXT
  5
8607
330
85FF
100
AcDbEntity
  8
3
 62
     0
100
AcDbMText
 10
4070.578222735579
 20
4413.144075523784
 30
0.0
 40
120.0
 41
0.0
 71
     5
 72
     1
  1
\A1;1334
 11
0.0000000000000001
 21
1.0
 31
0.0
 73
     1
 44
1.0
1001
ACAD
1000
MTEXTBEGIN
1070
    73
1070
     1
1070
    44
1040
1.0
1070
    74
1070
     0
1000
MTEXTEND
  0
POINT
  5
8608
330
85FF
100
AcDbEntity
  8
DEFPOINTS
 62
     0
100
AcDbPoint
 10
3671.156955993246
 20
5080.144075523783
 30
0.0
  0
POINT
  5
8609
330
85FF
100
AcDbEntity
  8
DEFPOINTS
 62
     0
100
AcDbPoint
 10
3749.593494242097
 20
3746.144075523783
 30
0.0
  0
POINT
  5
860A
330
85FF
100
AcDbEntity
  8
DEFPOINTS
 62
     0
100
AcDbPoint
 10
4170.57822273558
 20
3746.144075523783
 30
0.0
  0
ENDBLK
  5
8601
330
85FF
100
AcDbEntity
  8
0
100
AcDbBlockEnd
  0
BLOCK
  5
860D
330
860C
100
AcDbEntity
  8
0
100
AcDbBlockBegin
  2
*D52
 70
     1
 10
0.0
 20
0.0
 30
0.0
  3
*D52
  1

  0
LINE
  5
860F
330
860C
100
AcDbEntity
  8
3
 62
     0
370
    -2
100
AcDbLine
 10
3769.593494242098
 20
3746.144075523783
 30
0.0
 11
4210.57822273558
 21
3746.144075523783
 31
0.0
  0
LINE
  5
8610
330
860C
100
AcDbEntity
  8
3
 62
     0
370
    -2
100
AcDbLine
 10
3616.156955993246
 20
2821.144075523783
 30
0.0
 11
4210.57822273558
 21
2821.144075523783
 31
0.0
  0
LINE
  5
8611
330
860C
100
AcDbEntity
  8
3
 62
     0
370
    -2
100
AcDbLine
 10
4170.57822273558
 20
3666.144075523784
 30
0.0
 11
4170.57822273558
 21
2901.144075523783
 31
0.0
  0
INSERT
  5
8612
330
860C
100
AcDbEntity
  8
3
 62
     0
370
    -2
100
AcDbBlockReference
  2
_OPEN
 10
4170.57822273558
 20
3746.144075523783
 30
0.0
 41
80.0
 42
80.0
 43
80.0
 50
90.0
  0
INSERT
  5
8613
330
860C
100
AcDbEntity
  8
3
 62
     0
370
    -2
100
AcDbBlockReference
  2
_OPEN
 10
4170.57822273558
 20
2821.144075523783
 30
0.0
 41
80.0
 42
80.0
 43
80.0
 50
270.0
  0
MTEXT
  5
8614
330
860C
100
AcDbEntity
  8
3
 62
     0
100
AcDbMText
 10
4070.578222735578
 20
3283.644075523784
 30
0.0
 40
120.0
 41
0.0
 71
     5
 72
     1
  1
\A1;925
 11
0.0000000000000001
 21
1.0
 31
0.0
 73
     1
 44
1.0
1001
ACAD
1000
MTEXTBEGIN
1070
    73
1070
     1
1070
    44
1040
1.0
1070
    74
1070
     0
1000
MTEXTEND
  0
POINT
  5
8615
330
860C
100
AcDbEntity
  8
DEFPOINTS
 62
     0
100
AcDbPoint
 10
3749.593494242097
 20
3746.144075523783
 30
0.0
  0
POINT
  5
8616
330
860C
100
AcDbEntity
  8
DEFPOINTS
 62
     0
100
AcDbPoint
 10
3596.156955993246
 20
2821.144075523783
 30
0.0
  0
POINT
  5
8617
330
860C
100
AcDbEntity
  8
DEFPOINTS
 62
     0
100
AcDbPoint
 10
4170.57822273558
 20
2821.144075523783
 30
0.0
  0
ENDBLK
  5
860E
330
860C
100
AcDbEntity
  8
0
100
AcDbBlockEnd
  0
BLOCK
  5
861A
330
8619
100
AcDbEntity
  8
0
100
AcDbBlockBegin
  2
*D53
 70
     1
 10
0.0
 20
0.0
 30
0.0
  3
*D53
  1

  0
LINE
  5
86D5
330
8619
100
AcDbEntity
  8
3
 62
     0
370
    -2
100
AcDbLine
 10
3616.156955993246
 20
2821.144075523783
 30
0.0
 11
4210.57822273558
 21
2821.144075523783
 31
0.0
  0
LINE
  5
86D6
330
8619
100
AcDbEntity
  8
3
 62
     0
370
    -2
100
AcDbLine
 10
3616.156955993246
 20
2716.144075523784
 30
0.0
 11
4210.57822273558
 21
2716.144075523784
 31
0.0
  0
LINE
  5
86D7
330
8619
100
AcDbEntity
  8
3
 62
     0
370
    -2
100
AcDbLine
 10
4170.57822273558
 20
2901.144075523783
 30
0.0
 11
4170.57822273558
 21
2981.144075523783
 31
0.0
  0
LINE
  5
86D8
330
8619
100
AcDbEntity
  8
3
 62
     0
370
    -2
100
AcDbLine
 10
4170.57822273558
 20
2716.144075523784
 30
0.0
 11
4170.57822273558
 21
2636.144075523783
 31
0.0
  0
LINE
  5
86D9
330
8619
100
AcDbEntity
  8
3
 62
     0
370
    -2
100
AcDbLine
 10
4170.57822273558
 20
2768.644075523783
 30
0.0
 11
4544.863937021294
 21
2880.929789809498
 31
0.0
  0
LINE
  5
86DA
330
8619
100
AcDbEntity
  8
3
 62
     0
370
    -2
100
AcDbLine
 10
4544.863937021294
 20
2880.929789809498
 30
0.0
 11
4544.863937021294
 21
3400.929789809497
 31
0.0
  0
MTEXT
  5
86DB
330
8619
100
AcDbEntity
  8
3
 62
     0
100
AcDbMText
 10
4413.435365592721
 20
3140.929789809498
 30
0.0
 40
120.0
 41
0.0
 71
     5
 72
     1
  1
\A1;(105)
 11
0.0000000000000001
 21
1.0
 31
0.0
 73
     1
 44
1.0
1001
ACAD
1000
MTEXTBEGIN
1070
    73
1070
     1
1070
    44
1040
1.0
1070
    74
1070
     0
1000
MTEXTEND
  0
LINE
  5
86DC
330
8619
100
AcDbEntity
  8
3
 62
     0
370
    -2
100
AcDbLine
 10
4170.57822273558
 20
2821.144075523783
 30
0.0
 11
4170.57822273558
 21
2716.144075523784
 31
0.0
  0
LINE
  5
86DD
330
8619
100
AcDbEntity
  8
3
 62
     0
370
    -2
100
AcDbLine
 10
4170.57822273558
 20
2821.144075523783
 30
0.0
 11
4170.57822273558
 21
2716.144075523784
 31
0.0
  0
INSERT
  5
86DE
330
8619
100
AcDbEntity
  8
3
 62
     0
370
    -2
100
AcDbBlockReference
  2
_OPEN
 10
4170.57822273558
 20
2821.144075523783
 30
0.0
 41
80.0
 42
80.0
 43
80.0
 50
270.0
  0
INSERT
  5
86DF
330
8619
100
AcDbEntity
  8
3
 62
     0
370
    -2
100
AcDbBlockReference
  2
_DotSmall
 10
4170.57822273558
 20
2716.144075523784
 30
0.0
 41
80.0
 42
80.0
 43
80.0
 50
90.0
  0
POINT
  5
86E0
330
8619
100
AcDbEntity
  8
DEFPOINTS
 62
     0
100
AcDbPoint
 10
3596.156955993246
 20
2821.144075523783
 30
0.0
  0
POINT
  5
86E1
330
8619
100
AcDbEntity
  8
DEFPOINTS
 62
     0
100
AcDbPoint
 10
3596.156955993246
 20
2716.144075523784
 30
0.0
  0
POINT
  5
86E2
330
8619
100
AcDbEntity
  8
DEFPOINTS
 62
     0
100
AcDbPoint
 10
4170.57822273558
 20
2716.144075523784
 30
0.0
  0
ENDBLK
  5
861B
330
8619
100
AcDbEntity
  8
0
100
AcDbBlockEnd
  0
BLOCK
  5
862C
330
862B
100
AcDbEntity
  8
0
100
AcDbBlockBegin
  2
*D54
 70
     1
 10
0.0
 20
0.0
 30
0.0
  3
*D54
  1

  0
LINE
  5
8731
330
862B
100
AcDbEntity
  8
3
 62
     0
370
    -2
100
AcDbLine
 10
3616.156955993246
 20
2716.144075523784
 30
0.0
 11
4210.57822273558
 21
2716.144075523784
 31
0.0
  0
LINE
  5
8732
330
862B
100
AcDbEntity
  8
3
 62
     0
370
    -2
100
AcDbLine
 10
3616.156955993246
 20
2651.144075523783
 30
0.0
 11
4210.57822273558
 21
2651.144075523783
 31
0.0
  0
LINE
  5
8733
330
862B
100
AcDbEntity
  8
3
 62
     0
370
    -2
100
AcDbLine
 10
4170.57822273558
 20
2716.144075523784
 30
0.0
 11
4170.57822273558
 21
2796.144075523783
 31
0.0
  0
LINE
  5
8734
330
862B
100
AcDbEntity
  8
3
 62
     0
370
    -2
100
AcDbLine
 10
4170.57822273558
 20
2571.144075523783
 30
0.0
 11
4170.57822273558
 21
2491.144075523783
 31
0.0
  0
MTEXT
  5
8735
330
862B
100
AcDbEntity
  8
3
 62
     0
100
AcDbMText
 10
4041.698880798503
 20
2474.566250603781
 30
0.0
 40
120.0
 41
0.0
 71
     5
 72
     1
  1
\A1;65
 11
0.0000000000000001
 21
1.0
 31
0.0
 73
     1
 44
1.0
1001
ACAD
1000
MTEXTBEGIN
1070
    73
1070
     1
1070
    44
1040
1.0
1070
    74
1070
     0
1000
MTEXTEND
  0
LINE
  5
8736
330
862B
100
AcDbEntity
  8
3
 62
     0
370
    -2
100
AcDbLine
 10
4170.57822273558
 20
2716.144075523784
 30
0.0
 11
4170.57822273558
 21
2651.144075523783
 31
0.0
  0
INSERT
  5
8737
330
862B
100
AcDbEntity
  8
3
 62
     0
370
    -2
100
AcDbBlockReference
  2
_DotSmall
 10
4170.57822273558
 20
2716.144075523784
 30
0.0
 41
80.0
 42
80.0
 43
80.0
 50
270.0
  0
INSERT
  5
8738
330
862B
100
AcDbEntity
  8
3
 62
     0
370
    -2
100
AcDbBlockReference
  2
_OPEN
 10
4170.57822273558
 20
2651.144075523783
 30
0.0
 41
80.0
 42
80.0
 43
80.0
 50
90.0
  0
POINT
  5
8739
330
862B
100
AcDbEntity
  8
DEFPOINTS
 62
     0
100
AcDbPoint
 10
3596.156955993246
 20
2716.144075523784
 30
0.0
  0
POINT
  5
873A
330
862B
100
AcDbEntity
  8
DEFPOINTS
 62
     0
100
AcDbPoint
 10
3596.156955993246
 20
2651.144075523783
 30
0.0
  0
POINT
  5
873B
330
862B
100
AcDbEntity
  8
DEFPOINTS
 62
     0
100
AcDbPoint
 10
4170.57822273558
 20
2651.144075523783
 30
0.0
  0
ENDBLK
  5
862D
330
862B
100
AcDbEntity
  8
0
100
AcDbBlockEnd
  0
BLOCK
  5
863E
330
863D
100
AcDbEntity
  8
0
100
AcDbBlockBegin
  2
*D55
 70
     1
 10
0.0
 20
0.0
 30
0.0
  3
*D55
  1

  0
LINE
  5
87A0
330
863D
100
AcDbEntity
  8
3
 62
     0
370
    -2
100
AcDbLine
 10
3616.156955993246
 20
2651.144075523783
 30
0.0
 11
4696.199049861141
 21
2651.144075523783
 31
0.0
  0
LINE
  5
87A1
330
863D
100
AcDbEntity
  8
3
 62
     0
370
    -2
100
AcDbLine
 10
3691.156955993245
 20
5080.144075523783
 30
0.0
 11
4696.199049861141
 21
5080.144075523783
 31
0.0
  0
LINE
  5
87A2
330
863D
100
AcDbEntity
  8
3
 62
     0
370
    -2
100
AcDbLine
 10
4656.199049861141
 20
2731.144075523783
 30
0.0
 11
4656.199049861141
 21
5000.144075523783
 31
0.0
  0
INSERT
  5
87A3
330
863D
100
AcDbEntity
  8
3
 62
     0
370
    -2
100
AcDbBlockReference
  2
_OPEN
 10
4656.199049861141
 20
2651.144075523783
 30
0.0
 41
80.0
 42
80.0
 43
80.0
 50
270.0
  0
INSERT
  5
87A4
330
863D
100
AcDbEntity
  8
3
 62
     0
370
    -2
100
AcDbBlockReference
  2
_OPEN
 10
4656.199049861141
 20
5080.144075523783
 30
0.0
 41
80.0
 42
80.0
 43
80.0
 50
90.0
  0
MTEXT
  5
87A5
330
863D
100
AcDbEntity
  8
3
 62
     0
100
AcDbMText
 10
4524.770478432569
 20
3865.644075523783
 30
0.0
 40
120.0
 41
0.0
 71
     5
 72
     1
  1
\A1;(2429)
 11
0.0000000000000001
 21
1.0
 31
0.0
 73
     1
 44
1.0
1001
ACAD
1000
MTEXTBEGIN
1070
    73
1070
     1
1070
    44
1040
1.0
1070
    74
1070
     0
1000
MTEXTEND
  0
POINT
  5
87A6
330
863D
100
AcDbEntity
  8
DEFPOINTS
 62
     0
100
AcDbPoint
 10
3596.156955993246
 20
2651.144075523783
 30
0.0
  0
POINT
  5
87A7
330
863D
100
AcDbEntity
  8
DEFPOINTS
 62
     0
100
AcDbPoint
 10
3671.156955993246
 20
5080.144075523783
 30
0.0
  0
POINT
  5
87A8
330
863D
100
AcDbEntity
  8
DEFPOINTS
 62
     0
100
AcDbPoint
 10
4656.199049861141
 20
5080.144075523783
 30
0.0
  0
ENDBLK
  5
863F
330
863D
100
AcDbEntity
  8
0
100
AcDbBlockEnd
  0
BLOCK
  5
86D3
330
86D1
100
AcDbEntity
  8
0
100
AcDbBlockBegin
  2
_DotSmall
 70
     0
 10
0.0
 20
0.0
 30
0.0
  3
_DotSmall
  1

  0
LWPOLYLINE
  5
86D2
330
86D1
100
AcDbEntity
  8
0
  6
ByBlock
 62
     0
100
AcDbPolyline
 90
        2
 70
     1
 43
0.5
 10
-0.0625
 20
0.0
 42
1.0
 10
0.0625
 20
0.0
 42
1.0
  0
ENDBLK
  5
86D4
330
86D1
100
AcDbEntity
  8
0
100
AcDbBlockEnd
  0
BLOCK
  5
873E
330
873D
100
AcDbEntity
  8
0
100
AcDbBlockBegin
  2
*D57
 70
     1
 10
0.0
 20
0.0
 30
0.0
  3
*D57
  1

  0
LINE
  5
8740
330
873D
100
AcDbEntity
  8
3
 62
     0
370
    -2
100
AcDbLine
 10
1146.156955993244
 20
2631.144075523784
 30
0.0
 11
1146.156955993244
 21
2390.672520342017
 31
0.0
  0
LINE
  5
8741
330
873D
100
AcDbEntity
  8
3
 62
     0
370
    -2
100
AcDbLine
 10
2846.156955993246
 20
2631.144075523784
 30
0.0
 11
2846.156955993246
 21
2390.672520342017
 31
0.0
  0
LINE
  5
8742
330
873D
100
AcDbEntity
  8
3
 62
     0
370
    -2
100
AcDbLine
 10
1226.156955993244
 20
2430.672520342018
 30
0.0
 11
2766.156955993246
 21
2430.672520342018
 31
0.0
  0
INSERT
  5
8743
330
873D
100
AcDbEntity
  8
3
 62
     0
370
    -2
100
AcDbBlockReference
  2
_OPEN
 10
1146.156955993244
 20
2430.672520342018
 30
0.0
 41
80.0
 42
80.0
 43
80.0
 50
180.0
  0
INSERT
  5
8744
330
873D
100
AcDbEntity
  8
3
 62
     0
370
    -2
100
AcDbBlockReference
  2
_OPEN
 10
2846.156955993246
 20
2430.672520342018
 30
0.0
 41
80.0
 42
80.0
 43
80.0
  0
MTEXT
  5
8745
330
873D
100
AcDbEntity
  8
3
 62
     0
100
AcDbMText
 10
1996.156955993245
 20
2530.672520342017
 30
0.0
 40
120.0
 41
0.0
 71
     5
 72
     1
  1
\A1;1700
 73
     1
 44
1.0
1001
ACAD
1000
MTEXTBEGIN
1070
    73
1070
     1
1070
    44
1040
1.0
1070
    74
1070
     0
1000
MTEXTEND
  0
POINT
  5
8746
330
873D
100
AcDbEntity
  8
DEFPOINTS
 62
     0
100
AcDbPoint
 10
1146.156955993244
 20
2651.144075523783
 30
0.0
  0
POINT
  5
8747
330
873D
100
AcDbEntity
  8
DEFPOINTS
 62
     0
100
AcDbPoint
 10
2846.156955993246
 20
2651.144075523783
 30
0.0
  0
POINT
  5
8748
330
873D
100
AcDbEntity
  8
DEFPOINTS
 62
     0
100
AcDbPoint
 10
2846.156955993246
 20
2430.672520342018
 30
0.0
  0
ENDBLK
  5
873F
330
873D
100
AcDbEntity
  8
0
100
AcDbBlockEnd
  0
BLOCK
  5
874B
330
874A
100
AcDbEntity
  8
0
100
AcDbBlockBegin
  2
*D58
 70
     1
 10
0.0
 20
0.0
 30
0.0
  3
*D58
  1

  0
LINE
  5
874D
330
874A
100
AcDbEntity
  8
3
 62
     0
370
    -2
100
AcDbLine
 10
2846.156955993246
 20
2631.144075523784
 30
0.0
 11
2846.156955993246
 21
2390.672520342017
 31
0.0
  0
LINE
  5
874E
330
874A
100
AcDbEntity
  8
3
 62
     0
370
    -2
100
AcDbLine
 10
3596.156955993246
 20
2631.144075523784
 30
0.0
 11
3596.156955993246
 21
2390.672520342017
 31
0.0
  0
LINE
  5
874F
330
874A
100
AcDbEntity
  8
3
 62
     0
370
    -2
100
AcDbLine
 10
2926.156955993246
 20
2430.672520342018
 30
0.0
 11
3516.156955993245
 21
2430.672520342018
 31
0.0
  0
INSERT
  5
8750
330
874A
100
AcDbEntity
  8
3
 62
     0
370
    -2
100
AcDbBlockReference
  2
_OPEN
 10
2846.156955993246
 20
2430.672520342018
 30
0.0
 41
80.0
 42
80.0
 43
80.0
 50
180.0
  0
INSERT
  5
8751
330
874A
100
AcDbEntity
  8
3
 62
     0
370
    -2
100
AcDbBlockReference
  2
_OPEN
 10
3596.156955993246
 20
2430.672520342018
 30
0.0
 41
80.0
 42
80.0
 43
80.0
  0
MTEXT
  5
8752
330
874A
100
AcDbEntity
  8
3
 62
     0
100
AcDbMText
 10
3221.156955993246
 20
2530.672520342017
 30
0.0
 40
120.0
 41
0.0
 71
     5
 72
     1
  1
\A1;750
 73
     1
 44
1.0
1001
ACAD
1000
MTEXTBEGIN
1070
    73
1070
     1
1070
    44
1040
1.0
1070
    74
1070
     0
1000
MTEXTEND
  0
POINT
  5
8753
330
874A
100
AcDbEntity
  8
DEFPOINTS
 62
     0
100
AcDbPoint
 10
2846.156955993246
 20
2651.144075523783
 30
0.0
  0
POINT
  5
8754
330
874A
100
AcDbEntity
  8
DEFPOINTS
 62
     0
100
AcDbPoint
 10
3596.156955993246
 20
2651.144075523783
 30
0.0
  0
POINT
  5
8755
330
874A
100
AcDbEntity
  8
DEFPOINTS
 62
     0
100
AcDbPoint
 10
3596.156955993246
 20
2430.672520342018
 30
0.0
  0
ENDBLK
  5
874C
330
874A
100
AcDbEntity
  8
0
100
AcDbBlockEnd
  0
ENDSEC
  0
SECTION
  2
ENTITIES
  0
INSERT
  5
7C23
330
83DC
100
AcDbEntity
  8
0
100
AcDbBlockReference
  2
YA_N
 10
6.0
 20
5.0
 30
0.0
  0
LINE
  5
7C24
330
83DC
100
AcDbEntity
  8
2
100
AcDbLine
 10
2846.156955993246
 20
5101.429794629098
 30
0.0
 11
2846.156955993246
 21
2651.144075523783
 31
0.0
  0
ARC
  5
7C25
330
83DC
100
AcDbEntity
  8
1
100
AcDbCircle
 10
2937.156955993245
 20
3837.144075523784
 30
0.0
 40
1170.0
100
AcDbArc
 50
94.46084369787396
 51
184.4608436978738
  0
ARC
  5
7C26
330
83DC
100
AcDbEntity
  8
1
100
AcDbCircle
 10
2755.156955993244
 20
3837.144075523784
 30
0.0
 40
988.0
100
AcDbArc
 50
185.2847329545344
 51
244.3985859526253
  0
ARC
  5
7C27
330
83DC
100
AcDbEntity
  8
1
100
AcDbCircle
 10
2769.156955993246
 20
3669.144075523784
 30
0.0
 40
820.0
100
AcDbArc
 50
298.150993129518
 51
2.7575147557921
  0
LINE
  5
7C28
330
83DC
100
AcDbEntity
  8
1
100
AcDbLine
 10
2846.156955993246
 20
5003.599818361891
 30
0.0
 11
3671.156955993246
 21
5080.144075523783
 31
0.0
  0
LINE
  5
7C29
330
83DC
100
AcDbEntity
  8
1
100
AcDbLine
 10
3596.156955993246
 20
2821.144075523783
 30
0.0
 11
1146.156955993244
 21
2821.144075523783
 31
0.0
1001
ACAD
1000
ASC_BOUNDS
1002
{
1070
    19
1002
}
  0
LINE
  5
7C2A
330
83DC
100
AcDbEntity
  8
1
100
AcDbLine
 10
3596.156955993246
 20
2946.144075523783
 30
0.0
 11
1146.156955993244
 21
2946.144075523783
 31
0.0
  0
LINE
  5
7C2B
330
83DC
100
AcDbEntity
  8
1
100
AcDbLine
 10
3596.156955993246
 20
2946.144075523783
 30
0.0
 11
3596.156955993246
 21
2821.144075523783
 31
0.0
  0
LINE
  5
7C2C
330
83DC
100
AcDbEntity
  8
1
100
AcDbLine
 10
1146.156955993244
 20
2946.144075523783
 30
0.0
 11
1146.156955993244
 21
2821.144075523783
 31
0.0
  0
LINE
  5
7C2D
330
83DC
100
AcDbEntity
  8
2
100
AcDbLine
 10
1426.156955993245
 20
3496.998592129495
 30
0.0
 11
1426.156955993245
 21
2651.144075523783
 31
0.0
  0
LINE
  5
7C2E
330
83DC
100
AcDbEntity
  8
2
100
AcDbLine
 10
1706.471172751396
 20
3206.144075523784
 30
0.0
 11
1018.992477698529
 21
3206.144075523784
 31
0.0
  0
LINE
  5
7C2F
330
83DC
100
AcDbEntity
  8
1
100
AcDbLine
 10
3671.156955993246
 20
3800.144075523784
 30
0.0
 11
3587.192042881849
 21
3800.144075523784
 31
0.0
  0
LINE
  5
7C30
330
83DC
100
AcDbEntity
  8
1
100
AcDbLine
 10
3621.156955993246
 20
5075.505029635184
 30
0.0
 11
3621.156955993246
 21
3800.144075523784
 31
0.0
  0
LINE
  5
7C31
330
83DC
100
AcDbEntity
  8
1
100
AcDbLine
 10
3671.156955993246
 20
5133.144075523785
 30
0.0
 11
3671.156955993246
 21
3747.144075523783
 31
0.0
  0
LINE
  5
7C32
330
83DC
100
AcDbEntity
  8
1
100
AcDbLine
 10
5124.500975653525
 20
2821.144075523783
 30
0.0
 11
7244.500975653522
 21
2821.144075523783
 31
0.0
1001
ACAD
1000
ASC_BOUNDS
1002
{
1070
    19
1005
0
1005
0
1002
}
  0
LINE
  5
7C33
330
83DC
100
AcDbEntity
  8
1
100
AcDbLine
 10
5124.500975653525
 20
2946.144075523783
 30
0.0
 11
7244.500975653526
 21
2946.144075523783
 31
0.0
  0
LINE
  5
7C39
330
83DC
100
AcDbEntity
  8
2
100
AcDbLine
 10
3749.593494242097
 20
3746.144075523783
 30
0.0
 11
1686.001718075196
 21
3746.144075523783
 31
0.0
  0
LINE
  5
7C3A
330
83DC
100
AcDbEntity
  8
2
100
AcDbLine
 10
5111.200975653527
 20
3746.144075523783
 30
0.0
 11
7360.011461892764
 21
3746.144075523783
 31
0.0
  0
LINE
  5
7C3B
330
83DC
100
AcDbEntity
  8
2
100
AcDbLine
 10
5054.998249057149
 20
3206.144075523784
 30
0.0
 11
5643.702211210475
 21
3206.144075523784
 31
0.0
  0
LINE
  5
7C3C
330
83DC
100
AcDbEntity
  8
1
100
AcDbLine
 10
5131.500975653526
 20
3312.144075523784
 30
0.0
 11
5209.400975653525
 21
3312.144075523784
 31
0.0
  0
LINE
  5
7C3D
330
83DC
100
AcDbEntity
  8
1
100
AcDbLine
 10
5131.500975653526
 20
3100.144075523783
 30
0.0
 11
5209.400975653526
 21
3100.144075523783
 31
0.0
  0
LINE
  5
7C3E
330
83DC
100
AcDbEntity
  8
1
100
AcDbLine
 10
5229.500975653526
 20
3816.144075523784
 30
0.0
 11
5229.500975653526
 21
3676.144075523783
 31
0.0
  0
LINE
  5
7C3F
330
83DC
100
AcDbEntity
  8
1
100
AcDbLine
 10
5209.400975653526
 20
4000.144075523784
 30
0.0
 11
5209.400975653526
 21
3816.144075523784
 31
0.0
  0
LINE
  5
7C40
330
83DC
100
AcDbEntity
  8
1
100
AcDbLine
 10
5209.400975653526
 20
3816.144075523784
 30
0.0
 11
5229.500975653526
 21
3816.144075523784
 31
0.0
  0
LINE
  5
7C41
330
83DC
100
AcDbEntity
  8
1
100
AcDbLine
 10
5209.400975653525
 20
3676.144075523783
 30
0.0
 11
5229.500975653526
 21
3676.144075523783
 31
0.0
  0
LINE
  5
7C42
330
83DC
100
AcDbEntity
  8
1
100
AcDbLine
 10
5209.400975653526
 20
3676.144075523783
 30
0.0
 11
5209.400975653526
 21
3266.144075523783
 31
0.0
  0
LINE
  5
7C43
330
83DC
100
AcDbEntity
  8
1
100
AcDbLine
 10
5131.500975653526
 20
4000.144075523784
 30
0.0
 11
5131.500975653526
 21
3100.144075523783
 31
0.0
  0
LINE
  5
7C44
330
83DC
100
AcDbEntity
  8
1
100
AcDbLine
 10
5224.500975653526
 20
3266.144075523783
 30
0.0
 11
5224.500975653526
 21
3146.144075523784
 31
0.0
  0
LINE
  5
7C45
330
83DC
100
AcDbEntity
  8
1
100
AcDbLine
 10
5209.400975653526
 20
3266.144075523783
 30
0.0
 11
5224.500975653526
 21
3266.144075523783
 31
0.0
  0
LINE
  5
7C46
330
83DC
100
AcDbEntity
  8
1
100
AcDbLine
 10
5209.400975653526
 20
3146.144075523784
 30
0.0
 11
5224.500975653526
 21
3146.144075523784
 31
0.0
  0
LINE
  5
7C47
330
83DC
100
AcDbEntity
  8
1
100
AcDbLine
 10
5209.400975653526
 20
3146.144075523784
 30
0.0
 11
5209.400975653526
 21
3100.144075523783
 31
0.0
  0
LINE
  5
7C48
330
83DC
100
AcDbEntity
  8
1
100
AcDbLine
 10
5046.500975653526
 20
2986.144075523784
 30
0.0
 11
5291.500975653526
 21
2986.144075523784
 31
0.0
  0
LINE
  5
7C49
330
83DC
100
AcDbEntity
  8
1
100
AcDbLine
 10
5046.500975653526
 20
4126.144075523782
 30
0.0
 11
5046.500975653526
 21
2986.144075523784
 31
0.0
  0
LINE
  5
7C4A
330
83DC
100
AcDbEntity
  8
1
100
AcDbLine
 10
5291.500975653526
 20
4126.144075523782
 30
0.0
 11
5291.500975653526
 21
4106.144075523785
 31
0.0
  0
LINE
  5
7C4B
330
83DC
100
AcDbEntity
  8
2
100
AcDbLine
 10
2846.156955993246
 20
8624.712157279262
 30
0.0
 11
2846.156955993246
 21
6244.534480010957
 31
0.0
  0
LINE
  5
7C4C
330
83DC
100
AcDbEntity
  8
2
100
AcDbLine
 10
1426.156955993245
 20
7279.845033676823
 30
0.0
 11
1426.156955993245
 21
6231.415501442675
 31
0.0
  0
LINE
  5
7C4D
330
83DC
100
AcDbEntity
  8
2
100
AcDbLine
 10
6326.500975653526
 20
5316.500490070367
 30
0.0
 11
6326.500975653526
 21
2651.144075523783
 31
0.0
  0
POINT
  5
7C4E
330
83DC
100
AcDbEntity
  8
1
100
AcDbPoint
 10
2846.156955993246
 20
5101.429794629098
 30
0.0
  0
POINT
  5
7C4F
330
83DC
100
AcDbEntity
  8
1
100
AcDbPoint
 10
1771.356671382593
 20
3746.144075523783
 30
0.0
  0
INSERT
  5
7C50
330
83DC
100
AcDbEntity
  8
0
100
AcDbBlockReference
  2
YA_N
 10
-1757.227407310314
 20
-1218.78641745778
 30
0.0
 41
30.0
 42
30.0
 43
30.0
  0
LINE
  5
7C51
330
83DC
100
AcDbEntity
  8
1
100
AcDbLine
 10
3596.156955993246
 20
2716.144075523784
 30
0.0
 11
1146.156955993244
 21
2716.144075523784
 31
0.0
1001
ACAD
1000
ASC_BOUNDS
1002
{
1070
    19
1002
}
  0
LINE
  5
7C52
330
83DC
100
AcDbEntity
  8
1
100
AcDbLine
 10
3596.156955993246
 20
2651.144075523783
 30
0.0
 11
1146.156955993244
 21
2651.144075523783
 31
0.0
  0
LINE
  5
7C53
330
83DC
100
AcDbEntity
  8
1
100
AcDbLine
 10
3596.156955993246
 20
2716.144075523784
 30
0.0
 11
3596.156955993246
 21
2651.144075523783
 31
0.0
  0
LINE
  5
7C54
330
83DC
100
AcDbEntity
  8
1
100
AcDbLine
 10
1146.156955993244
 20
2716.144075523784
 30
0.0
 11
1146.156955993244
 21
2651.144075523783
 31
0.0
  0
ARC
  5
7C55
330
83DC
100
AcDbEntity
  8
1
100
AcDbCircle
 10
1426.156955993245
 20
3206.144075523784
 30
0.0
 40
203.5
100
AcDbArc
 50
285.603699
 51
254.39624
  0
LINE
  5
7C56
330
83DC
100
AcDbEntity
  8
1
100
AcDbLine
 10
1371.418918993245
 20
3010.144075523783
 30
0.0
 11
1480.894992993245
 21
3010.144075523783
 31
0.0
  0
ARC
  5
7C57
330
83DC
100
AcDbEntity
  8
1
100
AcDbCircle
 10
1612.156955993245
 20
3023.144075523783
 30
0.0
 40
3.0
100
AcDbArc
 50
0.0
 51
90.0
  0
ARC
  5
7C58
330
83DC
100
AcDbEntity
  8
1
100
AcDbCircle
 10
1610.156955993245
 20
3080.470736523784
 30
0.0
 40
5.000066999999999
100
AcDbArc
 50
0.0
 51
55.056335
  0
LINE
  5
7C59
330
83DC
100
AcDbEntity
  8
1
100
AcDbLine
 10
1615.156955993245
 20
3080.470736523784
 30
0.0
 11
1615.156955993245
 21
3006.144075523784
 31
0.0
  0
LINE
  5
7C5D
330
83DC
100
AcDbEntity
  8
1
100
AcDbLine
 10
1530.259525993245
 20
3031.287264523784
 30
0.0
 11
1535.656955993245
 21
3011.144075523783
 31
0.0
  0
LINE
  5
7C5E
330
83DC
100
AcDbEntity
  8
1
100
AcDbLine
 10
1535.656955993245
 20
3023.144075523783
 30
0.0
 11
1535.656955993245
 21
3006.144075523784
 31
0.0
  0
LINE
  5
7C5F
330
83DC
100
AcDbEntity
  8
1
100
AcDbLine
 10
1538.656955993245
 20
3026.144075523783
 30
0.0
 11
1612.156955993245
 21
3026.144075523783
 31
0.0
  0
ARC
  5
7C60
330
83DC
100
AcDbEntity
  8
1
100
AcDbCircle
 10
1538.656955993245
 20
3023.144075523783
 30
0.0
 40
3.0
100
AcDbArc
 50
90.0
 51
180.0
  0
LINE
  5
7C61
330
83DC
100
AcDbEntity
  8
1
100
AcDbLine
 10
1613.020725993244
 20
3084.569368523784
 30
0.0
 11
1597.082859993244
 21
3095.705843523783
 31
0.0
  0
LINE
  5
7C62
330
83DC
100
AcDbEntity
  8
1
100
AcDbLine
 10
1237.156955993245
 20
3080.470736523784
 30
0.0
 11
1237.156955993245
 21
3006.144075523784
 31
0.0
  0
LINE
  5
7C66
330
83DC
100
AcDbEntity
  8
1
100
AcDbLine
 10
1322.054172993244
 20
3031.287386523783
 30
0.0
 11
1316.656955993245
 21
3011.144075523783
 31
0.0
  0
LINE
  5
7C67
330
83DC
100
AcDbEntity
  8
1
100
AcDbLine
 10
1316.656955993245
 20
3023.144075523783
 30
0.0
 11
1316.656955993245
 21
3006.144075523784
 31
0.0
  0
LINE
  5
7C68
330
83DC
100
AcDbEntity
  8
1
100
AcDbLine
 10
1313.656955993245
 20
3026.144075523783
 30
0.0
 11
1240.156955993245
 21
3026.144075523783
 31
0.0
  0
ARC
  5
7C69
330
83DC
100
AcDbEntity
  8
1
100
AcDbCircle
 10
1313.656955993245
 20
3023.144075523783
 30
0.0
 40
3.0
100
AcDbArc
 50
0.0
 51
90.0
  0
ARC
  5
7C6A
330
83DC
100
AcDbEntity
  8
1
100
AcDbCircle
 10
1240.156955993245
 20
3023.144075523783
 30
0.0
 40
3.0
100
AcDbArc
 50
90.0
 51
180.0
  0
LINE
  5
7C6B
330
83DC
100
AcDbEntity
  8
1
100
AcDbLine
 10
1239.293064993245
 20
3084.569368523784
 30
0.0
 11
1255.230930993245
 21
3095.705843523783
 31
0.0
  0
ARC
  5
7C6C
330
83DC
100
AcDbEntity
  8
1
100
AcDbCircle
 10
1242.156955993245
 20
3080.470736523784
 30
0.0
 40
5.0
100
AcDbArc
 50
124.943661
 51
180.0
  0
LINE
  5
7C6D
330
83DC
100
AcDbEntity
  8
1
100
AcDbLine
 10
1669.579981035854
 20
3006.144075523784
 30
0.0
 11
1496.156955993245
 21
3006.144075523784
 31
0.0
  0
LINE
  5
7C6E
330
83DC
100
AcDbEntity
  8
1
100
AcDbLine
 10
1686.156955993245
 20
2946.144075523783
 30
0.0
 11
1669.579981035854
 21
3006.144075523784
 31
0.0
  0
LINE
  5
7C6F
330
83DC
100
AcDbEntity
  8
1
100
AcDbLine
 10
1166.156955993245
 20
2946.144075523783
 30
0.0
 11
1182.337912538363
 21
3006.144075523784
 31
0.0
  0
LINE
  5
7C70
330
83DC
100
AcDbEntity
  8
1
100
AcDbLine
 10
1496.156955993245
 20
2996.144075523783
 30
0.0
 11
1356.156955993245
 21
2996.144075523783
 31
0.0
  0
LINE
  5
7C72
330
83DC
100
AcDbEntity
  8
1
100
AcDbLine
 10
1356.156955993245
 20
3006.144075523784
 30
0.0
 11
1356.156955993245
 21
2996.144075523783
 31
0.0
  0
LINE
  5
7C73
330
83DC
100
AcDbEntity
  8
1
100
AcDbLine
 10
1496.156955993245
 20
3006.144075523784
 30
0.0
 11
1496.156955993245
 21
2996.144075523783
 31
0.0
  0
LINE
  5
7C76
330
83DC
100
AcDbEntity
  8
1
100
AcDbLine
 10
1356.156955993245
 20
3006.144075523784
 30
0.0
 11
1182.337912538363
 21
3006.144075523784
 31
0.0
  0
INSERT
  5
7C77
330
83DC
100
AcDbEntity
  8
0
100
AcDbBlockReference
  2
YA_N
 10
-755.2436758818473
 20
-538.554984833856
 30
0.0
 41
30.0
 42
30.0
 43
30.0
  0
LINE
  5
7C78
330
83DC
100
AcDbEntity
  8
1
100
AcDbLine
 10
5124.500975653525
 20
2716.144075523784
 30
0.0
 11
7244.500975653526
 21
2716.144075523784
 31
0.0
1001
ACAD
1000
ASC_BOUNDS
1002
{
1070
    19
1005
0
1005
0
1002
}
  0
LINE
  5
7C79
330
83DC
100
AcDbEntity
  8
1
100
AcDbLine
 10
5124.500975653525
 20
2651.144075523783
 30
0.0
 11
7244.500975653526
 21
2651.144075523783
 31
0.0
  0
LINE
  5
7C7A
330
83DC
100
AcDbEntity
  8
1
100
AcDbLine
 10
7244.500975653526
 20
2716.144075523784
 30
0.0
 11
7244.500975653526
 21
2651.144075523783
 31
0.0
  0
CIRCLE
  5
7C81
330
83DC
100
AcDbEntity
  8
1
100
AcDbCircle
 10
1426.156955993245
 20
3206.144075523784
 30
0.0
 40
107.0
  0
POINT
  5
7C82
330
83DC
100
AcDbEntity
  8
1
100
AcDbPoint
 10
3596.156955993246
 20
2716.144075523784
 30
0.0
  0
POINT
  5
7C83
330
83DC
100
AcDbEntity
  8
1
100
AcDbPoint
 10
3596.156955993246
 20
2821.144075523783
 30
0.0
  0
POINT
  5
7C84
330
83DC
100
AcDbEntity
  8
1
100
AcDbPoint
 10
3596.156955993246
 20
2716.144075523784
 30
0.0
  0
LINE
  5
7C87
330
83DC
100
AcDbEntity
  8
1
100
AcDbLine
 10
5476.500975653525
 20
3800.144075523784
 30
0.0
 11
7176.500975653526
 21
3800.144075523784
 31
0.0
  0
LINE
  5
7C88
330
83DC
100
AcDbEntity
  8
1
100
AcDbLine
 10
5476.500975653525
 20
5080.144075523783
 30
0.0
 11
7176.500975653526
 21
5080.144075523783
 31
0.0
  0
LINE
  5
7C89
330
83DC
100
AcDbEntity
  8
1
100
AcDbLine
 10
7176.500975653526
 20
5080.144075523783
 30
0.0
 11
7176.500975653526
 21
2946.144075523783
 31
0.0
  0
LINE
  5
7C8A
330
83DC
100
AcDbEntity
  8
1
100
AcDbLine
 10
5476.500975653525
 20
5080.144075523783
 30
0.0
 11
5476.500975653525
 21
2946.144075523783
 31
0.0
  0
ARC
  5
7C8B
330
83DC
100
AcDbEntity
  8
1
100
AcDbCircle
 10
2846.156955993246
 20
3746.144075523783
 30
0.0
 40
625.0
100
AcDbArc
 50
0.0
 51
180.0
  0
ARC
  5
7C8C
330
83DC
100
AcDbEntity
  8
1
100
AcDbCircle
 10
2846.156955993246
 20
3746.144075523783
 30
0.0
 40
675.0
100
AcDbArc
 50
0.0
 51
180.0
  0
LINE
  5
7C8D
330
83DC
100
AcDbEntity
  8
1
100
AcDbLine
 10
2511.156955993245
 20
2948.144075523783
 30
0.0
 11
2511.156955993245
 21
2946.144075523783
 31
0.0
  0
ARC
  5
7C8E
330
83DC
100
AcDbEntity
  8
1
100
AcDbCircle
 10
2846.156955993246
 20
3746.144075523783
 30
0.0
 40
625.0
100
AcDbArc
 50
180.0
 51
270.0
  0
ARC
  5
7C8F
330
83DC
100
AcDbEntity
  8
1
100
AcDbCircle
 10
2846.156955993246
 20
3746.144075523783
 30
0.0
 40
675.0
100
AcDbArc
 50
180.0
 51
270.0
  0
LINE
  5
7C90
330
83DC
100
AcDbEntity
  8
1
100
AcDbLine
 10
3596.156955993246
 20
8525.027814553499
 30
0.0
 11
2096.156955993245
 21
8525.027814553499
 31
0.0
  0
LINE
  5
7C91
330
83DC
100
AcDbEntity
  8
1
100
AcDbLine
 10
3596.156955993246
 20
6405.027814553498
 30
0.0
 11
1146.156955993244
 21
6405.027814553498
 31
0.0
  0
LINE
  5
7C92
330
83DC
100
AcDbEntity
  8
1
100
AcDbLine
 10
3596.156955993246
 20
8525.027814553494
 30
0.0
 11
3596.156955993246
 21
8457.027814553494
 31
0.0
  0
LINE
  5
7C93
330
83DC
100
AcDbEntity
  8
1
100
AcDbLine
 10
1146.156955993244
 20
7405.027814553498
 30
0.0
 11
1146.156955993244
 21
6405.027814553498
 31
0.0
  0
LINE
  5
7C94
330
83DC
100
AcDbEntity
  8
1
100
AcDbLine
 10
2096.156955993245
 20
8525.027814553499
 30
0.0
 11
2096.156955993245
 21
8457.0278145535
 31
0.0
  0
LINE
  5
7C95
330
83DC
100
AcDbEntity
  8
1
100
AcDbLine
 10
1767.156955993245
 20
7405.027814553498
 30
0.0
 11
1146.156955993244
 21
7405.027814553498
 31
0.0
  0
LINE
  5
7C97
330
83DC
100
AcDbEntity
  8
1
100
AcDbLine
 10
5319.000975653525
 20
3670.144075523784
 30
0.0
 11
5319.000975653525
 21
3540.144075523784
 31
0.0
  0
LINE
  5
7C98
330
83DC
100
AcDbEntity
  8
1
100
AcDbLine
 10
5459.000975653527
 20
3680.144075523783
 30
0.0
 11
5459.000975653527
 21
3530.144075523784
 31
0.0
  0
LINE
  5
7C99
330
83DC
100
AcDbEntity
  8
1
100
AcDbLine
 10
5329.000975653526
 20
3680.144075523783
 30
0.0
 11
5399.200975653528
 21
3680.144075523783
 31
0.0
  0
LINE
  5
7C9A
330
83DC
100
AcDbEntity
  8
1
100
AcDbLine
 10
5329.000975653526
 20
3530.144075523784
 30
0.0
 11
5399.200975653528
 21
3530.144075523784
 31
0.0
  0
ARC
  5
7C9B
330
83DC
100
AcDbEntity
  8
1
100
AcDbCircle
 10
5329.000975653526
 20
3670.144075523784
 30
0.0
 40
10.0
100
AcDbArc
 50
90.0
 51
180.0
  0
ARC
  5
7C9C
330
83DC
100
AcDbEntity
  8
1
100
AcDbCircle
 10
5329.000975653526
 20
3540.144075523784
 30
0.0
 40
10.0
100
AcDbArc
 50
180.0
 51
270.0
  0
LINE
  5
7C9D
330
83DC
100
AcDbEntity
  8
1
100
AcDbLine
 10
5399.200975653526
 20
3530.144075523784
 30
0.0
 11
5459.000975653527
 21
3530.144075523784
 31
0.0
  0
LINE
  5
7C9E
330
83DC
100
AcDbEntity
  8
1
100
AcDbLine
 10
5399.200975653526
 20
3680.144075523783
 30
0.0
 11
5459.000975653527
 21
3680.144075523783
 31
0.0
  0
LINE
  5
7C9F
330
83DC
100
AcDbEntity
  8
1
100
AcDbLine
 10
7346.500975653523
 20
3670.144075523784
 30
0.0
 11
7346.500975653523
 21
3540.144075523784
 31
0.0
  0
LINE
  5
7CA0
330
83DC
100
AcDbEntity
  8
1
100
AcDbLine
 10
7194.000975653526
 20
3680.144075523783
 30
0.0
 11
7194.000975653526
 21
3530.144075523784
 31
0.0
  0
LINE
  5
7CA1
330
83DC
100
AcDbEntity
  8
1
100
AcDbLine
 10
7336.500975653523
 20
3530.144075523784
 30
0.0
 11
7253.800975653523
 21
3530.144075523784
 31
0.0
  0
ARC
  5
7CA2
330
83DC
100
AcDbEntity
  8
1
100
AcDbCircle
 10
7336.500975653523
 20
3540.144075523784
 30
0.0
 40
10.0
100
AcDbArc
 50
270.0
 51
0.0
  0
LINE
  5
7CA3
330
83DC
100
AcDbEntity
  8
1
100
AcDbLine
 10
7253.800975653523
 20
3530.144075523784
 30
0.0
 11
7194.000975653526
 21
3530.144075523784
 31
0.0
  0
LINE
  5
7CA4
330
83DC
100
AcDbEntity
  8
1
100
AcDbLine
 10
7336.500975653523
 20
3680.144075523783
 30
0.0
 11
7253.800975653523
 21
3680.144075523783
 31
0.0
  0
ARC
  5
7CA5
330
83DC
100
AcDbEntity
  8
1
100
AcDbCircle
 10
7336.500975653523
 20
3670.144075523784
 30
0.0
 40
10.0
100
AcDbArc
 50
0.0
 51
90.0
  0
LINE
  5
7CA6
330
83DC
100
AcDbEntity
  8
1
100
AcDbLine
 10
7253.800975653523
 20
3680.144075523783
 30
0.0
 11
7194.000975653526
 21
3680.144075523783
 31
0.0
  0
ARC
  5
7CAA
330
83DC
100
AcDbEntity
  8
1
100
AcDbCircle
 10
2846.156955993246
 20
3746.144075523783
 30
0.0
 40
675.0
100
AcDbArc
 50
270.0
 51
0.0
  0
ARC
  5
7CAB
330
83DC
100
AcDbEntity
  8
1
100
AcDbCircle
 10
2846.156955993246
 20
3746.144075523783
 30
0.0
 40
625.0
100
AcDbArc
 50
270.0
 51
0.0
  0
CIRCLE
  5
7CAF
330
83DC
100
AcDbEntity
  8
1
100
AcDbCircle
 10
2846.156955993246
 20
3746.144075523783
 30
0.0
 40
254.0
  0
ARC
  5
7CB0
330
83DC
100
AcDbEntity
  8
1
100
AcDbCircle
 10
2846.156955993246
 20
3746.144075523783
 30
0.0
 40
380.0
100
AcDbArc
 50
284.7754119540463
 51
116.8663737525752
  0
ARC
  5
7CB1
330
83DC
100
AcDbEntity
  8
1
100
AcDbCircle
 10
1426.156955993245
 20
3206.144075523784
 30
0.0
 40
220.0
100
AcDbArc
 50
116.8663737525752
 51
284.7754119540463
  0
LINE
  5
7CB2
330
83DC
100
AcDbEntity
  8
1
100
AcDbLine
 10
2674.430682702501
 20
4085.127979362407
 30
0.0
 11
1326.736481982814
 21
3402.397914588249
 31
0.0
  0
LINE
  5
7CB3
330
83DC
100
AcDbEntity
  8
1
100
AcDbLine
 10
2733.324597712614
 20
3973.706943595074
 30
0.0
 11
1378.625214512822
 21
3302.007173490823
 31
0.0
  0
LINE
  5
7CB4
330
83DC
100
AcDbEntity
  8
1
100
AcDbLine
 10
2913.044808208018
 20
3501.109353033082
 30
0.0
 11
1454.33412208372
 21
3102.920786915496
 31
0.0
  0
LINE
  5
7CB5
330
83DC
100
AcDbEntity
  8
1
100
AcDbLine
 10
2943.068671225063
 20
3378.709565099372
 30
0.0
 11
1482.263738495876
 21
2993.418832646492
 31
0.0
  0
POINT
  5
7CBD
330
83DC
100
AcDbEntity
  8
1
100
AcDbPoint
 10
3596.156955993246
 20
2716.144075523784
 30
0.0
  0
POINT
  5
7CC5
330
83DC
100
AcDbEntity
  8
1
100
AcDbPoint
 10
3596.156955993246
 20
2716.144075523784
 30
0.0
  0
POINT
  5
7CC6
330
83DC
100
AcDbEntity
  8
1
100
AcDbPoint
 10
3596.156955993246
 20
2821.144075523783
 30
0.0
  0
ARC
  5
7CCA
330
83DC
100
AcDbEntity
  8
1
100
AcDbCircle
 10
2846.156955993246
 20
3746.144075523783
 30
0.0
 40
743.0
100
AcDbArc
 50
357.103091958974
 51
4.167836322161878
  0
LINE
  5
7CCB
330
83DC
100
AcDbEntity
  8
1
100
AcDbLine
 10
5131.500975653526
 20
4000.144075523784
 30
0.0
 11
5209.400975653525
 21
4000.144075523784
 31
0.0
  0
LINE
  5
7CCC
330
83DC
100
AcDbEntity
  8
1
100
AcDbLine
 10
5131.500975653526
 20
3492.144075523784
 30
0.0
 11
5209.400975653525
 21
3492.144075523784
 31
0.0
  0
LINE
  5
7CCD
330
83DC
100
AcDbEntity
  8
1
100
AcDbLine
 10
5046.500975653525
 20
4126.144075523782
 30
0.0
 11
5291.500975653525
 21
4126.144075523782
 31
0.0
  0
LINE
  5
7CCE
330
83DC
100
AcDbEntity
  8
1
100
AcDbLine
 10
5291.500975653526
 20
3006.144075523784
 30
0.0
 11
5291.500975653526
 21
2986.144075523784
 31
0.0
  0
INSERT
  5
7CCF
330
83DC
100
AcDbEntity
  8
0
100
AcDbBlockReference
  2
YA_N
 10
4767.943419715615
 20
-1494.695868425496
 30
0.0
  0
LINE
  5
7CD0
330
83DC
100
AcDbEntity
  8
1
100
AcDbLine
 10
7244.500975653526
 20
2946.144075523783
 30
0.0
 11
7244.500975653522
 21
2821.144075523783
 31
0.0
  0
LINE
  5
7CD1
330
83DC
100
AcDbEntity
  8
1
100
AcDbLine
 10
5124.500975653525
 20
2716.144075523784
 30
0.0
 11
5124.500975653528
 21
2651.144075523783
 31
0.0
  0
LINE
  5
7CD2
330
83DC
100
AcDbEntity
  8
1
100
AcDbLine
 10
5124.500975653525
 20
2946.144075523783
 30
0.0
 11
5124.500975653525
 21
2821.144075523783
 31
0.0
  0
LINE
  5
7CD6
330
83DC
100
AcDbEntity
  8
1
100
AcDbLine
 10
5229.500975653526
 20
3783.644075523783
 30
0.0
 11
5476.500975653525
 21
3783.644075523783
 31
0.0
  0
LINE
  5
7CD7
330
83DC
100
AcDbEntity
  8
1
100
AcDbLine
 10
5229.500975653526
 20
3708.644075523784
 30
0.0
 11
5476.500975653525
 21
3708.644075523784
 31
0.0
  0
LINE
  5
7CD8
330
83DC
100
AcDbEntity
  8
1
100
AcDbLine
 10
7176.500975653524
 20
5080.144075523783
 30
0.0
 11
5476.500975653525
 21
3800.144075523784
 31
0.0
  0
LINE
  5
7CD9
330
83DC
100
AcDbEntity
  8
1
100
AcDbLine
 10
5476.500975653525
 20
5080.144075523783
 30
0.0
 11
7176.500975653528
 21
3800.144075523784
 31
0.0
  0
LINE
  5
7CDA
330
83DC
100
AcDbEntity
  8
1
100
AcDbLine
 10
5320.450975653527
 20
3006.144075523784
 30
0.0
 11
5320.450975653526
 21
3206.144075523784
 31
0.0
  0
LINE
  5
7CDB
330
83DC
100
AcDbEntity
  8
1
100
AcDbLine
 10
5320.450975653528
 20
3006.144075523784
 30
0.0
 11
5476.500975653525
 21
3006.144075523785
 31
0.0
  0
LINE
  5
7CDC
330
83DC
100
AcDbEntity
  8
1
100
AcDbLine
 10
5476.500975653525
 20
3416.144075523785
 30
0.0
 11
5320.450975653525
 21
3416.144075523785
 31
0.0
  0
LINE
  5
7CDD
330
83DC
100
AcDbEntity
  8
1
100
AcDbLine
 10
5310.450975653527
 20
3176.144075523784
 30
0.0
 11
5224.500975653526
 21
3176.144075523784
 31
0.0
  0
LINE
  5
7CDE
330
83DC
100
AcDbEntity
  8
1
100
AcDbLine
 10
5310.450975653527
 20
3236.144075523784
 30
0.0
 11
5224.500975653526
 21
3236.144075523784
 31
0.0
  0
LINE
  5
7CDF
330
83DC
100
AcDbEntity
  8
1
100
AcDbLine
 10
5320.450975653526
 20
3416.144075523785
 30
0.0
 11
5320.450975653526
 21
3206.144075523784
 31
0.0
  0
LINE
  5
7CE0
330
83DC
100
AcDbEntity
  8
1
100
AcDbLine
 10
5310.450975653527
 20
3173.644075523784
 30
0.0
 11
5310.450975653527
 21
3238.644075523784
 31
0.0
  0
LINE
  5
7CE1
330
83DC
100
AcDbEntity
  8
1
100
AcDbLine
 10
5310.450975653527
 20
3173.644075523784
 30
0.0
 11
5320.450975653526
 21
3173.644075523784
 31
0.0
  0
LINE
  5
7CE2
330
83DC
100
AcDbEntity
  8
1
100
AcDbLine
 10
5310.450975653527
 20
3238.644075523784
 30
0.0
 11
5320.450975653526
 21
3238.644075523784
 31
0.0
  0
LINE
  5
7CF1
330
83DC
100
AcDbEntity
  8
2
100
AcDbLine
 10
3821.984076714965
 20
7607.027814553496
 30
0.0
 11
1837.156955993244
 21
7607.027814553496
 31
0.0
  0
LINE
  5
7CF2
330
83DC
100
AcDbEntity
  8
1
100
AcDbLine
 10
3226.156955993245
 20
6327.027814553499
 30
0.0
 11
1206.156955993245
 21
6327.027814553499
 31
0.0
  0
LINE
  5
7CF3
330
83DC
100
AcDbEntity
  8
1
100
AcDbLine
 10
3100.156955993246
 20
6412.0278145535
 30
0.0
 11
2592.156955993245
 21
6412.0278145535
 31
0.0
  0
LINE
  5
7CF4
330
83DC
100
AcDbEntity
  8
1
100
AcDbLine
 10
2776.156955993246
 20
6489.927814553498
 30
0.0
 11
2592.156955993245
 21
6489.927814553498
 31
0.0
  0
LINE
  5
7CF5
330
83DC
100
AcDbEntity
  8
1
100
AcDbLine
 10
1396.156955993244
 20
6590.9778145535
 30
0.0
 11
1396.156955993244
 21
6505.027814553499
 31
0.0
  0
LINE
  5
7CF6
330
83DC
100
AcDbEntity
  8
1
100
AcDbLine
 10
1456.156955993245
 20
6590.9778145535
 30
0.0
 11
1456.156955993245
 21
6505.027814553499
 31
0.0
  0
LINE
  5
7CF7
330
83DC
100
AcDbEntity
  8
1
100
AcDbLine
 10
1206.156955993245
 20
6327.027814553499
 30
0.0
 11
1206.156955993245
 21
6572.027814553499
 31
0.0
  0
LINE
  5
7CF8
330
83DC
100
AcDbEntity
  8
1
100
AcDbLine
 10
2046.156955993244
 20
6405.027814553498
 30
0.0
 11
1921.156955993245
 21
6405.027814553498
 31
0.0
  0
LINE
  5
7CF9
330
83DC
100
AcDbEntity
  8
1
100
AcDbLine
 10
1902.156955993245
 20
6405.027814553498
 30
0.0
 11
1837.156955993244
 21
6405.027814553498
 31
0.0
  0
LINE
  5
7CFA
330
83DC
100
AcDbEntity
  8
1
100
AcDbLine
 10
1486.156955993244
 20
6505.027814553499
 30
0.0
 11
1366.156955993245
 21
6505.027814553499
 31
0.0
  0
LINE
  5
7CFB
330
83DC
100
AcDbEntity
  8
1
100
AcDbLine
 10
1366.156955993245
 20
6489.927814553498
 30
0.0
 11
1320.156955993245
 21
6489.927814553498
 31
0.0
  0
LINE
  5
7CFC
330
83DC
100
AcDbEntity
  8
1
100
AcDbLine
 10
1320.156955993245
 20
6412.0278145535
 30
0.0
 11
1320.156955993245
 21
6489.927814553498
 31
0.0
  0
LINE
  5
7CFD
330
83DC
100
AcDbEntity
  8
1
100
AcDbLine
 10
1366.156955993245
 20
6489.927814553498
 30
0.0
 11
1366.156955993245
 21
6505.027814553499
 31
0.0
  0
LINE
  5
7CFE
330
83DC
100
AcDbEntity
  8
1
100
AcDbLine
 10
1532.156955993245
 20
6412.0278145535
 30
0.0
 11
1532.156955993245
 21
6489.927814553498
 31
0.0
  0
LINE
  5
7CFF
330
83DC
100
AcDbEntity
  8
1
100
AcDbLine
 10
1486.156955993244
 20
6489.927814553498
 30
0.0
 11
1486.156955993244
 21
6505.027814553499
 31
0.0
  0
LINE
  5
7D00
330
83DC
100
AcDbEntity
  8
1
100
AcDbLine
 10
2592.156955993245
 20
6412.0278145535
 30
0.0
 11
2592.156955993245
 21
6489.927814553498
 31
0.0
  0
LINE
  5
7D01
330
83DC
100
AcDbEntity
  8
1
100
AcDbLine
 10
1636.156955993245
 20
6600.977814553498
 30
0.0
 11
1426.156955993245
 21
6600.977814553498
 31
0.0
  0
LINE
  5
7D02
330
83DC
100
AcDbEntity
  8
1
100
AcDbLine
 10
1393.656955993245
 20
6590.9778145535
 30
0.0
 11
1458.656955993244
 21
6590.9778145535
 31
0.0
  0
LINE
  5
7D03
330
83DC
100
AcDbEntity
  8
1
100
AcDbLine
 10
1226.156955993245
 20
6600.977814553501
 30
0.0
 11
1226.156955993252
 21
7250.477814553502
 31
0.0
  0
LINE
  5
7D04
330
83DC
100
AcDbEntity
  8
1
100
AcDbLine
 10
1226.156955993245
 20
6600.977814553501
 30
0.0
 11
1426.156955993245
 21
6600.977814553498
 31
0.0
  0
LINE
  5
7D05
330
83DC
100
AcDbEntity
  8
1
100
AcDbLine
 10
1393.656955993245
 20
6590.9778145535
 30
0.0
 11
1393.656955993245
 21
6600.977814553498
 31
0.0
  0
LINE
  5
7D06
330
83DC
100
AcDbEntity
  8
1
100
AcDbLine
 10
1226.156955993246
 20
6776.4778145535
 30
0.0
 11
1227.156955993246
 21
6776.4778145535
 31
0.0
  0
LINE
  5
7D07
330
83DC
100
AcDbEntity
  8
1
100
AcDbLine
 10
1636.156955993252
 20
7250.477814553498
 30
0.0
 11
1636.156955993245
 21
6600.977814553498
 31
0.0
  0
LINE
  5
7D08
330
83DC
100
AcDbEntity
  8
1
100
AcDbLine
 10
1458.656955993244
 20
6590.9778145535
 30
0.0
 11
1458.656955993244
 21
6600.977814553498
 31
0.0
  0
LINE
  5
7D09
330
83DC
100
AcDbEntity
  8
1
100
AcDbLine
 10
2808.656955993244
 20
6510.0278145535
 30
0.0
 11
2808.656955993244
 21
6757.027814553497
 31
0.0
  0
LINE
  5
7D0A
330
83DC
100
AcDbEntity
  8
1
100
AcDbLine
 10
2883.656955993246
 20
6510.0278145535
 30
0.0
 11
2883.656955993246
 21
6757.027814553499
 31
0.0
  0
LINE
  5
7D0B
330
83DC
100
AcDbEntity
  8
1
100
AcDbLine
 10
3226.156955993245
 20
6327.027814553499
 30
0.0
 11
3226.156955993245
 21
6572.027814553497
 31
0.0
  0
LINE
  5
7D0C
330
83DC
100
AcDbEntity
  8
1
100
AcDbLine
 10
2916.156955993244
 20
6510.0278145535
 30
0.0
 11
2776.156955993246
 21
6510.0278145535
 31
0.0
  0
LINE
  5
7D0D
330
83DC
100
AcDbEntity
  8
1
100
AcDbLine
 10
2776.156955993246
 20
6489.927814553498
 30
0.0
 11
2776.156955993246
 21
6510.0278145535
 31
0.0
  0
LINE
  5
7D0E
330
83DC
100
AcDbEntity
  8
1
100
AcDbLine
 10
3100.156955993246
 20
6489.927814553498
 30
0.0
 11
2916.156955993244
 21
6489.927814553498
 31
0.0
  0
LINE
  5
7D0F
330
83DC
100
AcDbEntity
  8
1
100
AcDbLine
 10
2916.156955993244
 20
6489.927814553498
 30
0.0
 11
2916.156955993244
 21
6510.0278145535
 31
0.0
  0
LINE
  5
7D10
330
83DC
100
AcDbEntity
  8
1
100
AcDbLine
 10
3100.156955993246
 20
6412.0278145535
 30
0.0
 11
3100.156955993246
 21
6489.927814553498
 31
0.0
  0
LINE
  5
7D11
330
83DC
100
AcDbEntity
  8
1
100
AcDbLine
 10
3226.156955993245
 20
6572.027814553499
 30
0.0
 11
1206.156955993245
 21
6572.02781455359
 31
0.0
  0
LINE
  5
7D13
330
83DC
100
AcDbEntity
  8
1
100
AcDbLine
 10
1226.156955993247
 20
7250.477814553502
 30
0.0
 11
1636.156955993252
 21
7250.477814553498
 31
0.0
  0
LINE
  5
7D14
330
83DC
100
AcDbEntity
  8
1
100
AcDbLine
 10
3671.156955993246
 20
8457.027814553494
 30
0.0
 11
1767.156955993246
 21
8457.027814553494
 31
0.0
  0
LINE
  5
7D15
330
83DC
100
AcDbEntity
  8
1
100
AcDbLine
 10
3671.156955993246
 20
6757.027814553497
 30
0.0
 11
1767.156955993245
 21
6757.027814553497
 31
0.0
  0
LINE
  5
7D16
330
83DC
100
AcDbEntity
  8
1
100
AcDbLine
 10
3671.156955993246
 20
8507.0278145535
 30
0.0
 11
3671.156955993246
 21
6707.027814553497
 31
0.0
  0
LINE
  5
7D17
330
83DC
100
AcDbEntity
  8
1
100
AcDbLine
 10
1767.156955993245
 20
8457.027814553494
 30
0.0
 11
1767.156955993245
 21
6757.027814553497
 31
0.0
  0
LINE
  5
7D18
330
83DC
100
AcDbEntity
  8
1
100
AcDbLine
 10
3596.156955993246
 20
6757.027814553497
 30
0.0
 11
3596.156955993246
 21
6405.027814553496
 31
0.0
  0
LINE
  5
7D19
330
83DC
100
AcDbEntity
  8
1
100
AcDbLine
 10
1532.156955993245
 20
6489.927814553498
 30
0.0
 11
1486.156955993244
 21
6489.927814553498
 31
0.0
  0
LINE
  5
7D1A
330
83DC
100
AcDbEntity
  8
1
100
AcDbLine
 10
1532.156955993245
 20
6412.0278145535
 30
0.0
 11
1320.156955993245
 21
6412.0278145535
 31
0.0
  0
LINE
  5
8092
330
83DC
100
AcDbEntity
  8
4
100
AcDbLine
 10
7400.0
 20
2000.0
 30
0.0
 11
7400.0
 21
1200.0
 31
0.0
  0
LINE
  5
8093
330
83DC
100
AcDbEntity
  8
4
100
AcDbLine
 10
4600.0
 20
2000.0
 30
0.0
 11
4600.0
 21
1200.0
 31
0.0
  0
LINE
  5
8094
330
83DC
100
AcDbEntity
  8
4
100
AcDbLine
 10
2600.0
 20
2000.0
 30
0.0
 11
2600.0
 21
1200.0
 31
0.0
  0
LINE
  5
8097
330
83DC
100
AcDbEntity
  8
4
100
AcDbLine
 10
2600.0
 20
1200.0
 30
0.0
 11
7400.0
 21
1200.0
 31
0.0
  0
LINE
  5
8098
330
83DC
100
AcDbEntity
  8
4
100
AcDbLine
 10
2600.0
 20
1600.0
 30
0.0
 11
7400.0
 21
1600.0
 31
0.0
  0
TEXT
  5
8099
330
83DC
100
AcDbEntity
  8
4
100
AcDbText
 10
2754.008323387607
 20
1726.172103466451
 30
0.0
 40
200.0
  1
機器名称
100
AcDbText
  0
TEXT
  5
809A
330
83DC
100
AcDbEntity
  8
4
100
AcDbText
 10
2745.03242409919
 20
1286.580626928043
 30
0.0
 40
200.0
  1
機器型番
100
AcDbText
  0
TEXT
  5
809B
330
83DC
100
AcDbEntity
  8
4
100
AcDbText
 10
4710.714981950659
 20
1690.287075830274
 30
0.0
 40
200.0
  1
ミツヤ多翼送風機
100
AcDbText
  0
TEXT
  5
809C
330
83DC
100
AcDbEntity
  8
4
100
AcDbText
 10
4746.617982341923
 20
1268.638337119773
 30
0.0
 40
200.0
  1
MF#8-5
100
AcDbText
  0
TEXT
  5
809E
330
83DC
100
AcDbEntity
  8
4
100
AcDbText
 10
2904.810751349723
 20
9533.715365330063
 30
0.0
 40
215.9999999999999
  1
床置防振ベット
100
AcDbText
  0
TEXT
  5
809F
330
83DC
100
AcDbEntity
  8
4
100
AcDbText
 10
1264.670373317785
 20
10135.52390479719
 30
0.0
 40
288.0
  1
遠心式両吸込両持多翼ファン
100
AcDbText
  0
LINE
  5
80A0
330
83DC
100
AcDbEntity
  8
4
100
AcDbLine
 10
1000.0
 20
9877.635017059219
 30
0.0
 11
7400.0
 21
9877.635017059219
 31
0.0
  0
LINE
  5
80A1
330
83DC
100
AcDbEntity
  8
4
100
AcDbLine
 10
1000.0
 20
10677.63501705921
 30
0.0
 11
7400.0
 21
10677.63501705921
 31
0.0
  0
LINE
  5
80A2
330
83DC
100
AcDbEntity
  8
4
100
AcDbLine
 10
2600.0
 20
2000.0
 30
0.0
 11
7400.0
 21
2000.0
 31
0.0
  0
LINE
  5
80A3
330
83DC
100
AcDbEntity
  8
4
100
AcDbLine
 10
1000.0
 20
10677.63501705921
 30
0.0
 11
1000.0
 21
9877.635017059219
 31
0.0
  0
TEXT
  5
80A4
330
83DC
100
AcDbEntity
  8
4
100
AcDbText
 10
1161.375422378914
 20
9529.277910185374
 30
0.0
 40
215.9999999999999
  1
右回転右横向
100
AcDbText
  0
TEXT
  5
80A5
330
83DC
100
AcDbEntity
  8
4
100
AcDbText
 10
5875.878236997159
 20
10824.24432598123
 30
0.0
 40
224.0
  1
No.
100
AcDbText
  0
TEXT
  5
80A6
330
83DC
100
AcDbEntity
  8
4
100
AcDbText
 10
5245.184250400053
 20
9533.715365330063
 30
0.0
 40
215.9999999999999
  1
縮尺：1/40
100
AcDbText
  0
LINE
  5
80A7
330
83DC
100
AcDbEntity
  8
4
100
AcDbLine
 10
7400.0
 20
10677.63501705921
 30
0.0
 11
7400.0
 21
9877.635017059219
 31
0.0
  0
LINE
  5
80A8
330
83DC
100
AcDbEntity
  8
4
100
AcDbLine
 10
8400.0
 20
11800.0
 30
0.0
 11
8400.0
 21
11800.0
 31
0.0
  0
LINE
  5
80A9
330
83DC
100
AcDbEntity
  8
4
100
AcDbLine
 10
5762.469689439458
 20
10725.0543325016
 30
0.0
 11
5762.469689439458
 21
11146.609046199
 31
0.0
  0
LINE
  5
80AA
330
83DC
100
AcDbEntity
  8
4
100
AcDbLine
 10
5762.469689439458
 20
11146.609046199
 30
0.0
 11
7400.0
 21
11146.609046199
 31
0.0
  0
LINE
  5
80AB
330
83DC
100
AcDbEntity
  8
4
100
AcDbLine
 10
7400.0
 20
11146.609046199
 30
0.0
 11
7400.0
 21
10725.0543325016
 31
0.0
  0
LINE
  5
80AC
330
83DC
100
AcDbEntity
  8
4
100
AcDbLine
 10
7400.0
 20
10725.0543325016
 30
0.0
 11
5762.469689439458
 21
10725.0543325016
 31
0.0
  0
LINE
  5
80AD
330
83DC
100
AcDbEntity
  8
4
100
AcDbLine
 10
0.0
 20
0.0
 30
0.0
 11
0.0
 21
11800.0
 31
0.0
  0
LINE
  5
80AE
330
83DC
100
AcDbEntity
  8
4
100
AcDbLine
 10
0.0
 20
11800.0
 30
0.0
 11
8400.0
 21
11800.0
 31
0.0
  0
LINE
  5
80AF
330
83DC
100
AcDbEntity
  8
4
100
AcDbLine
 10
8400.0
 20
11800.0
 30
0.0
 11
8400.0
 21
0.0
 31
0.0
  0
LINE
  5
80B0
330
83DC
100
AcDbEntity
  8
4
100
AcDbLine
 10
8400.0
 20
0.0
 30
0.0
 11
0.0
 21
0.0
 31
0.0
  0
DIMENSION
  5
84DA
330
83DC
100
AcDbEntity
  8
3
100
AcDbDimension
  2
*D35
 10
7587.77060056603
 20
3121.144075523783
 30
0.0
 11
7487.77060056603
 21
3746.144075523786
 31
0.0
 70
    32
 71
     5
 42
1250.0
  3
IGA
100
AcDbAlignedDimension
 13
7176.500975653526
 23
4371.144075523783
 33
0.0
 14
7176.500975653526
 24
3121.144075523783
 34
0.0
 50
90.0
100
AcDbRotatedDimension
1001
ACAD
1000
DSTYLE
1002
{
1070
    40
1040
40.0
1070
   143
1040
0.039
1070
   172
1070
     1
1070
   271
1070
     4
1070
   272
1070
     4
1070
   279
1070
     0
1070
   284
1070
     0
1070
   285
1070
     0
1070
   286
1070
     0
1070
   341
1005
83F3
1070
   343
1005
83F3
1070
   344
1005
83F3
1002
}
  0
DIMENSION
  5
84E7
330
83DC
100
AcDbEntity
  8
3
100
AcDbDimension
  2
*D36
 10
7176.500975653526
 20
5381.543861990349
 30
0.0
 11
6326.500975653526
 21
5481.543861990349
 31
0.0
 70
    32
 71
     5
 42
1700.000000000001
  3
IGA
100
AcDbAlignedDimension
 13
5476.500975653525
 23
5080.144075523783
 33
0.0
 14
7176.500975653526
 24
5080.144075523783
 34
0.0
100
AcDbRotatedDimension
1001
ACAD
1000
DSTYLE
1002
{
1070
    40
1040
40.0
1070
   143
1040
0.039
1070
   172
1070
     1
1070
   271
1070
     4
1070
   272
1070
     4
1070
   279
1070
     0
1070
   284
1070
     0
1070
   285
1070
     0
1070
   286
1070
     0
1070
   341
1005
83F3
1070
   343
1005
83F3
1070
   344
1005
83F3
1002
}
  0
DIMENSION
  5
84F4
330
83DC
100
AcDbEntity
  8
3
100
AcDbDimension
  2
*D37
 10
6326.500975653526
 20
5634.50716684925
 30
0.0
 11
5686.500975653526
 21
5765.935738277821
 31
0.0
 70
    32
  1
(<>)
 71
     5
 42
1280.000000000001
  3
IGA
100
AcDbAlignedDimension
 13
5046.500975653525
 23
4126.144075523782
 33
0.0
 14
6326.500975653526
 24
5551.283124315389
 34
0.0
100
AcDbRotatedDimension
1001
ACAD
1000
DSTYLE
1002
{
1070
    40
1040
40.0
1070
   143
1040
0.039
1070
   172
1070
     1
1070
   271
1070
     4
1070
   272
1070
     4
1070
   279
1070
     0
1070
   284
1070
     0
1070
   285
1070
     0
1070
   286
1070
     0
1070
   341
1005
83F3
1070
   343
1005
83F3
1070
   344
1005
83F3
1002
}
  0
DIMENSION
  5
8501
330
83DC
100
AcDbEntity
  8
3
100
AcDbDimension
  2
*D38
 10
7346.500975653523
 20
5634.50716684925
 30
0.0
 11
6836.500975653525
 21
5765.935738277821
 31
0.0
 70
    32
  1
(<>)
 71
     5
 42
1019.999999999997
  3
IGA
100
AcDbAlignedDimension
 13
6326.500975653526
 23
5551.283124315389
 33
0.0
 14
7346.500975653523
 24
3670.144075523784
 34
0.0
100
AcDbRotatedDimension
1001
ACAD
1000
DSTYLE
1002
{
1070
    40
1040
40.0
1070
   143
1040
0.039
1070
   172
1070
     1
1070
   271
1070
     4
1070
   272
1070
     4
1070
   279
1070
     1
1070
   284
1070
     0
1070
   285
1070
     0
1070
   286
1070
     0
1070
   341
1005
83F3
1070
   343
1005
83F3
1070
   344
1005
83F3
1002
}
  0
DIMENSION
  5
8547
330
83DC
100
AcDbEntity
  8
3
100
AcDbDimension
  2
*D39
 10
6326.500975653526
 20
2385.15033344473
 30
0.0
 11
5725.500975653526
 21
2485.15033344473
 31
0.0
 70
    32
 71
     5
 42
1202.000000000001
  3
IGA
100
AcDbAlignedDimension
 13
5124.500975653525
 23
2651.144075523783
 33
0.0
 14
6326.500975653526
 24
2651.144075523783
 34
0.0
100
AcDbRotatedDimension
1001
ACAD
1000
DSTYLE
1002
{
1070
    40
1040
40.0
1070
   143
1040
0.039
1070
   172
1070
     1
1070
   271
1070
     4
1070
   272
1070
     4
1070
   279
1070
     0
1070
   284
1070
     0
1070
   285
1070
     0
1070
   286
1070
     0
1070
   341
1005
83F3
1070
   343
1005
83F3
1070
   344
1005
83F3
1002
}
  0
DIMENSION
  5
8554
330
83DC
100
AcDbEntity
  8
3
100
AcDbDimension
  2
*D40
 10
7244.500975653526
 20
2385.15033344473
 30
0.0
 11
6785.500975653525
 21
2485.15033344473
 31
0.0
 70
    32
 71
     5
 42
918.0
  3
IGA
100
AcDbAlignedDimension
 13
6326.500975653526
 23
2651.144075523783
 33
0.0
 14
7244.500975653526
 24
2651.144075523783
 34
0.0
100
AcDbRotatedDimension
1001
ACAD
1000
DSTYLE
1002
{
1070
    40
1040
40.0
1070
   143
1040
0.039
1070
   172
1070
     1
1070
   271
1070
     4
1070
   272
1070
     4
1070
   279
1070
     1
1070
   284
1070
     0
1070
   285
1070
     0
1070
   286
1070
     0
1070
   341
1005
83F3
1070
   343
1005
83F3
1070
   344
1005
83F3
1002
}
  0
DIMENSION
  5
8580
330
83DC
100
AcDbEntity
  8
3
100
AcDbDimension
  2
*D42
 10
879.8305548856658
 20
6405.027814553498
 30
0.0
 11
779.8305548856649
 21
6905.027814553498
 31
0.0
 70
    32
 71
     5
 42
1000.0
  3
IGA
100
AcDbAlignedDimension
 13
1146.156955993244
 23
7405.027814553498
 33
0.0
 14
1146.156955993244
 24
6405.027814553498
 34
0.0
 50
90.0
100
AcDbRotatedDimension
1001
ACAD
1000
DSTYLE
1002
{
1070
    40
1040
40.0
1070
   143
1040
0.039
1070
   172
1070
     1
1070
   271
1070
     4
1070
   272
1070
     4
1070
   279
1070
     0
1070
   284
1070
     0
1070
   285
1070
     0
1070
   286
1070
     0
1070
   341
1005
83F3
1070
   343
1005
83F3
1070
   344
1005
83F3
1002
}
  0
DIMENSION
  5
858D
330
83DC
100
AcDbEntity
  8
3
100
AcDbDimension
  2
*D43
 10
3596.156955993246
 20
6040.273936363845
 30
0.0
 11
2371.156955993245
 21
6140.273936363844
 31
0.0
 70
    32
 71
     5
 42
2450.000000000001
  3
IGA
100
AcDbAlignedDimension
 13
1146.156955993244
 23
6405.027814553498
 33
0.0
 14
3596.156955993246
 24
6405.027814553496
 34
0.0
100
AcDbRotatedDimension
1001
ACAD
1000
DSTYLE
1002
{
1070
    40
1040
40.0
1070
   143
1040
0.039
1070
   172
1070
     1
1070
   271
1070
     4
1070
   272
1070
     4
1070
   279
1070
     0
1070
   284
1070
     0
1070
   285
1070
     0
1070
   286
1070
     0
1070
   341
1005
83F3
1070
   343
1005
83F3
1070
   344
1005
83F3
1002
}
  0
DIMENSION
  5
859A
330
83DC
100
AcDbEntity
  8
3
100
AcDbDimension
  2
*D44
 10
4045.17309722908
 20
8525.027814553494
 30
0.0
 11
3945.173097229079
 21
7465.027814553497
 31
0.0
 70
    32
 71
     5
 42
2119.999999999995
  3
IGA
100
AcDbAlignedDimension
 13
3596.156955993246
 23
6405.027814553498
 33
0.0
 14
3596.156955993246
 24
8525.027814553494
 34
0.0
 50
90.0
100
AcDbRotatedDimension
1001
ACAD
1000
DSTYLE
1002
{
1070
    40
1040
40.0
1070
   143
1040
0.039
1070
   172
1070
     1
1070
   271
1070
     4
1070
   272
1070
     4
1070
   279
1070
     0
1070
   284
1070
     0
1070
   285
1070
     0
1070
   286
1070
     0
1070
   341
1005
83F3
1070
   343
1005
83F3
1070
   344
1005
83F3
1002
}
  0
DIMENSION
  5
85A7
330
83DC
100
AcDbEntity
  8
3
100
AcDbDimension
  2
*D45
 10
2096.156955993245
 20
8729.663953058681
 30
0.0
 11
2846.156955993245
 21
8829.663953058682
 31
0.0
 70
    32
 71
     5
 42
1500.0
  3
IGA
100
AcDbAlignedDimension
 13
3596.156955993246
 23
8525.027814553499
 33
0.0
 14
2096.156955993245
 24
8525.027814553499
 34
0.0
100
AcDbRotatedDimension
1001
ACAD
1000
DSTYLE
1002
{
1070
    40
1040
40.0
1070
   143
1040
0.039
1070
   172
1070
     1
1070
   271
1070
     4
1070
   272
1070
     4
1070
   279
1070
     0
1070
   284
1070
     0
1070
   285
1070
     0
1070
   286
1070
     0
1070
   341
1005
83F3
1070
   343
1005
83F3
1070
   344
1005
83F3
1002
}
  0
DIMENSION
  5
85B4
330
83DC
100
AcDbEntity
  8
3
100
AcDbDimension
  2
*D46
 10
1146.156955993244
 20
8729.663953058681
 30
0.0
 11
1621.156955993244
 21
8829.663953058682
 31
0.0
 70
    32
 71
     5
 42
950.0000000000008
  3
IGA
100
AcDbAlignedDimension
 13
2096.156955993245
 23
8525.027814553499
 33
0.0
 14
1146.156955993244
 24
7405.027814553498
 34
0.0
100
AcDbRotatedDimension
1001
ACAD
1000
DSTYLE
1002
{
1070
    40
1040
40.0
1070
   143
1040
0.039
1070
   172
1070
     1
1070
   271
1070
     4
1070
   272
1070
     4
1070
   279
1070
     1
1070
   284
1070
     0
1070
   285
1070
     0
1070
   286
1070
     0
1070
   341
1005
83F3
1070
   343
1005
83F3
1070
   344
1005
83F3
1002
}
  0
DIMENSION
  5
85CA
330
83DC
100
AcDbEntity
  8
3
100
AcDbDimension
  2
*D47
 10
2846.156955993246
 20
5382.667020841306
 30
0.0
 11
3258.656955993246
 21
5482.667020841306
 31
0.0
 70
    32
 71
     5
 42
825.0
  3
IGA
100
AcDbAlignedDimension
 13
3671.156955993246
 23
5133.144075523785
 33
0.0
 14
2846.156955993246
 24
5101.429794629098
 34
0.0
100
AcDbRotatedDimension
1001
ACAD
1000
DSTYLE
1002
{
1070
    40
1040
40.0
1070
   143
1040
0.039
1070
   172
1070
     1
1070
   271
1070
     4
1070
   272
1070
     4
1070
   279
1070
     0
1070
   284
1070
     0
1070
   285
1070
     0
1070
   286
1070
     0
1070
   341
1005
83F3
1070
   343
1005
83F3
1070
   344
1005
83F3
1002
}
  0
DIMENSION
  5
85D7
330
83DC
100
AcDbEntity
  8
3
100
AcDbDimension
  2
*D48
 10
1767.156955993245
 20
5382.667020841306
 30
0.0
 11
2306.656955993245
 21
5482.667020841306
 31
0.0
 70
    32
 71
     5
 42
1079.0
  3
IGA
100
AcDbAlignedDimension
 13
2846.156955993246
 23
5101.429794629098
 33
0.0
 14
1767.156955993245
 24
3837.144075523784
 34
0.0
100
AcDbRotatedDimension
1001
ACAD
1000
DSTYLE
1002
{
1070
    40
1040
40.0
1070
   143
1040
0.039
1070
   172
1070
     1
1070
   271
1070
     4
1070
   272
1070
     4
1070
   279
1070
     1
1070
   284
1070
     0
1070
   285
1070
     0
1070
   286
1070
     0
1070
   341
1005
83F3
1070
   343
1005
83F3
1070
   344
1005
83F3
1002
}
  0
DIMENSION
  5
85E4
330
83DC
100
AcDbEntity
  8
3
100
AcDbDimension
  2
*D49
 10
1146.156955993244
 20
5607.120238149416
 30
0.0
 11
2408.656955993245
 21
5707.120238149417
 31
0.0
 70
    32
 71
     5
 42
2525.000000000002
  3
IGA
100
AcDbAlignedDimension
 13
3671.156955993246
 23
5133.144075523785
 33
0.0
 14
1146.156955993244
 24
2946.144075523783
 34
0.0
100
AcDbRotatedDimension
1001
ACAD
1000
DSTYLE
1002
{
1070
    40
1040
40.0
1070
   143
1040
0.039
1070
   172
1070
     1
1070
   271
1070
     4
1070
   272
1070
     4
1070
   279
1070
     0
1070
   284
1070
     0
1070
   285
1070
     0
1070
   286
1070
     0
1070
   341
1005
83F3
1070
   343
1005
83F3
1070
   344
1005
83F3
1002
}
  0
DIMENSION
  5
85F1
330
83DC
100
AcDbEntity
  8
3
100
AcDbDimension
  2
*D50
 10
3924.167988683201
 20
3800.144075523784
 30
0.0
 11
3824.167988683201
 21
4440.144075523784
 31
0.0
 70
    32
 71
     5
 42
1279.999999999998
  3
IGA
100
AcDbAlignedDimension
 13
3671.156955993246
 23
5080.144075523783
 33
0.0
 14
3671.156955993246
 24
3800.144075523784
 34
0.0
 50
90.0
100
AcDbRotatedDimension
1001
ACAD
1000
DSTYLE
1002
{
1070
    40
1040
40.0
1070
   143
1040
0.039
1070
   172
1070
     1
1070
   271
1070
     4
1070
   272
1070
     4
1070
   279
1070
     0
1070
   284
1070
     0
1070
   285
1070
     0
1070
   286
1070
     0
1070
   341
1005
83F3
1070
   343
1005
83F3
1070
   344
1005
83F3
1002
}
  0
DIMENSION
  5
85FE
330
83DC
100
AcDbEntity
  8
3
100
AcDbDimension
  2
*D51
 10
4170.57822273558
 20
3746.144075523783
 30
0.0
 11
4070.578222735579
 21
4413.144075523784
 31
0.0
 70
    32
 71
     5
 42
1333.999999999999
  3
IGA
100
AcDbAlignedDimension
 13
3671.156955993246
 23
5080.144075523783
 33
0.0
 14
3749.593494242097
 24
3746.144075523783
 34
0.0
 50
90.0
100
AcDbRotatedDimension
1001
ACAD
1000
DSTYLE
1002
{
1070
    40
1040
40.0
1070
   143
1040
0.039
1070
   172
1070
     1
1070
   271
1070
     4
1070
   272
1070
     4
1070
   279
1070
     0
1070
   284
1070
     0
1070
   285
1070
     0
1070
   286
1070
     0
1070
   341
1005
83F3
1070
   343
1005
83F3
1070
   344
1005
83F3
1002
}
  0
DIMENSION
  5
860B
330
83DC
100
AcDbEntity
  8
3
100
AcDbDimension
  2
*D52
 10
4170.57822273558
 20
2821.144075523783
 30
0.0
 11
4070.578222735578
 21
3283.644075523784
 31
0.0
 70
    32
 71
     5
 42
925.0
  3
IGA
100
AcDbAlignedDimension
 13
3749.593494242097
 23
3746.144075523783
 33
0.0
 14
3596.156955993246
 24
2821.144075523783
 34
0.0
 50
90.0
100
AcDbRotatedDimension
1001
ACAD
1000
DSTYLE
1002
{
1070
    40
1040
40.0
1070
   143
1040
0.039
1070
   172
1070
     1
1070
   271
1070
     4
1070
   272
1070
     4
1070
   279
1070
     1
1070
   284
1070
     0
1070
   285
1070
     0
1070
   286
1070
     0
1070
   341
1005
83F3
1070
   343
1005
83F3
1070
   344
1005
83F3
1002
}
  0
DIMENSION
  5
8618
330
83DC
100
AcDbEntity
  8
3
100
AcDbDimension
  2
*D53
 10
4170.57822273558
 20
2716.144075523784
 30
0.0
 11
4413.435365592721
 21
2920.929789809498
 31
0.0
 70
    32
  1
(<>)
 71
     5
 42
105.0
  3
IGA
100
AcDbAlignedDimension
 13
3596.156955993246
 23
2821.144075523783
 33
0.0
 14
3596.156955993246
 24
2716.144075523784
 34
0.0
 50
90.0
100
AcDbRotatedDimension
1001
ACAD
1000
DSTYLE
1002
{
1070
    40
1040
40.0
1070
   143
1040
0.039
1070
   172
1070
     1
1070
   271
1070
     4
1070
   272
1070
     4
1070
   279
1070
     1
1070
   284
1070
     0
1070
   285
1070
     0
1070
   286
1070
     0
1070
   341
1005
83F3
1070
   343
1005
83F3
1070
   344
1005
86D1
1002
}
  0
DIMENSION
  5
862A
330
83DC
100
AcDbEntity
  8
3
100
AcDbDimension
  2
*D54
 10
4170.57822273558
 20
2651.144075523783
 30
0.0
 11
4141.698880798503
 21
2474.566250603781
 31
0.0
 70
   160
 71
     5
 42
65.0
  3
IGA
100
AcDbAlignedDimension
 13
3596.156955993246
 23
2716.144075523784
 33
0.0
 14
3596.156955993246
 24
2651.144075523783
 34
0.0
 50
90.0
100
AcDbRotatedDimension
1001
ACAD
1000
DSTYLE
1002
{
1070
    40
1040
40.0
1070
   143
1040
0.039
1070
   172
1070
     1
1070
   271
1070
     4
1070
   272
1070
     4
1070
   279
1070
     1
1070
   284
1070
     0
1070
   285
1070
     0
1070
   286
1070
     0
1070
   341
1005
83F3
1070
   343
1005
86D1
1070
   344
1005
83F3
1002
}
  0
DIMENSION
  5
863C
330
83DC
100
AcDbEntity
  8
3
100
AcDbDimension
  2
*D55
 10
4656.199049861141
 20
5080.144075523783
 30
0.0
 11
4524.770478432569
 21
3865.644075523783
 31
0.0
 70
    32
  1
(<>)
 71
     5
 42
2429.0
  3
IGA
100
AcDbAlignedDimension
 13
3596.156955993246
 23
2651.144075523783
 33
0.0
 14
3671.156955993246
 24
5080.144075523783
 34
0.0
 50
90.0
100
AcDbRotatedDimension
1001
ACAD
1000
DSTYLE
1002
{
1070
    40
1040
40.0
1070
   143
1040
0.039
1070
   172
1070
     1
1070
   271
1070
     4
1070
   272
1070
     4
1070
   279
1070
     0
1070
   284
1070
     0
1070
   285
1070
     0
1070
   286
1070
     0
1070
   341
1005
83F3
1070
   343
1005
83F3
1070
   344
1005
83F3
1002
}
  0
DIMENSION
  5
873C
330
83DC
100
AcDbEntity
  8
3
100
AcDbDimension
  2
*D57
 10
2846.156955993246
 20
2430.672520342018
 30
0.0
 11
1996.156955993245
 21
2530.672520342017
 31
0.0
 70
    32
 71
     5
 42
1700.000000000001
  3
IGA
100
AcDbAlignedDimension
 13
1146.156955993244
 23
2651.144075523783
 33
0.0
 14
2846.156955993246
 24
2651.144075523783
 34
0.0
100
AcDbRotatedDimension
1001
ACAD
1000
DSTYLE
1002
{
1070
    40
1040
40.0
1070
   143
1040
0.039
1070
   172
1070
     1
1070
   271
1070
     4
1070
   272
1070
     4
1070
   279
1070
     0
1070
   284
1070
     0
1070
   285
1070
     0
1070
   286
1070
     0
1070
   341
1005
83F3
1070
   343
1005
83F3
1070
   344
1005
83F3
1002
}
  0
DIMENSION
  5
8749
330
83DC
100
AcDbEntity
  8
3
100
AcDbDimension
  2
*D58
 10
3596.156955993246
 20
2430.672520342018
 30
0.0
 11
3221.156955993246
 21
2530.672520342017
 31
0.0
 70
    32
 71
     5
 42
750.0
  3
IGA
100
AcDbAlignedDimension
 13
2846.156955993246
 23
2651.144075523783
 33
0.0
 14
3596.156955993246
 24
2651.144075523783
 34
0.0
100
AcDbRotatedDimension
1001
ACAD
1000
DSTYLE
1002
{
1070
    40
1040
40.0
1070
   143
1040
0.039
1070
   172
1070
     1
1070
   271
1070
     4
1070
   272
1070
     4
1070
   279
1070
     1
1070
   284
1070
     0
1070
   285
1070
     0
1070
   286
1070
     0
1070
   341
1005
83F3
1070
   343
1005
83F3
1070
   344
1005
83F3
1002
}
  0
ENDSEC
  0
SECTION
  2
OBJECTS
  0
DICTIONARY
  5
8379
330
0
100
AcDbDictionary
281
     1
  3
ACAD_CIP_PREVIOUS_PRODUCT_INFO
350
8423
  3
ACAD_COLOR
350
83CF
  3
ACAD_DETAILVIEWSTYLE
350
83D6
  3
ACAD_GROUP
350
837A
  3
ACAD_LAYOUT
350
83CE
  3
ACAD_MATERIAL
350
837D
  3
ACAD_MLEADERSTYLE
350
83D2
  3
ACAD_MLINESTYLE
350
83CB
  3
ACAD_PLOTSETTINGS
350
83CD
  3
ACAD_PLOTSTYLENAME
350
837B
  3
ACAD_SCALELIST
350
83AF
  3
ACAD_SECTIONVIEWSTYLE
350
83D4
  3
ACAD_TABLESTYLE
350
83D0
  3
ACAD_VISUALSTYLE
350
8396
  3
ACDB_RECOMPOSE_DATA
350
87AB
  3
AcDbVariableDictionary
350
842E
  3
DWGPROPS
350
87AC
  0
DICTIONARY
  5
8424
330
83C1
100
AcDbDictionary
280
     1
281
     1
  3
ADSK_XREC_LAYER_RECONCILED
360
8425
  0
DICTIONARY
  5
8426
330
83E0
100
AcDbDictionary
280
     1
281
     1
  3
ADSK_XREC_LAYER_RECONCILED
360
8427
  0
DICTIONARY
  5
8428
330
83E3
100
AcDbDictionary
280
     1
281
     1
  3
ADSK_XREC_LAYER_RECONCILED
360
8429
  0
DICTIONARY
  5
842A
330
83E4
100
AcDbDictionary
280
     1
281
     1
  3
ADSK_XREC_LAYER_RECONCILED
360
842B
  0
DICTIONARY
  5
842C
330
83E5
100
AcDbDictionary
280
     1
281
     1
  3
ADSK_XREC_LAYER_RECONCILED
360
842D
  0
DICTIONARY
  5
84D7
330
83DC
100
AcDbDictionary
280
     1
281
     1
  3
ACAD_SORTENTS
360
84D8
  0
XRECORD
  5
8423
102
{ACAD_REACTORS
330
8379
102
}
330
8379
100
AcDbXrecord
280
     1
300
ACDLT
300
2015
300
INVLTS_F_S
  0
DICTIONARY
  5
83CF
102
{ACAD_REACTORS
330
8379
102
}
330
8379
100
AcDbDictionary
281
     1
  0
DICTIONARY
  5
83D6
102
{ACAD_REACTORS
330
8379
102
}
330
8379
100
AcDbDictionary
281
     1
  3
Imperial24
350
83D7
  0
DICTIONARY
  5
837A
102
{ACAD_REACTORS
330
8379
102
}
330
8379
100
AcDbDictionary
281
     1
  0
DICTIONARY
  5
83CE
102
{ACAD_REACTORS
330
8379
102
}
330
8379
100
AcDbDictionary
281
     1
  3
Model
350
83DF
  3
レイアウト1
350
83DB
  0
DICTIONARY
  5
837D
102
{ACAD_REACTORS
330
8379
102
}
330
8379
100
AcDbDictionary
281
     1
  3
ByBlock
350
8386
  3
ByLayer
350
837E
  3
Global
350
838E
  0
DICTIONARY
  5
83D2
102
{ACAD_REACTORS
330
8379
102
}
330
8379
100
AcDbDictionary
281
     1
  3
Standard
350
83D3
  0
DICTIONARY
  5
83CB
102
{ACAD_REACTORS
330
8379
102
}
330
8379
100
AcDbDictionary
281
     1
  3
Standard
350
83CC
  0
DICTIONARY
  5
83CD
102
{ACAD_REACTORS
330
8379
102
}
330
8379
100
AcDbDictionary
281
     1
  0
ACDBDICTIONARYWDFLT
  5
837B
102
{ACAD_REACTORS
330
8379
102
}
330
8379
100
AcDbDictionary
281
     1
  3
Normal
350
837C
100
AcDbDictionaryWithDefault
340
837C
  0
DICTIONARY
  5
83AF
102
{ACAD_REACTORS
330
8379
102
}
330
8379
100
AcDbDictionary
281
     1
  3
A0
350
83B0
  3
A1
350
83B1
  3
A2
350
83B2
  3
A3
350
83B3
  3
A4
350
83B4
  3
A5
350
83B5
  3
A6
350
83B6
  3
A7
350
83B7
  3
A8
350
83B8
  3
A9
350
83B9
  3
B0
350
83BA
  3
B1
350
83BB
  3
B2
350
83BC
  3
B3
350
83BD
  3
B4
350
83BE
  3
B5
350
83BF
  3
B6
350
83C0
  0
DICTIONARY
  5
83D4
102
{ACAD_REACTORS
330
8379
102
}
330
8379
100
AcDbDictionary
281
     1
  3
Imperial24
350
83D5
  0
DICTIONARY
  5
83D0
102
{ACAD_REACTORS
330
8379
102
}
330
8379
100
AcDbDictionary
281
     1
  3
Standard
350
83D1
  0
DICTIONARY
  5
8396
102
{ACAD_REACTORS
330
8379
102
}
330
8379
100
AcDbDictionary
281
     1
  3
2dWireframe
350
839C
  3
Basic
350
839B
  3
Brighten
350
83A2
  3
ColorChange
350
83A6
  3
Conceptual
350
839F
  3
Dim
350
83A1
  3
EdgeColorOff
350
83AE
  3
Facepattern
350
83A5
  3
Flat
350
8397
  3
FlatWithEdges
350
8398
  3
Gouraud
350
8399
  3
GouraudWithEdges
350
839A
  3
Hidden
350
839E
  3
JitterOff
350
83AC
  3
Linepattern
350
83A4
  3
OverhangOff
350
83AD
  3
Realistic
350
83A0
  3
Shaded
350
83AB
  3
Shaded with edges
350
83AA
  3
Shades of Gray
350
83A7
  3
Sketchy
350
83A8
  3
Thicken
350
83A3
  3
Wireframe
350
839D
  3
X-Ray
350
83A9
  0
XRECORD
  5
87AB
102
{ACAD_REACTORS
330
8379
102
}
330
8379
100
AcDbXrecord
280
     1
 90
        1
330
83D1
  0
DICTIONARY
  5
842E
102
{ACAD_REACTORS
330
8379
102
}
330
8379
100
AcDbDictionary
281
     1
  3
CANNOSCALE
350
8433
  3
CMLEADERSTYLE
350
8430
  3
CTABLESTYLE
350
842F
  3
CVIEWDETAILSTYLE
350
8431
  3
CVIEWSECTIONSTYLE
350
8432
  3
DIMASSOC
350
8436
  3
INDEXCTL
350
8435
  3
SORTENTS
350
8434
  3
XCLIPFRAME
350
8437
  0
XRECORD
  5
87AC
102
{ACAD_REACTORS
330
8379
102
}
330
8379
100
AcDbXrecord
280
     1
  1
DWGPROPS COOKIE
  2

  3

  4

  6

  7

  8
yasukiyo.ogawa
  9

300
=
301
=
302
=
303
=
304
=
305
=
306
=
307
=
308
=
309
=
 40
0.0588424074074074
 41
2451897.649359722
 42
2460280.776670926
  1

 90
        0
  0
XRECORD
  5
8425
102
{ACAD_REACTORS
330
8424
102
}
330
8424
100
AcDbXrecord
280
     1
290
     1
  0
XRECORD
  5
8427
102
{ACAD_REACTORS
330
8426
102
}
330
8426
100
AcDbXrecord
280
     1
290
     1
  0
XRECORD
  5
8429
102
{ACAD_REACTORS
330
8428
102
}
330
8428
100
AcDbXrecord
280
     1
290
     1
  0
XRECORD
  5
842B
102
{ACAD_REACTORS
330
842A
102
}
330
842A
100
AcDbXrecord
280
     1
290
     1
  0
XRECORD
  5
842D
102
{ACAD_REACTORS
330
842C
102
}
330
842C
100
AcDbXrecord
280
     1
290
     1
  0
SORTENTSTABLE
  5
84D8
102
{ACAD_REACTORS
330
84D7
102
}
330
84D7
100
AcDbSortentsTable
330
83DC
331
7D00
  5
7D02
331
80AD
  5
80AF
331
809C
  5
809F
331
7D1A
  5
7D1C
331
7D11
  5
7D14
331
7C91
  5
7C93
331
7CA3
  5
7CA5
331
7CB4
  5
7CB6
331
7C3C
  5
7C3E
331
7CC5
  5
7CCA
331
7C4D
  5
7C4F
331
7CD6
  5
7CD8
331
7C6F
  5
7C72
331
7C5E
  5
7C60
331
7C2B
  5
7C2B
331
7D01
  5
7D03
331
7C81
  5
7C83
331
7C70
  5
7C73
331
80AE
  5
80B0
331
7C92
  5
7C94
331
7CA4
  5
7CA6
331
7CB5
  5
7CBD
331
7C3D
  5
7C3F
331
7CC6
  5
7CCB
331
7C4E
  5
7C50
331
7CD7
  5
7CD9
331
7C5F
  5
7C61
331
7C2C
  5
7C2C
331
7CF1
  5
7CF3
331
7CD8
  5
7CDA
331
7C60
  5
7C62
331
7D02
  5
7D04
331
7C82
  5
7C84
331
80AF
  5
814B
331
809E
  5
80A0
331
7D13
  5
7D15
331
7C93
  5
7C95
331
7CA5
  5
7CA8
331
7C3E
  5
7C40
331
7C4F
  5
7C51
331
7C2D
  5
7C2D
331
7CD9
  5
7CDB
331
7C61
  5
7C66
331
7C50
  5
7C52
331
7CF2
  5
7CF4
331
7C72
  5
7C76
331
7D03
  5
7D05
331
80B0
  5
8158
331
809F
  5
80A1
331
7D14
  5
7D16
331
7C94
  5
7C96
331
7C83
  5
7C87
331
7CA6
  5
7CA9
331
7C3F
  5
7C41
331
7C2E
  5
7C2E
331
7C40
  5
7C42
331
7CDA
  5
7CDC
331
7C62
  5
7C67
331
7C51
  5
7C53
331
7CF3
  5
7CF5
331
7C73
  5
7C77
331
7D04
  5
7D06
331
80A0
  5
80A2
331
7D15
  5
7D17
331
7C95
  5
7C97
331
7C84
  5
7C88
331
7C2F
  5
7C2F
331
7D05
  5
7D07
331
7CF4
  5
7CF6
331
7CDB
  5
7CDD
331
7CCA
  5
7CCC
331
7C52
  5
7C54
331
7C41
  5
7C43
331
80A1
  5
80A3
331
7D16
  5
7D18
331
7C30
  5
7C30
331
7C98
  5
7C9A
331
7D06
  5
7D08
331
7CF5
  5
7CF7
331
7CDC
  5
7CDE
331
7CCB
  5
7CCD
331
7C53
  5
7C55
331
7C42
  5
7C44
331
80A2
  5
80A4
331
7D17
  5
7D19
331
7C97
  5
7C99
331
7C31
  5
7C31
331
7C99
  5
7C9B
331
7CAA
  5
7CAC
331
7CDD
  5
7CDF
331
7CCC
  5
7CCE
331
7C54
  5
7C56
331
7C43
  5
7C45
331
7CF6
  5
7CF8
331
7C76
  5
7C78
331
80A3
  5
80A5
331
8092
  5
8094
331
7D07
  5
7D09
331
7C87
  5
7C89
331
7C32
  5
7C32
331
7C9A
  5
7C9C
331
7CAB
  5
7CAF
331
7CCD
  5
7CCF
331
7C55
  5
7C57
331
7C44
  5
7C46
331
7CDE
  5
7CE0
331
7C66
  5
7C68
331
7CF7
  5
7CF9
331
80A4
  5
80A6
331
8093
  5
8097
331
7D08
  5
7D0A
331
7C88
  5
7C8A
331
7C77
  5
7C79
331
7C33
  5
7C33
331
7C9B
  5
7C9D
331
7CBD
  5
7CC6
331
7C45
  5
7C47
331
7CCE
  5
7CD0
331
7C56
  5
7C58
331
7CDF
  5
7CE1
331
7CF8
  5
7CFA
331
7C78
  5
7C7A
331
80A5
  5
80A7
331
8094
  5
8098
331
7D09
  5
7D0B
331
7C89
  5
7C8B
331
7C67
  5
7C69
331
7C23
  5
7C23
331
7C9C
  5
7C9E
331
7CCF
  5
7CD1
331
7C57
  5
7C59
331
7C46
  5
7C48
331
7CE0
  5
7CE2
331
7C68
  5
7C6A
331
7CF9
  5
7CFB
331
80A6
  5
80A8
331
7D0A
  5
7D0C
331
7C8A
  5
7C8C
331
7C79
  5
7C7C
331
7C24
  5
7C24
331
7C9D
  5
7C9F
331
7CD0
  5
7CD2
331
7C58
  5
7C5D
331
7C47
  5
7C49
331
7CE1
  5
7CF1
331
7C69
  5
7C6B
331
7CFA
  5
7CFC
331
80A7
  5
80A9
331
7D0B
  5
7D0D
331
7C8B
  5
7C8D
331
7C7A
  5
7C7D
331
7C25
  5
7C25
331
80A8
  5
80AA
331
7CAF
  5
7CB1
331
7C9E
  5
7CA0
331
7CD1
  5
7CD6
331
7C59
  5
7C5E
331
7C48
  5
7C4A
331
7CFB
  5
7CFD
331
7CE2
  5
7CF2
331
7C6A
  5
7C6C
331
8097
  5
8099
331
7D0C
  5
7D0E
331
7C8C
  5
7C8E
331
7C26
  5
7C26
331
80A9
  5
80AB
331
8098
  5
809A
331
7CB0
  5
7CB2
331
7C9F
  5
7CA1
331
7CD2
  5
7CD7
331
7C49
  5
7C4B
331
7CFC
  5
7CFE
331
7C6B
  5
7C6D
331
7D0D
  5
7D0F
331
7C8D
  5
7C8F
331
7C27
  5
7C27
331
80AA
  5
80AC
331
8099
  5
809B
331
7CA0
  5
7CA2
331
7CB1
  5
7CB3
331
7CFD
  5
7CFF
331
7C6C
  5
7C6E
331
7C4A
  5
7C4C
331
7D0E
  5
7D10
331
7C8E
  5
7C90
331
7C39
  5
7C39
331
7C28
  5
7C28
331
80AB
  5
80AD
331
809A
  5
809C
331
7D18
  5
7D1A
331
7CA1
  5
7CA3
331
7CB2
  5
7CB4
331
7CFE
  5
7D00
331
7C6D
  5
7C6F
331
7C4B
  5
7C4D
331
7D0F
  5
7D11
331
7C8F
  5
7C91
331
7C3A
  5
7C3A
331
7C29
  5
7C29
331
80AC
  5
80AE
331
809B
  5
809E
331
7D19
  5
7D1B
331
7D10
  5
7D13
331
7C90
  5
7C92
331
7CA2
  5
7CA4
331
7CB3
  5
7CB5
331
7C3B
  5
7C3D
331
7CFF
  5
7D01
331
7C6E
  5
7C70
331
7C5D
  5
7C5F
331
7C4C
  5
7C4E
331
7C2A
  5
7C2A
  0
ACDBDETAILVIEWSTYLE
  5
83D7
102
{ACAD_XDICTIONARY
360
87E4
102
}
102
{ACAD_REACTORS
330
83D6
102
}
330
83D6
100
AcDbModelDocViewStyle
 70
     0
  3
Imperial24
290
     0
100
AcDbDetailViewStyle
 70
     0
 71
     0
 90
        3
 71
     1
340
83C2
 40
0.24
340
0
 40
0.24
300

 40
0.36
280
     3
 71
     2
340
83C9
 90
       25
 71
     3
340
83C2
 40
0.24
 90
        1
 40
0.75
 90
        1
300
%<\AcVar ViewType \f "%tc1">% %<\AcVar ViewDetailId>%\PSCALE %<\AcVar ViewScale \f "%sn">%
 71
     4
340
83C9
 90
       25
340
83C9
 90
       25
280
     0
  0
LAYOUT
  5
83DF
102
{ACAD_XDICTIONARY
360
87E8
102
}
102
{ACAD_REACTORS
330
83CE
102
}
330
83CE
100
AcDbPlotSettings
  1

  2
RICOH imagio MP W3600 RPCS
  4

  6

 40
0.0
 41
0.0
 42
0.0
 43
0.0
 44
0.0
 45
0.0
 46
0.0
 47
0.0
 48
0.0
 49
0.0
140
0.0
141
0.0
142
1.0
143
1.0
 70
  1712
 72
     0
 73
     0
 74
     0
  7

 75
     0
147
1.0
148
0.0
149
0.0
100
AcDbLayout
  1
Model
 70
     1
 71
     0
 10
0.0
 20
0.0
 11
12.0
 21
9.0
 12
0.0
 22
0.0
 32
0.0
 14
0.0
 24
0.0
 34
0.0
 15
0.0
 25
0.0
 35
0.0
146
0.0
 13
0.0
 23
0.0
 33
0.0
 16
1.0
 26
0.0
 36
0.0
 17
0.0
 27
1.0
 37
0.0
 76
     0
330
83DC
331
83E1
  0
LAYOUT
  5
83DB
102
{ACAD_XDICTIONARY
360
87E6
102
}
102
{ACAD_REACTORS
330
83CE
102
}
330
83CE
100
AcDbPlotSettings
  1

  2
RICOH imagio MP W3600 RPCS
  4

  6

 40
0.0
 41
0.0
 42
0.0
 43
0.0
 44
0.0
 45
0.0
 46
0.0
 47
0.0
 48
0.0
 49
0.0
140
0.0
141
0.0
142
1.0
143
1.0
 70
   688
 72
     0
 73
     0
 74
     5
  7

 75
    16
147
1.0
148
0.0
149
0.0
100
AcDbLayout
  1
レイアウト1
 70
     1
 71
     1
 10
0.0
 20
0.0
 11
12.0
 21
9.0
 12
0.0
 22
0.0
 32
0.0
 14
1.000000000000000E+20
 24
1.000000000000000E+20
 34
1.000000000000000E+20
 15
-1.000000000000000E+20
 25
-1.000000000000000E+20
 35
-1.000000000000000E+20
146
0.0
 13
0.0
 23
0.0
 33
0.0
 16
1.0
 26
0.0
 36
0.0
 17
0.0
 27
1.0
 37
0.0
 76
     0
330
83D8
  0
MATERIAL
  5
8386
102
{ACAD_XDICTIONARY
360
8387
102
}
102
{ACAD_REACTORS
330
837D
102
}
330
837D
100
AcDbMaterial
  1
ByBlock
 72
     0
 43
0.0208333333333333
 43
0.0
 43
0.0
 43
0.0
 43
0.0
 43
0.0208333333333333
 43
0.0
 43
0.0
 43
0.0
 43
0.0
 43
1.0
 43
0.0
 43
0.0
 43
0.0
 43
0.0
 43
1.0
 77
     0
 47
0.0208333333333333
 47
0.0
 47
0.0
 47
0.0
 47
0.0
 47
0.0208333333333333
 47
0.0
 47
0.0
 47
0.0
 47
0.0
 47
1.0
 47
0.0
 47
0.0
 47
0.0
 47
0.0
 47
1.0
171
     0
 49
0.0208333333333333
 49
0.0
 49
0.0
 49
0.0
 49
0.0
 49
0.0208333333333333
 49
0.0
 49
0.0
 49
0.0
 49
0.0
 49
1.0
 49
0.0
 49
0.0
 49
0.0
 49
0.0
 49
1.0
175
     0
142
0.0208333333333333
142
0.0
142
0.0
142
0.0
142
0.0
142
0.0208333333333333
142
0.0
142
0.0
142
0.0
142
0.0
142
1.0
142
0.0
142
0.0
142
0.0
142
0.0
142
1.0
179
     0
144
0.0208333333333333
144
0.0
144
0.0
144
0.0
144
0.0
144
0.0208333333333333
144
0.0
144
0.0
144
0.0
144
0.0
144
1.0
144
0.0
144
0.0
144
0.0
144
0.0
144
1.0
147
0.0208333333333333
147
0.0
147
0.0
147
0.0
147
0.0
147
0.0208333333333333
147
0.0
147
0.0
147
0.0
147
0.0
147
1.0
147
0.0
147
0.0
147
0.0
147
0.0
147
1.0
  0
MATERIAL
  5
837E
102
{ACAD_XDICTIONARY
360
837F
102
}
102
{ACAD_REACTORS
330
837D
102
}
330
837D
100
AcDbMaterial
  1
ByLayer
 72
     0
 43
0.0208333333333333
 43
0.0
 43
0.0
 43
0.0
 43
0.0
 43
0.0208333333333333
 43
0.0
 43
0.0
 43
0.0
 43
0.0
 43
1.0
 43
0.0
 43
0.0
 43
0.0
 43
0.0
 43
1.0
 77
     0
 47
0.0208333333333333
 47
0.0
 47
0.0
 47
0.0
 47
0.0
 47
0.0208333333333333
 47
0.0
 47
0.0
 47
0.0
 47
0.0
 47
1.0
 47
0.0
 47
0.0
 47
0.0
 47
0.0
 47
1.0
171
     0
 49
0.0208333333333333
 49
0.0
 49
0.0
 49
0.0
 49
0.0
 49
0.0208333333333333
 49
0.0
 49
0.0
 49
0.0
 49
0.0
 49
1.0
 49
0.0
 49
0.0
 49
0.0
 49
0.0
 49
1.0
175
     0
142
0.0208333333333333
142
0.0
142
0.0
142
0.0
142
0.0
142
0.0208333333333333
142
0.0
142
0.0
142
0.0
142
0.0
142
1.0
142
0.0
142
0.0
142
0.0
142
0.0
142
1.0
179
     0
144
0.0208333333333333
144
0.0
144
0.0
144
0.0
144
0.0
144
0.0208333333333333
144
0.0
144
0.0
144
0.0
144
0.0
144
1.0
144
0.0
144
0.0
144
0.0
144
0.0
144
1.0
147
0.0208333333333333
147
0.0
147
0.0
147
0.0
147
0.0
147
0.0208333333333333
147
0.0
147
0.0
147
0.0
147
0.0
147
1.0
147
0.0
147
0.0
147
0.0
147
0.0
147
1.0
  0
MATERIAL
  5
838E
102
{ACAD_XDICTIONARY
360
838F
102
}
102
{ACAD_REACTORS
330
837D
102
}
330
837D
100
AcDbMaterial
  1
Global
 72
     0
 43
0.0208333333333333
 43
0.0
 43
0.0
 43
0.0
 43
0.0
 43
0.0208333333333333
 43
0.0
 43
0.0
 43
0.0
 43
0.0
 43
1.0
 43
0.0
 43
0.0
 43
0.0
 43
0.0
 43
1.0
 77
     0
 47
0.0208333333333333
 47
0.0
 47
0.0
 47
0.0
 47
0.0
 47
0.0208333333333333
 47
0.0
 47
0.0
 47
0.0
 47
0.0
 47
1.0
 47
0.0
 47
0.0
 47
0.0
 47
0.0
 47
1.0
171
     0
 49
0.0208333333333333
 49
0.0
 49
0.0
 49
0.0
 49
0.0
 49
0.0208333333333333
 49
0.0
 49
0.0
 49
0.0
 49
0.0
 49
1.0
 49
0.0
 49
0.0
 49
0.0
 49
0.0
 49
1.0
175
     0
142
0.0208333333333333
142
0.0
142
0.0
142
0.0
142
0.0
142
0.0208333333333333
142
0.0
142
0.0
142
0.0
142
0.0
142
1.0
142
0.0
142
0.0
142
0.0
142
0.0
142
1.0
179
     0
144
0.0208333333333333
144
0.0
144
0.0
144
0.0
144
0.0
144
0.0208333333333333
144
0.0
144
0.0
144
0.0
144
0.0
144
1.0
144
0.0
144
0.0
144
0.0
144
0.0
144
1.0
147
0.0208333333333333
147
0.0
147
0.0
147
0.0
147
0.0
147
0.0208333333333333
147
0.0
147
0.0
147
0.0
147
0.0
147
1.0
147
0.0
147
0.0
147
0.0
147
0.0
147
1.0
  0
MLEADERSTYLE
  5
83D3
102
{ACAD_REACTORS
330
83D2
102
}
330
83D2
100
AcDbMLeaderStyle
170
     2
171
     1
172
     0
 90
        2
 40
0.0
 41
0.0
173
     1
 91
-1056964608
340
83C7
 92
       -2
290
     1
 42
0.09
291
     1
 43
0.36
  3
Standard
 44
0.18
300

342
83C2
174
     1
178
     6
175
     1
176
     0
 93
-1056964608
 45
0.18
292
     0
297
     0
 46
0.18
 94
-1056964608
 47
1.0
 49
1.0
140
1.0
293
     1
141
0.0
294
     1
177
     0
142
1.0
295
     0
296
     0
143
0.125
1001
ACAD_MLEADERVER
1070
     2
  0
MLINESTYLE
  5
83CC
102
{ACAD_REACTORS
330
83CB
102
}
330
83CB
100
AcDbMlineStyle
  2
STANDARD
 70
     0
  3

 62
   256
 51
90.0
 52
90.0
 71
     2
 49
0.5
 62
   256
  6
BYLAYER
 49
-0.5
 62
   256
  6
BYLAYER
  0
ACDBPLACEHOLDER
  5
837C
102
{ACAD_REACTORS
330
837B
102
}
330
837B
  0
SCALE
  5
83B0
102
{ACAD_REACTORS
330
83AF
102
}
330
83AF
100
AcDbScale
 70
     0
300
1:1
140
1.0
141
1.0
290
     1
  0
SCALE
  5
83B1
102
{ACAD_REACTORS
330
83AF
102
}
330
83AF
100
AcDbScale
 70
     0
300
1/128" = 1'-0"
140
0.0078125
141
12.0
290
     0
  0
SCALE
  5
83B2
102
{ACAD_REACTORS
330
83AF
102
}
330
83AF
100
AcDbScale
 70
     0
300
1/64" = 1'-0"
140
0.015625
141
12.0
290
     0
  0
SCALE
  5
83B3
102
{ACAD_REACTORS
330
83AF
102
}
330
83AF
100
AcDbScale
 70
     0
300
1/32" = 1'-0"
140
0.03125
141
12.0
290
     0
  0
SCALE
  5
83B4
102
{ACAD_REACTORS
330
83AF
102
}
330
83AF
100
AcDbScale
 70
     0
300
1/16" = 1'-0"
140
0.0625
141
12.0
290
     0
  0
SCALE
  5
83B5
102
{ACAD_REACTORS
330
83AF
102
}
330
83AF
100
AcDbScale
 70
     0
300
3/32" = 1'-0"
140
0.09375
141
12.0
290
     0
  0
SCALE
  5
83B6
102
{ACAD_REACTORS
330
83AF
102
}
330
83AF
100
AcDbScale
 70
     0
300
1/8" = 1'-0"
140
0.125
141
12.0
290
     0
  0
SCALE
  5
83B7
102
{ACAD_REACTORS
330
83AF
102
}
330
83AF
100
AcDbScale
 70
     0
300
3/16" = 1'-0"
140
0.1875
141
12.0
290
     0
  0
SCALE
  5
83B8
102
{ACAD_REACTORS
330
83AF
102
}
330
83AF
100
AcDbScale
 70
     0
300
1/4" = 1'-0"
140
0.25
141
12.0
290
     0
  0
SCALE
  5
83B9
102
{ACAD_REACTORS
330
83AF
102
}
330
83AF
100
AcDbScale
 70
     0
300
3/8" = 1'-0"
140
0.375
141
12.0
290
     0
  0
SCALE
  5
83BA
102
{ACAD_REACTORS
330
83AF
102
}
330
83AF
100
AcDbScale
 70
     0
300
1/2" = 1'-0"
140
0.5
141
12.0
290
     0
  0
SCALE
  5
83BB
102
{ACAD_REACTORS
330
83AF
102
}
330
83AF
100
AcDbScale
 70
     0
300
3/4" = 1'-0"
140
0.75
141
12.0
290
     0
  0
SCALE
  5
83BC
102
{ACAD_REACTORS
330
83AF
102
}
330
83AF
100
AcDbScale
 70
     0
300
1" = 1'-0"
140
1.0
141
12.0
290
     0
  0
SCALE
  5
83BD
102
{ACAD_REACTORS
330
83AF
102
}
330
83AF
100
AcDbScale
 70
     0
300
1-1/2" = 1'-0"
140
1.5
141
12.0
290
     0
  0
SCALE
  5
83BE
102
{ACAD_REACTORS
330
83AF
102
}
330
83AF
100
AcDbScale
 70
     0
300
3" = 1'-0"
140
3.0
141
12.0
290
     0
  0
SCALE
  5
83BF
102
{ACAD_REACTORS
330
83AF
102
}
330
83AF
100
AcDbScale
 70
     0
300
6" = 1'-0"
140
6.0
141
12.0
290
     0
  0
SCALE
  5
83C0
102
{ACAD_REACTORS
330
83AF
102
}
330
83AF
100
AcDbScale
 70
     0
300
1'-0" = 1'-0"
140
12.0
141
12.0
290
     0
  0
ACDBSECTIONVIEWSTYLE
  5
83D5
102
{ACAD_XDICTIONARY
360
87E2
102
}
102
{ACAD_REACTORS
330
83D4
102
}
330
83D4
100
AcDbModelDocViewStyle
 70
     0
  3
Imperial24
290
     0
100
AcDbSectionViewStyle
 70
     0
 71
     0
 90
       78
 71
     1
340
83C2
 40
0.24
340
0
340
0
 40
0.24
300
I, O, Q, S, X, Z
 40
0.48
 90
        3
 40
0.18
 90
        1
 71
     2
340
83C9
 90
       25
340
83C9
 90
       50
 40
0.24
 40
0.0
 40
0.24
 71
     3
340
83C2
 40
0.24
 90
        1
 40
0.75
 90
        1
300
%<\AcVar ViewType \f "%tc1">% %<\AcVar ViewSectionStartId>%-%<\AcVar ViewSectionEndId>%\PSCALE %<\AcVar ViewScale \f "%sn">%
 71
     4
300
ANSI31
 40
1.0
 90
        0
290
     0
290
     0
 90
        6
 40
0.0
 40
1.570796326794896
 40
0.2617993877991494
 40
1.308996938995747
 40
-0.2617993877991494
 40
1.832595714594046
  0
TABLESTYLE
  5
83D1
102
{ACAD_XDICTIONARY
360
87A9
102
}
102
{ACAD_REACTORS
330
83D0
102
}
330
83D0
100
AcDbTableStyle
  3
Standard
 70
     0
 71
     0
 40
0.06
 41
0.06
280
     0
281
     0
  7
STANDARD
140
0.18
170
     2
 62
     0
 63
     7
283
     0
274
    -2
284
     1
 64
     0
275
    -2
285
     1
 65
     0
276
    -2
286
     1
 66
     0
277
    -2
287
     1
 67
     0
278
    -2
288
     1
 68
     0
279
    -2
289
     1
 69
     0
  7
STANDARD
140
0.25
170
     5
 62
     0
 63
     7
283
     0
274
    -2
284
     1
 64
     0
275
    -2
285
     1
 65
     0
276
    -2
286
     1
 66
     0
277
    -2
287
     1
 67
     0
278
    -2
288
     1
 68
     0
279
    -2
289
     1
 69
     0
  7
STANDARD
140
0.18
170
     5
 62
     0
 63
     7
283
     0
274
    -2
284
     1
 64
     0
275
    -2
285
     1
 65
     0
276
    -2
286
     1
 66
     0
277
    -2
287
     1
 67
     0
278
    -2
288
     1
 68
     0
279
    -2
289
     1
 69
     0
  0
VISUALSTYLE
  5
839C
102
{ACAD_XDICTIONARY
360
87BA
102
}
102
{ACAD_REACTORS
330
8396
102
}
330
8396
100
AcDbVisualStyle
  2
2dWireframe
 70
     4
 71
     0
 72
     2
 73
     0
 90
        0
 40
-0.6
 41
-30.0
 62
     5
 63
     7
 74
     1
 91
        4
 64
     7
 65
   257
 75
     1
175
     1
 42
1.0
 92
        0
 66
   257
 43
1.0
 76
     1
 77
     6
 78
     2
 67
     7
 79
     5
170
     0
171
     0
290
     0
174
     0
 93
        1
 44
0.0
173
     0
291
     0
 45
0.0
1001
ACAD
1000
AcDbSavedByObjectVersion
1070
     0
  0
VISUALSTYLE
  5
839B
102
{ACAD_XDICTIONARY
360
87B8
102
}
102
{ACAD_REACTORS
330
8396
102
}
330
8396
100
AcDbVisualStyle
  2
Basic
 70
     7
 71
     1
 72
     0
 73
     1
 90
        0
 40
-0.6
 41
-30.0
 62
     5
 63
     7
 74
     0
 91
        4
 64
     7
 65
   257
 75
     1
175
     1
 42
1.0
 92
        8
 66
     7
 43
1.0
 76
     1
 77
     6
 78
     2
 67
     7
 79
     5
170
     0
171
     0
290
     0
174
     0
 93
        1
 44
0.0
173
     0
291
     1
 45
0.0
1001
ACAD
1000
AcDbSavedByObjectVersion
1070
     0
  0
VISUALSTYLE
  5
83A2
102
{ACAD_XDICTIONARY
360
87C6
102
}
102
{ACAD_REACTORS
330
8396
102
}
330
8396
100
AcDbVisualStyle
  2
Brighten
 70
    12
 71
     2
 72
     2
 73
     0
 90
        0
 40
-0.6
 41
-30.0
 62
     5
 63
     7
 74
     1
 91
        4
 64
     7
 65
   257
 75
     1
175
     1
 42
1.0
 92
        8
 66
     7
 43
1.0
 76
     1
 77
     6
 78
     2
 67
     7
 79
     5
170
     0
171
     0
290
     0
174
     0
 93
        1
 44
50.0
173
     0
291
     1
 45
0.0
1001
ACAD
1000
AcDbSavedByObjectVersion
1070
     0
  0
VISUALSTYLE
  5
83A6
102
{ACAD_XDICTIONARY
360
87CE
102
}
102
{ACAD_REACTORS
330
8396
102
}
330
8396
100
AcDbVisualStyle
  2
ColorChange
 70
    16
 71
     2
 72
     2
 73
     3
 90
        0
 40
-0.6
 41
-30.0
 62
     5
 63
     8
 74
     1
 91
        4
 64
     7
 65
   257
 75
     1
175
     1
 42
1.0
 92
        8
 66
     8
 43
1.0
 76
     1
 77
     6
 78
     2
 67
     7
 79
     5
170
     0
171
     0
290
     0
174
     0
 93
        1
 44
0.0
173
     0
291
     1
 45
0.0
1001
ACAD
1000
AcDbSavedByObjectVersion
1070
     0
  0
VISUALSTYLE
  5
839F
102
{ACAD_XDICTIONARY
360
87C0
102
}
102
{ACAD_REACTORS
330
8396
102
}
330
8396
100
AcDbVisualStyle
  2
Conceptual
 70
     9
 71
     3
 72
     2
 73
     0
 90
        0
 40
-0.6
 41
-30.0
 62
     5
 63
     7
 74
     2
 91
        2
 64
     7
 65
   257
 75
     1
175
     1
 42
179.0
 92
        8
 66
     7
 43
1.0
 76
     1
 77
     6
 78
     2
 67
     7
 79
     3
170
     0
171
     0
290
     0
174
     0
 93
        1
 44
0.0
173
     0
291
     0
 45
0.0
1001
ACAD
1000
AcDbSavedByObjectVersion
1070
     0
  0
VISUALSTYLE
  5
83A1
102
{ACAD_XDICTIONARY
360
87C4
102
}
102
{ACAD_REACTORS
330
8396
102
}
330
8396
100
AcDbVisualStyle
  2
Dim
 70
    11
 71
     2
 72
     2
 73
     0
 90
        0
 40
-0.6
 41
-30.0
 62
     5
 63
     7
 74
     1
 91
        4
 64
     7
 65
   257
 75
     1
175
     1
 42
1.0
 92
        8
 66
     7
 43
1.0
 76
     1
 77
     6
 78
     2
 67
     7
 79
     5
170
     0
171
     0
290
     0
174
     0
 93
        1
 44
-50.0
173
     0
291
     1
 45
0.0
1001
ACAD
1000
AcDbSavedByObjectVersion
1070
     0
  0
VISUALSTYLE
  5
83AE
102
{ACAD_XDICTIONARY
360
87DE
102
}
102
{ACAD_REACTORS
330
8396
102
}
330
8396
100
AcDbVisualStyle
  2
EdgeColorOff
 70
    22
 71
     2
 72
     2
 73
     0
 90
        0
 40
-0.6
 41
-30.0
 62
     5
 63
     7
 74
     1
 91
        4
 64
     7
 65
   257
 75
     1
175
     1
 42
1.0
 92
        8
 66
     7
 43
1.0
 76
     1
 77
     6
 78
     2
 67
     7
 79
     5
170
     0
171
     0
290
     0
174
     0
 93
        1
 44
0.0
173
     0
291
     1
 45
0.0
1001
ACAD
1000
AcDbSavedByObjectVersion
1070
     0
  0
VISUALSTYLE
  5
83A5
102
{ACAD_XDICTIONARY
360
87CC
102
}
102
{ACAD_REACTORS
330
8396
102
}
330
8396
100
AcDbVisualStyle
  2
Facepattern
 70
    15
 71
     2
 72
     2
 73
     0
 90
        0
 40
-0.6
 41
-30.0
 62
     5
 63
     7
 74
     1
 91
        4
 64
     7
 65
   257
 75
     1
175
     1
 42
1.0
 92
        8
 66
     7
 43
1.0
 76
     1
 77
     6
 78
     2
 67
     7
 79
     5
170
     0
171
     0
290
     0
174
     0
 93
        1
 44
0.0
173
     0
291
     1
 45
0.0
1001
ACAD
1000
AcDbSavedByObjectVersion
1070
     0
  0
VISUALSTYLE
  5
8397
102
{ACAD_XDICTIONARY
360
87B0
102
}
102
{ACAD_REACTORS
330
8396
102
}
330
8396
100
AcDbVisualStyle
  2
Flat
 70
     0
 71
     2
 72
     1
 73
     1
 90
        2
 40
-0.6
 41
30.0
 62
     5
 63
     7
 74
     0
 91
        0
 64
     7
 65
   257
 75
     1
175
     1
 42
1.0
 92
        8
 66
     7
 43
1.0
 76
     1
 77
     6
 78
     2
 67
     7
 79
     5
170
     0
171
     0
290
     0
174
     0
 93
       13
 44
0.0
173
     0
291
     1
 45
0.0
1001
ACAD
1000
AcDbSavedByObjectVersion
1070
     0
  0
VISUALSTYLE
  5
8398
102
{ACAD_XDICTIONARY
360
87B2
102
}
102
{ACAD_REACTORS
330
8396
102
}
330
8396
100
AcDbVisualStyle
  2
FlatWithEdges
 70
     1
 71
     2
 72
     1
 73
     1
 90
        2
 40
-0.6
 41
30.0
 62
     5
 63
     7
 74
     1
 91
        0
 64
     7
 65
   257
 75
     1
175
     1
 42
1.0
 92
        0
 66
   257
 43
1.0
 76
     1
 77
     6
 78
     2
 67
     7
 79
     5
170
     0
171
     0
290
     0
174
     0
 93
       13
 44
0.0
173
     0
291
     1
 45
0.0
1001
ACAD
1000
AcDbSavedByObjectVersion
1070
     0
  0
VISUALSTYLE
  5
8399
102
{ACAD_XDICTIONARY
360
87B4
102
}
102
{ACAD_REACTORS
330
8396
102
}
330
8396
100
AcDbVisualStyle
  2
Gouraud
 70
     2
 71
     2
 72
     2
 73
     1
 90
        2
 40
-0.6
 41
30.0
 62
     5
 63
     7
 74
     0
 91
        0
 64
     7
 65
   257
 75
     1
175
     1
 42
1.0
 92
        0
 66
     7
 43
1.0
 76
     1
 77
     6
 78
     2
 67
     7
 79
     5
170
     0
171
     0
290
     0
174
     0
 93
       13
 44
0.0
173
     0
291
     1
 45
0.0
1001
ACAD
1000
AcDbSavedByObjectVersion
1070
     0
  0
VISUALSTYLE
  5
839A
102
{ACAD_XDICTIONARY
360
87B6
102
}
102
{ACAD_REACTORS
330
8396
102
}
330
8396
100
AcDbVisualStyle
  2
GouraudWithEdges
 70
     3
 71
     2
 72
     2
 73
     1
 90
        2
 40
-0.6
 41
30.0
 62
     5
 63
     7
 74
     1
 91
        0
 64
     7
 65
   257
 75
     1
175
     1
 42
1.0
 92
        0
 66
   257
 43
1.0
 76
     1
 77
     6
 78
     2
 67
     7
 79
     5
170
     0
171
     0
290
     0
174
     0
 93
       13
 44
0.0
173
     0
291
     1
 45
0.0
1001
ACAD
1000
AcDbSavedByObjectVersion
1070
     0
  0
VISUALSTYLE
  5
839E
102
{ACAD_XDICTIONARY
360
87BE
102
}
102
{ACAD_REACTORS
330
8396
102
}
330
8396
100
AcDbVisualStyle
  2
Hidden
 70
     6
 71
     1
 72
     2
 73
     2
 90
        0
 40
-0.6
 41
-30.0
 62
     5
 63
     7
 74
     2
 91
        2
 64
     7
 65
   257
 75
     2
175
     1
 42
40.0
 92
        0
 66
   257
 43
1.0
 76
     1
 77
     6
 78
     2
 67
     7
 79
     3
170
     0
171
     0
290
     0
174
     0
 93
        1
 44
0.0
173
     0
291
     0
 45
0.0
1001
ACAD
1000
AcDbSavedByObjectVersion
1070
     0
  0
VISUALSTYLE
  5
83AC
102
{ACAD_XDICTIONARY
360
87DA
102
}
102
{ACAD_REACTORS
330
8396
102
}
330
8396
100
AcDbVisualStyle
  2
JitterOff
 70
    20
 71
     2
 72
     2
 73
     0
 90
        0
 40
-0.6
 41
-30.0
 62
     5
 63
     7
 74
     1
 91
        4
 64
     7
 65
   257
 75
     1
175
     1
 42
1.0
 92
       10
 66
     7
 43
1.0
 76
     1
 77
     6
 78
     2
 67
     7
 79
     5
170
     0
171
     0
290
     0
174
     0
 93
        1
 44
0.0
173
     0
291
     1
 45
0.0
1001
ACAD
1000
AcDbSavedByObjectVersion
1070
     0
  0
VISUALSTYLE
  5
83A4
102
{ACAD_XDICTIONARY
360
87CA
102
}
102
{ACAD_REACTORS
330
8396
102
}
330
8396
100
AcDbVisualStyle
  2
Linepattern
 70
    14
 71
     2
 72
     2
 73
     0
 90
        0
 40
-0.6
 41
-30.0
 62
     5
 63
     7
 74
     1
 91
        4
 64
     7
 65
   257
 75
     7
175
     7
 42
1.0
 92
        8
 66
     7
 43
1.0
 76
     1
 77
     6
 78
     2
 67
     7
 79
     5
170
     0
171
     0
290
     0
174
     0
 93
        1
 44
0.0
173
     0
291
     1
 45
0.0
1001
ACAD
1000
AcDbSavedByObjectVersion
1070
     0
  0
VISUALSTYLE
  5
83AD
102
{ACAD_XDICTIONARY
360
87DC
102
}
102
{ACAD_REACTORS
330
8396
102
}
330
8396
100
AcDbVisualStyle
  2
OverhangOff
 70
    21
 71
     2
 72
     2
 73
     0
 90
        0
 40
-0.6
 41
-30.0
 62
     5
 63
     7
 74
     1
 91
        4
 64
     7
 65
   257
 75
     1
175
     1
 42
1.0
 92
        9
 66
     7
 43
1.0
 76
     1
 77
     6
 78
     2
 67
     7
 79
     5
170
     0
171
     0
290
     0
174
     0
 93
        1
 44
0.0
173
     0
291
     1
 45
0.0
1001
ACAD
1000
AcDbSavedByObjectVersion
1070
     0
  0
VISUALSTYLE
  5
83A0
102
{ACAD_XDICTIONARY
360
87C2
102
}
102
{ACAD_REACTORS
330
8396
102
}
330
8396
100
AcDbVisualStyle
  2
Realistic
 70
     8
 71
     2
 72
     3
 73
     0
 90
        2
 40
-0.6
 41
30.0
 62
     5
 63
     7
 74
     0
 91
        0
 64
     7
 65
   257
 75
     1
175
     1
 42
1.0
 92
        8
 66
   257
 43
1.0
 76
     1
 77
     6
 78
     2
 67
     7
 79
     3
170
     0
171
     0
290
     0
174
     0
 93
       13
 44
0.0
173
     0
291
     0
 45
0.0
1001
ACAD
1000
AcDbSavedByObjectVersion
1070
     0
  0
VISUALSTYLE
  5
83AB
102
{ACAD_XDICTIONARY
360
87D8
102
}
102
{ACAD_REACTORS
330
8396
102
}
330
8396
100
AcDbVisualStyle
  2
Shaded
 70
    27
 71
     2
 72
     2
 73
     1
 90
        2
 40
-0.6
 41
30.0
 62
     5
 63
     7
 74
     0
 91
        4
 64
     7
 65
   257
 75
     1
175
     1
 42
1.0
 92
        8
 66
   257
 43
1.0
 76
     1
 77
     6
 78
     2
 67
     8
 79
     3
170
     0
171
     0
290
     0
174
     0
 93
        5
 44
0.0
173
     0
291
     0
 45
0.0
1001
ACAD
1000
AcDbSavedByObjectVersion
1070
     0
  0
VISUALSTYLE
  5
83AA
102
{ACAD_XDICTIONARY
360
87D6
102
}
102
{ACAD_REACTORS
330
8396
102
}
330
8396
100
AcDbVisualStyle
  2
Shaded with edges
 70
    26
 71
     2
 72
     2
 73
     1
 90
        2
 40
-0.6
 41
30.0
 62
     5
 63
     7
 74
     1
 91
       10
 64
     7
 65
   257
 75
     2
175
     1
 42
1.0
 92
        8
 66
   257
 43
1.0
 76
     1
 77
     6
 78
     2
 67
     7
 79
     3
170
     0
171
     0
290
     0
174
     0
 93
        5
 44
0.0
173
     0
291
     0
 45
0.0
1001
ACAD
1000
AcDbSavedByObjectVersion
1070
     0
  0
VISUALSTYLE
  5
83A7
102
{ACAD_XDICTIONARY
360
87D0
102
}
102
{ACAD_REACTORS
330
8396
102
}
330
8396
100
AcDbVisualStyle
  2
Shades of Gray
 70
    23
 71
     2
 72
     2
 73
     3
 90
        0
 40
-0.6
 41
-30.0
 62
     5
 63
     7
 74
     2
 91
        2
 64
     7
 65
     7
 75
     1
175
     1
 42
40.0
 92
        8
 66
     7
 43
1.0
 76
     1
 77
     6
 78
     2
 67
     7
 79
     3
170
     0
171
     0
290
     0
174
     0
 93
        1
 44
0.0
173
     0
291
     0
 45
0.0
1001
ACAD
1000
AcDbSavedByObjectVersion
1070
     0
  0
VISUALSTYLE
  5
83A8
102
{ACAD_XDICTIONARY
360
87D2
102
}
102
{ACAD_REACTORS
330
8396
102
}
330
8396
100
AcDbVisualStyle
  2
Sketchy
 70
    24
 71
     1
 72
     2
 73
     2
 90
        0
 40
-0.6
 41
-30.0
 62
     5
 63
     7
 74
     2
 91
        2
 64
     7
 65
     7
 75
     1
175
     1
 42
40.0
 92
       11
 66
     7
 43
1.0
 76
     1
 77
     6
 78
     2
 67
     7
 79
     6
170
     0
171
     0
290
     0
174
     0
 93
        1
 44
0.0
173
     0
291
     0
 45
0.0
1001
ACAD
1000
AcDbSavedByObjectVersion
1070
     0
  0
VISUALSTYLE
  5
83A3
102
{ACAD_XDICTIONARY
360
87C8
102
}
102
{ACAD_REACTORS
330
8396
102
}
330
8396
100
AcDbVisualStyle
  2
Thicken
 70
    13
 71
     2
 72
     2
 73
     0
 90
        0
 40
-0.6
 41
-30.0
 62
     5
 63
     7
 74
     1
 91
        4
 64
     7
 65
   257
 75
     1
175
     1
 42
1.0
 92
       12
 66
     7
 43
1.0
 76
     1
 77
     6
 78
     2
 67
     7
 79
     5
170
     0
171
     0
290
     0
174
     0
 93
        1
 44
0.0
173
     0
291
     1
 45
0.0
1001
ACAD
1000
AcDbSavedByObjectVersion
1070
     0
  0
VISUALSTYLE
  5
839D
102
{ACAD_XDICTIONARY
360
87BC
102
}
102
{ACAD_REACTORS
330
8396
102
}
330
8396
100
AcDbVisualStyle
  2
Wireframe
 70
     5
 71
     0
 72
     2
 73
     0
 90
        0
 40
-0.6
 41
-30.0
 62
     5
 63
     7
 74
     1
 91
        4
 64
     7
 65
   257
 75
     1
175
     1
 42
1.0
 92
        0
 66
   257
 43
1.0
 76
     1
 77
     6
 78
     2
 67
     7
 79
     3
170
     0
171
     0
290
     0
174
     0
 93
        1
 44
0.0
173
     0
291
     0
 45
0.0
1001
ACAD
1000
AcDbSavedByObjectVersion
1070
     0
  0
VISUALSTYLE
  5
83A9
102
{ACAD_XDICTIONARY
360
87D4
102
}
102
{ACAD_REACTORS
330
8396
102
}
330
8396
100
AcDbVisualStyle
  2
X-Ray
 70
    25
 71
     2
 72
     2
 73
     1
 90
        1
 40
0.5
 41
-30.0
 62
     5
 63
     7
 74
     1
 91
        0
 64
     7
 65
   257
 75
     1
175
     1
 42
1.0
 92
        8
 66
     7
 43
1.0
 76
     1
 77
     6
 78
     2
 67
     7
 79
     3
170
     0
171
     0
290
     0
174
     0
 93
       13
 44
0.0
173
     0
291
     0
 45
0.0
1001
ACAD
1000
AcDbSavedByObjectVersion
1070
     0
  0
DICTIONARYVAR
  5
8433
102
{ACAD_REACTORS
330
842E
102
}
330
842E
100
DictionaryVariables
280
     0
  1
1:1
  0
DICTIONARYVAR
  5
8430
102
{ACAD_REACTORS
330
842E
102
}
330
842E
100
DictionaryVariables
280
     0
  1
STANDARD
  0
DICTIONARYVAR
  5
842F
102
{ACAD_REACTORS
330
842E
102
}
330
842E
100
DictionaryVariables
280
     0
  1
STANDARD
  0
DICTIONARYVAR
  5
8431
102
{ACAD_REACTORS
330
842E
102
}
330
842E
100
DictionaryVariables
280
     0
  1
Imperial24
  0
DICTIONARYVAR
  5
8432
102
{ACAD_REACTORS
330
842E
102
}
330
842E
100
DictionaryVariables
280
     0
  1
Imperial24
  0
DICTIONARYVAR
  5
8436
102
{ACAD_REACTORS
330
842E
102
}
330
842E
100
DictionaryVariables
280
     0
  1
1
  0
DICTIONARYVAR
  5
8435
102
{ACAD_REACTORS
330
842E
102
}
330
842E
100
DictionaryVariables
280
     0
  1
0
  0
DICTIONARYVAR
  5
8434
102
{ACAD_REACTORS
330
842E
102
}
330
842E
100
DictionaryVariables
280
     0
  1
127
  0
DICTIONARYVAR
  5
8437
102
{ACAD_REACTORS
330
842E
102
}
330
842E
100
DictionaryVariables
280
     0
  1
2
  0
DICTIONARY
  5
87E4
330
83D7
100
AcDbDictionary
280
     1
281
     1
  3
ACAD_XREC_ROUNDTRIP
360
87E5
  0
DICTIONARY
  5
87E8
330
83DF
100
AcDbDictionary
280
     1
281
     1
  3
ACAD_XREC_ROUNDTRIP
360
87E9
  0
DICTIONARY
  5
87E6
330
83DB
100
AcDbDictionary
280
     1
281
     1
  3
ACAD_XREC_ROUNDTRIP
360
87E7
  0
DICTIONARY
  5
8387
330
8386
100
AcDbDictionary
280
     1
281
     1
  3
ACAD_XREC_ROUNDTRIP
360
87AE
  3
BUMPTILE
360
8389
  3
DIFFUSETILE
360
8388
  3
OPACITYTILE
360
838C
  3
REFLECTIONTILE
360
838B
  3
REFRACTIONTILE
360
838D
  3
SPECULARTILE
360
838A
  0
DICTIONARY
  5
837F
330
837E
100
AcDbDictionary
280
     1
281
     1
  3
ACAD_XREC_ROUNDTRIP
360
87AD
  3
BUMPTILE
360
8381
  3
DIFFUSETILE
360
8380
  3
OPACITYTILE
360
8384
  3
REFLECTIONTILE
360
8383
  3
REFRACTIONTILE
360
8385
  3
SPECULARTILE
360
8382
  0
DICTIONARY
  5
838F
330
838E
100
AcDbDictionary
280
     1
281
     1
  3
ACAD_XREC_ROUNDTRIP
360
87AF
  3
BUMPTILE
360
8391
  3
DIFFUSETILE
360
8390
  3
FBXASSET
360
84D3
  3
OPACITYTILE
360
8394
  3
REFLECTIONTILE
360
8393
  3
REFRACTIONTILE
360
8395
  3
SPECULARTILE
360
8392
  0
DICTIONARY
  5
87E2
330
83D5
100
AcDbDictionary
280
     1
281
     1
  3
ACAD_XREC_ROUNDTRIP
360
87E3
  0
DICTIONARY
  5
87A9
330
83D1
100
AcDbDictionary
280
     1
281
     1
  3
ACAD_ROUNDTRIP_2008_TABLESTYLE_CELLSTYLEMAP
360
87AA
  3
ACAD_XREC_ROUNDTRIP
360
87E0
  0
DICTIONARY
  5
87BA
330
839C
100
AcDbDictionary
280
     1
281
     1
  3
ACAD_XREC_ROUNDTRIP
360
87BB
  0
DICTIONARY
  5
87B8
330
839B
100
AcDbDictionary
280
     1
281
     1
  3
ACAD_XREC_ROUNDTRIP
360
87B9
  0
DICTIONARY
  5
87C6
330
83A2
100
AcDbDictionary
280
     1
281
     1
  3
ACAD_XREC_ROUNDTRIP
360
87C7
  0
DICTIONARY
  5
87CE
330
83A6
100
AcDbDictionary
280
     1
281
     1
  3
ACAD_XREC_ROUNDTRIP
360
87CF
  0
DICTIONARY
  5
87C0
330
839F
100
AcDbDictionary
280
     1
281
     1
  3
ACAD_XREC_ROUNDTRIP
360
87C1
  0
DICTIONARY
  5
87C4
330
83A1
100
AcDbDictionary
280
     1
281
     1
  3
ACAD_XREC_ROUNDTRIP
360
87C5
  0
DICTIONARY
  5
87DE
330
83AE
100
AcDbDictionary
280
     1
281
     1
  3
ACAD_XREC_ROUNDTRIP
360
87DF
  0
DICTIONARY
  5
87CC
330
83A5
100
AcDbDictionary
280
     1
281
     1
  3
ACAD_XREC_ROUNDTRIP
360
87CD
  0
DICTIONARY
  5
87B0
330
8397
100
AcDbDictionary
280
     1
281
     1
  3
ACAD_XREC_ROUNDTRIP
360
87B1
  0
DICTIONARY
  5
87B2
330
8398
100
AcDbDictionary
280
     1
281
     1
  3
ACAD_XREC_ROUNDTRIP
360
87B3
  0
DICTIONARY
  5
87B4
330
8399
100
AcDbDictionary
280
     1
281
     1
  3
ACAD_XREC_ROUNDTRIP
360
87B5
  0
DICTIONARY
  5
87B6
330
839A
100
AcDbDictionary
280
     1
281
     1
  3
ACAD_XREC_ROUNDTRIP
360
87B7
  0
DICTIONARY
  5
87BE
330
839E
100
AcDbDictionary
280
     1
281
     1
  3
ACAD_XREC_ROUNDTRIP
360
87BF
  0
DICTIONARY
  5
87DA
330
83AC
100
AcDbDictionary
280
     1
281
     1
  3
ACAD_XREC_ROUNDTRIP
360
87DB
  0
DICTIONARY
  5
87CA
330
83A4
100
AcDbDictionary
280
     1
281
     1
  3
ACAD_XREC_ROUNDTRIP
360
87CB
  0
DICTIONARY
  5
87DC
330
83AD
100
AcDbDictionary
280
     1
281
     1
  3
ACAD_XREC_ROUNDTRIP
360
87DD
  0
DICTIONARY
  5
87C2
330
83A0
100
AcDbDictionary
280
     1
281
     1
  3
ACAD_XREC_ROUNDTRIP
360
87C3
  0
DICTIONARY
  5
87D8
330
83AB
100
AcDbDictionary
280
     1
281
     1
  3
ACAD_XREC_ROUNDTRIP
360
87D9
  0
DICTIONARY
  5
87D6
330
83AA
100
AcDbDictionary
280
     1
281
     1
  3
ACAD_XREC_ROUNDTRIP
360
87D7
  0
DICTIONARY
  5
87D0
330
83A7
100
AcDbDictionary
280
     1
281
     1
  3
ACAD_XREC_ROUNDTRIP
360
87D1
  0
DICTIONARY
  5
87D2
330
83A8
100
AcDbDictionary
280
     1
281
     1
  3
ACAD_XREC_ROUNDTRIP
360
87D3
  0
DICTIONARY
  5
87C8
330
83A3
100
AcDbDictionary
280
     1
281
     1
  3
ACAD_XREC_ROUNDTRIP
360
87C9
  0
DICTIONARY
  5
87BC
330
839D
100
AcDbDictionary
280
     1
281
     1
  3
ACAD_XREC_ROUNDTRIP
360
87BD
  0
DICTIONARY
  5
87D4
330
83A9
100
AcDbDictionary
280
     1
281
     1
  3
ACAD_XREC_ROUNDTRIP
360
87D5
  0
XRECORD
  5
87E5
102
{ACAD_REACTORS
330
87E4
102
}
330
87E4
100
AcDbXrecord
280
     1
102
DISPLAYNAME
  1
Imperial24
102
FLAGS
 90
        0
  0
XRECORD
  5
87E9
102
{ACAD_REACTORS
330
87E8
102
}
330
87E8
100
AcDbXrecord
280
     1
102
SHADEPLOT
 70
     0
102
SHADEPLOTRESLEVEL
 70
     2
102
SHADEPLOTCUSTOMDPI
 70
   300
  0
XRECORD
  5
87E7
102
{ACAD_REACTORS
330
87E6
102
}
330
87E6
100
AcDbXrecord
280
     1
102
SHADEPLOT
 70
     0
102
SHADEPLOTRESLEVEL
 70
     2
102
SHADEPLOTCUSTOMDPI
 70
   300
  0
XRECORD
  5
87AE
102
{ACAD_REACTORS
330
8387
102
}
330
8387
100
AcDbXrecord
280
     1
102
MATERIAL
148
0.0
149
0.0
149
0.0
 93
        0
 94
      127
282
     0
 72
     0
 77
     0
171
     0
175
     0
179
     0
273
     0
  0
XRECORD
  5
8389
102
{ACAD_REACTORS
330
8387
102
}
330
8387
100
AcDbXrecord
280
     1
270
     1
271
     1
  0
XRECORD
  5
8388
102
{ACAD_REACTORS
330
8387
102
}
330
8387
100
AcDbXrecord
280
     1
270
     1
271
     1
  0
XRECORD
  5
838C
102
{ACAD_REACTORS
330
8387
102
}
330
8387
100
AcDbXrecord
280
     1
270
     1
271
     1
  0
XRECORD
  5
838B
102
{ACAD_REACTORS
330
8387
102
}
330
8387
100
AcDbXrecord
280
     1
270
     1
271
     1
  0
XRECORD
  5
838D
102
{ACAD_REACTORS
330
8387
102
}
330
8387
100
AcDbXrecord
280
     1
270
     1
271
     1
  0
XRECORD
  5
838A
102
{ACAD_REACTORS
330
8387
102
}
330
8387
100
AcDbXrecord
280
     1
270
     1
271
     1
  0
XRECORD
  5
87AD
102
{ACAD_REACTORS
330
837F
102
}
330
837F
100
AcDbXrecord
280
     1
102
MATERIAL
148
0.0
149
0.0
149
0.0
 93
        0
 94
      127
282
     0
 72
     0
 77
     0
171
     0
175
     0
179
     0
273
     0
  0
XRECORD
  5
8381
102
{ACAD_REACTORS
330
837F
102
}
330
837F
100
AcDbXrecord
280
     1
270
     1
271
     1
  0
XRECORD
  5
8380
102
{ACAD_REACTORS
330
837F
102
}
330
837F
100
AcDbXrecord
280
     1
270
     1
271
     1
  0
XRECORD
  5
8384
102
{ACAD_REACTORS
330
837F
102
}
330
837F
100
AcDbXrecord
280
     1
270
     1
271
     1
  0
XRECORD
  5
8383
102
{ACAD_REACTORS
330
837F
102
}
330
837F
100
AcDbXrecord
280
     1
270
     1
271
     1
  0
XRECORD
  5
8385
102
{ACAD_REACTORS
330
837F
102
}
330
837F
100
AcDbXrecord
280
     1
270
     1
271
     1
  0
XRECORD
  5
8382
102
{ACAD_REACTORS
330
837F
102
}
330
837F
100
AcDbXrecord
280
     1
270
     1
271
     1
  0
XRECORD
  5
87AF
102
{ACAD_REACTORS
330
838F
102
}
330
838F
100
AcDbXrecord
280
     1
102
MATERIAL
148
0.0
149
0.0
149
0.0
 93
        0
 94
      127
282
     0
 72
     0
 77
     0
171
     0
175
     0
179
     0
273
     0
  0
XRECORD
  5
8391
102
{ACAD_REACTORS
330
838F
102
}
330
838F
100
AcDbXrecord
280
     1
270
     1
271
     1
  0
XRECORD
  5
8390
102
{ACAD_REACTORS
330
838F
102
}
330
838F
100
AcDbXrecord
280
     1
270
     1
271
     1
  0
XRECORD
  5
84D3
102
{ACAD_REACTORS
330
838F
102
}
330
838F
100
AcDbXrecord
280
     1
 70
     1
 90
1959938040
 71
     1
  1
D636062C-E4AA-4C3E-B063-0C56B9A83ECB
311
504B030414000608080008948157BEEEB789BF000000200100004F00000046434435313131392D313645332D344644312D413236352D3144373132454544323645452F4173736574446174612F446566696E6974696F6E4974657261746F7250726F706572746965732E62696EEB606060F80F0540260323103700495E20ED
311
9E9A975A94991C9C9C919A9BC8C00612C9C94F4ACC6147C831019920AE4B6A5A62694E0948976F6671726A4E4E625E6A7E69B12042A9426E6209D0B8C41C3D90264E20860914834C48875806B2DF0F88414E02D189290556F689C5C5A925B6FA694915FA064E868E2ECEAE8EBA46A66616BA26CEE696BA8E66CECEBA96A6E6
311
46AE962E962606CE8EFA45A9C5F9A545C9A9C5FA46FA06F15093E30BF2D2191838923F97CD035A02720308130200504B0304140006080800089481571D50486C16010000300200004500000046434435313131392D313645332D344644312D413236352D3144373132454544323645452F4173736574446174612F496E7374
311
616E636550726F706572746965732E62696EEB606060F80F0540260323103700495E20ED9E9A975A94991C9C9C919A9BA802147031333633303372D675357174D435713676D575323033D63570363573B274B430767576624768046931363471713532B5D435353131D635313332D475727372D13534373670367376B67474
311
B5042A03DBCBA019D37FE8ABC6157B20CD04146B0062181F4C03F940F0C11EA29A8141C08141002C0426541C106CAC2CA046088033B02A030AC2157C6006F21A8018AAF50194E6010A610250382264E08660284CD9E98021862280A91564B406929A0FF62C401E28B6F88038B83CB1243943D7A928312F25350524E373DDBA
311
791E505AE53884FEB30D425F5906A1D74C83D02D6D103AA60C429BA441689E3008FDC41542EF3185D000504B03041400060808000894815728BB58AF800100009E0500003D00000046434435313131392D313645332D344644312D413236352D3144373132454544323645452F536368656D61732F436F6D6D6F6E53636865
311
6D612E786D6CBD544D4FC23018BEFB2B96DE15493C78601010A34B880709DEDFB52FD0D8B54BD70DF6EFED3AC0B12E6442E2716BFB3CEFF3D18E26FB440405EA8C2B1992E1C323095052C5B8DC842437EBFB673219DF8DA659866649B798C078B48AE6410122242F2A4994AC7F93815DF85C049C8564CA0A901499DD886B2E
311
B9B1E02448F358701A9235880C49A0119892A20C89D1B9FD768815CAD268CB5E0355B40B1E47F3E37A2020464BED06AA57CE8FCC20C3C3446D46761A2632A8C1283D07031EFF2AE7CCB1BFEEE916E406DFAC8E36FFD99A9D60A6944090EEDC3B670C7DC13DE86B6B2C5C240D6E503BB85ACD579D513F1B9F9A69DC9CC22AFA
311
80C426D40AF0B21EA168559156B6276F0F726A6BFF04DCD513A87A62CAD41FB24FCB2858B3952E3D852084DA25B9303C15687973CC8E8AAE11DF2836C38C6A9E765E8C1BA1BFB1DC29CDFE518C8B5A7655A4ED7E77291ABEB80DBD82EC866ADE1B8D05AF9E35CF09D7A061F38A986D9EC412B8F0F65E5D81534D9B231D1E5A
311
8FE577A241F3A5FD01504B0304140006080800089481572CCEBD668A040000E01200003E00000046434435313131392D313645332D344644312D413236352D3144373132454544323645452F536368656D61732F47656E65726963536368656D612E786D6CD5586D6FDB380CFE7EBF42F0F7A649B70E1B90744856B4970F45
311
0FCD7A5F05459613EDE4174872DADCAF3F522F8ED3B88D2F1D06AC4050DBA2493EE4438AF2F8EB73AEC8466823CB62928C06C384888297A92C5693A4B6D9D9E7E4EBD51FE3A931C22EF85AE4EC6AFC38BF261BA626C9AD288496DC3F4FCEAFC63366845F7A10452AF41DB320C0D44EC26EAB20918735565582695670811A6A
311
49643A49A6E9069FA4604A64B29016DC4B48552F95E4932463CA888468C1D2B250DB4962750DF7CE273069CE8363F1FF4EDB00E0A21999574AE4A2B00C353B93F3BD4777B8A61ED8F604ABFEDD79CE56A2B7BDFBDBC50996E0ADDE16FED26223C5D30956C29BDF4A55EA686E5E58B112DA45CE67F76F4FA27EFA3FB672FD73
311
72FC388FAECDCA5209E693CAD167BADCD272F943701B3812F8A3D852008B1D2E32DB927B2F833C6EA95879925356D254582695095A3CE982924720BE5774A3CB9CDCDB350427D2DF20DA1B5532EBE2D5D6288D75D4F7E4FD9890A0EF8E3D93EBB8F8BA4758158EF6FB90A6F9520281C93DE7AAC6D24607DA296BB96018123F
311
821A7D6A5C5884050C475DA4865442732C8B95684A50165CBB3A32F25F783A4A480ED59AD7F924B968AEA50131F46303223E6A397B0E52976030DC1DCA81D7E7C1EDEEA42C19FF27635C505E2BD5198A599020DF50A2330FCB3AAF28CB0124108429553EF1B228802E2265D8F7CC2401042B155BCC7070F1E5C55F13B4A957
311
7362CCCE46C32174E010C3C378C44841A4BDA00FE3A12006CE11EE6AEC59894D3526DDE1CD59D503ECC324017F8061B7F162162FA62EDD81AE3308617770796DCBDAD2B2625C5AE8A63DE20B2C8AA5E95E76E5730823955956E33E705425A2187C185D36489A1B44D3DCEC2172F6BA2105C3546287A7194B2331768EBBE64F
311
6E70A9930ABE0ADEA89E9E2C38523B810287AD67A54A039C1606EAFE68F8304610BB9093DBDDABC0B2AE4E290DCDA15376D7E39F72B556F0B32EAB5D3D498B4C41ABADEC3A1434C422D87E8025A84BDCB2B1417ED750FAE4DA8976863974C577C7F902D3F156AD354DEA3540DE6BEAE2BEA52F7A2EB4CA43802ECE5BF2CE2E
311
DC9347179FFB023CE412E60BE16DA0BE29B374988A553F561DC04615DD35F7D2C8979F60E5955CE93DF29DED8AFA1EE6642D53418086C03C47C377910F75F7E8F5EF665F70B60FFB22AEDF897D119E8423C773E819A3C1E55E550599EE6EDCA34D0C86FD72057DF2CD46F16A470682471C164E4346D5306BF12D7D12D82CFF
311
673D41636C347443FEB51B50D72EA171A8E4A58623A4A16E0FA2B8B10A0D23268D87C33896EE8FB73305A74BF224EDBADFA0BD674AB354D63DB7BD5D83426761C077DE767728235446A552754EB93B755891C3C4CC6CADE37CF0E912A7BB38DBA010F9DE1282EDF470CA69A9CDA482E334C4A6EA4107987980B17E72F31730
311
EBF88BBD39E7C629F56797A3C0009C2C5AE7951D9A05A02773440F02EEB4DE396A3B6A570C72CCFBCD823B0B8ED3F1D5CEDDFED772FA70236C83FB7D86C385D570B87107535572A60A96035F8F7C6A7192F13007246BBE0521855E6AC46F3E27689CEE7D186A6FD679D98CDCAD13333E04EBE7ED6F55FF01504B0304140006
311
080800089481576180134D5F0100006B0300004500000046434435313131392D313645332D344644312D413236352D3144373132454544323645452F536368656D61732F52656E6465724D6174657269616C536368656D612E786D6CA5934D6FC2300C86EFFB1551EEE343DBA41D1A103009551ADAD40EAE28A4A68D942628
311
4961FCFBE5A340113B2071746D3F765EBF4DC6BFB5407BD0862B49F0B037C0082453059725C18DDD3EBFE3F1E829991803366715D474942CD30FB4A782E00C64017A412D684E454CE3FE28995203B162A6EA5AC94B66997D225E109CD63B0135484BAD1B3C07E9080CA35DB3119C11BCA5C200461A68A1A438126C75E3E230
311
D40FF81FB3F03C91D1E3A3A0AF79FE28E25BC39EC3E17E4C2A2D94A0833A51AF55BCCA7D88572FCBAC529C4140B020FC3AAFA886621DCED7EAD7664CC86024E806DC297DA1BB393E4156543457A4537DB8817349A70F8ACBF09B3EEE2CB2F33E91B65D60786E4E3B39B77E3FEEEF5650424525DA657FB8B46BE6BF064646F0
311
A0F7327C0BC1BC1B4CBBC1C419FA3CCB23500007872A2580CAAE5461865565294E4EDB4617B62FF579DF9A5B2F54E834076A597573A020912FED777F9B3F504B030414000608080008948157423F477A51000000570000004700000046434435313131392D313645332D344644312D413236352D3144373132454544323645
311
452F4173736574446174612F41737365745461626C654F66436F6E74656E74732E62696E536160607031333633303372D675357174D435713676D575323033D63570363573B274B4307675761202AACB4D2C492DCA4CCC492C28484D2C4ACC4B4E050A82012F90744FCD03CA26072767A4E6260200504B0304140006080800
311
08948157F865834058000000680000004500000046434435313131392D313645332D344644312D413236352D3144373132454544323645452F4173736574446174612F53747265616D56657273696F6E5461626C652E696E66558CBD0A80300C06F73E4B117FB66E451741D041DC5BF98480A492E4FDD18EAEC7DD4555D89E
311
F28DF51A0B1BD8340C4DE7DD848B988C0ACF0649566493F2408C508DDEBB99D5129FF8F1AF8CF5B9503E20FAE5A16B5AF702504B0304140006080800089481572C7C0DB4340100009A0400003600000046434435313131392D313645332D344644312D413236352D3144373132454544323645452F4173736574446174612F
311
636E782E786D6CCD94314FC3301085FF4AE43D76924AA8AA1C5708964E205131B05D9D4BB1EAD8917D41F0EFB19B0CA022A60E5DCFEFCECF9FFC4E6E3F075B7C6088C6BB96D5BC62053AED3BE38E2D9BA82FD7ACD82A19BCA71F32563818B065B9CC943C063F8D4BA9C31E269BABD6B8D352BC8F11690F078B4FFD8377848E
311
222BB485185B16F53B0EC06122DF613CF10E0878CD03463F058D6912990197493A2010764C3555B32AEBA6ACEA7DBDDEAC9A4D7DF72645562A79F0DE2E7A932E0B7E2CF47C2B539514F958C929984593DFC2D45F1EF9C138299252C9482131593AE86B4C1D308ED668A0844E784D486512210C52CC62254566F08BC423F6C6
311
99DCB24BC6807C784EF63090C19B23F29FD7EB93D9B948E034DE2E8F4B87D7A7F072FE41AF7320CF89B9B59C5C3AE4C6F557488938AF91149ABC55D437504B03041400060808000894815732586181080100004F0300003400000046434435313131392D313645332D344644312D413236352D314437313245454432364545
311
2F536368656D61732F636E782E786D6CCD933F4F432114C5BFCA0B7BE1F19A98A6E1D1C1C1C9459DDC106E2B29705FF863F4DB0B4F863671D3A11B1C7E21E71C2EE2F0E9DDF00131590C33E1742403048DC686D34C4A3E6E766438481111F3054686A03CCCA4C9448A53C4B274C9C05115D75467C3B98BF7E83D8667FD0E5E
311
91413B95D24CD2BAA5AA643490CED4A8AC28A7111296A8A1DE90AD877E838EA0321822A771DA6EF8B419F90BDFEDB7D39EDFBD0AD64829DE105DE76DC810711934D645A87646C1DAB11425DACEB40C445E7AA3B50DC12A2145CAB176D0C9FCB554522D8BB35AE55A155BC11F460AD6A25E057E8000D1EADB4C7C65EEDF223F
311
4130101FEB2B45ABDC6D26FFCDE3DF0A60EBECD711685F417E03504B030414000608080008948157410A3D5871000000A40000002C00000046434435313131392D313645332D344644312D413236352D3144373132454544323645452F636E782E786D6C55CC4D0E82301086E1AB34B31774E7A22D31F1069E60020334B633
311
A63FC6E34B0909B07DDE2F9FEE7EC1AB2FC5E4840DDC9A2B28E25E06C7938192C7CB1D54677514C9871928C640062A83D55394F2D968A0118BAFEA1DBF377CA444F98919176EAB9FEAAB9F2960DA5BBB1E2ED3FA6FFF504B0304140006080800089481570BE1E0067E000000A300000007000000636E782E786D6C4D8CD10A
311
C22018465F45FE7BABDF9A15A823D2BDC7686EC89C86CDE8F1D3D845571F1CBE7344FB593C79DBF4723148C0DD01880D8F38B83049C8EB482F405A25528CEBDF0D48E8172BA16250624A313F3734D8B1CFBE52EFC2BCC1EEAE1B44BC52E4E6484F9D467A63BCA1A8CFC88CD18C1B538C7D55CAFC7A656B5E7D01504B030414
311
00060808000894815716E99B5DA600000035010000130000005B436F6E74656E745F54797065735D2E786D6C9590410E82301045AFD2740F4517C6180A0BF5065E60AC53688469D30E066F6F91AD9AB89CF9FFFD3F99BA9DC7413C3026E749CB4D59498164FCCD51A7E5C4B6D84BD136F5E5193089ECA5A465CF1C0E4A25D3
311
E308A9F401292BD6C711388FB15301CC1D3A54DBAADA29E38991B8E0254336F5092D4C038BF39CD76B6FC6A538AEBEA54A4B08617006389FA516557DE4AE8E7E70DE30729138228C5F021CD93F02D4FB0DCD0B504B0304140006080800089481573DEE336E64000000790000001B0000006175746F6465736B2D6465736967
311
6E2D7061636B6167652E786D6C35CBC10E83200C00D05F21DCA56CA76D41FC96062B120735B69A7DBE268BB7777961F8D5AF396893C2ADB70FE7ADA196782C2DF776D7A97B5933C430F15651E5469C55D70F80A4992A3ADC954792C525AE70A1E4D6AD9816CC044FEFDF01FE3FDE907802504B030414000608080008948157
311
8D3451C3F8000000960100003700000046434435313131392D313645332D344644312D413236352D3144373132454544323645452F4173736574446174612F636F72652E786D6C8550CB6E833010FC15B47703B61BA091714449FEA0A7DE2CE3102BC1467E54FDFCDA814AEDA9A75DCDCECCEE0E3B7D2D8FE25339AFADE901
311
973514CA483B6933F710C31575509C3873D6865F34288C58540F1906CE6667E3BA43D29AA04C468D9DD40E0AEF5580423E52D3839737B58852C49018FE5EAE42DEC5AC4A5C6E3CCE62D4D32ED55372D357AD1CF0A6A594BE75031A1A7C402FAFF5803ADC1DD0A5A5E388497D19CF2DABB298B3A0979FEDD22911D4049CD484
311
224C508DDF7177A4E4889B0F566526673EB8F4F3BE347F077CC8579F4510ACDAA67F5CE33AFDEF1AB50994ECAE9BC203C7E9C8E780B32AA794CA33C25473A2FC1B504B030414000608080008948157308445BEF7000000940100003500000046434435313131392D313645332D344644312D413236352D3144373132454544
311
323645452F536368656D61732F636F72652E786D6C8550CB6E833010FC15B47703B61B4223E388D27C417BEACD320EB1126CE447D5CFAF0D546A4F3DED6A76667677D8F96B7E149FCA796D4D07B8ACA15046DA519BA98318AEA885E2CC99B336FCA24161C4AC3AC8307036391B971D92D60465326AECA8765078AF0214F291
311
9A0EBCBCA959942286C4F0F77211F22E2655E272E37116A31E77A91E939BBE6AE58037474AE94BDBA3BEC107F4F45CF7A8C5ED015D8E741830A92FC3EB915559CC59D0F3CF76E994086A044E6A421126A8C6EFB83D5172C2CD07AB3293331F5CFA795F9ABF03FEB6DEE959B5CDFE78C665FCDF336A1328D93D3785078ED389
311
EB80B32A6794CA1A60AA394FFE0D504B030414000608080008948157D141173900010000D70100002D00000046434435313131392D313645332D344644312D413236352D3144373132454544323645452F636F72652E786D6C9591C14E843010865F85CCBDB05304D74DE9C608FB049EBC553ACB36BBB484B6C6C7B70846BD
311
E9A9CDDFEF9FE93F238EEFE32D7BA3D91B671BC07C0719D9DE696387066238B33D64472966E7C20F0C32AB466A6091418A617671DAA4DED9407651ADD3B489CA7B0A90F5B77469C0F7171A55AE624884BFE693EAAF6AA01CF395932298F1CBDACFA40269907CC74B869CEDF019F787921FB07E11C5424A118D0D25DF9AD1F8
311
4A3A735348914056A2585F13158DDE18A3D31FCDD9D00CF2F4D45688F8C0B0EE4A76776A913DF2BA62D8DE23EFBA96D75D978A24B3143ECC69325B9165067FB5AFC65FC9E2A4FF996C757890F81DAA58C62C45F1B983742E2B911F504B030414000608080008948157DB94DCA807010000B201000008000000636F72652E78
311
6D6C8D50C16E842014FC15F2EEA84857ED06D958BB7FD0536F545897AC8211DCB47F5F5869D2DE7A7A6466DE9B61D8E9739ED05DAD4E5BD302C90A40CA0C566A33B6B0F90B6E009D385BADF5BF64808C98550B1106CEC6D56E4B82066BBC32113556AA040AE79407344CE1D1821BAE6A1699D87C50B85BB688E1264695916C
311
D771E6F5FCB33AAC4A78258197454931297141DE4873A4E59154EF2C8F4ACEB64DCB64A56570D717AD56E0554D297D693ADC55E4809F9E8B0E37A439E0734DFB9E94C5B97FAD591E9739737E0D7F4E47424E8F9CB8475F96EF14671FD64E4910424964CDF405BC607924FE84DE16F98FD0DA785AA683FB86034E42A007118C
311
6383613CEA0D33B6CDBF01504B0102140014000608080008948157BEEEB789BF000000200100004F000000000000000000000000000000000046434435313131392D313645332D344644312D413236352D3144373132454544323645452F4173736574446174612F446566696E6974696F6E4974657261746F7250726F7065
311
72746965732E62696E504B01021400140006080800089481571D50486C160100003002000045000000000000000000000000002C01000046434435313131392D313645332D344644312D413236352D3144373132454544323645452F4173736574446174612F496E7374616E636550726F706572746965732E62696E504B01
311
0214001400060808000894815728BB58AF800100009E0500003D00000000000000000000000000A502000046434435313131392D313645332D344644312D413236352D3144373132454544323645452F536368656D61732F436F6D6D6F6E536368656D612E786D6C504B01021400140006080800089481572CCEBD668A0400
311
00E01200003E000000000000000000000000008004000046434435313131392D313645332D344644312D413236352D3144373132454544323645452F536368656D61732F47656E65726963536368656D612E786D6C504B01021400140006080800089481576180134D5F0100006B0300004500000000000000000000000000
311
6609000046434435313131392D313645332D344644312D413236352D3144373132454544323645452F536368656D61732F52656E6465724D6174657269616C536368656D612E786D6C504B0102140014000608080008948157423F477A51000000570000004700000000000000000000000000280B00004643443531313139
311
2D313645332D344644312D413236352D3144373132454544323645452F4173736574446174612F41737365745461626C654F66436F6E74656E74732E62696E504B0102140014000608080008948157F865834058000000680000004500000000000000000000000000DE0B000046434435313131392D313645332D34464431
311
2D413236352D3144373132454544323645452F4173736574446174612F53747265616D56657273696F6E5461626C652E696E66504B01021400140006080800089481572C7C0DB4340100009A0400003600000000000000000000000000990C000046434435313131392D313645332D344644312D413236352D314437313245
311
4544323645452F4173736574446174612F636E782E786D6C504B010214001400060808000894815732586181080100004F0300003400000000000000000000000000210E000046434435313131392D313645332D344644312D413236352D3144373132454544323645452F536368656D61732F636E782E786D6C504B010214
311
0014000608080008948157410A3D5871000000A40000002C000000000000000000000000007B0F000046434435313131392D313645332D344644312D413236352D3144373132454544323645452F636E782E786D6C504B01021400140006080800089481570BE1E0067E000000A30000000700000000000000000000000000
311
36100000636E782E786D6C504B010214001400060808000894815716E99B5DA6000000350100001300000000000000000000000000D91000005B436F6E74656E745F54797065735D2E786D6C504B01021400140006080800089481573DEE336E64000000790000001B00000000000000000000000000B01100006175746F64
311
65736B2D64657369676E2D7061636B6167652E786D6C504B01021400140006080800089481578D3451C3F80000009601000037000000000000000000000000004D12000046434435313131392D313645332D344644312D413236352D3144373132454544323645452F4173736574446174612F636F72652E786D6C504B0102
311
140014000608080008948157308445BEF70000009401000035000000000000000000000000009A13000046434435313131392D313645332D344644312D413236352D3144373132454544323645452F536368656D61732F636F72652E786D6C504B0102140014000608080008948157D141173900010000D70100002D000000
311
00000000000000000000E414000046434435313131392D313645332D344644312D413236352D3144373132454544323645452F636F72652E786D6C504B0102140014000608080008948157DB94DCA807010000B201000008000000000000000000000000002F160000636F72652E786D6C504B050600000000110011005A06
311
00005C1700000000
310
504B030414000608080008948157000000000000000000000000370000006662782F46333643374444362D333946352D343032382D413243422D3941393836373432423842452F617474726962757465732E62696E504B030414000608080008948157000000000000000000000000350000006662782F4633364337444436
310
2D333946352D343032382D413243422D3941393836373432423842452F76657274696365732E62696E504B030414000608080008948157F270F1330600000004000000360000006662782F46333643374444362D333946352D343032382D413243422D3941393836373432423842452F747269616E676C65732E62696E6366
310
60600000504B03041400060808000894815751464CB48900000043010000360000006662782F46333643374444362D333946352D343032382D413243422D3941393836373432423842452F6469726563746F72792E786D6C9D8F310EC2300C45AF127987122606C71DD918B841D4B851A43646695A717C52A85029031293A5
310
A76FBF6FACEF7DA7264E43906840EF0FA03836E242F406C6DCEE4EA06AC22492573150D1F66C60C640E8938CB705396EEDD86DE9B5042FE27813D640EA63BB001C722AF6E55CB61E4863F58284D5D3F53DD715CE1C3985E63FD7F1B7EBDD617E9F1E504B03041400060808000894815739A37A5E35070000201C0000340000
310
006662782F46333643374444362D333946352D343032382D413243422D3941393836373432423842452F6F626A656374732E786D6CDD59596FDB3810FE2B84F665F74197AFC485E2C247521845DAA04617FB26D032ED70A30BA49438FBEB774891B224CBB6926D8162132056687238F3CD3DF23EEEA3103D13C66912DF18AE
310
E51888C441B2A1F1EEC6C8B3AD796DA08F13E4B124C92AFB0C14E388DC1862D998783B96E4A95ADA902DCEC3E6EADDEC2FC4031213030521E6FCC6E0C12389B085F32CD910FE646D7086ADDD766FB956B1B14E76C770FAD8B82AC58CC419B00AEB3150511CB8F57F41247BE2D962436D5BAFDBB6FE996DB614BCCE288D7986
310
E3E088AB069D5E37AEFAEE6071DB1B8ECDE160D03707A39E6BCEEE660BD3BDEA3BF3D17C3E9EDE8E0D34F1D64912960A4849BC012DBE1A13D7B3C537A5F80A8536BE83248E49A0D06CDBB0218A2E25BC89490D58578A565148216B65A1DF51F813DB3A815263A986B6164E7F56AD3759FF0D20F02E56CA381156CE3306BA56
310
D817FEE07876B15AD30BE528C21961148728A46B86192808B6160AAA9111DE2248218199D4A2A657E5150CFBB22FB571B9CDC350F8AF31919EE6833F928C4BCEE83F841DB8AFDE063C81B4398DB36B256CF69A0289B167CBC5E2BB7E4F7D590089B621DE81B580986253BFD7C06B2E62C172614C3EDFADF72B111FDA2F4F59
310
92129609CB93CEACFC4E6BB0625A607C1D402970ADEBEE80CA3780FE0B205FF2823CD01CA3FBC17EA0656738E6DB8445A01DE420D3813F0E128F474F9E5D1E9E20548B95A73005B7FD4198D6C4A8DD5D8174E23D83D127ACAF845B0538049BBEA7B1F07330141426B004F17EBBDE1B932504535884533804E9E1D7B3C52382
310
8F820EC49B8686DAC26F0745698769FAD941579FC066180D4A55D5643C85EFF087E03B5DAC3EAF72B6C501B9578EBD205B1AD30C92693B4335D06B2EFF7DF9457AE4913CB55D01DCB34B44E068D1CB4AE90549C5002B220F17AA912BF714DC3D0C714C929CABF5B640152461C2FCF5AB5FF870EB5D7F6A23282E03FF1616D0
310
1ACC20BB078CA6021463A2C42B23A175C049C4416580BB42A9FE1A074F025E3F8088F51E3EC06A316B12CDA3D4C75192C7227C1F9B775334ABEFC81FD71DF79C71EF7A3CD2C272495E7B8F0E0D25F3E29E08A7272E99D7B4A5A286A65CF8D100A2659B0401D44C79E627290E68D66E0B0D21948702D86759DED0ED36E710D4
310
5B6169706CF5DD21722A7FCB4BCE73AF2EF1698477C4DF6291E15AEFAB015412D712B422B30B13CE694CB8AC508E22570315C7824050D8ADA6DA628494FB11C9F07BEC4FA6BC86F931B20D7DA8A53251CD5EB63ECDA0CA9EA7288ACA2D897D29FFABCF7194864595760903B7D7B8A11557C1B4B8E219ECCDC799EF6C882CBA
310
2F512FE382C6B713F5F1BBC99F8087E19F0E8FBE8242E90D39F2B2665D6BE88EC5CF350495D1D0ED5F69455CC24A5F95891A24CCA16A0A5EFD1742778FDD025AA77B3809B73E0DC33CF28B7C9091084A309CE5AC93BF8E86CE91F2555C683844E5A62D0DA140EE1C3465EDA1AB0F904A161FA78266E51A108AC6D0A37512E4
310
488A561396BA90FDA868BB2E6BFFED54FF73BCACF6294FE4F525619B564EEB6584AEC074C120C2A5CA70A51D49CA13AFEA7C916C5C2EE330D044547C2BBA0465218C3C533198901D506BFFC05F701640205DC94F73061EB1219B434D5123A7C61CC6042ED5D4749D5AED7420D889F4512BBC9622A046306DC022CEDE8B87F0
310
1B065543E5C76D55D5D8C5FA5224360B062B073ECED0FAFA69D5A0022B9D4F3F088CC84B83825A9D8B42EE0CA9EFCB43BDDAA0A024FABE3C733C7BCCA3758CA9C88CC22CF026FDF051F6923736340AB63373A78BF9EDD4EC0D47D7E6607E3536A730B230C7C3ABDEED78311E38F3A9CD084F7216106EF76CC7D7B5531AEFB4
310
6114D075E92860AA70B9F5D3F6DC54F0FFB8A30893353E658BBF6A4351967BA2206BF862D786A23550AFDF56FDBB4781BA3D89BDA9722E6605DAC0CFA72D08463ADF772F2D34695D49B4F35CC9886F4CBC27BB959F9E636A01BD353FD476B485FC7A2C86D9534B96D2DD6DD1498FFA2367D49B9BB783E914E258FFD69C39A3
310
BEE9CC87A3D9787ADDBF9DCF4AC4552EEC9A577E8918AA99AD8CD1601ACC9390C2509E6CD08E24D001C1D4A1437C6511E1B2B3810240A571FD46A0C3E9E762A69AE175A84F078F1806D3A1CAC879004351E83A6E0CB58E7E8331A89844CAE194F504894759BB8172466F0C30818C427EB1D630CE92C34349BD31AE04B5E178
310
277AA6E254F9FFE19840076CE52057B9A70B2E4AB29A75C2702095EF0920DAE982E4FDA26B7610CEE0719D67A530878583340A04FD42A0100EA67E4F0ADE3D049EF372B996DC5383A4D364FEAC1D1454CD0CB39D1CAF57F09E2E1E6C31195F7E456998EF843ACFE5FB1A2553D419615E0CA13C300C25668A451F3EFF603FB0
310
045E3145E88E8211A0DFF7D7A33FEC791245495C2CD953F5A20AAD1EE1B5D3C6D6233F285C1C7768CBBA478DF5616EC5898537FC091640B58C8AD9680171CD00CAF0543100AD11A10B3856DBBF5C2095042A256CB57415F0C8993E024712EF7284DB5437540690E00BC05531A72D1FF482673318824FFE05504B0304140006
310
0808000894815781B562E33E01000046050000300000006662782F46333643374444362D333946352D343032382D413243422D3941393836373432423842452F636E782E786D6CCD94416AC3301045AF22B4B7653B50429015E8A227E8A27427CB13578D2D1969549ADB574AE5B4A5A47411487662F407FE9BF90CDFBE4F23
310
7903E7B5352DADCB8A1230CAF6DA0C2D0DB82BD6946C0577D6E2371925464ED0D254A6820FCE8639977AD8C930A6EAA8CD3E1725A2D35D40F094A8517ADF52AF5E6092A50C687BF0FBB29728CBBA74E06D700A623FEA0972BF7220117A2A9AAA5915755354F563BDDEAC9A4D7DF7CC59520ADE593B66BD3608CECE44D9F830
310
D14CC559FA163C389D3589808A2F6765A70D67F15F701FDD9A21EBF03027DD3C8F5A498C636256216011452027CE3EC582B3C4FB83FAE1FE6971407AED40A175872B0DA03E378093B13226E17FFC47E1DFD8B67B8DB8D7DAF659D86CEB62A84B5A7D8CEBEFFDC71449338CB717FA93B1CB673E9E12D4EAF690175F172266C7
310
9317979E2EA0F800504B0304140006080800089481573A96287F7F000000A30000000B0000006662782F636E782E786D6C4D8CD10E822018465F85FDF794A1216C8013CDF77089CE85D0485A8F1F342FBAFAB6B3EF1CD17C368BDE26BC56EF245C4E0520E3EE7E5ADD2221EE3366801A2582F7FBDF0D901B37232163506209
310
3E3E0F3499798C3653BBBAC70187927675DF535CF2E18AAB8230DC924E63DE7246EB8A68A66FC9386725CDAF9736E7D517504B030414000608080008948157A6D797065F0000008200000007000000636E782E786D6C4DCB3B0E80201045D1AD90E9FD7516806B51190811670C8A61F982B1B0BAC9C97B72CA7B1037C6D333
310
2918DA1E04D2CAC69353902EDB8C20262D23F3F59B81A079470595414B17391D1F19B4730A5583A7ED43BBE4025D9592775E5ADFFA01504B0304140006080800089481574FEB6A7CA0000000F4000000130000005B436F6E74656E745F54797065735D2E786D6C7D8F4B0EC2300C44AF1279DFA6B0400835ED02B8011730C1
310
6D239A8F121795DB93D02D6269CFBC19BBED573B8B17C564BC53B0AB1B10E4B47F18372A5878A88E20FAAEBDBD032591BD2E299898C349CAA427B2986A1FC86565F0D122E7318E32A07EE24872DF3407A9BD63725C71C980AEBDD080CBCCE2BAE6F5D69B7110E7CD57AA146008B3D1C8F92C5954F993BB1BF787F39A89ABC4
310
91D09600F9FDA2FB00504B0304140006080800089481573DEE336E64000000790000001B0000006175746F6465736B2D64657369676E2D7061636B6167652E786D6C35CBC10E83200C00D05F21DCA56CA76D41FC96062B120735B69A7DBE268BB7777961F8D5AF396893C2ADB70FE7ADA196782C2DF776D7A97B5933C430F1
310
5651E5469C55D70F80A4992A3ADC954792C525AE70A1E4D6AD9816CC044FEFDF01FE3FDE907802504B0304140006080800089481570EA0B8F9F8000000960100003B0000006662782F46333643374444362D333946352D343032382D413243422D3941393836373432423842452F7265736F75726365732F636F72652E786D
310
6C8550CB6EC32010FC156BEFD880ED288930515AD55FD0536F086F1C9418221E553FBF10BB527BEA6957B333B3BB234E5FCBBDFA441F8CB303B09A428556BBC9D87980142F640FD5490AEF5CFC4583CAAA0507283048317B971E1BA49D8D680B6ADD841BA842C00895BEE76680A0AFB8A85AA59819E1563F94BEA9196B56AF
310
3C295232D3263553763317831E647B7EA187F3AE233D7D1B4947FB5772E0FD991C3AC6F66C6CF94847D114B114D12C3FDBB547157102C9296F09E384B277B63FB6FCC8761FA2294C2942F4F9E76D69F90EA4C7E092D71844B34EFFB8A6C7F4BF6B3236B67C735D150124CB473E07523425A55C9E11E65A1295DF504B030414
310
00060808000894815794A6746FF3000000B1010000310000006662782F46333643374444362D333946352D343032382D413243422D3941393836373432423842452F636F72652E786D6C8D50CB6EC32010FC156BEFD806A78E1361A23869BEA0A7DE10100725068B47D5CF2FC4AED4DE725A343BC3CC0E3D7C4F8FE24B39AF
310
ADE901973514CA082BB5197B88E18A3A280E8C3A6BC31F1A14864FAA870C03A3A3B3715E21614D5026A3C64AB582DC7B15A0108FF4E8C18B9B9A78C963480C7F2F672EEE7C54252E171EA3414FBF52E1140F4A022335691026A8C61FB8DB37648FDB4F5A6526A3316AB95A6999DCF5552B07ECD2B4A7EDF9DCA2667779439B
310
9A74E8484E03DA1D775DBBDD90A11BDE6995C58CFAE0D2CDEB27F9BA57E58BF05FE638CB17326B131AB21A2E0A0F0CA73CCF05A3552E308D67BB69E6B2D90F504B030414000608080008948157EEDC160A53010000DD0200000C0000006662782F636F72652E786D6C8D525D6F832014FD2B867714D036ED8234DD327FC19E
310
F646913A52058360FAF3077EA4F361DD6282E4DC7BCFB9E7047ABA776D324A3B28A34B80530412A985A9956E4AE0DD151E407262D41AE37EB48144F34E9620C280D1C61ADF2F9030DA491D516D6AB9807C18A4038968C3A50483F8921D4FB977A163B8A53D1737DEC814A7731FA3DEAB7A195575605357252D60F9F9151DCF
310
FB02EED07B050BB47B8347B23BC36381F1015739A95045B338CCA853DDAA2EACE44ED680114472880944F8031F5E72F282F79F348B9D8C0ECE06CF8B687407D8F572A7D98C6FF87C5FFFCDE795763959F8E68901301CD69B0A8C66319FF09BC2DB661884437E8E5FDAD5C22D40A314CED822546AE31FA591B75E066A944C1F
310
CDE66A609E087EE3214F789E7384A0B86EC26ADC85EBC5BBA8BEDDA997168EEE9E68633BDE3E969B577C9C0FA18DA5755C98D6D8FF4CAF56D730B3F830D937504B0304140006080800089481577E13992F06010000B201000008000000636F72652E786D6C8D50C16E842014FC15F2EE28A06E74836C6C53BFA0A7DEA8B096
310
AC8211DCB47F5F586DD2DE7A7A6466DE9B61F8E5739ED05DAFDE38DB02CD08206D07A78C1D5BD8C215D7802E82AFCE855F324056CEBA850483E0E3EAB6E580066783B609B54EE90394DEEB006898E2A3053F7CE85966720B51E16FD922879B1C7546B35D277830F3CFEAB06A19B402C1082B306598D0575A9F0B76A6A7379E
310
27A5E0DB66D4616554743757A3571045F7449AEE54E28ABCF4B824D5336E58D5E1A6A4B4A67DC17AD2F33C2D0BEEC31AFF7C1C893903F2F29E7C79BE5382BF3B371D82184A2167A72F1084E789F8137A5BD43F421B1B0A761CDC373C081A033D88689C1A8CE3516F9CA96DF10D504B01021400140006080800089481570000
310
000000000000000000003700000000000000000000000000000000006662782F46333643374444362D333946352D343032382D413243422D3941393836373432423842452F617474726962757465732E62696E504B010214001400060808000894815700000000000000000000000035000000000000000000000000005500
310
00006662782F46333643374444362D333946352D343032382D413243422D3941393836373432423842452F76657274696365732E62696E504B0102140014000608080008948157F270F13306000000040000003600000000000000000000000000A80000006662782F46333643374444362D333946352D343032382D413243
310
422D3941393836373432423842452F747269616E676C65732E62696E504B010214001400060808000894815751464CB489000000430100003600000000000000000000000000020100006662782F46333643374444362D333946352D343032382D413243422D3941393836373432423842452F6469726563746F72792E786D
310
6C504B010214001400060808000894815739A37A5E35070000201C00003400000000000000000000000000DF0100006662782F46333643374444362D333946352D343032382D413243422D3941393836373432423842452F6F626A656374732E786D6C504B010214001400060808000894815781B562E33E01000046050000
310
3000000000000000000000000000660900006662782F46333643374444362D333946352D343032382D413243422D3941393836373432423842452F636E782E786D6C504B01021400140006080800089481573A96287F7F000000A30000000B00000000000000000000000000F20A00006662782F636E782E786D6C504B0102
310
140014000608080008948157A6D797065F0000008200000007000000000000000000000000009A0B0000636E782E786D6C504B01021400140006080800089481574FEB6A7CA0000000F400000013000000000000000000000000001E0C00005B436F6E74656E745F54797065735D2E786D6C504B0102140014000608080008
310
9481573DEE336E64000000790000001B00000000000000000000000000EF0C00006175746F6465736B2D64657369676E2D7061636B6167652E786D6C504B01021400140006080800089481570EA0B8F9F8000000960100003B000000000000000000000000008C0D00006662782F46333643374444362D333946352D343032
310
382D413243422D3941393836373432423842452F7265736F75726365732F636F72652E786D6C504B010214001400060808000894815794A6746FF3000000B10100003100000000000000000000000000DD0E00006662782F46333643374444362D333946352D343032382D413243422D3941393836373432423842452F636F
310
72652E786D6C504B0102140014000608080008948157EEDC160A53010000DD0200000C000000000000000000000000001F1000006662782F636F72652E786D6C504B01021400140006080800089481577E13992F06010000B201000008000000000000000000000000009C110000636F72652E786D6C504B0506000000000E
310
000E0080040000C81200000000
  0
XRECORD
  5
8394
102
{ACAD_REACTORS
330
838F
102
}
330
838F
100
AcDbXrecord
280
     1
270
     1
271
     1
  0
XRECORD
  5
8393
102
{ACAD_REACTORS
330
838F
102
}
330
838F
100
AcDbXrecord
280
     1
270
     1
271
     1
  0
XRECORD
  5
8395
102
{ACAD_REACTORS
330
838F
102
}
330
838F
100
AcDbXrecord
280
     1
270
     1
271
     1
  0
XRECORD
  5
8392
102
{ACAD_REACTORS
330
838F
102
}
330
838F
100
AcDbXrecord
280
     1
270
     1
271
     1
  0
XRECORD
  5
87E3
102
{ACAD_REACTORS
330
87E2
102
}
330
87E2
100
AcDbXrecord
280
     1
102
DISPLAYNAME
  1
Imperial24
102
FLAGS
 90
        0
  0
CELLSTYLEMAP
  5
87AA
102
{ACAD_REACTORS
330
87A9
102
}
330
87A9
100
AcDbCellStyleMap
 90
        3
300
CELLSTYLE
  1
TABLEFORMAT_BEGIN
 90
        5
170
     1
 91
        0
 92
    32768
 62
   257
 93
        1
300
CONTENTFORMAT
  1
CONTENTFORMAT_BEGIN
 90
        0
 91
        0
 92
      512
 93
        0
300

 40
0.0
140
1.0
 94
        5
 62
     0
340
83C2
144
0.25
309
CONTENTFORMAT_END
171
     0
 94
        0
309
TABLEFORMAT_END
  1
CELLSTYLE_BEGIN
 90
        1
 91
        1
300
_TITLE
309
CELLSTYLE_END
300
CELLSTYLE
  1
TABLEFORMAT_BEGIN
 90
        5
170
     1
 91
        0
 92
        0
 62
   257
 93
        1
300
CONTENTFORMAT
  1
CONTENTFORMAT_BEGIN
 90
        0
 91
        0
 92
      512
 93
        0
300

 40
0.0
140
1.0
 94
        5
 62
     0
340
83C2
144
0.18
309
CONTENTFORMAT_END
171
     0
 94
        0
309
TABLEFORMAT_END
  1
CELLSTYLE_BEGIN
 90
        2
 91
        1
300
_HEADER
309
CELLSTYLE_END
300
CELLSTYLE
  1
TABLEFORMAT_BEGIN
 90
        5
170
     1
 91
        0
 92
        0
 62
   257
 93
        1
300
CONTENTFORMAT
  1
CONTENTFORMAT_BEGIN
 90
        0
 91
        0
 92
      512
 93
        0
300

 40
0.0
140
1.0
 94
        2
 62
     0
340
83C2
144
0.18
309
CONTENTFORMAT_END
171
     0
 94
        0
309
TABLEFORMAT_END
  1
CELLSTYLE_BEGIN
 90
        3
 91
        2
300
_DATA
309
CELLSTYLE_END
  0
XRECORD
  5
87E0
102
{ACAD_REACTORS
330
87A9
102
}
330
87A9
100
AcDbXrecord
280
     1
102
ACAD_ROUNDTRIP_PRE2007_TABLESTYLE
 90
      512
 91
        0
  1

 92
      512
 93
        0
  2

 94
      512
 95
        0
  3

  0
XRECORD
  5
87BB
102
{ACAD_REACTORS
330
87BA
102
}
330
87BA
100
AcDbXrecord
280
     1
102
RTVSPost2010Prop28
280
     1
102
RTVSPost2010PropOp28
 70
     1
102
RTVSPost2010Prop29
280
     1
102
RTVSPost2010PropOp29
 70
     1
102
RTVSPost2010Prop30
280
     0
102
RTVSPost2010PropOp30
 70
     1
102
RTVSPost2010Prop31
280
     0
102
RTVSPost2010PropOp31
 70
     1
102
RTVSPost2010Prop32
280
     0
102
RTVSPost2010PropOp32
 70
     1
102
RTVSPost2010Prop33
280
     0
102
RTVSPost2010PropOp33
 70
     1
102
RTVSPost2010Prop34
280
     0
102
RTVSPost2010PropOp34
 70
     1
102
RTVSPost2010Prop35
280
     0
102
RTVSPost2010PropOp35
 70
     1
102
RTVSPost2010Prop36
280
     0
102
RTVSPost2010PropOp36
 70
     1
102
RTVSPost2010Prop37
 90
       50
102
RTVSPost2010PropOp37
 70
     1
102
RTVSPost2010Prop38
140
0.0
102
RTVSPost2010PropOp38
 70
     1
102
RTVSPost2010Prop39
140
1.0
102
RTVSPost2010PropOp39
 70
     1
102
RTVSPost2010Prop40
 90
        0
102
RTVSPost2010PropOp40
 70
     1
102
RTVSPost2010Prop41ColorIndex
 90
       18
102
RTVSPost2010Prop41ColorRGB
 90
        0
102
RTVSPost2010PropOp41
 70
     1
102
RTVSPost2010Prop42
 90
       50
102
RTVSPost2010PropOp42
 70
     1
102
RTVSPost2010Prop43
 90
        3
102
RTVSPost2010PropOp43
 70
     1
102
RTVSPost2010Prop44ColorIndex
 90
        5
102
RTVSPost2010Prop44ColorRGB
 90
      255
102
RTVSPost2010PropOp44
 70
     1
102
RTVSPost2010Prop45
280
     0
102
RTVSPost2010PropOp45
 70
     1
102
RTVSPost2010Prop46
 90
       50
102
RTVSPost2010PropOp46
 70
     1
102
RTVSPost2010Prop47
 90
       50
102
RTVSPost2010PropOp47
 70
     1
102
RTVSPost2010Prop48
 90
       50
102
RTVSPost2010PropOp48
 70
     1
102
RTVSPost2010Prop49
280
     0
102
RTVSPost2010PropOp49
 70
     1
102
RTVSPost2010Prop50
 90
       50
102
RTVSPost2010PropOp50
 70
     1
102
RTVSPost2010Prop51ColorIndex
 90
      256
102
RTVSPost2010Prop51ColorRGB
 90
-16777216
102
RTVSPost2010PropOp51
 70
     0
102
RTVSPost2010Prop52
140
1.0
102
RTVSPost2010PropOp52
 70
     0
102
RTVSPost2010Prop53
 90
        2
102
RTVSPost2010PropOp53
 70
     1
102
RTVSPost2010Prop54
  1
strokes_ogs.tif
102
RTVSPost2010PropOp54
 70
     1
102
RTVSPost2010Prop55
280
     0
102
RTVSPost2010PropOp55
 70
     1
102
RTVSPost2010Prop56
140
1.0
102
RTVSPost2010PropOp56
 70
     1
102
RTVSPost2010Prop57
140
1.0
102
RTVSPost2010PropOp57
 70
     1
102
RTVSPropertyOp0
 70
     1
102
RTVSPropertyOp1
 70
     1
102
RTVSPropertyOp2
 70
     1
102
RTVSPropertyOp3
 70
     1
102
RTVSPropertyOp4
 70
     1
102
RTVSPropertyOp5
 70
     1
102
RTVSPropertyOp6
 70
     1
102
RTVSPropertyOp7
 70
     1
102
RTVSPropertyOp8
 70
     1
102
RTVSPropertyOp9
 70
     1
102
RTVSPropertyOp10
 70
     1
102
RTVSPropertyOp11
 70
     1
102
RTVSPropertyOp12
 70
     1
102
RTVSPropertyOp13
 70
     1
102
RTVSPropertyOp14
 70
     1
102
RTVSPropertyOp15
 70
     1
102
RTVSPropertyOp16
 70
     1
102
RTVSPropertyOp17
 70
     1
102
RTVSPropertyOp18
 70
     1
102
RTVSPropertyOp19
 70
     1
102
RTVSPropertyOp20
 70
     1
102
RTVSPropertyOp21
 70
     1
102
RTVSPropertyOp22
 70
     1
102
RTVSPropertyOp23
 70
     1
102
RTVSPropertyOp24
 70
     1
102
RTVSPropertyOp25
 70
     1
102
RTVSPropertyOp26
 70
     1
102
RTVSPropertyOp27
 70
     1
102
RTVSPropertyOp28
 70
     1
102
RTVSPropertyOp29
 70
     1
102
RTVSPropertyOp30
 70
     1
102
RTVSPropertyOp31
 70
     1
102
RTVSPropertyOp32
 70
     1
102
RTVSPropertyOp33
 70
     1
102
RTVSPropertyOp34
 70
     1
102
RTVSPropertyOp35
 70
     1
102
RTVSPropertyOp36
 70
     1
102
RTVSPropertyOp37
 70
     1
102
RTVSPropertyOp38
 70
     1
102
RTVSPropertyOp39
 70
     1
102
RTVSPropertyOp40
 70
     1
102
RTVSPropertyOp41
 70
     1
102
RTVSPropertyOp42
 70
     1
102
RTVSPropertyOp43
 70
     1
102
RTVSPropertyOp44
 70
     1
102
RTVSPropertyOp45
 70
     1
102
RTVSPropertyOp46
 70
     1
102
RTVSPropertyOp47
 70
     1
102
RTVSPropertyOp48
 70
     1
102
RTVSPropertyOp49
 70
     1
102
RTVSPropertyOp50
 70
     1
102
RTVSPropertyOp51
 70
     0
102
RTVSPropertyOp52
 70
     0
102
RTVSPropertyOp53
 70
     1
102
RTVSPropertyOp54
 70
     1
102
RTVSPropertyOp55
 70
     1
102
RTVSPropertyOp56
 70
     1
102
RTVSPropertyOp57
 70
     1
102
RTVSPropertyOp58
 70
     1
102
RTVSPropertyOp59
 70
     1
102
RTVSPropertyOp60
 70
     1
102
RTVSPropertyOp61
 70
     1
102
RTVSPropertyOp62
 70
     1
  0
XRECORD
  5
87B9
102
{ACAD_REACTORS
330
87B8
102
}
330
87B8
100
AcDbXrecord
280
     1
102
RTVSPost2010Prop28
280
     0
102
RTVSPost2010PropOp28
 70
     1
102
RTVSPost2010Prop29
280
     1
102
RTVSPost2010PropOp29
 70
     1
102
RTVSPost2010Prop30
280
     1
102
RTVSPost2010PropOp30
 70
     1
102
RTVSPost2010Prop31
280
     0
102
RTVSPost2010PropOp31
 70
     1
102
RTVSPost2010Prop32
280
     0
102
RTVSPost2010PropOp32
 70
     1
102
RTVSPost2010Prop33
280
     0
102
RTVSPost2010PropOp33
 70
     1
102
RTVSPost2010Prop34
280
     0
102
RTVSPost2010PropOp34
 70
     1
102
RTVSPost2010Prop35
280
     0
102
RTVSPost2010PropOp35
 70
     1
102
RTVSPost2010Prop36
280
     0
102
RTVSPost2010PropOp36
 70
     1
102
RTVSPost2010Prop37
 90
       50
102
RTVSPost2010PropOp37
 70
     1
102
RTVSPost2010Prop38
140
0.0
102
RTVSPost2010PropOp38
 70
     1
102
RTVSPost2010Prop39
140
1.0
102
RTVSPost2010PropOp39
 70
     1
102
RTVSPost2010Prop40
 90
        0
102
RTVSPost2010PropOp40
 70
     1
102
RTVSPost2010Prop41ColorIndex
 90
       18
102
RTVSPost2010Prop41ColorRGB
 90
        0
102
RTVSPost2010PropOp41
 70
     1
102
RTVSPost2010Prop42
 90
       50
102
RTVSPost2010PropOp42
 70
     1
102
RTVSPost2010Prop43
 90
        3
102
RTVSPost2010PropOp43
 70
     1
102
RTVSPost2010Prop44ColorIndex
 90
        5
102
RTVSPost2010Prop44ColorRGB
 90
      255
102
RTVSPost2010PropOp44
 70
     1
102
RTVSPost2010Prop45
280
     0
102
RTVSPost2010PropOp45
 70
     1
102
RTVSPost2010Prop46
 90
       50
102
RTVSPost2010PropOp46
 70
     1
102
RTVSPost2010Prop47
 90
       50
102
RTVSPost2010PropOp47
 70
     1
102
RTVSPost2010Prop48
 90
       50
102
RTVSPost2010PropOp48
 70
     1
102
RTVSPost2010Prop49
280
     0
102
RTVSPost2010PropOp49
 70
     1
102
RTVSPost2010Prop50
 90
       50
102
RTVSPost2010PropOp50
 70
     1
102
RTVSPost2010Prop51ColorIndex
 90
      256
102
RTVSPost2010Prop51ColorRGB
 90
-16777216
102
RTVSPost2010PropOp51
 70
     0
102
RTVSPost2010Prop52
140
1.0
102
RTVSPost2010PropOp52
 70
     0
102
RTVSPost2010Prop53
 90
        2
102
RTVSPost2010PropOp53
 70
     1
102
RTVSPost2010Prop54
  1
strokes_ogs.tif
102
RTVSPost2010PropOp54
 70
     1
102
RTVSPost2010Prop55
280
     0
102
RTVSPost2010PropOp55
 70
     1
102
RTVSPost2010Prop56
140
1.0
102
RTVSPost2010PropOp56
 70
     1
102
RTVSPost2010Prop57
140
1.0
102
RTVSPost2010PropOp57
 70
     1
102
RTVSPropertyOp0
 70
     1
102
RTVSPropertyOp1
 70
     1
102
RTVSPropertyOp2
 70
     1
102
RTVSPropertyOp3
 70
     1
102
RTVSPropertyOp4
 70
     1
102
RTVSPropertyOp5
 70
     1
102
RTVSPropertyOp6
 70
     1
102
RTVSPropertyOp7
 70
     1
102
RTVSPropertyOp8
 70
     1
102
RTVSPropertyOp9
 70
     1
102
RTVSPropertyOp10
 70
     1
102
RTVSPropertyOp11
 70
     1
102
RTVSPropertyOp12
 70
     1
102
RTVSPropertyOp13
 70
     1
102
RTVSPropertyOp14
 70
     1
102
RTVSPropertyOp15
 70
     1
102
RTVSPropertyOp16
 70
     1
102
RTVSPropertyOp17
 70
     1
102
RTVSPropertyOp18
 70
     1
102
RTVSPropertyOp19
 70
     1
102
RTVSPropertyOp20
 70
     1
102
RTVSPropertyOp21
 70
     1
102
RTVSPropertyOp22
 70
     1
102
RTVSPropertyOp23
 70
     1
102
RTVSPropertyOp24
 70
     1
102
RTVSPropertyOp25
 70
     1
102
RTVSPropertyOp26
 70
     1
102
RTVSPropertyOp27
 70
     1
102
RTVSPropertyOp28
 70
     1
102
RTVSPropertyOp29
 70
     1
102
RTVSPropertyOp30
 70
     1
102
RTVSPropertyOp31
 70
     1
102
RTVSPropertyOp32
 70
     1
102
RTVSPropertyOp33
 70
     1
102
RTVSPropertyOp34
 70
     1
102
RTVSPropertyOp35
 70
     1
102
RTVSPropertyOp36
 70
     1
102
RTVSPropertyOp37
 70
     1
102
RTVSPropertyOp38
 70
     1
102
RTVSPropertyOp39
 70
     1
102
RTVSPropertyOp40
 70
     1
102
RTVSPropertyOp41
 70
     1
102
RTVSPropertyOp42
 70
     1
102
RTVSPropertyOp43
 70
     1
102
RTVSPropertyOp44
 70
     1
102
RTVSPropertyOp45
 70
     1
102
RTVSPropertyOp46
 70
     1
102
RTVSPropertyOp47
 70
     1
102
RTVSPropertyOp48
 70
     1
102
RTVSPropertyOp49
 70
     1
102
RTVSPropertyOp50
 70
     1
102
RTVSPropertyOp51
 70
     0
102
RTVSPropertyOp52
 70
     0
102
RTVSPropertyOp53
 70
     1
102
RTVSPropertyOp54
 70
     1
102
RTVSPropertyOp55
 70
     1
102
RTVSPropertyOp56
 70
     1
102
RTVSPropertyOp57
 70
     1
102
RTVSPropertyOp58
 70
     1
102
RTVSPropertyOp59
 70
     1
102
RTVSPropertyOp60
 70
     1
102
RTVSPropertyOp61
 70
     1
102
RTVSPropertyOp62
 70
     1
  0
XRECORD
  5
87C7
102
{ACAD_REACTORS
330
87C6
102
}
330
87C6
100
AcDbXrecord
280
     1
102
RTVSPost2010Prop28
280
     0
102
RTVSPost2010PropOp28
 70
     1
102
RTVSPost2010Prop29
280
     1
102
RTVSPost2010PropOp29
 70
     1
102
RTVSPost2010Prop30
280
     1
102
RTVSPost2010PropOp30
 70
     1
102
RTVSPost2010Prop31
280
     0
102
RTVSPost2010PropOp31
 70
     1
102
RTVSPost2010Prop32
280
     0
102
RTVSPost2010PropOp32
 70
     1
102
RTVSPost2010Prop33
280
     0
102
RTVSPost2010PropOp33
 70
     1
102
RTVSPost2010Prop34
280
     0
102
RTVSPost2010PropOp34
 70
     1
102
RTVSPost2010Prop35
280
     0
102
RTVSPost2010PropOp35
 70
     1
102
RTVSPost2010Prop36
280
     0
102
RTVSPost2010PropOp36
 70
     1
102
RTVSPost2010Prop37
 90
       50
102
RTVSPost2010PropOp37
 70
     1
102
RTVSPost2010Prop38
140
0.0
102
RTVSPost2010PropOp38
 70
     1
102
RTVSPost2010Prop39
140
1.0
102
RTVSPost2010PropOp39
 70
     1
102
RTVSPost2010Prop40
 90
        0
102
RTVSPost2010PropOp40
 70
     1
102
RTVSPost2010Prop41ColorIndex
 90
       18
102
RTVSPost2010Prop41ColorRGB
 90
        0
102
RTVSPost2010PropOp41
 70
     1
102
RTVSPost2010Prop42
 90
       50
102
RTVSPost2010PropOp42
 70
     1
102
RTVSPost2010Prop43
 90
        3
102
RTVSPost2010PropOp43
 70
     1
102
RTVSPost2010Prop44ColorIndex
 90
        5
102
RTVSPost2010Prop44ColorRGB
 90
      255
102
RTVSPost2010PropOp44
 70
     1
102
RTVSPost2010Prop45
280
     0
102
RTVSPost2010PropOp45
 70
     1
102
RTVSPost2010Prop46
 90
       50
102
RTVSPost2010PropOp46
 70
     1
102
RTVSPost2010Prop47
 90
       50
102
RTVSPost2010PropOp47
 70
     1
102
RTVSPost2010Prop48
 90
       50
102
RTVSPost2010PropOp48
 70
     1
102
RTVSPost2010Prop49
280
     0
102
RTVSPost2010PropOp49
 70
     1
102
RTVSPost2010Prop50
 90
       50
102
RTVSPost2010PropOp50
 70
     1
102
RTVSPost2010Prop51ColorIndex
 90
      256
102
RTVSPost2010Prop51ColorRGB
 90
-16777216
102
RTVSPost2010PropOp51
 70
     0
102
RTVSPost2010Prop52
140
1.0
102
RTVSPost2010PropOp52
 70
     0
102
RTVSPost2010Prop53
 90
        2
102
RTVSPost2010PropOp53
 70
     1
102
RTVSPost2010Prop54
  1
strokes_ogs.tif
102
RTVSPost2010PropOp54
 70
     1
102
RTVSPost2010Prop55
280
     0
102
RTVSPost2010PropOp55
 70
     1
102
RTVSPost2010Prop56
140
1.0
102
RTVSPost2010PropOp56
 70
     1
102
RTVSPost2010Prop57
140
1.0
102
RTVSPost2010PropOp57
 70
     1
102
RTVSPropertyOp0
 70
     1
102
RTVSPropertyOp1
 70
     1
102
RTVSPropertyOp2
 70
     1
102
RTVSPropertyOp3
 70
     1
102
RTVSPropertyOp4
 70
     1
102
RTVSPropertyOp5
 70
     1
102
RTVSPropertyOp6
 70
     1
102
RTVSPropertyOp7
 70
     1
102
RTVSPropertyOp8
 70
     1
102
RTVSPropertyOp9
 70
     1
102
RTVSPropertyOp10
 70
     1
102
RTVSPropertyOp11
 70
     1
102
RTVSPropertyOp12
 70
     1
102
RTVSPropertyOp13
 70
     1
102
RTVSPropertyOp14
 70
     1
102
RTVSPropertyOp15
 70
     1
102
RTVSPropertyOp16
 70
     1
102
RTVSPropertyOp17
 70
     1
102
RTVSPropertyOp18
 70
     1
102
RTVSPropertyOp19
 70
     1
102
RTVSPropertyOp20
 70
     1
102
RTVSPropertyOp21
 70
     1
102
RTVSPropertyOp22
 70
     1
102
RTVSPropertyOp23
 70
     1
102
RTVSPropertyOp24
 70
     1
102
RTVSPropertyOp25
 70
     1
102
RTVSPropertyOp26
 70
     1
102
RTVSPropertyOp27
 70
     1
102
RTVSPropertyOp28
 70
     1
102
RTVSPropertyOp29
 70
     1
102
RTVSPropertyOp30
 70
     1
102
RTVSPropertyOp31
 70
     1
102
RTVSPropertyOp32
 70
     1
102
RTVSPropertyOp33
 70
     1
102
RTVSPropertyOp34
 70
     1
102
RTVSPropertyOp35
 70
     1
102
RTVSPropertyOp36
 70
     1
102
RTVSPropertyOp37
 70
     1
102
RTVSPropertyOp38
 70
     1
102
RTVSPropertyOp39
 70
     1
102
RTVSPropertyOp40
 70
     1
102
RTVSPropertyOp41
 70
     1
102
RTVSPropertyOp42
 70
     1
102
RTVSPropertyOp43
 70
     1
102
RTVSPropertyOp44
 70
     1
102
RTVSPropertyOp45
 70
     1
102
RTVSPropertyOp46
 70
     1
102
RTVSPropertyOp47
 70
     1
102
RTVSPropertyOp48
 70
     1
102
RTVSPropertyOp49
 70
     1
102
RTVSPropertyOp50
 70
     1
102
RTVSPropertyOp51
 70
     0
102
RTVSPropertyOp52
 70
     0
102
RTVSPropertyOp53
 70
     1
102
RTVSPropertyOp54
 70
     1
102
RTVSPropertyOp55
 70
     1
102
RTVSPropertyOp56
 70
     1
102
RTVSPropertyOp57
 70
     1
102
RTVSPropertyOp58
 70
     1
102
RTVSPropertyOp59
 70
     1
102
RTVSPropertyOp60
 70
     1
102
RTVSPropertyOp61
 70
     1
102
RTVSPropertyOp62
 70
     1
  0
XRECORD
  5
87CF
102
{ACAD_REACTORS
330
87CE
102
}
330
87CE
100
AcDbXrecord
280
     1
102
RTVSPost2010Prop28
280
     0
102
RTVSPost2010PropOp28
 70
     1
102
RTVSPost2010Prop29
280
     1
102
RTVSPost2010PropOp29
 70
     1
102
RTVSPost2010Prop30
280
     1
102
RTVSPost2010PropOp30
 70
     1
102
RTVSPost2010Prop31
280
     0
102
RTVSPost2010PropOp31
 70
     1
102
RTVSPost2010Prop32
280
     0
102
RTVSPost2010PropOp32
 70
     1
102
RTVSPost2010Prop33
280
     0
102
RTVSPost2010PropOp33
 70
     1
102
RTVSPost2010Prop34
280
     0
102
RTVSPost2010PropOp34
 70
     1
102
RTVSPost2010Prop35
280
     0
102
RTVSPost2010PropOp35
 70
     1
102
RTVSPost2010Prop36
280
     0
102
RTVSPost2010PropOp36
 70
     1
102
RTVSPost2010Prop37
 90
       50
102
RTVSPost2010PropOp37
 70
     1
102
RTVSPost2010Prop38
140
0.0
102
RTVSPost2010PropOp38
 70
     1
102
RTVSPost2010Prop39
140
1.0
102
RTVSPost2010PropOp39
 70
     1
102
RTVSPost2010Prop40
 90
        0
102
RTVSPost2010PropOp40
 70
     1
102
RTVSPost2010Prop41ColorIndex
 90
       18
102
RTVSPost2010Prop41ColorRGB
 90
        0
102
RTVSPost2010PropOp41
 70
     1
102
RTVSPost2010Prop42
 90
       50
102
RTVSPost2010PropOp42
 70
     1
102
RTVSPost2010Prop43
 90
        3
102
RTVSPost2010PropOp43
 70
     1
102
RTVSPost2010Prop44ColorIndex
 90
        5
102
RTVSPost2010Prop44ColorRGB
 90
      255
102
RTVSPost2010PropOp44
 70
     1
102
RTVSPost2010Prop45
280
     0
102
RTVSPost2010PropOp45
 70
     1
102
RTVSPost2010Prop46
 90
       50
102
RTVSPost2010PropOp46
 70
     1
102
RTVSPost2010Prop47
 90
       50
102
RTVSPost2010PropOp47
 70
     1
102
RTVSPost2010Prop48
 90
       50
102
RTVSPost2010PropOp48
 70
     1
102
RTVSPost2010Prop49
280
     0
102
RTVSPost2010PropOp49
 70
     1
102
RTVSPost2010Prop50
 90
       50
102
RTVSPost2010PropOp50
 70
     1
102
RTVSPost2010Prop51ColorIndex
 90
      256
102
RTVSPost2010Prop51ColorRGB
 90
-16777216
102
RTVSPost2010PropOp51
 70
     0
102
RTVSPost2010Prop52
140
1.0
102
RTVSPost2010PropOp52
 70
     0
102
RTVSPost2010Prop53
 90
        2
102
RTVSPost2010PropOp53
 70
     1
102
RTVSPost2010Prop54
  1
strokes_ogs.tif
102
RTVSPost2010PropOp54
 70
     1
102
RTVSPost2010Prop55
280
     0
102
RTVSPost2010PropOp55
 70
     1
102
RTVSPost2010Prop56
140
1.0
102
RTVSPost2010PropOp56
 70
     1
102
RTVSPost2010Prop57
140
1.0
102
RTVSPost2010PropOp57
 70
     1
102
RTVSPropertyOp0
 70
     1
102
RTVSPropertyOp1
 70
     1
102
RTVSPropertyOp2
 70
     1
102
RTVSPropertyOp3
 70
     1
102
RTVSPropertyOp4
 70
     1
102
RTVSPropertyOp5
 70
     1
102
RTVSPropertyOp6
 70
     1
102
RTVSPropertyOp7
 70
     1
102
RTVSPropertyOp8
 70
     1
102
RTVSPropertyOp9
 70
     1
102
RTVSPropertyOp10
 70
     1
102
RTVSPropertyOp11
 70
     1
102
RTVSPropertyOp12
 70
     1
102
RTVSPropertyOp13
 70
     1
102
RTVSPropertyOp14
 70
     1
102
RTVSPropertyOp15
 70
     1
102
RTVSPropertyOp16
 70
     1
102
RTVSPropertyOp17
 70
     1
102
RTVSPropertyOp18
 70
     1
102
RTVSPropertyOp19
 70
     1
102
RTVSPropertyOp20
 70
     1
102
RTVSPropertyOp21
 70
     1
102
RTVSPropertyOp22
 70
     1
102
RTVSPropertyOp23
 70
     1
102
RTVSPropertyOp24
 70
     1
102
RTVSPropertyOp25
 70
     1
102
RTVSPropertyOp26
 70
     1
102
RTVSPropertyOp27
 70
     1
102
RTVSPropertyOp28
 70
     1
102
RTVSPropertyOp29
 70
     1
102
RTVSPropertyOp30
 70
     1
102
RTVSPropertyOp31
 70
     1
102
RTVSPropertyOp32
 70
     1
102
RTVSPropertyOp33
 70
     1
102
RTVSPropertyOp34
 70
     1
102
RTVSPropertyOp35
 70
     1
102
RTVSPropertyOp36
 70
     1
102
RTVSPropertyOp37
 70
     1
102
RTVSPropertyOp38
 70
     1
102
RTVSPropertyOp39
 70
     1
102
RTVSPropertyOp40
 70
     1
102
RTVSPropertyOp41
 70
     1
102
RTVSPropertyOp42
 70
     1
102
RTVSPropertyOp43
 70
     1
102
RTVSPropertyOp44
 70
     1
102
RTVSPropertyOp45
 70
     1
102
RTVSPropertyOp46
 70
     1
102
RTVSPropertyOp47
 70
     1
102
RTVSPropertyOp48
 70
     1
102
RTVSPropertyOp49
 70
     1
102
RTVSPropertyOp50
 70
     1
102
RTVSPropertyOp51
 70
     0
102
RTVSPropertyOp52
 70
     0
102
RTVSPropertyOp53
 70
     1
102
RTVSPropertyOp54
 70
     1
102
RTVSPropertyOp55
 70
     1
102
RTVSPropertyOp56
 70
     1
102
RTVSPropertyOp57
 70
     1
102
RTVSPropertyOp58
 70
     1
102
RTVSPropertyOp59
 70
     1
102
RTVSPropertyOp60
 70
     1
102
RTVSPropertyOp61
 70
     1
102
RTVSPropertyOp62
 70
     1
  0
XRECORD
  5
87C1
102
{ACAD_REACTORS
330
87C0
102
}
330
87C0
100
AcDbXrecord
280
     1
102
RTVSPost2010Prop28
280
     0
102
RTVSPost2010PropOp28
 70
     1
102
RTVSPost2010Prop29
280
     1
102
RTVSPost2010PropOp29
 70
     1
102
RTVSPost2010Prop30
280
     1
102
RTVSPost2010PropOp30
 70
     1
102
RTVSPost2010Prop31
280
     0
102
RTVSPost2010PropOp31
 70
     1
102
RTVSPost2010Prop32
280
     0
102
RTVSPost2010PropOp32
 70
     1
102
RTVSPost2010Prop33
280
     0
102
RTVSPost2010PropOp33
 70
     1
102
RTVSPost2010Prop34
280
     0
102
RTVSPost2010PropOp34
 70
     1
102
RTVSPost2010Prop35
280
     0
102
RTVSPost2010PropOp35
 70
     1
102
RTVSPost2010Prop36
280
     0
102
RTVSPost2010PropOp36
 70
     1
102
RTVSPost2010Prop37
 90
       50
102
RTVSPost2010PropOp37
 70
     1
102
RTVSPost2010Prop38
140
0.0
102
RTVSPost2010PropOp38
 70
     1
102
RTVSPost2010Prop39
140
1.0
102
RTVSPost2010PropOp39
 70
     1
102
RTVSPost2010Prop40
 90
        0
102
RTVSPost2010PropOp40
 70
     1
102
RTVSPost2010Prop41ColorIndex
 90
       18
102
RTVSPost2010Prop41ColorRGB
 90
        0
102
RTVSPost2010PropOp41
 70
     1
102
RTVSPost2010Prop42
 90
       50
102
RTVSPost2010PropOp42
 70
     1
102
RTVSPost2010Prop43
 90
        3
102
RTVSPost2010PropOp43
 70
     1
102
RTVSPost2010Prop44ColorIndex
 90
        5
102
RTVSPost2010Prop44ColorRGB
 90
      255
102
RTVSPost2010PropOp44
 70
     1
102
RTVSPost2010Prop45
280
     0
102
RTVSPost2010PropOp45
 70
     1
102
RTVSPost2010Prop46
 90
       50
102
RTVSPost2010PropOp46
 70
     1
102
RTVSPost2010Prop47
 90
       50
102
RTVSPost2010PropOp47
 70
     1
102
RTVSPost2010Prop48
 90
       50
102
RTVSPost2010PropOp48
 70
     1
102
RTVSPost2010Prop49
280
     0
102
RTVSPost2010PropOp49
 70
     1
102
RTVSPost2010Prop50
 90
       50
102
RTVSPost2010PropOp50
 70
     1
102
RTVSPost2010Prop51ColorIndex
 90
      256
102
RTVSPost2010Prop51ColorRGB
 90
-16777216
102
RTVSPost2010PropOp51
 70
     0
102
RTVSPost2010Prop52
140
1.0
102
RTVSPost2010PropOp52
 70
     0
102
RTVSPost2010Prop53
 90
        2
102
RTVSPost2010PropOp53
 70
     1
102
RTVSPost2010Prop54
  1
strokes_ogs.tif
102
RTVSPost2010PropOp54
 70
     1
102
RTVSPost2010Prop55
280
     0
102
RTVSPost2010PropOp55
 70
     1
102
RTVSPost2010Prop56
140
1.0
102
RTVSPost2010PropOp56
 70
     1
102
RTVSPost2010Prop57
140
1.0
102
RTVSPost2010PropOp57
 70
     1
102
RTVSPropertyOp0
 70
     1
102
RTVSPropertyOp1
 70
     1
102
RTVSPropertyOp2
 70
     1
102
RTVSPropertyOp3
 70
     1
102
RTVSPropertyOp4
 70
     1
102
RTVSPropertyOp5
 70
     1
102
RTVSPropertyOp6
 70
     1
102
RTVSPropertyOp7
 70
     1
102
RTVSPropertyOp8
 70
     1
102
RTVSPropertyOp9
 70
     1
102
RTVSPropertyOp10
 70
     1
102
RTVSPropertyOp11
 70
     1
102
RTVSPropertyOp12
 70
     1
102
RTVSPropertyOp13
 70
     1
102
RTVSPropertyOp14
 70
     1
102
RTVSPropertyOp15
 70
     1
102
RTVSPropertyOp16
 70
     1
102
RTVSPropertyOp17
 70
     1
102
RTVSPropertyOp18
 70
     1
102
RTVSPropertyOp19
 70
     1
102
RTVSPropertyOp20
 70
     1
102
RTVSPropertyOp21
 70
     1
102
RTVSPropertyOp22
 70
     1
102
RTVSPropertyOp23
 70
     1
102
RTVSPropertyOp24
 70
     1
102
RTVSPropertyOp25
 70
     1
102
RTVSPropertyOp26
 70
     1
102
RTVSPropertyOp27
 70
     1
102
RTVSPropertyOp28
 70
     1
102
RTVSPropertyOp29
 70
     1
102
RTVSPropertyOp30
 70
     1
102
RTVSPropertyOp31
 70
     1
102
RTVSPropertyOp32
 70
     1
102
RTVSPropertyOp33
 70
     1
102
RTVSPropertyOp34
 70
     1
102
RTVSPropertyOp35
 70
     1
102
RTVSPropertyOp36
 70
     1
102
RTVSPropertyOp37
 70
     1
102
RTVSPropertyOp38
 70
     1
102
RTVSPropertyOp39
 70
     1
102
RTVSPropertyOp40
 70
     1
102
RTVSPropertyOp41
 70
     1
102
RTVSPropertyOp42
 70
     1
102
RTVSPropertyOp43
 70
     1
102
RTVSPropertyOp44
 70
     1
102
RTVSPropertyOp45
 70
     1
102
RTVSPropertyOp46
 70
     1
102
RTVSPropertyOp47
 70
     1
102
RTVSPropertyOp48
 70
     1
102
RTVSPropertyOp49
 70
     1
102
RTVSPropertyOp50
 70
     1
102
RTVSPropertyOp51
 70
     0
102
RTVSPropertyOp52
 70
     0
102
RTVSPropertyOp53
 70
     1
102
RTVSPropertyOp54
 70
     1
102
RTVSPropertyOp55
 70
     1
102
RTVSPropertyOp56
 70
     1
102
RTVSPropertyOp57
 70
     1
102
RTVSPropertyOp58
 70
     1
102
RTVSPropertyOp59
 70
     1
102
RTVSPropertyOp60
 70
     1
102
RTVSPropertyOp61
 70
     1
102
RTVSPropertyOp62
 70
     1
  0
XRECORD
  5
87C5
102
{ACAD_REACTORS
330
87C4
102
}
330
87C4
100
AcDbXrecord
280
     1
102
RTVSPost2010Prop28
280
     0
102
RTVSPost2010PropOp28
 70
     1
102
RTVSPost2010Prop29
280
     1
102
RTVSPost2010PropOp29
 70
     1
102
RTVSPost2010Prop30
280
     1
102
RTVSPost2010PropOp30
 70
     1
102
RTVSPost2010Prop31
280
     0
102
RTVSPost2010PropOp31
 70
     1
102
RTVSPost2010Prop32
280
     0
102
RTVSPost2010PropOp32
 70
     1
102
RTVSPost2010Prop33
280
     0
102
RTVSPost2010PropOp33
 70
     1
102
RTVSPost2010Prop34
280
     0
102
RTVSPost2010PropOp34
 70
     1
102
RTVSPost2010Prop35
280
     0
102
RTVSPost2010PropOp35
 70
     1
102
RTVSPost2010Prop36
280
     0
102
RTVSPost2010PropOp36
 70
     1
102
RTVSPost2010Prop37
 90
       50
102
RTVSPost2010PropOp37
 70
     1
102
RTVSPost2010Prop38
140
0.0
102
RTVSPost2010PropOp38
 70
     1
102
RTVSPost2010Prop39
140
1.0
102
RTVSPost2010PropOp39
 70
     1
102
RTVSPost2010Prop40
 90
        0
102
RTVSPost2010PropOp40
 70
     1
102
RTVSPost2010Prop41ColorIndex
 90
       18
102
RTVSPost2010Prop41ColorRGB
 90
        0
102
RTVSPost2010PropOp41
 70
     1
102
RTVSPost2010Prop42
 90
       50
102
RTVSPost2010PropOp42
 70
     1
102
RTVSPost2010Prop43
 90
        3
102
RTVSPost2010PropOp43
 70
     1
102
RTVSPost2010Prop44ColorIndex
 90
        5
102
RTVSPost2010Prop44ColorRGB
 90
      255
102
RTVSPost2010PropOp44
 70
     1
102
RTVSPost2010Prop45
280
     0
102
RTVSPost2010PropOp45
 70
     1
102
RTVSPost2010Prop46
 90
       50
102
RTVSPost2010PropOp46
 70
     1
102
RTVSPost2010Prop47
 90
       50
102
RTVSPost2010PropOp47
 70
     1
102
RTVSPost2010Prop48
 90
       50
102
RTVSPost2010PropOp48
 70
     1
102
RTVSPost2010Prop49
280
     0
102
RTVSPost2010PropOp49
 70
     1
102
RTVSPost2010Prop50
 90
       50
102
RTVSPost2010PropOp50
 70
     1
102
RTVSPost2010Prop51ColorIndex
 90
      256
102
RTVSPost2010Prop51ColorRGB
 90
-16777216
102
RTVSPost2010PropOp51
 70
     0
102
RTVSPost2010Prop52
140
1.0
102
RTVSPost2010PropOp52
 70
     0
102
RTVSPost2010Prop53
 90
        2
102
RTVSPost2010PropOp53
 70
     1
102
RTVSPost2010Prop54
  1
strokes_ogs.tif
102
RTVSPost2010PropOp54
 70
     1
102
RTVSPost2010Prop55
280
     0
102
RTVSPost2010PropOp55
 70
     1
102
RTVSPost2010Prop56
140
1.0
102
RTVSPost2010PropOp56
 70
     1
102
RTVSPost2010Prop57
140
1.0
102
RTVSPost2010PropOp57
 70
     1
102
RTVSPropertyOp0
 70
     1
102
RTVSPropertyOp1
 70
     1
102
RTVSPropertyOp2
 70
     1
102
RTVSPropertyOp3
 70
     1
102
RTVSPropertyOp4
 70
     1
102
RTVSPropertyOp5
 70
     1
102
RTVSPropertyOp6
 70
     1
102
RTVSPropertyOp7
 70
     1
102
RTVSPropertyOp8
 70
     1
102
RTVSPropertyOp9
 70
     1
102
RTVSPropertyOp10
 70
     1
102
RTVSPropertyOp11
 70
     1
102
RTVSPropertyOp12
 70
     1
102
RTVSPropertyOp13
 70
     1
102
RTVSPropertyOp14
 70
     1
102
RTVSPropertyOp15
 70
     1
102
RTVSPropertyOp16
 70
     1
102
RTVSPropertyOp17
 70
     1
102
RTVSPropertyOp18
 70
     1
102
RTVSPropertyOp19
 70
     1
102
RTVSPropertyOp20
 70
     1
102
RTVSPropertyOp21
 70
     1
102
RTVSPropertyOp22
 70
     1
102
RTVSPropertyOp23
 70
     1
102
RTVSPropertyOp24
 70
     1
102
RTVSPropertyOp25
 70
     1
102
RTVSPropertyOp26
 70
     1
102
RTVSPropertyOp27
 70
     1
102
RTVSPropertyOp28
 70
     1
102
RTVSPropertyOp29
 70
     1
102
RTVSPropertyOp30
 70
     1
102
RTVSPropertyOp31
 70
     1
102
RTVSPropertyOp32
 70
     1
102
RTVSPropertyOp33
 70
     1
102
RTVSPropertyOp34
 70
     1
102
RTVSPropertyOp35
 70
     1
102
RTVSPropertyOp36
 70
     1
102
RTVSPropertyOp37
 70
     1
102
RTVSPropertyOp38
 70
     1
102
RTVSPropertyOp39
 70
     1
102
RTVSPropertyOp40
 70
     1
102
RTVSPropertyOp41
 70
     1
102
RTVSPropertyOp42
 70
     1
102
RTVSPropertyOp43
 70
     1
102
RTVSPropertyOp44
 70
     1
102
RTVSPropertyOp45
 70
     1
102
RTVSPropertyOp46
 70
     1
102
RTVSPropertyOp47
 70
     1
102
RTVSPropertyOp48
 70
     1
102
RTVSPropertyOp49
 70
     1
102
RTVSPropertyOp50
 70
     1
102
RTVSPropertyOp51
 70
     0
102
RTVSPropertyOp52
 70
     0
102
RTVSPropertyOp53
 70
     1
102
RTVSPropertyOp54
 70
     1
102
RTVSPropertyOp55
 70
     1
102
RTVSPropertyOp56
 70
     1
102
RTVSPropertyOp57
 70
     1
102
RTVSPropertyOp58
 70
     1
102
RTVSPropertyOp59
 70
     1
102
RTVSPropertyOp60
 70
     1
102
RTVSPropertyOp61
 70
     1
102
RTVSPropertyOp62
 70
     1
  0
XRECORD
  5
87DF
102
{ACAD_REACTORS
330
87DE
102
}
330
87DE
100
AcDbXrecord
280
     1
102
RTVSPost2010Prop28
280
     0
102
RTVSPost2010PropOp28
 70
     1
102
RTVSPost2010Prop29
280
     1
102
RTVSPost2010PropOp29
 70
     1
102
RTVSPost2010Prop30
280
     1
102
RTVSPost2010PropOp30
 70
     1
102
RTVSPost2010Prop31
280
     0
102
RTVSPost2010PropOp31
 70
     1
102
RTVSPost2010Prop32
280
     0
102
RTVSPost2010PropOp32
 70
     1
102
RTVSPost2010Prop33
280
     0
102
RTVSPost2010PropOp33
 70
     1
102
RTVSPost2010Prop34
280
     0
102
RTVSPost2010PropOp34
 70
     1
102
RTVSPost2010Prop35
280
     0
102
RTVSPost2010PropOp35
 70
     1
102
RTVSPost2010Prop36
280
     0
102
RTVSPost2010PropOp36
 70
     1
102
RTVSPost2010Prop37
 90
       50
102
RTVSPost2010PropOp37
 70
     0
102
RTVSPost2010Prop38
140
0.0
102
RTVSPost2010PropOp38
 70
     0
102
RTVSPost2010Prop39
140
1.0
102
RTVSPost2010PropOp39
 70
     0
102
RTVSPost2010Prop40
 90
        0
102
RTVSPost2010PropOp40
 70
     0
102
RTVSPost2010Prop41ColorIndex
 90
       18
102
RTVSPost2010Prop41ColorRGB
 90
        0
102
RTVSPost2010PropOp41
 70
     0
102
RTVSPost2010Prop42
 90
       50
102
RTVSPost2010PropOp42
 70
     0
102
RTVSPost2010Prop43
 90
        3
102
RTVSPost2010PropOp43
 70
     0
102
RTVSPost2010Prop44ColorIndex
 90
        5
102
RTVSPost2010Prop44ColorRGB
 90
      255
102
RTVSPost2010PropOp44
 70
     0
102
RTVSPost2010Prop45
280
     0
102
RTVSPost2010PropOp45
 70
     1
102
RTVSPost2010Prop46
 90
       50
102
RTVSPost2010PropOp46
 70
     0
102
RTVSPost2010Prop47
 90
       50
102
RTVSPost2010PropOp47
 70
     0
102
RTVSPost2010Prop48
 90
       50
102
RTVSPost2010PropOp48
 70
     0
102
RTVSPost2010Prop49
280
     0
102
RTVSPost2010PropOp49
 70
     1
102
RTVSPost2010Prop50
 90
       50
102
RTVSPost2010PropOp50
 70
     0
102
RTVSPost2010Prop51ColorIndex
 90
      256
102
RTVSPost2010Prop51ColorRGB
 90
-16777216
102
RTVSPost2010PropOp51
 70
     0
102
RTVSPost2010Prop52
140
1.0
102
RTVSPost2010PropOp52
 70
     0
102
RTVSPost2010Prop53
 90
        2
102
RTVSPost2010PropOp53
 70
     0
102
RTVSPost2010Prop54
  1
strokes_ogs.tif
102
RTVSPost2010PropOp54
 70
     0
102
RTVSPost2010Prop55
280
     0
102
RTVSPost2010PropOp55
 70
     1
102
RTVSPost2010Prop56
140
1.0
102
RTVSPost2010PropOp56
 70
     0
102
RTVSPost2010Prop57
140
1.0
102
RTVSPost2010PropOp57
 70
     0
102
RTVSPropertyOp0
 70
     0
102
RTVSPropertyOp1
 70
     0
102
RTVSPropertyOp2
 70
     0
102
RTVSPropertyOp3
 70
     0
102
RTVSPropertyOp4
 70
     0
102
RTVSPropertyOp5
 70
     0
102
RTVSPropertyOp6
 70
     0
102
RTVSPropertyOp7
 70
     0
102
RTVSPropertyOp8
 70
     0
102
RTVSPropertyOp9
 70
     0
102
RTVSPropertyOp10
 70
     0
102
RTVSPropertyOp11
 70
     0
102
RTVSPropertyOp12
 70
     0
102
RTVSPropertyOp13
 70
     0
102
RTVSPropertyOp14
 70
     2
102
RTVSPropertyOp15
 70
     0
102
RTVSPropertyOp16
 70
     0
102
RTVSPropertyOp17
 70
     0
102
RTVSPropertyOp18
 70
     0
102
RTVSPropertyOp19
 70
     0
102
RTVSPropertyOp20
 70
     0
102
RTVSPropertyOp21
 70
     0
102
RTVSPropertyOp22
 70
     0
102
RTVSPropertyOp23
 70
     0
102
RTVSPropertyOp24
 70
     0
102
RTVSPropertyOp25
 70
     0
102
RTVSPropertyOp26
 70
     0
102
RTVSPropertyOp27
 70
     0
102
RTVSPropertyOp28
 70
     1
102
RTVSPropertyOp29
 70
     1
102
RTVSPropertyOp30
 70
     1
102
RTVSPropertyOp31
 70
     1
102
RTVSPropertyOp32
 70
     1
102
RTVSPropertyOp33
 70
     1
102
RTVSPropertyOp34
 70
     1
102
RTVSPropertyOp35
 70
     1
102
RTVSPropertyOp36
 70
     1
102
RTVSPropertyOp37
 70
     0
102
RTVSPropertyOp38
 70
     0
102
RTVSPropertyOp39
 70
     0
102
RTVSPropertyOp40
 70
     0
102
RTVSPropertyOp41
 70
     0
102
RTVSPropertyOp42
 70
     0
102
RTVSPropertyOp43
 70
     0
102
RTVSPropertyOp44
 70
     0
102
RTVSPropertyOp45
 70
     1
102
RTVSPropertyOp46
 70
     0
102
RTVSPropertyOp47
 70
     0
102
RTVSPropertyOp48
 70
     0
102
RTVSPropertyOp49
 70
     1
102
RTVSPropertyOp50
 70
     0
102
RTVSPropertyOp51
 70
     0
102
RTVSPropertyOp52
 70
     0
102
RTVSPropertyOp53
 70
     0
102
RTVSPropertyOp54
 70
     0
102
RTVSPropertyOp55
 70
     1
102
RTVSPropertyOp56
 70
     0
102
RTVSPropertyOp57
 70
     0
102
RTVSPropertyOp58
 70
     0
102
RTVSPropertyOp59
 70
     0
102
RTVSPropertyOp60
 70
     0
102
RTVSPropertyOp61
 70
     0
102
RTVSPropertyOp62
 70
     0
  0
XRECORD
  5
87CD
102
{ACAD_REACTORS
330
87CC
102
}
330
87CC
100
AcDbXrecord
280
     1
102
RTVSPost2010Prop28
280
     0
102
RTVSPost2010PropOp28
 70
     1
102
RTVSPost2010Prop29
280
     1
102
RTVSPost2010PropOp29
 70
     1
102
RTVSPost2010Prop30
280
     1
102
RTVSPost2010PropOp30
 70
     1
102
RTVSPost2010Prop31
280
     0
102
RTVSPost2010PropOp31
 70
     1
102
RTVSPost2010Prop32
280
     0
102
RTVSPost2010PropOp32
 70
     1
102
RTVSPost2010Prop33
280
     0
102
RTVSPost2010PropOp33
 70
     1
102
RTVSPost2010Prop34
280
     0
102
RTVSPost2010PropOp34
 70
     1
102
RTVSPost2010Prop35
280
     0
102
RTVSPost2010PropOp35
 70
     1
102
RTVSPost2010Prop36
280
     0
102
RTVSPost2010PropOp36
 70
     1
102
RTVSPost2010Prop37
 90
       50
102
RTVSPost2010PropOp37
 70
     1
102
RTVSPost2010Prop38
140
0.0
102
RTVSPost2010PropOp38
 70
     1
102
RTVSPost2010Prop39
140
1.0
102
RTVSPost2010PropOp39
 70
     1
102
RTVSPost2010Prop40
 90
        0
102
RTVSPost2010PropOp40
 70
     1
102
RTVSPost2010Prop41ColorIndex
 90
       18
102
RTVSPost2010Prop41ColorRGB
 90
        0
102
RTVSPost2010PropOp41
 70
     1
102
RTVSPost2010Prop42
 90
       50
102
RTVSPost2010PropOp42
 70
     1
102
RTVSPost2010Prop43
 90
        3
102
RTVSPost2010PropOp43
 70
     1
102
RTVSPost2010Prop44ColorIndex
 90
        5
102
RTVSPost2010Prop44ColorRGB
 90
      255
102
RTVSPost2010PropOp44
 70
     1
102
RTVSPost2010Prop45
280
     0
102
RTVSPost2010PropOp45
 70
     1
102
RTVSPost2010Prop46
 90
       50
102
RTVSPost2010PropOp46
 70
     1
102
RTVSPost2010Prop47
 90
       50
102
RTVSPost2010PropOp47
 70
     1
102
RTVSPost2010Prop48
 90
       50
102
RTVSPost2010PropOp48
 70
     1
102
RTVSPost2010Prop49
280
     0
102
RTVSPost2010PropOp49
 70
     1
102
RTVSPost2010Prop50
 90
       50
102
RTVSPost2010PropOp50
 70
     1
102
RTVSPost2010Prop51ColorIndex
 90
      256
102
RTVSPost2010Prop51ColorRGB
 90
-16777216
102
RTVSPost2010PropOp51
 70
     0
102
RTVSPost2010Prop52
140
1.0
102
RTVSPost2010PropOp52
 70
     0
102
RTVSPost2010Prop53
 90
        2
102
RTVSPost2010PropOp53
 70
     1
102
RTVSPost2010Prop54
  1
strokes_ogs.tif
102
RTVSPost2010PropOp54
 70
     1
102
RTVSPost2010Prop55
280
     0
102
RTVSPost2010PropOp55
 70
     1
102
RTVSPost2010Prop56
140
1.0
102
RTVSPost2010PropOp56
 70
     1
102
RTVSPost2010Prop57
140
1.0
102
RTVSPost2010PropOp57
 70
     1
102
RTVSPropertyOp0
 70
     1
102
RTVSPropertyOp1
 70
     1
102
RTVSPropertyOp2
 70
     1
102
RTVSPropertyOp3
 70
     1
102
RTVSPropertyOp4
 70
     1
102
RTVSPropertyOp5
 70
     1
102
RTVSPropertyOp6
 70
     1
102
RTVSPropertyOp7
 70
     1
102
RTVSPropertyOp8
 70
     1
102
RTVSPropertyOp9
 70
     1
102
RTVSPropertyOp10
 70
     1
102
RTVSPropertyOp11
 70
     1
102
RTVSPropertyOp12
 70
     1
102
RTVSPropertyOp13
 70
     1
102
RTVSPropertyOp14
 70
     1
102
RTVSPropertyOp15
 70
     1
102
RTVSPropertyOp16
 70
     1
102
RTVSPropertyOp17
 70
     1
102
RTVSPropertyOp18
 70
     1
102
RTVSPropertyOp19
 70
     1
102
RTVSPropertyOp20
 70
     1
102
RTVSPropertyOp21
 70
     1
102
RTVSPropertyOp22
 70
     1
102
RTVSPropertyOp23
 70
     1
102
RTVSPropertyOp24
 70
     1
102
RTVSPropertyOp25
 70
     1
102
RTVSPropertyOp26
 70
     1
102
RTVSPropertyOp27
 70
     1
102
RTVSPropertyOp28
 70
     1
102
RTVSPropertyOp29
 70
     1
102
RTVSPropertyOp30
 70
     1
102
RTVSPropertyOp31
 70
     1
102
RTVSPropertyOp32
 70
     1
102
RTVSPropertyOp33
 70
     1
102
RTVSPropertyOp34
 70
     1
102
RTVSPropertyOp35
 70
     1
102
RTVSPropertyOp36
 70
     1
102
RTVSPropertyOp37
 70
     1
102
RTVSPropertyOp38
 70
     1
102
RTVSPropertyOp39
 70
     1
102
RTVSPropertyOp40
 70
     1
102
RTVSPropertyOp41
 70
     1
102
RTVSPropertyOp42
 70
     1
102
RTVSPropertyOp43
 70
     1
102
RTVSPropertyOp44
 70
     1
102
RTVSPropertyOp45
 70
     1
102
RTVSPropertyOp46
 70
     1
102
RTVSPropertyOp47
 70
     1
102
RTVSPropertyOp48
 70
     1
102
RTVSPropertyOp49
 70
     1
102
RTVSPropertyOp50
 70
     1
102
RTVSPropertyOp51
 70
     0
102
RTVSPropertyOp52
 70
     0
102
RTVSPropertyOp53
 70
     1
102
RTVSPropertyOp54
 70
     1
102
RTVSPropertyOp55
 70
     1
102
RTVSPropertyOp56
 70
     1
102
RTVSPropertyOp57
 70
     1
102
RTVSPropertyOp58
 70
     1
102
RTVSPropertyOp59
 70
     1
102
RTVSPropertyOp60
 70
     1
102
RTVSPropertyOp61
 70
     1
102
RTVSPropertyOp62
 70
     1
  0
XRECORD
  5
87B1
102
{ACAD_REACTORS
330
87B0
102
}
330
87B0
100
AcDbXrecord
280
     1
102
RTVSPost2010Prop28
280
     0
102
RTVSPost2010PropOp28
 70
     1
102
RTVSPost2010Prop29
280
     1
102
RTVSPost2010PropOp29
 70
     1
102
RTVSPost2010Prop30
280
     1
102
RTVSPost2010PropOp30
 70
     1
102
RTVSPost2010Prop31
280
     0
102
RTVSPost2010PropOp31
 70
     1
102
RTVSPost2010Prop32
280
     0
102
RTVSPost2010PropOp32
 70
     1
102
RTVSPost2010Prop33
280
     0
102
RTVSPost2010PropOp33
 70
     1
102
RTVSPost2010Prop34
280
     0
102
RTVSPost2010PropOp34
 70
     1
102
RTVSPost2010Prop35
280
     0
102
RTVSPost2010PropOp35
 70
     1
102
RTVSPost2010Prop36
280
     0
102
RTVSPost2010PropOp36
 70
     1
102
RTVSPost2010Prop37
 90
       50
102
RTVSPost2010PropOp37
 70
     1
102
RTVSPost2010Prop38
140
0.0
102
RTVSPost2010PropOp38
 70
     1
102
RTVSPost2010Prop39
140
1.0
102
RTVSPost2010PropOp39
 70
     1
102
RTVSPost2010Prop40
 90
        0
102
RTVSPost2010PropOp40
 70
     1
102
RTVSPost2010Prop41ColorIndex
 90
       18
102
RTVSPost2010Prop41ColorRGB
 90
        0
102
RTVSPost2010PropOp41
 70
     1
102
RTVSPost2010Prop42
 90
       50
102
RTVSPost2010PropOp42
 70
     1
102
RTVSPost2010Prop43
 90
        3
102
RTVSPost2010PropOp43
 70
     1
102
RTVSPost2010Prop44ColorIndex
 90
        5
102
RTVSPost2010Prop44ColorRGB
 90
      255
102
RTVSPost2010PropOp44
 70
     1
102
RTVSPost2010Prop45
280
     0
102
RTVSPost2010PropOp45
 70
     1
102
RTVSPost2010Prop46
 90
       50
102
RTVSPost2010PropOp46
 70
     1
102
RTVSPost2010Prop47
 90
       50
102
RTVSPost2010PropOp47
 70
     1
102
RTVSPost2010Prop48
 90
       50
102
RTVSPost2010PropOp48
 70
     1
102
RTVSPost2010Prop49
280
     0
102
RTVSPost2010PropOp49
 70
     1
102
RTVSPost2010Prop50
 90
       50
102
RTVSPost2010PropOp50
 70
     1
102
RTVSPost2010Prop51ColorIndex
 90
      256
102
RTVSPost2010Prop51ColorRGB
 90
-16777216
102
RTVSPost2010PropOp51
 70
     0
102
RTVSPost2010Prop52
140
1.0
102
RTVSPost2010PropOp52
 70
     0
102
RTVSPost2010Prop53
 90
        2
102
RTVSPost2010PropOp53
 70
     1
102
RTVSPost2010Prop54
  1
strokes_ogs.tif
102
RTVSPost2010PropOp54
 70
     1
102
RTVSPost2010Prop55
280
     0
102
RTVSPost2010PropOp55
 70
     1
102
RTVSPost2010Prop56
140
1.0
102
RTVSPost2010PropOp56
 70
     1
102
RTVSPost2010Prop57
140
1.0
102
RTVSPost2010PropOp57
 70
     1
102
RTVSPropertyOp0
 70
     1
102
RTVSPropertyOp1
 70
     1
102
RTVSPropertyOp2
 70
     1
102
RTVSPropertyOp3
 70
     1
102
RTVSPropertyOp4
 70
     1
102
RTVSPropertyOp5
 70
     1
102
RTVSPropertyOp6
 70
     1
102
RTVSPropertyOp7
 70
     1
102
RTVSPropertyOp8
 70
     1
102
RTVSPropertyOp9
 70
     1
102
RTVSPropertyOp10
 70
     1
102
RTVSPropertyOp11
 70
     1
102
RTVSPropertyOp12
 70
     1
102
RTVSPropertyOp13
 70
     1
102
RTVSPropertyOp14
 70
     1
102
RTVSPropertyOp15
 70
     1
102
RTVSPropertyOp16
 70
     1
102
RTVSPropertyOp17
 70
     1
102
RTVSPropertyOp18
 70
     1
102
RTVSPropertyOp19
 70
     1
102
RTVSPropertyOp20
 70
     1
102
RTVSPropertyOp21
 70
     1
102
RTVSPropertyOp22
 70
     1
102
RTVSPropertyOp23
 70
     1
102
RTVSPropertyOp24
 70
     1
102
RTVSPropertyOp25
 70
     1
102
RTVSPropertyOp26
 70
     1
102
RTVSPropertyOp27
 70
     1
102
RTVSPropertyOp28
 70
     1
102
RTVSPropertyOp29
 70
     1
102
RTVSPropertyOp30
 70
     1
102
RTVSPropertyOp31
 70
     1
102
RTVSPropertyOp32
 70
     1
102
RTVSPropertyOp33
 70
     1
102
RTVSPropertyOp34
 70
     1
102
RTVSPropertyOp35
 70
     1
102
RTVSPropertyOp36
 70
     1
102
RTVSPropertyOp37
 70
     1
102
RTVSPropertyOp38
 70
     1
102
RTVSPropertyOp39
 70
     1
102
RTVSPropertyOp40
 70
     1
102
RTVSPropertyOp41
 70
     1
102
RTVSPropertyOp42
 70
     1
102
RTVSPropertyOp43
 70
     1
102
RTVSPropertyOp44
 70
     1
102
RTVSPropertyOp45
 70
     1
102
RTVSPropertyOp46
 70
     1
102
RTVSPropertyOp47
 70
     1
102
RTVSPropertyOp48
 70
     1
102
RTVSPropertyOp49
 70
     1
102
RTVSPropertyOp50
 70
     1
102
RTVSPropertyOp51
 70
     0
102
RTVSPropertyOp52
 70
     0
102
RTVSPropertyOp53
 70
     1
102
RTVSPropertyOp54
 70
     1
102
RTVSPropertyOp55
 70
     1
102
RTVSPropertyOp56
 70
     1
102
RTVSPropertyOp57
 70
     1
102
RTVSPropertyOp58
 70
     1
102
RTVSPropertyOp59
 70
     1
102
RTVSPropertyOp60
 70
     1
102
RTVSPropertyOp61
 70
     1
102
RTVSPropertyOp62
 70
     1
  0
XRECORD
  5
87B3
102
{ACAD_REACTORS
330
87B2
102
}
330
87B2
100
AcDbXrecord
280
     1
102
RTVSPost2010Prop28
280
     0
102
RTVSPost2010PropOp28
 70
     1
102
RTVSPost2010Prop29
280
     1
102
RTVSPost2010PropOp29
 70
     1
102
RTVSPost2010Prop30
280
     1
102
RTVSPost2010PropOp30
 70
     1
102
RTVSPost2010Prop31
280
     0
102
RTVSPost2010PropOp31
 70
     1
102
RTVSPost2010Prop32
280
     0
102
RTVSPost2010PropOp32
 70
     1
102
RTVSPost2010Prop33
280
     0
102
RTVSPost2010PropOp33
 70
     1
102
RTVSPost2010Prop34
280
     0
102
RTVSPost2010PropOp34
 70
     1
102
RTVSPost2010Prop35
280
     0
102
RTVSPost2010PropOp35
 70
     1
102
RTVSPost2010Prop36
280
     0
102
RTVSPost2010PropOp36
 70
     1
102
RTVSPost2010Prop37
 90
       50
102
RTVSPost2010PropOp37
 70
     1
102
RTVSPost2010Prop38
140
0.0
102
RTVSPost2010PropOp38
 70
     1
102
RTVSPost2010Prop39
140
1.0
102
RTVSPost2010PropOp39
 70
     1
102
RTVSPost2010Prop40
 90
        0
102
RTVSPost2010PropOp40
 70
     1
102
RTVSPost2010Prop41ColorIndex
 90
       18
102
RTVSPost2010Prop41ColorRGB
 90
        0
102
RTVSPost2010PropOp41
 70
     1
102
RTVSPost2010Prop42
 90
       50
102
RTVSPost2010PropOp42
 70
     1
102
RTVSPost2010Prop43
 90
        3
102
RTVSPost2010PropOp43
 70
     1
102
RTVSPost2010Prop44ColorIndex
 90
        5
102
RTVSPost2010Prop44ColorRGB
 90
      255
102
RTVSPost2010PropOp44
 70
     1
102
RTVSPost2010Prop45
280
     0
102
RTVSPost2010PropOp45
 70
     1
102
RTVSPost2010Prop46
 90
       50
102
RTVSPost2010PropOp46
 70
     1
102
RTVSPost2010Prop47
 90
       50
102
RTVSPost2010PropOp47
 70
     1
102
RTVSPost2010Prop48
 90
       50
102
RTVSPost2010PropOp48
 70
     1
102
RTVSPost2010Prop49
280
     0
102
RTVSPost2010PropOp49
 70
     1
102
RTVSPost2010Prop50
 90
       50
102
RTVSPost2010PropOp50
 70
     1
102
RTVSPost2010Prop51ColorIndex
 90
      256
102
RTVSPost2010Prop51ColorRGB
 90
-16777216
102
RTVSPost2010PropOp51
 70
     0
102
RTVSPost2010Prop52
140
1.0
102
RTVSPost2010PropOp52
 70
     0
102
RTVSPost2010Prop53
 90
        2
102
RTVSPost2010PropOp53
 70
     1
102
RTVSPost2010Prop54
  1
strokes_ogs.tif
102
RTVSPost2010PropOp54
 70
     1
102
RTVSPost2010Prop55
280
     0
102
RTVSPost2010PropOp55
 70
     1
102
RTVSPost2010Prop56
140
1.0
102
RTVSPost2010PropOp56
 70
     1
102
RTVSPost2010Prop57
140
1.0
102
RTVSPost2010PropOp57
 70
     1
102
RTVSPropertyOp0
 70
     1
102
RTVSPropertyOp1
 70
     1
102
RTVSPropertyOp2
 70
     1
102
RTVSPropertyOp3
 70
     1
102
RTVSPropertyOp4
 70
     1
102
RTVSPropertyOp5
 70
     1
102
RTVSPropertyOp6
 70
     1
102
RTVSPropertyOp7
 70
     1
102
RTVSPropertyOp8
 70
     1
102
RTVSPropertyOp9
 70
     1
102
RTVSPropertyOp10
 70
     1
102
RTVSPropertyOp11
 70
     1
102
RTVSPropertyOp12
 70
     1
102
RTVSPropertyOp13
 70
     1
102
RTVSPropertyOp14
 70
     1
102
RTVSPropertyOp15
 70
     1
102
RTVSPropertyOp16
 70
     1
102
RTVSPropertyOp17
 70
     1
102
RTVSPropertyOp18
 70
     1
102
RTVSPropertyOp19
 70
     1
102
RTVSPropertyOp20
 70
     1
102
RTVSPropertyOp21
 70
     1
102
RTVSPropertyOp22
 70
     1
102
RTVSPropertyOp23
 70
     1
102
RTVSPropertyOp24
 70
     1
102
RTVSPropertyOp25
 70
     1
102
RTVSPropertyOp26
 70
     1
102
RTVSPropertyOp27
 70
     1
102
RTVSPropertyOp28
 70
     1
102
RTVSPropertyOp29
 70
     1
102
RTVSPropertyOp30
 70
     1
102
RTVSPropertyOp31
 70
     1
102
RTVSPropertyOp32
 70
     1
102
RTVSPropertyOp33
 70
     1
102
RTVSPropertyOp34
 70
     1
102
RTVSPropertyOp35
 70
     1
102
RTVSPropertyOp36
 70
     1
102
RTVSPropertyOp37
 70
     1
102
RTVSPropertyOp38
 70
     1
102
RTVSPropertyOp39
 70
     1
102
RTVSPropertyOp40
 70
     1
102
RTVSPropertyOp41
 70
     1
102
RTVSPropertyOp42
 70
     1
102
RTVSPropertyOp43
 70
     1
102
RTVSPropertyOp44
 70
     1
102
RTVSPropertyOp45
 70
     1
102
RTVSPropertyOp46
 70
     1
102
RTVSPropertyOp47
 70
     1
102
RTVSPropertyOp48
 70
     1
102
RTVSPropertyOp49
 70
     1
102
RTVSPropertyOp50
 70
     1
102
RTVSPropertyOp51
 70
     0
102
RTVSPropertyOp52
 70
     0
102
RTVSPropertyOp53
 70
     1
102
RTVSPropertyOp54
 70
     1
102
RTVSPropertyOp55
 70
     1
102
RTVSPropertyOp56
 70
     1
102
RTVSPropertyOp57
 70
     1
102
RTVSPropertyOp58
 70
     1
102
RTVSPropertyOp59
 70
     1
102
RTVSPropertyOp60
 70
     1
102
RTVSPropertyOp61
 70
     1
102
RTVSPropertyOp62
 70
     1
  0
XRECORD
  5
87B5
102
{ACAD_REACTORS
330
87B4
102
}
330
87B4
100
AcDbXrecord
280
     1
102
RTVSPost2010Prop28
280
     0
102
RTVSPost2010PropOp28
 70
     1
102
RTVSPost2010Prop29
280
     1
102
RTVSPost2010PropOp29
 70
     1
102
RTVSPost2010Prop30
280
     1
102
RTVSPost2010PropOp30
 70
     1
102
RTVSPost2010Prop31
280
     0
102
RTVSPost2010PropOp31
 70
     1
102
RTVSPost2010Prop32
280
     0
102
RTVSPost2010PropOp32
 70
     1
102
RTVSPost2010Prop33
280
     0
102
RTVSPost2010PropOp33
 70
     1
102
RTVSPost2010Prop34
280
     0
102
RTVSPost2010PropOp34
 70
     1
102
RTVSPost2010Prop35
280
     0
102
RTVSPost2010PropOp35
 70
     1
102
RTVSPost2010Prop36
280
     0
102
RTVSPost2010PropOp36
 70
     1
102
RTVSPost2010Prop37
 90
       50
102
RTVSPost2010PropOp37
 70
     1
102
RTVSPost2010Prop38
140
0.0
102
RTVSPost2010PropOp38
 70
     1
102
RTVSPost2010Prop39
140
1.0
102
RTVSPost2010PropOp39
 70
     1
102
RTVSPost2010Prop40
 90
        0
102
RTVSPost2010PropOp40
 70
     1
102
RTVSPost2010Prop41ColorIndex
 90
       18
102
RTVSPost2010Prop41ColorRGB
 90
        0
102
RTVSPost2010PropOp41
 70
     1
102
RTVSPost2010Prop42
 90
       50
102
RTVSPost2010PropOp42
 70
     1
102
RTVSPost2010Prop43
 90
        3
102
RTVSPost2010PropOp43
 70
     1
102
RTVSPost2010Prop44ColorIndex
 90
        5
102
RTVSPost2010Prop44ColorRGB
 90
      255
102
RTVSPost2010PropOp44
 70
     1
102
RTVSPost2010Prop45
280
     0
102
RTVSPost2010PropOp45
 70
     1
102
RTVSPost2010Prop46
 90
       50
102
RTVSPost2010PropOp46
 70
     1
102
RTVSPost2010Prop47
 90
       50
102
RTVSPost2010PropOp47
 70
     1
102
RTVSPost2010Prop48
 90
       50
102
RTVSPost2010PropOp48
 70
     1
102
RTVSPost2010Prop49
280
     0
102
RTVSPost2010PropOp49
 70
     1
102
RTVSPost2010Prop50
 90
       50
102
RTVSPost2010PropOp50
 70
     1
102
RTVSPost2010Prop51ColorIndex
 90
      256
102
RTVSPost2010Prop51ColorRGB
 90
-16777216
102
RTVSPost2010PropOp51
 70
     0
102
RTVSPost2010Prop52
140
1.0
102
RTVSPost2010PropOp52
 70
     0
102
RTVSPost2010Prop53
 90
        2
102
RTVSPost2010PropOp53
 70
     1
102
RTVSPost2010Prop54
  1
strokes_ogs.tif
102
RTVSPost2010PropOp54
 70
     1
102
RTVSPost2010Prop55
280
     0
102
RTVSPost2010PropOp55
 70
     1
102
RTVSPost2010Prop56
140
1.0
102
RTVSPost2010PropOp56
 70
     1
102
RTVSPost2010Prop57
140
1.0
102
RTVSPost2010PropOp57
 70
     1
102
RTVSPropertyOp0
 70
     1
102
RTVSPropertyOp1
 70
     1
102
RTVSPropertyOp2
 70
     1
102
RTVSPropertyOp3
 70
     1
102
RTVSPropertyOp4
 70
     1
102
RTVSPropertyOp5
 70
     1
102
RTVSPropertyOp6
 70
     1
102
RTVSPropertyOp7
 70
     1
102
RTVSPropertyOp8
 70
     1
102
RTVSPropertyOp9
 70
     1
102
RTVSPropertyOp10
 70
     1
102
RTVSPropertyOp11
 70
     1
102
RTVSPropertyOp12
 70
     1
102
RTVSPropertyOp13
 70
     1
102
RTVSPropertyOp14
 70
     1
102
RTVSPropertyOp15
 70
     1
102
RTVSPropertyOp16
 70
     1
102
RTVSPropertyOp17
 70
     1
102
RTVSPropertyOp18
 70
     1
102
RTVSPropertyOp19
 70
     1
102
RTVSPropertyOp20
 70
     1
102
RTVSPropertyOp21
 70
     1
102
RTVSPropertyOp22
 70
     1
102
RTVSPropertyOp23
 70
     1
102
RTVSPropertyOp24
 70
     1
102
RTVSPropertyOp25
 70
     1
102
RTVSPropertyOp26
 70
     1
102
RTVSPropertyOp27
 70
     1
102
RTVSPropertyOp28
 70
     1
102
RTVSPropertyOp29
 70
     1
102
RTVSPropertyOp30
 70
     1
102
RTVSPropertyOp31
 70
     1
102
RTVSPropertyOp32
 70
     1
102
RTVSPropertyOp33
 70
     1
102
RTVSPropertyOp34
 70
     1
102
RTVSPropertyOp35
 70
     1
102
RTVSPropertyOp36
 70
     1
102
RTVSPropertyOp37
 70
     1
102
RTVSPropertyOp38
 70
     1
102
RTVSPropertyOp39
 70
     1
102
RTVSPropertyOp40
 70
     1
102
RTVSPropertyOp41
 70
     1
102
RTVSPropertyOp42
 70
     1
102
RTVSPropertyOp43
 70
     1
102
RTVSPropertyOp44
 70
     1
102
RTVSPropertyOp45
 70
     1
102
RTVSPropertyOp46
 70
     1
102
RTVSPropertyOp47
 70
     1
102
RTVSPropertyOp48
 70
     1
102
RTVSPropertyOp49
 70
     1
102
RTVSPropertyOp50
 70
     1
102
RTVSPropertyOp51
 70
     0
102
RTVSPropertyOp52
 70
     0
102
RTVSPropertyOp53
 70
     1
102
RTVSPropertyOp54
 70
     1
102
RTVSPropertyOp55
 70
     1
102
RTVSPropertyOp56
 70
     1
102
RTVSPropertyOp57
 70
     1
102
RTVSPropertyOp58
 70
     1
102
RTVSPropertyOp59
 70
     1
102
RTVSPropertyOp60
 70
     1
102
RTVSPropertyOp61
 70
     1
102
RTVSPropertyOp62
 70
     1
  0
XRECORD
  5
87B7
102
{ACAD_REACTORS
330
87B6
102
}
330
87B6
100
AcDbXrecord
280
     1
102
RTVSPost2010Prop28
280
     0
102
RTVSPost2010PropOp28
 70
     1
102
RTVSPost2010Prop29
280
     1
102
RTVSPost2010PropOp29
 70
     1
102
RTVSPost2010Prop30
280
     1
102
RTVSPost2010PropOp30
 70
     1
102
RTVSPost2010Prop31
280
     0
102
RTVSPost2010PropOp31
 70
     1
102
RTVSPost2010Prop32
280
     0
102
RTVSPost2010PropOp32
 70
     1
102
RTVSPost2010Prop33
280
     0
102
RTVSPost2010PropOp33
 70
     1
102
RTVSPost2010Prop34
280
     0
102
RTVSPost2010PropOp34
 70
     1
102
RTVSPost2010Prop35
280
     0
102
RTVSPost2010PropOp35
 70
     1
102
RTVSPost2010Prop36
280
     0
102
RTVSPost2010PropOp36
 70
     1
102
RTVSPost2010Prop37
 90
       50
102
RTVSPost2010PropOp37
 70
     1
102
RTVSPost2010Prop38
140
0.0
102
RTVSPost2010PropOp38
 70
     1
102
RTVSPost2010Prop39
140
1.0
102
RTVSPost2010PropOp39
 70
     1
102
RTVSPost2010Prop40
 90
        0
102
RTVSPost2010PropOp40
 70
     1
102
RTVSPost2010Prop41ColorIndex
 90
       18
102
RTVSPost2010Prop41ColorRGB
 90
        0
102
RTVSPost2010PropOp41
 70
     1
102
RTVSPost2010Prop42
 90
       50
102
RTVSPost2010PropOp42
 70
     1
102
RTVSPost2010Prop43
 90
        3
102
RTVSPost2010PropOp43
 70
     1
102
RTVSPost2010Prop44ColorIndex
 90
        5
102
RTVSPost2010Prop44ColorRGB
 90
      255
102
RTVSPost2010PropOp44
 70
     1
102
RTVSPost2010Prop45
280
     0
102
RTVSPost2010PropOp45
 70
     1
102
RTVSPost2010Prop46
 90
       50
102
RTVSPost2010PropOp46
 70
     1
102
RTVSPost2010Prop47
 90
       50
102
RTVSPost2010PropOp47
 70
     1
102
RTVSPost2010Prop48
 90
       50
102
RTVSPost2010PropOp48
 70
     1
102
RTVSPost2010Prop49
280
     0
102
RTVSPost2010PropOp49
 70
     1
102
RTVSPost2010Prop50
 90
       50
102
RTVSPost2010PropOp50
 70
     1
102
RTVSPost2010Prop51ColorIndex
 90
      256
102
RTVSPost2010Prop51ColorRGB
 90
-16777216
102
RTVSPost2010PropOp51
 70
     0
102
RTVSPost2010Prop52
140
1.0
102
RTVSPost2010PropOp52
 70
     0
102
RTVSPost2010Prop53
 90
        2
102
RTVSPost2010PropOp53
 70
     1
102
RTVSPost2010Prop54
  1
strokes_ogs.tif
102
RTVSPost2010PropOp54
 70
     1
102
RTVSPost2010Prop55
280
     0
102
RTVSPost2010PropOp55
 70
     1
102
RTVSPost2010Prop56
140
1.0
102
RTVSPost2010PropOp56
 70
     1
102
RTVSPost2010Prop57
140
1.0
102
RTVSPost2010PropOp57
 70
     1
102
RTVSPropertyOp0
 70
     1
102
RTVSPropertyOp1
 70
     1
102
RTVSPropertyOp2
 70
     1
102
RTVSPropertyOp3
 70
     1
102
RTVSPropertyOp4
 70
     1
102
RTVSPropertyOp5
 70
     1
102
RTVSPropertyOp6
 70
     1
102
RTVSPropertyOp7
 70
     1
102
RTVSPropertyOp8
 70
     1
102
RTVSPropertyOp9
 70
     1
102
RTVSPropertyOp10
 70
     1
102
RTVSPropertyOp11
 70
     1
102
RTVSPropertyOp12
 70
     1
102
RTVSPropertyOp13
 70
     1
102
RTVSPropertyOp14
 70
     1
102
RTVSPropertyOp15
 70
     1
102
RTVSPropertyOp16
 70
     1
102
RTVSPropertyOp17
 70
     1
102
RTVSPropertyOp18
 70
     1
102
RTVSPropertyOp19
 70
     1
102
RTVSPropertyOp20
 70
     1
102
RTVSPropertyOp21
 70
     1
102
RTVSPropertyOp22
 70
     1
102
RTVSPropertyOp23
 70
     1
102
RTVSPropertyOp24
 70
     1
102
RTVSPropertyOp25
 70
     1
102
RTVSPropertyOp26
 70
     1
102
RTVSPropertyOp27
 70
     1
102
RTVSPropertyOp28
 70
     1
102
RTVSPropertyOp29
 70
     1
102
RTVSPropertyOp30
 70
     1
102
RTVSPropertyOp31
 70
     1
102
RTVSPropertyOp32
 70
     1
102
RTVSPropertyOp33
 70
     1
102
RTVSPropertyOp34
 70
     1
102
RTVSPropertyOp35
 70
     1
102
RTVSPropertyOp36
 70
     1
102
RTVSPropertyOp37
 70
     1
102
RTVSPropertyOp38
 70
     1
102
RTVSPropertyOp39
 70
     1
102
RTVSPropertyOp40
 70
     1
102
RTVSPropertyOp41
 70
     1
102
RTVSPropertyOp42
 70
     1
102
RTVSPropertyOp43
 70
     1
102
RTVSPropertyOp44
 70
     1
102
RTVSPropertyOp45
 70
     1
102
RTVSPropertyOp46
 70
     1
102
RTVSPropertyOp47
 70
     1
102
RTVSPropertyOp48
 70
     1
102
RTVSPropertyOp49
 70
     1
102
RTVSPropertyOp50
 70
     1
102
RTVSPropertyOp51
 70
     0
102
RTVSPropertyOp52
 70
     0
102
RTVSPropertyOp53
 70
     1
102
RTVSPropertyOp54
 70
     1
102
RTVSPropertyOp55
 70
     1
102
RTVSPropertyOp56
 70
     1
102
RTVSPropertyOp57
 70
     1
102
RTVSPropertyOp58
 70
     1
102
RTVSPropertyOp59
 70
     1
102
RTVSPropertyOp60
 70
     1
102
RTVSPropertyOp61
 70
     1
102
RTVSPropertyOp62
 70
     1
  0
XRECORD
  5
87BF
102
{ACAD_REACTORS
330
87BE
102
}
330
87BE
100
AcDbXrecord
280
     1
102
RTVSPost2010Prop28
280
     0
102
RTVSPost2010PropOp28
 70
     1
102
RTVSPost2010Prop29
280
     1
102
RTVSPost2010PropOp29
 70
     1
102
RTVSPost2010Prop30
280
     1
102
RTVSPost2010PropOp30
 70
     1
102
RTVSPost2010Prop31
280
     0
102
RTVSPost2010PropOp31
 70
     1
102
RTVSPost2010Prop32
280
     0
102
RTVSPost2010PropOp32
 70
     1
102
RTVSPost2010Prop33
280
     0
102
RTVSPost2010PropOp33
 70
     1
102
RTVSPost2010Prop34
280
     0
102
RTVSPost2010PropOp34
 70
     1
102
RTVSPost2010Prop35
280
     0
102
RTVSPost2010PropOp35
 70
     1
102
RTVSPost2010Prop36
280
     0
102
RTVSPost2010PropOp36
 70
     1
102
RTVSPost2010Prop37
 90
       50
102
RTVSPost2010PropOp37
 70
     1
102
RTVSPost2010Prop38
140
0.0
102
RTVSPost2010PropOp38
 70
     1
102
RTVSPost2010Prop39
140
1.0
102
RTVSPost2010PropOp39
 70
     1
102
RTVSPost2010Prop40
 90
        0
102
RTVSPost2010PropOp40
 70
     1
102
RTVSPost2010Prop41ColorIndex
 90
       18
102
RTVSPost2010Prop41ColorRGB
 90
        0
102
RTVSPost2010PropOp41
 70
     1
102
RTVSPost2010Prop42
 90
       50
102
RTVSPost2010PropOp42
 70
     1
102
RTVSPost2010Prop43
 90
        3
102
RTVSPost2010PropOp43
 70
     1
102
RTVSPost2010Prop44ColorIndex
 90
        5
102
RTVSPost2010Prop44ColorRGB
 90
      255
102
RTVSPost2010PropOp44
 70
     1
102
RTVSPost2010Prop45
280
     0
102
RTVSPost2010PropOp45
 70
     1
102
RTVSPost2010Prop46
 90
       50
102
RTVSPost2010PropOp46
 70
     1
102
RTVSPost2010Prop47
 90
       50
102
RTVSPost2010PropOp47
 70
     1
102
RTVSPost2010Prop48
 90
       50
102
RTVSPost2010PropOp48
 70
     1
102
RTVSPost2010Prop49
280
     0
102
RTVSPost2010PropOp49
 70
     1
102
RTVSPost2010Prop50
 90
       50
102
RTVSPost2010PropOp50
 70
     1
102
RTVSPost2010Prop51ColorIndex
 90
      256
102
RTVSPost2010Prop51ColorRGB
 90
-16777216
102
RTVSPost2010PropOp51
 70
     0
102
RTVSPost2010Prop52
140
1.0
102
RTVSPost2010PropOp52
 70
     0
102
RTVSPost2010Prop53
 90
        2
102
RTVSPost2010PropOp53
 70
     1
102
RTVSPost2010Prop54
  1
strokes_ogs.tif
102
RTVSPost2010PropOp54
 70
     1
102
RTVSPost2010Prop55
280
     0
102
RTVSPost2010PropOp55
 70
     1
102
RTVSPost2010Prop56
140
1.0
102
RTVSPost2010PropOp56
 70
     1
102
RTVSPost2010Prop57
140
1.0
102
RTVSPost2010PropOp57
 70
     1
102
RTVSPropertyOp0
 70
     1
102
RTVSPropertyOp1
 70
     1
102
RTVSPropertyOp2
 70
     1
102
RTVSPropertyOp3
 70
     1
102
RTVSPropertyOp4
 70
     1
102
RTVSPropertyOp5
 70
     1
102
RTVSPropertyOp6
 70
     1
102
RTVSPropertyOp7
 70
     1
102
RTVSPropertyOp8
 70
     1
102
RTVSPropertyOp9
 70
     1
102
RTVSPropertyOp10
 70
     1
102
RTVSPropertyOp11
 70
     1
102
RTVSPropertyOp12
 70
     1
102
RTVSPropertyOp13
 70
     1
102
RTVSPropertyOp14
 70
     1
102
RTVSPropertyOp15
 70
     1
102
RTVSPropertyOp16
 70
     1
102
RTVSPropertyOp17
 70
     1
102
RTVSPropertyOp18
 70
     1
102
RTVSPropertyOp19
 70
     1
102
RTVSPropertyOp20
 70
     1
102
RTVSPropertyOp21
 70
     1
102
RTVSPropertyOp22
 70
     1
102
RTVSPropertyOp23
 70
     1
102
RTVSPropertyOp24
 70
     1
102
RTVSPropertyOp25
 70
     1
102
RTVSPropertyOp26
 70
     1
102
RTVSPropertyOp27
 70
     1
102
RTVSPropertyOp28
 70
     1
102
RTVSPropertyOp29
 70
     1
102
RTVSPropertyOp30
 70
     1
102
RTVSPropertyOp31
 70
     1
102
RTVSPropertyOp32
 70
     1
102
RTVSPropertyOp33
 70
     1
102
RTVSPropertyOp34
 70
     1
102
RTVSPropertyOp35
 70
     1
102
RTVSPropertyOp36
 70
     1
102
RTVSPropertyOp37
 70
     1
102
RTVSPropertyOp38
 70
     1
102
RTVSPropertyOp39
 70
     1
102
RTVSPropertyOp40
 70
     1
102
RTVSPropertyOp41
 70
     1
102
RTVSPropertyOp42
 70
     1
102
RTVSPropertyOp43
 70
     1
102
RTVSPropertyOp44
 70
     1
102
RTVSPropertyOp45
 70
     1
102
RTVSPropertyOp46
 70
     1
102
RTVSPropertyOp47
 70
     1
102
RTVSPropertyOp48
 70
     1
102
RTVSPropertyOp49
 70
     1
102
RTVSPropertyOp50
 70
     1
102
RTVSPropertyOp51
 70
     0
102
RTVSPropertyOp52
 70
     0
102
RTVSPropertyOp53
 70
     1
102
RTVSPropertyOp54
 70
     1
102
RTVSPropertyOp55
 70
     1
102
RTVSPropertyOp56
 70
     1
102
RTVSPropertyOp57
 70
     1
102
RTVSPropertyOp58
 70
     1
102
RTVSPropertyOp59
 70
     1
102
RTVSPropertyOp60
 70
     1
102
RTVSPropertyOp61
 70
     1
102
RTVSPropertyOp62
 70
     1
  0
XRECORD
  5
87DB
102
{ACAD_REACTORS
330
87DA
102
}
330
87DA
100
AcDbXrecord
280
     1
102
RTVSPost2010Prop28
280
     0
102
RTVSPost2010PropOp28
 70
     1
102
RTVSPost2010Prop29
280
     1
102
RTVSPost2010PropOp29
 70
     1
102
RTVSPost2010Prop30
280
     1
102
RTVSPost2010PropOp30
 70
     1
102
RTVSPost2010Prop31
280
     0
102
RTVSPost2010PropOp31
 70
     1
102
RTVSPost2010Prop32
280
     0
102
RTVSPost2010PropOp32
 70
     1
102
RTVSPost2010Prop33
280
     0
102
RTVSPost2010PropOp33
 70
     1
102
RTVSPost2010Prop34
280
     0
102
RTVSPost2010PropOp34
 70
     1
102
RTVSPost2010Prop35
280
     0
102
RTVSPost2010PropOp35
 70
     1
102
RTVSPost2010Prop36
280
     0
102
RTVSPost2010PropOp36
 70
     1
102
RTVSPost2010Prop37
 90
       50
102
RTVSPost2010PropOp37
 70
     0
102
RTVSPost2010Prop38
140
0.0
102
RTVSPost2010PropOp38
 70
     0
102
RTVSPost2010Prop39
140
1.0
102
RTVSPost2010PropOp39
 70
     0
102
RTVSPost2010Prop40
 90
        0
102
RTVSPost2010PropOp40
 70
     0
102
RTVSPost2010Prop41ColorIndex
 90
       18
102
RTVSPost2010Prop41ColorRGB
 90
        0
102
RTVSPost2010PropOp41
 70
     0
102
RTVSPost2010Prop42
 90
       50
102
RTVSPost2010PropOp42
 70
     0
102
RTVSPost2010Prop43
 90
        3
102
RTVSPost2010PropOp43
 70
     0
102
RTVSPost2010Prop44ColorIndex
 90
        5
102
RTVSPost2010Prop44ColorRGB
 90
      255
102
RTVSPost2010PropOp44
 70
     0
102
RTVSPost2010Prop45
280
     0
102
RTVSPost2010PropOp45
 70
     1
102
RTVSPost2010Prop46
 90
       50
102
RTVSPost2010PropOp46
 70
     0
102
RTVSPost2010Prop47
 90
       50
102
RTVSPost2010PropOp47
 70
     0
102
RTVSPost2010Prop48
 90
       50
102
RTVSPost2010PropOp48
 70
     0
102
RTVSPost2010Prop49
280
     0
102
RTVSPost2010PropOp49
 70
     1
102
RTVSPost2010Prop50
 90
       50
102
RTVSPost2010PropOp50
 70
     0
102
RTVSPost2010Prop51ColorIndex
 90
      256
102
RTVSPost2010Prop51ColorRGB
 90
-16777216
102
RTVSPost2010PropOp51
 70
     0
102
RTVSPost2010Prop52
140
1.0
102
RTVSPost2010PropOp52
 70
     0
102
RTVSPost2010Prop53
 90
        2
102
RTVSPost2010PropOp53
 70
     0
102
RTVSPost2010Prop54
  1
strokes_ogs.tif
102
RTVSPost2010PropOp54
 70
     0
102
RTVSPost2010Prop55
280
     0
102
RTVSPost2010PropOp55
 70
     1
102
RTVSPost2010Prop56
140
1.0
102
RTVSPost2010PropOp56
 70
     0
102
RTVSPost2010Prop57
140
1.0
102
RTVSPost2010PropOp57
 70
     0
102
RTVSPropertyOp0
 70
     0
102
RTVSPropertyOp1
 70
     0
102
RTVSPropertyOp2
 70
     0
102
RTVSPropertyOp3
 70
     0
102
RTVSPropertyOp4
 70
     0
102
RTVSPropertyOp5
 70
     0
102
RTVSPropertyOp6
 70
     0
102
RTVSPropertyOp7
 70
     0
102
RTVSPropertyOp8
 70
     0
102
RTVSPropertyOp9
 70
     0
102
RTVSPropertyOp10
 70
     0
102
RTVSPropertyOp11
 70
     0
102
RTVSPropertyOp12
 70
     0
102
RTVSPropertyOp13
 70
     0
102
RTVSPropertyOp14
 70
     2
102
RTVSPropertyOp15
 70
     0
102
RTVSPropertyOp16
 70
     0
102
RTVSPropertyOp17
 70
     0
102
RTVSPropertyOp18
 70
     0
102
RTVSPropertyOp19
 70
     0
102
RTVSPropertyOp20
 70
     0
102
RTVSPropertyOp21
 70
     0
102
RTVSPropertyOp22
 70
     0
102
RTVSPropertyOp23
 70
     0
102
RTVSPropertyOp24
 70
     0
102
RTVSPropertyOp25
 70
     0
102
RTVSPropertyOp26
 70
     0
102
RTVSPropertyOp27
 70
     0
102
RTVSPropertyOp28
 70
     1
102
RTVSPropertyOp29
 70
     1
102
RTVSPropertyOp30
 70
     1
102
RTVSPropertyOp31
 70
     1
102
RTVSPropertyOp32
 70
     1
102
RTVSPropertyOp33
 70
     1
102
RTVSPropertyOp34
 70
     1
102
RTVSPropertyOp35
 70
     1
102
RTVSPropertyOp36
 70
     1
102
RTVSPropertyOp37
 70
     0
102
RTVSPropertyOp38
 70
     0
102
RTVSPropertyOp39
 70
     0
102
RTVSPropertyOp40
 70
     0
102
RTVSPropertyOp41
 70
     0
102
RTVSPropertyOp42
 70
     0
102
RTVSPropertyOp43
 70
     0
102
RTVSPropertyOp44
 70
     0
102
RTVSPropertyOp45
 70
     1
102
RTVSPropertyOp46
 70
     0
102
RTVSPropertyOp47
 70
     0
102
RTVSPropertyOp48
 70
     0
102
RTVSPropertyOp49
 70
     1
102
RTVSPropertyOp50
 70
     0
102
RTVSPropertyOp51
 70
     0
102
RTVSPropertyOp52
 70
     0
102
RTVSPropertyOp53
 70
     0
102
RTVSPropertyOp54
 70
     0
102
RTVSPropertyOp55
 70
     1
102
RTVSPropertyOp56
 70
     0
102
RTVSPropertyOp57
 70
     0
102
RTVSPropertyOp58
 70
     0
102
RTVSPropertyOp59
 70
     0
102
RTVSPropertyOp60
 70
     0
102
RTVSPropertyOp61
 70
     0
102
RTVSPropertyOp62
 70
     0
  0
XRECORD
  5
87CB
102
{ACAD_REACTORS
330
87CA
102
}
330
87CA
100
AcDbXrecord
280
     1
102
RTVSPost2010Prop28
280
     0
102
RTVSPost2010PropOp28
 70
     1
102
RTVSPost2010Prop29
280
     1
102
RTVSPost2010PropOp29
 70
     1
102
RTVSPost2010Prop30
280
     1
102
RTVSPost2010PropOp30
 70
     1
102
RTVSPost2010Prop31
280
     0
102
RTVSPost2010PropOp31
 70
     1
102
RTVSPost2010Prop32
280
     0
102
RTVSPost2010PropOp32
 70
     1
102
RTVSPost2010Prop33
280
     0
102
RTVSPost2010PropOp33
 70
     1
102
RTVSPost2010Prop34
280
     0
102
RTVSPost2010PropOp34
 70
     1
102
RTVSPost2010Prop35
280
     0
102
RTVSPost2010PropOp35
 70
     1
102
RTVSPost2010Prop36
280
     0
102
RTVSPost2010PropOp36
 70
     1
102
RTVSPost2010Prop37
 90
       50
102
RTVSPost2010PropOp37
 70
     1
102
RTVSPost2010Prop38
140
0.0
102
RTVSPost2010PropOp38
 70
     1
102
RTVSPost2010Prop39
140
1.0
102
RTVSPost2010PropOp39
 70
     1
102
RTVSPost2010Prop40
 90
        0
102
RTVSPost2010PropOp40
 70
     1
102
RTVSPost2010Prop41ColorIndex
 90
       18
102
RTVSPost2010Prop41ColorRGB
 90
        0
102
RTVSPost2010PropOp41
 70
     1
102
RTVSPost2010Prop42
 90
       50
102
RTVSPost2010PropOp42
 70
     1
102
RTVSPost2010Prop43
 90
        3
102
RTVSPost2010PropOp43
 70
     1
102
RTVSPost2010Prop44ColorIndex
 90
        5
102
RTVSPost2010Prop44ColorRGB
 90
      255
102
RTVSPost2010PropOp44
 70
     1
102
RTVSPost2010Prop45
280
     0
102
RTVSPost2010PropOp45
 70
     1
102
RTVSPost2010Prop46
 90
       50
102
RTVSPost2010PropOp46
 70
     1
102
RTVSPost2010Prop47
 90
       50
102
RTVSPost2010PropOp47
 70
     1
102
RTVSPost2010Prop48
 90
       50
102
RTVSPost2010PropOp48
 70
     1
102
RTVSPost2010Prop49
280
     0
102
RTVSPost2010PropOp49
 70
     1
102
RTVSPost2010Prop50
 90
       50
102
RTVSPost2010PropOp50
 70
     1
102
RTVSPost2010Prop51ColorIndex
 90
      256
102
RTVSPost2010Prop51ColorRGB
 90
-16777216
102
RTVSPost2010PropOp51
 70
     0
102
RTVSPost2010Prop52
140
1.0
102
RTVSPost2010PropOp52
 70
     0
102
RTVSPost2010Prop53
 90
        2
102
RTVSPost2010PropOp53
 70
     1
102
RTVSPost2010Prop54
  1
strokes_ogs.tif
102
RTVSPost2010PropOp54
 70
     1
102
RTVSPost2010Prop55
280
     0
102
RTVSPost2010PropOp55
 70
     1
102
RTVSPost2010Prop56
140
1.0
102
RTVSPost2010PropOp56
 70
     1
102
RTVSPost2010Prop57
140
1.0
102
RTVSPost2010PropOp57
 70
     1
102
RTVSPropertyOp0
 70
     1
102
RTVSPropertyOp1
 70
     1
102
RTVSPropertyOp2
 70
     1
102
RTVSPropertyOp3
 70
     1
102
RTVSPropertyOp4
 70
     1
102
RTVSPropertyOp5
 70
     1
102
RTVSPropertyOp6
 70
     1
102
RTVSPropertyOp7
 70
     1
102
RTVSPropertyOp8
 70
     1
102
RTVSPropertyOp9
 70
     1
102
RTVSPropertyOp10
 70
     1
102
RTVSPropertyOp11
 70
     1
102
RTVSPropertyOp12
 70
     1
102
RTVSPropertyOp13
 70
     1
102
RTVSPropertyOp14
 70
     1
102
RTVSPropertyOp15
 70
     1
102
RTVSPropertyOp16
 70
     1
102
RTVSPropertyOp17
 70
     1
102
RTVSPropertyOp18
 70
     1
102
RTVSPropertyOp19
 70
     1
102
RTVSPropertyOp20
 70
     1
102
RTVSPropertyOp21
 70
     1
102
RTVSPropertyOp22
 70
     1
102
RTVSPropertyOp23
 70
     1
102
RTVSPropertyOp24
 70
     1
102
RTVSPropertyOp25
 70
     1
102
RTVSPropertyOp26
 70
     1
102
RTVSPropertyOp27
 70
     1
102
RTVSPropertyOp28
 70
     1
102
RTVSPropertyOp29
 70
     1
102
RTVSPropertyOp30
 70
     1
102
RTVSPropertyOp31
 70
     1
102
RTVSPropertyOp32
 70
     1
102
RTVSPropertyOp33
 70
     1
102
RTVSPropertyOp34
 70
     1
102
RTVSPropertyOp35
 70
     1
102
RTVSPropertyOp36
 70
     1
102
RTVSPropertyOp37
 70
     1
102
RTVSPropertyOp38
 70
     1
102
RTVSPropertyOp39
 70
     1
102
RTVSPropertyOp40
 70
     1
102
RTVSPropertyOp41
 70
     1
102
RTVSPropertyOp42
 70
     1
102
RTVSPropertyOp43
 70
     1
102
RTVSPropertyOp44
 70
     1
102
RTVSPropertyOp45
 70
     1
102
RTVSPropertyOp46
 70
     1
102
RTVSPropertyOp47
 70
     1
102
RTVSPropertyOp48
 70
     1
102
RTVSPropertyOp49
 70
     1
102
RTVSPropertyOp50
 70
     1
102
RTVSPropertyOp51
 70
     0
102
RTVSPropertyOp52
 70
     0
102
RTVSPropertyOp53
 70
     1
102
RTVSPropertyOp54
 70
     1
102
RTVSPropertyOp55
 70
     1
102
RTVSPropertyOp56
 70
     1
102
RTVSPropertyOp57
 70
     1
102
RTVSPropertyOp58
 70
     1
102
RTVSPropertyOp59
 70
     1
102
RTVSPropertyOp60
 70
     1
102
RTVSPropertyOp61
 70
     1
102
RTVSPropertyOp62
 70
     1
  0
XRECORD
  5
87DD
102
{ACAD_REACTORS
330
87DC
102
}
330
87DC
100
AcDbXrecord
280
     1
102
RTVSPost2010Prop28
280
     0
102
RTVSPost2010PropOp28
 70
     1
102
RTVSPost2010Prop29
280
     1
102
RTVSPost2010PropOp29
 70
     1
102
RTVSPost2010Prop30
280
     1
102
RTVSPost2010PropOp30
 70
     1
102
RTVSPost2010Prop31
280
     0
102
RTVSPost2010PropOp31
 70
     1
102
RTVSPost2010Prop32
280
     0
102
RTVSPost2010PropOp32
 70
     1
102
RTVSPost2010Prop33
280
     0
102
RTVSPost2010PropOp33
 70
     1
102
RTVSPost2010Prop34
280
     0
102
RTVSPost2010PropOp34
 70
     1
102
RTVSPost2010Prop35
280
     0
102
RTVSPost2010PropOp35
 70
     1
102
RTVSPost2010Prop36
280
     0
102
RTVSPost2010PropOp36
 70
     1
102
RTVSPost2010Prop37
 90
       50
102
RTVSPost2010PropOp37
 70
     0
102
RTVSPost2010Prop38
140
0.0
102
RTVSPost2010PropOp38
 70
     0
102
RTVSPost2010Prop39
140
1.0
102
RTVSPost2010PropOp39
 70
     0
102
RTVSPost2010Prop40
 90
        0
102
RTVSPost2010PropOp40
 70
     0
102
RTVSPost2010Prop41ColorIndex
 90
       18
102
RTVSPost2010Prop41ColorRGB
 90
        0
102
RTVSPost2010PropOp41
 70
     0
102
RTVSPost2010Prop42
 90
       50
102
RTVSPost2010PropOp42
 70
     0
102
RTVSPost2010Prop43
 90
        3
102
RTVSPost2010PropOp43
 70
     0
102
RTVSPost2010Prop44ColorIndex
 90
        5
102
RTVSPost2010Prop44ColorRGB
 90
      255
102
RTVSPost2010PropOp44
 70
     0
102
RTVSPost2010Prop45
280
     0
102
RTVSPost2010PropOp45
 70
     1
102
RTVSPost2010Prop46
 90
       50
102
RTVSPost2010PropOp46
 70
     0
102
RTVSPost2010Prop47
 90
       50
102
RTVSPost2010PropOp47
 70
     0
102
RTVSPost2010Prop48
 90
       50
102
RTVSPost2010PropOp48
 70
     0
102
RTVSPost2010Prop49
280
     0
102
RTVSPost2010PropOp49
 70
     1
102
RTVSPost2010Prop50
 90
       50
102
RTVSPost2010PropOp50
 70
     0
102
RTVSPost2010Prop51ColorIndex
 90
      256
102
RTVSPost2010Prop51ColorRGB
 90
-16777216
102
RTVSPost2010PropOp51
 70
     0
102
RTVSPost2010Prop52
140
1.0
102
RTVSPost2010PropOp52
 70
     0
102
RTVSPost2010Prop53
 90
        2
102
RTVSPost2010PropOp53
 70
     0
102
RTVSPost2010Prop54
  1
strokes_ogs.tif
102
RTVSPost2010PropOp54
 70
     0
102
RTVSPost2010Prop55
280
     0
102
RTVSPost2010PropOp55
 70
     1
102
RTVSPost2010Prop56
140
1.0
102
RTVSPost2010PropOp56
 70
     0
102
RTVSPost2010Prop57
140
1.0
102
RTVSPost2010PropOp57
 70
     0
102
RTVSPropertyOp0
 70
     0
102
RTVSPropertyOp1
 70
     0
102
RTVSPropertyOp2
 70
     0
102
RTVSPropertyOp3
 70
     0
102
RTVSPropertyOp4
 70
     0
102
RTVSPropertyOp5
 70
     0
102
RTVSPropertyOp6
 70
     0
102
RTVSPropertyOp7
 70
     0
102
RTVSPropertyOp8
 70
     0
102
RTVSPropertyOp9
 70
     0
102
RTVSPropertyOp10
 70
     0
102
RTVSPropertyOp11
 70
     0
102
RTVSPropertyOp12
 70
     0
102
RTVSPropertyOp13
 70
     0
102
RTVSPropertyOp14
 70
     2
102
RTVSPropertyOp15
 70
     0
102
RTVSPropertyOp16
 70
     0
102
RTVSPropertyOp17
 70
     0
102
RTVSPropertyOp18
 70
     0
102
RTVSPropertyOp19
 70
     0
102
RTVSPropertyOp20
 70
     0
102
RTVSPropertyOp21
 70
     0
102
RTVSPropertyOp22
 70
     0
102
RTVSPropertyOp23
 70
     0
102
RTVSPropertyOp24
 70
     0
102
RTVSPropertyOp25
 70
     0
102
RTVSPropertyOp26
 70
     0
102
RTVSPropertyOp27
 70
     0
102
RTVSPropertyOp28
 70
     1
102
RTVSPropertyOp29
 70
     1
102
RTVSPropertyOp30
 70
     1
102
RTVSPropertyOp31
 70
     1
102
RTVSPropertyOp32
 70
     1
102
RTVSPropertyOp33
 70
     1
102
RTVSPropertyOp34
 70
     1
102
RTVSPropertyOp35
 70
     1
102
RTVSPropertyOp36
 70
     1
102
RTVSPropertyOp37
 70
     0
102
RTVSPropertyOp38
 70
     0
102
RTVSPropertyOp39
 70
     0
102
RTVSPropertyOp40
 70
     0
102
RTVSPropertyOp41
 70
     0
102
RTVSPropertyOp42
 70
     0
102
RTVSPropertyOp43
 70
     0
102
RTVSPropertyOp44
 70
     0
102
RTVSPropertyOp45
 70
     1
102
RTVSPropertyOp46
 70
     0
102
RTVSPropertyOp47
 70
     0
102
RTVSPropertyOp48
 70
     0
102
RTVSPropertyOp49
 70
     1
102
RTVSPropertyOp50
 70
     0
102
RTVSPropertyOp51
 70
     0
102
RTVSPropertyOp52
 70
     0
102
RTVSPropertyOp53
 70
     0
102
RTVSPropertyOp54
 70
     0
102
RTVSPropertyOp55
 70
     1
102
RTVSPropertyOp56
 70
     0
102
RTVSPropertyOp57
 70
     0
102
RTVSPropertyOp58
 70
     0
102
RTVSPropertyOp59
 70
     0
102
RTVSPropertyOp60
 70
     0
102
RTVSPropertyOp61
 70
     0
102
RTVSPropertyOp62
 70
     0
  0
XRECORD
  5
87C3
102
{ACAD_REACTORS
330
87C2
102
}
330
87C2
100
AcDbXrecord
280
     1
102
RTVSPost2010Prop28
280
     0
102
RTVSPost2010PropOp28
 70
     1
102
RTVSPost2010Prop29
280
     1
102
RTVSPost2010PropOp29
 70
     1
102
RTVSPost2010Prop30
280
     1
102
RTVSPost2010PropOp30
 70
     1
102
RTVSPost2010Prop31
280
     0
102
RTVSPost2010PropOp31
 70
     1
102
RTVSPost2010Prop32
280
     0
102
RTVSPost2010PropOp32
 70
     1
102
RTVSPost2010Prop33
280
     0
102
RTVSPost2010PropOp33
 70
     1
102
RTVSPost2010Prop34
280
     0
102
RTVSPost2010PropOp34
 70
     1
102
RTVSPost2010Prop35
280
     0
102
RTVSPost2010PropOp35
 70
     1
102
RTVSPost2010Prop36
280
     0
102
RTVSPost2010PropOp36
 70
     1
102
RTVSPost2010Prop37
 90
       50
102
RTVSPost2010PropOp37
 70
     1
102
RTVSPost2010Prop38
140
0.0
102
RTVSPost2010PropOp38
 70
     1
102
RTVSPost2010Prop39
140
1.0
102
RTVSPost2010PropOp39
 70
     1
102
RTVSPost2010Prop40
 90
        0
102
RTVSPost2010PropOp40
 70
     1
102
RTVSPost2010Prop41ColorIndex
 90
       18
102
RTVSPost2010Prop41ColorRGB
 90
        0
102
RTVSPost2010PropOp41
 70
     1
102
RTVSPost2010Prop42
 90
       50
102
RTVSPost2010PropOp42
 70
     1
102
RTVSPost2010Prop43
 90
        3
102
RTVSPost2010PropOp43
 70
     1
102
RTVSPost2010Prop44ColorIndex
 90
        5
102
RTVSPost2010Prop44ColorRGB
 90
      255
102
RTVSPost2010PropOp44
 70
     1
102
RTVSPost2010Prop45
280
     0
102
RTVSPost2010PropOp45
 70
     1
102
RTVSPost2010Prop46
 90
       50
102
RTVSPost2010PropOp46
 70
     1
102
RTVSPost2010Prop47
 90
       50
102
RTVSPost2010PropOp47
 70
     1
102
RTVSPost2010Prop48
 90
       50
102
RTVSPost2010PropOp48
 70
     1
102
RTVSPost2010Prop49
280
     0
102
RTVSPost2010PropOp49
 70
     1
102
RTVSPost2010Prop50
 90
       50
102
RTVSPost2010PropOp50
 70
     1
102
RTVSPost2010Prop51ColorIndex
 90
      256
102
RTVSPost2010Prop51ColorRGB
 90
-16777216
102
RTVSPost2010PropOp51
 70
     0
102
RTVSPost2010Prop52
140
1.0
102
RTVSPost2010PropOp52
 70
     0
102
RTVSPost2010Prop53
 90
        2
102
RTVSPost2010PropOp53
 70
     1
102
RTVSPost2010Prop54
  1
strokes_ogs.tif
102
RTVSPost2010PropOp54
 70
     1
102
RTVSPost2010Prop55
280
     0
102
RTVSPost2010PropOp55
 70
     1
102
RTVSPost2010Prop56
140
1.0
102
RTVSPost2010PropOp56
 70
     1
102
RTVSPost2010Prop57
140
1.0
102
RTVSPost2010PropOp57
 70
     1
102
RTVSPropertyOp0
 70
     1
102
RTVSPropertyOp1
 70
     1
102
RTVSPropertyOp2
 70
     1
102
RTVSPropertyOp3
 70
     1
102
RTVSPropertyOp4
 70
     1
102
RTVSPropertyOp5
 70
     1
102
RTVSPropertyOp6
 70
     1
102
RTVSPropertyOp7
 70
     1
102
RTVSPropertyOp8
 70
     1
102
RTVSPropertyOp9
 70
     1
102
RTVSPropertyOp10
 70
     1
102
RTVSPropertyOp11
 70
     1
102
RTVSPropertyOp12
 70
     1
102
RTVSPropertyOp13
 70
     1
102
RTVSPropertyOp14
 70
     1
102
RTVSPropertyOp15
 70
     1
102
RTVSPropertyOp16
 70
     1
102
RTVSPropertyOp17
 70
     1
102
RTVSPropertyOp18
 70
     1
102
RTVSPropertyOp19
 70
     1
102
RTVSPropertyOp20
 70
     1
102
RTVSPropertyOp21
 70
     1
102
RTVSPropertyOp22
 70
     1
102
RTVSPropertyOp23
 70
     1
102
RTVSPropertyOp24
 70
     1
102
RTVSPropertyOp25
 70
     1
102
RTVSPropertyOp26
 70
     1
102
RTVSPropertyOp27
 70
     1
102
RTVSPropertyOp28
 70
     1
102
RTVSPropertyOp29
 70
     1
102
RTVSPropertyOp30
 70
     1
102
RTVSPropertyOp31
 70
     1
102
RTVSPropertyOp32
 70
     1
102
RTVSPropertyOp33
 70
     1
102
RTVSPropertyOp34
 70
     1
102
RTVSPropertyOp35
 70
     1
102
RTVSPropertyOp36
 70
     1
102
RTVSPropertyOp37
 70
     1
102
RTVSPropertyOp38
 70
     1
102
RTVSPropertyOp39
 70
     1
102
RTVSPropertyOp40
 70
     1
102
RTVSPropertyOp41
 70
     1
102
RTVSPropertyOp42
 70
     1
102
RTVSPropertyOp43
 70
     1
102
RTVSPropertyOp44
 70
     1
102
RTVSPropertyOp45
 70
     1
102
RTVSPropertyOp46
 70
     1
102
RTVSPropertyOp47
 70
     1
102
RTVSPropertyOp48
 70
     1
102
RTVSPropertyOp49
 70
     1
102
RTVSPropertyOp50
 70
     1
102
RTVSPropertyOp51
 70
     0
102
RTVSPropertyOp52
 70
     0
102
RTVSPropertyOp53
 70
     1
102
RTVSPropertyOp54
 70
     1
102
RTVSPropertyOp55
 70
     1
102
RTVSPropertyOp56
 70
     1
102
RTVSPropertyOp57
 70
     1
102
RTVSPropertyOp58
 70
     1
102
RTVSPropertyOp59
 70
     1
102
RTVSPropertyOp60
 70
     1
102
RTVSPropertyOp61
 70
     1
102
RTVSPropertyOp62
 70
     1
  0
XRECORD
  5
87D9
102
{ACAD_REACTORS
330
87D8
102
}
330
87D8
100
AcDbXrecord
280
     1
102
RTVSPost2010Prop28
280
     0
102
RTVSPost2010PropOp28
 70
     1
102
RTVSPost2010Prop29
280
     1
102
RTVSPost2010PropOp29
 70
     1
102
RTVSPost2010Prop30
280
     1
102
RTVSPost2010PropOp30
 70
     1
102
RTVSPost2010Prop31
280
     0
102
RTVSPost2010PropOp31
 70
     1
102
RTVSPost2010Prop32
280
     0
102
RTVSPost2010PropOp32
 70
     1
102
RTVSPost2010Prop33
280
     0
102
RTVSPost2010PropOp33
 70
     1
102
RTVSPost2010Prop34
280
     0
102
RTVSPost2010PropOp34
 70
     1
102
RTVSPost2010Prop35
280
     0
102
RTVSPost2010PropOp35
 70
     1
102
RTVSPost2010Prop36
280
     0
102
RTVSPost2010PropOp36
 70
     1
102
RTVSPost2010Prop37
 90
       50
102
RTVSPost2010PropOp37
 70
     1
102
RTVSPost2010Prop38
140
0.0
102
RTVSPost2010PropOp38
 70
     1
102
RTVSPost2010Prop39
140
1.0
102
RTVSPost2010PropOp39
 70
     1
102
RTVSPost2010Prop40
 90
        0
102
RTVSPost2010PropOp40
 70
     1
102
RTVSPost2010Prop41ColorIndex
 90
       18
102
RTVSPost2010Prop41ColorRGB
 90
        0
102
RTVSPost2010PropOp41
 70
     1
102
RTVSPost2010Prop42
 90
       50
102
RTVSPost2010PropOp42
 70
     1
102
RTVSPost2010Prop43
 90
        3
102
RTVSPost2010PropOp43
 70
     1
102
RTVSPost2010Prop44ColorIndex
 90
        5
102
RTVSPost2010Prop44ColorRGB
 90
      255
102
RTVSPost2010PropOp44
 70
     1
102
RTVSPost2010Prop45
280
     0
102
RTVSPost2010PropOp45
 70
     1
102
RTVSPost2010Prop46
 90
       50
102
RTVSPost2010PropOp46
 70
     1
102
RTVSPost2010Prop47
 90
       50
102
RTVSPost2010PropOp47
 70
     1
102
RTVSPost2010Prop48
 90
       50
102
RTVSPost2010PropOp48
 70
     1
102
RTVSPost2010Prop49
280
     0
102
RTVSPost2010PropOp49
 70
     1
102
RTVSPost2010Prop50
 90
       50
102
RTVSPost2010PropOp50
 70
     1
102
RTVSPost2010Prop51ColorIndex
 90
      256
102
RTVSPost2010Prop51ColorRGB
 90
-16777216
102
RTVSPost2010PropOp51
 70
     0
102
RTVSPost2010Prop52
140
1.0
102
RTVSPost2010PropOp52
 70
     0
102
RTVSPost2010Prop53
 90
        2
102
RTVSPost2010PropOp53
 70
     1
102
RTVSPost2010Prop54
  1
strokes_ogs.tif
102
RTVSPost2010PropOp54
 70
     1
102
RTVSPost2010Prop55
280
     0
102
RTVSPost2010PropOp55
 70
     1
102
RTVSPost2010Prop56
140
1.0
102
RTVSPost2010PropOp56
 70
     1
102
RTVSPost2010Prop57
140
1.0
102
RTVSPost2010PropOp57
 70
     1
102
RTVSPropertyOp0
 70
     1
102
RTVSPropertyOp1
 70
     1
102
RTVSPropertyOp2
 70
     1
102
RTVSPropertyOp3
 70
     1
102
RTVSPropertyOp4
 70
     1
102
RTVSPropertyOp5
 70
     1
102
RTVSPropertyOp6
 70
     1
102
RTVSPropertyOp7
 70
     1
102
RTVSPropertyOp8
 70
     1
102
RTVSPropertyOp9
 70
     1
102
RTVSPropertyOp10
 70
     1
102
RTVSPropertyOp11
 70
     1
102
RTVSPropertyOp12
 70
     1
102
RTVSPropertyOp13
 70
     1
102
RTVSPropertyOp14
 70
     1
102
RTVSPropertyOp15
 70
     1
102
RTVSPropertyOp16
 70
     1
102
RTVSPropertyOp17
 70
     1
102
RTVSPropertyOp18
 70
     1
102
RTVSPropertyOp19
 70
     1
102
RTVSPropertyOp20
 70
     1
102
RTVSPropertyOp21
 70
     1
102
RTVSPropertyOp22
 70
     1
102
RTVSPropertyOp23
 70
     1
102
RTVSPropertyOp24
 70
     1
102
RTVSPropertyOp25
 70
     1
102
RTVSPropertyOp26
 70
     1
102
RTVSPropertyOp27
 70
     1
102
RTVSPropertyOp28
 70
     1
102
RTVSPropertyOp29
 70
     1
102
RTVSPropertyOp30
 70
     1
102
RTVSPropertyOp31
 70
     1
102
RTVSPropertyOp32
 70
     1
102
RTVSPropertyOp33
 70
     1
102
RTVSPropertyOp34
 70
     1
102
RTVSPropertyOp35
 70
     1
102
RTVSPropertyOp36
 70
     1
102
RTVSPropertyOp37
 70
     1
102
RTVSPropertyOp38
 70
     1
102
RTVSPropertyOp39
 70
     1
102
RTVSPropertyOp40
 70
     1
102
RTVSPropertyOp41
 70
     1
102
RTVSPropertyOp42
 70
     1
102
RTVSPropertyOp43
 70
     1
102
RTVSPropertyOp44
 70
     1
102
RTVSPropertyOp45
 70
     1
102
RTVSPropertyOp46
 70
     1
102
RTVSPropertyOp47
 70
     1
102
RTVSPropertyOp48
 70
     1
102
RTVSPropertyOp49
 70
     1
102
RTVSPropertyOp50
 70
     1
102
RTVSPropertyOp51
 70
     0
102
RTVSPropertyOp52
 70
     0
102
RTVSPropertyOp53
 70
     1
102
RTVSPropertyOp54
 70
     1
102
RTVSPropertyOp55
 70
     1
102
RTVSPropertyOp56
 70
     1
102
RTVSPropertyOp57
 70
     1
102
RTVSPropertyOp58
 70
     1
102
RTVSPropertyOp59
 70
     1
102
RTVSPropertyOp60
 70
     1
102
RTVSPropertyOp61
 70
     1
102
RTVSPropertyOp62
 70
     1
  0
XRECORD
  5
87D7
102
{ACAD_REACTORS
330
87D6
102
}
330
87D6
100
AcDbXrecord
280
     1
102
RTVSPost2010Prop28
280
     0
102
RTVSPost2010PropOp28
 70
     1
102
RTVSPost2010Prop29
280
     1
102
RTVSPost2010PropOp29
 70
     1
102
RTVSPost2010Prop30
280
     1
102
RTVSPost2010PropOp30
 70
     1
102
RTVSPost2010Prop31
280
     0
102
RTVSPost2010PropOp31
 70
     1
102
RTVSPost2010Prop32
280
     0
102
RTVSPost2010PropOp32
 70
     1
102
RTVSPost2010Prop33
280
     0
102
RTVSPost2010PropOp33
 70
     1
102
RTVSPost2010Prop34
280
     0
102
RTVSPost2010PropOp34
 70
     1
102
RTVSPost2010Prop35
280
     0
102
RTVSPost2010PropOp35
 70
     1
102
RTVSPost2010Prop36
280
     0
102
RTVSPost2010PropOp36
 70
     1
102
RTVSPost2010Prop37
 90
       50
102
RTVSPost2010PropOp37
 70
     1
102
RTVSPost2010Prop38
140
0.0
102
RTVSPost2010PropOp38
 70
     1
102
RTVSPost2010Prop39
140
1.0
102
RTVSPost2010PropOp39
 70
     1
102
RTVSPost2010Prop40
 90
        0
102
RTVSPost2010PropOp40
 70
     1
102
RTVSPost2010Prop41ColorIndex
 90
       18
102
RTVSPost2010Prop41ColorRGB
 90
        0
102
RTVSPost2010PropOp41
 70
     1
102
RTVSPost2010Prop42
 90
       50
102
RTVSPost2010PropOp42
 70
     1
102
RTVSPost2010Prop43
 90
        3
102
RTVSPost2010PropOp43
 70
     1
102
RTVSPost2010Prop44ColorIndex
 90
        5
102
RTVSPost2010Prop44ColorRGB
 90
      255
102
RTVSPost2010PropOp44
 70
     1
102
RTVSPost2010Prop45
280
     0
102
RTVSPost2010PropOp45
 70
     1
102
RTVSPost2010Prop46
 90
       50
102
RTVSPost2010PropOp46
 70
     1
102
RTVSPost2010Prop47
 90
       50
102
RTVSPost2010PropOp47
 70
     1
102
RTVSPost2010Prop48
 90
       50
102
RTVSPost2010PropOp48
 70
     1
102
RTVSPost2010Prop49
280
     0
102
RTVSPost2010PropOp49
 70
     1
102
RTVSPost2010Prop50
 90
       50
102
RTVSPost2010PropOp50
 70
     1
102
RTVSPost2010Prop51ColorIndex
 90
      256
102
RTVSPost2010Prop51ColorRGB
 90
-16777216
102
RTVSPost2010PropOp51
 70
     0
102
RTVSPost2010Prop52
140
1.0
102
RTVSPost2010PropOp52
 70
     0
102
RTVSPost2010Prop53
 90
        2
102
RTVSPost2010PropOp53
 70
     1
102
RTVSPost2010Prop54
  1
strokes_ogs.tif
102
RTVSPost2010PropOp54
 70
     1
102
RTVSPost2010Prop55
280
     0
102
RTVSPost2010PropOp55
 70
     1
102
RTVSPost2010Prop56
140
1.0
102
RTVSPost2010PropOp56
 70
     1
102
RTVSPost2010Prop57
140
1.0
102
RTVSPost2010PropOp57
 70
     1
102
RTVSPropertyOp0
 70
     1
102
RTVSPropertyOp1
 70
     1
102
RTVSPropertyOp2
 70
     1
102
RTVSPropertyOp3
 70
     1
102
RTVSPropertyOp4
 70
     1
102
RTVSPropertyOp5
 70
     1
102
RTVSPropertyOp6
 70
     1
102
RTVSPropertyOp7
 70
     1
102
RTVSPropertyOp8
 70
     1
102
RTVSPropertyOp9
 70
     1
102
RTVSPropertyOp10
 70
     1
102
RTVSPropertyOp11
 70
     1
102
RTVSPropertyOp12
 70
     1
102
RTVSPropertyOp13
 70
     1
102
RTVSPropertyOp14
 70
     1
102
RTVSPropertyOp15
 70
     1
102
RTVSPropertyOp16
 70
     1
102
RTVSPropertyOp17
 70
     1
102
RTVSPropertyOp18
 70
     1
102
RTVSPropertyOp19
 70
     1
102
RTVSPropertyOp20
 70
     1
102
RTVSPropertyOp21
 70
     1
102
RTVSPropertyOp22
 70
     1
102
RTVSPropertyOp23
 70
     1
102
RTVSPropertyOp24
 70
     1
102
RTVSPropertyOp25
 70
     1
102
RTVSPropertyOp26
 70
     1
102
RTVSPropertyOp27
 70
     1
102
RTVSPropertyOp28
 70
     1
102
RTVSPropertyOp29
 70
     1
102
RTVSPropertyOp30
 70
     1
102
RTVSPropertyOp31
 70
     1
102
RTVSPropertyOp32
 70
     1
102
RTVSPropertyOp33
 70
     1
102
RTVSPropertyOp34
 70
     1
102
RTVSPropertyOp35
 70
     1
102
RTVSPropertyOp36
 70
     1
102
RTVSPropertyOp37
 70
     1
102
RTVSPropertyOp38
 70
     1
102
RTVSPropertyOp39
 70
     1
102
RTVSPropertyOp40
 70
     1
102
RTVSPropertyOp41
 70
     1
102
RTVSPropertyOp42
 70
     1
102
RTVSPropertyOp43
 70
     1
102
RTVSPropertyOp44
 70
     1
102
RTVSPropertyOp45
 70
     1
102
RTVSPropertyOp46
 70
     1
102
RTVSPropertyOp47
 70
     1
102
RTVSPropertyOp48
 70
     1
102
RTVSPropertyOp49
 70
     1
102
RTVSPropertyOp50
 70
     1
102
RTVSPropertyOp51
 70
     0
102
RTVSPropertyOp52
 70
     0
102
RTVSPropertyOp53
 70
     1
102
RTVSPropertyOp54
 70
     1
102
RTVSPropertyOp55
 70
     1
102
RTVSPropertyOp56
 70
     1
102
RTVSPropertyOp57
 70
     1
102
RTVSPropertyOp58
 70
     1
102
RTVSPropertyOp59
 70
     1
102
RTVSPropertyOp60
 70
     1
102
RTVSPropertyOp61
 70
     1
102
RTVSPropertyOp62
 70
     1
  0
XRECORD
  5
87D1
102
{ACAD_REACTORS
330
87D0
102
}
330
87D0
100
AcDbXrecord
280
     1
102
RTVSPost2010Prop28
280
     0
102
RTVSPost2010PropOp28
 70
     1
102
RTVSPost2010Prop29
280
     1
102
RTVSPost2010PropOp29
 70
     1
102
RTVSPost2010Prop30
280
     1
102
RTVSPost2010PropOp30
 70
     1
102
RTVSPost2010Prop31
280
     0
102
RTVSPost2010PropOp31
 70
     1
102
RTVSPost2010Prop32
280
     0
102
RTVSPost2010PropOp32
 70
     1
102
RTVSPost2010Prop33
280
     0
102
RTVSPost2010PropOp33
 70
     1
102
RTVSPost2010Prop34
280
     0
102
RTVSPost2010PropOp34
 70
     1
102
RTVSPost2010Prop35
280
     0
102
RTVSPost2010PropOp35
 70
     1
102
RTVSPost2010Prop36
280
     0
102
RTVSPost2010PropOp36
 70
     1
102
RTVSPost2010Prop37
 90
       50
102
RTVSPost2010PropOp37
 70
     1
102
RTVSPost2010Prop38
140
0.0
102
RTVSPost2010PropOp38
 70
     1
102
RTVSPost2010Prop39
140
1.0
102
RTVSPost2010PropOp39
 70
     1
102
RTVSPost2010Prop40
 90
        0
102
RTVSPost2010PropOp40
 70
     1
102
RTVSPost2010Prop41ColorIndex
 90
       18
102
RTVSPost2010Prop41ColorRGB
 90
        0
102
RTVSPost2010PropOp41
 70
     1
102
RTVSPost2010Prop42
 90
       50
102
RTVSPost2010PropOp42
 70
     1
102
RTVSPost2010Prop43
 90
        3
102
RTVSPost2010PropOp43
 70
     1
102
RTVSPost2010Prop44ColorIndex
 90
        5
102
RTVSPost2010Prop44ColorRGB
 90
      255
102
RTVSPost2010PropOp44
 70
     1
102
RTVSPost2010Prop45
280
     0
102
RTVSPost2010PropOp45
 70
     1
102
RTVSPost2010Prop46
 90
       50
102
RTVSPost2010PropOp46
 70
     1
102
RTVSPost2010Prop47
 90
       50
102
RTVSPost2010PropOp47
 70
     1
102
RTVSPost2010Prop48
 90
       50
102
RTVSPost2010PropOp48
 70
     1
102
RTVSPost2010Prop49
280
     0
102
RTVSPost2010PropOp49
 70
     1
102
RTVSPost2010Prop50
 90
       50
102
RTVSPost2010PropOp50
 70
     1
102
RTVSPost2010Prop51ColorIndex
 90
      256
102
RTVSPost2010Prop51ColorRGB
 90
-16777216
102
RTVSPost2010PropOp51
 70
     0
102
RTVSPost2010Prop52
140
1.0
102
RTVSPost2010PropOp52
 70
     0
102
RTVSPost2010Prop53
 90
        2
102
RTVSPost2010PropOp53
 70
     1
102
RTVSPost2010Prop54
  1
strokes_ogs.tif
102
RTVSPost2010PropOp54
 70
     1
102
RTVSPost2010Prop55
280
     0
102
RTVSPost2010PropOp55
 70
     1
102
RTVSPost2010Prop56
140
1.0
102
RTVSPost2010PropOp56
 70
     1
102
RTVSPost2010Prop57
140
1.0
102
RTVSPost2010PropOp57
 70
     1
102
RTVSPropertyOp0
 70
     1
102
RTVSPropertyOp1
 70
     1
102
RTVSPropertyOp2
 70
     1
102
RTVSPropertyOp3
 70
     1
102
RTVSPropertyOp4
 70
     1
102
RTVSPropertyOp5
 70
     1
102
RTVSPropertyOp6
 70
     1
102
RTVSPropertyOp7
 70
     1
102
RTVSPropertyOp8
 70
     1
102
RTVSPropertyOp9
 70
     1
102
RTVSPropertyOp10
 70
     1
102
RTVSPropertyOp11
 70
     1
102
RTVSPropertyOp12
 70
     1
102
RTVSPropertyOp13
 70
     1
102
RTVSPropertyOp14
 70
     1
102
RTVSPropertyOp15
 70
     1
102
RTVSPropertyOp16
 70
     1
102
RTVSPropertyOp17
 70
     1
102
RTVSPropertyOp18
 70
     1
102
RTVSPropertyOp19
 70
     1
102
RTVSPropertyOp20
 70
     1
102
RTVSPropertyOp21
 70
     1
102
RTVSPropertyOp22
 70
     1
102
RTVSPropertyOp23
 70
     1
102
RTVSPropertyOp24
 70
     1
102
RTVSPropertyOp25
 70
     1
102
RTVSPropertyOp26
 70
     1
102
RTVSPropertyOp27
 70
     1
102
RTVSPropertyOp28
 70
     1
102
RTVSPropertyOp29
 70
     1
102
RTVSPropertyOp30
 70
     1
102
RTVSPropertyOp31
 70
     1
102
RTVSPropertyOp32
 70
     1
102
RTVSPropertyOp33
 70
     1
102
RTVSPropertyOp34
 70
     1
102
RTVSPropertyOp35
 70
     1
102
RTVSPropertyOp36
 70
     1
102
RTVSPropertyOp37
 70
     1
102
RTVSPropertyOp38
 70
     1
102
RTVSPropertyOp39
 70
     1
102
RTVSPropertyOp40
 70
     1
102
RTVSPropertyOp41
 70
     1
102
RTVSPropertyOp42
 70
     1
102
RTVSPropertyOp43
 70
     1
102
RTVSPropertyOp44
 70
     1
102
RTVSPropertyOp45
 70
     1
102
RTVSPropertyOp46
 70
     1
102
RTVSPropertyOp47
 70
     1
102
RTVSPropertyOp48
 70
     1
102
RTVSPropertyOp49
 70
     1
102
RTVSPropertyOp50
 70
     1
102
RTVSPropertyOp51
 70
     0
102
RTVSPropertyOp52
 70
     0
102
RTVSPropertyOp53
 70
     1
102
RTVSPropertyOp54
 70
     1
102
RTVSPropertyOp55
 70
     1
102
RTVSPropertyOp56
 70
     1
102
RTVSPropertyOp57
 70
     1
102
RTVSPropertyOp58
 70
     1
102
RTVSPropertyOp59
 70
     1
102
RTVSPropertyOp60
 70
     1
102
RTVSPropertyOp61
 70
     1
102
RTVSPropertyOp62
 70
     1
  0
XRECORD
  5
87D3
102
{ACAD_REACTORS
330
87D2
102
}
330
87D2
100
AcDbXrecord
280
     1
102
RTVSPost2010Prop28
280
     0
102
RTVSPost2010PropOp28
 70
     1
102
RTVSPost2010Prop29
280
     1
102
RTVSPost2010PropOp29
 70
     1
102
RTVSPost2010Prop30
280
     1
102
RTVSPost2010PropOp30
 70
     1
102
RTVSPost2010Prop31
280
     0
102
RTVSPost2010PropOp31
 70
     1
102
RTVSPost2010Prop32
280
     0
102
RTVSPost2010PropOp32
 70
     1
102
RTVSPost2010Prop33
280
     0
102
RTVSPost2010PropOp33
 70
     1
102
RTVSPost2010Prop34
280
     0
102
RTVSPost2010PropOp34
 70
     1
102
RTVSPost2010Prop35
280
     0
102
RTVSPost2010PropOp35
 70
     1
102
RTVSPost2010Prop36
280
     0
102
RTVSPost2010PropOp36
 70
     1
102
RTVSPost2010Prop37
 90
       50
102
RTVSPost2010PropOp37
 70
     1
102
RTVSPost2010Prop38
140
0.0
102
RTVSPost2010PropOp38
 70
     1
102
RTVSPost2010Prop39
140
1.0
102
RTVSPost2010PropOp39
 70
     1
102
RTVSPost2010Prop40
 90
        0
102
RTVSPost2010PropOp40
 70
     1
102
RTVSPost2010Prop41ColorIndex
 90
       18
102
RTVSPost2010Prop41ColorRGB
 90
        0
102
RTVSPost2010PropOp41
 70
     1
102
RTVSPost2010Prop42
 90
       50
102
RTVSPost2010PropOp42
 70
     1
102
RTVSPost2010Prop43
 90
        3
102
RTVSPost2010PropOp43
 70
     1
102
RTVSPost2010Prop44ColorIndex
 90
        5
102
RTVSPost2010Prop44ColorRGB
 90
      255
102
RTVSPost2010PropOp44
 70
     1
102
RTVSPost2010Prop45
280
     0
102
RTVSPost2010PropOp45
 70
     1
102
RTVSPost2010Prop46
 90
       50
102
RTVSPost2010PropOp46
 70
     1
102
RTVSPost2010Prop47
 90
       50
102
RTVSPost2010PropOp47
 70
     1
102
RTVSPost2010Prop48
 90
       50
102
RTVSPost2010PropOp48
 70
     1
102
RTVSPost2010Prop49
280
     0
102
RTVSPost2010PropOp49
 70
     1
102
RTVSPost2010Prop50
 90
       50
102
RTVSPost2010PropOp50
 70
     1
102
RTVSPost2010Prop51ColorIndex
 90
      256
102
RTVSPost2010Prop51ColorRGB
 90
-16777216
102
RTVSPost2010PropOp51
 70
     0
102
RTVSPost2010Prop52
140
1.0
102
RTVSPost2010PropOp52
 70
     0
102
RTVSPost2010Prop53
 90
        2
102
RTVSPost2010PropOp53
 70
     1
102
RTVSPost2010Prop54
  1
strokes_ogs.tif
102
RTVSPost2010PropOp54
 70
     1
102
RTVSPost2010Prop55
280
     0
102
RTVSPost2010PropOp55
 70
     1
102
RTVSPost2010Prop56
140
1.0
102
RTVSPost2010PropOp56
 70
     1
102
RTVSPost2010Prop57
140
1.0
102
RTVSPost2010PropOp57
 70
     1
102
RTVSPropertyOp0
 70
     1
102
RTVSPropertyOp1
 70
     1
102
RTVSPropertyOp2
 70
     1
102
RTVSPropertyOp3
 70
     1
102
RTVSPropertyOp4
 70
     1
102
RTVSPropertyOp5
 70
     1
102
RTVSPropertyOp6
 70
     1
102
RTVSPropertyOp7
 70
     1
102
RTVSPropertyOp8
 70
     1
102
RTVSPropertyOp9
 70
     1
102
RTVSPropertyOp10
 70
     1
102
RTVSPropertyOp11
 70
     1
102
RTVSPropertyOp12
 70
     1
102
RTVSPropertyOp13
 70
     1
102
RTVSPropertyOp14
 70
     1
102
RTVSPropertyOp15
 70
     1
102
RTVSPropertyOp16
 70
     1
102
RTVSPropertyOp17
 70
     1
102
RTVSPropertyOp18
 70
     1
102
RTVSPropertyOp19
 70
     1
102
RTVSPropertyOp20
 70
     1
102
RTVSPropertyOp21
 70
     1
102
RTVSPropertyOp22
 70
     1
102
RTVSPropertyOp23
 70
     1
102
RTVSPropertyOp24
 70
     1
102
RTVSPropertyOp25
 70
     1
102
RTVSPropertyOp26
 70
     1
102
RTVSPropertyOp27
 70
     1
102
RTVSPropertyOp28
 70
     1
102
RTVSPropertyOp29
 70
     1
102
RTVSPropertyOp30
 70
     1
102
RTVSPropertyOp31
 70
     1
102
RTVSPropertyOp32
 70
     1
102
RTVSPropertyOp33
 70
     1
102
RTVSPropertyOp34
 70
     1
102
RTVSPropertyOp35
 70
     1
102
RTVSPropertyOp36
 70
     1
102
RTVSPropertyOp37
 70
     1
102
RTVSPropertyOp38
 70
     1
102
RTVSPropertyOp39
 70
     1
102
RTVSPropertyOp40
 70
     1
102
RTVSPropertyOp41
 70
     1
102
RTVSPropertyOp42
 70
     1
102
RTVSPropertyOp43
 70
     1
102
RTVSPropertyOp44
 70
     1
102
RTVSPropertyOp45
 70
     1
102
RTVSPropertyOp46
 70
     1
102
RTVSPropertyOp47
 70
     1
102
RTVSPropertyOp48
 70
     1
102
RTVSPropertyOp49
 70
     1
102
RTVSPropertyOp50
 70
     1
102
RTVSPropertyOp51
 70
     0
102
RTVSPropertyOp52
 70
     0
102
RTVSPropertyOp53
 70
     1
102
RTVSPropertyOp54
 70
     1
102
RTVSPropertyOp55
 70
     1
102
RTVSPropertyOp56
 70
     1
102
RTVSPropertyOp57
 70
     1
102
RTVSPropertyOp58
 70
     1
102
RTVSPropertyOp59
 70
     1
102
RTVSPropertyOp60
 70
     1
102
RTVSPropertyOp61
 70
     1
102
RTVSPropertyOp62
 70
     1
  0
XRECORD
  5
87C9
102
{ACAD_REACTORS
330
87C8
102
}
330
87C8
100
AcDbXrecord
280
     1
102
RTVSPost2010Prop28
280
     0
102
RTVSPost2010PropOp28
 70
     1
102
RTVSPost2010Prop29
280
     1
102
RTVSPost2010PropOp29
 70
     1
102
RTVSPost2010Prop30
280
     1
102
RTVSPost2010PropOp30
 70
     1
102
RTVSPost2010Prop31
280
     0
102
RTVSPost2010PropOp31
 70
     1
102
RTVSPost2010Prop32
280
     0
102
RTVSPost2010PropOp32
 70
     1
102
RTVSPost2010Prop33
280
     0
102
RTVSPost2010PropOp33
 70
     1
102
RTVSPost2010Prop34
280
     0
102
RTVSPost2010PropOp34
 70
     1
102
RTVSPost2010Prop35
280
     0
102
RTVSPost2010PropOp35
 70
     1
102
RTVSPost2010Prop36
280
     0
102
RTVSPost2010PropOp36
 70
     1
102
RTVSPost2010Prop37
 90
       50
102
RTVSPost2010PropOp37
 70
     1
102
RTVSPost2010Prop38
140
0.0
102
RTVSPost2010PropOp38
 70
     1
102
RTVSPost2010Prop39
140
1.0
102
RTVSPost2010PropOp39
 70
     1
102
RTVSPost2010Prop40
 90
        0
102
RTVSPost2010PropOp40
 70
     1
102
RTVSPost2010Prop41ColorIndex
 90
       18
102
RTVSPost2010Prop41ColorRGB
 90
        0
102
RTVSPost2010PropOp41
 70
     1
102
RTVSPost2010Prop42
 90
       50
102
RTVSPost2010PropOp42
 70
     1
102
RTVSPost2010Prop43
 90
        3
102
RTVSPost2010PropOp43
 70
     1
102
RTVSPost2010Prop44ColorIndex
 90
        5
102
RTVSPost2010Prop44ColorRGB
 90
      255
102
RTVSPost2010PropOp44
 70
     1
102
RTVSPost2010Prop45
280
     0
102
RTVSPost2010PropOp45
 70
     1
102
RTVSPost2010Prop46
 90
       50
102
RTVSPost2010PropOp46
 70
     1
102
RTVSPost2010Prop47
 90
       50
102
RTVSPost2010PropOp47
 70
     1
102
RTVSPost2010Prop48
 90
       50
102
RTVSPost2010PropOp48
 70
     1
102
RTVSPost2010Prop49
280
     0
102
RTVSPost2010PropOp49
 70
     1
102
RTVSPost2010Prop50
 90
       50
102
RTVSPost2010PropOp50
 70
     1
102
RTVSPost2010Prop51ColorIndex
 90
      256
102
RTVSPost2010Prop51ColorRGB
 90
-16777216
102
RTVSPost2010PropOp51
 70
     0
102
RTVSPost2010Prop52
140
1.0
102
RTVSPost2010PropOp52
 70
     0
102
RTVSPost2010Prop53
 90
        2
102
RTVSPost2010PropOp53
 70
     1
102
RTVSPost2010Prop54
  1
strokes_ogs.tif
102
RTVSPost2010PropOp54
 70
     1
102
RTVSPost2010Prop55
280
     0
102
RTVSPost2010PropOp55
 70
     1
102
RTVSPost2010Prop56
140
1.0
102
RTVSPost2010PropOp56
 70
     1
102
RTVSPost2010Prop57
140
1.0
102
RTVSPost2010PropOp57
 70
     1
102
RTVSPropertyOp0
 70
     1
102
RTVSPropertyOp1
 70
     1
102
RTVSPropertyOp2
 70
     1
102
RTVSPropertyOp3
 70
     1
102
RTVSPropertyOp4
 70
     1
102
RTVSPropertyOp5
 70
     1
102
RTVSPropertyOp6
 70
     1
102
RTVSPropertyOp7
 70
     1
102
RTVSPropertyOp8
 70
     1
102
RTVSPropertyOp9
 70
     1
102
RTVSPropertyOp10
 70
     1
102
RTVSPropertyOp11
 70
     1
102
RTVSPropertyOp12
 70
     1
102
RTVSPropertyOp13
 70
     1
102
RTVSPropertyOp14
 70
     1
102
RTVSPropertyOp15
 70
     1
102
RTVSPropertyOp16
 70
     1
102
RTVSPropertyOp17
 70
     1
102
RTVSPropertyOp18
 70
     1
102
RTVSPropertyOp19
 70
     1
102
RTVSPropertyOp20
 70
     1
102
RTVSPropertyOp21
 70
     1
102
RTVSPropertyOp22
 70
     1
102
RTVSPropertyOp23
 70
     1
102
RTVSPropertyOp24
 70
     1
102
RTVSPropertyOp25
 70
     1
102
RTVSPropertyOp26
 70
     1
102
RTVSPropertyOp27
 70
     1
102
RTVSPropertyOp28
 70
     1
102
RTVSPropertyOp29
 70
     1
102
RTVSPropertyOp30
 70
     1
102
RTVSPropertyOp31
 70
     1
102
RTVSPropertyOp32
 70
     1
102
RTVSPropertyOp33
 70
     1
102
RTVSPropertyOp34
 70
     1
102
RTVSPropertyOp35
 70
     1
102
RTVSPropertyOp36
 70
     1
102
RTVSPropertyOp37
 70
     1
102
RTVSPropertyOp38
 70
     1
102
RTVSPropertyOp39
 70
     1
102
RTVSPropertyOp40
 70
     1
102
RTVSPropertyOp41
 70
     1
102
RTVSPropertyOp42
 70
     1
102
RTVSPropertyOp43
 70
     1
102
RTVSPropertyOp44
 70
     1
102
RTVSPropertyOp45
 70
     1
102
RTVSPropertyOp46
 70
     1
102
RTVSPropertyOp47
 70
     1
102
RTVSPropertyOp48
 70
     1
102
RTVSPropertyOp49
 70
     1
102
RTVSPropertyOp50
 70
     1
102
RTVSPropertyOp51
 70
     0
102
RTVSPropertyOp52
 70
     0
102
RTVSPropertyOp53
 70
     1
102
RTVSPropertyOp54
 70
     1
102
RTVSPropertyOp55
 70
     1
102
RTVSPropertyOp56
 70
     1
102
RTVSPropertyOp57
 70
     1
102
RTVSPropertyOp58
 70
     1
102
RTVSPropertyOp59
 70
     1
102
RTVSPropertyOp60
 70
     1
102
RTVSPropertyOp61
 70
     1
102
RTVSPropertyOp62
 70
     1
  0
XRECORD
  5
87BD
102
{ACAD_REACTORS
330
87BC
102
}
330
87BC
100
AcDbXrecord
280
     1
102
RTVSPost2010Prop28
280
     0
102
RTVSPost2010PropOp28
 70
     1
102
RTVSPost2010Prop29
280
     1
102
RTVSPost2010PropOp29
 70
     1
102
RTVSPost2010Prop30
280
     1
102
RTVSPost2010PropOp30
 70
     1
102
RTVSPost2010Prop31
280
     0
102
RTVSPost2010PropOp31
 70
     1
102
RTVSPost2010Prop32
280
     0
102
RTVSPost2010PropOp32
 70
     1
102
RTVSPost2010Prop33
280
     0
102
RTVSPost2010PropOp33
 70
     1
102
RTVSPost2010Prop34
280
     0
102
RTVSPost2010PropOp34
 70
     1
102
RTVSPost2010Prop35
280
     0
102
RTVSPost2010PropOp35
 70
     1
102
RTVSPost2010Prop36
280
     0
102
RTVSPost2010PropOp36
 70
     1
102
RTVSPost2010Prop37
 90
       50
102
RTVSPost2010PropOp37
 70
     1
102
RTVSPost2010Prop38
140
0.0
102
RTVSPost2010PropOp38
 70
     1
102
RTVSPost2010Prop39
140
1.0
102
RTVSPost2010PropOp39
 70
     1
102
RTVSPost2010Prop40
 90
        0
102
RTVSPost2010PropOp40
 70
     1
102
RTVSPost2010Prop41ColorIndex
 90
       18
102
RTVSPost2010Prop41ColorRGB
 90
        0
102
RTVSPost2010PropOp41
 70
     1
102
RTVSPost2010Prop42
 90
       50
102
RTVSPost2010PropOp42
 70
     1
102
RTVSPost2010Prop43
 90
        3
102
RTVSPost2010PropOp43
 70
     1
102
RTVSPost2010Prop44ColorIndex
 90
        5
102
RTVSPost2010Prop44ColorRGB
 90
      255
102
RTVSPost2010PropOp44
 70
     1
102
RTVSPost2010Prop45
280
     0
102
RTVSPost2010PropOp45
 70
     1
102
RTVSPost2010Prop46
 90
       50
102
RTVSPost2010PropOp46
 70
     1
102
RTVSPost2010Prop47
 90
       50
102
RTVSPost2010PropOp47
 70
     1
102
RTVSPost2010Prop48
 90
       50
102
RTVSPost2010PropOp48
 70
     1
102
RTVSPost2010Prop49
280
     0
102
RTVSPost2010PropOp49
 70
     1
102
RTVSPost2010Prop50
 90
       50
102
RTVSPost2010PropOp50
 70
     1
102
RTVSPost2010Prop51ColorIndex
 90
      256
102
RTVSPost2010Prop51ColorRGB
 90
-16777216
102
RTVSPost2010PropOp51
 70
     0
102
RTVSPost2010Prop52
140
1.0
102
RTVSPost2010PropOp52
 70
     0
102
RTVSPost2010Prop53
 90
        2
102
RTVSPost2010PropOp53
 70
     1
102
RTVSPost2010Prop54
  1
strokes_ogs.tif
102
RTVSPost2010PropOp54
 70
     1
102
RTVSPost2010Prop55
280
     0
102
RTVSPost2010PropOp55
 70
     1
102
RTVSPost2010Prop56
140
1.0
102
RTVSPost2010PropOp56
 70
     1
102
RTVSPost2010Prop57
140
1.0
102
RTVSPost2010PropOp57
 70
     1
102
RTVSPropertyOp0
 70
     1
102
RTVSPropertyOp1
 70
     1
102
RTVSPropertyOp2
 70
     1
102
RTVSPropertyOp3
 70
     1
102
RTVSPropertyOp4
 70
     1
102
RTVSPropertyOp5
 70
     1
102
RTVSPropertyOp6
 70
     1
102
RTVSPropertyOp7
 70
     1
102
RTVSPropertyOp8
 70
     1
102
RTVSPropertyOp9
 70
     1
102
RTVSPropertyOp10
 70
     1
102
RTVSPropertyOp11
 70
     1
102
RTVSPropertyOp12
 70
     1
102
RTVSPropertyOp13
 70
     1
102
RTVSPropertyOp14
 70
     1
102
RTVSPropertyOp15
 70
     1
102
RTVSPropertyOp16
 70
     1
102
RTVSPropertyOp17
 70
     1
102
RTVSPropertyOp18
 70
     1
102
RTVSPropertyOp19
 70
     1
102
RTVSPropertyOp20
 70
     1
102
RTVSPropertyOp21
 70
     1
102
RTVSPropertyOp22
 70
     1
102
RTVSPropertyOp23
 70
     1
102
RTVSPropertyOp24
 70
     1
102
RTVSPropertyOp25
 70
     1
102
RTVSPropertyOp26
 70
     1
102
RTVSPropertyOp27
 70
     1
102
RTVSPropertyOp28
 70
     1
102
RTVSPropertyOp29
 70
     1
102
RTVSPropertyOp30
 70
     1
102
RTVSPropertyOp31
 70
     1
102
RTVSPropertyOp32
 70
     1
102
RTVSPropertyOp33
 70
     1
102
RTVSPropertyOp34
 70
     1
102
RTVSPropertyOp35
 70
     1
102
RTVSPropertyOp36
 70
     1
102
RTVSPropertyOp37
 70
     1
102
RTVSPropertyOp38
 70
     1
102
RTVSPropertyOp39
 70
     1
102
RTVSPropertyOp40
 70
     1
102
RTVSPropertyOp41
 70
     1
102
RTVSPropertyOp42
 70
     1
102
RTVSPropertyOp43
 70
     1
102
RTVSPropertyOp44
 70
     1
102
RTVSPropertyOp45
 70
     1
102
RTVSPropertyOp46
 70
     1
102
RTVSPropertyOp47
 70
     1
102
RTVSPropertyOp48
 70
     1
102
RTVSPropertyOp49
 70
     1
102
RTVSPropertyOp50
 70
     1
102
RTVSPropertyOp51
 70
     0
102
RTVSPropertyOp52
 70
     0
102
RTVSPropertyOp53
 70
     1
102
RTVSPropertyOp54
 70
     1
102
RTVSPropertyOp55
 70
     1
102
RTVSPropertyOp56
 70
     1
102
RTVSPropertyOp57
 70
     1
102
RTVSPropertyOp58
 70
     1
102
RTVSPropertyOp59
 70
     1
102
RTVSPropertyOp60
 70
     1
102
RTVSPropertyOp61
 70
     1
102
RTVSPropertyOp62
 70
     1
  0
XRECORD
  5
87D5
102
{ACAD_REACTORS
330
87D4
102
}
330
87D4
100
AcDbXrecord
280
     1
102
RTVSPost2010Prop28
280
     0
102
RTVSPost2010PropOp28
 70
     1
102
RTVSPost2010Prop29
280
     1
102
RTVSPost2010PropOp29
 70
     1
102
RTVSPost2010Prop30
280
     1
102
RTVSPost2010PropOp30
 70
     1
102
RTVSPost2010Prop31
280
     0
102
RTVSPost2010PropOp31
 70
     1
102
RTVSPost2010Prop32
280
     0
102
RTVSPost2010PropOp32
 70
     1
102
RTVSPost2010Prop33
280
     0
102
RTVSPost2010PropOp33
 70
     1
102
RTVSPost2010Prop34
280
     0
102
RTVSPost2010PropOp34
 70
     1
102
RTVSPost2010Prop35
280
     0
102
RTVSPost2010PropOp35
 70
     1
102
RTVSPost2010Prop36
280
     0
102
RTVSPost2010PropOp36
 70
     1
102
RTVSPost2010Prop37
 90
       50
102
RTVSPost2010PropOp37
 70
     1
102
RTVSPost2010Prop38
140
0.0
102
RTVSPost2010PropOp38
 70
     1
102
RTVSPost2010Prop39
140
1.0
102
RTVSPost2010PropOp39
 70
     1
102
RTVSPost2010Prop40
 90
        0
102
RTVSPost2010PropOp40
 70
     1
102
RTVSPost2010Prop41ColorIndex
 90
       18
102
RTVSPost2010Prop41ColorRGB
 90
        0
102
RTVSPost2010PropOp41
 70
     1
102
RTVSPost2010Prop42
 90
       50
102
RTVSPost2010PropOp42
 70
     1
102
RTVSPost2010Prop43
 90
        3
102
RTVSPost2010PropOp43
 70
     1
102
RTVSPost2010Prop44ColorIndex
 90
        5
102
RTVSPost2010Prop44ColorRGB
 90
      255
102
RTVSPost2010PropOp44
 70
     1
102
RTVSPost2010Prop45
280
     0
102
RTVSPost2010PropOp45
 70
     1
102
RTVSPost2010Prop46
 90
       50
102
RTVSPost2010PropOp46
 70
     1
102
RTVSPost2010Prop47
 90
       50
102
RTVSPost2010PropOp47
 70
     1
102
RTVSPost2010Prop48
 90
       50
102
RTVSPost2010PropOp48
 70
     1
102
RTVSPost2010Prop49
280
     0
102
RTVSPost2010PropOp49
 70
     1
102
RTVSPost2010Prop50
 90
       50
102
RTVSPost2010PropOp50
 70
     1
102
RTVSPost2010Prop51ColorIndex
 90
      256
102
RTVSPost2010Prop51ColorRGB
 90
-16777216
102
RTVSPost2010PropOp51
 70
     0
102
RTVSPost2010Prop52
140
1.0
102
RTVSPost2010PropOp52
 70
     0
102
RTVSPost2010Prop53
 90
        2
102
RTVSPost2010PropOp53
 70
     1
102
RTVSPost2010Prop54
  1
strokes_ogs.tif
102
RTVSPost2010PropOp54
 70
     1
102
RTVSPost2010Prop55
280
     0
102
RTVSPost2010PropOp55
 70
     1
102
RTVSPost2010Prop56
140
1.0
102
RTVSPost2010PropOp56
 70
     1
102
RTVSPost2010Prop57
140
1.0
102
RTVSPost2010PropOp57
 70
     1
102
RTVSPropertyOp0
 70
     1
102
RTVSPropertyOp1
 70
     1
102
RTVSPropertyOp2
 70
     1
102
RTVSPropertyOp3
 70
     1
102
RTVSPropertyOp4
 70
     1
102
RTVSPropertyOp5
 70
     1
102
RTVSPropertyOp6
 70
     1
102
RTVSPropertyOp7
 70
     1
102
RTVSPropertyOp8
 70
     1
102
RTVSPropertyOp9
 70
     1
102
RTVSPropertyOp10
 70
     1
102
RTVSPropertyOp11
 70
     1
102
RTVSPropertyOp12
 70
     1
102
RTVSPropertyOp13
 70
     1
102
RTVSPropertyOp14
 70
     1
102
RTVSPropertyOp15
 70
     1
102
RTVSPropertyOp16
 70
     1
102
RTVSPropertyOp17
 70
     1
102
RTVSPropertyOp18
 70
     1
102
RTVSPropertyOp19
 70
     1
102
RTVSPropertyOp20
 70
     1
102
RTVSPropertyOp21
 70
     1
102
RTVSPropertyOp22
 70
     1
102
RTVSPropertyOp23
 70
     1
102
RTVSPropertyOp24
 70
     1
102
RTVSPropertyOp25
 70
     1
102
RTVSPropertyOp26
 70
     1
102
RTVSPropertyOp27
 70
     1
102
RTVSPropertyOp28
 70
     1
102
RTVSPropertyOp29
 70
     1
102
RTVSPropertyOp30
 70
     1
102
RTVSPropertyOp31
 70
     1
102
RTVSPropertyOp32
 70
     1
102
RTVSPropertyOp33
 70
     1
102
RTVSPropertyOp34
 70
     1
102
RTVSPropertyOp35
 70
     1
102
RTVSPropertyOp36
 70
     1
102
RTVSPropertyOp37
 70
     1
102
RTVSPropertyOp38
 70
     1
102
RTVSPropertyOp39
 70
     1
102
RTVSPropertyOp40
 70
     1
102
RTVSPropertyOp41
 70
     1
102
RTVSPropertyOp42
 70
     1
102
RTVSPropertyOp43
 70
     1
102
RTVSPropertyOp44
 70
     1
102
RTVSPropertyOp45
 70
     1
102
RTVSPropertyOp46
 70
     1
102
RTVSPropertyOp47
 70
     1
102
RTVSPropertyOp48
 70
     1
102
RTVSPropertyOp49
 70
     1
102
RTVSPropertyOp50
 70
     1
102
RTVSPropertyOp51
 70
     0
102
RTVSPropertyOp52
 70
     0
102
RTVSPropertyOp53
 70
     1
102
RTVSPropertyOp54
 70
     1
102
RTVSPropertyOp55
 70
     1
102
RTVSPropertyOp56
 70
     1
102
RTVSPropertyOp57
 70
     1
102
RTVSPropertyOp58
 70
     1
102
RTVSPropertyOp59
 70
     1
102
RTVSPropertyOp60
 70
     1
102
RTVSPropertyOp61
 70
     1
102
RTVSPropertyOp62
 70
     1
  0
ENDSEC
  0
EOF
