  0
SECTION
  2
HEADER
  9
$ACADVER
  1
AC1015
  9
$ACADMAINTVER
 70
    20
  9
$DWGCODEPAGE
  3
ANSI_932
  9
$INSBASE
 10
0.0
 20
0.0
 30
0.0
  9
$EXTMIN
 10
-0.2563280987742473
 20
-0.3600799482810544
 30
-0.0015258207003583
  9
$EXTMAX
 10
8400.256367214323
 20
11800.3601348963
 30
0.0000000349246037
  9
$LIMMIN
 10
0.0
 20
0.0
  9
$LIMMAX
 10
297.0
 20
210.0
  9
$ORTHOMODE
 70
     1
  9
$REGENMODE
 70
     1
  9
$FILLMODE
 70
     0
  9
$QTEXTMODE
 70
     0
  9
$MIRRTEXT
 70
     1
  9
$LTSCALE
 40
100.0
  9
$ATTMODE
 70
     1
  9
$TEXTSIZE
 40
180.0
  9
$TRACEWID
 40
0.05
  9
$TEXTSTYLE
  7
STANDARD
  9
$CLAYER
  8
3
  9
$CELTYPE
  6
ByLayer
  9
$CECOLOR
 62
   256
  9
$CELTSCALE
 40
1.0
  9
$DISPSILH
 70
     0
  9
$DIMSCALE
 40
40.0
  9
$DIMASZ
 40
2.0
  9
$DIMEXO
 40
0.5
  9
$DIMDLI
 40
10.0
  9
$DIMRND
 40
0.0
  9
$DIMDLE
 40
0.0
  9
$DIMEXE
 40
1.0
  9
$DIMTP
 40
1.0
  9
$DIMTM
 40
1.0
  9
$DIMTXT
 40
3.0
  9
$DIMCEN
 40
0.0
  9
$DIMTSZ
 40
0.0
  9
$DIMTOL
 70
     0
  9
$DIMLIM
 70
     0
  9
$DIMTIH
 70
     0
  9
$DIMTOH
 70
     0
  9
$DIMSE1
 70
     0
  9
$DIMSE2
 70
     0
  9
$DIMTAD
 70
     1
  9
$DIMZIN
 70
     8
  9
$DIMBLK
  1

  9
$DIMASO
 70
     1
  9
$DIMSHO
 70
     1
  9
$DIMPOST
  1

  9
$DIMAPOST
  1

  9
$DIMALT
 70
     0
  9
$DIMALTD
 70
     2
  9
$DIMALTF
 40
0.039
  9
$DIMLFAC
 40
1.0
  9
$DIMTOFL
 70
     1
  9
$DIMTVP
 40
0.0
  9
$DIMTIX
 70
     0
  9
$DIMSOXD
 70
     0
  9
$DIMSAH
 70
     1
  9
$DIMBLK1
  1
OPEN
  9
$DIMBLK2
  1
OPEN
  9
$DIMSTYLE
  2
IGA
  9
$DIMCLRD
 70
     0
  9
$DIMCLRE
 70
     0
  9
$DIMCLRT
 70
     0
  9
$DIMTFAC
 40
10.0
  9
$DIMGAP
 40
1.0
  9
$DIMJUST
 70
     0
  9
$DIMSD1
 70
     0
  9
$DIMSD2
 70
     0
  9
$DIMTOLJ
 70
     1
  9
$DIMTZIN
 70
     0
  9
$DIMALTZ
 70
     0
  9
$DIMALTTZ
 70
     0
  9
$DIMUPT
 70
     0
  9
$DIMDEC
 70
     4
  9
$DIMTDEC
 70
     4
  9
$DIMALTU
 70
     2
  9
$DIMALTTD
 70
     2
  9
$DIMTXSTY
  7
STANDARD
  9
$DIMAUNIT
 70
     0
  9
$DIMADEC
 70
     0
  9
$DIMALTRND
 40
0.0
  9
$DIMAZIN
 70
     0
  9
$DIMDSEP
 70
    46
  9
$DIMATFIT
 70
     3
  9
$DIMFRAC
 70
     0
  9
$DIMLDRBLK
  1
OPEN
  9
$DIMLUNIT
 70
     2
  9
$DIMLWD
 70
    -2
  9
$DIMLWE
 70
    -2
  9
$DIMTMOVE
 70
     0
  9
$LUNITS
 70
     2
  9
$LUPREC
 70
     3
  9
$SKETCHINC
 40
0.1
  9
$FILLETRAD
 40
50.0
  9
$AUNITS
 70
     0
  9
$AUPREC
 70
     0
  9
$MENU
  1
acad
  9
$ELEVATION
 40
0.0
  9
$PELEVATION
 40
0.0
  9
$THICKNESS
 40
0.0
  9
$LIMCHECK
 70
     0
  9
$CHAMFERA
 40
0.5
  9
$CHAMFERB
 40
0.5
  9
$CHAMFERC
 40
0.0
  9
$CHAMFERD
 40
0.0
  9
$SKPOLY
 70
     0
  9
$TDCREATE
 40
2451898.665484606
  9
$TDUCREATE
 40
2451898.290484606
  9
$TDUPDATE
 40
2460280.771211331
  9
$TDUUPDATE
 40
2460280.396211331
  9
$TDINDWG
 40
0.0272667708
  9
$TDUSRTIMER
 40
0.0272667593
  9
$USRTIMER
 70
     1
  9
$ANGBASE
 50
0.0
  9
$ANGDIR
 70
     0
  9
$PDMODE
 70
     0
  9
$PDSIZE
 40
0.0
  9
$PLINEWID
 40
0.0
  9
$SPLFRAME
 70
     0
  9
$SPLINETYPE
 70
     6
  9
$SPLINESEGS
 70
     8
  9
$HANDSEED
  5
8826
  9
$SURFTAB1
 70
     6
  9
$SURFTAB2
 70
     6
  9
$SURFTYPE
 70
     6
  9
$SURFU
 70
     6
  9
$SURFV
 70
     6
  9
$UCSBASE
  2

  9
$UCSNAME
  2

  9
$UCSORG
 10
0.0
 20
0.0
 30
0.0
  9
$UCSXDIR
 10
1.0
 20
0.0
 30
0.0
  9
$UCSYDIR
 10
0.0
 20
1.0
 30
0.0
  9
$UCSORTHOREF
  2

  9
$UCSORTHOVIEW
 70
     0
  9
$UCSORGTOP
 10
0.0
 20
0.0
 30
0.0
  9
$UCSORGBOTTOM
 10
0.0
 20
0.0
 30
0.0
  9
$UCSORGLEFT
 10
0.0
 20
0.0
 30
0.0
  9
$UCSORGRIGHT
 10
0.0
 20
0.0
 30
0.0
  9
$UCSORGFRONT
 10
0.0
 20
0.0
 30
0.0
  9
$UCSORGBACK
 10
0.0
 20
0.0
 30
0.0
  9
$PUCSBASE
  2

  9
$PUCSNAME
  2

  9
$PUCSORG
 10
0.0
 20
0.0
 30
0.0
  9
$PUCSXDIR
 10
1.0
 20
0.0
 30
0.0
  9
$PUCSYDIR
 10
0.0
 20
1.0
 30
0.0
  9
$PUCSORTHOREF
  2

  9
$PUCSORTHOVIEW
 70
     0
  9
$PUCSORGTOP
 10
0.0
 20
0.0
 30
0.0
  9
$PUCSORGBOTTOM
 10
0.0
 20
0.0
 30
0.0
  9
$PUCSORGLEFT
 10
0.0
 20
0.0
 30
0.0
  9
$PUCSORGRIGHT
 10
0.0
 20
0.0
 30
0.0
  9
$PUCSORGFRONT
 10
0.0
 20
0.0
 30
0.0
  9
$PUCSORGBACK
 10
0.0
 20
0.0
 30
0.0
  9
$USERI1
 70
     0
  9
$USERI2
 70
     0
  9
$USERI3
 70
     0
  9
$USERI4
 70
     0
  9
$USERI5
 70
     0
  9
$USERR1
 40
0.0
  9
$USERR2
 40
0.0
  9
$USERR3
 40
0.0
  9
$USERR4
 40
0.0
  9
$USERR5
 40
0.0
  9
$WORLDVIEW
 70
     1
  9
$SHADEDGE
 70
     3
  9
$SHADEDIF
 70
    70
  9
$TILEMODE
 70
     1
  9
$MAXACTVP
 70
    16
  9
$PINSBASE
 10
0.0
 20
0.0
 30
0.0
  9
$PLIMCHECK
 70
     0
  9
$PEXTMIN
 10
1.000000000000000E+20
 20
1.000000000000000E+20
 30
1.000000000000000E+20
  9
$PEXTMAX
 10
-1.000000000000000E+20
 20
-1.000000000000000E+20
 30
-1.000000000000000E+20
  9
$PLIMMIN
 10
0.0
 20
0.0
  9
$PLIMMAX
 10
12.0
 20
9.0
  9
$UNITMODE
 70
     0
  9
$VISRETAIN
 70
     0
  9
$PLINEGEN
 70
     0
  9
$PSLTSCALE
 70
     1
  9
$TREEDEPTH
 70
  3020
  9
$CMLSTYLE
  2
Standard
  9
$CMLJUST
 70
     0
  9
$CMLSCALE
 40
1.0
  9
$PROXYGRAPHICS
 70
     1
  9
$MEASUREMENT
 70
     0
  9
$CELWEIGHT
370
    -1
  9
$ENDCAPS
280
     0
  9
$JOINSTYLE
280
     0
  9
$LWDISPLAY
290
     0
  9
$INSUNITS
 70
     0
  9
$HYPERLINKBASE
  1

  9
$STYLESHEET
  1

  9
$XEDIT
290
     1
  9
$CEPSNTYPE
380
     0
  9
$PSTYLEMODE
290
     1
  9
$FINGERPRINTGUID
  2
{EAD21757-8BBA-4DDF-AAC9-541183FB0878}
  9
$VERSIONGUID
  2
{BB6ECD5C-150F-4E6E-A6A4-3135B23B08B8}
  9
$EXTNAMES
290
     1
  9
$PSVPSCALE
 40
0.0
  9
$OLESTARTUP
290
     0
  0
ENDSEC
  0
SECTION
  2
CLASSES
  0
CLASS
  1
ACDBDICTIONARYWDFLT
  2
AcDbDictionaryWithDefault
  3
ObjectDBX Classes
 90
        0
280
     0
281
     0
  0
CLASS
  1
MATERIAL
  2
AcDbMaterial
  3
ObjectDBX Classes
 90
     1153
280
     0
281
     0
  0
CLASS
  1
VISUALSTYLE
  2
AcDbVisualStyle
  3
ObjectDBX Classes
 90
     4095
280
     0
281
     0
  0
CLASS
  1
SCALE
  2
AcDbScale
  3
ObjectDBX Classes
 90
     1153
280
     0
281
     0
  0
CLASS
  1
TABLESTYLE
  2
AcDbTableStyle
  3
ObjectDBX Classes
 90
     4095
280
     0
281
     0
  0
CLASS
  1
MLEADERSTYLE
  2
AcDbMLeaderStyle
  3
ACDB_MLEADERSTYLE_CLASS
 90
     4095
280
     0
281
     0
  0
CLASS
  1
ACDBSECTIONVIEWSTYLE
  2
AcDbSectionViewStyle
  3
ObjectDBX Classes
 90
     1025
280
     0
281
     0
  0
CLASS
  1
ACDBDETAILVIEWSTYLE
  2
AcDbDetailViewStyle
  3
ObjectDBX Classes
 90
     1025
280
     0
281
     0
  0
CLASS
  1
DICTIONARYVAR
  2
AcDbDictionaryVar
  3
ObjectDBX Classes
 90
        0
280
     0
281
     0
  0
CLASS
  1
CELLSTYLEMAP
  2
AcDbCellStyleMap
  3
ObjectDBX Classes
 90
     1152
280
     0
281
     0
  0
CLASS
  1
SORTENTSTABLE
  2
AcDbSortentsTable
  3
ObjectDBX Classes
 90
        0
280
     0
281
     0
  0
CLASS
  1
ACDBPLACEHOLDER
  2
AcDbPlaceHolder
  3
ObjectDBX Classes
 90
        0
280
     0
281
     0
  0
CLASS
  1
LAYOUT
  2
AcDbLayout
  3
ObjectDBX Classes
 90
        0
280
     0
281
     0
  0
ENDSEC
  0
SECTION
  2
TABLES
  0
TABLE
  2
VPORT
  5
83D1
330
0
100
AcDbSymbolTable
 70
     1
  0
VPORT
  5
843D
330
83D1
100
AcDbSymbolTableRecord
100
AcDbViewportTableRecord
  2
*ACTIVE
 70
     0
 10
0.0
 20
0.0
 11
1.0
 21
1.0
 12
4200.000019557773
 22
5900.000027474012
 13
0.0
 23
0.0
 14
10.0
 24
10.0
 15
10.0
 25
10.0
 16
0.0
 26
0.0
 36
1.0
 17
0.0
 27
0.0
 37
0.0
 40
11876.28512550527
 41
2.050213675213675
 42
50.0
 43
0.0
 44
0.0
 50
0.0
 51
0.0
 71
     0
 72
   100
 73
     1
 74
     0
 75
     0
 76
     0
 77
     0
 78
     0
281
     0
 65
     1
110
0.0
120
0.0
130
0.0
111
1.0
121
0.0
131
0.0
112
0.0
122
1.0
132
0.0
 79
     0
146
0.0
1001
ACAD_NAV_VCDISPLAY
1070
     3
  0
ENDTAB
  0
TABLE
  2
LTYPE
  5
83CE
330
0
100
AcDbSymbolTable
 70
     3
  0
LTYPE
  5
8423
330
83CE
100
AcDbSymbolTableRecord
100
AcDbLinetypeTableRecord
  2
ByBlock
 70
     0
  3

 72
    65
 73
     0
 40
0.0
  0
LTYPE
  5
8424
330
83CE
100
AcDbSymbolTableRecord
100
AcDbLinetypeTableRecord
  2
ByLayer
 70
     0
  3

 72
    65
 73
     0
 40
0.0
  0
LTYPE
  5
8425
330
83CE
100
AcDbSymbolTableRecord
100
AcDbLinetypeTableRecord
  2
CONTINUOUS
 70
     0
  3
Solid line
 72
    65
 73
     0
 40
0.0
  0
LTYPE
  5
843E
330
83CE
100
AcDbSymbolTableRecord
100
AcDbLinetypeTableRecord
  2
CENTER
 70
     0
  3
____ _ ____ _ ____ _ ____ _ ____ _ ____ _ ____ 
 72
    65
 73
     4
 40
2.0
 49
1.25
 74
     0
 49
-0.25
 74
     0
 49
0.25
 74
     0
 49
-0.25
 74
     0
  0
ENDTAB
  0
TABLE
  2
LAYER
  5
83CB
330
0
100
AcDbSymbolTable
 70
     6
  0
LAYER
  5
841D
102
{ACAD_XDICTIONARY
360
8482
102
}
330
83CB
100
AcDbSymbolTableRecord
100
AcDbLayerTableRecord
  2
0
 70
     0
 62
     7
  6
CONTINUOUS
370
    -3
390
83D8
  0
LAYER
  5
843C
102
{ACAD_XDICTIONARY
360
8484
102
}
330
83CB
100
AcDbSymbolTableRecord
100
AcDbLayerTableRecord
  2
3
 70
     0
 62
     2
  6
CONTINUOUS
370
    -3
390
83D8
  0
LAYER
  5
843F
102
{ACAD_XDICTIONARY
360
8486
102
}
330
83CB
100
AcDbSymbolTableRecord
100
AcDbLayerTableRecord
  2
2
 70
     0
 62
     3
  6
CENTER
370
    -3
390
83D8
  0
LAYER
  5
8440
102
{ACAD_XDICTIONARY
360
8488
102
}
330
83CB
100
AcDbSymbolTableRecord
100
AcDbLayerTableRecord
  2
1
 70
     0
 62
     4
  6
CONTINUOUS
370
    -3
390
83D8
  0
LAYER
  5
8441
102
{ACAD_XDICTIONARY
360
848A
102
}
330
83CB
100
AcDbSymbolTableRecord
100
AcDbLayerTableRecord
  2
4
 70
     0
 62
     7
  6
CONTINUOUS
370
    -3
390
83D8
  0
LAYER
  5
8442
330
83CB
100
AcDbSymbolTableRecord
100
AcDbLayerTableRecord
  2
DEFPOINTS
 70
     0
 62
     7
  6
CONTINUOUS
290
     0
370
    -3
390
83D8
  0
ENDTAB
  0
TABLE
  2
STYLE
  5
83CC
330
0
100
AcDbSymbolTable
 70
     2
  0
STYLE
  5
841E
330
83CC
100
AcDbSymbolTableRecord
100
AcDbTextStyleTableRecord
  2
STANDARD
 70
     0
 40
0.0
 41
1.0
 50
0.0
 71
     0
 42
180.0
  3
simplex.shx
  4
extfont.shx
  0
STYLE
  5
8422
330
83CC
100
AcDbSymbolTableRecord
100
AcDbTextStyleTableRecord
  2
Annotative
 70
     0
 40
0.0
 41
1.0
 50
0.0
 71
     0
 42
0.2
  3
txt
  4

1001
AcadAnnotative
1000
AnnotativeData
1002
{
1070
     1
1070
     1
1002
}
  0
ENDTAB
  0
TABLE
  2
VIEW
  5
83CF
330
0
100
AcDbSymbolTable
 70
     0
  0
ENDTAB
  0
TABLE
  2
UCS
  5
83D0
330
0
100
AcDbSymbolTable
 70
     0
  0
ENDTAB
  0
TABLE
  2
APPID
  5
83D2
330
0
100
AcDbSymbolTable
 70
     8
  0
APPID
  5
841F
330
83D2
100
AcDbSymbolTableRecord
100
AcDbRegAppTableRecord
  2
ACAD
 70
     0
  0
APPID
  5
8426
330
83D2
100
AcDbSymbolTableRecord
100
AcDbRegAppTableRecord
  2
AcadAnnotative
 70
     0
  0
APPID
  5
8496
330
83D2
100
AcDbSymbolTableRecord
100
AcDbRegAppTableRecord
  2
ACAD_NAV_VCDISPLAY
 70
     0
  0
APPID
  5
84D9
330
83D2
100
AcDbSymbolTableRecord
100
AcDbRegAppTableRecord
  2
ACAD_DSTYLE_DIMJAG
 70
     0
  0
APPID
  5
84DA
330
83D2
100
AcDbSymbolTableRecord
100
AcDbRegAppTableRecord
  2
ACAD_DSTYLE_DIMTALN
 70
     0
  0
APPID
  5
857E
330
83D2
100
AcDbSymbolTableRecord
100
AcDbRegAppTableRecord
  2
AcadAnnoMonitorAlertIconDisabled
 70
     0
  0
APPID
  5
857F
330
83D2
100
AcDbSymbolTableRecord
100
AcDbRegAppTableRecord
  2
ACAD_EXEMPT_FROM_CAD_STANDARDS
 70
     0
  0
APPID
  5
881D
330
83D2
100
AcDbSymbolTableRecord
100
AcDbRegAppTableRecord
  2
ACAD_MLEADERVER
 70
     0
  0
ENDTAB
  0
TABLE
  2
DIMSTYLE
  5
83D3
330
0
100
AcDbSymbolTable
 70
     3
100
AcDbDimStyleTable
 71
     1
340
8443
  0
DIMSTYLE
105
8420
330
83D3
100
AcDbSymbolTableRecord
100
AcDbDimStyleTableRecord
  2
Standard
 70
     0
340
841E
  0
DIMSTYLE
105
8421
330
83D3
100
AcDbSymbolTableRecord
100
AcDbDimStyleTableRecord
  2
Annotative
 70
     0
340
841E
1001
AcadAnnotative
1000
AnnotativeData
1002
{
1070
     1
1070
     1
1002
}
  0
DIMSTYLE
105
8443
102
{ACAD_REACTORS
330
8534
330
8541
330
854E
330
855F
330
85C9
330
85D6
330
85F0
330
85FD
330
860A
330
8617
330
8624
330
863A
330
8647
330
8654
330
8661
330
866E
330
867B
330
8688
330
8695
330
86A7
330
86B9
330
87CB
330
87D8
102
}
330
83D3
100
AcDbSymbolTableRecord
100
AcDbDimStyleTableRecord
  2
IGA
 70
     0
 40
2.0
 41
2.0
 42
0.5
 43
10.0
 44
1.0
 47
1.0
 48
1.0
 73
     0
 74
     0
 77
     1
 78
     8
140
3.0
141
0.0
143
0.03937
146
10.0
147
1.0
173
     1
271
     3
272
     3
279
     2
284
     8
285
     8
286
     8
340
841E
  0
ENDTAB
  0
TABLE
  2
BLOCK_RECORD
  5
83CA
330
0
100
AcDbSymbolTable
 70
    61
  0
BLOCK_RECORD
  5
8438
102
{ACAD_XDICTIONARY
360
855C
102
}
330
83CA
100
AcDbSymbolTableRecord
100
AcDbBlockTableRecord
  2
*Model_Space
340
843B
  0
BLOCK_RECORD
  5
8434
330
83CA
100
AcDbSymbolTableRecord
100
AcDbBlockTableRecord
  2
*Paper_Space
340
8437
  0
BLOCK_RECORD
  5
8447
330
83CA
100
AcDbSymbolTableRecord
100
AcDbBlockTableRecord
  2
$MODEL_SPACE
340
0
  0
BLOCK_RECORD
  5
8449
330
83CA
100
AcDbSymbolTableRecord
100
AcDbBlockTableRecord
  2
$PAPER_SPACE
340
0
  0
BLOCK_RECORD
  5
844B
330
83CA
100
AcDbSymbolTableRecord
100
AcDbBlockTableRecord
  2
YA_N
340
0
102
{BLKREFS
331
7C22
331
7C3D
331
7C3E
331
7C61
331
7CA1
331
7CB4
331
7CDA
331
7CF1
102
}
  0
BLOCK_RECORD
  5
844D
330
83CA
100
AcDbSymbolTableRecord
100
AcDbBlockTableRecord
  2
*D3
340
0
  0
BLOCK_RECORD
  5
844F
330
83CA
100
AcDbSymbolTableRecord
100
AcDbBlockTableRecord
  2
_OPEN
340
0
102
{BLKREFS
331
834A
331
834B
331
8353
331
8354
331
835C
331
835D
331
87C7
331
87D2
331
87D3
331
87DF
331
87E0
331
8365
331
8366
331
876D
331
836E
331
836F
331
86F9
331
86FA
331
831D
331
831E
331
8326
331
8327
331
832F
331
8330
331
8338
331
8339
331
8341
331
8342
331
8377
331
8690
331
8378
331
862B
331
862C
331
8634
331
8635
331
8641
331
8642
331
864E
331
864F
331
865B
331
865C
331
8668
331
8669
331
8675
331
8676
331
8682
331
8683
331
868F
331
8380
331
8381
331
85C3
331
85C4
331
85D0
331
85D1
331
85DD
331
85DE
331
85F7
331
85F8
331
8604
331
8605
331
8611
331
8612
331
861E
331
861F
331
8389
331
838A
331
858D
331
858E
331
85BA
331
85BB
331
8392
331
8393
331
8555
331
8556
331
839B
331
839C
331
83A7
331
8218
331
8219
331
83B2
331
83B3
331
81A2
331
81A3
331
81AF
331
81B0
331
81BC
331
81BD
331
81C9
331
81CA
102
}
  0
BLOCK_RECORD
  5
8450
330
83CA
100
AcDbSymbolTableRecord
100
AcDbBlockTableRecord
  2
*D5
340
0
  0
BLOCK_RECORD
  5
8452
330
83CA
100
AcDbSymbolTableRecord
100
AcDbBlockTableRecord
  2
*D6
340
0
  0
BLOCK_RECORD
  5
8454
330
83CA
100
AcDbSymbolTableRecord
100
AcDbBlockTableRecord
  2
*D7
340
0
  0
BLOCK_RECORD
  5
8456
330
83CA
100
AcDbSymbolTableRecord
100
AcDbBlockTableRecord
  2
*D8
340
0
  0
BLOCK_RECORD
  5
8458
330
83CA
100
AcDbSymbolTableRecord
100
AcDbBlockTableRecord
  2
*D9
340
0
  0
BLOCK_RECORD
  5
845A
330
83CA
100
AcDbSymbolTableRecord
100
AcDbBlockTableRecord
  2
*D10
340
0
  0
BLOCK_RECORD
  5
845C
330
83CA
100
AcDbSymbolTableRecord
100
AcDbBlockTableRecord
  2
*D11
340
0
  0
BLOCK_RECORD
  5
845E
330
83CA
100
AcDbSymbolTableRecord
100
AcDbBlockTableRecord
  2
*D12
340
0
  0
BLOCK_RECORD
  5
8460
330
83CA
100
AcDbSymbolTableRecord
100
AcDbBlockTableRecord
  2
*D13
340
0
  0
BLOCK_RECORD
  5
8462
330
83CA
100
AcDbSymbolTableRecord
100
AcDbBlockTableRecord
  2
*D14
340
0
  0
BLOCK_RECORD
  5
8464
330
83CA
100
AcDbSymbolTableRecord
100
AcDbBlockTableRecord
  2
*D15
340
0
  0
BLOCK_RECORD
  5
8466
330
83CA
100
AcDbSymbolTableRecord
100
AcDbBlockTableRecord
  2
*D16
340
0
  0
BLOCK_RECORD
  5
8468
330
83CA
100
AcDbSymbolTableRecord
100
AcDbBlockTableRecord
  2
*D17
340
0
  0
BLOCK_RECORD
  5
846A
330
83CA
100
AcDbSymbolTableRecord
100
AcDbBlockTableRecord
  2
*D18
340
0
  0
BLOCK_RECORD
  5
846C
330
83CA
100
AcDbSymbolTableRecord
100
AcDbBlockTableRecord
  2
*D19
340
0
  0
BLOCK_RECORD
  5
846E
330
83CA
100
AcDbSymbolTableRecord
100
AcDbBlockTableRecord
  2
_DOT
340
0
102
{BLKREFS
331
83A6
102
}
  0
BLOCK_RECORD
  5
8471
330
83CA
100
AcDbSymbolTableRecord
100
AcDbBlockTableRecord
  2
*D21
340
0
  0
BLOCK_RECORD
  5
8473
330
83CA
100
AcDbSymbolTableRecord
100
AcDbBlockTableRecord
  2
*D22
340
0
  0
BLOCK_RECORD
  5
8475
330
83CA
100
AcDbSymbolTableRecord
100
AcDbBlockTableRecord
  2
*D23
340
0
  0
BLOCK_RECORD
  5
8477
330
83CA
100
AcDbSymbolTableRecord
100
AcDbBlockTableRecord
  2
*D24
340
0
  0
BLOCK_RECORD
  5
8479
330
83CA
100
AcDbSymbolTableRecord
100
AcDbBlockTableRecord
  2
*D25
340
0
  0
BLOCK_RECORD
  5
847B
330
83CA
100
AcDbSymbolTableRecord
100
AcDbBlockTableRecord
  2
_NONE
340
0
  0
BLOCK_RECORD
  5
847D
330
83CA
100
AcDbSymbolTableRecord
100
AcDbBlockTableRecord
  2
*D27
340
0
  0
BLOCK_RECORD
  5
847F
330
83CA
100
AcDbSymbolTableRecord
100
AcDbBlockTableRecord
  2
*D28
340
0
  0
BLOCK_RECORD
  5
84DB
330
83CA
100
AcDbSymbolTableRecord
100
AcDbBlockTableRecord
  2
*D29
340
0
  0
BLOCK_RECORD
  5
84E6
330
83CA
100
AcDbSymbolTableRecord
100
AcDbBlockTableRecord
  2
*D30
340
0
  0
BLOCK_RECORD
  5
84F3
330
83CA
100
AcDbSymbolTableRecord
100
AcDbBlockTableRecord
  2
*D31
340
0
  0
BLOCK_RECORD
  5
8500
330
83CA
100
AcDbSymbolTableRecord
100
AcDbBlockTableRecord
  2
*D32
340
0
  0
BLOCK_RECORD
  5
850D
330
83CA
100
AcDbSymbolTableRecord
100
AcDbBlockTableRecord
  2
*D33
340
0
  0
BLOCK_RECORD
  5
851A
330
83CA
100
AcDbSymbolTableRecord
100
AcDbBlockTableRecord
  2
*D34
340
0
  0
BLOCK_RECORD
  5
8527
330
83CA
100
AcDbSymbolTableRecord
100
AcDbBlockTableRecord
  2
*D35
340
0
  0
BLOCK_RECORD
  5
8535
330
83CA
100
AcDbSymbolTableRecord
100
AcDbBlockTableRecord
  2
*D36
340
0
  0
BLOCK_RECORD
  5
8542
330
83CA
100
AcDbSymbolTableRecord
100
AcDbBlockTableRecord
  2
*D37
340
0
  0
BLOCK_RECORD
  5
854F
330
83CA
100
AcDbSymbolTableRecord
100
AcDbBlockTableRecord
  2
*D38
340
0
  0
BLOCK_RECORD
  5
8560
330
83CA
100
AcDbSymbolTableRecord
100
AcDbBlockTableRecord
  2
*D39
340
0
  0
BLOCK_RECORD
  5
85CA
330
83CA
100
AcDbSymbolTableRecord
100
AcDbBlockTableRecord
  2
*D40
340
0
  0
BLOCK_RECORD
  5
85D7
330
83CA
100
AcDbSymbolTableRecord
100
AcDbBlockTableRecord
  2
*D41
340
0
  0
BLOCK_RECORD
  5
85E4
330
83CA
100
AcDbSymbolTableRecord
100
AcDbBlockTableRecord
  2
*D42
340
0
  0
BLOCK_RECORD
  5
85F1
330
83CA
100
AcDbSymbolTableRecord
100
AcDbBlockTableRecord
  2
*D43
340
0
  0
BLOCK_RECORD
  5
85FE
330
83CA
100
AcDbSymbolTableRecord
100
AcDbBlockTableRecord
  2
*D44
340
0
  0
BLOCK_RECORD
  5
860B
330
83CA
100
AcDbSymbolTableRecord
100
AcDbBlockTableRecord
  2
*D45
340
0
  0
BLOCK_RECORD
  5
8618
330
83CA
100
AcDbSymbolTableRecord
100
AcDbBlockTableRecord
  2
*D46
340
0
  0
BLOCK_RECORD
  5
8625
330
83CA
100
AcDbSymbolTableRecord
100
AcDbBlockTableRecord
  2
*D47
340
0
  0
BLOCK_RECORD
  5
863B
330
83CA
100
AcDbSymbolTableRecord
100
AcDbBlockTableRecord
  2
*D48
340
0
  0
BLOCK_RECORD
  5
8648
330
83CA
100
AcDbSymbolTableRecord
100
AcDbBlockTableRecord
  2
*D49
340
0
  0
BLOCK_RECORD
  5
8655
330
83CA
100
AcDbSymbolTableRecord
100
AcDbBlockTableRecord
  2
*D50
340
0
  0
BLOCK_RECORD
  5
8662
330
83CA
100
AcDbSymbolTableRecord
100
AcDbBlockTableRecord
  2
*D51
340
0
  0
BLOCK_RECORD
  5
866F
330
83CA
100
AcDbSymbolTableRecord
100
AcDbBlockTableRecord
  2
*D52
340
0
  0
BLOCK_RECORD
  5
867C
330
83CA
100
AcDbSymbolTableRecord
100
AcDbBlockTableRecord
  2
*D53
340
0
  0
BLOCK_RECORD
  5
8689
330
83CA
100
AcDbSymbolTableRecord
100
AcDbBlockTableRecord
  2
*D54
340
0
  0
BLOCK_RECORD
  5
8696
330
83CA
100
AcDbSymbolTableRecord
100
AcDbBlockTableRecord
  2
*D55
340
0
  0
BLOCK_RECORD
  5
86A8
330
83CA
100
AcDbSymbolTableRecord
100
AcDbBlockTableRecord
  2
*D56
340
0
  0
BLOCK_RECORD
  5
86BA
330
83CA
100
AcDbSymbolTableRecord
100
AcDbBlockTableRecord
  2
*D57
340
0
  0
BLOCK_RECORD
  5
8760
330
83CA
100
AcDbSymbolTableRecord
100
AcDbBlockTableRecord
  2
_DotSmall
340
0
102
{BLKREFS
331
87C6
331
876E
102
}
  0
BLOCK_RECORD
  5
87CC
330
83CA
100
AcDbSymbolTableRecord
100
AcDbBlockTableRecord
  2
*D59
340
0
  0
BLOCK_RECORD
  5
87D9
330
83CA
100
AcDbSymbolTableRecord
100
AcDbBlockTableRecord
  2
*D60
340
0
  0
ENDTAB
  0
ENDSEC
  0
SECTION
  2
BLOCKS
  0
BLOCK
  5
8439
330
8438
100
AcDbEntity
  8
0
100
AcDbBlockBegin
  2
*Model_Space
 70
     0
 10
0.0
 20
0.0
 30
0.0
  3
*Model_Space
  1

  0
ENDBLK
  5
843A
330
8438
100
AcDbEntity
  8
0
100
AcDbBlockEnd
  0
BLOCK
  5
8435
330
8434
100
AcDbEntity
 67
     1
  8
0
100
AcDbBlockBegin
  2
*Paper_Space
 70
     0
 10
0.0
 20
0.0
 30
0.0
  3
*Paper_Space
  1

  0
ENDBLK
  5
8436
330
8434
100
AcDbEntity
 67
     1
  8
0
100
AcDbBlockEnd
  0
BLOCK
  5
8448
330
8447
100
AcDbEntity
  8
0
100
AcDbBlockBegin
  2
$MODEL_SPACE
 70
     0
 10
0.0
 20
0.0
 30
0.0
  3
$MODEL_SPACE
  1

  0
ENDBLK
  5
1B
330
8447
100
AcDbEntity
  8
0
100
AcDbBlockEnd
  0
BLOCK
  5
844A
330
8449
100
AcDbEntity
  8
0
100
AcDbBlockBegin
  2
$PAPER_SPACE
 70
     0
 10
0.0
 20
0.0
 30
0.0
  3
$PAPER_SPACE
  1

  0
ENDBLK
  5
18
330
8449
100
AcDbEntity
  8
0
100
AcDbBlockEnd
  0
BLOCK
  5
844C
330
844B
100
AcDbEntity
  8
0
100
AcDbBlockBegin
  2
YA_N
 70
     0
 10
0.0
 20
0.0
 30
0.0
  3
YA_N
  1

  0
ENDBLK
  5
79FE
330
844B
100
AcDbEntity
  8
0
100
AcDbBlockEnd
  0
BLOCK
  5
844E
330
844D
100
AcDbEntity
  8
0
100
AcDbBlockBegin
  2
*D3
 70
     1
 10
0.0
 20
0.0
 30
0.0
  3
*D3
  1

  0
LINE
  5
831A
330
844D
100
AcDbEntity
  8
3
 62
     0
100
AcDbLine
 10
5391.092839011053
 20
5261.720885449071
 30
0.0
 11
5391.092839011053
 21
5530.120671915636
 31
0.0
  0
LINE
  5
831B
330
844D
100
AcDbEntity
  8
3
 62
     0
100
AcDbLine
 10
7091.092839011054
 20
5261.720885449071
 30
0.0
 11
7091.092839011054
 21
5530.120671915636
 31
0.0
  0
LINE
  5
831C
330
844D
100
AcDbEntity
  8
3
 62
     0
100
AcDbLine
 10
5471.092839011053
 20
5490.120671915637
 30
0.0
 11
7011.092839011054
 21
5490.120671915637
 31
0.0
  0
INSERT
  5
831D
330
844D
100
AcDbEntity
  8
3
 62
     0
100
AcDbBlockReference
  2
_OPEN
 10
5391.092839011053
 20
5490.120671915637
 30
0.0
 41
80.0
 42
80.0
 43
80.0
 50
180.0
  0
INSERT
  5
831E
330
844D
100
AcDbEntity
  8
3
 62
     0
100
AcDbBlockReference
  2
_OPEN
 10
7091.092839011054
 20
5490.120671915637
 30
0.0
 41
80.0
 42
80.0
 43
80.0
  0
TEXT
  5
83B8
330
844D
100
AcDbEntity
  8
3
 62
     0
100
AcDbText
 10
6001.09
 20
5377.72
 30
0.0
 40
120.0
  1
1700
100
AcDbText
  0
POINT
  5
8320
330
844D
100
AcDbEntity
  8
DEFPOINTS
 62
     0
100
AcDbPoint
 10
5391.092839011053
 20
5241.720885449071
 30
0.0
  0
POINT
  5
8321
330
844D
100
AcDbEntity
  8
DEFPOINTS
 62
     0
100
AcDbPoint
 10
7091.092839011054
 20
5241.720885449071
 30
0.0
  0
POINT
  5
8322
330
844D
100
AcDbEntity
  8
DEFPOINTS
 62
     0
100
AcDbPoint
 10
7091.092839011054
 20
5490.120671915637
 30
0.0
  0
ENDBLK
  5
804B
330
844D
100
AcDbEntity
  8
0
100
AcDbBlockEnd
  0
BLOCK
  5
846F
330
844F
100
AcDbEntity
  8
0
100
AcDbBlockBegin
  2
_OPEN
 70
     0
 10
0.0
 20
0.0
 30
0.0
  3
_OPEN
  1

  0
LINE
  5
7F3C
330
844F
100
AcDbEntity
  8
0
  6
ByBlock
 62
     0
100
AcDbLine
 10
-1.0
 20
0.1666666666666666
 30
0.0
 11
0.0
 21
0.0
 31
0.0
  0
LINE
  5
7F3D
330
844F
100
AcDbEntity
  8
0
  6
ByBlock
 62
     0
100
AcDbLine
 10
0.0
 20
0.0
 30
0.0
 11
-1.0
 21
-0.1666666666666666
 31
0.0
  0
LINE
  5
7F3E
330
844F
100
AcDbEntity
  8
0
  6
ByBlock
 62
     0
100
AcDbLine
 10
0.0
 20
0.0
 30
0.0
 11
-1.0
 21
0.0
 31
0.0
  0
ENDBLK
  5
7F3F
330
844F
100
AcDbEntity
  8
0
100
AcDbBlockEnd
  0
BLOCK
  5
8451
330
8450
100
AcDbEntity
  8
0
100
AcDbBlockBegin
  2
*D5
 70
     1
 10
0.0
 20
0.0
 30
0.0
  3
*D5
  1

  0
LINE
  5
8323
330
8450
100
AcDbEntity
  8
3
 62
     0
100
AcDbLine
 10
5006.092839011054
 20
4620.800457609003
 30
0.0
 11
5006.092839011054
 21
5855.197290539809
 31
0.0
  0
LINE
  5
8324
330
8450
100
AcDbEntity
  8
3
 62
     0
100
AcDbLine
 10
6241.092839011054
 20
5687.263901748139
 30
0.0
 11
6241.092839011054
 21
5855.197290539809
 31
0.0
  0
LINE
  5
8325
330
8450
100
AcDbEntity
  8
3
 62
     0
100
AcDbLine
 10
5086.092839011054
 20
5815.19729053981
 30
0.0
 11
6161.092839011054
 21
5815.19729053981
 31
0.0
  0
INSERT
  5
8326
330
8450
100
AcDbEntity
  8
3
 62
     0
100
AcDbBlockReference
  2
_OPEN
 10
5006.092839011054
 20
5815.19729053981
 30
0.0
 41
80.0
 42
80.0
 43
80.0
 50
180.0
  0
INSERT
  5
8327
330
8450
100
AcDbEntity
  8
3
 62
     0
100
AcDbBlockReference
  2
_OPEN
 10
6241.092839011054
 20
5815.19729053981
 30
0.0
 41
80.0
 42
80.0
 43
80.0
  0
TEXT
  5
83B9
330
8450
100
AcDbEntity
  8
3
 62
     0
100
AcDbText
 10
5383.59
 20
5802.800000000001
 30
0.0
 40
120.0
  1
MAX
100
AcDbText
  0
TEXT
  5
83BA
330
8450
100
AcDbEntity
  8
3
 62
     0
100
AcDbText
 10
5383.59
 20
5646.8
 30
0.0
 40
120.0
  1
1280
100
AcDbText
  0
POINT
  5
8329
330
8450
100
AcDbEntity
  8
DEFPOINTS
 62
     0
100
AcDbPoint
 10
5006.092839011054
 20
4600.800457609002
 30
0.0
  0
POINT
  5
832A
330
8450
100
AcDbEntity
  8
DEFPOINTS
 62
     0
100
AcDbPoint
 10
6241.092839011054
 20
5667.263901748139
 30
0.0
  0
POINT
  5
832B
330
8450
100
AcDbEntity
  8
DEFPOINTS
 62
     0
100
AcDbPoint
 10
6241.092839011054
 20
5815.19729053981
 30
0.0
  0
ENDBLK
  5
817F
330
8450
100
AcDbEntity
  8
0
100
AcDbBlockEnd
  0
BLOCK
  5
8453
330
8452
100
AcDbEntity
  8
0
100
AcDbBlockBegin
  2
*D6
 70
     1
 10
0.0
 20
0.0
 30
0.0
  3
*D6
  1

  0
LINE
  5
832C
330
8452
100
AcDbEntity
  8
3
 62
     0
100
AcDbLine
 10
6241.092839011054
 20
5687.263901748139
 30
0.0
 11
6241.092839011054
 21
5854.809703434625
 31
0.0
  0
LINE
  5
832D
330
8452
100
AcDbEntity
  8
3
 62
     0
100
AcDbLine
 10
7251.092839011054
 20
4236.13838871127
 30
0.0
 11
7251.092839011054
 21
5854.809703434625
 31
0.0
  0
LINE
  5
832E
330
8452
100
AcDbEntity
  8
3
 62
     0
100
AcDbLine
 10
6321.092839011054
 20
5814.809703434626
 30
0.0
 11
7171.092839011054
 21
5814.809703434626
 31
0.0
  0
INSERT
  5
832F
330
8452
100
AcDbEntity
  8
3
 62
     0
100
AcDbBlockReference
  2
_OPEN
 10
6241.092839011054
 20
5814.809703434626
 30
0.0
 41
80.0
 42
80.0
 43
80.0
 50
180.0
  0
INSERT
  5
8330
330
8452
100
AcDbEntity
  8
3
 62
     0
100
AcDbBlockReference
  2
_OPEN
 10
7251.092839011054
 20
5814.809703434626
 30
0.0
 41
80.0
 42
80.0
 43
80.0
  0
TEXT
  5
83BB
330
8452
100
AcDbEntity
  8
3
 62
     0
100
AcDbText
 10
6506.09
 20
5733.84
 30
0.0
 40
120.0
  1
(1020)
100
AcDbText
  0
POINT
  5
8332
330
8452
100
AcDbEntity
  8
DEFPOINTS
 62
     0
100
AcDbPoint
 10
6241.092839011054
 20
5667.263901748139
 30
0.0
  0
POINT
  5
8333
330
8452
100
AcDbEntity
  8
DEFPOINTS
 62
     0
100
AcDbPoint
 10
7251.092839011054
 20
4216.13838871127
 30
0.0
  0
POINT
  5
8334
330
8452
100
AcDbEntity
  8
DEFPOINTS
 62
     0
100
AcDbPoint
 10
7251.092839011054
 20
5814.809703434626
 30
0.0
  0
ENDBLK
  5
818A
330
8452
100
AcDbEntity
  8
0
100
AcDbBlockEnd
  0
BLOCK
  5
8455
330
8454
100
AcDbEntity
  8
0
100
AcDbBlockBegin
  2
*D7
 70
     1
 10
0.0
 20
0.0
 30
0.0
  3
*D7
  1

  0
LINE
  5
8335
330
8454
100
AcDbEntity
  8
3
 62
     0
100
AcDbLine
 10
7113.392839011054
 20
4945.800457609003
 30
0.0
 11
7574.264341757109
 21
4945.800457609003
 31
0.0
  0
LINE
  5
8336
330
8454
100
AcDbEntity
  8
3
 62
     0
100
AcDbLine
 10
7113.392839011054
 20
3695.800457609001
 30
0.0
 11
7574.264341757109
 21
3695.800457609001
 31
0.0
  0
LINE
  5
8337
330
8454
100
AcDbEntity
  8
3
 62
     0
100
AcDbLine
 10
7534.264341757111
 20
4865.800457609004
 30
0.0
 11
7534.264341757111
 21
3775.800457609001
 31
0.0
  0
INSERT
  5
8338
330
8454
100
AcDbEntity
  8
3
 62
     0
100
AcDbBlockReference
  2
_OPEN
 10
7534.264341757111
 20
4945.800457609003
 30
0.0
 41
80.0
 42
80.0
 43
80.0
 50
90.0
  0
INSERT
  5
8339
330
8454
100
AcDbEntity
  8
3
 62
     0
100
AcDbBlockReference
  2
_OPEN
 10
7534.264341757111
 20
3695.800457609001
 30
0.0
 41
80.0
 42
80.0
 43
80.0
 50
270.0
  0
TEXT
  5
83BC
330
8454
100
AcDbEntity
  8
3
 62
     0
100
AcDbText
 10
7194.259999999999
 20
4108.399999999999
 30
0.0
 40
120.0
  1
\U+03C61250
100
AcDbText
  0
POINT
  5
833B
330
8454
100
AcDbEntity
  8
DEFPOINTS
 62
     0
100
AcDbPoint
 10
7093.392839011054
 20
4945.800457609003
 30
0.0
  0
POINT
  5
833C
330
8454
100
AcDbEntity
  8
DEFPOINTS
 62
     0
100
AcDbPoint
 10
7093.392839011054
 20
3695.800457609001
 30
0.0
  0
POINT
  5
833D
330
8454
100
AcDbEntity
  8
DEFPOINTS
 62
     0
100
AcDbPoint
 10
7534.264341757111
 20
3695.800457609001
 30
0.0
  0
ENDBLK
  5
80DD
330
8454
100
AcDbEntity
  8
0
100
AcDbBlockEnd
  0
BLOCK
  5
8457
330
8456
100
AcDbEntity
  8
0
100
AcDbBlockBegin
  2
*D8
 70
     1
 10
0.0
 20
0.0
 30
0.0
  3
*D8
  1

  0
LINE
  5
833E
330
8456
100
AcDbEntity
  8
3
 62
     0
100
AcDbLine
 10
3616.156955993239
 20
8648.31161293584
 30
0.0
 11
4085.173097229072
 21
8648.31161293584
 31
0.0
  0
LINE
  5
833F
330
8456
100
AcDbEntity
  8
3
 62
     0
100
AcDbLine
 10
3616.156955993239
 20
6528.311612935839
 30
0.0
 11
4085.173097229072
 21
6528.311612935839
 31
0.0
  0
LINE
  5
8340
330
8456
100
AcDbEntity
  8
3
 62
     0
100
AcDbLine
 10
4045.173097229072
 20
8568.311612935836
 30
0.0
 11
4045.173097229072
 21
6608.311612935839
 31
0.0
  0
INSERT
  5
8341
330
8456
100
AcDbEntity
  8
3
 62
     0
100
AcDbBlockReference
  2
_OPEN
 10
4045.173097229072
 20
8648.31161293584
 30
0.0
 41
80.0
 42
80.0
 43
80.0
 50
90.0
  0
INSERT
  5
8342
330
8456
100
AcDbEntity
  8
3
 62
     0
100
AcDbBlockReference
  2
_OPEN
 10
4045.173097229072
 20
6528.311612935839
 30
0.0
 41
80.0
 42
80.0
 43
80.0
 50
270.0
  0
TEXT
  5
83BD
330
8456
100
AcDbEntity
  8
3
 62
     0
100
AcDbText
 10
3705.170000000001
 20
7375.910000000001
 30
0.0
 40
120.0
  1
2120
100
AcDbText
  0
POINT
  5
8344
330
8456
100
AcDbEntity
  8
DEFPOINTS
 62
     0
100
AcDbPoint
 10
3596.156955993239
 20
8648.31161293584
 30
0.0
  0
POINT
  5
8345
330
8456
100
AcDbEntity
  8
DEFPOINTS
 62
     0
100
AcDbPoint
 10
3596.156955993239
 20
6528.311612935839
 30
0.0
  0
POINT
  5
8346
330
8456
100
AcDbEntity
  8
DEFPOINTS
 62
     0
100
AcDbPoint
 10
4045.173097229072
 20
6528.311612935839
 30
0.0
  0
ENDBLK
  5
7FFE
330
8456
100
AcDbEntity
  8
0
100
AcDbBlockEnd
  0
BLOCK
  5
8459
330
8458
100
AcDbEntity
  8
0
100
AcDbBlockBegin
  2
*D9
 70
     1
 10
0.0
 20
0.0
 30
0.0
  3
*D9
  1

  0
LINE
  5
8347
330
8458
100
AcDbEntity
  8
3
 62
     0
100
AcDbLine
 10
3596.156955993239
 20
8668.311612935836
 30
0.0
 11
3596.156955993239
 21
8892.947751441026
 31
0.0
  0
LINE
  5
8348
330
8458
100
AcDbEntity
  8
3
 62
     0
100
AcDbLine
 10
2096.156955993238
 20
8668.311612935841
 30
0.0
 11
2096.156955993238
 21
8892.947751441026
 31
0.0
  0
LINE
  5
8349
330
8458
100
AcDbEntity
  8
3
 62
     0
100
AcDbLine
 10
3516.156955993239
 20
8852.947751441025
 30
0.0
 11
2176.156955993238
 21
8852.947751441025
 31
0.0
  0
INSERT
  5
834A
330
8458
100
AcDbEntity
  8
3
 62
     0
100
AcDbBlockReference
  2
_OPEN
 10
3596.156955993239
 20
8852.947751441025
 30
0.0
 41
80.0
 42
80.0
 43
80.0
  0
INSERT
  5
834B
330
8458
100
AcDbEntity
  8
3
 62
     0
100
AcDbBlockReference
  2
_OPEN
 10
2096.156955993238
 20
8852.947751441025
 30
0.0
 41
80.0
 42
80.0
 43
80.0
 50
180.0
  0
TEXT
  5
83BE
330
8458
100
AcDbEntity
  8
3
 62
     0
100
AcDbText
 10
2606.16
 20
8740.549999999998
 30
0.0
 40
120.0
  1
1500
100
AcDbText
  0
POINT
  5
834D
330
8458
100
AcDbEntity
  8
DEFPOINTS
 62
     0
100
AcDbPoint
 10
3596.156955993239
 20
8648.31161293584
 30
0.0
  0
POINT
  5
834E
330
8458
100
AcDbEntity
  8
DEFPOINTS
 62
     0
100
AcDbPoint
 10
2096.156955993238
 20
8648.31161293584
 30
0.0
  0
POINT
  5
834F
330
8458
100
AcDbEntity
  8
DEFPOINTS
 62
     0
100
AcDbPoint
 10
2096.156955993238
 20
8852.947751441025
 30
0.0
  0
ENDBLK
  5
7FF3
330
8458
100
AcDbEntity
  8
0
100
AcDbBlockEnd
  0
BLOCK
  5
845B
330
845A
100
AcDbEntity
  8
0
100
AcDbBlockBegin
  2
*D10
 70
     1
 10
0.0
 20
0.0
 30
0.0
  3
*D10
  1

  0
LINE
  5
8350
330
845A
100
AcDbEntity
  8
3
 62
     0
100
AcDbLine
 10
2096.156955993238
 20
8668.311612935841
 30
0.0
 11
2096.156955993238
 21
8892.947751441026
 31
0.0
  0
LINE
  5
8351
330
845A
100
AcDbEntity
  8
3
 62
     0
100
AcDbLine
 10
1146.156955993237
 20
7548.311612935838
 30
0.0
 11
1146.156955993237
 21
8892.947751441026
 31
0.0
  0
LINE
  5
8352
330
845A
100
AcDbEntity
  8
3
 62
     0
100
AcDbLine
 10
2016.156955993237
 20
8852.947751441025
 30
0.0
 11
1226.156955993237
 21
8852.947751441025
 31
0.0
  0
INSERT
  5
8353
330
845A
100
AcDbEntity
  8
3
 62
     0
100
AcDbBlockReference
  2
_OPEN
 10
2096.156955993238
 20
8852.947751441025
 30
0.0
 41
80.0
 42
80.0
 43
80.0
  0
INSERT
  5
8354
330
845A
100
AcDbEntity
  8
3
 62
     0
100
AcDbBlockReference
  2
_OPEN
 10
1146.156955993237
 20
8852.947751441025
 30
0.0
 41
80.0
 42
80.0
 43
80.0
 50
180.0
  0
TEXT
  5
83BF
330
845A
100
AcDbEntity
  8
3
 62
     0
100
AcDbText
 10
1381.16
 20
8740.549999999998
 30
0.0
 40
120.0
  1
950
100
AcDbText
  0
POINT
  5
8356
330
845A
100
AcDbEntity
  8
DEFPOINTS
 62
     0
100
AcDbPoint
 10
2096.156955993238
 20
8648.31161293584
 30
0.0
  0
POINT
  5
8357
330
845A
100
AcDbEntity
  8
DEFPOINTS
 62
     0
100
AcDbPoint
 10
1146.156955993237
 20
7528.311612935842
 30
0.0
  0
POINT
  5
8358
330
845A
100
AcDbEntity
  8
DEFPOINTS
 62
     0
100
AcDbPoint
 10
1146.156955993237
 20
8852.947751441025
 30
0.0
  0
ENDBLK
  5
7FE8
330
845A
100
AcDbEntity
  8
0
100
AcDbBlockEnd
  0
BLOCK
  5
845D
330
845C
100
AcDbEntity
  8
0
100
AcDbBlockBegin
  2
*D11
 70
     1
 10
0.0
 20
0.0
 30
0.0
  3
*D11
  1

  0
LINE
  5
8359
330
845C
100
AcDbEntity
  8
3
 62
     0
100
AcDbLine
 10
1126.156955993237
 20
7528.311612935842
 30
0.0
 11
839.830554885659
 21
7528.311612935842
 31
0.0
  0
LINE
  5
835A
330
845C
100
AcDbEntity
  8
3
 62
     0
100
AcDbLine
 10
1126.156955993237
 20
6528.311612935842
 30
0.0
 11
839.8305548856585
 21
6528.311612935842
 31
0.0
  0
LINE
  5
835B
330
845C
100
AcDbEntity
  8
3
 62
     0
100
AcDbLine
 10
879.8305548856589
 20
7448.311612935842
 30
0.0
 11
879.8305548856586
 21
6608.31161293584
 31
0.0
  0
INSERT
  5
835C
330
845C
100
AcDbEntity
  8
3
 62
     0
100
AcDbBlockReference
  2
_OPEN
 10
879.8305548856589
 20
7528.311612935842
 30
0.0
 41
80.0
 42
80.0
 43
80.0
 50
90.0
  0
INSERT
  5
835D
330
845C
100
AcDbEntity
  8
3
 62
     0
100
AcDbBlockReference
  2
_OPEN
 10
879.8305548856586
 20
6528.311612935842
 30
0.0
 41
80.0
 42
80.0
 43
80.0
 50
270.0
  0
TEXT
  5
83C0
330
845C
100
AcDbEntity
  8
3
 62
     0
100
AcDbText
 10
539.831
 20
6815.909999999999
 30
0.0
 40
120.0
  1
1000
100
AcDbText
  0
POINT
  5
835F
330
845C
100
AcDbEntity
  8
DEFPOINTS
 62
     0
100
AcDbPoint
 10
1146.156955993237
 20
7528.311612935842
 30
0.0
  0
POINT
  5
8360
330
845C
100
AcDbEntity
  8
DEFPOINTS
 62
     0
100
AcDbPoint
 10
1146.156955993237
 20
6528.311612935842
 30
0.0
  0
POINT
  5
8361
330
845C
100
AcDbEntity
  8
DEFPOINTS
 62
     0
100
AcDbPoint
 10
879.8305548856586
 20
6528.311612935842
 30
0.0
  0
ENDBLK
  5
7FDD
330
845C
100
AcDbEntity
  8
0
100
AcDbBlockEnd
  0
BLOCK
  5
845F
330
845E
100
AcDbEntity
  8
0
100
AcDbBlockBegin
  2
*D12
 70
     1
 10
0.0
 20
0.0
 30
0.0
  3
*D12
  1

  0
LINE
  5
8362
330
845E
100
AcDbEntity
  8
3
 62
     0
100
AcDbLine
 10
1146.156955993237
 20
6508.31161293584
 30
0.0
 11
1146.156955993237
 21
6123.557734746188
 31
0.0
  0
LINE
  5
8363
330
845E
100
AcDbEntity
  8
3
 62
     0
100
AcDbLine
 10
3596.156955993239
 20
6508.311612935838
 30
0.0
 11
3596.156955993239
 21
6123.557734746188
 31
0.0
  0
LINE
  5
8364
330
845E
100
AcDbEntity
  8
3
 62
     0
100
AcDbLine
 10
1226.156955993237
 20
6163.557734746188
 30
0.0
 11
3516.156955993239
 21
6163.557734746188
 31
0.0
  0
INSERT
  5
8365
330
845E
100
AcDbEntity
  8
3
 62
     0
100
AcDbBlockReference
  2
_OPEN
 10
1146.156955993237
 20
6163.557734746188
 30
0.0
 41
80.0
 42
80.0
 43
80.0
 50
180.0
  0
INSERT
  5
8366
330
845E
100
AcDbEntity
  8
3
 62
     0
100
AcDbBlockReference
  2
_OPEN
 10
3596.156955993239
 20
6163.557734746188
 30
0.0
 41
80.0
 42
80.0
 43
80.0
  0
TEXT
  5
83C1
330
845E
100
AcDbEntity
  8
3
 62
     0
100
AcDbText
 10
2131.16
 20
6051.16
 30
0.0
 40
120.0
  1
2450
100
AcDbText
  0
POINT
  5
8368
330
845E
100
AcDbEntity
  8
DEFPOINTS
 62
     0
100
AcDbPoint
 10
1146.156955993237
 20
6528.311612935842
 30
0.0
  0
POINT
  5
8369
330
845E
100
AcDbEntity
  8
DEFPOINTS
 62
     0
100
AcDbPoint
 10
3596.156955993239
 20
6528.311612935839
 30
0.0
  0
POINT
  5
836A
330
845E
100
AcDbEntity
  8
DEFPOINTS
 62
     0
100
AcDbPoint
 10
3596.156955993239
 20
6163.557734746188
 30
0.0
  0
ENDBLK
  5
7FD2
330
845E
100
AcDbEntity
  8
0
100
AcDbBlockEnd
  0
BLOCK
  5
8461
330
8460
100
AcDbEntity
  8
0
100
AcDbBlockBegin
  2
*D13
 70
     1
 10
0.0
 20
0.0
 30
0.0
  3
*D13
  1

  0
LINE
  5
836B
330
8460
100
AcDbEntity
  8
3
 62
     0
100
AcDbLine
 10
3691.156955993239
 20
2986.800457609002
 30
0.0
 11
3964.167988683195
 21
2986.800457609002
 31
0.0
  0
LINE
  5
836C
330
8460
100
AcDbEntity
  8
3
 62
     0
100
AcDbLine
 10
3691.156955993239
 20
4266.800457609003
 30
0.0
 11
3964.167988683195
 21
4266.800457609003
 31
0.0
  0
LINE
  5
836D
330
8460
100
AcDbEntity
  8
3
 62
     0
100
AcDbLine
 10
3924.167988683194
 20
3066.800457609002
 30
0.0
 11
3924.167988683194
 21
4186.800457609002
 31
0.0
  0
INSERT
  5
836E
330
8460
100
AcDbEntity
  8
3
 62
     0
100
AcDbBlockReference
  2
_OPEN
 10
3924.167988683194
 20
2986.800457609002
 30
0.0
 41
80.0
 42
80.0
 43
80.0
 50
270.0
  0
INSERT
  5
836F
330
8460
100
AcDbEntity
  8
3
 62
     0
100
AcDbBlockReference
  2
_OPEN
 10
3924.167988683194
 20
4266.800457609003
 30
0.0
 41
80.0
 42
80.0
 43
80.0
 50
90.0
  0
TEXT
  5
83C2
330
8460
100
AcDbEntity
  8
3
 62
     0
100
AcDbText
 10
3584.17
 20
3414.4
 30
0.0
 40
120.0
  1
1280
100
AcDbText
  0
POINT
  5
8371
330
8460
100
AcDbEntity
  8
DEFPOINTS
 62
     0
100
AcDbPoint
 10
3671.156955993239
 20
2986.800457609002
 30
0.0
  0
POINT
  5
8372
330
8460
100
AcDbEntity
  8
DEFPOINTS
 62
     0
100
AcDbPoint
 10
3671.156955993239
 20
4266.800457609003
 30
0.0
  0
POINT
  5
8373
330
8460
100
AcDbEntity
  8
DEFPOINTS
 62
     0
100
AcDbPoint
 10
3924.167988683194
 20
4266.800457609003
 30
0.0
  0
ENDBLK
  5
7FBC
330
8460
100
AcDbEntity
  8
0
100
AcDbBlockEnd
  0
BLOCK
  5
8463
330
8462
100
AcDbEntity
  8
0
100
AcDbBlockBegin
  2
*D14
 70
     1
 10
0.0
 20
0.0
 30
0.0
  3
*D14
  1

  0
LINE
  5
8374
330
8462
100
AcDbEntity
  8
3
 62
     0
100
AcDbLine
 10
3691.156955993239
 20
2986.800457609002
 30
0.0
 11
4211.230831139725
 21
2986.800457609002
 31
0.0
  0
LINE
  5
8375
330
8462
100
AcDbEntity
  8
3
 62
     0
100
AcDbLine
 10
3769.593494242089
 20
4320.800457609002
 30
0.0
 11
4211.230831139725
 21
4320.800457609002
 31
0.0
  0
LINE
  5
8376
330
8462
100
AcDbEntity
  8
3
 62
     0
100
AcDbLine
 10
4171.230831139723
 20
3066.800457609002
 30
0.0
 11
4171.230831139723
 21
4240.800457609004
 31
0.0
  0
INSERT
  5
8377
330
8462
100
AcDbEntity
  8
3
 62
     0
100
AcDbBlockReference
  2
_OPEN
 10
4171.230831139723
 20
2986.800457609002
 30
0.0
 41
80.0
 42
80.0
 43
80.0
 50
270.0
  0
INSERT
  5
8378
330
8462
100
AcDbEntity
  8
3
 62
     0
100
AcDbBlockReference
  2
_OPEN
 10
4171.230831139723
 20
4320.800457609002
 30
0.0
 41
80.0
 42
80.0
 43
80.0
 50
90.0
  0
TEXT
  5
83C3
330
8462
100
AcDbEntity
  8
3
 62
     0
100
AcDbText
 10
3831.23
 20
3441.4
 30
0.0
 40
120.0
  1
1334
100
AcDbText
  0
POINT
  5
837A
330
8462
100
AcDbEntity
  8
DEFPOINTS
 62
     0
100
AcDbPoint
 10
3671.156955993239
 20
2986.800457609002
 30
0.0
  0
POINT
  5
837B
330
8462
100
AcDbEntity
  8
DEFPOINTS
 62
     0
100
AcDbPoint
 10
3749.593494242089
 20
4320.800457609002
 30
0.0
  0
POINT
  5
837C
330
8462
100
AcDbEntity
  8
DEFPOINTS
 62
     0
100
AcDbPoint
 10
4171.230831139723
 20
4320.800457609002
 30
0.0
  0
ENDBLK
  5
7FB1
330
8462
100
AcDbEntity
  8
0
100
AcDbBlockEnd
  0
BLOCK
  5
8465
330
8464
100
AcDbEntity
  8
0
100
AcDbBlockBegin
  2
*D15
 70
     1
 10
0.0
 20
0.0
 30
0.0
  3
*D15
  1

  0
LINE
  5
837D
330
8464
100
AcDbEntity
  8
3
 62
     0
100
AcDbLine
 10
1770.70121315513
 20
4340.800457609002
 30
0.0
 11
1770.70121315513
 21
5525.312615694231
 31
0.0
  0
LINE
  5
837E
330
8464
100
AcDbEntity
  8
3
 62
     0
100
AcDbLine
 10
2846.156955993239
 20
5419.935007000526
 30
0.0
 11
2846.156955993239
 21
5525.312615694231
 31
0.0
  0
LINE
  5
837F
330
8464
100
AcDbEntity
  8
3
 62
     0
100
AcDbLine
 10
1850.70121315513
 20
5485.312615694231
 30
0.0
 11
2766.156955993237
 21
5485.312615694231
 31
0.0
  0
INSERT
  5
8380
330
8464
100
AcDbEntity
  8
3
 62
     0
100
AcDbBlockReference
  2
_OPEN
 10
1770.70121315513
 20
5485.312615694231
 30
0.0
 41
80.0
 42
80.0
 43
80.0
 50
180.0
  0
INSERT
  5
8381
330
8464
100
AcDbEntity
  8
3
 62
     0
100
AcDbBlockReference
  2
_OPEN
 10
2846.156955993239
 20
5485.312615694231
 30
0.0
 41
80.0
 42
80.0
 43
80.0
  0
TEXT
  5
83C4
330
8464
100
AcDbEntity
  8
3
 62
     0
100
AcDbText
 10
2068.43
 20
5372.91
 30
0.0
 40
120.0
  1
1079
100
AcDbText
  0
POINT
  5
8383
330
8464
100
AcDbEntity
  8
DEFPOINTS
 62
     0
100
AcDbPoint
 10
1770.70121315513
 20
4320.800457609002
 30
0.0
  0
POINT
  5
8384
330
8464
100
AcDbEntity
  8
DEFPOINTS
 62
     0
100
AcDbPoint
 10
2846.156955993239
 20
5399.935007000528
 30
0.0
  0
POINT
  5
8385
330
8464
100
AcDbEntity
  8
DEFPOINTS
 62
     0
100
AcDbPoint
 10
2846.156955993239
 20
5485.312615694231
 30
0.0
  0
ENDBLK
  5
7F90
330
8464
100
AcDbEntity
  8
0
100
AcDbBlockEnd
  0
BLOCK
  5
8467
330
8466
100
AcDbEntity
  8
0
100
AcDbBlockBegin
  2
*D16
 70
     1
 10
0.0
 20
0.0
 30
0.0
  3
*D16
  1

  0
LINE
  5
8386
330
8466
100
AcDbEntity
  8
3
 62
     0
100
AcDbLine
 10
2846.156955993239
 20
5419.935007000526
 30
0.0
 11
2846.156955993239
 21
5525.312615694231
 31
0.0
  0
LINE
  5
8387
330
8466
100
AcDbEntity
  8
3
 62
     0
100
AcDbLine
 10
3671.156955993239
 20
4339.800457609001
 30
0.0
 11
3671.156955993239
 21
5525.312615694231
 31
0.0
  0
LINE
  5
8388
330
8466
100
AcDbEntity
  8
3
 62
     0
100
AcDbLine
 10
2926.156955993239
 20
5485.312615694231
 30
0.0
 11
3591.156955993239
 21
5485.312615694231
 31
0.0
  0
INSERT
  5
8389
330
8466
100
AcDbEntity
  8
3
 62
     0
100
AcDbBlockReference
  2
_OPEN
 10
2846.156955993239
 20
5485.312615694231
 30
0.0
 41
80.0
 42
80.0
 43
80.0
 50
180.0
  0
INSERT
  5
838A
330
8466
100
AcDbEntity
  8
3
 62
     0
100
AcDbBlockReference
  2
_OPEN
 10
3671.156955993239
 20
5485.312615694231
 30
0.0
 41
80.0
 42
80.0
 43
80.0
  0
TEXT
  5
83C5
330
8466
100
AcDbEntity
  8
3
 62
     0
100
AcDbText
 10
3018.66
 20
5372.91
 30
0.0
 40
120.0
  1
825
100
AcDbText
  0
POINT
  5
838C
330
8466
100
AcDbEntity
  8
DEFPOINTS
 62
     0
100
AcDbPoint
 10
2846.156955993239
 20
5399.935007000528
 30
0.0
  0
POINT
  5
838D
330
8466
100
AcDbEntity
  8
DEFPOINTS
 62
     0
100
AcDbPoint
 10
3671.156955993239
 20
4319.800457609001
 30
0.0
  0
POINT
  5
838E
330
8466
100
AcDbEntity
  8
DEFPOINTS
 62
     0
100
AcDbPoint
 10
3671.156955993239
 20
5485.312615694231
 30
0.0
  0
ENDBLK
  5
7F85
330
8466
100
AcDbEntity
  8
0
100
AcDbBlockEnd
  0
BLOCK
  5
8469
330
8468
100
AcDbEntity
  8
0
100
AcDbBlockBegin
  2
*D17
 70
     1
 10
0.0
 20
0.0
 30
0.0
  3
*D17
  1

  0
LINE
  5
838F
330
8468
100
AcDbEntity
  8
3
 62
     0
100
AcDbLine
 10
3769.593494242089
 20
4320.800457609002
 30
0.0
 11
4462.346544791297
 21
4320.800457609002
 31
0.0
  0
LINE
  5
8390
330
8468
100
AcDbEntity
  8
3
 62
     0
100
AcDbLine
 10
3616.156955993239
 20
2890.800457609002
 30
0.0
 11
4462.346544791297
 21
2890.800457609002
 31
0.0
  0
LINE
  5
8391
330
8468
100
AcDbEntity
  8
3
 62
     0
100
AcDbLine
 10
4422.346544791297
 20
4240.800457609004
 30
0.0
 11
4422.346544791297
 21
2970.800457609002
 31
0.0
  0
INSERT
  5
8392
330
8468
100
AcDbEntity
  8
3
 62
     0
100
AcDbBlockReference
  2
_OPEN
 10
4422.346544791297
 20
4320.800457609002
 30
0.0
 41
80.0
 42
80.0
 43
80.0
 50
90.0
  0
INSERT
  5
8393
330
8468
100
AcDbEntity
  8
3
 62
     0
100
AcDbBlockReference
  2
_OPEN
 10
4422.346544791297
 20
2890.800457609002
 30
0.0
 41
80.0
 42
80.0
 43
80.0
 50
270.0
  0
TEXT
  5
83C6
330
8468
100
AcDbEntity
  8
3
 62
     0
100
AcDbText
 10
4082.35
 20
3393.400000000001
 30
0.0
 40
120.0
  1
1430
100
AcDbText
  0
POINT
  5
8395
330
8468
100
AcDbEntity
  8
DEFPOINTS
 62
     0
100
AcDbPoint
 10
3749.593494242089
 20
4320.800457609002
 30
0.0
  0
POINT
  5
8396
330
8468
100
AcDbEntity
  8
DEFPOINTS
 62
     0
100
AcDbPoint
 10
3596.156955993239
 20
2890.800457609002
 30
0.0
  0
POINT
  5
8397
330
8468
100
AcDbEntity
  8
DEFPOINTS
 62
     0
100
AcDbPoint
 10
4422.346544791297
 20
2890.800457609002
 30
0.0
  0
ENDBLK
  5
7F7A
330
8468
100
AcDbEntity
  8
0
100
AcDbBlockEnd
  0
BLOCK
  5
846B
330
846A
100
AcDbEntity
  8
0
100
AcDbBlockBegin
  2
*D18
 70
     1
 10
0.0
 20
0.0
 30
0.0
  3
*D18
  1

  0
LINE
  5
8398
330
846A
100
AcDbEntity
  8
3
 62
     0
100
AcDbLine
 10
3769.593494242089
 20
4320.800457609002
 30
0.0
 11
4462.346544791297
 21
4320.800457609002
 31
0.0
  0
LINE
  5
8399
330
846A
100
AcDbEntity
  8
3
 62
     0
100
AcDbLine
 10
2775.156955993237
 20
5217.800457609002
 30
0.0
 11
4462.346544791297
 21
5217.800457609002
 31
0.0
  0
LINE
  5
839A
330
846A
100
AcDbEntity
  8
3
 62
     0
100
AcDbLine
 10
4422.346544791297
 20
4400.800457609001
 30
0.0
 11
4422.346544791297
 21
5137.800457609003
 31
0.0
  0
INSERT
  5
839B
330
846A
100
AcDbEntity
  8
3
 62
     0
100
AcDbBlockReference
  2
_OPEN
 10
4422.346544791297
 20
4320.800457609002
 30
0.0
 41
80.0
 42
80.0
 43
80.0
 50
270.0
  0
INSERT
  5
839C
330
846A
100
AcDbEntity
  8
3
 62
     0
100
AcDbBlockReference
  2
_OPEN
 10
4422.346544791297
 20
5217.800457609002
 30
0.0
 41
80.0
 42
80.0
 43
80.0
 50
90.0
  0
TEXT
  5
83C7
330
846A
100
AcDbEntity
  8
3
 62
     0
100
AcDbText
 10
4082.35
 20
4556.899999999999
 30
0.0
 40
120.0
  1
897
100
AcDbText
  0
POINT
  5
839E
330
846A
100
AcDbEntity
  8
DEFPOINTS
 62
     0
100
AcDbPoint
 10
3749.593494242089
 20
4320.800457609002
 30
0.0
  0
POINT
  5
839F
330
846A
100
AcDbEntity
  8
DEFPOINTS
 62
     0
100
AcDbPoint
 10
2755.156955993238
 20
5217.800457609002
 30
0.0
  0
POINT
  5
83A0
330
846A
100
AcDbEntity
  8
DEFPOINTS
 62
     0
100
AcDbPoint
 10
4422.346544791297
 20
5217.800457609002
 30
0.0
  0
ENDBLK
  5
7F64
330
846A
100
AcDbEntity
  8
0
100
AcDbBlockEnd
  0
BLOCK
  5
846D
330
846C
100
AcDbEntity
  8
0
100
AcDbBlockBegin
  2
*D19
 70
     1
 10
0.0
 20
0.0
 30
0.0
  3
*D19
  1

  0
LINE
  5
83A1
330
846C
100
AcDbEntity
  8
3
 62
     0
100
AcDbLine
 10
3616.156955993239
 20
2775.800457609002
 30
0.0
 11
4462.346544791297
 21
2775.800457609002
 31
0.0
  0
LINE
  5
83A2
330
846C
100
AcDbEntity
  8
3
 62
     0
100
AcDbLine
 10
3616.156955993239
 20
2710.800457609002
 30
0.0
 11
4462.346544791297
 21
2710.800457609002
 31
0.0
  0
LINE
  5
83A3
330
846C
100
AcDbEntity
  8
3
 62
     0
100
AcDbLine
 10
4422.346544791297
 20
2855.800457609002
 30
0.0
 11
4422.346544791297
 21
2935.800457609002
 31
0.0
  0
LINE
  5
83A4
330
846C
100
AcDbEntity
  8
3
 62
     0
100
AcDbLine
 10
4422.346544791297
 20
2630.800457609002
 30
0.0
 11
4422.346544791297
 21
2276.514743323288
 31
0.0
  0
LINE
  5
83A5
330
846C
100
AcDbEntity
  8
3
 62
     0
100
AcDbLine
 10
4422.346544791297
 20
2775.800457609002
 30
0.0
 11
4422.346544791297
 21
2710.800457609002
 31
0.0
  0
INSERT
  5
83A6
330
846C
100
AcDbEntity
  8
3
 62
     0
100
AcDbBlockReference
  2
_DOT
 10
4422.346544791297
 20
2775.800457609002
 30
0.0
 41
80.0
 42
80.0
 43
80.0
 50
270.0
  0
INSERT
  5
83A7
330
846C
100
AcDbEntity
  8
3
 62
     0
100
AcDbBlockReference
  2
_OPEN
 10
4422.346544791297
 20
2710.800457609002
 30
0.0
 41
80.0
 42
80.0
 43
80.0
 50
90.0
  0
TEXT
  5
83C8
330
846C
100
AcDbEntity
  8
3
 62
     0
100
AcDbText
 10
4082.35
 20
2201.26
 30
0.0
 40
120.0
  1
65
100
AcDbText
  0
POINT
  5
83A9
330
846C
100
AcDbEntity
  8
DEFPOINTS
 62
     0
100
AcDbPoint
 10
3596.156955993239
 20
2775.800457609002
 30
0.0
  0
POINT
  5
83AA
330
846C
100
AcDbEntity
  8
DEFPOINTS
 62
     0
100
AcDbPoint
 10
3596.156955993239
 20
2710.800457609002
 30
0.0
  0
POINT
  5
83AB
330
846C
100
AcDbEntity
  8
DEFPOINTS
 62
     0
100
AcDbPoint
 10
4422.346544791297
 20
2710.800457609002
 30
0.0
  0
ENDBLK
  5
8119
330
846C
100
AcDbEntity
  8
0
100
AcDbBlockEnd
  0
BLOCK
  5
8470
330
846E
100
AcDbEntity
  8
0
100
AcDbBlockBegin
  2
_DOT
 70
     0
 10
0.0
 20
0.0
 30
0.0
  3
_DOT
  1

  0
LINE
  5
811A
330
846E
100
AcDbEntity
  8
0
  6
ByBlock
 62
     0
100
AcDbLine
 10
0.0
 20
0.0
 30
0.0
 11
-1.0
 21
-0.0000000000000284
 31
0.0
  0
LWPOLYLINE
  5
811B
330
846E
100
AcDbEntity
  8
0
  6
ByBlock
 62
     0
100
AcDbPolyline
 90
        2
 70
     1
 43
0.1666666666666666
 10
-0.0833333333333286
 20
-0.0000000000000284
 42
1.0
 10
0.0833333333333286
 20
-0.0000000000000284
 42
1.0
  0
ENDBLK
  5
80E5
330
846E
100
AcDbEntity
  8
0
100
AcDbBlockEnd
  0
BLOCK
  5
8472
330
8471
100
AcDbEntity
  8
0
100
AcDbBlockBegin
  2
*D21
 70
     1
 10
0.0
 20
0.0
 30
0.0
  3
*D21
  1

  0
LINE
  5
83AF
330
8471
100
AcDbEntity
  8
3
 62
     0
100
AcDbLine
 10
3671.156955993239
 20
4339.800457609001
 30
0.0
 11
3671.156955993239
 21
5778.269218418994
 31
0.0
  0
LINE
  5
83B0
330
8471
100
AcDbEntity
  8
3
 62
     0
100
AcDbLine
 10
1146.156955993237
 20
3035.800457609002
 30
0.0
 11
1146.156955993238
 21
5778.269218418994
 31
0.0
  0
LINE
  5
83B1
330
8471
100
AcDbEntity
  8
3
 62
     0
100
AcDbLine
 10
3591.156955993239
 20
5738.269218418995
 30
0.0
 11
1226.156955993237
 21
5738.269218418995
 31
0.0
  0
INSERT
  5
83B2
330
8471
100
AcDbEntity
  8
3
 62
     0
100
AcDbBlockReference
  2
_OPEN
 10
3671.156955993239
 20
5738.269218418995
 30
0.0
 41
80.0
 42
80.0
 43
80.0
  0
INSERT
  5
83B3
330
8471
100
AcDbEntity
  8
3
 62
     0
100
AcDbBlockReference
  2
_OPEN
 10
1146.156955993238
 20
5738.269218418995
 30
0.0
 41
80.0
 42
80.0
 43
80.0
 50
180.0
  0
TEXT
  5
83C9
330
8471
100
AcDbEntity
  8
3
 62
     0
100
AcDbText
 10
2307.04
 20
5625.869999999999
 30
0.0
 40
120.0
  1
2525
100
AcDbText
  0
POINT
  5
83B5
330
8471
100
AcDbEntity
  8
DEFPOINTS
 62
     0
100
AcDbPoint
 10
3671.156955993239
 20
4319.800457609001
 30
0.0
  0
POINT
  5
83B6
330
8471
100
AcDbEntity
  8
DEFPOINTS
 62
     0
100
AcDbPoint
 10
1146.156955993237
 20
3015.800457609002
 30
0.0
  0
POINT
  5
83B7
330
8471
100
AcDbEntity
  8
DEFPOINTS
 62
     0
100
AcDbPoint
 10
1146.156955993238
 20
5738.269218418995
 30
0.0
  0
ENDBLK
  5
813E
330
8471
100
AcDbEntity
  8
0
100
AcDbBlockEnd
  0
BLOCK
  5
8474
330
8473
100
AcDbEntity
  8
0
100
AcDbBlockBegin
  2
*D22
 70
     1
 10
0.0
 20
0.0
 30
0.0
  3
*D22
  1

  0
LINE
  5
819F
330
8473
100
AcDbEntity
  8
0
  6
ByBlock
 62
     0
100
AcDbLine
 10
1146.156955993237
 20
2785.800457609002
 30
0.0
 11
1146.156955993237
 21
2494.190241232678
 31
0.0
  0
LINE
  5
81A0
330
8473
100
AcDbEntity
  8
0
  6
ByBlock
 62
     0
100
AcDbLine
 10
2846.156955993239
 20
2785.800457609002
 30
0.0
 11
2846.156955993239
 21
2494.190241232678
 31
0.0
  0
LINE
  5
81A1
330
8473
100
AcDbEntity
  8
0
  6
ByBlock
 62
     0
100
AcDbLine
 10
1226.156955993237
 20
2534.190241232678
 30
0.0
 11
2766.156955993237
 21
2534.190241232678
 31
0.0
  0
INSERT
  5
81A2
330
8473
100
AcDbEntity
  8
0
  6
ByBlock
 62
     0
100
AcDbBlockReference
  2
_OPEN
 10
1146.156955993237
 20
2534.190241232678
 30
0.0
 41
80.0
 42
80.0
 43
80.0
 50
180.0
  0
INSERT
  5
81A3
330
8473
100
AcDbEntity
  8
0
  6
ByBlock
 62
     0
100
AcDbBlockReference
  2
_OPEN
 10
2846.156955993239
 20
2534.190241232678
 30
0.0
 41
80.0
 42
80.0
 43
80.0
  0
TEXT
  5
81A4
330
8473
100
AcDbEntity
  8
3
 62
     0
100
AcDbText
 10
1796.156955993238
 20
2574.190241232678
 30
0.0
 40
120.0
  1
1700
100
AcDbText
  0
POINT
  5
81A5
330
8473
100
AcDbEntity
  8
DEFPOINTS
  6
ByBlock
 62
     0
100
AcDbPoint
 10
1146.156955993237
 20
2805.800457609002
 30
0.0
  0
POINT
  5
81A6
330
8473
100
AcDbEntity
  8
DEFPOINTS
  6
ByBlock
 62
     0
100
AcDbPoint
 10
2846.156955993239
 20
2805.800457609002
 30
0.0
  0
POINT
  5
81A7
330
8473
100
AcDbEntity
  8
DEFPOINTS
  6
ByBlock
 62
     0
100
AcDbPoint
 10
2846.156955993239
 20
2534.190241232678
 30
0.0
  0
ENDBLK
  5
81A8
330
8473
100
AcDbEntity
  8
0
100
AcDbBlockEnd
  0
BLOCK
  5
8476
330
8475
100
AcDbEntity
  8
0
100
AcDbBlockBegin
  2
*D23
 70
     1
 10
0.0
 20
0.0
 30
0.0
  3
*D23
  1

  0
LINE
  5
81AC
330
8475
100
AcDbEntity
  8
0
  6
ByBlock
 62
     0
100
AcDbLine
 10
2846.156955993239
 20
2785.800457609002
 30
0.0
 11
2846.156955993239
 21
2494.190241232678
 31
0.0
  0
LINE
  5
81AD
330
8475
100
AcDbEntity
  8
0
  6
ByBlock
 62
     0
100
AcDbLine
 10
3596.156955993239
 20
2785.800457609002
 30
0.0
 11
3596.156955993239
 21
2494.190241232678
 31
0.0
  0
LINE
  5
81AE
330
8475
100
AcDbEntity
  8
0
  6
ByBlock
 62
     0
100
AcDbLine
 10
2926.156955993239
 20
2534.190241232678
 30
0.0
 11
3516.156955993239
 21
2534.190241232678
 31
0.0
  0
INSERT
  5
81AF
330
8475
100
AcDbEntity
  8
0
  6
ByBlock
 62
     0
100
AcDbBlockReference
  2
_OPEN
 10
2846.156955993239
 20
2534.190241232678
 30
0.0
 41
80.0
 42
80.0
 43
80.0
 50
180.0
  0
INSERT
  5
81B0
330
8475
100
AcDbEntity
  8
0
  6
ByBlock
 62
     0
100
AcDbBlockReference
  2
_OPEN
 10
3596.156955993239
 20
2534.190241232678
 30
0.0
 41
80.0
 42
80.0
 43
80.0
  0
TEXT
  5
81B1
330
8475
100
AcDbEntity
  8
3
 62
     0
100
AcDbText
 10
3066.871241707523
 20
2574.190241232678
 30
0.0
 40
120.0
  1
750
100
AcDbText
  0
POINT
  5
81B2
330
8475
100
AcDbEntity
  8
DEFPOINTS
  6
ByBlock
 62
     0
100
AcDbPoint
 10
2846.156955993239
 20
2805.800457609002
 30
0.0
  0
POINT
  5
81B3
330
8475
100
AcDbEntity
  8
DEFPOINTS
  6
ByBlock
 62
     0
100
AcDbPoint
 10
3596.156955993239
 20
2805.800457609002
 30
0.0
  0
POINT
  5
81B4
330
8475
100
AcDbEntity
  8
DEFPOINTS
  6
ByBlock
 62
     0
100
AcDbPoint
 10
3596.156955993239
 20
2534.190241232678
 30
0.0
  0
ENDBLK
  5
81B5
330
8475
100
AcDbEntity
  8
0
100
AcDbBlockEnd
  0
BLOCK
  5
8478
330
8477
100
AcDbEntity
  8
0
100
AcDbBlockBegin
  2
*D24
 70
     1
 10
0.0
 20
0.0
 30
0.0
  3
*D24
  1

  0
LINE
  5
81B9
330
8477
100
AcDbEntity
  8
0
  6
ByBlock
 62
     0
100
AcDbLine
 10
5039.092839011054
 20
2785.800457609002
 30
0.0
 11
5039.092839011054
 21
2494.190241232678
 31
0.0
  0
LINE
  5
81BA
330
8477
100
AcDbEntity
  8
0
  6
ByBlock
 62
     0
100
AcDbLine
 10
6241.092839011049
 20
2785.800457609002
 30
0.0
 11
6241.092839011049
 21
2494.190241232678
 31
0.0
  0
LINE
  5
81BB
330
8477
100
AcDbEntity
  8
0
  6
ByBlock
 62
     0
100
AcDbLine
 10
5119.092839011054
 20
2534.190241232678
 30
0.0
 11
6161.092839011049
 21
2534.190241232678
 31
0.0
  0
INSERT
  5
81BC
330
8477
100
AcDbEntity
  8
0
  6
ByBlock
 62
     0
100
AcDbBlockReference
  2
_OPEN
 10
5039.092839011054
 20
2534.190241232678
 30
0.0
 41
80.0
 42
80.0
 43
80.0
 50
180.0
  0
INSERT
  5
81BD
330
8477
100
AcDbEntity
  8
0
  6
ByBlock
 62
     0
100
AcDbBlockReference
  2
_OPEN
 10
6241.092839011049
 20
2534.190241232678
 30
0.0
 41
80.0
 42
80.0
 43
80.0
  0
TEXT
  5
81BE
330
8477
100
AcDbEntity
  8
3
 62
     0
100
AcDbText
 10
5440.092839011052
 20
2574.190241232678
 30
0.0
 40
120.0
  1
1202
100
AcDbText
  0
POINT
  5
81BF
330
8477
100
AcDbEntity
  8
DEFPOINTS
  6
ByBlock
 62
     0
100
AcDbPoint
 10
5039.092839011054
 20
2805.800457609002
 30
0.0
  0
POINT
  5
81C0
330
8477
100
AcDbEntity
  8
DEFPOINTS
  6
ByBlock
 62
     0
100
AcDbPoint
 10
6241.092839011049
 20
2805.800457609002
 30
0.0
  0
POINT
  5
81C1
330
8477
100
AcDbEntity
  8
DEFPOINTS
  6
ByBlock
 62
     0
100
AcDbPoint
 10
6241.092839011049
 20
2534.190241232678
 30
0.0
  0
ENDBLK
  5
81C2
330
8477
100
AcDbEntity
  8
0
100
AcDbBlockEnd
  0
BLOCK
  5
847A
330
8479
100
AcDbEntity
  8
0
100
AcDbBlockBegin
  2
*D25
 70
     1
 10
0.0
 20
0.0
 30
0.0
  3
*D25
  1

  0
LINE
  5
81C6
330
8479
100
AcDbEntity
  8
0
  6
ByBlock
 62
     0
100
AcDbLine
 10
6241.092839011049
 20
2785.800457609002
 30
0.0
 11
6241.092839011049
 21
2494.190241232678
 31
0.0
  0
LINE
  5
81C7
330
8479
100
AcDbEntity
  8
0
  6
ByBlock
 62
     0
100
AcDbLine
 10
7159.092839011053
 20
2785.800457609002
 30
0.0
 11
7159.092839011053
 21
2494.190241232678
 31
0.0
  0
LINE
  5
81C8
330
8479
100
AcDbEntity
  8
0
  6
ByBlock
 62
     0
100
AcDbLine
 10
6321.092839011051
 20
2534.190241232678
 30
0.0
 11
7079.092839011053
 21
2534.190241232678
 31
0.0
  0
INSERT
  5
81C9
330
8479
100
AcDbEntity
  8
0
  6
ByBlock
 62
     0
100
AcDbBlockReference
  2
_OPEN
 10
6241.092839011049
 20
2534.190241232678
 30
0.0
 41
80.0
 42
80.0
 43
80.0
 50
180.0
  0
INSERT
  5
81CA
330
8479
100
AcDbEntity
  8
0
  6
ByBlock
 62
     0
100
AcDbBlockReference
  2
_OPEN
 10
7159.092839011053
 20
2534.190241232678
 30
0.0
 41
80.0
 42
80.0
 43
80.0
  0
TEXT
  5
81CB
330
8479
100
AcDbEntity
  8
3
 62
     0
100
AcDbText
 10
6557.235696153909
 20
2574.190241232678
 30
0.0
 40
120.0
  1
918
100
AcDbText
  0
POINT
  5
81CC
330
8479
100
AcDbEntity
  8
DEFPOINTS
  6
ByBlock
 62
     0
100
AcDbPoint
 10
6241.092839011049
 20
2805.800457609002
 30
0.0
  0
POINT
  5
81CD
330
8479
100
AcDbEntity
  8
DEFPOINTS
  6
ByBlock
 62
     0
100
AcDbPoint
 10
7159.092839011053
 20
2805.800457609002
 30
0.0
  0
POINT
  5
81CE
330
8479
100
AcDbEntity
  8
DEFPOINTS
  6
ByBlock
 62
     0
100
AcDbPoint
 10
7159.092839011053
 20
2534.190241232678
 30
0.0
  0
ENDBLK
  5
81CF
330
8479
100
AcDbEntity
  8
0
100
AcDbBlockEnd
  0
BLOCK
  5
847C
330
847B
100
AcDbEntity
  8
0
100
AcDbBlockBegin
  2
_NONE
 70
     0
 10
0.0
 20
0.0
 30
0.0
  3
_NONE
  1

  0
CIRCLE
  5
81D3
330
847B
100
AcDbEntity
  8
0
  6
ByBlock
 62
     0
100
AcDbCircle
 10
0.0
 20
0.0
 30
0.0
 40
0.25
  0
ENDBLK
  5
81D4
330
847B
100
AcDbEntity
  8
0
100
AcDbBlockEnd
  0
BLOCK
  5
847E
330
847D
100
AcDbEntity
  8
0
100
AcDbBlockBegin
  2
*D27
 70
     1
 10
0.0
 20
0.0
 30
0.0
  3
*D27
  1

  0
LINE
  5
822F
330
847D
100
AcDbEntity
  8
0
  6
ByBlock
 62
     0
100
AcDbLine
 10
4422.790357081431
 20
2775.800457609002
 30
0.0
 11
4422.790357081431
 21
2890.800457609002
 31
0.0
  0
TEXT
  5
8230
330
847D
100
AcDbEntity
  8
3
 62
     0
100
AcDbText
 10
4654.218928510002
 20
2516.729029037574
 30
0.0
 40
120.0
  1
   (115)
 50
90.0
100
AcDbText
  0
POINT
  5
8231
330
847D
100
AcDbEntity
  8
DEFPOINTS
  6
ByBlock
 62
     0
100
AcDbPoint
 10
3596.156955993239
 20
2775.800457609002
 30
0.0
  0
POINT
  5
8232
330
847D
100
AcDbEntity
  8
DEFPOINTS
  6
ByBlock
 62
     0
100
AcDbPoint
 10
3596.156955993239
 20
2890.800457609002
 30
0.0
  0
POINT
  5
8233
330
847D
100
AcDbEntity
  8
DEFPOINTS
  6
ByBlock
 62
     0
100
AcDbPoint
 10
4422.790357081431
 20
2890.800457609002
 30
0.0
  0
ENDBLK
  5
8234
330
847D
100
AcDbEntity
  8
0
100
AcDbBlockEnd
  0
BLOCK
  5
8480
330
847F
100
AcDbEntity
  8
0
100
AcDbBlockBegin
  2
*D28
 70
     1
 10
0.0
 20
0.0
 30
0.0
  3
*D28
  1

  0
LINE
  5
8215
330
847F
100
AcDbEntity
  8
0
  6
ByBlock
 62
     0
100
AcDbLine
 10
3616.156955993239
 20
2710.800457609002
 30
0.0
 11
4773.835297657394
 21
2710.800457609002
 31
0.0
  0
LINE
  5
8216
330
847F
100
AcDbEntity
  8
0
  6
ByBlock
 62
     0
100
AcDbLine
 10
2795.156955993237
 20
5217.800457609002
 30
0.0
 11
4773.835297657394
 21
5217.800457609002
 31
0.0
  0
LINE
  5
8217
330
847F
100
AcDbEntity
  8
0
  6
ByBlock
 62
     0
100
AcDbLine
 10
4733.835297657395
 20
2790.800457609002
 30
0.0
 11
4733.835297657395
 21
5137.800457609003
 31
0.0
  0
INSERT
  5
8218
330
847F
100
AcDbEntity
  8
0
  6
ByBlock
 62
     0
100
AcDbBlockReference
  2
_OPEN
 10
4733.835297657395
 20
2710.800457609002
 30
0.0
 41
80.0
 42
80.0
 43
80.0
 50
270.0
  0
INSERT
  5
8219
330
847F
100
AcDbEntity
  8
0
  6
ByBlock
 62
     0
100
AcDbBlockReference
  2
_OPEN
 10
4733.835297657395
 20
5217.800457609002
 30
0.0
 41
80.0
 42
80.0
 43
80.0
 50
90.0
  0
TEXT
  5
821A
330
847F
100
AcDbEntity
  8
3
 62
     0
100
AcDbText
 10
4642.406726228823
 20
3675.729029037575
 30
0.0
 40
120.0
  1
(2507)
 50
90.0
100
AcDbText
  0
POINT
  5
821B
330
847F
100
AcDbEntity
  8
DEFPOINTS
  6
ByBlock
 62
     0
100
AcDbPoint
 10
3596.156955993239
 20
2710.800457609002
 30
0.0
  0
POINT
  5
821C
330
847F
100
AcDbEntity
  8
DEFPOINTS
  6
ByBlock
 62
     0
100
AcDbPoint
 10
2775.156955993237
 20
5217.800457609002
 30
0.0
  0
POINT
  5
821D
330
847F
100
AcDbEntity
  8
DEFPOINTS
  6
ByBlock
 62
     0
100
AcDbPoint
 10
4733.835297657395
 20
5217.800457609002
 30
0.0
  0
ENDBLK
  5
821E
330
847F
100
AcDbEntity
  8
0
100
AcDbBlockEnd
  0
BLOCK
  5
84DC
330
84DB
100
AcDbEntity
  8
0
100
AcDbBlockBegin
  2
*D29
 70
     1
 10
0.0
 20
0.0
 30
0.0
  3
*D29
  1

  0
LINE
  5
84DE
330
84DB
100
AcDbEntity
  8
3
 62
     0
370
    -2
100
AcDbLine
 10
4422.790357081431
 20
2793.000457609002
 30
0.0
 11
4422.790357081431
 21
2829.214743323288
 31
0.0
  0
LINE
  5
84DF
330
84DB
100
AcDbEntity
  8
3
 62
     0
370
    -2
100
AcDbLine
 10
4422.790357081431
 20
2883.600457609002
 30
0.0
 11
4422.790357081431
 21
2847.386171894717
 31
0.0
  0
SOLID
  5
84E0
330
84DB
100
AcDbEntity
  8
3
 62
     0
100
AcDbTrace
 10
4421.590357081432
 20
2793.000457609002
 30
0.0
 11
4423.990357081431
 21
2793.000457609002
 31
0.0
 12
4422.790357081431
 22
2785.800457609002
 32
0.0
 13
4422.790357081431
 23
2785.800457609002
 33
0.0
  0
SOLID
  5
84E1
330
84DB
100
AcDbEntity
  8
3
 62
     0
100
AcDbTrace
 10
4421.590357081432
 20
2883.600457609002
 30
0.0
 11
4423.990357081431
 21
2883.600457609002
 31
0.0
 12
4422.790357081431
 22
2890.800457609002
 32
0.0
 13
4422.790357081431
 23
2890.800457609002
 33
0.0
  0
MTEXT
  5
84E2
330
84DB
100
AcDbEntity
  8
3
 62
     0
100
AcDbMText
 10
4422.790357081431
 20
2838.300457609003
 30
0.0
 40
7.199999999999999
 41
0.0
 71
     5
 72
     1
  1
\A1;   (105)
 73
     1
 44
1.0
1001
ACAD
1000
MTEXTBEGIN
1070
    73
1070
     1
1070
    44
1040
1.0
1070
    74
1070
     0
1000
MTEXTEND
  0
POINT
  5
84E3
330
84DB
100
AcDbEntity
  8
DEFPOINTS
 62
     0
100
AcDbPoint
 10
3596.156955993239
 20
2785.800457609002
 30
0.0
  0
POINT
  5
84E4
330
84DB
100
AcDbEntity
  8
DEFPOINTS
 62
     0
100
AcDbPoint
 10
3596.156955993239
 20
2890.800457609002
 30
0.0
  0
POINT
  5
84E5
330
84DB
100
AcDbEntity
  8
DEFPOINTS
 62
     0
100
AcDbPoint
 10
4422.790357081431
 20
2890.800457609002
 30
0.0
  0
ENDBLK
  5
84DD
330
84DB
100
AcDbEntity
  8
0
100
AcDbBlockEnd
  0
BLOCK
  5
84E7
330
84E6
100
AcDbEntity
  8
0
100
AcDbBlockBegin
  2
*D30
 70
     1
 10
0.0
 20
0.0
 30
0.0
  3
*D30
  1

  0
LINE
  5
84E9
330
84E6
100
AcDbEntity
  8
3
 62
     0
370
    -2
100
AcDbLine
 10
3598.656955993238
 20
2720.800457609002
 30
0.0
 11
4741.035297657395
 21
2720.800457609002
 31
0.0
  0
LINE
  5
84EA
330
84E6
100
AcDbEntity
  8
3
 62
     0
370
    -2
100
AcDbLine
 10
2777.656955993237
 20
5217.800457609002
 30
0.0
 11
4741.035297657395
 21
5217.800457609002
 31
0.0
  0
LINE
  5
84EB
330
84E6
100
AcDbEntity
  8
3
 62
     0
370
    -2
100
AcDbLine
 10
4733.835297657395
 20
2728.000457609002
 30
0.0
 11
4733.835297657395
 21
3960.214743323288
 31
0.0
  0
LINE
  5
84EC
330
84E6
100
AcDbEntity
  8
3
 62
     0
370
    -2
100
AcDbLine
 10
4733.835297657395
 20
5210.600457609003
 30
0.0
 11
4733.835297657395
 21
3978.386171894717
 31
0.0
  0
SOLID
  5
84ED
330
84E6
100
AcDbEntity
  8
3
 62
     0
100
AcDbTrace
 10
4732.635297657394
 20
2728.000457609002
 30
0.0
 11
4735.035297657395
 21
2728.000457609002
 31
0.0
 12
4733.835297657395
 22
2720.800457609002
 32
0.0
 13
4733.835297657395
 23
2720.800457609002
 33
0.0
  0
SOLID
  5
84EE
330
84E6
100
AcDbEntity
  8
3
 62
     0
100
AcDbTrace
 10
4732.635297657394
 20
5210.600457609003
 30
0.0
 11
4735.035297657395
 21
5210.600457609003
 31
0.0
 12
4733.835297657395
 22
5217.800457609002
 32
0.0
 13
4733.835297657395
 23
5217.800457609002
 33
0.0
  0
MTEXT
  5
84EF
330
84E6
100
AcDbEntity
  8
3
 62
     0
100
AcDbMText
 10
4733.835297657394
 20
3969.300457609003
 30
0.0
 40
7.199999999999999
 41
0.0
 71
     5
 72
     1
  1
\A1;(2497)
 73
     1
 44
1.0
1001
ACAD
1000
MTEXTBEGIN
1070
    73
1070
     1
1070
    44
1040
1.0
1070
    74
1070
     0
1000
MTEXTEND
  0
POINT
  5
84F0
330
84E6
100
AcDbEntity
  8
DEFPOINTS
 62
     0
100
AcDbPoint
 10
3596.156955993239
 20
2720.800457609002
 30
0.0
  0
POINT
  5
84F1
330
84E6
100
AcDbEntity
  8
DEFPOINTS
 62
     0
100
AcDbPoint
 10
2775.156955993237
 20
5217.800457609002
 30
0.0
  0
POINT
  5
84F2
330
84E6
100
AcDbEntity
  8
DEFPOINTS
 62
     0
100
AcDbPoint
 10
4733.835297657395
 20
5217.800457609002
 30
0.0
  0
ENDBLK
  5
84E8
330
84E6
100
AcDbEntity
  8
0
100
AcDbBlockEnd
  0
BLOCK
  5
84F4
330
84F3
100
AcDbEntity
  8
0
100
AcDbBlockBegin
  2
*D31
 70
     1
 10
0.0
 20
0.0
 30
0.0
  3
*D31
  1

  0
LINE
  5
84F6
330
84F3
100
AcDbEntity
  8
3
 62
     0
370
    -2
100
AcDbLine
 10
1146.156955993237
 20
2718.300457609002
 30
0.0
 11
1146.156955993237
 21
2441.990241232679
 31
0.0
  0
LINE
  5
84F7
330
84F3
100
AcDbEntity
  8
3
 62
     0
370
    -2
100
AcDbLine
 10
2846.156955993239
 20
2718.300457609002
 30
0.0
 11
2846.156955993239
 21
2441.990241232679
 31
0.0
  0
LINE
  5
84F8
330
84F3
100
AcDbEntity
  8
3
 62
     0
370
    -2
100
AcDbLine
 10
1153.356955993237
 20
2449.190241232678
 30
0.0
 11
1980.556955993238
 21
2449.190241232678
 31
0.0
  0
LINE
  5
84F9
330
84F3
100
AcDbEntity
  8
3
 62
     0
370
    -2
100
AcDbLine
 10
2838.956955993239
 20
2449.190241232678
 30
0.0
 11
2011.756955993238
 21
2449.190241232678
 31
0.0
  0
SOLID
  5
84FA
330
84F3
100
AcDbEntity
  8
3
 62
     0
100
AcDbTrace
 10
1153.356955993237
 20
2450.390241232678
 30
0.0
 11
1153.356955993237
 21
2447.990241232679
 31
0.0
 12
1146.156955993237
 22
2449.190241232678
 32
0.0
 13
1146.156955993237
 23
2449.190241232678
 33
0.0
  0
SOLID
  5
84FB
330
84F3
100
AcDbEntity
  8
3
 62
     0
100
AcDbTrace
 10
2838.956955993239
 20
2450.390241232678
 30
0.0
 11
2838.956955993239
 21
2447.990241232679
 31
0.0
 12
2846.156955993239
 22
2449.190241232678
 32
0.0
 13
2846.156955993239
 23
2449.190241232678
 33
0.0
  0
MTEXT
  5
84FC
330
84F3
100
AcDbEntity
  8
3
 62
     0
100
AcDbMText
 10
1996.156955993238
 20
2449.190241232678
 30
0.0
 40
7.199999999999999
 41
0.0
 71
     5
 72
     1
  1
\A1;1700
 73
     1
 44
1.0
1001
ACAD
1000
MTEXTBEGIN
1070
    73
1070
     1
1070
    44
1040
1.0
1070
    74
1070
     0
1000
MTEXTEND
  0
POINT
  5
84FD
330
84F3
100
AcDbEntity
  8
DEFPOINTS
 62
     0
100
AcDbPoint
 10
1146.156955993237
 20
2720.800457609002
 30
0.0
  0
POINT
  5
84FE
330
84F3
100
AcDbEntity
  8
DEFPOINTS
 62
     0
100
AcDbPoint
 10
2846.156955993239
 20
2720.800457609002
 30
0.0
  0
POINT
  5
84FF
330
84F3
100
AcDbEntity
  8
DEFPOINTS
 62
     0
100
AcDbPoint
 10
2846.156955993239
 20
2449.190241232678
 30
0.0
  0
ENDBLK
  5
84F5
330
84F3
100
AcDbEntity
  8
0
100
AcDbBlockEnd
  0
BLOCK
  5
8501
330
8500
100
AcDbEntity
  8
0
100
AcDbBlockBegin
  2
*D32
 70
     1
 10
0.0
 20
0.0
 30
0.0
  3
*D32
  1

  0
LINE
  5
8503
330
8500
100
AcDbEntity
  8
3
 62
     0
370
    -2
100
AcDbLine
 10
2846.156955993239
 20
2718.300457609002
 30
0.0
 11
2846.156955993239
 21
2441.990241232679
 31
0.0
  0
LINE
  5
8504
330
8500
100
AcDbEntity
  8
3
 62
     0
370
    -2
100
AcDbLine
 10
3596.156955993239
 20
2718.300457609002
 30
0.0
 11
3596.156955993239
 21
2441.990241232679
 31
0.0
  0
LINE
  5
8505
330
8500
100
AcDbEntity
  8
3
 62
     0
370
    -2
100
AcDbLine
 10
2853.356955993239
 20
2449.190241232678
 30
0.0
 11
3208.299813136096
 21
2449.190241232678
 31
0.0
  0
LINE
  5
8506
330
8500
100
AcDbEntity
  8
3
 62
     0
370
    -2
100
AcDbLine
 10
3588.956955993239
 20
2449.190241232678
 30
0.0
 11
3234.014098850381
 21
2449.190241232678
 31
0.0
  0
SOLID
  5
8507
330
8500
100
AcDbEntity
  8
3
 62
     0
100
AcDbTrace
 10
2853.356955993239
 20
2450.390241232678
 30
0.0
 11
2853.356955993239
 21
2447.990241232679
 31
0.0
 12
2846.156955993239
 22
2449.190241232678
 32
0.0
 13
2846.156955993239
 23
2449.190241232678
 33
0.0
  0
SOLID
  5
8508
330
8500
100
AcDbEntity
  8
3
 62
     0
100
AcDbTrace
 10
3588.956955993239
 20
2450.390241232678
 30
0.0
 11
3588.956955993239
 21
2447.990241232679
 31
0.0
 12
3596.156955993239
 22
2449.190241232678
 32
0.0
 13
3596.156955993239
 23
2449.190241232678
 33
0.0
  0
MTEXT
  5
8509
330
8500
100
AcDbEntity
  8
3
 62
     0
100
AcDbMText
 10
3221.156955993239
 20
2449.190241232678
 30
0.0
 40
7.199999999999999
 41
0.0
 71
     5
 72
     1
  1
\A1;750
 73
     1
 44
1.0
1001
ACAD
1000
MTEXTBEGIN
1070
    73
1070
     1
1070
    44
1040
1.0
1070
    74
1070
     0
1000
MTEXTEND
  0
POINT
  5
850A
330
8500
100
AcDbEntity
  8
DEFPOINTS
 62
     0
100
AcDbPoint
 10
2846.156955993239
 20
2720.800457609002
 30
0.0
  0
POINT
  5
850B
330
8500
100
AcDbEntity
  8
DEFPOINTS
 62
     0
100
AcDbPoint
 10
3596.156955993239
 20
2720.800457609002
 30
0.0
  0
POINT
  5
850C
330
8500
100
AcDbEntity
  8
DEFPOINTS
 62
     0
100
AcDbPoint
 10
3596.156955993239
 20
2449.190241232678
 30
0.0
  0
ENDBLK
  5
8502
330
8500
100
AcDbEntity
  8
0
100
AcDbBlockEnd
  0
BLOCK
  5
850E
330
850D
100
AcDbEntity
  8
0
100
AcDbBlockBegin
  2
*D33
 70
     1
 10
0.0
 20
0.0
 30
0.0
  3
*D33
  1

  0
LINE
  5
8510
330
850D
100
AcDbEntity
  8
3
 62
     0
370
    -2
100
AcDbLine
 10
5039.092839011054
 20
2718.300457609002
 30
0.0
 11
5039.092839011054
 21
2441.990241232679
 31
0.0
  0
LINE
  5
8511
330
850D
100
AcDbEntity
  8
3
 62
     0
370
    -2
100
AcDbLine
 10
6241.092839011049
 20
2718.300457609002
 30
0.0
 11
6241.092839011049
 21
2441.990241232679
 31
0.0
  0
LINE
  5
8512
330
850D
100
AcDbEntity
  8
3
 62
     0
370
    -2
100
AcDbLine
 10
5046.292839011054
 20
2449.190241232678
 30
0.0
 11
5624.49283901105
 21
2449.190241232678
 31
0.0
  0
LINE
  5
8513
330
850D
100
AcDbEntity
  8
3
 62
     0
370
    -2
100
AcDbLine
 10
6233.892839011049
 20
2449.190241232678
 30
0.0
 11
5655.692839011051
 21
2449.190241232678
 31
0.0
  0
SOLID
  5
8514
330
850D
100
AcDbEntity
  8
3
 62
     0
100
AcDbTrace
 10
5046.292839011054
 20
2450.390241232678
 30
0.0
 11
5046.292839011054
 21
2447.990241232679
 31
0.0
 12
5039.092839011054
 22
2449.190241232678
 32
0.0
 13
5039.092839011054
 23
2449.190241232678
 33
0.0
  0
SOLID
  5
8515
330
850D
100
AcDbEntity
  8
3
 62
     0
100
AcDbTrace
 10
6233.892839011049
 20
2450.390241232678
 30
0.0
 11
6233.892839011049
 21
2447.990241232679
 31
0.0
 12
6241.092839011049
 22
2449.190241232678
 32
0.0
 13
6241.092839011049
 23
2449.190241232678
 33
0.0
  0
MTEXT
  5
8516
330
850D
100
AcDbEntity
  8
3
 62
     0
100
AcDbMText
 10
5640.092839011051
 20
2449.190241232678
 30
0.0
 40
7.199999999999999
 41
0.0
 71
     5
 72
     1
  1
\A1;1202
 73
     1
 44
1.0
1001
ACAD
1000
MTEXTBEGIN
1070
    73
1070
     1
1070
    44
1040
1.0
1070
    74
1070
     0
1000
MTEXTEND
  0
POINT
  5
8517
330
850D
100
AcDbEntity
  8
DEFPOINTS
 62
     0
100
AcDbPoint
 10
5039.092839011054
 20
2720.800457609002
 30
0.0
  0
POINT
  5
8518
330
850D
100
AcDbEntity
  8
DEFPOINTS
 62
     0
100
AcDbPoint
 10
6241.092839011049
 20
2720.800457609002
 30
0.0
  0
POINT
  5
8519
330
850D
100
AcDbEntity
  8
DEFPOINTS
 62
     0
100
AcDbPoint
 10
6241.092839011049
 20
2449.190241232678
 30
0.0
  0
ENDBLK
  5
850F
330
850D
100
AcDbEntity
  8
0
100
AcDbBlockEnd
  0
BLOCK
  5
851B
330
851A
100
AcDbEntity
  8
0
100
AcDbBlockBegin
  2
*D34
 70
     1
 10
0.0
 20
0.0
 30
0.0
  3
*D34
  1

  0
LINE
  5
851D
330
851A
100
AcDbEntity
  8
3
 62
     0
370
    -2
100
AcDbLine
 10
6241.092839011049
 20
2718.300457609002
 30
0.0
 11
6241.092839011049
 21
2441.990241232679
 31
0.0
  0
LINE
  5
851E
330
851A
100
AcDbEntity
  8
3
 62
     0
370
    -2
100
AcDbLine
 10
7159.092839011053
 20
2718.300457609002
 30
0.0
 11
7159.092839011053
 21
2441.990241232679
 31
0.0
  0
LINE
  5
851F
330
851A
100
AcDbEntity
  8
3
 62
     0
370
    -2
100
AcDbLine
 10
6248.29283901105
 20
2449.190241232678
 30
0.0
 11
6687.921410439622
 21
2449.190241232678
 31
0.0
  0
LINE
  5
8520
330
851A
100
AcDbEntity
  8
3
 62
     0
370
    -2
100
AcDbLine
 10
7151.892839011054
 20
2449.190241232678
 30
0.0
 11
6712.26426758248
 21
2449.190241232678
 31
0.0
  0
SOLID
  5
8521
330
851A
100
AcDbEntity
  8
3
 62
     0
100
AcDbTrace
 10
6248.29283901105
 20
2450.390241232678
 30
0.0
 11
6248.29283901105
 21
2447.990241232679
 31
0.0
 12
6241.092839011049
 22
2449.190241232678
 32
0.0
 13
6241.092839011049
 23
2449.190241232678
 33
0.0
  0
SOLID
  5
8522
330
851A
100
AcDbEntity
  8
3
 62
     0
100
AcDbTrace
 10
7151.892839011054
 20
2450.390241232678
 30
0.0
 11
7151.892839011054
 21
2447.990241232679
 31
0.0
 12
7159.092839011053
 22
2449.190241232678
 32
0.0
 13
7159.092839011053
 23
2449.190241232678
 33
0.0
  0
MTEXT
  5
8523
330
851A
100
AcDbEntity
  8
3
 62
     0
100
AcDbMText
 10
6700.092839011052
 20
2449.190241232678
 30
0.0
 40
7.199999999999999
 41
0.0
 71
     5
 72
     1
  1
\A1;918
 73
     1
 44
1.0
1001
ACAD
1000
MTEXTBEGIN
1070
    73
1070
     1
1070
    44
1040
1.0
1070
    74
1070
     0
1000
MTEXTEND
  0
POINT
  5
8524
330
851A
100
AcDbEntity
  8
DEFPOINTS
 62
     0
100
AcDbPoint
 10
6241.092839011049
 20
2720.800457609002
 30
0.0
  0
POINT
  5
8525
330
851A
100
AcDbEntity
  8
DEFPOINTS
 62
     0
100
AcDbPoint
 10
7159.092839011053
 20
2720.800457609002
 30
0.0
  0
POINT
  5
8526
330
851A
100
AcDbEntity
  8
DEFPOINTS
 62
     0
100
AcDbPoint
 10
7159.092839011053
 20
2449.190241232678
 30
0.0
  0
ENDBLK
  5
851C
330
851A
100
AcDbEntity
  8
0
100
AcDbBlockEnd
  0
BLOCK
  5
8528
330
8527
100
AcDbEntity
  8
0
100
AcDbBlockBegin
  2
*D35
 70
     1
 10
0.0
 20
0.0
 30
0.0
  3
*D35
  1

  0
LINE
  5
852A
330
8527
100
AcDbEntity
  8
3
 62
     0
370
    -2
100
AcDbLine
 10
3598.656955993238
 20
2785.800457609002
 30
0.0
 11
4429.546544791296
 21
2785.800457609002
 31
0.0
  0
LINE
  5
852B
330
8527
100
AcDbEntity
  8
3
 62
     0
370
    -2
100
AcDbLine
 10
3598.656955993238
 20
2720.800457609002
 30
0.0
 11
4429.546544791296
 21
2720.800457609002
 31
0.0
  0
LINE
  5
852C
330
8527
100
AcDbEntity
  8
3
 62
     0
370
    -2
100
AcDbLine
 10
4422.346544791297
 20
2778.600457609002
 30
0.0
 11
4422.346544791297
 21
2760.500457609002
 31
0.0
  0
LINE
  5
852D
330
8527
100
AcDbEntity
  8
3
 62
     0
370
    -2
100
AcDbLine
 10
4422.346544791297
 20
2728.000457609002
 30
0.0
 11
4422.346544791297
 21
2746.100457609002
 31
0.0
  0
SOLID
  5
852E
330
8527
100
AcDbEntity
  8
3
 62
     0
100
AcDbTrace
 10
4421.146544791297
 20
2778.600457609002
 30
0.0
 11
4423.546544791296
 21
2778.600457609002
 31
0.0
 12
4422.346544791297
 22
2785.800457609002
 32
0.0
 13
4422.346544791297
 23
2785.800457609002
 33
0.0
  0
SOLID
  5
852F
330
8527
100
AcDbEntity
  8
3
 62
     0
100
AcDbTrace
 10
4421.146544791297
 20
2728.000457609002
 30
0.0
 11
4423.546544791296
 21
2728.000457609002
 31
0.0
 12
4422.346544791297
 22
2720.800457609002
 32
0.0
 13
4422.346544791297
 23
2720.800457609002
 33
0.0
  0
MTEXT
  5
8530
330
8527
100
AcDbEntity
  8
3
 62
     0
100
AcDbMText
 10
4422.346544791295
 20
2753.300457609002
 30
0.0
 40
7.199999999999999
 41
0.0
 71
     5
 72
     1
  1
\A1;65
 73
     1
 44
1.0
1001
ACAD
1000
MTEXTBEGIN
1070
    73
1070
     1
1070
    44
1040
1.0
1070
    74
1070
     0
1000
MTEXTEND
  0
POINT
  5
8531
330
8527
100
AcDbEntity
  8
DEFPOINTS
 62
     0
100
AcDbPoint
 10
3596.156955993239
 20
2785.800457609002
 30
0.0
  0
POINT
  5
8532
330
8527
100
AcDbEntity
  8
DEFPOINTS
 62
     0
100
AcDbPoint
 10
3596.156955993239
 20
2720.800457609002
 30
0.0
  0
POINT
  5
8533
330
8527
100
AcDbEntity
  8
DEFPOINTS
 62
     0
100
AcDbPoint
 10
4422.346544791297
 20
2720.800457609002
 30
0.0
  0
ENDBLK
  5
8529
330
8527
100
AcDbEntity
  8
0
100
AcDbBlockEnd
  0
BLOCK
  5
8536
330
8535
100
AcDbEntity
  8
0
100
AcDbBlockBegin
  2
*D36
 70
     1
 10
0.0
 20
0.0
 30
0.0
  3
*D36
  1

  0
LINE
  5
85C0
330
8535
100
AcDbEntity
  8
3
 62
     0
370
    -2
100
AcDbLine
 10
4961.092839011053
 20
4720.800457609002
 30
0.0
 11
4961.092839011053
 21
5854.809703434625
 31
0.0
  0
LINE
  5
85C1
330
8535
100
AcDbEntity
  8
3
 62
     0
370
    -2
100
AcDbLine
 10
6241.092839011054
 20
5670.120671915637
 30
0.0
 11
6241.092839011054
 21
5854.809703434625
 31
0.0
  0
LINE
  5
85C2
330
8535
100
AcDbEntity
  8
3
 62
     0
370
    -2
100
AcDbLine
 10
5041.092839011053
 20
5814.809703434626
 30
0.0
 11
6161.092839011054
 21
5814.809703434626
 31
0.0
  0
INSERT
  5
85C3
330
8535
100
AcDbEntity
  8
3
 62
     0
370
    -2
100
AcDbBlockReference
  2
_OPEN
 10
4961.092839011053
 20
5814.809703434626
 30
0.0
 41
80.0
 42
80.0
 43
80.0
 50
180.0
  0
INSERT
  5
85C4
330
8535
100
AcDbEntity
  8
3
 62
     0
370
    -2
100
AcDbBlockReference
  2
_OPEN
 10
6241.092839011054
 20
5814.809703434626
 30
0.0
 41
80.0
 42
80.0
 43
80.0
  0
MTEXT
  5
85C5
330
8535
100
AcDbEntity
  8
3
 62
     0
100
AcDbMText
 10
5601.092839011053
 20
5946.238274863198
 30
0.0
 40
120.0
 41
0.0
 71
     5
 72
     1
  1
\A1;(1280)
 73
     1
 44
1.0
1001
ACAD
1000
MTEXTBEGIN
1070
    73
1070
     1
1070
    44
1040
1.0
1070
    74
1070
     0
1000
MTEXTEND
  0
POINT
  5
85C6
330
8535
100
AcDbEntity
  8
DEFPOINTS
 62
     0
100
AcDbPoint
 10
4961.092839011053
 20
4700.800457609002
 30
0.0
  0
POINT
  5
85C7
330
8535
100
AcDbEntity
  8
DEFPOINTS
 62
     0
100
AcDbPoint
 10
6241.092839011054
 20
5650.120671915637
 30
0.0
  0
POINT
  5
85C8
330
8535
100
AcDbEntity
  8
DEFPOINTS
 62
     0
100
AcDbPoint
 10
6241.092839011054
 20
5814.809703434626
 30
0.0
  0
ENDBLK
  5
8537
330
8535
100
AcDbEntity
  8
0
100
AcDbBlockEnd
  0
BLOCK
  5
8543
330
8542
100
AcDbEntity
  8
0
100
AcDbBlockBegin
  2
*D37
 70
     1
 10
0.0
 20
0.0
 30
0.0
  3
*D37
  1

  0
LINE
  5
85B7
330
8542
100
AcDbEntity
  8
3
 62
     0
370
    -2
100
AcDbLine
 10
6241.092839011054
 20
5670.120671915637
 30
0.0
 11
6241.092839011054
 21
5854.809703434625
 31
0.0
  0
LINE
  5
85B8
330
8542
100
AcDbEntity
  8
3
 62
     0
370
    -2
100
AcDbLine
 10
7261.092839011054
 20
4264.800457609001
 30
0.0
 11
7261.092839011054
 21
5854.809703434625
 31
0.0
  0
LINE
  5
85B9
330
8542
100
AcDbEntity
  8
3
 62
     0
370
    -2
100
AcDbLine
 10
6321.092839011054
 20
5814.809703434626
 30
0.0
 11
7181.092839011054
 21
5814.809703434626
 31
0.0
  0
INSERT
  5
85BA
330
8542
100
AcDbEntity
  8
3
 62
     0
370
    -2
100
AcDbBlockReference
  2
_OPEN
 10
6241.092839011054
 20
5814.809703434626
 30
0.0
 41
80.0
 42
80.0
 43
80.0
 50
180.0
  0
INSERT
  5
85BB
330
8542
100
AcDbEntity
  8
3
 62
     0
370
    -2
100
AcDbBlockReference
  2
_OPEN
 10
7261.092839011054
 20
5814.809703434626
 30
0.0
 41
80.0
 42
80.0
 43
80.0
  0
MTEXT
  5
85BC
330
8542
100
AcDbEntity
  8
3
 62
     0
100
AcDbMText
 10
6751.092839011054
 20
5946.238274863198
 30
0.0
 40
120.0
 41
0.0
 71
     5
 72
     1
  1
\A1;(1020)
 73
     1
 44
1.0
1001
ACAD
1000
MTEXTBEGIN
1070
    73
1070
     1
1070
    44
1040
1.0
1070
    74
1070
     0
1000
MTEXTEND
  0
POINT
  5
85BD
330
8542
100
AcDbEntity
  8
DEFPOINTS
 62
     0
100
AcDbPoint
 10
6241.092839011054
 20
5650.120671915637
 30
0.0
  0
POINT
  5
85BE
330
8542
100
AcDbEntity
  8
DEFPOINTS
 62
     0
100
AcDbPoint
 10
7261.092839011054
 20
4244.800457609001
 30
0.0
  0
POINT
  5
85BF
330
8542
100
AcDbEntity
  8
DEFPOINTS
 62
     0
100
AcDbPoint
 10
7261.092839011054
 20
5814.809703434626
 30
0.0
  0
ENDBLK
  5
8544
330
8542
100
AcDbEntity
  8
0
100
AcDbBlockEnd
  0
BLOCK
  5
8550
330
854F
100
AcDbEntity
  8
0
100
AcDbBlockBegin
  2
*D38
 70
     1
 10
0.0
 20
0.0
 30
0.0
  3
*D38
  1

  0
LINE
  5
8552
330
854F
100
AcDbEntity
  8
3
 62
     0
370
    -2
100
AcDbLine
 10
5391.092839011054
 20
5237.800457609003
 30
0.0
 11
5391.092839011054
 21
5530.120671915637
 31
0.0
  0
LINE
  5
8553
330
854F
100
AcDbEntity
  8
3
 62
     0
370
    -2
100
AcDbLine
 10
7091.092839011054
 20
5237.800457609003
 30
0.0
 11
7091.092839011054
 21
5530.120671915637
 31
0.0
  0
LINE
  5
8554
330
854F
100
AcDbEntity
  8
3
 62
     0
370
    -2
100
AcDbLine
 10
5471.092839011054
 20
5490.120671915637
 30
0.0
 11
7011.092839011054
 21
5490.120671915637
 31
0.0
  0
INSERT
  5
8555
330
854F
100
AcDbEntity
  8
3
 62
     0
370
    -2
100
AcDbBlockReference
  2
_OPEN
 10
5391.092839011054
 20
5490.120671915637
 30
0.0
 41
80.0
 42
80.0
 43
80.0
 50
180.0
  0
INSERT
  5
8556
330
854F
100
AcDbEntity
  8
3
 62
     0
370
    -2
100
AcDbBlockReference
  2
_OPEN
 10
7091.092839011054
 20
5490.120671915637
 30
0.0
 41
80.0
 42
80.0
 43
80.0
  0
MTEXT
  5
8557
330
854F
100
AcDbEntity
  8
3
 62
     0
100
AcDbMText
 10
6241.092839011054
 20
5590.120671915637
 30
0.0
 40
120.0
 41
0.0
 71
     5
 72
     1
  1
\A1;1700
 73
     1
 44
1.0
1001
ACAD
1000
MTEXTBEGIN
1070
    73
1070
     1
1070
    44
1040
1.0
1070
    74
1070
     0
1000
MTEXTEND
  0
POINT
  5
8558
330
854F
100
AcDbEntity
  8
DEFPOINTS
 62
     0
100
AcDbPoint
 10
5391.092839011054
 20
5217.800457609002
 30
0.0
  0
POINT
  5
8559
330
854F
100
AcDbEntity
  8
DEFPOINTS
 62
     0
100
AcDbPoint
 10
7091.092839011054
 20
5217.800457609002
 30
0.0
  0
POINT
  5
855A
330
854F
100
AcDbEntity
  8
DEFPOINTS
 62
     0
100
AcDbPoint
 10
7091.092839011054
 20
5490.120671915637
 30
0.0
  0
ENDBLK
  5
8551
330
854F
100
AcDbEntity
  8
0
100
AcDbBlockEnd
  0
BLOCK
  5
8561
330
8560
100
AcDbEntity
  8
0
100
AcDbBlockBegin
  2
*D39
 70
     1
 10
0.0
 20
0.0
 30
0.0
  3
*D39
  1

  0
LINE
  5
858A
330
8560
100
AcDbEntity
  8
3
 62
     0
370
    -2
100
AcDbLine
 10
7111.092839011054
 20
4945.800457609002
 30
0.0
 11
7574.26434175711
 21
4945.800457609002
 31
0.0
  0
LINE
  5
858B
330
8560
100
AcDbEntity
  8
3
 62
     0
370
    -2
100
AcDbLine
 10
7111.092839011054
 20
3695.800457609002
 30
0.0
 11
7574.26434175711
 21
3695.800457609001
 31
0.0
  0
LINE
  5
858C
330
8560
100
AcDbEntity
  8
3
 62
     0
370
    -2
100
AcDbLine
 10
7534.264341757111
 20
4865.800457609001
 30
0.0
 11
7534.264341757111
 21
3775.800457609001
 31
0.0
  0
INSERT
  5
858D
330
8560
100
AcDbEntity
  8
3
 62
     0
370
    -2
100
AcDbBlockReference
  2
_OPEN
 10
7534.264341757111
 20
4945.800457609002
 30
0.0
 41
80.0
 42
80.0
 43
80.0
 50
90.0
  0
INSERT
  5
858E
330
8560
100
AcDbEntity
  8
3
 62
     0
370
    -2
100
AcDbBlockReference
  2
_OPEN
 10
7534.264341757111
 20
3695.800457609001
 30
0.0
 41
80.0
 42
80.0
 43
80.0
 50
270.0
  0
MTEXT
  5
858F
330
8560
100
AcDbEntity
  8
3
 62
     0
100
AcDbMText
 10
7434.26434175711
 20
4320.800457609002
 30
0.0
 40
120.0
 41
0.0
 71
     5
 72
     1
  1
\A1;\U+03C61250
 11
0.0000000000000001
 21
1.0
 31
0.0
 73
     1
 44
1.0
1001
ACAD
1000
MTEXTBEGIN
1070
    73
1070
     1
1070
    44
1040
1.0
1070
    74
1070
     0
1000
MTEXTEND
  0
POINT
  5
8590
330
8560
100
AcDbEntity
  8
DEFPOINTS
 62
     0
100
AcDbPoint
 10
7091.092839011054
 20
4945.800457609002
 30
0.0
  0
POINT
  5
8591
330
8560
100
AcDbEntity
  8
DEFPOINTS
 62
     0
100
AcDbPoint
 10
7091.092839011054
 20
3695.800457609002
 30
0.0
  0
POINT
  5
8592
330
8560
100
AcDbEntity
  8
DEFPOINTS
 62
     0
100
AcDbPoint
 10
7534.264341757111
 20
3695.800457609001
 30
0.0
  0
ENDBLK
  5
8562
330
8560
100
AcDbEntity
  8
0
100
AcDbBlockEnd
  0
BLOCK
  5
85CB
330
85CA
100
AcDbEntity
  8
0
100
AcDbBlockBegin
  2
*D40
 70
     1
 10
0.0
 20
0.0
 30
0.0
  3
*D40
  1

  0
LINE
  5
85CD
330
85CA
100
AcDbEntity
  8
3
 62
     0
370
    -2
100
AcDbLine
 10
5039.092839011052
 20
2700.800457609002
 30
0.0
 11
5039.092839011052
 21
2460.720773306134
 31
0.0
  0
LINE
  5
85CE
330
85CA
100
AcDbEntity
  8
3
 62
     0
370
    -2
100
AcDbLine
 10
6241.092839011049
 20
2700.800457609002
 30
0.0
 11
6241.092839011049
 21
2460.720773306134
 31
0.0
  0
LINE
  5
85CF
330
85CA
100
AcDbEntity
  8
3
 62
     0
370
    -2
100
AcDbLine
 10
5119.092839011052
 20
2500.720773306133
 30
0.0
 11
6161.092839011049
 21
2500.720773306133
 31
0.0
  0
INSERT
  5
85D0
330
85CA
100
AcDbEntity
  8
3
 62
     0
370
    -2
100
AcDbBlockReference
  2
_OPEN
 10
5039.092839011052
 20
2500.720773306133
 30
0.0
 41
80.0
 42
80.0
 43
80.0
 50
180.0
  0
INSERT
  5
85D1
330
85CA
100
AcDbEntity
  8
3
 62
     0
370
    -2
100
AcDbBlockReference
  2
_OPEN
 10
6241.092839011049
 20
2500.720773306133
 30
0.0
 41
80.0
 42
80.0
 43
80.0
  0
MTEXT
  5
85D2
330
85CA
100
AcDbEntity
  8
3
 62
     0
100
AcDbMText
 10
5640.092839011051
 20
2600.720773306133
 30
0.0
 40
120.0
 41
0.0
 71
     5
 72
     1
  1
\A1;1202
 73
     1
 44
1.0
1001
ACAD
1000
MTEXTBEGIN
1070
    73
1070
     1
1070
    44
1040
1.0
1070
    74
1070
     0
1000
MTEXTEND
  0
POINT
  5
85D3
330
85CA
100
AcDbEntity
  8
DEFPOINTS
 62
     0
100
AcDbPoint
 10
5039.092839011052
 20
2720.800457609002
 30
0.0
  0
POINT
  5
85D4
330
85CA
100
AcDbEntity
  8
DEFPOINTS
 62
     0
100
AcDbPoint
 10
6241.092839011049
 20
2720.800457609002
 30
0.0
  0
POINT
  5
85D5
330
85CA
100
AcDbEntity
  8
DEFPOINTS
 62
     0
100
AcDbPoint
 10
6241.092839011049
 20
2500.720773306133
 30
0.0
  0
ENDBLK
  5
85CC
330
85CA
100
AcDbEntity
  8
0
100
AcDbBlockEnd
  0
BLOCK
  5
85D8
330
85D7
100
AcDbEntity
  8
0
100
AcDbBlockBegin
  2
*D41
 70
     1
 10
0.0
 20
0.0
 30
0.0
  3
*D41
  1

  0
LINE
  5
85DA
330
85D7
100
AcDbEntity
  8
3
 62
     0
370
    -2
100
AcDbLine
 10
6241.092839011049
 20
2700.800457609002
 30
0.0
 11
6241.092839011049
 21
2460.720773306134
 31
0.0
  0
LINE
  5
85DB
330
85D7
100
AcDbEntity
  8
3
 62
     0
370
    -2
100
AcDbLine
 10
7159.092839011053
 20
2700.800457609002
 30
0.0
 11
7159.092839011053
 21
2460.720773306134
 31
0.0
  0
LINE
  5
85DC
330
85D7
100
AcDbEntity
  8
3
 62
     0
370
    -2
100
AcDbLine
 10
6321.09283901105
 20
2500.720773306133
 30
0.0
 11
7079.092839011053
 21
2500.720773306133
 31
0.0
  0
INSERT
  5
85DD
330
85D7
100
AcDbEntity
  8
3
 62
     0
370
    -2
100
AcDbBlockReference
  2
_OPEN
 10
6241.092839011049
 20
2500.720773306133
 30
0.0
 41
80.0
 42
80.0
 43
80.0
 50
180.0
  0
INSERT
  5
85DE
330
85D7
100
AcDbEntity
  8
3
 62
     0
370
    -2
100
AcDbBlockReference
  2
_OPEN
 10
7159.092839011053
 20
2500.720773306133
 30
0.0
 41
80.0
 42
80.0
 43
80.0
  0
MTEXT
  5
85DF
330
85D7
100
AcDbEntity
  8
3
 62
     0
100
AcDbMText
 10
6700.092839011052
 20
2600.720773306133
 30
0.0
 40
120.0
 41
0.0
 71
     5
 72
     1
  1
\A1;918
 73
     1
 44
1.0
1001
ACAD
1000
MTEXTBEGIN
1070
    73
1070
     1
1070
    44
1040
1.0
1070
    74
1070
     0
1000
MTEXTEND
  0
POINT
  5
85E0
330
85D7
100
AcDbEntity
  8
DEFPOINTS
 62
     0
100
AcDbPoint
 10
6241.092839011049
 20
2720.800457609002
 30
0.0
  0
POINT
  5
85E1
330
85D7
100
AcDbEntity
  8
DEFPOINTS
 62
     0
100
AcDbPoint
 10
7159.092839011053
 20
2720.800457609002
 30
0.0
  0
POINT
  5
85E2
330
85D7
100
AcDbEntity
  8
DEFPOINTS
 62
     0
100
AcDbPoint
 10
7159.092839011053
 20
2500.720773306133
 30
0.0
  0
ENDBLK
  5
85D9
330
85D7
100
AcDbEntity
  8
0
100
AcDbBlockEnd
  0
BLOCK
  5
85E5
330
85E4
100
AcDbEntity
  8
0
100
AcDbBlockBegin
  2
*D42
 70
     1
 10
0.0
 20
0.0
 30
0.0
  3
*D42
  1

  0
LINE
  5
8631
330
85E4
100
AcDbEntity
  8
3
 62
     0
370
    -2
100
AcDbLine
 10
3841.984076714959
 20
7730.311612935842
 30
0.0
 11
5111.16530727112
 21
7730.311612935842
 31
0.0
  0
LINE
  5
8632
330
85E4
100
AcDbEntity
  8
3
 62
     0
370
    -2
100
AcDbLine
 10
3246.156955993237
 20
6450.311612935841
 30
0.0
 11
5111.16530727112
 21
6450.311612935841
 31
0.0
  0
LINE
  5
8633
330
85E4
100
AcDbEntity
  8
3
 62
     0
370
    -2
100
AcDbLine
 10
5071.16530727112
 20
7650.311612935841
 30
0.0
 11
5071.16530727112
 21
6530.311612935843
 31
0.0
  0
INSERT
  5
8634
330
85E4
100
AcDbEntity
  8
3
 62
     0
370
    -2
100
AcDbBlockReference
  2
_OPEN
 10
5071.16530727112
 20
7730.311612935842
 30
0.0
 41
80.0
 42
80.0
 43
80.0
 50
90.0
  0
INSERT
  5
8635
330
85E4
100
AcDbEntity
  8
3
 62
     0
370
    -2
100
AcDbBlockReference
  2
_OPEN
 10
5071.16530727112
 20
6450.311612935841
 30
0.0
 41
80.0
 42
80.0
 43
80.0
 50
270.0
  0
MTEXT
  5
8636
330
85E4
100
AcDbEntity
  8
3
 62
     0
100
AcDbMText
 10
4971.165307271117
 20
7090.311612935844
 30
0.0
 40
120.0
 41
0.0
 71
     5
 72
     1
  1
\A1;1280
 11
0.0000000000000001
 21
1.0
 31
0.0
 73
     1
 44
1.0
1001
ACAD
1000
MTEXTBEGIN
1070
    73
1070
     1
1070
    44
1040
1.0
1070
    74
1070
     0
1000
MTEXTEND
  0
POINT
  5
8637
330
85E4
100
AcDbEntity
  8
DEFPOINTS
 62
     0
100
AcDbPoint
 10
3821.984076714958
 20
7730.311612935842
 30
0.0
  0
POINT
  5
8638
330
85E4
100
AcDbEntity
  8
DEFPOINTS
 62
     0
100
AcDbPoint
 10
3226.156955993238
 20
6450.311612935841
 30
0.0
  0
POINT
  5
8639
330
85E4
100
AcDbEntity
  8
DEFPOINTS
 62
     0
100
AcDbPoint
 10
5071.16530727112
 20
6450.311612935841
 30
0.0
  0
ENDBLK
  5
85E6
330
85E4
100
AcDbEntity
  8
0
100
AcDbBlockEnd
  0
BLOCK
  5
85F2
330
85F1
100
AcDbEntity
  8
0
100
AcDbBlockBegin
  2
*D43
 70
     1
 10
0.0
 20
0.0
 30
0.0
  3
*D43
  1

  0
LINE
  5
85F4
330
85F1
100
AcDbEntity
  8
3
 62
     0
370
    -2
100
AcDbLine
 10
1126.156955993237
 20
7528.311612935842
 30
0.0
 11
839.8305548856594
 21
7528.311612935842
 31
0.0
  0
LINE
  5
85F5
330
85F1
100
AcDbEntity
  8
3
 62
     0
370
    -2
100
AcDbLine
 10
1126.156955993237
 20
6528.311612935842
 30
0.0
 11
839.830554885659
 21
6528.311612935842
 31
0.0
  0
LINE
  5
85F6
330
85F1
100
AcDbEntity
  8
3
 62
     0
370
    -2
100
AcDbLine
 10
879.8305548856593
 20
7448.311612935842
 30
0.0
 11
879.8305548856591
 21
6608.311612935843
 31
0.0
  0
INSERT
  5
85F7
330
85F1
100
AcDbEntity
  8
3
 62
     0
370
    -2
100
AcDbBlockReference
  2
_OPEN
 10
879.8305548856593
 20
7528.311612935842
 30
0.0
 41
80.0
 42
80.0
 43
80.0
 50
90.0
  0
INSERT
  5
85F8
330
85F1
100
AcDbEntity
  8
3
 62
     0
370
    -2
100
AcDbBlockReference
  2
_OPEN
 10
879.8305548856591
 20
6528.311612935842
 30
0.0
 41
80.0
 42
80.0
 43
80.0
 50
270.0
  0
MTEXT
  5
85F9
330
85F1
100
AcDbEntity
  8
3
 62
     0
100
AcDbMText
 10
779.8305548856581
 20
7028.311612935842
 30
0.0
 40
120.0
 41
0.0
 71
     5
 72
     1
  1
\A1;1000
 11
0.0000000000000001
 21
1.0
 31
0.0
 73
     1
 44
1.0
1001
ACAD
1000
MTEXTBEGIN
1070
    73
1070
     1
1070
    44
1040
1.0
1070
    74
1070
     0
1000
MTEXTEND
  0
POINT
  5
85FA
330
85F1
100
AcDbEntity
  8
DEFPOINTS
 62
     0
100
AcDbPoint
 10
1146.156955993237
 20
7528.311612935842
 30
0.0
  0
POINT
  5
85FB
330
85F1
100
AcDbEntity
  8
DEFPOINTS
 62
     0
100
AcDbPoint
 10
1146.156955993237
 20
6528.311612935842
 30
0.0
  0
POINT
  5
85FC
330
85F1
100
AcDbEntity
  8
DEFPOINTS
 62
     0
100
AcDbPoint
 10
879.8305548856591
 20
6528.311612935842
 30
0.0
  0
ENDBLK
  5
85F3
330
85F1
100
AcDbEntity
  8
0
100
AcDbBlockEnd
  0
BLOCK
  5
85FF
330
85FE
100
AcDbEntity
  8
0
100
AcDbBlockBegin
  2
*D44
 70
     1
 10
0.0
 20
0.0
 30
0.0
  3
*D44
  1

  0
LINE
  5
8601
330
85FE
100
AcDbEntity
  8
3
 62
     0
370
    -2
100
AcDbLine
 10
1146.156955993237
 20
6508.311612935838
 30
0.0
 11
1146.156955993237
 21
6123.557734746188
 31
0.0
  0
LINE
  5
8602
330
85FE
100
AcDbEntity
  8
3
 62
     0
370
    -2
100
AcDbLine
 10
3596.156955993239
 20
6508.311612935838
 30
0.0
 11
3596.156955993239
 21
6123.557734746188
 31
0.0
  0
LINE
  5
8603
330
85FE
100
AcDbEntity
  8
3
 62
     0
370
    -2
100
AcDbLine
 10
1226.156955993237
 20
6163.557734746188
 30
0.0
 11
3516.156955993239
 21
6163.557734746188
 31
0.0
  0
INSERT
  5
8604
330
85FE
100
AcDbEntity
  8
3
 62
     0
370
    -2
100
AcDbBlockReference
  2
_OPEN
 10
1146.156955993237
 20
6163.557734746188
 30
0.0
 41
80.0
 42
80.0
 43
80.0
 50
180.0
  0
INSERT
  5
8605
330
85FE
100
AcDbEntity
  8
3
 62
     0
370
    -2
100
AcDbBlockReference
  2
_OPEN
 10
3596.156955993239
 20
6163.557734746188
 30
0.0
 41
80.0
 42
80.0
 43
80.0
  0
MTEXT
  5
8606
330
85FE
100
AcDbEntity
  8
3
 62
     0
100
AcDbMText
 10
2371.156955993238
 20
6263.557734746187
 30
0.0
 40
120.0
 41
0.0
 71
     5
 72
     1
  1
\A1;2450
 73
     1
 44
1.0
1001
ACAD
1000
MTEXTBEGIN
1070
    73
1070
     1
1070
    44
1040
1.0
1070
    74
1070
     0
1000
MTEXTEND
  0
POINT
  5
8607
330
85FE
100
AcDbEntity
  8
DEFPOINTS
 62
     0
100
AcDbPoint
 10
1146.156955993237
 20
6528.311612935839
 30
0.0
  0
POINT
  5
8608
330
85FE
100
AcDbEntity
  8
DEFPOINTS
 62
     0
100
AcDbPoint
 10
3596.156955993239
 20
6528.311612935839
 30
0.0
  0
POINT
  5
8609
330
85FE
100
AcDbEntity
  8
DEFPOINTS
 62
     0
100
AcDbPoint
 10
3596.156955993239
 20
6163.557734746188
 30
0.0
  0
ENDBLK
  5
8600
330
85FE
100
AcDbEntity
  8
0
100
AcDbBlockEnd
  0
BLOCK
  5
860C
330
860B
100
AcDbEntity
  8
0
100
AcDbBlockBegin
  2
*D45
 70
     1
 10
0.0
 20
0.0
 30
0.0
  3
*D45
  1

  0
LINE
  5
860E
330
860B
100
AcDbEntity
  8
3
 62
     0
370
    -2
100
AcDbLine
 10
3616.156955993239
 20
6528.311612935839
 30
0.0
 11
4085.173097229072
 21
6528.311612935839
 31
0.0
  0
LINE
  5
860F
330
860B
100
AcDbEntity
  8
3
 62
     0
370
    -2
100
AcDbLine
 10
3616.156955993239
 20
8648.31161293584
 30
0.0
 11
4085.173097229072
 21
8648.31161293584
 31
0.0
  0
LINE
  5
8610
330
860B
100
AcDbEntity
  8
3
 62
     0
370
    -2
100
AcDbLine
 10
4045.173097229072
 20
6608.311612935839
 30
0.0
 11
4045.173097229072
 21
8568.311612935842
 31
0.0
  0
INSERT
  5
8611
330
860B
100
AcDbEntity
  8
3
 62
     0
370
    -2
100
AcDbBlockReference
  2
_OPEN
 10
4045.173097229072
 20
6528.311612935839
 30
0.0
 41
80.0
 42
80.0
 43
80.0
 50
270.0
  0
INSERT
  5
8612
330
860B
100
AcDbEntity
  8
3
 62
     0
370
    -2
100
AcDbBlockReference
  2
_OPEN
 10
4045.173097229072
 20
8648.31161293584
 30
0.0
 41
80.0
 42
80.0
 43
80.0
 50
90.0
  0
MTEXT
  5
8613
330
860B
100
AcDbEntity
  8
3
 62
     0
100
AcDbMText
 10
3945.173097229071
 20
7588.311612935841
 30
0.0
 40
120.0
 41
0.0
 71
     5
 72
     1
  1
\A1;2120
 11
0.0000000000000001
 21
1.0
 31
0.0
 73
     1
 44
1.0
1001
ACAD
1000
MTEXTBEGIN
1070
    73
1070
     1
1070
    44
1040
1.0
1070
    74
1070
     0
1000
MTEXTEND
  0
POINT
  5
8614
330
860B
100
AcDbEntity
  8
DEFPOINTS
 62
     0
100
AcDbPoint
 10
3596.156955993239
 20
6528.311612935839
 30
0.0
  0
POINT
  5
8615
330
860B
100
AcDbEntity
  8
DEFPOINTS
 62
     0
100
AcDbPoint
 10
3596.156955993239
 20
8648.31161293584
 30
0.0
  0
POINT
  5
8616
330
860B
100
AcDbEntity
  8
DEFPOINTS
 62
     0
100
AcDbPoint
 10
4045.173097229072
 20
8648.31161293584
 30
0.0
  0
ENDBLK
  5
860D
330
860B
100
AcDbEntity
  8
0
100
AcDbBlockEnd
  0
BLOCK
  5
8619
330
8618
100
AcDbEntity
  8
0
100
AcDbBlockBegin
  2
*D46
 70
     1
 10
0.0
 20
0.0
 30
0.0
  3
*D46
  1

  0
LINE
  5
861B
330
8618
100
AcDbEntity
  8
3
 62
     0
370
    -2
100
AcDbLine
 10
3596.156955993239
 20
8668.311612935841
 30
0.0
 11
3596.156955993239
 21
8892.947751441026
 31
0.0
  0
LINE
  5
861C
330
8618
100
AcDbEntity
  8
3
 62
     0
370
    -2
100
AcDbLine
 10
2096.156955993238
 20
8668.311612935841
 30
0.0
 11
2096.156955993238
 21
8892.947751441026
 31
0.0
  0
LINE
  5
861D
330
8618
100
AcDbEntity
  8
3
 62
     0
370
    -2
100
AcDbLine
 10
3516.156955993239
 20
8852.947751441025
 30
0.0
 11
2176.156955993238
 21
8852.947751441025
 31
0.0
  0
INSERT
  5
861E
330
8618
100
AcDbEntity
  8
3
 62
     0
370
    -2
100
AcDbBlockReference
  2
_OPEN
 10
3596.156955993239
 20
8852.947751441025
 30
0.0
 41
80.0
 42
80.0
 43
80.0
  0
INSERT
  5
861F
330
8618
100
AcDbEntity
  8
3
 62
     0
370
    -2
100
AcDbBlockReference
  2
_OPEN
 10
2096.156955993238
 20
8852.947751441025
 30
0.0
 41
80.0
 42
80.0
 43
80.0
 50
180.0
  0
MTEXT
  5
8620
330
8618
100
AcDbEntity
  8
3
 62
     0
100
AcDbMText
 10
2846.156955993239
 20
8952.947751441024
 30
0.0
 40
120.0
 41
0.0
 71
     5
 72
     1
  1
\A1;1500
 73
     1
 44
1.0
1001
ACAD
1000
MTEXTBEGIN
1070
    73
1070
     1
1070
    44
1040
1.0
1070
    74
1070
     0
1000
MTEXTEND
  0
POINT
  5
8621
330
8618
100
AcDbEntity
  8
DEFPOINTS
 62
     0
100
AcDbPoint
 10
3596.156955993239
 20
8648.31161293584
 30
0.0
  0
POINT
  5
8622
330
8618
100
AcDbEntity
  8
DEFPOINTS
 62
     0
100
AcDbPoint
 10
2096.156955993238
 20
8648.31161293584
 30
0.0
  0
POINT
  5
8623
330
8618
100
AcDbEntity
  8
DEFPOINTS
 62
     0
100
AcDbPoint
 10
2096.156955993238
 20
8852.947751441025
 30
0.0
  0
ENDBLK
  5
861A
330
8618
100
AcDbEntity
  8
0
100
AcDbBlockEnd
  0
BLOCK
  5
8626
330
8625
100
AcDbEntity
  8
0
100
AcDbBlockBegin
  2
*D47
 70
     1
 10
0.0
 20
0.0
 30
0.0
  3
*D47
  1

  0
LINE
  5
8628
330
8625
100
AcDbEntity
  8
3
 62
     0
370
    -2
100
AcDbLine
 10
2096.156955993238
 20
8668.311612935841
 30
0.0
 11
2096.156955993238
 21
8892.947751441026
 31
0.0
  0
LINE
  5
8629
330
8625
100
AcDbEntity
  8
3
 62
     0
370
    -2
100
AcDbLine
 10
1146.156955993237
 20
7548.311612935842
 30
0.0
 11
1146.156955993237
 21
8892.947751441026
 31
0.0
  0
LINE
  5
862A
330
8625
100
AcDbEntity
  8
3
 62
     0
370
    -2
100
AcDbLine
 10
2016.156955993238
 20
8852.947751441025
 30
0.0
 11
1226.156955993237
 21
8852.947751441025
 31
0.0
  0
INSERT
  5
862B
330
8625
100
AcDbEntity
  8
3
 62
     0
370
    -2
100
AcDbBlockReference
  2
_OPEN
 10
2096.156955993238
 20
8852.947751441025
 30
0.0
 41
80.0
 42
80.0
 43
80.0
  0
INSERT
  5
862C
330
8625
100
AcDbEntity
  8
3
 62
     0
370
    -2
100
AcDbBlockReference
  2
_OPEN
 10
1146.156955993237
 20
8852.947751441025
 30
0.0
 41
80.0
 42
80.0
 43
80.0
 50
180.0
  0
MTEXT
  5
862D
330
8625
100
AcDbEntity
  8
3
 62
     0
100
AcDbMText
 10
1621.156955993238
 20
8952.947751441024
 30
0.0
 40
120.0
 41
0.0
 71
     5
 72
     1
  1
\A1;950
 73
     1
 44
1.0
1001
ACAD
1000
MTEXTBEGIN
1070
    73
1070
     1
1070
    44
1040
1.0
1070
    74
1070
     0
1000
MTEXTEND
  0
POINT
  5
862E
330
8625
100
AcDbEntity
  8
DEFPOINTS
 62
     0
100
AcDbPoint
 10
2096.156955993238
 20
8648.31161293584
 30
0.0
  0
POINT
  5
862F
330
8625
100
AcDbEntity
  8
DEFPOINTS
 62
     0
100
AcDbPoint
 10
1146.156955993237
 20
7528.311612935842
 30
0.0
  0
POINT
  5
8630
330
8625
100
AcDbEntity
  8
DEFPOINTS
 62
     0
100
AcDbPoint
 10
1146.156955993237
 20
8852.947751441025
 30
0.0
  0
ENDBLK
  5
8627
330
8625
100
AcDbEntity
  8
0
100
AcDbBlockEnd
  0
BLOCK
  5
863C
330
863B
100
AcDbEntity
  8
0
100
AcDbBlockBegin
  2
*D48
 70
     1
 10
0.0
 20
0.0
 30
0.0
  3
*D48
  1

  0
LINE
  5
863E
330
863B
100
AcDbEntity
  8
3
 62
     0
370
    -2
100
AcDbLine
 10
3671.156955993239
 20
4339.800457609001
 30
0.0
 11
3671.156955993239
 21
5525.312615694231
 31
0.0
  0
LINE
  5
863F
330
863B
100
AcDbEntity
  8
3
 62
     0
370
    -2
100
AcDbLine
 10
2846.156955993239
 20
5389.39887263968
 30
0.0
 11
2846.156955993239
 21
5525.312615694231
 31
0.0
  0
LINE
  5
8640
330
863B
100
AcDbEntity
  8
3
 62
     0
370
    -2
100
AcDbLine
 10
3591.156955993239
 20
5485.312615694231
 30
0.0
 11
2926.156955993239
 21
5485.312615694231
 31
0.0
  0
INSERT
  5
8641
330
863B
100
AcDbEntity
  8
3
 62
     0
370
    -2
100
AcDbBlockReference
  2
_OPEN
 10
3671.156955993239
 20
5485.312615694231
 30
0.0
 41
80.0
 42
80.0
 43
80.0
  0
INSERT
  5
8642
330
863B
100
AcDbEntity
  8
3
 62
     0
370
    -2
100
AcDbBlockReference
  2
_OPEN
 10
2846.156955993239
 20
5485.312615694231
 30
0.0
 41
80.0
 42
80.0
 43
80.0
 50
180.0
  0
MTEXT
  5
8643
330
863B
100
AcDbEntity
  8
3
 62
     0
100
AcDbMText
 10
3258.656955993239
 20
5585.312615694231
 30
0.0
 40
120.0
 41
0.0
 71
     5
 72
     1
  1
\A1;825
 73
     1
 44
1.0
1001
ACAD
1000
MTEXTBEGIN
1070
    73
1070
     1
1070
    44
1040
1.0
1070
    74
1070
     0
1000
MTEXTEND
  0
POINT
  5
8644
330
863B
100
AcDbEntity
  8
DEFPOINTS
 62
     0
100
AcDbPoint
 10
3671.156955993239
 20
4319.800457609001
 30
0.0
  0
POINT
  5
8645
330
863B
100
AcDbEntity
  8
DEFPOINTS
 62
     0
100
AcDbPoint
 10
2846.156955993239
 20
5369.39887263968
 30
0.0
  0
POINT
  5
8646
330
863B
100
AcDbEntity
  8
DEFPOINTS
 62
     0
100
AcDbPoint
 10
2846.156955993239
 20
5485.312615694231
 30
0.0
  0
ENDBLK
  5
863D
330
863B
100
AcDbEntity
  8
0
100
AcDbBlockEnd
  0
BLOCK
  5
8649
330
8648
100
AcDbEntity
  8
0
100
AcDbBlockBegin
  2
*D49
 70
     1
 10
0.0
 20
0.0
 30
0.0
  3
*D49
  1

  0
LINE
  5
864B
330
8648
100
AcDbEntity
  8
3
 62
     0
370
    -2
100
AcDbLine
 10
2846.156955993239
 20
5389.39887263968
 30
0.0
 11
2846.156955993239
 21
5525.312615694231
 31
0.0
  0
LINE
  5
864C
330
8648
100
AcDbEntity
  8
3
 62
     0
370
    -2
100
AcDbLine
 10
1767.156955993239
 20
4249.800457609001
 30
0.0
 11
1767.156955993239
 21
5525.312615694231
 31
0.0
  0
LINE
  5
864D
330
8648
100
AcDbEntity
  8
3
 62
     0
370
    -2
100
AcDbLine
 10
2766.156955993239
 20
5485.312615694231
 30
0.0
 11
1847.156955993239
 21
5485.312615694231
 31
0.0
  0
INSERT
  5
864E
330
8648
100
AcDbEntity
  8
3
 62
     0
370
    -2
100
AcDbBlockReference
  2
_OPEN
 10
2846.156955993239
 20
5485.312615694231
 30
0.0
 41
80.0
 42
80.0
 43
80.0
  0
INSERT
  5
864F
330
8648
100
AcDbEntity
  8
3
 62
     0
370
    -2
100
AcDbBlockReference
  2
_OPEN
 10
1767.156955993239
 20
5485.312615694231
 30
0.0
 41
80.0
 42
80.0
 43
80.0
 50
180.0
  0
MTEXT
  5
8650
330
8648
100
AcDbEntity
  8
3
 62
     0
100
AcDbMText
 10
2306.656955993239
 20
5585.312615694231
 30
0.0
 40
120.0
 41
0.0
 71
     5
 72
     1
  1
\A1;1079
 73
     1
 44
1.0
1001
ACAD
1000
MTEXTBEGIN
1070
    73
1070
     1
1070
    44
1040
1.0
1070
    74
1070
     0
1000
MTEXTEND
  0
POINT
  5
8651
330
8648
100
AcDbEntity
  8
DEFPOINTS
 62
     0
100
AcDbPoint
 10
2846.156955993239
 20
5369.39887263968
 30
0.0
  0
POINT
  5
8652
330
8648
100
AcDbEntity
  8
DEFPOINTS
 62
     0
100
AcDbPoint
 10
1767.156955993239
 20
4229.800457609001
 30
0.0
  0
POINT
  5
8653
330
8648
100
AcDbEntity
  8
DEFPOINTS
 62
     0
100
AcDbPoint
 10
1767.156955993239
 20
5485.312615694231
 30
0.0
  0
ENDBLK
  5
864A
330
8648
100
AcDbEntity
  8
0
100
AcDbBlockEnd
  0
BLOCK
  5
8656
330
8655
100
AcDbEntity
  8
0
100
AcDbBlockBegin
  2
*D50
 70
     1
 10
0.0
 20
0.0
 30
0.0
  3
*D50
  1

  0
LINE
  5
8658
330
8655
100
AcDbEntity
  8
3
 62
     0
370
    -2
100
AcDbLine
 10
3671.156955993239
 20
4339.800457609001
 30
0.0
 11
3671.156955993239
 21
5778.269218418994
 31
0.0
  0
LINE
  5
8659
330
8655
100
AcDbEntity
  8
3
 62
     0
370
    -2
100
AcDbLine
 10
1146.156955993237
 20
3035.800457609002
 30
0.0
 11
1146.156955993237
 21
5778.269218418994
 31
0.0
  0
LINE
  5
865A
330
8655
100
AcDbEntity
  8
3
 62
     0
370
    -2
100
AcDbLine
 10
3591.156955993239
 20
5738.269218418995
 30
0.0
 11
1226.156955993237
 21
5738.269218418995
 31
0.0
  0
INSERT
  5
865B
330
8655
100
AcDbEntity
  8
3
 62
     0
370
    -2
100
AcDbBlockReference
  2
_OPEN
 10
3671.156955993239
 20
5738.269218418995
 30
0.0
 41
80.0
 42
80.0
 43
80.0
  0
INSERT
  5
865C
330
8655
100
AcDbEntity
  8
3
 62
     0
370
    -2
100
AcDbBlockReference
  2
_OPEN
 10
1146.156955993237
 20
5738.269218418995
 30
0.0
 41
80.0
 42
80.0
 43
80.0
 50
180.0
  0
MTEXT
  5
865D
330
8655
100
AcDbEntity
  8
3
 62
     0
100
AcDbMText
 10
2408.656955993238
 20
5838.269218418995
 30
0.0
 40
120.0
 41
0.0
 71
     5
 72
     1
  1
\A1;2525
 73
     1
 44
1.0
1001
ACAD
1000
MTEXTBEGIN
1070
    73
1070
     1
1070
    44
1040
1.0
1070
    74
1070
     0
1000
MTEXTEND
  0
POINT
  5
865E
330
8655
100
AcDbEntity
  8
DEFPOINTS
 62
     0
100
AcDbPoint
 10
3671.156955993239
 20
4319.800457609001
 30
0.0
  0
POINT
  5
865F
330
8655
100
AcDbEntity
  8
DEFPOINTS
 62
     0
100
AcDbPoint
 10
1146.156955993237
 20
3015.800457609002
 30
0.0
  0
POINT
  5
8660
330
8655
100
AcDbEntity
  8
DEFPOINTS
 62
     0
100
AcDbPoint
 10
1146.156955993237
 20
5738.269218418995
 30
0.0
  0
ENDBLK
  5
8657
330
8655
100
AcDbEntity
  8
0
100
AcDbBlockEnd
  0
BLOCK
  5
8663
330
8662
100
AcDbEntity
  8
0
100
AcDbBlockBegin
  2
*D51
 70
     1
 10
0.0
 20
0.0
 30
0.0
  3
*D51
  1

  0
LINE
  5
8665
330
8662
100
AcDbEntity
  8
3
 62
     0
370
    -2
100
AcDbLine
 10
3691.156955993239
 20
4266.800457609003
 30
0.0
 11
3964.167988683194
 21
4266.800457609003
 31
0.0
  0
LINE
  5
8666
330
8662
100
AcDbEntity
  8
3
 62
     0
370
    -2
100
AcDbLine
 10
3691.156955993239
 20
2986.800457609002
 30
0.0
 11
3964.167988683194
 21
2986.800457609002
 31
0.0
  0
LINE
  5
8667
330
8662
100
AcDbEntity
  8
3
 62
     0
370
    -2
100
AcDbLine
 10
3924.167988683194
 20
4186.800457609003
 30
0.0
 11
3924.167988683194
 21
3066.800457609002
 31
0.0
  0
INSERT
  5
8668
330
8662
100
AcDbEntity
  8
3
 62
     0
370
    -2
100
AcDbBlockReference
  2
_OPEN
 10
3924.167988683194
 20
4266.800457609003
 30
0.0
 41
80.0
 42
80.0
 43
80.0
 50
90.0
  0
INSERT
  5
8669
330
8662
100
AcDbEntity
  8
3
 62
     0
370
    -2
100
AcDbBlockReference
  2
_OPEN
 10
3924.167988683194
 20
2986.800457609002
 30
0.0
 41
80.0
 42
80.0
 43
80.0
 50
270.0
  0
MTEXT
  5
866A
330
8662
100
AcDbEntity
  8
3
 62
     0
100
AcDbMText
 10
3824.167988683193
 20
3626.800457609003
 30
0.0
 40
120.0
 41
0.0
 71
     5
 72
     1
  1
\A1;1280
 11
0.0000000000000001
 21
1.0
 31
0.0
 73
     1
 44
1.0
1001
ACAD
1000
MTEXTBEGIN
1070
    73
1070
     1
1070
    44
1040
1.0
1070
    74
1070
     0
1000
MTEXTEND
  0
POINT
  5
866B
330
8662
100
AcDbEntity
  8
DEFPOINTS
 62
     0
100
AcDbPoint
 10
3671.156955993239
 20
4266.800457609003
 30
0.0
  0
POINT
  5
866C
330
8662
100
AcDbEntity
  8
DEFPOINTS
 62
     0
100
AcDbPoint
 10
3671.156955993239
 20
2986.800457609002
 30
0.0
  0
POINT
  5
866D
330
8662
100
AcDbEntity
  8
DEFPOINTS
 62
     0
100
AcDbPoint
 10
3924.167988683194
 20
2986.800457609002
 30
0.0
  0
ENDBLK
  5
8664
330
8662
100
AcDbEntity
  8
0
100
AcDbBlockEnd
  0
BLOCK
  5
8670
330
866F
100
AcDbEntity
  8
0
100
AcDbBlockBegin
  2
*D52
 70
     1
 10
0.0
 20
0.0
 30
0.0
  3
*D52
  1

  0
LINE
  5
8672
330
866F
100
AcDbEntity
  8
3
 62
     0
370
    -2
100
AcDbLine
 10
3703.677800684858
 20
4320.800457609002
 30
0.0
 11
4211.230831139723
 21
4320.800457609002
 31
0.0
  0
LINE
  5
8673
330
866F
100
AcDbEntity
  8
3
 62
     0
370
    -2
100
AcDbLine
 10
3691.156955993239
 20
2986.800457609002
 30
0.0
 11
4211.230831139723
 21
2986.800457609002
 31
0.0
  0
LINE
  5
8674
330
866F
100
AcDbEntity
  8
3
 62
     0
370
    -2
100
AcDbLine
 10
4171.230831139723
 20
4240.800457609001
 30
0.0
 11
4171.230831139723
 21
3066.800457609002
 31
0.0
  0
INSERT
  5
8675
330
866F
100
AcDbEntity
  8
3
 62
     0
370
    -2
100
AcDbBlockReference
  2
_OPEN
 10
4171.230831139723
 20
4320.800457609002
 30
0.0
 41
80.0
 42
80.0
 43
80.0
 50
90.0
  0
INSERT
  5
8676
330
866F
100
AcDbEntity
  8
3
 62
     0
370
    -2
100
AcDbBlockReference
  2
_OPEN
 10
4171.230831139723
 20
2986.800457609002
 30
0.0
 41
80.0
 42
80.0
 43
80.0
 50
270.0
  0
MTEXT
  5
8677
330
866F
100
AcDbEntity
  8
3
 62
     0
100
AcDbMText
 10
4071.230831139723
 20
3653.800457609003
 30
0.0
 40
120.0
 41
0.0
 71
     5
 72
     1
  1
\A1;1334
 11
0.0000000000000001
 21
1.0
 31
0.0
 73
     1
 44
1.0
1001
ACAD
1000
MTEXTBEGIN
1070
    73
1070
     1
1070
    44
1040
1.0
1070
    74
1070
     0
1000
MTEXTEND
  0
POINT
  5
8678
330
866F
100
AcDbEntity
  8
DEFPOINTS
 62
     0
100
AcDbPoint
 10
3683.677800684858
 20
4320.800457609002
 30
0.0
  0
POINT
  5
8679
330
866F
100
AcDbEntity
  8
DEFPOINTS
 62
     0
100
AcDbPoint
 10
3671.156955993239
 20
2986.800457609002
 30
0.0
  0
POINT
  5
867A
330
866F
100
AcDbEntity
  8
DEFPOINTS
 62
     0
100
AcDbPoint
 10
4171.230831139723
 20
2986.800457609002
 30
0.0
  0
ENDBLK
  5
8671
330
866F
100
AcDbEntity
  8
0
100
AcDbBlockEnd
  0
BLOCK
  5
867D
330
867C
100
AcDbEntity
  8
0
100
AcDbBlockBegin
  2
*D53
 70
     1
 10
0.0
 20
0.0
 30
0.0
  3
*D53
  1

  0
LINE
  5
867F
330
867C
100
AcDbEntity
  8
3
 62
     0
370
    -2
100
AcDbLine
 10
2775.156955993237
 20
5217.800457609001
 30
0.0
 11
4462.346544791297
 21
5217.800457609001
 31
0.0
  0
LINE
  5
8680
330
867C
100
AcDbEntity
  8
3
 62
     0
370
    -2
100
AcDbLine
 10
3703.677800684858
 20
4320.800457609002
 30
0.0
 11
4462.346544791297
 21
4320.800457609002
 31
0.0
  0
LINE
  5
8681
330
867C
100
AcDbEntity
  8
3
 62
     0
370
    -2
100
AcDbLine
 10
4422.346544791297
 20
5137.800457609001
 30
0.0
 11
4422.346544791297
 21
4400.800457609001
 31
0.0
  0
INSERT
  5
8682
330
867C
100
AcDbEntity
  8
3
 62
     0
370
    -2
100
AcDbBlockReference
  2
_OPEN
 10
4422.346544791297
 20
5217.800457609001
 30
0.0
 41
80.0
 42
80.0
 43
80.0
 50
90.0
  0
INSERT
  5
8683
330
867C
100
AcDbEntity
  8
3
 62
     0
370
    -2
100
AcDbBlockReference
  2
_OPEN
 10
4422.346544791297
 20
4320.800457609002
 30
0.0
 41
80.0
 42
80.0
 43
80.0
 50
270.0
  0
MTEXT
  5
8684
330
867C
100
AcDbEntity
  8
3
 62
     0
100
AcDbMText
 10
4322.346544791296
 20
4769.300457609002
 30
0.0
 40
120.0
 41
0.0
 71
     5
 72
     1
  1
\A1;897
 11
0.0000000000000001
 21
1.0
 31
0.0
 73
     1
 44
1.0
1001
ACAD
1000
MTEXTBEGIN
1070
    73
1070
     1
1070
    44
1040
1.0
1070
    74
1070
     0
1000
MTEXTEND
  0
POINT
  5
8685
330
867C
100
AcDbEntity
  8
DEFPOINTS
 62
     0
100
AcDbPoint
 10
2755.156955993238
 20
5217.800457609001
 30
0.0
  0
POINT
  5
8686
330
867C
100
AcDbEntity
  8
DEFPOINTS
 62
     0
100
AcDbPoint
 10
3683.677800684858
 20
4320.800457609002
 30
0.0
  0
POINT
  5
8687
330
867C
100
AcDbEntity
  8
DEFPOINTS
 62
     0
100
AcDbPoint
 10
4422.346544791297
 20
4320.800457609002
 30
0.0
  0
ENDBLK
  5
867E
330
867C
100
AcDbEntity
  8
0
100
AcDbBlockEnd
  0
BLOCK
  5
868A
330
8689
100
AcDbEntity
  8
0
100
AcDbBlockBegin
  2
*D54
 70
     1
 10
0.0
 20
0.0
 30
0.0
  3
*D54
  1

  0
LINE
  5
868C
330
8689
100
AcDbEntity
  8
3
 62
     0
370
    -2
100
AcDbLine
 10
3703.677800684858
 20
4320.800457609002
 30
0.0
 11
4462.346544791297
 21
4320.800457609002
 31
0.0
  0
LINE
  5
868D
330
8689
100
AcDbEntity
  8
3
 62
     0
370
    -2
100
AcDbLine
 10
3616.156955993239
 20
2890.800457609002
 30
0.0
 11
4462.346544791297
 21
2890.800457609002
 31
0.0
  0
LINE
  5
868E
330
8689
100
AcDbEntity
  8
3
 62
     0
370
    -2
100
AcDbLine
 10
4422.346544791297
 20
4240.800457609001
 30
0.0
 11
4422.346544791297
 21
2970.800457609002
 31
0.0
  0
INSERT
  5
868F
330
8689
100
AcDbEntity
  8
3
 62
     0
370
    -2
100
AcDbBlockReference
  2
_OPEN
 10
4422.346544791297
 20
4320.800457609002
 30
0.0
 41
80.0
 42
80.0
 43
80.0
 50
90.0
  0
INSERT
  5
8690
330
8689
100
AcDbEntity
  8
3
 62
     0
370
    -2
100
AcDbBlockReference
  2
_OPEN
 10
4422.346544791297
 20
2890.800457609002
 30
0.0
 41
80.0
 42
80.0
 43
80.0
 50
270.0
  0
MTEXT
  5
8691
330
8689
100
AcDbEntity
  8
3
 62
     0
100
AcDbMText
 10
4322.346544791296
 20
3605.800457609002
 30
0.0
 40
120.0
 41
0.0
 71
     5
 72
     1
  1
\A1;1430
 11
0.0000000000000001
 21
1.0
 31
0.0
 73
     1
 44
1.0
1001
ACAD
1000
MTEXTBEGIN
1070
    73
1070
     1
1070
    44
1040
1.0
1070
    74
1070
     0
1000
MTEXTEND
  0
POINT
  5
8692
330
8689
100
AcDbEntity
  8
DEFPOINTS
 62
     0
100
AcDbPoint
 10
3683.677800684858
 20
4320.800457609002
 30
0.0
  0
POINT
  5
8693
330
8689
100
AcDbEntity
  8
DEFPOINTS
 62
     0
100
AcDbPoint
 10
3596.156955993239
 20
2890.800457609002
 30
0.0
  0
POINT
  5
8694
330
8689
100
AcDbEntity
  8
DEFPOINTS
 62
     0
100
AcDbPoint
 10
4422.346544791297
 20
2890.800457609002
 30
0.0
  0
ENDBLK
  5
868B
330
8689
100
AcDbEntity
  8
0
100
AcDbBlockEnd
  0
BLOCK
  5
8697
330
8696
100
AcDbEntity
  8
0
100
AcDbBlockBegin
  2
*D55
 70
     1
 10
0.0
 20
0.0
 30
0.0
  3
*D55
  1

  0
LINE
  5
8764
330
8696
100
AcDbEntity
  8
3
 62
     0
370
    -2
100
AcDbLine
 10
3616.156955993239
 20
2890.800457609002
 30
0.0
 11
4462.346544791297
 21
2890.800457609002
 31
0.0
  0
LINE
  5
8765
330
8696
100
AcDbEntity
  8
3
 62
     0
370
    -2
100
AcDbLine
 10
3616.156955993239
 20
2785.800457609002
 30
0.0
 11
4462.346544791297
 21
2785.800457609002
 31
0.0
  0
LINE
  5
8766
330
8696
100
AcDbEntity
  8
3
 62
     0
370
    -2
100
AcDbLine
 10
4422.346544791297
 20
2970.800457609002
 30
0.0
 11
4422.346544791297
 21
3050.800457609002
 31
0.0
  0
LINE
  5
8767
330
8696
100
AcDbEntity
  8
3
 62
     0
370
    -2
100
AcDbLine
 10
4422.346544791297
 20
2785.800457609002
 30
0.0
 11
4422.346544791297
 21
2705.800457609002
 31
0.0
  0
LINE
  5
8768
330
8696
100
AcDbEntity
  8
3
 62
     0
370
    -2
100
AcDbLine
 10
4422.346544791297
 20
2838.300457609002
 30
0.0
 11
4796.632259077012
 21
2950.586171894716
 31
0.0
  0
LINE
  5
8769
330
8696
100
AcDbEntity
  8
3
 62
     0
370
    -2
100
AcDbLine
 10
4796.632259077012
 20
2950.586171894716
 30
0.0
 11
4796.632259077012
 21
3470.586171894716
 31
0.0
  0
MTEXT
  5
876A
330
8696
100
AcDbEntity
  8
3
 62
     0
100
AcDbMText
 10
4665.203687648438
 20
3210.586171894717
 30
0.0
 40
120.0
 41
0.0
 71
     5
 72
     1
  1
\A1;(105)
 11
0.0000000000000001
 21
1.0
 31
0.0
 73
     1
 44
1.0
1001
ACAD
1000
MTEXTBEGIN
1070
    73
1070
     1
1070
    44
1040
1.0
1070
    74
1070
     0
1000
MTEXTEND
  0
LINE
  5
876B
330
8696
100
AcDbEntity
  8
3
 62
     0
370
    -2
100
AcDbLine
 10
4422.346544791297
 20
2890.800457609002
 30
0.0
 11
4422.346544791297
 21
2785.800457609002
 31
0.0
  0
LINE
  5
876C
330
8696
100
AcDbEntity
  8
3
 62
     0
370
    -2
100
AcDbLine
 10
4422.346544791297
 20
2890.800457609002
 30
0.0
 11
4422.346544791297
 21
2785.800457609002
 31
0.0
  0
INSERT
  5
876D
330
8696
100
AcDbEntity
  8
3
 62
     0
370
    -2
100
AcDbBlockReference
  2
_OPEN
 10
4422.346544791297
 20
2890.800457609002
 30
0.0
 41
80.0
 42
80.0
 43
80.0
 50
270.0
  0
INSERT
  5
876E
330
8696
100
AcDbEntity
  8
3
 62
     0
370
    -2
100
AcDbBlockReference
  2
_DotSmall
 10
4422.346544791297
 20
2785.800457609002
 30
0.0
 41
80.0
 42
80.0
 43
80.0
 50
90.0
  0
POINT
  5
876F
330
8696
100
AcDbEntity
  8
DEFPOINTS
 62
     0
100
AcDbPoint
 10
3596.156955993239
 20
2890.800457609002
 30
0.0
  0
POINT
  5
8770
330
8696
100
AcDbEntity
  8
DEFPOINTS
 62
     0
100
AcDbPoint
 10
3596.156955993239
 20
2785.800457609002
 30
0.0
  0
POINT
  5
8771
330
8696
100
AcDbEntity
  8
DEFPOINTS
 62
     0
100
AcDbPoint
 10
4422.346544791297
 20
2785.800457609002
 30
0.0
  0
ENDBLK
  5
8698
330
8696
100
AcDbEntity
  8
0
100
AcDbBlockEnd
  0
BLOCK
  5
86A9
330
86A8
100
AcDbEntity
  8
0
100
AcDbBlockBegin
  2
*D56
 70
     1
 10
0.0
 20
0.0
 30
0.0
  3
*D56
  1

  0
LINE
  5
87C0
330
86A8
100
AcDbEntity
  8
3
 62
     0
370
    -2
100
AcDbLine
 10
3616.156955993239
 20
2785.800457609002
 30
0.0
 11
4462.346544791297
 21
2785.800457609002
 31
0.0
  0
LINE
  5
87C1
330
86A8
100
AcDbEntity
  8
3
 62
     0
370
    -2
100
AcDbLine
 10
3616.156955993239
 20
2720.800457609002
 30
0.0
 11
4462.346544791297
 21
2720.800457609002
 31
0.0
  0
LINE
  5
87C2
330
86A8
100
AcDbEntity
  8
3
 62
     0
370
    -2
100
AcDbLine
 10
4422.346544791297
 20
2785.800457609002
 30
0.0
 11
4422.346544791297
 21
2865.800457609002
 31
0.0
  0
LINE
  5
87C3
330
86A8
100
AcDbEntity
  8
3
 62
     0
370
    -2
100
AcDbLine
 10
4422.346544791297
 20
2640.800457609002
 30
0.0
 11
4422.346544791297
 21
2560.800457609002
 31
0.0
  0
MTEXT
  5
87C4
330
86A8
100
AcDbEntity
  8
3
 62
     0
100
AcDbMText
 10
4322.346544791296
 20
2560.800457609002
 30
0.0
 40
120.0
 41
0.0
 71
     5
 72
     1
  1
\A1;65
 11
0.0000000000000001
 21
1.0
 31
0.0
 73
     1
 44
1.0
1001
ACAD
1000
MTEXTBEGIN
1070
    73
1070
     1
1070
    44
1040
1.0
1070
    74
1070
     0
1000
MTEXTEND
  0
LINE
  5
87C5
330
86A8
100
AcDbEntity
  8
3
 62
     0
370
    -2
100
AcDbLine
 10
4422.346544791297
 20
2785.800457609002
 30
0.0
 11
4422.346544791297
 21
2720.800457609002
 31
0.0
  0
INSERT
  5
87C6
330
86A8
100
AcDbEntity
  8
3
 62
     0
370
    -2
100
AcDbBlockReference
  2
_DotSmall
 10
4422.346544791297
 20
2785.800457609002
 30
0.0
 41
80.0
 42
80.0
 43
80.0
 50
270.0
  0
INSERT
  5
87C7
330
86A8
100
AcDbEntity
  8
3
 62
     0
370
    -2
100
AcDbBlockReference
  2
_OPEN
 10
4422.346544791297
 20
2720.800457609002
 30
0.0
 41
80.0
 42
80.0
 43
80.0
 50
90.0
  0
POINT
  5
87C8
330
86A8
100
AcDbEntity
  8
DEFPOINTS
 62
     0
100
AcDbPoint
 10
3596.156955993239
 20
2785.800457609002
 30
0.0
  0
POINT
  5
87C9
330
86A8
100
AcDbEntity
  8
DEFPOINTS
 62
     0
100
AcDbPoint
 10
3596.156955993239
 20
2720.800457609002
 30
0.0
  0
POINT
  5
87CA
330
86A8
100
AcDbEntity
  8
DEFPOINTS
 62
     0
100
AcDbPoint
 10
4422.346544791297
 20
2720.800457609002
 30
0.0
  0
ENDBLK
  5
86AA
330
86A8
100
AcDbEntity
  8
0
100
AcDbBlockEnd
  0
BLOCK
  5
86BB
330
86BA
100
AcDbEntity
  8
0
100
AcDbBlockBegin
  2
*D57
 70
     1
 10
0.0
 20
0.0
 30
0.0
  3
*D57
  1

  0
LINE
  5
86F6
330
86BA
100
AcDbEntity
  8
3
 62
     0
370
    -2
100
AcDbLine
 10
3616.156955993239
 20
2720.800457609002
 30
0.0
 11
4866.183944158314
 21
2720.800457609002
 31
0.0
  0
LINE
  5
86F7
330
86BA
100
AcDbEntity
  8
3
 62
     0
370
    -2
100
AcDbLine
 10
2775.156955993237
 20
5217.800457609001
 30
0.0
 11
4866.183944158314
 21
5217.800457609001
 31
0.0
  0
LINE
  5
86F8
330
86BA
100
AcDbEntity
  8
3
 62
     0
370
    -2
100
AcDbLine
 10
4826.183944158314
 20
2800.800457609002
 30
0.0
 11
4826.183944158314
 21
5137.800457609001
 31
0.0
  0
INSERT
  5
86F9
330
86BA
100
AcDbEntity
  8
3
 62
     0
370
    -2
100
AcDbBlockReference
  2
_OPEN
 10
4826.183944158314
 20
2720.800457609002
 30
0.0
 41
80.0
 42
80.0
 43
80.0
 50
270.0
  0
INSERT
  5
86FA
330
86BA
100
AcDbEntity
  8
3
 62
     0
370
    -2
100
AcDbBlockReference
  2
_OPEN
 10
4826.183944158314
 20
5217.800457609001
 30
0.0
 41
80.0
 42
80.0
 43
80.0
 50
90.0
  0
MTEXT
  5
86FB
330
86BA
100
AcDbEntity
  8
3
 62
     0
100
AcDbMText
 10
4694.755372729741
 20
3969.300457609002
 30
0.0
 40
120.0
 41
0.0
 71
     5
 72
     1
  1
\A1;(2497)
 11
0.0000000000000001
 21
1.0
 31
0.0
 73
     1
 44
1.0
1001
ACAD
1000
MTEXTBEGIN
1070
    73
1070
     1
1070
    44
1040
1.0
1070
    74
1070
     0
1000
MTEXTEND
  0
POINT
  5
86FC
330
86BA
100
AcDbEntity
  8
DEFPOINTS
 62
     0
100
AcDbPoint
 10
3596.156955993239
 20
2720.800457609002
 30
0.0
  0
POINT
  5
86FD
330
86BA
100
AcDbEntity
  8
DEFPOINTS
 62
     0
100
AcDbPoint
 10
2755.156955993238
 20
5217.800457609001
 30
0.0
  0
POINT
  5
86FE
330
86BA
100
AcDbEntity
  8
DEFPOINTS
 62
     0
100
AcDbPoint
 10
4826.183944158314
 20
5217.800457609001
 30
0.0
  0
ENDBLK
  5
86BC
330
86BA
100
AcDbEntity
  8
0
100
AcDbBlockEnd
  0
BLOCK
  5
8762
330
8760
100
AcDbEntity
  8
0
100
AcDbBlockBegin
  2
_DotSmall
 70
     0
 10
0.0
 20
0.0
 30
0.0
  3
_DotSmall
  1

  0
LWPOLYLINE
  5
8761
330
8760
100
AcDbEntity
  8
0
  6
ByBlock
 62
     0
100
AcDbPolyline
 90
        2
 70
     1
 43
0.5
 10
-0.0625
 20
0.0
 42
1.0
 10
0.0625
 20
0.0
 42
1.0
  0
ENDBLK
  5
8763
330
8760
100
AcDbEntity
  8
0
100
AcDbBlockEnd
  0
BLOCK
  5
87CD
330
87CC
100
AcDbEntity
  8
0
100
AcDbBlockBegin
  2
*D59
 70
     1
 10
0.0
 20
0.0
 30
0.0
  3
*D59
  1

  0
LINE
  5
87CF
330
87CC
100
AcDbEntity
  8
3
 62
     0
370
    -2
100
AcDbLine
 10
1146.156955993237
 20
2700.800457609002
 30
0.0
 11
1146.156955993237
 21
2388.604154007237
 31
0.0
  0
LINE
  5
87D0
330
87CC
100
AcDbEntity
  8
3
 62
     0
370
    -2
100
AcDbLine
 10
2846.156955993239
 20
2700.800457609002
 30
0.0
 11
2846.156955993239
 21
2388.604154007237
 31
0.0
  0
LINE
  5
87D1
330
87CC
100
AcDbEntity
  8
3
 62
     0
370
    -2
100
AcDbLine
 10
1226.156955993237
 20
2428.604154007237
 30
0.0
 11
2766.156955993239
 21
2428.604154007237
 31
0.0
  0
INSERT
  5
87D2
330
87CC
100
AcDbEntity
  8
3
 62
     0
370
    -2
100
AcDbBlockReference
  2
_OPEN
 10
1146.156955993237
 20
2428.604154007237
 30
0.0
 41
80.0
 42
80.0
 43
80.0
 50
180.0
  0
INSERT
  5
87D3
330
87CC
100
AcDbEntity
  8
3
 62
     0
370
    -2
100
AcDbBlockReference
  2
_OPEN
 10
2846.156955993239
 20
2428.604154007237
 30
0.0
 41
80.0
 42
80.0
 43
80.0
  0
MTEXT
  5
87D4
330
87CC
100
AcDbEntity
  8
3
 62
     0
100
AcDbMText
 10
1996.156955993238
 20
2528.604154007237
 30
0.0
 40
120.0
 41
0.0
 71
     5
 72
     1
  1
\A1;1700
 73
     1
 44
1.0
1001
ACAD
1000
MTEXTBEGIN
1070
    73
1070
     1
1070
    44
1040
1.0
1070
    74
1070
     0
1000
MTEXTEND
  0
POINT
  5
87D5
330
87CC
100
AcDbEntity
  8
DEFPOINTS
 62
     0
100
AcDbPoint
 10
1146.156955993237
 20
2720.800457609002
 30
0.0
  0
POINT
  5
87D6
330
87CC
100
AcDbEntity
  8
DEFPOINTS
 62
     0
100
AcDbPoint
 10
2846.156955993239
 20
2720.800457609002
 30
0.0
  0
POINT
  5
87D7
330
87CC
100
AcDbEntity
  8
DEFPOINTS
 62
     0
100
AcDbPoint
 10
2846.156955993239
 20
2428.604154007237
 30
0.0
  0
ENDBLK
  5
87CE
330
87CC
100
AcDbEntity
  8
0
100
AcDbBlockEnd
  0
BLOCK
  5
87DA
330
87D9
100
AcDbEntity
  8
0
100
AcDbBlockBegin
  2
*D60
 70
     1
 10
0.0
 20
0.0
 30
0.0
  3
*D60
  1

  0
LINE
  5
87DC
330
87D9
100
AcDbEntity
  8
3
 62
     0
370
    -2
100
AcDbLine
 10
2846.156955993239
 20
2700.800457609002
 30
0.0
 11
2846.156955993239
 21
2388.604154007237
 31
0.0
  0
LINE
  5
87DD
330
87D9
100
AcDbEntity
  8
3
 62
     0
370
    -2
100
AcDbLine
 10
3596.156955993239
 20
2700.800457609002
 30
0.0
 11
3596.156955993239
 21
2388.604154007237
 31
0.0
  0
LINE
  5
87DE
330
87D9
100
AcDbEntity
  8
3
 62
     0
370
    -2
100
AcDbLine
 10
2926.156955993239
 20
2428.604154007237
 30
0.0
 11
3516.156955993239
 21
2428.604154007237
 31
0.0
  0
INSERT
  5
87DF
330
87D9
100
AcDbEntity
  8
3
 62
     0
370
    -2
100
AcDbBlockReference
  2
_OPEN
 10
2846.156955993239
 20
2428.604154007237
 30
0.0
 41
80.0
 42
80.0
 43
80.0
 50
180.0
  0
INSERT
  5
87E0
330
87D9
100
AcDbEntity
  8
3
 62
     0
370
    -2
100
AcDbBlockReference
  2
_OPEN
 10
3596.156955993239
 20
2428.604154007237
 30
0.0
 41
80.0
 42
80.0
 43
80.0
  0
MTEXT
  5
87E1
330
87D9
100
AcDbEntity
  8
3
 62
     0
100
AcDbMText
 10
3221.156955993239
 20
2528.604154007237
 30
0.0
 40
120.0
 41
0.0
 71
     5
 72
     1
  1
\A1;750
 73
     1
 44
1.0
1001
ACAD
1000
MTEXTBEGIN
1070
    73
1070
     1
1070
    44
1040
1.0
1070
    74
1070
     0
1000
MTEXTEND
  0
POINT
  5
87E2
330
87D9
100
AcDbEntity
  8
DEFPOINTS
 62
     0
100
AcDbPoint
 10
2846.156955993239
 20
2720.800457609002
 30
0.0
  0
POINT
  5
87E3
330
87D9
100
AcDbEntity
  8
DEFPOINTS
 62
     0
100
AcDbPoint
 10
3596.156955993239
 20
2720.800457609002
 30
0.0
  0
POINT
  5
87E4
330
87D9
100
AcDbEntity
  8
DEFPOINTS
 62
     0
100
AcDbPoint
 10
3596.156955993239
 20
2428.604154007237
 30
0.0
  0
ENDBLK
  5
87DB
330
87D9
100
AcDbEntity
  8
0
100
AcDbBlockEnd
  0
ENDSEC
  0
SECTION
  2
ENTITIES
  0
INSERT
  5
7C22
330
8438
100
AcDbEntity
  8
1
100
AcDbBlockReference
  2
YA_N
 10
6.0
 20
5.0
 30
0.0
  0
LINE
  5
7C23
330
8438
100
AcDbEntity
  8
2
100
AcDbLine
 10
2846.156955993239
 20
5369.39887263968
 30
0.0
 11
2846.156955993239
 21
2720.800457609002
 31
0.0
  0
LINE
  5
7C24
330
8438
100
AcDbEntity
  8
1
100
AcDbLine
 10
5039.092839011053
 20
2890.800457609002
 30
0.0
 11
7159.092839011051
 21
2890.800457609002
 31
0.0
1001
ACAD
1000
ASC_BOUNDS
1002
{
1070
    19
1005
0
1005
0
1002
}
  0
LINE
  5
7C25
330
8438
100
AcDbEntity
  8
1
100
AcDbLine
 10
5039.092839011053
 20
3015.800457609002
 30
0.0
 11
5391.092839011053
 21
3015.800457609002
 31
0.0
  0
LINE
  5
7C28
330
8438
100
AcDbEntity
  8
2
100
AcDbLine
 10
1638.616022453501
 20
4320.800457609002
 30
0.0
 11
3683.677800684858
 21
4320.800457609002
 31
0.0
  0
LINE
  5
7C29
330
8438
100
AcDbEntity
  8
2
100
AcDbLine
 10
5025.792839011053
 20
4320.800457609002
 30
0.0
 11
7274.603325250289
 21
4320.800457609002
 31
0.0
  0
LINE
  5
7C2A
330
8438
100
AcDbEntity
  8
2
100
AcDbLine
 10
4969.590112414675
 20
3275.800457609002
 30
0.0
 11
5492.434130173948
 21
3275.800457609002
 31
0.0
  0
LINE
  5
7C2B
330
8438
100
AcDbEntity
  8
1
100
AcDbLine
 10
5046.092839011054
 20
3381.800457609002
 30
0.0
 11
5123.992839011052
 21
3381.800457609002
 31
0.0
  0
LINE
  5
7C2C
330
8438
100
AcDbEntity
  8
1
100
AcDbLine
 10
5046.092839011054
 20
3169.800457609002
 30
0.0
 11
5123.992839011052
 21
3169.800457609002
 31
0.0
  0
LINE
  5
7C2D
330
8438
100
AcDbEntity
  8
1
100
AcDbLine
 10
5144.092839011054
 20
4390.800457609001
 30
0.0
 11
5144.092839011054
 21
4250.800457609002
 31
0.0
  0
LINE
  5
7C2E
330
8438
100
AcDbEntity
  8
1
100
AcDbLine
 10
5123.992839011052
 20
4574.800457609002
 30
0.0
 11
5123.992839011052
 21
4390.800457609001
 31
0.0
  0
LINE
  5
7C2F
330
8438
100
AcDbEntity
  8
1
100
AcDbLine
 10
5123.992839011052
 20
4390.800457609001
 30
0.0
 11
5144.092839011054
 21
4390.800457609001
 31
0.0
  0
LINE
  5
7C30
330
8438
100
AcDbEntity
  8
1
100
AcDbLine
 10
5123.992839011052
 20
4250.800457609002
 30
0.0
 11
5144.092839011054
 21
4250.800457609002
 31
0.0
  0
LINE
  5
7C31
330
8438
100
AcDbEntity
  8
1
100
AcDbLine
 10
5123.992839011052
 20
4250.800457609002
 30
0.0
 11
5123.992839011052
 21
3335.800457609002
 31
0.0
  0
LINE
  5
7C32
330
8438
100
AcDbEntity
  8
1
100
AcDbLine
 10
5046.092839011054
 20
4574.800457609002
 30
0.0
 11
5046.092839011054
 21
3169.800457609002
 31
0.0
  0
LINE
  5
7C33
330
8438
100
AcDbEntity
  8
1
100
AcDbLine
 10
5139.092839011054
 20
3335.800457609002
 30
0.0
 11
5139.092839011054
 21
3215.800457609002
 31
0.0
  0
LINE
  5
7C34
330
8438
100
AcDbEntity
  8
1
100
AcDbLine
 10
5123.992839011052
 20
3335.800457609002
 30
0.0
 11
5139.092839011054
 21
3335.800457609002
 31
0.0
  0
LINE
  5
7C35
330
8438
100
AcDbEntity
  8
1
100
AcDbLine
 10
5123.992839011052
 20
3215.800457609002
 30
0.0
 11
5139.092839011054
 21
3215.800457609002
 31
0.0
  0
LINE
  5
7C36
330
8438
100
AcDbEntity
  8
1
100
AcDbLine
 10
5123.992839011052
 20
3215.800457609002
 30
0.0
 11
5123.992839011052
 21
3169.800457609002
 31
0.0
  0
LINE
  5
7C37
330
8438
100
AcDbEntity
  8
1
100
AcDbLine
 10
4961.092839011054
 20
3055.800457609002
 30
0.0
 11
5206.092839011054
 21
3055.800457609002
 31
0.0
  0
LINE
  5
7C38
330
8438
100
AcDbEntity
  8
1
100
AcDbLine
 10
4961.092839011054
 20
4700.800457609002
 30
0.0
 11
4961.092839011054
 21
3055.800457609002
 31
0.0
  0
LINE
  5
7C39
330
8438
100
AcDbEntity
  8
1
100
AcDbLine
 10
5206.092839011053
 20
4700.800457609002
 30
0.0
 11
5206.092839011054
 21
4680.800457609002
 31
0.0
  0
LINE
  5
7C3A
330
8438
100
AcDbEntity
  8
2
100
AcDbLine
 10
2846.156955993239
 20
8747.995955661606
 30
0.0
 11
2846.156955993239
 21
6367.818278393301
 31
0.0
  0
LINE
  5
7C3B
330
8438
100
AcDbEntity
  8
2
100
AcDbLine
 10
1426.156955993237
 20
7403.128832059166
 30
0.0
 11
1426.156955993237
 21
6354.699299825018
 31
0.0
  0
LINE
  5
7C3C
330
8438
100
AcDbEntity
  8
2
100
AcDbLine
 10
6241.092839011054
 20
5467.750106454829
 30
0.0
 11
6241.092839011049
 21
2720.800457609002
 31
0.0
  0
INSERT
  5
7C3D
330
8438
100
AcDbEntity
  8
1
100
AcDbBlockReference
  2
YA_N
 10
-1757.227407310314
 20
-1218.78641745778
 30
0.0
 41
30.0
 42
30.0
 43
30.0
  0
INSERT
  5
7C3E
330
8438
100
AcDbEntity
  8
1
100
AcDbBlockReference
  2
YA_N
 10
-755.2436758818473
 20
-538.554984833856
 30
0.0
 41
30.0
 42
30.0
 43
30.0
  0
LINE
  5
7C3F
330
8438
100
AcDbEntity
  8
1
100
AcDbLine
 10
5039.09283901105
 20
2785.800457609002
 30
0.0
 11
7159.092839011053
 21
2785.800457609002
 31
0.0
1001
ACAD
1000
ASC_BOUNDS
1002
{
1070
    19
1005
0
1005
0
1002
}
  0
LINE
  5
7C40
330
8438
100
AcDbEntity
  8
1
100
AcDbLine
 10
5039.092839011052
 20
2720.800457609002
 30
0.0
 11
7159.092839011053
 21
2720.800457609002
 31
0.0
  0
LINE
  5
7C41
330
8438
100
AcDbEntity
  8
1
100
AcDbLine
 10
7159.092839011053
 20
2785.800457609002
 30
0.0
 11
7159.092839011053
 21
2720.800457609002
 31
0.0
  0
LINE
  5
7C42
330
8438
100
AcDbEntity
  8
1
100
AcDbLine
 10
7091.092839011054
 20
2986.800457609001
 30
0.0
 11
7091.092839011054
 21
5217.800457609002
 31
0.0
  0
LINE
  5
7C43
330
8438
100
AcDbEntity
  8
1
100
AcDbLine
 10
5391.092839011052
 20
2986.800457609002
 30
0.0
 11
5391.092839011054
 21
5217.800457609002
 31
0.0
  0
LINE
  5
7C44
330
8438
100
AcDbEntity
  8
1
100
AcDbLine
 10
3596.156955993239
 20
8648.31161293584
 30
0.0
 11
2096.156955993238
 21
8648.31161293584
 31
0.0
  0
LINE
  5
7C45
330
8438
100
AcDbEntity
  8
1
100
AcDbLine
 10
3596.156955993239
 20
6528.311612935839
 30
0.0
 11
1146.156955993237
 21
6528.311612935842
 31
0.0
  0
LINE
  5
7C46
330
8438
100
AcDbEntity
  8
1
100
AcDbLine
 10
3596.156955993239
 20
8648.31161293584
 30
0.0
 11
3596.156955993239
 21
8580.311612935842
 31
0.0
  0
LINE
  5
7C47
330
8438
100
AcDbEntity
  8
1
100
AcDbLine
 10
1146.156955993237
 20
7528.311612935842
 30
0.0
 11
1146.156955993237
 21
6528.311612935839
 31
0.0
  0
LINE
  5
7C48
330
8438
100
AcDbEntity
  8
1
100
AcDbLine
 10
2096.156955993238
 20
8648.31161293584
 30
0.0
 11
2096.156955993238
 21
8580.311612935842
 31
0.0
  0
LINE
  5
7C49
330
8438
100
AcDbEntity
  8
1
100
AcDbLine
 10
1767.156955993237
 20
7528.311612935837
 30
0.0
 11
1146.156955993237
 21
7528.311612935842
 31
0.0
  0
LINE
  5
7C4B
330
8438
100
AcDbEntity
  8
1
100
AcDbLine
 10
5233.592839011053
 20
4244.800457609001
 30
0.0
 11
5233.592839011053
 21
4114.800457609002
 31
0.0
  0
LINE
  5
7C4C
330
8438
100
AcDbEntity
  8
1
100
AcDbLine
 10
5243.592839011053
 20
4254.800457609001
 30
0.0
 11
5313.792839011053
 21
4254.800457609001
 31
0.0
  0
LINE
  5
7C4D
330
8438
100
AcDbEntity
  8
1
100
AcDbLine
 10
5243.592839011053
 20
4104.800457609001
 30
0.0
 11
5313.792839011053
 21
4104.800457609001
 31
0.0
  0
ARC
  5
7C4E
330
8438
100
AcDbEntity
  8
1
100
AcDbCircle
 10
5243.592839011053
 20
4244.800457609001
 30
0.0
 40
10.0
100
AcDbArc
 50
90.0
 51
180.0
  0
ARC
  5
7C4F
330
8438
100
AcDbEntity
  8
1
100
AcDbCircle
 10
5243.592839011053
 20
4114.800457609002
 30
0.0
 40
10.0
100
AcDbArc
 50
180.0
 51
270.0
  0
LINE
  5
7C50
330
8438
100
AcDbEntity
  8
1
100
AcDbLine
 10
5313.792839011053
 20
4104.800457609001
 30
0.0
 11
5338.092839011061
 21
4104.800457609001
 31
0.0
  0
LINE
  5
7C51
330
8438
100
AcDbEntity
  8
1
100
AcDbLine
 10
5313.792839011053
 20
4254.800457609001
 30
0.0
 11
5338.092839011056
 21
4254.800457609001
 31
0.0
  0
LINE
  5
7C52
330
8438
100
AcDbEntity
  8
1
100
AcDbLine
 10
7261.092839011054
 20
4244.800457609001
 30
0.0
 11
7261.092839011054
 21
4114.800457609002
 31
0.0
  0
LINE
  5
7C53
330
8438
100
AcDbEntity
  8
1
100
AcDbLine
 10
7251.092839011054
 20
4104.800457609001
 30
0.0
 11
7168.392839011052
 21
4104.800457609001
 31
0.0
  0
ARC
  5
7C54
330
8438
100
AcDbEntity
  8
1
100
AcDbCircle
 10
7251.092839011054
 20
4114.800457609002
 30
0.0
 40
10.0
100
AcDbArc
 50
270.0
 51
0.0
  0
LINE
  5
7C55
330
8438
100
AcDbEntity
  8
1
100
AcDbLine
 10
7168.392839011052
 20
4104.800457609001
 30
0.0
 11
7144.092839011054
 21
4104.800457609001
 31
0.0
  0
LINE
  5
7C56
330
8438
100
AcDbEntity
  8
1
100
AcDbLine
 10
7251.092839011054
 20
4254.800457609001
 30
0.0
 11
7168.392839011052
 21
4254.800457609001
 31
0.0
  0
ARC
  5
7C57
330
8438
100
AcDbEntity
  8
1
100
AcDbCircle
 10
7251.092839011054
 20
4244.800457609001
 30
0.0
 40
10.0
100
AcDbArc
 50
0.0
 51
90.0
  0
LINE
  5
7C58
330
8438
100
AcDbEntity
  8
1
100
AcDbLine
 10
7168.392839011052
 20
4254.800457609001
 30
0.0
 11
7144.092839011054
 21
4254.800457609001
 31
0.0
  0
LINE
  5
7C5D
330
8438
100
AcDbEntity
  8
1
100
AcDbLine
 10
5046.092839011054
 20
4574.800457609002
 30
0.0
 11
5123.992839011052
 21
4574.800457609002
 31
0.0
  0
LINE
  5
7C5E
330
8438
100
AcDbEntity
  8
1
100
AcDbLine
 10
5046.092839011054
 20
4066.800457609001
 30
0.0
 11
5123.992839011052
 21
4066.800457609001
 31
0.0
  0
LINE
  5
7C5F
330
8438
100
AcDbEntity
  8
1
100
AcDbLine
 10
4961.092839011053
 20
4700.800457609002
 30
0.0
 11
5206.092839011052
 21
4700.800457609002
 31
0.0
  0
LINE
  5
7C60
330
8438
100
AcDbEntity
  8
1
100
AcDbLine
 10
5206.092839011054
 20
3075.800457609002
 30
0.0
 11
5206.092839011054
 21
3055.800457609002
 31
0.0
  0
INSERT
  5
7C61
330
8438
100
AcDbEntity
  8
1
100
AcDbBlockReference
  2
YA_N
 10
4767.943419715615
 20
-1494.695868425496
 30
0.0
  0
LINE
  5
7C62
330
8438
100
AcDbEntity
  8
1
100
AcDbLine
 10
7159.092839011053
 20
3015.800457609002
 30
0.0
 11
7159.092839011051
 21
2890.800457609002
 31
0.0
  0
LINE
  5
7C63
330
8438
100
AcDbEntity
  8
1
100
AcDbLine
 10
5039.092839011052
 20
2785.800457609002
 30
0.0
 11
5039.092839011054
 21
2720.800457609002
 31
0.0
  0
LINE
  5
7C64
330
8438
100
AcDbEntity
  8
1
100
AcDbLine
 10
5039.092839011053
 20
3015.800457609002
 30
0.0
 11
5039.092839011053
 21
2890.800457609002
 31
0.0
  0
LINE
  5
7C68
330
8438
100
AcDbEntity
  8
1
100
AcDbLine
 10
5144.092839011054
 20
4358.300457609002
 30
0.0
 11
5391.092839011053
 21
4358.300457609002
 31
0.0
  0
LINE
  5
7C69
330
8438
100
AcDbEntity
  8
1
100
AcDbLine
 10
5144.092839011054
 20
4283.300457609001
 30
0.0
 11
5391.092839011053
 21
4283.300457609001
 31
0.0
  0
LINE
  5
7C6A
330
8438
100
AcDbEntity
  8
1
100
AcDbLine
 10
5235.042839011056
 20
3075.800457609002
 30
0.0
 11
5235.042839011054
 21
3275.800457609004
 31
0.0
  0
LINE
  5
7C6B
330
8438
100
AcDbEntity
  8
1
100
AcDbLine
 10
5235.042839011056
 20
3075.800457609004
 30
0.0
 11
5391.092839011053
 21
3075.800457609004
 31
0.0
  0
LINE
  5
7C6C
330
8438
100
AcDbEntity
  8
1
100
AcDbLine
 10
5391.092839011054
 20
3485.800457609006
 30
0.0
 11
5235.042839011053
 21
3485.800457609003
 31
0.0
  0
LINE
  5
7C6D
330
8438
100
AcDbEntity
  8
1
100
AcDbLine
 10
5225.042839011052
 20
3245.800457609004
 30
0.0
 11
5139.092839011054
 21
3245.800457609004
 31
0.0
  0
LINE
  5
7C6E
330
8438
100
AcDbEntity
  8
1
100
AcDbLine
 10
5225.042839011052
 20
3305.800457609004
 30
0.0
 11
5139.092839011054
 21
3305.800457609002
 31
0.0
  0
LINE
  5
7C6F
330
8438
100
AcDbEntity
  8
1
100
AcDbLine
 10
5235.042839011054
 20
3485.800457609003
 30
0.0
 11
5235.042839011054
 21
3275.800457609004
 31
0.0
  0
LINE
  5
7C70
330
8438
100
AcDbEntity
  8
1
100
AcDbLine
 10
5225.042839011052
 20
3243.300457609004
 30
0.0
 11
5225.042839011052
 21
3308.300457609004
 31
0.0
  0
LINE
  5
7C71
330
8438
100
AcDbEntity
  8
1
100
AcDbLine
 10
5225.042839011052
 20
3243.300457609004
 30
0.0
 11
5235.042839011054
 21
3243.300457609004
 31
0.0
  0
LINE
  5
7C72
330
8438
100
AcDbEntity
  8
1
100
AcDbLine
 10
5225.042839011052
 20
3308.300457609004
 30
0.0
 11
5235.042839011054
 21
3308.300457609004
 31
0.0
  0
LINE
  5
7C73
330
8438
100
AcDbEntity
  8
2
100
AcDbLine
 10
3821.984076714958
 20
7730.311612935842
 30
0.0
 11
1588.632147140524
 21
7730.311612935837
 31
0.0
  0
LINE
  5
7C74
330
8438
100
AcDbEntity
  8
1
100
AcDbLine
 10
3226.156955993238
 20
6450.311612935841
 30
0.0
 11
1206.156955993237
 21
6450.311612935841
 31
0.0
  0
LINE
  5
7C75
330
8438
100
AcDbEntity
  8
1
100
AcDbLine
 10
3100.156955993239
 20
6535.311612935842
 30
0.0
 11
2592.156955993239
 21
6535.311612935842
 31
0.0
  0
LINE
  5
7C76
330
8438
100
AcDbEntity
  8
1
100
AcDbLine
 10
2776.156955993239
 20
6613.211612935842
 30
0.0
 11
2592.156955993239
 21
6613.211612935842
 31
0.0
  0
LINE
  5
7C77
330
8438
100
AcDbEntity
  8
1
100
AcDbLine
 10
1396.156955993237
 20
6714.261612935844
 30
0.0
 11
1396.156955993237
 21
6628.311612935842
 31
0.0
  0
LINE
  5
7C78
330
8438
100
AcDbEntity
  8
1
100
AcDbLine
 10
1456.156955993237
 20
6714.261612935844
 30
0.0
 11
1456.156955993237
 21
6628.311612935842
 31
0.0
  0
LINE
  5
7C79
330
8438
100
AcDbEntity
  8
1
100
AcDbLine
 10
1206.156955993237
 20
6450.311612935841
 30
0.0
 11
1206.156955993237
 21
6695.311612935842
 31
0.0
  0
LINE
  5
7C7A
330
8438
100
AcDbEntity
  8
1
100
AcDbLine
 10
2046.156955993237
 20
6528.311612935842
 30
0.0
 11
1921.156955993238
 21
6528.311612935842
 31
0.0
  0
LINE
  5
7C7B
330
8438
100
AcDbEntity
  8
1
100
AcDbLine
 10
1902.156955993237
 20
6528.311612935842
 30
0.0
 11
1837.156955993237
 21
6528.311612935842
 31
0.0
  0
LINE
  5
7C7C
330
8438
100
AcDbEntity
  8
1
100
AcDbLine
 10
1486.156955993237
 20
6628.311612935842
 30
0.0
 11
1366.156955993237
 21
6628.311612935842
 31
0.0
  0
LINE
  5
7C7D
330
8438
100
AcDbEntity
  8
1
100
AcDbLine
 10
1366.156955993237
 20
6613.211612935842
 30
0.0
 11
1320.156955993237
 21
6613.211612935842
 31
0.0
  0
LINE
  5
7C7E
330
8438
100
AcDbEntity
  8
1
100
AcDbLine
 10
1320.156955993237
 20
6535.311612935842
 30
0.0
 11
1320.156955993237
 21
6613.211612935842
 31
0.0
  0
LINE
  5
7C7F
330
8438
100
AcDbEntity
  8
1
100
AcDbLine
 10
1366.156955993237
 20
6613.211612935842
 30
0.0
 11
1366.156955993237
 21
6628.311612935842
 31
0.0
  0
LINE
  5
7C80
330
8438
100
AcDbEntity
  8
1
100
AcDbLine
 10
1532.156955993237
 20
6535.311612935842
 30
0.0
 11
1532.156955993237
 21
6613.211612935841
 31
0.0
  0
LINE
  5
7C81
330
8438
100
AcDbEntity
  8
1
100
AcDbLine
 10
1486.156955993237
 20
6613.211612935842
 30
0.0
 11
1486.156955993237
 21
6628.311612935842
 31
0.0
  0
LINE
  5
7C82
330
8438
100
AcDbEntity
  8
1
100
AcDbLine
 10
2592.156955993239
 20
6535.311612935842
 30
0.0
 11
2592.156955993239
 21
6613.211612935841
 31
0.0
  0
LINE
  5
7C83
330
8438
100
AcDbEntity
  8
1
100
AcDbLine
 10
1636.156955993237
 20
6724.261612935842
 30
0.0
 11
1426.156955993237
 21
6724.261612935842
 31
0.0
  0
LINE
  5
7C84
330
8438
100
AcDbEntity
  8
1
100
AcDbLine
 10
1393.656955993237
 20
6714.261612935844
 30
0.0
 11
1458.656955993237
 21
6714.261612935844
 31
0.0
  0
LINE
  5
7C85
330
8438
100
AcDbEntity
  8
1
100
AcDbLine
 10
1226.156955993237
 20
6724.261612935842
 30
0.0
 11
1226.156955993245
 21
7373.761612935844
 31
0.0
  0
LINE
  5
7C86
330
8438
100
AcDbEntity
  8
1
100
AcDbLine
 10
1226.156955993237
 20
6724.261612935842
 30
0.0
 11
1426.156955993237
 21
6724.261612935842
 31
0.0
  0
LINE
  5
7C87
330
8438
100
AcDbEntity
  8
1
100
AcDbLine
 10
1393.656955993237
 20
6714.261612935844
 30
0.0
 11
1393.656955993237
 21
6724.261612935842
 31
0.0
  0
LINE
  5
7C88
330
8438
100
AcDbEntity
  8
1
100
AcDbLine
 10
1226.156955993239
 20
6899.761612935844
 30
0.0
 11
1227.156955993239
 21
6899.761612935844
 31
0.0
  0
LINE
  5
7C89
330
8438
100
AcDbEntity
  8
1
100
AcDbLine
 10
1636.156955993245
 20
7373.761612935843
 30
0.0
 11
1636.156955993237
 21
6724.261612935841
 31
0.0
  0
LINE
  5
7C8A
330
8438
100
AcDbEntity
  8
1
100
AcDbLine
 10
1458.656955993237
 20
6714.261612935844
 30
0.0
 11
1458.656955993237
 21
6724.261612935842
 31
0.0
  0
LINE
  5
7C8B
330
8438
100
AcDbEntity
  8
1
100
AcDbLine
 10
2808.656955993237
 20
6633.311612935843
 30
0.0
 11
2808.656955993237
 21
6880.31161293584
 31
0.0
  0
LINE
  5
7C8C
330
8438
100
AcDbEntity
  8
1
100
AcDbLine
 10
2883.656955993238
 20
6633.311612935843
 30
0.0
 11
2883.656955993238
 21
6880.311612935843
 31
0.0
  0
LINE
  5
7C8D
330
8438
100
AcDbEntity
  8
1
100
AcDbLine
 10
3226.156955993238
 20
6450.311612935841
 30
0.0
 11
3226.156955993238
 21
6695.311612935839
 31
0.0
  0
LINE
  5
7C8E
330
8438
100
AcDbEntity
  8
1
100
AcDbLine
 10
2916.156955993237
 20
6633.311612935843
 30
0.0
 11
2776.156955993239
 21
6633.311612935843
 31
0.0
  0
LINE
  5
7C8F
330
8438
100
AcDbEntity
  8
1
100
AcDbLine
 10
2776.156955993239
 20
6613.211612935841
 30
0.0
 11
2776.156955993239
 21
6633.311612935843
 31
0.0
  0
LINE
  5
7C90
330
8438
100
AcDbEntity
  8
1
100
AcDbLine
 10
3100.156955993239
 20
6613.211612935842
 30
0.0
 11
2916.156955993237
 21
6613.211612935842
 31
0.0
  0
LINE
  5
7C91
330
8438
100
AcDbEntity
  8
1
100
AcDbLine
 10
2916.156955993237
 20
6613.211612935842
 30
0.0
 11
2916.156955993237
 21
6633.311612935843
 31
0.0
  0
LINE
  5
7C92
330
8438
100
AcDbEntity
  8
1
100
AcDbLine
 10
3100.156955993239
 20
6535.311612935842
 30
0.0
 11
3100.156955993239
 21
6613.211612935841
 31
0.0
  0
LINE
  5
7C93
330
8438
100
AcDbEntity
  8
1
100
AcDbLine
 10
3226.156955993238
 20
6695.311612935842
 30
0.0
 11
1206.156955993237
 21
6695.311612935933
 31
0.0
  0
LINE
  5
7C94
330
8438
100
AcDbEntity
  8
1
100
AcDbLine
 10
1226.156955993239
 20
7373.761612935844
 30
0.0
 11
1636.156955993245
 21
7373.761612935843
 31
0.0
  0
LINE
  5
7C95
330
8438
100
AcDbEntity
  8
1
100
AcDbLine
 10
3671.156955993239
 20
8580.311612935842
 30
0.0
 11
1767.156955993239
 21
8580.311612935842
 31
0.0
  0
LINE
  5
7C96
330
8438
100
AcDbEntity
  8
1
100
AcDbLine
 10
3671.156955993239
 20
6880.311612935837
 30
0.0
 11
1767.156955993237
 21
6880.31161293584
 31
0.0
  0
LINE
  5
7C97
330
8438
100
AcDbEntity
  8
1
100
AcDbLine
 10
3671.156955993239
 20
8630.311612935843
 30
0.0
 11
3671.156955993239
 21
6830.31161293584
 31
0.0
  0
LINE
  5
7C98
330
8438
100
AcDbEntity
  8
1
100
AcDbLine
 10
1767.156955993237
 20
8580.31161293584
 30
0.0
 11
1767.156955993237
 21
6880.31161293584
 31
0.0
  0
LINE
  5
7C99
330
8438
100
AcDbEntity
  8
1
100
AcDbLine
 10
3596.156955993239
 20
6880.31161293584
 30
0.0
 11
3596.156955993239
 21
6528.311612935839
 31
0.0
  0
LINE
  5
7C9A
330
8438
100
AcDbEntity
  8
1
100
AcDbLine
 10
1532.156955993237
 20
6613.211612935842
 30
0.0
 11
1486.156955993237
 21
6613.211612935842
 31
0.0
  0
LINE
  5
7C9B
330
8438
100
AcDbEntity
  8
1
100
AcDbLine
 10
1532.156955993237
 20
6535.311612935842
 30
0.0
 11
1320.156955993237
 21
6535.311612935842
 31
0.0
  0
INSERT
  5
7CA1
330
8438
100
AcDbEntity
  8
1
100
AcDbBlockReference
  2
YA_N
 10
10491.49125510566
 20
1972.966762031963
 30
0.0
  0
ARC
  5
7CA3
330
8438
100
AcDbEntity
  8
1
100
AcDbCircle
 10
2937.156955993239
 20
4229.800457609001
 30
0.0
 40
1170.0
100
AcDbArc
 50
175.539156302126
 51
265.539156302126
  0
ARC
  5
7CA4
330
8438
100
AcDbEntity
  8
1
100
AcDbCircle
 10
2755.156955993238
 20
4229.800457609001
 30
0.0
 40
988.0
100
AcDbArc
 50
84.71526704546546
 51
174.7152670454654
  0
ARC
  5
7CA5
330
8438
100
AcDbEntity
  8
1
100
AcDbCircle
 10
2769.156955993239
 20
4397.800457609001
 30
0.0
 40
820.0
100
AcDbArc
 50
357.2424852442078
 51
84.61184819567256
  0
LINE
  5
7CA6
330
8438
100
AcDbEntity
  8
1
100
AcDbLine
 10
2846.156955993239
 20
3063.344714770895
 30
0.0
 11
3671.156955993239
 21
2986.800457609002
 31
0.0
  0
LINE
  5
7CA7
330
8438
100
AcDbEntity
  8
1
100
AcDbLine
 10
3596.156955993239
 20
2890.800457609002
 30
0.0
 11
1146.156955993237
 21
2890.800457609002
 31
0.0
1001
ACAD
1000
ASC_BOUNDS
1002
{
1070
    19
1002
}
  0
LINE
  5
7CA8
330
8438
100
AcDbEntity
  8
1
100
AcDbLine
 10
3596.156955993239
 20
3015.800457609002
 30
0.0
 11
1146.156955993237
 21
3015.800457609002
 31
0.0
  0
LINE
  5
7CA9
330
8438
100
AcDbEntity
  8
1
100
AcDbLine
 10
3596.156955993239
 20
3015.800457609002
 30
0.0
 11
3596.156955993239
 21
2890.800457609002
 31
0.0
  0
LINE
  5
7CAA
330
8438
100
AcDbEntity
  8
1
100
AcDbLine
 10
1146.156955993237
 20
3015.800457609002
 30
0.0
 11
1146.156955993237
 21
2890.800457609002
 31
0.0
  0
LINE
  5
7CAB
330
8438
100
AcDbEntity
  8
2
100
AcDbLine
 10
1426.156955993237
 20
3566.654974214712
 30
0.0
 11
1426.156955993238
 21
2720.800457609002
 31
0.0
  0
LINE
  5
7CAC
330
8438
100
AcDbEntity
  8
2
100
AcDbLine
 10
1706.471172751389
 20
3275.800457609002
 30
0.0
 11
1156.050935125989
 21
3275.800457609002
 31
0.0
  0
LINE
  5
7CAF
330
8438
100
AcDbEntity
  8
1
100
AcDbLine
 10
3671.156955993239
 20
4266.800457609003
 30
0.0
 11
3587.192042881841
 21
4266.800457609003
 31
0.0
  0
LINE
  5
7CB0
330
8438
100
AcDbEntity
  8
1
100
AcDbLine
 10
3621.156955993237
 20
2991.439503497602
 30
0.0
 11
3621.156955993237
 21
4266.800457609003
 31
0.0
  0
LINE
  5
7CB1
330
8438
100
AcDbEntity
  8
1
100
AcDbLine
 10
3671.156955993239
 20
2933.800457609002
 30
0.0
 11
3671.156955993239
 21
4319.800457609001
 31
0.0
  0
POINT
  5
7CB3
330
8438
100
AcDbEntity
  8
1
100
AcDbPoint
 10
1771.356671382585
 20
4320.800457609002
 30
0.0
  0
INSERT
  5
7CB4
330
8438
100
AcDbEntity
  8
1
100
AcDbBlockReference
  2
YA_N
 10
8728.26384779535
 20
749.1803445741823
 30
0.0
 41
30.0
 42
30.0
 43
30.0
  0
LINE
  5
7CB6
330
8438
100
AcDbEntity
  8
1
100
AcDbLine
 10
3596.156955993239
 20
2785.800457609002
 30
0.0
 11
1146.156955993237
 21
2785.800457609002
 31
0.0
1001
ACAD
1000
ASC_BOUNDS
1002
{
1070
    19
1002
}
  0
LINE
  5
7CB7
330
8438
100
AcDbEntity
  8
1
100
AcDbLine
 10
3596.156955993239
 20
2720.800457609002
 30
0.0
 11
1146.156955993237
 21
2720.800457609002
 31
0.0
  0
LINE
  5
7CB8
330
8438
100
AcDbEntity
  8
1
100
AcDbLine
 10
3596.156955993239
 20
2785.800457609002
 30
0.0
 11
3596.156955993239
 21
2720.800457609002
 31
0.0
  0
LINE
  5
7CB9
330
8438
100
AcDbEntity
  8
1
100
AcDbLine
 10
1146.156955993237
 20
2785.800457609002
 30
0.0
 11
1146.156955993237
 21
2720.800457609002
 31
0.0
  0
ARC
  5
7CBA
330
8438
100
AcDbEntity
  8
1
100
AcDbCircle
 10
1426.156955993237
 20
3275.800457609002
 30
0.0
 40
203.5
100
AcDbArc
 50
285.603699
 51
254.39624
  0
LINE
  5
7CBB
330
8438
100
AcDbEntity
  8
1
100
AcDbLine
 10
1371.418918993236
 20
3079.800457609002
 30
0.0
 11
1480.894992993238
 21
3079.800457609002
 31
0.0
  0
ARC
  5
7CBC
330
8438
100
AcDbEntity
  8
1
100
AcDbCircle
 10
1612.156955993238
 20
3092.800457609002
 30
0.0
 40
3.0
100
AcDbArc
 50
0.0
 51
90.0
  0
ARC
  5
7CBD
330
8438
100
AcDbEntity
  8
1
100
AcDbCircle
 10
1610.156955993238
 20
3150.127118609002
 30
0.0
 40
5.000066999999999
100
AcDbArc
 50
0.0
 51
55.056335
  0
LINE
  5
7CBE
330
8438
100
AcDbEntity
  8
1
100
AcDbLine
 10
1615.156955993237
 20
3150.127118609002
 30
0.0
 11
1615.156955993237
 21
3075.800457609002
 31
0.0
  0
LINE
  5
7CC1
330
8438
100
AcDbEntity
  8
1
100
AcDbLine
 10
1530.259525993238
 20
3100.943646609004
 30
0.0
 11
1535.656955993237
 21
3080.800457609002
 31
0.0
  0
LINE
  5
7CC2
330
8438
100
AcDbEntity
  8
1
100
AcDbLine
 10
1535.656955993237
 20
3092.800457609002
 30
0.0
 11
1535.656955993237
 21
3075.800457609002
 31
0.0
  0
LINE
  5
7CC3
330
8438
100
AcDbEntity
  8
1
100
AcDbLine
 10
1538.656955993237
 20
3095.800457609002
 30
0.0
 11
1612.156955993238
 21
3095.800457609002
 31
0.0
  0
ARC
  5
7CC4
330
8438
100
AcDbEntity
  8
1
100
AcDbCircle
 10
1538.656955993237
 20
3092.800457609002
 30
0.0
 40
3.0
100
AcDbArc
 50
90.0
 51
180.0
  0
LINE
  5
7CC5
330
8438
100
AcDbEntity
  8
1
100
AcDbLine
 10
1613.020725993237
 20
3154.225750609001
 30
0.0
 11
1597.082859993237
 21
3165.362225609002
 31
0.0
  0
LINE
  5
7CC6
330
8438
100
AcDbEntity
  8
1
100
AcDbLine
 10
1237.156955993237
 20
3150.127118609002
 30
0.0
 11
1237.156955993237
 21
3075.800457609002
 31
0.0
  0
LINE
  5
7CC9
330
8438
100
AcDbEntity
  8
1
100
AcDbLine
 10
1322.054172993237
 20
3100.943768609001
 30
0.0
 11
1316.656955993237
 21
3080.800457609002
 31
0.0
  0
LINE
  5
7CCA
330
8438
100
AcDbEntity
  8
1
100
AcDbLine
 10
1316.656955993237
 20
3092.800457609002
 30
0.0
 11
1316.656955993237
 21
3075.800457609002
 31
0.0
  0
LINE
  5
7CCB
330
8438
100
AcDbEntity
  8
1
100
AcDbLine
 10
1313.656955993237
 20
3095.800457609002
 30
0.0
 11
1240.156955993237
 21
3095.800457609002
 31
0.0
  0
ARC
  5
7CCC
330
8438
100
AcDbEntity
  8
1
100
AcDbCircle
 10
1313.656955993237
 20
3092.800457609002
 30
0.0
 40
3.0
100
AcDbArc
 50
0.0
 51
90.0
  0
ARC
  5
7CCD
330
8438
100
AcDbEntity
  8
1
100
AcDbCircle
 10
1240.156955993237
 20
3092.800457609002
 30
0.0
 40
3.0
100
AcDbArc
 50
90.0
 51
180.0
  0
LINE
  5
7CCE
330
8438
100
AcDbEntity
  8
1
100
AcDbLine
 10
1239.293064993238
 20
3154.225750609001
 30
0.0
 11
1255.230930993239
 21
3165.362225609002
 31
0.0
  0
ARC
  5
7CCF
330
8438
100
AcDbEntity
  8
1
100
AcDbCircle
 10
1242.156955993237
 20
3150.127118609002
 30
0.0
 40
5.0
100
AcDbArc
 50
124.943661
 51
180.0
  0
LINE
  5
7CD0
330
8438
100
AcDbEntity
  8
1
100
AcDbLine
 10
1669.579981035847
 20
3075.800457609002
 30
0.0
 11
1496.156955993237
 21
3075.800457609002
 31
0.0
  0
LINE
  5
7CD1
330
8438
100
AcDbEntity
  8
1
100
AcDbLine
 10
1686.156955993237
 20
3015.800457609002
 30
0.0
 11
1669.579981035847
 21
3075.800457609002
 31
0.0
  0
LINE
  5
7CD2
330
8438
100
AcDbEntity
  8
1
100
AcDbLine
 10
1166.156955993237
 20
3015.800457609002
 30
0.0
 11
1182.337912538356
 21
3075.800457609002
 31
0.0
  0
LINE
  5
7CD3
330
8438
100
AcDbEntity
  8
1
100
AcDbLine
 10
1496.156955993237
 20
3065.800457609002
 30
0.0
 11
1356.156955993237
 21
3065.800457609002
 31
0.0
  0
LINE
  5
7CD5
330
8438
100
AcDbEntity
  8
1
100
AcDbLine
 10
1356.156955993237
 20
3075.800457609002
 30
0.0
 11
1356.156955993237
 21
3065.800457609002
 31
0.0
  0
LINE
  5
7CD6
330
8438
100
AcDbEntity
  8
1
100
AcDbLine
 10
1496.156955993237
 20
3075.800457609002
 30
0.0
 11
1496.156955993237
 21
3065.800457609002
 31
0.0
  0
LINE
  5
7CD9
330
8438
100
AcDbEntity
  8
1
100
AcDbLine
 10
1356.156955993237
 20
3075.800457609002
 30
0.0
 11
1182.337912538356
 21
3075.800457609002
 31
0.0
  0
INSERT
  5
7CDA
330
8438
100
AcDbEntity
  8
1
100
AcDbBlockReference
  2
YA_N
 10
9730.247579223819
 20
1429.411777198107
 30
0.0
 41
30.0
 42
30.0
 43
30.0
  0
CIRCLE
  5
7CE0
330
8438
100
AcDbEntity
  8
1
100
AcDbCircle
 10
1426.156955993237
 20
3275.800457609002
 30
0.0
 40
107.0
  0
POINT
  5
7CE1
330
8438
100
AcDbEntity
  8
1
100
AcDbPoint
 10
3596.156955993239
 20
2785.800457609002
 30
0.0
  0
POINT
  5
7CE2
330
8438
100
AcDbEntity
  8
1
100
AcDbPoint
 10
3596.156955993239
 20
2890.800457609002
 30
0.0
  0
POINT
  5
7CE3
330
8438
100
AcDbEntity
  8
1
100
AcDbPoint
 10
3596.156955993239
 20
2785.800457609002
 30
0.0
  0
ARC
  5
7CE5
330
8438
100
AcDbEntity
  8
1
100
AcDbCircle
 10
2846.156955993239
 20
4320.800457609002
 30
0.0
 40
625.0
100
AcDbArc
 50
0.0
 51
180.0
  0
ARC
  5
7CE6
330
8438
100
AcDbEntity
  8
1
100
AcDbCircle
 10
2846.156955993239
 20
4320.800457609002
 30
0.0
 40
675.0
100
AcDbArc
 50
0.0
 51
180.0
  0
ARC
  5
7CE7
330
8438
100
AcDbEntity
  8
1
100
AcDbCircle
 10
2846.156955993239
 20
4320.800457609002
 30
0.0
 40
625.0
100
AcDbArc
 50
180.0
 51
0.0
  0
ARC
  5
7CE8
330
8438
100
AcDbEntity
  8
1
100
AcDbCircle
 10
2846.156955993239
 20
4320.800457609002
 30
0.0
 40
675.0
100
AcDbArc
 50
180.0
 51
0.0
  0
CIRCLE
  5
7CEB
330
8438
100
AcDbEntity
  8
1
100
AcDbCircle
 10
2846.156955993239
 20
4320.800457609002
 30
0.0
 40
254.0
  0
POINT
  5
7CEC
330
8438
100
AcDbEntity
  8
1
100
AcDbPoint
 10
3596.156955993239
 20
2785.800457609002
 30
0.0
  0
POINT
  5
7CEE
330
8438
100
AcDbEntity
  8
1
100
AcDbPoint
 10
3596.156955993239
 20
2785.800457609002
 30
0.0
  0
POINT
  5
7CEF
330
8438
100
AcDbEntity
  8
1
100
AcDbPoint
 10
3596.156955993239
 20
2890.800457609002
 30
0.0
  0
ARC
  5
7CF0
330
8438
100
AcDbEntity
  8
1
100
AcDbCircle
 10
2846.156955993239
 20
4320.800457609002
 30
0.0
 40
743.0
100
AcDbArc
 50
355.8321636778381
 51
2.896908041025933
  0
INSERT
  5
7CF1
330
8438
100
AcDbEntity
  8
1
100
AcDbBlockReference
  2
YA_N
 10
15253.43467482128
 20
473.2708936064663
 30
0.0
  0
ARC
  5
7CF3
330
8438
100
AcDbEntity
  8
1
100
AcDbCircle
 10
2846.156955993239
 20
4320.800457609002
 30
0.0
 40
380.0
100
AcDbArc
 50
301.1431341389922
 51
131.5567209314936
  0
ARC
  5
7CF4
330
8438
100
AcDbEntity
  8
1
100
AcDbCircle
 10
1426.156955993237
 20
3275.800457609002
 30
0.0
 40
220.0
100
AcDbArc
 50
131.5567209314936
 51
301.1431341389922
  0
LINE
  5
7CF5
330
8438
100
AcDbEntity
  8
1
100
AcDbLine
 10
2594.079713348567
 20
4605.154222733818
 30
0.0
 11
1280.217499725268
 21
3440.426321628633
 31
0.0
  0
LINE
  5
7CF6
330
8438
100
AcDbEntity
  8
1
100
AcDbLine
 10
2679.074632947891
 20
4512.110408541436
 30
0.0
 11
1355.771882899331
 21
3356.391657411248
 31
0.0
  0
LINE
  5
7CF7
330
8438
100
AcDbEntity
  8
1
100
AcDbLine
 10
2979.125565501986
 20
4104.385696362664
 30
0.0
 11
1482.171291494954
 21
3184.633609367435
 31
0.0
  0
LINE
  5
7CF8
330
8438
100
AcDbEntity
  8
1
100
AcDbLine
 10
3042.684523159171
 20
3995.566825670607
 30
0.0
 11
1539.936073826145
 21
3087.507302276247
 31
0.0
  0
POINT
  5
7CFC
330
8438
100
AcDbEntity
  8
1
100
AcDbPoint
 10
3596.156955993239
 20
2785.800457609002
 30
0.0
  0
POINT
  5
7CFE
330
8438
100
AcDbEntity
  8
1
100
AcDbPoint
 10
3596.156955993239
 20
2785.800457609002
 30
0.0
  0
POINT
  5
7CFF
330
8438
100
AcDbEntity
  8
1
100
AcDbPoint
 10
3596.156955993239
 20
2890.800457609002
 30
0.0
  0
LINE
  5
7D00
330
8438
100
AcDbEntity
  8
1
100
AcDbLine
 10
5391.092839011054
 20
5217.800457609002
 30
0.0
 11
7091.092839011054
 21
5217.800457609002
 31
0.0
  0
LINE
  5
7D05
330
8438
100
AcDbEntity
  8
1
100
AcDbLine
 10
5391.092839011053
 20
4266.800457609003
 30
0.0
 11
7091.092839011054
 21
4266.800457609003
 31
0.0
  0
LINE
  5
7D06
330
8438
100
AcDbEntity
  8
1
100
AcDbLine
 10
7091.092839011054
 20
4266.800457609003
 30
0.0
 11
5391.092839011053
 21
2986.800457609004
 31
0.0
  0
LINE
  5
7D07
330
8438
100
AcDbEntity
  8
1
100
AcDbLine
 10
7091.092839011054
 20
2986.800457609002
 30
0.0
 11
5391.092839011053
 21
4266.800457609003
 31
0.0
  0
LINE
  5
7D0D
330
8438
100
AcDbEntity
  8
1
100
AcDbLine
 10
7091.092839011055
 20
2986.800457609002
 30
0.0
 11
5391.092839011054
 21
2986.800457609004
 31
0.0
  0
LINE
  5
7D0F
330
8438
100
AcDbEntity
  8
1
100
AcDbLine
 10
7091.092839011055
 20
3015.800457609002
 30
0.0
 11
7159.092839011053
 21
3015.800457609002
 31
0.0
  0
LINE
  5
807E
330
8438
100
AcDbEntity
  8
4
100
AcDbLine
 10
7400.0
 20
2000.0
 30
0.0
 11
7400.0
 21
1200.0
 31
0.0
  0
LINE
  5
807F
330
8438
100
AcDbEntity
  8
4
100
AcDbLine
 10
4600.0
 20
2000.0
 30
0.0
 11
4600.0
 21
1200.0
 31
0.0
  0
LINE
  5
8080
330
8438
100
AcDbEntity
  8
4
100
AcDbLine
 10
2600.0
 20
2000.0
 30
0.0
 11
2600.0
 21
1200.0
 31
0.0
  0
LINE
  5
8083
330
8438
100
AcDbEntity
  8
4
100
AcDbLine
 10
2600.0
 20
1200.0
 30
0.0
 11
7400.0
 21
1200.0
 31
0.0
  0
LINE
  5
8084
330
8438
100
AcDbEntity
  8
4
100
AcDbLine
 10
2600.0
 20
1600.0
 30
0.0
 11
7400.0
 21
1600.0
 31
0.0
  0
TEXT
  5
8085
330
8438
100
AcDbEntity
  8
4
100
AcDbText
 10
2754.008323387607
 20
1726.172103466451
 30
0.0
 40
200.0
  1
機器名称
100
AcDbText
  0
TEXT
  5
8086
330
8438
100
AcDbEntity
  8
4
100
AcDbText
 10
2745.03242409919
 20
1286.580626928043
 30
0.0
 40
200.0
  1
機器型番
100
AcDbText
  0
TEXT
  5
8087
330
8438
100
AcDbEntity
  8
4
100
AcDbText
 10
4710.714981950659
 20
1690.287075830274
 30
0.0
 40
200.0
  1
ミツヤ多翼送風機
100
AcDbText
  0
TEXT
  5
8088
330
8438
100
AcDbEntity
  8
4
100
AcDbText
 10
4746.617982341923
 20
1268.638337119773
 30
0.0
 40
200.0
  1
MF#8-5
100
AcDbText
  0
TEXT
  5
808A
330
8438
100
AcDbEntity
  8
4
100
AcDbText
 10
3150.362428668937
 20
9511.40912933649
 30
0.0
 40
215.9999999999999
  1
床置防振ベット
100
AcDbText
  0
TEXT
  5
808B
330
8438
100
AcDbEntity
  8
4
100
AcDbText
 10
1264.670373317785
 20
10135.52390479719
 30
0.0
 40
288.0
  1
遠心式両吸込両持多翼ファン
100
AcDbText
  0
LINE
  5
808C
330
8438
100
AcDbEntity
  8
4
100
AcDbLine
 10
1000.0
 20
9877.635017059219
 30
0.0
 11
7400.0
 21
9877.635017059219
 31
0.0
  0
LINE
  5
808D
330
8438
100
AcDbEntity
  8
4
100
AcDbLine
 10
1000.0
 20
10677.63501705921
 30
0.0
 11
7400.0
 21
10677.63501705921
 31
0.0
  0
LINE
  5
808E
330
8438
100
AcDbEntity
  8
4
100
AcDbLine
 10
2600.0
 20
2000.0
 30
0.0
 11
7400.0
 21
2000.0
 31
0.0
  0
LINE
  5
808F
330
8438
100
AcDbEntity
  8
4
100
AcDbLine
 10
1000.0
 20
10677.63501705921
 30
0.0
 11
1000.0
 21
9877.635017059219
 31
0.0
  0
TEXT
  5
8090
330
8438
100
AcDbEntity
  8
4
100
AcDbText
 10
1406.927099698128
 20
9506.971674191801
 30
0.0
 40
215.9999999999999
  1
左回転右横向
100
AcDbText
  0
TEXT
  5
8091
330
8438
100
AcDbEntity
  8
4
100
AcDbText
 10
5875.878236997159
 20
10824.24432598123
 30
0.0
 40
224.0
  1
No.
100
AcDbText
  0
TEXT
  5
8092
330
8438
100
AcDbEntity
  8
4
100
AcDbText
 10
5245.184250400053
 20
9533.715365330063
 30
0.0
 40
215.9999999999999
  1
縮尺：1/40
100
AcDbText
  0
LINE
  5
8093
330
8438
100
AcDbEntity
  8
4
100
AcDbLine
 10
7400.0
 20
10677.63501705921
 30
0.0
 11
7400.0
 21
9877.635017059219
 31
0.0
  0
LINE
  5
8094
330
8438
100
AcDbEntity
  8
4
100
AcDbLine
 10
8400.0
 20
11800.0
 30
0.0
 11
8400.0
 21
11800.0
 31
0.0
  0
LINE
  5
8095
330
8438
100
AcDbEntity
  8
4
100
AcDbLine
 10
5762.469689439458
 20
10725.0543325016
 30
0.0
 11
5762.469689439458
 21
11146.609046199
 31
0.0
  0
LINE
  5
8096
330
8438
100
AcDbEntity
  8
4
100
AcDbLine
 10
5762.469689439458
 20
11146.609046199
 30
0.0
 11
7400.0
 21
11146.609046199
 31
0.0
  0
LINE
  5
8097
330
8438
100
AcDbEntity
  8
4
100
AcDbLine
 10
7400.0
 20
11146.609046199
 30
0.0
 11
7400.0
 21
10725.0543325016
 31
0.0
  0
LINE
  5
8098
330
8438
100
AcDbEntity
  8
4
100
AcDbLine
 10
7400.0
 20
10725.0543325016
 30
0.0
 11
5762.469689439458
 21
10725.0543325016
 31
0.0
  0
LINE
  5
8099
330
8438
100
AcDbEntity
  8
4
100
AcDbLine
 10
0.0
 20
0.0
 30
0.0
 11
0.0
 21
11800.0
 31
0.0
  0
LINE
  5
809A
330
8438
100
AcDbEntity
  8
4
100
AcDbLine
 10
0.0
 20
11800.0
 30
0.0
 11
8400.0
 21
11800.0
 31
0.0
  0
LINE
  5
809B
330
8438
100
AcDbEntity
  8
4
100
AcDbLine
 10
8400.0
 20
11800.0
 30
0.0
 11
8400.0
 21
0.0
 31
0.0
  0
LINE
  5
809C
330
8438
100
AcDbEntity
  8
4
100
AcDbLine
 10
8400.0
 20
0.0
 30
0.0
 11
0.0
 21
0.0
 31
0.0
  0
LINE
  5
819B
330
8438
100
AcDbEntity
  8
1
100
AcDbLine
 10
7144.092839011054
 20
4254.800457609001
 30
0.0
 11
7144.092839011054
 21
4104.800457609001
 31
0.0
  0
LINE
  5
819C
330
8438
100
AcDbEntity
  8
1
100
AcDbLine
 10
5338.092839011056
 20
4254.800457609001
 30
0.0
 11
5338.092839011061
 21
4104.800457609001
 31
0.0
  0
DIMENSION
  5
8534
330
8438
100
AcDbEntity
  8
3
100
AcDbDimension
  2
*D36
 10
6241.092839011054
 20
5814.809703434626
 30
0.0
 11
5601.092839011053
 21
5946.238274863198
 31
0.0
 70
    32
  1
(<>)
 71
     5
 42
1280.000000000001
  3
IGA
100
AcDbAlignedDimension
 13
4961.092839011053
 23
4700.800457609002
 33
0.0
 14
6241.092839011054
 24
5650.120671915637
 34
0.0
100
AcDbRotatedDimension
1001
ACAD
1000
DSTYLE
1002
{
1070
    40
1040
40.0
1070
   143
1040
0.039
1070
   172
1070
     1
1070
   271
1070
     4
1070
   272
1070
     4
1070
   279
1070
     0
1070
   284
1070
     0
1070
   285
1070
     0
1070
   286
1070
     0
1070
   341
1005
844F
1070
   343
1005
844F
1070
   344
1005
844F
1002
}
  0
DIMENSION
  5
8541
330
8438
100
AcDbEntity
  8
3
100
AcDbDimension
  2
*D37
 10
7261.092839011054
 20
5814.809703434626
 30
0.0
 11
6751.092839011054
 21
5946.238274863198
 31
0.0
 70
    32
  1
(<>)
 71
     5
 42
1020.0
  3
IGA
100
AcDbAlignedDimension
 13
6241.092839011054
 23
5650.120671915637
 33
0.0
 14
7261.092839011054
 24
4244.800457609001
 34
0.0
100
AcDbRotatedDimension
1001
ACAD
1000
DSTYLE
1002
{
1070
    40
1040
40.0
1070
   143
1040
0.039
1070
   172
1070
     1
1070
   271
1070
     4
1070
   272
1070
     4
1070
   279
1070
     1
1070
   284
1070
     0
1070
   285
1070
     0
1070
   286
1070
     0
1070
   341
1005
844F
1070
   343
1005
844F
1070
   344
1005
844F
1002
}
  0
DIMENSION
  5
854E
330
8438
100
AcDbEntity
  8
3
100
AcDbDimension
  2
*D38
 10
7091.092839011054
 20
5490.120671915637
 30
0.0
 11
6241.092839011054
 21
5590.120671915637
 31
0.0
 70
    32
 71
     5
 42
1700.0
  3
IGA
100
AcDbAlignedDimension
 13
5391.092839011054
 23
5217.800457609002
 33
0.0
 14
7091.092839011054
 24
5217.800457609002
 34
0.0
100
AcDbRotatedDimension
1001
ACAD
1000
DSTYLE
1002
{
1070
    40
1040
40.0
1070
   143
1040
0.039
1070
   172
1070
     1
1070
   271
1070
     4
1070
   272
1070
     4
1070
   279
1070
     0
1070
   284
1070
     0
1070
   285
1070
     0
1070
   286
1070
     0
1070
   341
1005
844F
1070
   343
1005
844F
1070
   344
1005
844F
1002
}
  0
DIMENSION
  5
855F
330
8438
100
AcDbEntity
  8
3
100
AcDbDimension
  2
*D39
 10
7534.264341757111
 20
3695.800457609001
 30
0.0
 11
7434.26434175711
 21
4320.800457609002
 31
0.0
 70
    32
  1
\U+03C6<>
 71
     5
 42
1250.0
  3
IGA
100
AcDbAlignedDimension
 13
7091.092839011054
 23
4945.800457609002
 33
0.0
 14
7091.092839011054
 24
3695.800457609002
 34
0.0
 50
90.0
100
AcDbRotatedDimension
1001
ACAD
1000
DSTYLE
1002
{
1070
    40
1040
40.0
1070
   143
1040
0.039
1070
   172
1070
     1
1070
   271
1070
     4
1070
   272
1070
     4
1070
   279
1070
     0
1070
   284
1070
     0
1070
   285
1070
     0
1070
   286
1070
     0
1070
   341
1005
844F
1070
   343
1005
844F
1070
   344
1005
844F
1002
}
  0
DIMENSION
  5
85C9
330
8438
100
AcDbEntity
  8
3
100
AcDbDimension
  2
*D40
 10
6241.092839011049
 20
2500.720773306133
 30
0.0
 11
5640.092839011051
 21
2600.720773306133
 31
0.0
 70
    32
 71
     5
 42
1201.999999999997
  3
IGA
100
AcDbAlignedDimension
 13
5039.092839011052
 23
2720.800457609002
 33
0.0
 14
6241.092839011049
 24
2720.800457609002
 34
0.0
100
AcDbRotatedDimension
1001
ACAD
1000
DSTYLE
1002
{
1070
    40
1040
40.0
1070
   143
1040
0.039
1070
   172
1070
     1
1070
   271
1070
     4
1070
   272
1070
     4
1070
   279
1070
     0
1070
   284
1070
     0
1070
   285
1070
     0
1070
   286
1070
     0
1070
   341
1005
844F
1070
   343
1005
844F
1070
   344
1005
844F
1002
}
  0
DIMENSION
  5
85D6
330
8438
100
AcDbEntity
  8
3
100
AcDbDimension
  2
*D41
 10
7159.092839011053
 20
2500.720773306133
 30
0.0
 11
6700.092839011052
 21
2600.720773306133
 31
0.0
 70
    32
 71
     5
 42
918.0000000000045
  3
IGA
100
AcDbAlignedDimension
 13
6241.092839011049
 23
2720.800457609002
 33
0.0
 14
7159.092839011053
 24
2720.800457609002
 34
0.0
100
AcDbRotatedDimension
1001
ACAD
1000
DSTYLE
1002
{
1070
    40
1040
40.0
1070
   143
1040
0.039
1070
   172
1070
     1
1070
   271
1070
     4
1070
   272
1070
     4
1070
   279
1070
     1
1070
   284
1070
     0
1070
   285
1070
     0
1070
   286
1070
     0
1070
   341
1005
844F
1070
   343
1005
844F
1070
   344
1005
844F
1002
}
  0
DIMENSION
  5
85F0
330
8438
100
AcDbEntity
  8
3
100
AcDbDimension
  2
*D43
 10
879.8305548856591
 20
6528.311612935842
 30
0.0
 11
779.8305548856581
 21
7028.311612935842
 31
0.0
 70
    32
 71
     5
 42
1000.0
  3
IGA
100
AcDbAlignedDimension
 13
1146.156955993237
 23
7528.311612935842
 33
0.0
 14
1146.156955993237
 24
6528.311612935842
 34
0.0
 50
90.0
100
AcDbRotatedDimension
1001
ACAD
1000
DSTYLE
1002
{
1070
    40
1040
40.0
1070
   143
1040
0.039
1070
   172
1070
     1
1070
   271
1070
     4
1070
   272
1070
     4
1070
   279
1070
     0
1070
   284
1070
     0
1070
   285
1070
     0
1070
   286
1070
     0
1070
   341
1005
844F
1070
   343
1005
844F
1070
   344
1005
844F
1002
}
  0
DIMENSION
  5
85FD
330
8438
100
AcDbEntity
  8
3
100
AcDbDimension
  2
*D44
 10
3596.156955993239
 20
6163.557734746188
 30
0.0
 11
2371.156955993238
 21
6263.557734746187
 31
0.0
 70
    32
 71
     5
 42
2450.000000000002
  3
IGA
100
AcDbAlignedDimension
 13
1146.156955993237
 23
6528.311612935839
 33
0.0
 14
3596.156955993239
 24
6528.311612935839
 34
0.0
100
AcDbRotatedDimension
1001
ACAD
1000
DSTYLE
1002
{
1070
    40
1040
40.0
1070
   143
1040
0.039
1070
   172
1070
     1
1070
   271
1070
     4
1070
   272
1070
     4
1070
   279
1070
     0
1070
   284
1070
     0
1070
   285
1070
     0
1070
   286
1070
     0
1070
   341
1005
844F
1070
   343
1005
844F
1070
   344
1005
844F
1002
}
  0
DIMENSION
  5
860A
330
8438
100
AcDbEntity
  8
3
100
AcDbDimension
  2
*D45
 10
4045.173097229072
 20
8648.31161293584
 30
0.0
 11
3945.173097229071
 21
7588.311612935841
 31
0.0
 70
    32
 71
     5
 42
2120.000000000001
  3
IGA
100
AcDbAlignedDimension
 13
3596.156955993239
 23
6528.311612935839
 33
0.0
 14
3596.156955993239
 24
8648.31161293584
 34
0.0
 50
90.0
100
AcDbRotatedDimension
1001
ACAD
1000
DSTYLE
1002
{
1070
    40
1040
40.0
1070
   143
1040
0.039
1070
   172
1070
     1
1070
   271
1070
     4
1070
   272
1070
     4
1070
   279
1070
     0
1070
   284
1070
     0
1070
   285
1070
     0
1070
   286
1070
     0
1070
   341
1005
844F
1070
   343
1005
844F
1070
   344
1005
844F
1002
}
  0
DIMENSION
  5
8617
330
8438
100
AcDbEntity
  8
3
100
AcDbDimension
  2
*D46
 10
2096.156955993238
 20
8852.947751441025
 30
0.0
 11
2846.156955993239
 21
8952.947751441024
 31
0.0
 70
    32
 71
     5
 42
1500.0
  3
IGA
100
AcDbAlignedDimension
 13
3596.156955993239
 23
8648.31161293584
 33
0.0
 14
2096.156955993238
 24
8648.31161293584
 34
0.0
100
AcDbRotatedDimension
1001
ACAD
1000
DSTYLE
1002
{
1070
    40
1040
40.0
1070
   143
1040
0.039
1070
   172
1070
     1
1070
   271
1070
     4
1070
   272
1070
     4
1070
   279
1070
     0
1070
   284
1070
     0
1070
   285
1070
     0
1070
   286
1070
     0
1070
   341
1005
844F
1070
   343
1005
844F
1070
   344
1005
844F
1002
}
  0
DIMENSION
  5
8624
330
8438
100
AcDbEntity
  8
3
100
AcDbDimension
  2
*D47
 10
1146.156955993237
 20
8852.947751441025
 30
0.0
 11
1621.156955993238
 21
8952.947751441024
 31
0.0
 70
    32
 71
     5
 42
950.0000000000015
  3
IGA
100
AcDbAlignedDimension
 13
2096.156955993238
 23
8648.31161293584
 33
0.0
 14
1146.156955993237
 24
7528.311612935842
 34
0.0
100
AcDbRotatedDimension
1001
ACAD
1000
DSTYLE
1002
{
1070
    40
1040
40.0
1070
   143
1040
0.039
1070
   172
1070
     1
1070
   271
1070
     4
1070
   272
1070
     4
1070
   279
1070
     1
1070
   284
1070
     0
1070
   285
1070
     0
1070
   286
1070
     0
1070
   341
1005
844F
1070
   343
1005
844F
1070
   344
1005
844F
1002
}
  0
DIMENSION
  5
863A
330
8438
100
AcDbEntity
  8
3
100
AcDbDimension
  2
*D48
 10
2846.156955993239
 20
5485.312615694231
 30
0.0
 11
3258.656955993239
 21
5585.312615694231
 31
0.0
 70
    32
 71
     5
 42
825.0
  3
IGA
100
AcDbAlignedDimension
 13
3671.156955993239
 23
4319.800457609001
 33
0.0
 14
2846.156955993239
 24
5369.39887263968
 34
0.0
100
AcDbRotatedDimension
1001
ACAD
1000
DSTYLE
1002
{
1070
    40
1040
40.0
1070
   143
1040
0.039
1070
   172
1070
     1
1070
   271
1070
     4
1070
   272
1070
     4
1070
   279
1070
     0
1070
   284
1070
     0
1070
   285
1070
     0
1070
   286
1070
     0
1070
   341
1005
844F
1070
   343
1005
844F
1070
   344
1005
844F
1002
}
  0
DIMENSION
  5
8647
330
8438
100
AcDbEntity
  8
3
100
AcDbDimension
  2
*D49
 10
1767.156955993239
 20
5485.312615694231
 30
0.0
 11
2306.656955993239
 21
5585.312615694231
 31
0.0
 70
    32
 71
     5
 42
1079.0
  3
IGA
100
AcDbAlignedDimension
 13
2846.156955993239
 23
5369.39887263968
 33
0.0
 14
1767.156955993239
 24
4229.800457609001
 34
0.0
100
AcDbRotatedDimension
1001
ACAD
1000
DSTYLE
1002
{
1070
    40
1040
40.0
1070
   143
1040
0.039
1070
   172
1070
     1
1070
   271
1070
     4
1070
   272
1070
     4
1070
   279
1070
     1
1070
   284
1070
     0
1070
   285
1070
     0
1070
   286
1070
     0
1070
   341
1005
844F
1070
   343
1005
844F
1070
   344
1005
844F
1002
}
  0
DIMENSION
  5
8654
330
8438
100
AcDbEntity
  8
3
100
AcDbDimension
  2
*D50
 10
1146.156955993237
 20
5738.269218418995
 30
0.0
 11
2408.656955993238
 21
5838.269218418995
 31
0.0
 70
    32
 71
     5
 42
2525.000000000002
  3
IGA
100
AcDbAlignedDimension
 13
3671.156955993239
 23
4319.800457609001
 33
0.0
 14
1146.156955993237
 24
3015.800457609002
 34
0.0
100
AcDbRotatedDimension
1001
ACAD
1000
DSTYLE
1002
{
1070
    40
1040
40.0
1070
   143
1040
0.039
1070
   172
1070
     1
1070
   271
1070
     4
1070
   272
1070
     4
1070
   279
1070
     0
1070
   284
1070
     0
1070
   285
1070
     0
1070
   286
1070
     0
1070
   341
1005
844F
1070
   343
1005
844F
1070
   344
1005
844F
1002
}
  0
DIMENSION
  5
8661
330
8438
100
AcDbEntity
  8
3
100
AcDbDimension
  2
*D51
 10
3924.167988683194
 20
2986.800457609002
 30
0.0
 11
3824.167988683193
 21
3626.800457609003
 31
0.0
 70
    32
 71
     5
 42
1280.000000000001
  3
IGA
100
AcDbAlignedDimension
 13
3671.156955993239
 23
4266.800457609003
 33
0.0
 14
3671.156955993239
 24
2986.800457609002
 34
0.0
 50
90.0
100
AcDbRotatedDimension
1001
ACAD
1000
DSTYLE
1002
{
1070
    40
1040
40.0
1070
   143
1040
0.039
1070
   172
1070
     1
1070
   271
1070
     4
1070
   272
1070
     4
1070
   279
1070
     0
1070
   284
1070
     0
1070
   285
1070
     0
1070
   286
1070
     0
1070
   341
1005
844F
1070
   343
1005
844F
1070
   344
1005
844F
1002
}
  0
DIMENSION
  5
866E
330
8438
100
AcDbEntity
  8
3
100
AcDbDimension
  2
*D52
 10
4171.230831139723
 20
2986.800457609002
 30
0.0
 11
4071.230831139723
 21
3653.800457609003
 31
0.0
 70
    32
 71
     5
 42
1333.999999999999
  3
IGA
100
AcDbAlignedDimension
 13
3683.677800684858
 23
4320.800457609002
 33
0.0
 14
3671.156955993239
 24
2986.800457609002
 34
0.0
 50
90.0
100
AcDbRotatedDimension
1001
ACAD
1000
DSTYLE
1002
{
1070
    40
1040
40.0
1070
   143
1040
0.039
1070
   172
1070
     1
1070
   271
1070
     4
1070
   272
1070
     4
1070
   279
1070
     0
1070
   284
1070
     0
1070
   285
1070
     0
1070
   286
1070
     0
1070
   341
1005
844F
1070
   343
1005
844F
1070
   344
1005
844F
1002
}
  0
DIMENSION
  5
867B
330
8438
100
AcDbEntity
  8
3
100
AcDbDimension
  2
*D53
 10
4422.346544791297
 20
4320.800457609002
 30
0.0
 11
4322.346544791296
 21
4769.300457609002
 31
0.0
 70
    32
 71
     5
 42
897.0
  3
IGA
100
AcDbAlignedDimension
 13
2755.156955993238
 23
5217.800457609001
 33
0.0
 14
3683.677800684858
 24
4320.800457609002
 34
0.0
 50
90.0
100
AcDbRotatedDimension
1001
ACAD
1000
DSTYLE
1002
{
1070
    40
1040
40.0
1070
   143
1040
0.039
1070
   172
1070
     1
1070
   271
1070
     4
1070
   272
1070
     4
1070
   279
1070
     0
1070
   284
1070
     0
1070
   285
1070
     0
1070
   286
1070
     0
1070
   341
1005
844F
1070
   343
1005
844F
1070
   344
1005
844F
1002
}
  0
DIMENSION
  5
8688
330
8438
100
AcDbEntity
  8
3
100
AcDbDimension
  2
*D54
 10
4422.346544791297
 20
2890.800457609002
 30
0.0
 11
4322.346544791296
 21
3605.800457609002
 31
0.0
 70
    32
 71
     5
 42
1429.999999999999
  3
IGA
100
AcDbAlignedDimension
 13
3683.677800684858
 23
4320.800457609002
 33
0.0
 14
3596.156955993239
 24
2890.800457609002
 34
0.0
 50
90.0
100
AcDbRotatedDimension
1001
ACAD
1000
DSTYLE
1002
{
1070
    40
1040
40.0
1070
   143
1040
0.039
1070
   172
1070
     1
1070
   271
1070
     4
1070
   272
1070
     4
1070
   279
1070
     1
1070
   284
1070
     0
1070
   285
1070
     0
1070
   286
1070
     0
1070
   341
1005
844F
1070
   343
1005
844F
1070
   344
1005
844F
1002
}
  0
DIMENSION
  5
8695
330
8438
100
AcDbEntity
  8
3
100
AcDbDimension
  2
*D55
 10
4422.346544791297
 20
2785.800457609002
 30
0.0
 11
4665.203687648438
 21
2990.586171894717
 31
0.0
 70
    32
  1
(<>)
 71
     5
 42
105.0
  3
IGA
100
AcDbAlignedDimension
 13
3596.156955993239
 23
2890.800457609002
 33
0.0
 14
3596.156955993239
 24
2785.800457609002
 34
0.0
 50
90.0
100
AcDbRotatedDimension
1001
ACAD
1000
DSTYLE
1002
{
1070
    40
1040
40.0
1070
   143
1040
0.039
1070
   172
1070
     1
1070
   271
1070
     4
1070
   272
1070
     4
1070
   279
1070
     1
1070
   284
1070
     0
1070
   285
1070
     0
1070
   286
1070
     0
1070
   341
1005
844F
1070
   343
1005
844F
1070
   344
1005
8760
1002
}
  0
DIMENSION
  5
86A7
330
8438
100
AcDbEntity
  8
3
100
AcDbDimension
  2
*D56
 10
4422.346544791297
 20
2720.800457609002
 30
0.0
 11
4422.346544791297
 21
2560.800457609002
 31
0.0
 70
   160
 71
     5
 42
65.0
  3
IGA
100
AcDbAlignedDimension
 13
3596.156955993239
 23
2785.800457609002
 33
0.0
 14
3596.156955993239
 24
2720.800457609002
 34
0.0
 50
90.0
100
AcDbRotatedDimension
1001
ACAD
1000
DSTYLE
1002
{
1070
    40
1040
40.0
1070
   143
1040
0.039
1070
   172
1070
     1
1070
   271
1070
     4
1070
   272
1070
     4
1070
   279
1070
     1
1070
   284
1070
     0
1070
   285
1070
     0
1070
   286
1070
     0
1070
   341
1005
844F
1070
   343
1005
8760
1070
   344
1005
844F
1002
}
  0
DIMENSION
  5
86B9
330
8438
100
AcDbEntity
  8
3
100
AcDbDimension
  2
*D57
 10
4826.183944158314
 20
5217.800457609001
 30
0.0
 11
4694.755372729741
 21
3969.300457609002
 31
0.0
 70
    32
  1
(<>)
 71
     5
 42
2497.0
  3
IGA
100
AcDbAlignedDimension
 13
3596.156955993239
 23
2720.800457609002
 33
0.0
 14
2755.156955993238
 24
5217.800457609001
 34
0.0
 50
90.0
100
AcDbRotatedDimension
1001
ACAD
1000
DSTYLE
1002
{
1070
    40
1040
40.0
1070
   143
1040
0.039
1070
   172
1070
     1
1070
   271
1070
     4
1070
   272
1070
     4
1070
   279
1070
     0
1070
   284
1070
     0
1070
   285
1070
     0
1070
   286
1070
     0
1070
   341
1005
844F
1070
   343
1005
844F
1070
   344
1005
844F
1002
}
  0
DIMENSION
  5
87CB
330
8438
100
AcDbEntity
  8
3
100
AcDbDimension
  2
*D59
 10
2846.156955993239
 20
2428.604154007237
 30
0.0
 11
1996.156955993238
 21
2528.604154007237
 31
0.0
 70
    32
 71
     5
 42
1700.000000000002
  3
IGA
100
AcDbAlignedDimension
 13
1146.156955993237
 23
2720.800457609002
 33
0.0
 14
2846.156955993239
 24
2720.800457609002
 34
0.0
100
AcDbRotatedDimension
1001
ACAD
1000
DSTYLE
1002
{
1070
    40
1040
40.0
1070
   143
1040
0.039
1070
   172
1070
     1
1070
   271
1070
     4
1070
   272
1070
     4
1070
   279
1070
     0
1070
   284
1070
     0
1070
   285
1070
     0
1070
   286
1070
     0
1070
   341
1005
844F
1070
   343
1005
844F
1070
   344
1005
844F
1002
}
  0
DIMENSION
  5
87D8
330
8438
100
AcDbEntity
  8
3
100
AcDbDimension
  2
*D60
 10
3596.156955993239
 20
2428.604154007237
 30
0.0
 11
3221.156955993239
 21
2528.604154007237
 31
0.0
 70
    32
 71
     5
 42
750.0
  3
IGA
100
AcDbAlignedDimension
 13
2846.156955993239
 23
2720.800457609002
 33
0.0
 14
3596.156955993239
 24
2720.800457609002
 34
0.0
100
AcDbRotatedDimension
1001
ACAD
1000
DSTYLE
1002
{
1070
    40
1040
40.0
1070
   143
1040
0.039
1070
   172
1070
     1
1070
   271
1070
     4
1070
   272
1070
     4
1070
   279
1070
     1
1070
   284
1070
     0
1070
   285
1070
     0
1070
   286
1070
     0
1070
   341
1005
844F
1070
   343
1005
844F
1070
   344
1005
844F
1002
}
  0
ENDSEC
  0
SECTION
  2
OBJECTS
  0
DICTIONARY
  5
83D5
330
0
100
AcDbDictionary
281
     1
  3
ACAD_CIP_PREVIOUS_PRODUCT_INFO
350
8481
  3
ACAD_COLOR
350
842B
  3
ACAD_DETAILVIEWSTYLE
350
8432
  3
ACAD_GROUP
350
83D6
  3
ACAD_LAYOUT
350
842A
  3
ACAD_MATERIAL
350
83D9
  3
ACAD_MLEADERSTYLE
350
842E
  3
ACAD_MLINESTYLE
350
8427
  3
ACAD_PLOTSETTINGS
350
8429
  3
ACAD_PLOTSTYLENAME
350
83D7
  3
ACAD_SCALELIST
350
840B
  3
ACAD_SECTIONVIEWSTYLE
350
8430
  3
ACAD_TABLESTYLE
350
842C
  3
ACAD_VISUALSTYLE
350
83F2
  3
ACDB_RECOMPOSE_DATA
350
87E7
  3
AcDbVariableDictionary
350
848C
  3
DWGPROPS
350
87E8
  0
DICTIONARY
  5
8482
330
841D
100
AcDbDictionary
280
     1
281
     1
  3
ADSK_XREC_LAYER_RECONCILED
360
8483
  0
DICTIONARY
  5
8484
330
843C
100
AcDbDictionary
280
     1
281
     1
  3
ADSK_XREC_LAYER_RECONCILED
360
8485
  0
DICTIONARY
  5
8486
330
843F
100
AcDbDictionary
280
     1
281
     1
  3
ADSK_XREC_LAYER_RECONCILED
360
8487
  0
DICTIONARY
  5
8488
330
8440
100
AcDbDictionary
280
     1
281
     1
  3
ADSK_XREC_LAYER_RECONCILED
360
8489
  0
DICTIONARY
  5
848A
330
8441
100
AcDbDictionary
280
     1
281
     1
  3
ADSK_XREC_LAYER_RECONCILED
360
848B
  0
DICTIONARY
  5
855C
330
8438
100
AcDbDictionary
280
     1
281
     1
  3
ACAD_SORTENTS
360
855D
  0
XRECORD
  5
8481
102
{ACAD_REACTORS
330
83D5
102
}
330
83D5
100
AcDbXrecord
280
     1
300
ACDLT
300
2015
300
INVLTS_F_S
  0
DICTIONARY
  5
842B
102
{ACAD_REACTORS
330
83D5
102
}
330
83D5
100
AcDbDictionary
281
     1
  0
DICTIONARY
  5
8432
102
{ACAD_REACTORS
330
83D5
102
}
330
83D5
100
AcDbDictionary
281
     1
  3
Imperial24
350
8433
  0
DICTIONARY
  5
83D6
102
{ACAD_REACTORS
330
83D5
102
}
330
83D5
100
AcDbDictionary
281
     1
  0
DICTIONARY
  5
842A
102
{ACAD_REACTORS
330
83D5
102
}
330
83D5
100
AcDbDictionary
281
     1
  3
Model
350
843B
  3
レイアウト1
350
8437
  0
DICTIONARY
  5
83D9
102
{ACAD_REACTORS
330
83D5
102
}
330
83D5
100
AcDbDictionary
281
     1
  3
ByBlock
350
83E2
  3
ByLayer
350
83DA
  3
Global
350
83EA
  0
DICTIONARY
  5
842E
102
{ACAD_REACTORS
330
83D5
102
}
330
83D5
100
AcDbDictionary
281
     1
  3
Standard
350
842F
  0
DICTIONARY
  5
8427
102
{ACAD_REACTORS
330
83D5
102
}
330
83D5
100
AcDbDictionary
281
     1
  3
Standard
350
8428
  0
DICTIONARY
  5
8429
102
{ACAD_REACTORS
330
83D5
102
}
330
83D5
100
AcDbDictionary
281
     1
  0
ACDBDICTIONARYWDFLT
  5
83D7
102
{ACAD_REACTORS
330
83D5
102
}
330
83D5
100
AcDbDictionary
281
     1
  3
Normal
350
83D8
100
AcDbDictionaryWithDefault
340
83D8
  0
DICTIONARY
  5
840B
102
{ACAD_REACTORS
330
83D5
102
}
330
83D5
100
AcDbDictionary
281
     1
  3
A0
350
840C
  3
A1
350
840D
  3
A2
350
840E
  3
A3
350
840F
  3
A4
350
8410
  3
A5
350
8411
  3
A6
350
8412
  3
A7
350
8413
  3
A8
350
8414
  3
A9
350
8415
  3
B0
350
8416
  3
B1
350
8417
  3
B2
350
8418
  3
B3
350
8419
  3
B4
350
841A
  3
B5
350
841B
  3
B6
350
841C
  0
DICTIONARY
  5
8430
102
{ACAD_REACTORS
330
83D5
102
}
330
83D5
100
AcDbDictionary
281
     1
  3
Imperial24
350
8431
  0
DICTIONARY
  5
842C
102
{ACAD_REACTORS
330
83D5
102
}
330
83D5
100
AcDbDictionary
281
     1
  3
Standard
350
842D
  0
DICTIONARY
  5
83F2
102
{ACAD_REACTORS
330
83D5
102
}
330
83D5
100
AcDbDictionary
281
     1
  3
2dWireframe
350
83F8
  3
Basic
350
83F7
  3
Brighten
350
83FE
  3
ColorChange
350
8402
  3
Conceptual
350
83FB
  3
Dim
350
83FD
  3
EdgeColorOff
350
840A
  3
Facepattern
350
8401
  3
Flat
350
83F3
  3
FlatWithEdges
350
83F4
  3
Gouraud
350
83F5
  3
GouraudWithEdges
350
83F6
  3
Hidden
350
83FA
  3
JitterOff
350
8408
  3
Linepattern
350
8400
  3
OverhangOff
350
8409
  3
Realistic
350
83FC
  3
Shaded
350
8407
  3
Shaded with edges
350
8406
  3
Shades of Gray
350
8403
  3
Sketchy
350
8404
  3
Thicken
350
83FF
  3
Wireframe
350
83F9
  3
X-Ray
350
8405
  0
XRECORD
  5
87E7
102
{ACAD_REACTORS
330
83D5
102
}
330
83D5
100
AcDbXrecord
280
     1
 90
        1
330
842D
  0
DICTIONARY
  5
848C
102
{ACAD_REACTORS
330
83D5
102
}
330
83D5
100
AcDbDictionary
281
     1
  3
CANNOSCALE
350
8491
  3
CMLEADERSTYLE
350
848E
  3
CTABLESTYLE
350
848D
  3
CVIEWDETAILSTYLE
350
848F
  3
CVIEWSECTIONSTYLE
350
8490
  3
DIMASSOC
350
8494
  3
INDEXCTL
350
8493
  3
SORTENTS
350
8492
  3
XCLIPFRAME
350
8495
  0
XRECORD
  5
87E8
102
{ACAD_REACTORS
330
83D5
102
}
330
83D5
100
AcDbXrecord
280
     1
  1
DWGPROPS COOKIE
  2

  3

  4

  6

  7

  8
yasukiyo.ogawa
  9

300
=
301
=
302
=
303
=
304
=
305
=
306
=
307
=
308
=
309
=
 40
0.0272659027777778
 41
2451898.665484606
 42
2460280.771211331
  1

 90
        0
  0
XRECORD
  5
8483
102
{ACAD_REACTORS
330
8482
102
}
330
8482
100
AcDbXrecord
280
     1
290
     1
  0
XRECORD
  5
8485
102
{ACAD_REACTORS
330
8484
102
}
330
8484
100
AcDbXrecord
280
     1
290
     1
  0
XRECORD
  5
8487
102
{ACAD_REACTORS
330
8486
102
}
330
8486
100
AcDbXrecord
280
     1
290
     1
  0
XRECORD
  5
8489
102
{ACAD_REACTORS
330
8488
102
}
330
8488
100
AcDbXrecord
280
     1
290
     1
  0
XRECORD
  5
848B
102
{ACAD_REACTORS
330
848A
102
}
330
848A
100
AcDbXrecord
280
     1
290
     1
  0
SORTENTSTABLE
  5
855D
102
{ACAD_REACTORS
330
855C
102
}
330
855C
100
AcDbSortentsTable
330
8438
331
8098
  5
809A
331
8087
  5
808A
331
7CCE
  5
7CD0
331
7CBD
  5
7CC1
331
7CAC
  5
7CB0
331
7C9B
  5
7C9D
331
7C92
  5
7C94
331
7C81
  5
7C83
331
7C70
  5
7C72
331
7CF0
  5
7CF3
331
7C5F
  5
7C61
331
7C4E
  5
7C50
331
7C3D
  5
7C3F
331
7C2C
  5
7C2E
331
7CBE
  5
7CC2
331
7C93
  5
7C95
331
7C82
  5
7C84
331
7C71
  5
7C73
331
7C60
  5
7C62
331
8088
  5
808B
331
7CCF
  5
7CD1
331
8099
  5
809B
331
7CF1
  5
7CF4
331
7C4F
  5
7C51
331
7C3E
  5
7C40
331
7C2D
  5
7C2F
331
7CE0
  5
7CE2
331
809A
  5
809C
331
7CE1
  5
7CE3
331
7CD0
  5
7CD2
331
7C94
  5
7C96
331
7C83
  5
7C85
331
7C72
  5
7C74
331
7C61
  5
7C63
331
7C50
  5
7C52
331
7C3F
  5
7C41
331
7C2E
  5
7C30
331
808A
  5
808C
331
7CD1
  5
7CD3
331
7CAF
  5
7CB1
331
7C95
  5
7C97
331
7C84
  5
7C86
331
7C73
  5
7C75
331
7C62
  5
7C64
331
7C51
  5
7C53
331
7C40
  5
7C42
331
809B
  5
8133
331
7CE2
  5
7CE5
331
854E
  5
855E
331
7C2F
  5
7C31
331
7CF3
  5
7CF5
331
7C52
  5
7C54
331
7C41
  5
7C43
331
7C30
  5
7C32
331
808B
  5
808D
331
7CD2
  5
7CD5
331
7CC1
  5
7CC3
331
7CB0
  5
7CB3
331
7C96
  5
7C98
331
7C85
  5
7C87
331
7C74
  5
7C76
331
7C63
  5
7C68
331
809C
  5
819B
331
7D05
  5
7D07
331
7CF4
  5
7CF6
331
7CE3
  5
7CE6
331
7CB1
  5
7CB4
331
7C97
  5
7C99
331
7C86
  5
7C88
331
7C75
  5
7C77
331
7C64
  5
7C69
331
7C53
  5
7C55
331
7C42
  5
7C44
331
7C31
  5
7C33
331
808C
  5
808E
331
7CD3
  5
7CD6
331
7CC2
  5
7CC4
331
7D06
  5
7D0A
331
7CF5
  5
7CF7
331
808D
  5
808F
331
7CC3
  5
7CC5
331
7CA1
  5
7CA4
331
7C87
  5
7C89
331
7C76
  5
7C78
331
7C54
  5
7C56
331
7C43
  5
7C45
331
7C32
  5
7C34
331
7D07
  5
7D0C
331
7CF6
  5
7CF8
331
7CE5
  5
7CE7
331
8541
  5
855B
331
7C55
  5
7C57
331
7C44
  5
7C46
331
7C33
  5
7C35
331
808E
  5
8090
331
7CD5
  5
7CD9
331
7CC4
  5
7CC6
331
7CB3
  5
7CB6
331
7C88
  5
7C8A
331
7C77
  5
7C79
331
7CF7
  5
7CF9
331
7CE6
  5
7CE8
331
7C22
  5
7C22
331
7CF8
  5
7CFA
331
7C45
  5
7C47
331
7C34
  5
7C36
331
7C56
  5
7C58
331
807E
  5
8080
331
7CC5
  5
7CC9
331
7CB4
  5
7CB7
331
7CA3
  5
7CA5
331
7C89
  5
7C8B
331
808F
  5
8091
331
7CD6
  5
7CDA
331
7CE7
  5
7CEB
331
7C78
  5
7C7A
331
7C23
  5
7C23
331
8090
  5
8092
331
7CE8
  5
7CEC
331
807F
  5
8083
331
7CC6
  5
7CCA
331
7CA4
  5
7CA6
331
7C8A
  5
7C8C
331
7C79
  5
7C7B
331
7C68
  5
7C6A
331
7C57
  5
7C5A
331
7C46
  5
7C48
331
7C35
  5
7C37
331
7C24
  5
7C24
331
8091
  5
8093
331
8080
  5
8084
331
7CB6
  5
7CB8
331
7CA5
  5
7CA7
331
7C8B
  5
7C8D
331
7C7A
  5
7C7C
331
7C69
  5
7C6B
331
7C58
  5
7C5B
331
7C47
  5
7C49
331
7C36
  5
7C38
331
7C25
  5
7C25
331
8092
  5
8094
331
7CD9
  5
7CDD
331
8534
  5
854E
331
7CB7
  5
7CB9
331
7CA6
  5
7CA8
331
7C8C
  5
7C8E
331
7C7B
  5
7C7D
331
7C6A
  5
7C6C
331
7C48
  5
7C4A
331
7C37
  5
7C39
331
8093
  5
8095
331
7CDA
  5
7CDE
331
7CC9
  5
7CCB
331
7CB8
  5
7CBA
331
7D0D
  5
807E
331
7CFC
  5
7CFF
331
7CEB
  5
7CEE
331
7C49
  5
7C4B
331
7C38
  5
7C3A
331
7CA7
  5
7CA9
331
7C8D
  5
7C8F
331
7C7C
  5
7C7E
331
7C6B
  5
7C6D
331
8094
  5
8096
331
8083
  5
8085
331
7CCA
  5
7CCC
331
7CB9
  5
7CBB
331
7CA8
  5
7CAA
331
7CEC
  5
7CEF
331
7C8E
  5
7C90
331
7C7D
  5
7C7F
331
7C6C
  5
7C6E
331
7C39
  5
7C3B
331
7C28
  5
7C28
331
8095
  5
8097
331
8084
  5
8086
331
7CCB
  5
7CCD
331
7CBA
  5
7CBC
331
7CA9
  5
7CAB
331
7C98
  5
7C9A
331
7D0F
  5
807F
331
7CFE
  5
7D00
331
7C8F
  5
7C91
331
7C7E
  5
7C80
331
7C6D
  5
7C6F
331
7C4B
  5
7C4D
331
7C3A
  5
7C3C
331
7C29
  5
7C29
331
8085
  5
8087
331
7CCC
  5
7CCE
331
7CBB
  5
7CBD
331
7CAA
  5
7CAC
331
7C99
  5
7C9B
331
7C90
  5
7C92
331
8096
  5
8098
331
7CFF
  5
7D05
331
819B
  5
81A9
331
7C2A
  5
7C2C
331
7C7F
  5
7C81
331
7C6E
  5
7C70
331
7C5D
  5
7C5F
331
7C4C
  5
7C4E
331
7C3B
  5
7C3D
331
7CEE
  5
7CF0
331
8086
  5
8088
331
7CCD
  5
7CCF
331
7CBC
  5
7CBE
331
7CAB
  5
7CAF
331
7C9A
  5
7C9C
331
7C91
  5
7C93
331
7C80
  5
7C82
331
8097
  5
8099
331
7D00
  5
7D06
331
819C
  5
81B6
331
7C2B
  5
7C2D
331
7C6F
  5
7C71
331
7C5E
  5
7C60
331
7C4D
  5
7C4F
331
7C3C
  5
7C3E
331
7CEF
  5
7CF1
  0
ACDBDETAILVIEWSTYLE
  5
8433
102
{ACAD_XDICTIONARY
360
8820
102
}
102
{ACAD_REACTORS
330
8432
102
}
330
8432
100
AcDbModelDocViewStyle
 70
     0
  3
Imperial24
290
     0
100
AcDbDetailViewStyle
 70
     0
 71
     0
 90
        3
 71
     1
340
841E
 40
0.24
340
0
 40
0.24
300

 40
0.36
280
     3
 71
     2
340
8425
 90
       25
 71
     3
340
841E
 40
0.24
 90
        1
 40
0.75
 90
        1
300
%<\AcVar ViewType \f "%tc1">% %<\AcVar ViewDetailId>%\PSCALE %<\AcVar ViewScale \f "%sn">%
 71
     4
340
8425
 90
       25
340
8425
 90
       25
280
     0
  0
LAYOUT
  5
843B
102
{ACAD_XDICTIONARY
360
8824
102
}
102
{ACAD_REACTORS
330
842A
102
}
330
842A
100
AcDbPlotSettings
  1

  2
RICOH imagio MP W3600 RPCS
  4

  6

 40
0.0
 41
0.0
 42
0.0
 43
0.0
 44
0.0
 45
0.0
 46
0.0
 47
0.0
 48
0.0
 49
0.0
140
0.0
141
0.0
142
1.0
143
1.0
 70
  1712
 72
     0
 73
     0
 74
     0
  7

 75
     0
147
1.0
148
0.0
149
0.0
100
AcDbLayout
  1
Model
 70
     1
 71
     0
 10
0.0
 20
0.0
 11
12.0
 21
9.0
 12
0.0
 22
0.0
 32
0.0
 14
0.0
 24
0.0
 34
0.0
 15
0.0
 25
0.0
 35
0.0
146
0.0
 13
0.0
 23
0.0
 33
0.0
 16
1.0
 26
0.0
 36
0.0
 17
0.0
 27
1.0
 37
0.0
 76
     0
330
8438
331
843D
  0
LAYOUT
  5
8437
102
{ACAD_XDICTIONARY
360
8822
102
}
102
{ACAD_REACTORS
330
842A
102
}
330
842A
100
AcDbPlotSettings
  1

  2
RICOH imagio MP W3600 RPCS
  4

  6

 40
0.0
 41
0.0
 42
0.0
 43
0.0
 44
0.0
 45
0.0
 46
0.0
 47
0.0
 48
0.0
 49
0.0
140
0.0
141
0.0
142
1.0
143
1.0
 70
   688
 72
     0
 73
     0
 74
     5
  7

 75
    16
147
1.0
148
0.0
149
0.0
100
AcDbLayout
  1
レイアウト1
 70
     1
 71
     1
 10
0.0
 20
0.0
 11
12.0
 21
9.0
 12
0.0
 22
0.0
 32
0.0
 14
1.000000000000000E+20
 24
1.000000000000000E+20
 34
1.000000000000000E+20
 15
-1.000000000000000E+20
 25
-1.000000000000000E+20
 35
-1.000000000000000E+20
146
0.0
 13
0.0
 23
0.0
 33
0.0
 16
1.0
 26
0.0
 36
0.0
 17
0.0
 27
1.0
 37
0.0
 76
     0
330
8434
  0
MATERIAL
  5
83E2
102
{ACAD_XDICTIONARY
360
83E3
102
}
102
{ACAD_REACTORS
330
83D9
102
}
330
83D9
100
AcDbMaterial
  1
ByBlock
 72
     0
 43
0.0208333333333333
 43
0.0
 43
0.0
 43
0.0
 43
0.0
 43
0.0208333333333333
 43
0.0
 43
0.0
 43
0.0
 43
0.0
 43
1.0
 43
0.0
 43
0.0
 43
0.0
 43
0.0
 43
1.0
 77
     0
 47
0.0208333333333333
 47
0.0
 47
0.0
 47
0.0
 47
0.0
 47
0.0208333333333333
 47
0.0
 47
0.0
 47
0.0
 47
0.0
 47
1.0
 47
0.0
 47
0.0
 47
0.0
 47
0.0
 47
1.0
171
     0
 49
0.0208333333333333
 49
0.0
 49
0.0
 49
0.0
 49
0.0
 49
0.0208333333333333
 49
0.0
 49
0.0
 49
0.0
 49
0.0
 49
1.0
 49
0.0
 49
0.0
 49
0.0
 49
0.0
 49
1.0
175
     0
142
0.0208333333333333
142
0.0
142
0.0
142
0.0
142
0.0
142
0.0208333333333333
142
0.0
142
0.0
142
0.0
142
0.0
142
1.0
142
0.0
142
0.0
142
0.0
142
0.0
142
1.0
179
     0
144
0.0208333333333333
144
0.0
144
0.0
144
0.0
144
0.0
144
0.0208333333333333
144
0.0
144
0.0
144
0.0
144
0.0
144
1.0
144
0.0
144
0.0
144
0.0
144
0.0
144
1.0
147
0.0208333333333333
147
0.0
147
0.0
147
0.0
147
0.0
147
0.0208333333333333
147
0.0
147
0.0
147
0.0
147
0.0
147
1.0
147
0.0
147
0.0
147
0.0
147
0.0
147
1.0
  0
MATERIAL
  5
83DA
102
{ACAD_XDICTIONARY
360
83DB
102
}
102
{ACAD_REACTORS
330
83D9
102
}
330
83D9
100
AcDbMaterial
  1
ByLayer
 72
     0
 43
0.0208333333333333
 43
0.0
 43
0.0
 43
0.0
 43
0.0
 43
0.0208333333333333
 43
0.0
 43
0.0
 43
0.0
 43
0.0
 43
1.0
 43
0.0
 43
0.0
 43
0.0
 43
0.0
 43
1.0
 77
     0
 47
0.0208333333333333
 47
0.0
 47
0.0
 47
0.0
 47
0.0
 47
0.0208333333333333
 47
0.0
 47
0.0
 47
0.0
 47
0.0
 47
1.0
 47
0.0
 47
0.0
 47
0.0
 47
0.0
 47
1.0
171
     0
 49
0.0208333333333333
 49
0.0
 49
0.0
 49
0.0
 49
0.0
 49
0.0208333333333333
 49
0.0
 49
0.0
 49
0.0
 49
0.0
 49
1.0
 49
0.0
 49
0.0
 49
0.0
 49
0.0
 49
1.0
175
     0
142
0.0208333333333333
142
0.0
142
0.0
142
0.0
142
0.0
142
0.0208333333333333
142
0.0
142
0.0
142
0.0
142
0.0
142
1.0
142
0.0
142
0.0
142
0.0
142
0.0
142
1.0
179
     0
144
0.0208333333333333
144
0.0
144
0.0
144
0.0
144
0.0
144
0.0208333333333333
144
0.0
144
0.0
144
0.0
144
0.0
144
1.0
144
0.0
144
0.0
144
0.0
144
0.0
144
1.0
147
0.0208333333333333
147
0.0
147
0.0
147
0.0
147
0.0
147
0.0208333333333333
147
0.0
147
0.0
147
0.0
147
0.0
147
1.0
147
0.0
147
0.0
147
0.0
147
0.0
147
1.0
  0
MATERIAL
  5
83EA
102
{ACAD_XDICTIONARY
360
83EB
102
}
102
{ACAD_REACTORS
330
83D9
102
}
330
83D9
100
AcDbMaterial
  1
Global
 72
     0
 43
0.0208333333333333
 43
0.0
 43
0.0
 43
0.0
 43
0.0
 43
0.0208333333333333
 43
0.0
 43
0.0
 43
0.0
 43
0.0
 43
1.0
 43
0.0
 43
0.0
 43
0.0
 43
0.0
 43
1.0
 77
     0
 47
0.0208333333333333
 47
0.0
 47
0.0
 47
0.0
 47
0.0
 47
0.0208333333333333
 47
0.0
 47
0.0
 47
0.0
 47
0.0
 47
1.0
 47
0.0
 47
0.0
 47
0.0
 47
0.0
 47
1.0
171
     0
 49
0.0208333333333333
 49
0.0
 49
0.0
 49
0.0
 49
0.0
 49
0.0208333333333333
 49
0.0
 49
0.0
 49
0.0
 49
0.0
 49
1.0
 49
0.0
 49
0.0
 49
0.0
 49
0.0
 49
1.0
175
     0
142
0.0208333333333333
142
0.0
142
0.0
142
0.0
142
0.0
142
0.0208333333333333
142
0.0
142
0.0
142
0.0
142
0.0
142
1.0
142
0.0
142
0.0
142
0.0
142
0.0
142
1.0
179
     0
144
0.0208333333333333
144
0.0
144
0.0
144
0.0
144
0.0
144
0.0208333333333333
144
0.0
144
0.0
144
0.0
144
0.0
144
1.0
144
0.0
144
0.0
144
0.0
144
0.0
144
1.0
147
0.0208333333333333
147
0.0
147
0.0
147
0.0
147
0.0
147
0.0208333333333333
147
0.0
147
0.0
147
0.0
147
0.0
147
1.0
147
0.0
147
0.0
147
0.0
147
0.0
147
1.0
  0
MLEADERSTYLE
  5
842F
102
{ACAD_REACTORS
330
842E
102
}
330
842E
100
AcDbMLeaderStyle
170
     2
171
     1
172
     0
 90
        2
 40
0.0
 41
0.0
173
     1
 91
-1056964608
340
8423
 92
       -2
290
     1
 42
0.09
291
     1
 43
0.36
  3
Standard
 44
0.18
300

342
841E
174
     1
178
     6
175
     1
176
     0
 93
-1056964608
 45
0.18
292
     0
297
     0
 46
0.18
 94
-1056964608
 47
1.0
 49
1.0
140
1.0
293
     1
141
0.0
294
     1
177
     0
142
1.0
295
     0
296
     0
143
0.125
1001
ACAD_MLEADERVER
1070
     2
  0
MLINESTYLE
  5
8428
102
{ACAD_REACTORS
330
8427
102
}
330
8427
100
AcDbMlineStyle
  2
STANDARD
 70
     0
  3

 62
   256
 51
90.0
 52
90.0
 71
     2
 49
0.5
 62
   256
  6
BYLAYER
 49
-0.5
 62
   256
  6
BYLAYER
  0
ACDBPLACEHOLDER
  5
83D8
102
{ACAD_REACTORS
330
83D7
102
}
330
83D7
  0
SCALE
  5
840C
102
{ACAD_REACTORS
330
840B
102
}
330
840B
100
AcDbScale
 70
     0
300
1:1
140
1.0
141
1.0
290
     1
  0
SCALE
  5
840D
102
{ACAD_REACTORS
330
840B
102
}
330
840B
100
AcDbScale
 70
     0
300
1/128" = 1'-0"
140
0.0078125
141
12.0
290
     0
  0
SCALE
  5
840E
102
{ACAD_REACTORS
330
840B
102
}
330
840B
100
AcDbScale
 70
     0
300
1/64" = 1'-0"
140
0.015625
141
12.0
290
     0
  0
SCALE
  5
840F
102
{ACAD_REACTORS
330
840B
102
}
330
840B
100
AcDbScale
 70
     0
300
1/32" = 1'-0"
140
0.03125
141
12.0
290
     0
  0
SCALE
  5
8410
102
{ACAD_REACTORS
330
840B
102
}
330
840B
100
AcDbScale
 70
     0
300
1/16" = 1'-0"
140
0.0625
141
12.0
290
     0
  0
SCALE
  5
8411
102
{ACAD_REACTORS
330
840B
102
}
330
840B
100
AcDbScale
 70
     0
300
3/32" = 1'-0"
140
0.09375
141
12.0
290
     0
  0
SCALE
  5
8412
102
{ACAD_REACTORS
330
840B
102
}
330
840B
100
AcDbScale
 70
     0
300
1/8" = 1'-0"
140
0.125
141
12.0
290
     0
  0
SCALE
  5
8413
102
{ACAD_REACTORS
330
840B
102
}
330
840B
100
AcDbScale
 70
     0
300
3/16" = 1'-0"
140
0.1875
141
12.0
290
     0
  0
SCALE
  5
8414
102
{ACAD_REACTORS
330
840B
102
}
330
840B
100
AcDbScale
 70
     0
300
1/4" = 1'-0"
140
0.25
141
12.0
290
     0
  0
SCALE
  5
8415
102
{ACAD_REACTORS
330
840B
102
}
330
840B
100
AcDbScale
 70
     0
300
3/8" = 1'-0"
140
0.375
141
12.0
290
     0
  0
SCALE
  5
8416
102
{ACAD_REACTORS
330
840B
102
}
330
840B
100
AcDbScale
 70
     0
300
1/2" = 1'-0"
140
0.5
141
12.0
290
     0
  0
SCALE
  5
8417
102
{ACAD_REACTORS
330
840B
102
}
330
840B
100
AcDbScale
 70
     0
300
3/4" = 1'-0"
140
0.75
141
12.0
290
     0
  0
SCALE
  5
8418
102
{ACAD_REACTORS
330
840B
102
}
330
840B
100
AcDbScale
 70
     0
300
1" = 1'-0"
140
1.0
141
12.0
290
     0
  0
SCALE
  5
8419
102
{ACAD_REACTORS
330
840B
102
}
330
840B
100
AcDbScale
 70
     0
300
1-1/2" = 1'-0"
140
1.5
141
12.0
290
     0
  0
SCALE
  5
841A
102
{ACAD_REACTORS
330
840B
102
}
330
840B
100
AcDbScale
 70
     0
300
3" = 1'-0"
140
3.0
141
12.0
290
     0
  0
SCALE
  5
841B
102
{ACAD_REACTORS
330
840B
102
}
330
840B
100
AcDbScale
 70
     0
300
6" = 1'-0"
140
6.0
141
12.0
290
     0
  0
SCALE
  5
841C
102
{ACAD_REACTORS
330
840B
102
}
330
840B
100
AcDbScale
 70
     0
300
1'-0" = 1'-0"
140
12.0
141
12.0
290
     0
  0
ACDBSECTIONVIEWSTYLE
  5
8431
102
{ACAD_XDICTIONARY
360
881E
102
}
102
{ACAD_REACTORS
330
8430
102
}
330
8430
100
AcDbModelDocViewStyle
 70
     0
  3
Imperial24
290
     0
100
AcDbSectionViewStyle
 70
     0
 71
     0
 90
       78
 71
     1
340
841E
 40
0.24
340
0
340
0
 40
0.24
300
I, O, Q, S, X, Z
 40
0.48
 90
        3
 40
0.18
 90
        1
 71
     2
340
8425
 90
       25
340
8425
 90
       50
 40
0.24
 40
0.0
 40
0.24
 71
     3
340
841E
 40
0.24
 90
        1
 40
0.75
 90
        1
300
%<\AcVar ViewType \f "%tc1">% %<\AcVar ViewSectionStartId>%-%<\AcVar ViewSectionEndId>%\PSCALE %<\AcVar ViewScale \f "%sn">%
 71
     4
300
ANSI31
 40
1.0
 90
        0
290
     0
290
     0
 90
        6
 40
0.0
 40
1.570796326794896
 40
0.2617993877991494
 40
1.308996938995747
 40
-0.2617993877991494
 40
1.832595714594046
  0
TABLESTYLE
  5
842D
102
{ACAD_XDICTIONARY
360
87E5
102
}
102
{ACAD_REACTORS
330
842C
102
}
330
842C
100
AcDbTableStyle
  3
Standard
 70
     0
 71
     0
 40
0.06
 41
0.06
280
     0
281
     0
  7
STANDARD
140
0.18
170
     2
 62
     0
 63
     7
283
     0
274
    -2
284
     1
 64
     0
275
    -2
285
     1
 65
     0
276
    -2
286
     1
 66
     0
277
    -2
287
     1
 67
     0
278
    -2
288
     1
 68
     0
279
    -2
289
     1
 69
     0
  7
STANDARD
140
0.25
170
     5
 62
     0
 63
     7
283
     0
274
    -2
284
     1
 64
     0
275
    -2
285
     1
 65
     0
276
    -2
286
     1
 66
     0
277
    -2
287
     1
 67
     0
278
    -2
288
     1
 68
     0
279
    -2
289
     1
 69
     0
  7
STANDARD
140
0.18
170
     5
 62
     0
 63
     7
283
     0
274
    -2
284
     1
 64
     0
275
    -2
285
     1
 65
     0
276
    -2
286
     1
 66
     0
277
    -2
287
     1
 67
     0
278
    -2
288
     1
 68
     0
279
    -2
289
     1
 69
     0
  0
VISUALSTYLE
  5
83F8
102
{ACAD_XDICTIONARY
360
87F6
102
}
102
{ACAD_REACTORS
330
83F2
102
}
330
83F2
100
AcDbVisualStyle
  2
2dWireframe
 70
     4
 71
     0
 72
     2
 73
     0
 90
        0
 40
-0.6
 41
-30.0
 62
     5
 63
     7
 74
     1
 91
        4
 64
     7
 65
   257
 75
     1
175
     1
 42
1.0
 92
        0
 66
   257
 43
1.0
 76
     1
 77
     6
 78
     2
 67
     7
 79
     5
170
     0
171
     0
290
     0
174
     0
 93
        1
 44
0.0
173
     0
291
     0
 45
0.0
1001
ACAD
1000
AcDbSavedByObjectVersion
1070
     0
  0
VISUALSTYLE
  5
83F7
102
{ACAD_XDICTIONARY
360
87F4
102
}
102
{ACAD_REACTORS
330
83F2
102
}
330
83F2
100
AcDbVisualStyle
  2
Basic
 70
     7
 71
     1
 72
     0
 73
     1
 90
        0
 40
-0.6
 41
-30.0
 62
     5
 63
     7
 74
     0
 91
        4
 64
     7
 65
   257
 75
     1
175
     1
 42
1.0
 92
        8
 66
     7
 43
1.0
 76
     1
 77
     6
 78
     2
 67
     7
 79
     5
170
     0
171
     0
290
     0
174
     0
 93
        1
 44
0.0
173
     0
291
     1
 45
0.0
1001
ACAD
1000
AcDbSavedByObjectVersion
1070
     0
  0
VISUALSTYLE
  5
83FE
102
{ACAD_XDICTIONARY
360
8802
102
}
102
{ACAD_REACTORS
330
83F2
102
}
330
83F2
100
AcDbVisualStyle
  2
Brighten
 70
    12
 71
     2
 72
     2
 73
     0
 90
        0
 40
-0.6
 41
-30.0
 62
     5
 63
     7
 74
     1
 91
        4
 64
     7
 65
   257
 75
     1
175
     1
 42
1.0
 92
        8
 66
     7
 43
1.0
 76
     1
 77
     6
 78
     2
 67
     7
 79
     5
170
     0
171
     0
290
     0
174
     0
 93
        1
 44
50.0
173
     0
291
     1
 45
0.0
1001
ACAD
1000
AcDbSavedByObjectVersion
1070
     0
  0
VISUALSTYLE
  5
8402
102
{ACAD_XDICTIONARY
360
880A
102
}
102
{ACAD_REACTORS
330
83F2
102
}
330
83F2
100
AcDbVisualStyle
  2
ColorChange
 70
    16
 71
     2
 72
     2
 73
     3
 90
        0
 40
-0.6
 41
-30.0
 62
     5
 63
     8
 74
     1
 91
        4
 64
     7
 65
   257
 75
     1
175
     1
 42
1.0
 92
        8
 66
     8
 43
1.0
 76
     1
 77
     6
 78
     2
 67
     7
 79
     5
170
     0
171
     0
290
     0
174
     0
 93
        1
 44
0.0
173
     0
291
     1
 45
0.0
1001
ACAD
1000
AcDbSavedByObjectVersion
1070
     0
  0
VISUALSTYLE
  5
83FB
102
{ACAD_XDICTIONARY
360
87FC
102
}
102
{ACAD_REACTORS
330
83F2
102
}
330
83F2
100
AcDbVisualStyle
  2
Conceptual
 70
     9
 71
     3
 72
     2
 73
     0
 90
        0
 40
-0.6
 41
-30.0
 62
     5
 63
     7
 74
     2
 91
        2
 64
     7
 65
   257
 75
     1
175
     1
 42
179.0
 92
        8
 66
     7
 43
1.0
 76
     1
 77
     6
 78
     2
 67
     7
 79
     3
170
     0
171
     0
290
     0
174
     0
 93
        1
 44
0.0
173
     0
291
     0
 45
0.0
1001
ACAD
1000
AcDbSavedByObjectVersion
1070
     0
  0
VISUALSTYLE
  5
83FD
102
{ACAD_XDICTIONARY
360
8800
102
}
102
{ACAD_REACTORS
330
83F2
102
}
330
83F2
100
AcDbVisualStyle
  2
Dim
 70
    11
 71
     2
 72
     2
 73
     0
 90
        0
 40
-0.6
 41
-30.0
 62
     5
 63
     7
 74
     1
 91
        4
 64
     7
 65
   257
 75
     1
175
     1
 42
1.0
 92
        8
 66
     7
 43
1.0
 76
     1
 77
     6
 78
     2
 67
     7
 79
     5
170
     0
171
     0
290
     0
174
     0
 93
        1
 44
-50.0
173
     0
291
     1
 45
0.0
1001
ACAD
1000
AcDbSavedByObjectVersion
1070
     0
  0
VISUALSTYLE
  5
840A
102
{ACAD_XDICTIONARY
360
881A
102
}
102
{ACAD_REACTORS
330
83F2
102
}
330
83F2
100
AcDbVisualStyle
  2
EdgeColorOff
 70
    22
 71
     2
 72
     2
 73
     0
 90
        0
 40
-0.6
 41
-30.0
 62
     5
 63
     7
 74
     1
 91
        4
 64
     7
 65
   257
 75
     1
175
     1
 42
1.0
 92
        8
 66
     7
 43
1.0
 76
     1
 77
     6
 78
     2
 67
     7
 79
     5
170
     0
171
     0
290
     0
174
     0
 93
        1
 44
0.0
173
     0
291
     1
 45
0.0
1001
ACAD
1000
AcDbSavedByObjectVersion
1070
     0
  0
VISUALSTYLE
  5
8401
102
{ACAD_XDICTIONARY
360
8808
102
}
102
{ACAD_REACTORS
330
83F2
102
}
330
83F2
100
AcDbVisualStyle
  2
Facepattern
 70
    15
 71
     2
 72
     2
 73
     0
 90
        0
 40
-0.6
 41
-30.0
 62
     5
 63
     7
 74
     1
 91
        4
 64
     7
 65
   257
 75
     1
175
     1
 42
1.0
 92
        8
 66
     7
 43
1.0
 76
     1
 77
     6
 78
     2
 67
     7
 79
     5
170
     0
171
     0
290
     0
174
     0
 93
        1
 44
0.0
173
     0
291
     1
 45
0.0
1001
ACAD
1000
AcDbSavedByObjectVersion
1070
     0
  0
VISUALSTYLE
  5
83F3
102
{ACAD_XDICTIONARY
360
87EC
102
}
102
{ACAD_REACTORS
330
83F2
102
}
330
83F2
100
AcDbVisualStyle
  2
Flat
 70
     0
 71
     2
 72
     1
 73
     1
 90
        2
 40
-0.6
 41
30.0
 62
     5
 63
     7
 74
     0
 91
        0
 64
     7
 65
   257
 75
     1
175
     1
 42
1.0
 92
        8
 66
     7
 43
1.0
 76
     1
 77
     6
 78
     2
 67
     7
 79
     5
170
     0
171
     0
290
     0
174
     0
 93
       13
 44
0.0
173
     0
291
     1
 45
0.0
1001
ACAD
1000
AcDbSavedByObjectVersion
1070
     0
  0
VISUALSTYLE
  5
83F4
102
{ACAD_XDICTIONARY
360
87EE
102
}
102
{ACAD_REACTORS
330
83F2
102
}
330
83F2
100
AcDbVisualStyle
  2
FlatWithEdges
 70
     1
 71
     2
 72
     1
 73
     1
 90
        2
 40
-0.6
 41
30.0
 62
     5
 63
     7
 74
     1
 91
        0
 64
     7
 65
   257
 75
     1
175
     1
 42
1.0
 92
        0
 66
   257
 43
1.0
 76
     1
 77
     6
 78
     2
 67
     7
 79
     5
170
     0
171
     0
290
     0
174
     0
 93
       13
 44
0.0
173
     0
291
     1
 45
0.0
1001
ACAD
1000
AcDbSavedByObjectVersion
1070
     0
  0
VISUALSTYLE
  5
83F5
102
{ACAD_XDICTIONARY
360
87F0
102
}
102
{ACAD_REACTORS
330
83F2
102
}
330
83F2
100
AcDbVisualStyle
  2
Gouraud
 70
     2
 71
     2
 72
     2
 73
     1
 90
        2
 40
-0.6
 41
30.0
 62
     5
 63
     7
 74
     0
 91
        0
 64
     7
 65
   257
 75
     1
175
     1
 42
1.0
 92
        0
 66
     7
 43
1.0
 76
     1
 77
     6
 78
     2
 67
     7
 79
     5
170
     0
171
     0
290
     0
174
     0
 93
       13
 44
0.0
173
     0
291
     1
 45
0.0
1001
ACAD
1000
AcDbSavedByObjectVersion
1070
     0
  0
VISUALSTYLE
  5
83F6
102
{ACAD_XDICTIONARY
360
87F2
102
}
102
{ACAD_REACTORS
330
83F2
102
}
330
83F2
100
AcDbVisualStyle
  2
GouraudWithEdges
 70
     3
 71
     2
 72
     2
 73
     1
 90
        2
 40
-0.6
 41
30.0
 62
     5
 63
     7
 74
     1
 91
        0
 64
     7
 65
   257
 75
     1
175
     1
 42
1.0
 92
        0
 66
   257
 43
1.0
 76
     1
 77
     6
 78
     2
 67
     7
 79
     5
170
     0
171
     0
290
     0
174
     0
 93
       13
 44
0.0
173
     0
291
     1
 45
0.0
1001
ACAD
1000
AcDbSavedByObjectVersion
1070
     0
  0
VISUALSTYLE
  5
83FA
102
{ACAD_XDICTIONARY
360
87FA
102
}
102
{ACAD_REACTORS
330
83F2
102
}
330
83F2
100
AcDbVisualStyle
  2
Hidden
 70
     6
 71
     1
 72
     2
 73
     2
 90
        0
 40
-0.6
 41
-30.0
 62
     5
 63
     7
 74
     2
 91
        2
 64
     7
 65
   257
 75
     2
175
     1
 42
40.0
 92
        0
 66
   257
 43
1.0
 76
     1
 77
     6
 78
     2
 67
     7
 79
     3
170
     0
171
     0
290
     0
174
     0
 93
        1
 44
0.0
173
     0
291
     0
 45
0.0
1001
ACAD
1000
AcDbSavedByObjectVersion
1070
     0
  0
VISUALSTYLE
  5
8408
102
{ACAD_XDICTIONARY
360
8816
102
}
102
{ACAD_REACTORS
330
83F2
102
}
330
83F2
100
AcDbVisualStyle
  2
JitterOff
 70
    20
 71
     2
 72
     2
 73
     0
 90
        0
 40
-0.6
 41
-30.0
 62
     5
 63
     7
 74
     1
 91
        4
 64
     7
 65
   257
 75
     1
175
     1
 42
1.0
 92
       10
 66
     7
 43
1.0
 76
     1
 77
     6
 78
     2
 67
     7
 79
     5
170
     0
171
     0
290
     0
174
     0
 93
        1
 44
0.0
173
     0
291
     1
 45
0.0
1001
ACAD
1000
AcDbSavedByObjectVersion
1070
     0
  0
VISUALSTYLE
  5
8400
102
{ACAD_XDICTIONARY
360
8806
102
}
102
{ACAD_REACTORS
330
83F2
102
}
330
83F2
100
AcDbVisualStyle
  2
Linepattern
 70
    14
 71
     2
 72
     2
 73
     0
 90
        0
 40
-0.6
 41
-30.0
 62
     5
 63
     7
 74
     1
 91
        4
 64
     7
 65
   257
 75
     7
175
     7
 42
1.0
 92
        8
 66
     7
 43
1.0
 76
     1
 77
     6
 78
     2
 67
     7
 79
     5
170
     0
171
     0
290
     0
174
     0
 93
        1
 44
0.0
173
     0
291
     1
 45
0.0
1001
ACAD
1000
AcDbSavedByObjectVersion
1070
     0
  0
VISUALSTYLE
  5
8409
102
{ACAD_XDICTIONARY
360
8818
102
}
102
{ACAD_REACTORS
330
83F2
102
}
330
83F2
100
AcDbVisualStyle
  2
OverhangOff
 70
    21
 71
     2
 72
     2
 73
     0
 90
        0
 40
-0.6
 41
-30.0
 62
     5
 63
     7
 74
     1
 91
        4
 64
     7
 65
   257
 75
     1
175
     1
 42
1.0
 92
        9
 66
     7
 43
1.0
 76
     1
 77
     6
 78
     2
 67
     7
 79
     5
170
     0
171
     0
290
     0
174
     0
 93
        1
 44
0.0
173
     0
291
     1
 45
0.0
1001
ACAD
1000
AcDbSavedByObjectVersion
1070
     0
  0
VISUALSTYLE
  5
83FC
102
{ACAD_XDICTIONARY
360
87FE
102
}
102
{ACAD_REACTORS
330
83F2
102
}
330
83F2
100
AcDbVisualStyle
  2
Realistic
 70
     8
 71
     2
 72
     3
 73
     0
 90
        2
 40
-0.6
 41
30.0
 62
     5
 63
     7
 74
     0
 91
        0
 64
     7
 65
   257
 75
     1
175
     1
 42
1.0
 92
        8
 66
   257
 43
1.0
 76
     1
 77
     6
 78
     2
 67
     7
 79
     3
170
     0
171
     0
290
     0
174
     0
 93
       13
 44
0.0
173
     0
291
     0
 45
0.0
1001
ACAD
1000
AcDbSavedByObjectVersion
1070
     0
  0
VISUALSTYLE
  5
8407
102
{ACAD_XDICTIONARY
360
8814
102
}
102
{ACAD_REACTORS
330
83F2
102
}
330
83F2
100
AcDbVisualStyle
  2
Shaded
 70
    27
 71
     2
 72
     2
 73
     1
 90
        2
 40
-0.6
 41
30.0
 62
     5
 63
     7
 74
     0
 91
        4
 64
     7
 65
   257
 75
     1
175
     1
 42
1.0
 92
        8
 66
   257
 43
1.0
 76
     1
 77
     6
 78
     2
 67
     8
 79
     3
170
     0
171
     0
290
     0
174
     0
 93
        5
 44
0.0
173
     0
291
     0
 45
0.0
1001
ACAD
1000
AcDbSavedByObjectVersion
1070
     0
  0
VISUALSTYLE
  5
8406
102
{ACAD_XDICTIONARY
360
8812
102
}
102
{ACAD_REACTORS
330
83F2
102
}
330
83F2
100
AcDbVisualStyle
  2
Shaded with edges
 70
    26
 71
     2
 72
     2
 73
     1
 90
        2
 40
-0.6
 41
30.0
 62
     5
 63
     7
 74
     1
 91
       10
 64
     7
 65
   257
 75
     2
175
     1
 42
1.0
 92
        8
 66
   257
 43
1.0
 76
     1
 77
     6
 78
     2
 67
     7
 79
     3
170
     0
171
     0
290
     0
174
     0
 93
        5
 44
0.0
173
     0
291
     0
 45
0.0
1001
ACAD
1000
AcDbSavedByObjectVersion
1070
     0
  0
VISUALSTYLE
  5
8403
102
{ACAD_XDICTIONARY
360
880C
102
}
102
{ACAD_REACTORS
330
83F2
102
}
330
83F2
100
AcDbVisualStyle
  2
Shades of Gray
 70
    23
 71
     2
 72
     2
 73
     3
 90
        0
 40
-0.6
 41
-30.0
 62
     5
 63
     7
 74
     2
 91
        2
 64
     7
 65
     7
 75
     1
175
     1
 42
40.0
 92
        8
 66
     7
 43
1.0
 76
     1
 77
     6
 78
     2
 67
     7
 79
     3
170
     0
171
     0
290
     0
174
     0
 93
        1
 44
0.0
173
     0
291
     0
 45
0.0
1001
ACAD
1000
AcDbSavedByObjectVersion
1070
     0
  0
VISUALSTYLE
  5
8404
102
{ACAD_XDICTIONARY
360
880E
102
}
102
{ACAD_REACTORS
330
83F2
102
}
330
83F2
100
AcDbVisualStyle
  2
Sketchy
 70
    24
 71
     1
 72
     2
 73
     2
 90
        0
 40
-0.6
 41
-30.0
 62
     5
 63
     7
 74
     2
 91
        2
 64
     7
 65
     7
 75
     1
175
     1
 42
40.0
 92
       11
 66
     7
 43
1.0
 76
     1
 77
     6
 78
     2
 67
     7
 79
     6
170
     0
171
     0
290
     0
174
     0
 93
        1
 44
0.0
173
     0
291
     0
 45
0.0
1001
ACAD
1000
AcDbSavedByObjectVersion
1070
     0
  0
VISUALSTYLE
  5
83FF
102
{ACAD_XDICTIONARY
360
8804
102
}
102
{ACAD_REACTORS
330
83F2
102
}
330
83F2
100
AcDbVisualStyle
  2
Thicken
 70
    13
 71
     2
 72
     2
 73
     0
 90
        0
 40
-0.6
 41
-30.0
 62
     5
 63
     7
 74
     1
 91
        4
 64
     7
 65
   257
 75
     1
175
     1
 42
1.0
 92
       12
 66
     7
 43
1.0
 76
     1
 77
     6
 78
     2
 67
     7
 79
     5
170
     0
171
     0
290
     0
174
     0
 93
        1
 44
0.0
173
     0
291
     1
 45
0.0
1001
ACAD
1000
AcDbSavedByObjectVersion
1070
     0
  0
VISUALSTYLE
  5
83F9
102
{ACAD_XDICTIONARY
360
87F8
102
}
102
{ACAD_REACTORS
330
83F2
102
}
330
83F2
100
AcDbVisualStyle
  2
Wireframe
 70
     5
 71
     0
 72
     2
 73
     0
 90
        0
 40
-0.6
 41
-30.0
 62
     5
 63
     7
 74
     1
 91
        4
 64
     7
 65
   257
 75
     1
175
     1
 42
1.0
 92
        0
 66
   257
 43
1.0
 76
     1
 77
     6
 78
     2
 67
     7
 79
     3
170
     0
171
     0
290
     0
174
     0
 93
        1
 44
0.0
173
     0
291
     0
 45
0.0
1001
ACAD
1000
AcDbSavedByObjectVersion
1070
     0
  0
VISUALSTYLE
  5
8405
102
{ACAD_XDICTIONARY
360
8810
102
}
102
{ACAD_REACTORS
330
83F2
102
}
330
83F2
100
AcDbVisualStyle
  2
X-Ray
 70
    25
 71
     2
 72
     2
 73
     1
 90
        1
 40
0.5
 41
-30.0
 62
     5
 63
     7
 74
     1
 91
        0
 64
     7
 65
   257
 75
     1
175
     1
 42
1.0
 92
        8
 66
     7
 43
1.0
 76
     1
 77
     6
 78
     2
 67
     7
 79
     3
170
     0
171
     0
290
     0
174
     0
 93
       13
 44
0.0
173
     0
291
     0
 45
0.0
1001
ACAD
1000
AcDbSavedByObjectVersion
1070
     0
  0
DICTIONARYVAR
  5
8491
102
{ACAD_REACTORS
330
848C
102
}
330
848C
100
DictionaryVariables
280
     0
  1
1:1
  0
DICTIONARYVAR
  5
848E
102
{ACAD_REACTORS
330
848C
102
}
330
848C
100
DictionaryVariables
280
     0
  1
STANDARD
  0
DICTIONARYVAR
  5
848D
102
{ACAD_REACTORS
330
848C
102
}
330
848C
100
DictionaryVariables
280
     0
  1
STANDARD
  0
DICTIONARYVAR
  5
848F
102
{ACAD_REACTORS
330
848C
102
}
330
848C
100
DictionaryVariables
280
     0
  1
Imperial24
  0
DICTIONARYVAR
  5
8490
102
{ACAD_REACTORS
330
848C
102
}
330
848C
100
DictionaryVariables
280
     0
  1
Imperial24
  0
DICTIONARYVAR
  5
8494
102
{ACAD_REACTORS
330
848C
102
}
330
848C
100
DictionaryVariables
280
     0
  1
1
  0
DICTIONARYVAR
  5
8493
102
{ACAD_REACTORS
330
848C
102
}
330
848C
100
DictionaryVariables
280
     0
  1
0
  0
DICTIONARYVAR
  5
8492
102
{ACAD_REACTORS
330
848C
102
}
330
848C
100
DictionaryVariables
280
     0
  1
127
  0
DICTIONARYVAR
  5
8495
102
{ACAD_REACTORS
330
848C
102
}
330
848C
100
DictionaryVariables
280
     0
  1
2
  0
DICTIONARY
  5
8820
330
8433
100
AcDbDictionary
280
     1
281
     1
  3
ACAD_XREC_ROUNDTRIP
360
8821
  0
DICTIONARY
  5
8824
330
843B
100
AcDbDictionary
280
     1
281
     1
  3
ACAD_XREC_ROUNDTRIP
360
8825
  0
DICTIONARY
  5
8822
330
8437
100
AcDbDictionary
280
     1
281
     1
  3
ACAD_XREC_ROUNDTRIP
360
8823
  0
DICTIONARY
  5
83E3
330
83E2
100
AcDbDictionary
280
     1
281
     1
  3
ACAD_XREC_ROUNDTRIP
360
87EA
  3
BUMPTILE
360
83E5
  3
DIFFUSETILE
360
83E4
  3
OPACITYTILE
360
83E8
  3
REFLECTIONTILE
360
83E7
  3
REFRACTIONTILE
360
83E9
  3
SPECULARTILE
360
83E6
  0
DICTIONARY
  5
83DB
330
83DA
100
AcDbDictionary
280
     1
281
     1
  3
ACAD_XREC_ROUNDTRIP
360
87E9
  3
BUMPTILE
360
83DD
  3
DIFFUSETILE
360
83DC
  3
OPACITYTILE
360
83E0
  3
REFLECTIONTILE
360
83DF
  3
REFRACTIONTILE
360
83E1
  3
SPECULARTILE
360
83DE
  0
DICTIONARY
  5
83EB
330
83EA
100
AcDbDictionary
280
     1
281
     1
  3
ACAD_XREC_ROUNDTRIP
360
87EB
  3
BUMPTILE
360
83ED
  3
DIFFUSETILE
360
83EC
  3
FBXASSET
360
84D8
  3
OPACITYTILE
360
83F0
  3
REFLECTIONTILE
360
83EF
  3
REFRACTIONTILE
360
83F1
  3
SPECULARTILE
360
83EE
  0
DICTIONARY
  5
881E
330
8431
100
AcDbDictionary
280
     1
281
     1
  3
ACAD_XREC_ROUNDTRIP
360
881F
  0
DICTIONARY
  5
87E5
330
842D
100
AcDbDictionary
280
     1
281
     1
  3
ACAD_ROUNDTRIP_2008_TABLESTYLE_CELLSTYLEMAP
360
87E6
  3
ACAD_XREC_ROUNDTRIP
360
881C
  0
DICTIONARY
  5
87F6
330
83F8
100
AcDbDictionary
280
     1
281
     1
  3
ACAD_XREC_ROUNDTRIP
360
87F7
  0
DICTIONARY
  5
87F4
330
83F7
100
AcDbDictionary
280
     1
281
     1
  3
ACAD_XREC_ROUNDTRIP
360
87F5
  0
DICTIONARY
  5
8802
330
83FE
100
AcDbDictionary
280
     1
281
     1
  3
ACAD_XREC_ROUNDTRIP
360
8803
  0
DICTIONARY
  5
880A
330
8402
100
AcDbDictionary
280
     1
281
     1
  3
ACAD_XREC_ROUNDTRIP
360
880B
  0
DICTIONARY
  5
87FC
330
83FB
100
AcDbDictionary
280
     1
281
     1
  3
ACAD_XREC_ROUNDTRIP
360
87FD
  0
DICTIONARY
  5
8800
330
83FD
100
AcDbDictionary
280
     1
281
     1
  3
ACAD_XREC_ROUNDTRIP
360
8801
  0
DICTIONARY
  5
881A
330
840A
100
AcDbDictionary
280
     1
281
     1
  3
ACAD_XREC_ROUNDTRIP
360
881B
  0
DICTIONARY
  5
8808
330
8401
100
AcDbDictionary
280
     1
281
     1
  3
ACAD_XREC_ROUNDTRIP
360
8809
  0
DICTIONARY
  5
87EC
330
83F3
100
AcDbDictionary
280
     1
281
     1
  3
ACAD_XREC_ROUNDTRIP
360
87ED
  0
DICTIONARY
  5
87EE
330
83F4
100
AcDbDictionary
280
     1
281
     1
  3
ACAD_XREC_ROUNDTRIP
360
87EF
  0
DICTIONARY
  5
87F0
330
83F5
100
AcDbDictionary
280
     1
281
     1
  3
ACAD_XREC_ROUNDTRIP
360
87F1
  0
DICTIONARY
  5
87F2
330
83F6
100
AcDbDictionary
280
     1
281
     1
  3
ACAD_XREC_ROUNDTRIP
360
87F3
  0
DICTIONARY
  5
87FA
330
83FA
100
AcDbDictionary
280
     1
281
     1
  3
ACAD_XREC_ROUNDTRIP
360
87FB
  0
DICTIONARY
  5
8816
330
8408
100
AcDbDictionary
280
     1
281
     1
  3
ACAD_XREC_ROUNDTRIP
360
8817
  0
DICTIONARY
  5
8806
330
8400
100
AcDbDictionary
280
     1
281
     1
  3
ACAD_XREC_ROUNDTRIP
360
8807
  0
DICTIONARY
  5
8818
330
8409
100
AcDbDictionary
280
     1
281
     1
  3
ACAD_XREC_ROUNDTRIP
360
8819
  0
DICTIONARY
  5
87FE
330
83FC
100
AcDbDictionary
280
     1
281
     1
  3
ACAD_XREC_ROUNDTRIP
360
87FF
  0
DICTIONARY
  5
8814
330
8407
100
AcDbDictionary
280
     1
281
     1
  3
ACAD_XREC_ROUNDTRIP
360
8815
  0
DICTIONARY
  5
8812
330
8406
100
AcDbDictionary
280
     1
281
     1
  3
ACAD_XREC_ROUNDTRIP
360
8813
  0
DICTIONARY
  5
880C
330
8403
100
AcDbDictionary
280
     1
281
     1
  3
ACAD_XREC_ROUNDTRIP
360
880D
  0
DICTIONARY
  5
880E
330
8404
100
AcDbDictionary
280
     1
281
     1
  3
ACAD_XREC_ROUNDTRIP
360
880F
  0
DICTIONARY
  5
8804
330
83FF
100
AcDbDictionary
280
     1
281
     1
  3
ACAD_XREC_ROUNDTRIP
360
8805
  0
DICTIONARY
  5
87F8
330
83F9
100
AcDbDictionary
280
     1
281
     1
  3
ACAD_XREC_ROUNDTRIP
360
87F9
  0
DICTIONARY
  5
8810
330
8405
100
AcDbDictionary
280
     1
281
     1
  3
ACAD_XREC_ROUNDTRIP
360
8811
  0
XRECORD
  5
8821
102
{ACAD_REACTORS
330
8820
102
}
330
8820
100
AcDbXrecord
280
     1
102
DISPLAYNAME
  1
Imperial24
102
FLAGS
 90
        0
  0
XRECORD
  5
8825
102
{ACAD_REACTORS
330
8824
102
}
330
8824
100
AcDbXrecord
280
     1
102
SHADEPLOT
 70
     0
102
SHADEPLOTRESLEVEL
 70
     2
102
SHADEPLOTCUSTOMDPI
 70
   300
  0
XRECORD
  5
8823
102
{ACAD_REACTORS
330
8822
102
}
330
8822
100
AcDbXrecord
280
     1
102
SHADEPLOT
 70
     0
102
SHADEPLOTRESLEVEL
 70
     2
102
SHADEPLOTCUSTOMDPI
 70
   300
  0
XRECORD
  5
87EA
102
{ACAD_REACTORS
330
83E3
102
}
330
83E3
100
AcDbXrecord
280
     1
102
MATERIAL
148
0.0
149
0.0
149
0.0
 93
        0
 94
      127
282
     0
 72
     0
 77
     0
171
     0
175
     0
179
     0
273
     0
  0
XRECORD
  5
83E5
102
{ACAD_REACTORS
330
83E3
102
}
330
83E3
100
AcDbXrecord
280
     1
270
     1
271
     1
  0
XRECORD
  5
83E4
102
{ACAD_REACTORS
330
83E3
102
}
330
83E3
100
AcDbXrecord
280
     1
270
     1
271
     1
  0
XRECORD
  5
83E8
102
{ACAD_REACTORS
330
83E3
102
}
330
83E3
100
AcDbXrecord
280
     1
270
     1
271
     1
  0
XRECORD
  5
83E7
102
{ACAD_REACTORS
330
83E3
102
}
330
83E3
100
AcDbXrecord
280
     1
270
     1
271
     1
  0
XRECORD
  5
83E9
102
{ACAD_REACTORS
330
83E3
102
}
330
83E3
100
AcDbXrecord
280
     1
270
     1
271
     1
  0
XRECORD
  5
83E6
102
{ACAD_REACTORS
330
83E3
102
}
330
83E3
100
AcDbXrecord
280
     1
270
     1
271
     1
  0
XRECORD
  5
87E9
102
{ACAD_REACTORS
330
83DB
102
}
330
83DB
100
AcDbXrecord
280
     1
102
MATERIAL
148
0.0
149
0.0
149
0.0
 93
        0
 94
      127
282
     0
 72
     0
 77
     0
171
     0
175
     0
179
     0
273
     0
  0
XRECORD
  5
83DD
102
{ACAD_REACTORS
330
83DB
102
}
330
83DB
100
AcDbXrecord
280
     1
270
     1
271
     1
  0
XRECORD
  5
83DC
102
{ACAD_REACTORS
330
83DB
102
}
330
83DB
100
AcDbXrecord
280
     1
270
     1
271
     1
  0
XRECORD
  5
83E0
102
{ACAD_REACTORS
330
83DB
102
}
330
83DB
100
AcDbXrecord
280
     1
270
     1
271
     1
  0
XRECORD
  5
83DF
102
{ACAD_REACTORS
330
83DB
102
}
330
83DB
100
AcDbXrecord
280
     1
270
     1
271
     1
  0
XRECORD
  5
83E1
102
{ACAD_REACTORS
330
83DB
102
}
330
83DB
100
AcDbXrecord
280
     1
270
     1
271
     1
  0
XRECORD
  5
83DE
102
{ACAD_REACTORS
330
83DB
102
}
330
83DB
100
AcDbXrecord
280
     1
270
     1
271
     1
  0
XRECORD
  5
87EB
102
{ACAD_REACTORS
330
83EB
102
}
330
83EB
100
AcDbXrecord
280
     1
102
MATERIAL
148
0.0
149
0.0
149
0.0
 93
        0
 94
      127
282
     0
 72
     0
 77
     0
171
     0
175
     0
179
     0
273
     0
  0
XRECORD
  5
83ED
102
{ACAD_REACTORS
330
83EB
102
}
330
83EB
100
AcDbXrecord
280
     1
270
     1
271
     1
  0
XRECORD
  5
83EC
102
{ACAD_REACTORS
330
83EB
102
}
330
83EB
100
AcDbXrecord
280
     1
270
     1
271
     1
  0
XRECORD
  5
84D8
102
{ACAD_REACTORS
330
83EB
102
}
330
83EB
100
AcDbXrecord
280
     1
 70
     1
 90
1959938040
 71
     1
  1
AB70F5D5-44C5-4AF1-B2BE-76446B0DF7E7
311
504B0304140006080800019381578F0924F0D7000000200100004F00000039353333363237342D304142362D344237302D423432432D4343363743443144453843372F4173736574446174612F446566696E6974696F6E4974657261746F7250726F706572746965732E62696EEB606060F80F0540260323103700495E20ED
311
9E9A975A94991C9C9C919A9BC8C00612C9C94F4ACC6147C831019920AE4B6A5A62694E0948976F6671726A4E4E625E6A7E69B12042A9426E6209D0B8C41C3D90264E20860914834C48875806B2DF0F88414E02D189290556F689C5C5A925B6FA694915FA064E868E2ECEAE8EBA46A66616BA26CEE696BA8E66CECEBA96A6E6
311
46AE962E962606CE8EFA45A9C5F9A545C9A9C5FA46FA06F15093E30BF2D283221DEB0C19188280D6B330BCDF77326CA76B5DB8E1043DA0452EE9CD313B0D666E023291C03E00504B030414000608080001938157A757F5DAF8000000300200004500000039353333363237342D304142362D344237302D423432432D434336
311
3743443144453843372F4173736574446174612F496E7374616E636550726F706572746965732E62696EEB606060F80F0540260323103700495E20ED9E9A975A94991C9C9C919A9BA802147074323770337531D535317106128E6E86BA4E464EAEBAE6662626664E062E6EE6AEE6EC088D202DC686262EAE46A696BAA62626
311
C6BA266646402D6E4E2EBA86E6C606CE66CECE968EAE964065607B193463FA0F7DD5B8620FA49980620D400CE38369201F083ED843543330083830088085C0848A03828D9505D40801700656654041B8820FCC405E031043B53E80D23C40214C000A47840CDC100C85293B1D30C4500430B5828CD64052F3C19E05C803C516
311
1F10079727962467E83A1525E6A5A4A68064F0019059F8E4B1C985B1883F675065680000504B03041400060808000193815728BB58AF800100009E0500003D00000039353333363237342D304142362D344237302D423432432D4343363743443144453843372F536368656D61732F436F6D6D6F6E536368656D612E786D6C
311
BD544D4FC23018BEFB2B96DE15493C78601010A34B880709DEDFB52FD0D8B54BD70DF6EFED3AC0B12E6442E2716BFB3CEFF3D18E26FB440405EA8C2B1992E1C323095052C5B8DC842437EBFB673219DF8DA659866649B798C078B48AE6410122242F2A4994AC7F93815DF85C049C8564CA0A901499DD886B2EB9B1E02448F3
311
58701A9235880C49A0119892A20C89D1B9FD768815CAD268CB5E0355B40B1E47F3E37A2020464BED06AA57CE8FCC20C3C3446D46761A2632A8C1283D07031EFF2AE7CCB1BFEEE916E406DFAC8E36FFD99A9D60A6944090EEDC3B670C7DC13DE86B6B2C5C240D6E503BB85ACD579D513F1B9F9A69DC9CC22AFA80C426D40AF0
311
B21EA168559156B6276F0F726A6BFF04DCD513A87A62CAD41FB24FCB2858B3952E3D852084DA25B9303C15687973CC8E8AAE11DF2836C38C6A9E765E8C1BA1BFB1DC29CDFE518C8B5A7655A4ED7E77291ABEB80DBD82EC866ADE1B8D05AF9E35CF09D7A061F38A986D9EC412B8F0F65E5D81534D9B231D1E5A8FE577A241F3
311
A5FD01504B0304140006080800019381572CCEBD668A040000E01200003E00000039353333363237342D304142362D344237302D423432432D4343363743443144453843372F536368656D61732F47656E65726963536368656D612E786D6CD5586D6FDB380CFE7EBF42F0F7A649B70E1B90744856B4970F450FCD7A5F0545
311
9613EDE4174872DADCAF3F522F8ED3B88D2F1D06AC4050DBA2493EE4438AF2F8EB73AEC8466823CB62928C06C384888297A92C5693A4B6D9D9E7E4EBD51FE3A931C22EF85AE4EC6AFC38BF261BA626C9AD288496DC3F4FCEAFC63366845F7A10452AF41DB320C0D44EC26EAB20918735565582695670811A6A49643A49A6E9
311
069FA4604A64B29016DC4B48552F95E4932463CA888468C1D2B250DB4962750DF7CE273069CE8363F1FF4EDB00E0A21999574AE4A2B00C353B93F3BD4777B8A61ED8F604ABFEDD79CE56A2B7BDFBDBC50996E0ADDE16FED26223C5D30956C29BDF4A55EA686E5E58B112DA45CE67F76F4FA27EFA3FB672FD7372FC388FAECD
311
CA5209E693CAD167BADCD272F943701B3812F8A3D852008B1D2E32DB927B2F833C6EA95879925356D254582695095A3CE982924720BE5774A3CB9CDCDB350427D2DF20DA1B5532EBE2D5D6288D75D4F7E4FD9890A0EF8E3D93EBB8F8BA4758158EF6FB90A6F9520281C93DE7AAC6D24607DA296BB96018123F821A7D6A5C58
311
84050C475DA4865442732C8B95684A50165CBB3A32F25F783A4A480ED59AD7F924B968AEA50131F46303223E6A397B0E52976030DC1DCA81D7E7C1EDEEA42C19FF27635C505E2BD5198A599020DF50A2330FCB3AAF28CB0124108429553EF1B228802E2265D8F7CC2401042B155BCC7070F1E5C55F13B4A9577362CCCE46C3
311
2174E010C3C378C44841A4BDA00FE3A12006CE11EE6AEC59894D3526DDE1CD59D503ECC324017F8061B7F162162FA62EDD81AE3308617770796DCBDAD2B2625C5AE8A63DE20B2C8AA5E95E76E5730823955956E33E705425A2187C185D36489A1B44D3DCEC2172F6BA2105C3546287A7194B2331768EBBE64F6E70A9930ABE
311
0ADEA89E9E2C38523B810287AD67A54A039C1606EAFE68F8304610BB9093DBDDABC0B2AE4E290DCDA15376D7E39F72B556F0B32EAB5D3D498B4C41ABADEC3A1434C422D87E8025A84BDCB2B1417ED750FAE4DA8976863974C577C7F902D3F156AD354DEA3540DE6BEAE2BEA52F7A2EB4CA43802ECE5BF2CE2EDC9347179FFB
311
023CE412E60BE16DA0BE29B374988A553F561DC04615DD35F7D2C8979F60E5955CE93DF29DED8AFA1EE6642D53418086C03C47C377910F75F7E8F5EF665F70B60FFB22AEDF897D119E8423C773E819A3C1E55E550599EE6EDCA34D0C86FD72057DF2CD46F16A470682471C164E4346D5306BF12D7D12D82CFF673D41636C34
311
7443FEB51B50D72EA171A8E4A58623A4A16E0FA2B8B10A0D23268D87C33896EE8FB73305A74BF224EDBADFA0BD674AB354D63DB7BD5D83426761C077DE767728235446A552754EB93B755891C3C4CC6CADE37CF0E912A7BB38DBA010F9DE1282EDF470CA69A9CDA482E334C4A6EA4107987980B17E72F31730EBF88BBD39E7
311
C629F56797A3C0009C2C5AE7951D9A05A02773440F02EEB4DE396A3B6A570C72CCFBCD823B0B8ED3F1D5CEDDFED772FA70236C83FB7D86C385D570B87107535572A60A96035F8F7C6A7192F13007246BBE0521855E6AC46F3E27689CEE7D186A6FD679D98CDCAD13333E04EBE7ED6F55FF01504B0304140006080800019381
311
576180134D5F0100006B0300004500000039353333363237342D304142362D344237302D423432432D4343363743443144453843372F536368656D61732F52656E6465724D6174657269616C536368656D612E786D6CA5934D6FC2300C86EFFB1551EEE343DBA41D1A103009551ADAD40EAE28A4A68D9426284961FCFBE5A3
311
40113B2071746D3F765EBF4DC6BFB5407BD0862B49F0B037C0082453059725C18DDD3EBFE3F1E829991803366715D474942CD30FB4A782E00C64017A412D684E454CE3FE28995203B162A6EA5AC94B66997D225E109CD63B0135484BAD1B3C07E9080CA35DB3119C11BCA5C200461A68A1A438126C75E3E230D40FF81FB3F0
311
3C91D1E3A3A0AF79FE28E25BC39EC3E17E4C2A2D94A0833A51AF55BCCA7D88572FCBAC529C4140B020FC3AAFA886621DCED7EAD7664CC86024E806DC297DA1BB393E4156543457A4537DB8817349A70F8ACBF09B3EEE2CB2F33E91B65D60786E4E3B39B77E3FEEEF5650424525DA657FB8B46BE6BF064646F0A0F7327C0BC1
311
BC1B4CBBC1C419FA3CCB23500007872A2580CAAE5461865565294E4EDB4617B62FF579DF9A5B2F54E834076A597573A020912FED777F9B3F504B030414000608080001938157E85787BE4F000000570000004700000039353333363237342D304142362D344237302D423432432D4343363743443144453843372F41737365
311
74446174612F41737365745461626C654F66436F6E74656E74732E62696E536160607074323770337531D535317106128E6E86BA4E464EAEBAE6662626664E062E6EE6AEE6424075B98925A945998939890505A989458979C9A9404130E00592EEA97940D9E4E0E48CD4DC4400504B030414000608080001938157F8658340
311
58000000680000004500000039353333363237342D304142362D344237302D423432432D4343363743443144453843372F4173736574446174612F53747265616D56657273696F6E5461626C652E696E66558CBD0A80300C06F73E4B117FB66E451741D041DC5BF98480A492E4FDD18EAEC7DD4555D89EF28DF51A0B1BD834
311
0C4DE7DD848B988C0ACF0649566493F2408C508DDEBB99D5129FF8F1AF8CF5B9503E20FAE5A16B5AF702504B030414000608080001938157A16FEA61340100009A0400003600000039353333363237342D304142362D344237302D423432432D4343363743443144453843372F4173736574446174612F636E782E786D6CCD
311
94314FC3301085FF4AE43D7692325495E30AC1D209242A06B6AB7329561D3BB22F08FE3D76930154C4D4A1EBF9DDF9F993DFC9EDE7608B0F0CD178D7B29A57AC40A77D67DCB16513F5E59A155B2583F7F443C60A0703B62C979992C7E0A7712975D8C36473D51A775A8AF73122EDE160F1A97FF08ED0516485B61063CBA27E
311
C701384CE43B8C27DE0101AF79C0E8A7A0314D2233E032490704C28EA9A66A5665DD9455BDAFD79BE66E53ADDEA4C84A250FDEDB456FD265C18F859E6F65AA92221F2B3905B368F25B98FACB233F182745522A192924264B077D8DA903C6D11A0D94D009AF09A94C2284418A59ACA4C80C7E9178C4DE38935B76C918900FCF
311
C91E0632787344FEF37A7D323B17099CC6DBE571E9F0FA145ECE3FE8750EE43931B796934B87DCB8FE0A2911E735924293B78AFA06504B0304140006080800019381570AFB96F0070100004F0300003400000039353333363237342D304142362D344237302D423432432D4343363743443144453843372F536368656D6173
311
2F636E782E786D6CCD93BD52032114855F85A10FEC6E2C321996141656366A65877013990077871F47DF5E582992193B2DD2C1E11BE69CC3451C3EBD231F1093C530D3910D9440D0686C38CDB4E4E36647C9418A88982F304A82F230D32653294E11CBD2250347555C539D0DE72EDEA3F7189EF53B784589762AA599A675CB
311
54C968209D995159B191454858A2867A43B61EFA0D3A82CA60A89C8669BB19A7CD30BE8CBBFD74B71FB6AF8237528A3744D7791B32445C88C6BA08D5CE20783B96A244DB999681CA4B6FACB6217825A44839D60E3A99BF964AAA657156AB5CABE22BF8C348C15BD4ABC00F10205A7D9B89AFCCFD5BE4270806E2637DA56895
311
BBCDE4BF79FC5B017C9DFD3A02ED2BC86F504B030414000608080001938157410A3D5871000000A40000002C00000039353333363237342D304142362D344237302D423432432D4343363743443144453843372F636E782E786D6C55CC4D0E82301086E1AB34B31774E7A22D31F1069E60020334B633A63FC6E34B0909B07D
311
DE2F9FEE7EC1AB2FC5E4840DDC9A2B28E25E06C7938192C7CB1D54677514C9871928C640062A83D55394F2D968A0118BAFEA1DBF377CA444F98919176EAB9FEAAB9F2960DA5BBB1E2ED3FA6FFF504B030414000608080001938157FECF53D87E000000A300000007000000636E782E786D6C4D8CD10E822018465F85FDF714
311
2A816D820BEC415CA263223492D6E307CD8BAEBEEDEC3BA7EB3F9B436F135F367801D5890032FE1126EB1701699F710BA8975D0C61FFBB01F2E36604140CB25B6248CF034D661E932BD459BF1EF07A691A56738AC94D314C152758D15A63AD19D74335DC5BCDB3712E4A9E5F2F6FC9CB2F504B030414000608080001938157
311
16E99B5DA600000035010000130000005B436F6E74656E745F54797065735D2E786D6C9590410E82301045AFD2740F4517C6180A0BF5065E60AC53688469D30E066F6F91AD9AB89CF9FFFD3F99BA9DC7413C3026E749CB4D59498164FCCD51A7E5C4B6D84BD136F5E5193089ECA5A465CF1C0E4A25D3E308A9F401292BD6C7
311
11388FB15301CC1D3A54DBAADA29E38991B8E0254336F5092D4C038BF39CD76B6FC6A538AEBEA54A4B08617006389FA516557DE4AE8E7E70DE30729138228C5F021CD93F02D4FB0DCD0B504B0304140006080800019381573DEE336E64000000790000001B0000006175746F6465736B2D64657369676E2D7061636B616765
311
2E786D6C35CBC10E83200C00D05F21DCA56CA76D41FC96062B120735B69A7DBE268BB7777961F8D5AF396893C2ADB70FE7ADA196782C2DF776D7A97B5933C430F15651E5469C55D70F80A4992A3ADC954792C525AE70A1E4D6AD9816CC044FEFDF01FE3FDE907802504B03041400060808000193815776DF4887F700000096
311
0100003700000039353333363237342D304142362D344237302D423432432D4343363743443144453843372F4173736574446174612F636F72652E786D6C8550CB6EC32010FC156BEFD83C5C258D30515ACB5FD0536F08888B1283C5A3EAE71762576A4F3DED6A76667677F8F96BB9379F2644EBDD00A4C5D018A7BCB66E1E
311
20A72B3A4273163C789F7ED1A0717231035418049F83CFEB0E29EF927115755E9B1D94319A048DBA976680A83ECC225B995361C45BBB4A7593B36949BBF104CFD9EA5D6A7571B3576B028897E9894DEC30A2E333A5A867FDA57498A011F7D3381D28C3F89577552C78B2CBCF76158C4C4683A098324428C2E48D1C4FB43F61
311
F6CEBBCA143CA6507EDE97D6EF405CEAD5A34C9277DBF48F6B5EF5FFAED9BAC4E8EEBA292208528E7C0C04EF6A4AA53C222CB5262ABE01504B030414000608080001938157D2CC3CC3F5000000940100003500000039353333363237342D304142362D344237302D423432432D4343363743443144453843372F536368656D
311
61732F636F72652E786D6C8550CB4EC4300CFC95CAF7B479146D59A55901557F004EDCA2345BA2DD26551E88CF27698B04274EB6C633637BF8E56BB9579FDA07E36C0FA4C65069ABDC64ECDC438A57D4417511DC3B177FD1A0B272D13D1418049FBD4BEB012967A3B605B56ED2072843D0112A75CF4D0F417DE845D632C5CC
311
08B77A95EA26675D937AE7099E92990EA999B29BB91AED413C8F0F6C64A701758F94A296B54FB9C3040DB81D87F14419C62FBC2962C1A3597EB62BAF65D413088A294384224CDE4877A6ED19B377DE14A6E021FAFCF3B1B47C07E275BB33F0669FFDF14CEBF4BF673236327A78EE8A0082E413B781E04DC928972DC05C4B9E
311
E21B504B030414000608080001938157DAE862C501010000D70100002D00000039353333363237342D304142362D344237302D423432432D4343363743443144453843372F636F72652E786D6C9591C16E842010865FC5CC1D0574D56E904D75FB063DF54665D625BB82116CFAF8C56AD3F6D69E203FDF3FC33F234EEFE33D
311
79C3D91B671B602985046DEFB4B143034BB8901A929314B373E1070689552336B0CA20C530BB65DAA5DED9807655ADD3B88BCA7B0C90F4F77869C0F7571C55AA9610097F4B27D5DFD480294B374E8A60C62F6B3FA30AA84172CA73C238A1EC99D5475E1C69FE22B29594623136E47C6F86E32BEAC44D2146027910D9F61AA9
311
C5E89D313AFED15C0CCE201F0E795EF2AA20F4B12D49D15694B405EF48D795557766E7A7BAAB62916896C287394E662FB2CEE0AFF6CDF82BD932E97F26DB1C1E24FB0E95AD639622FBDC413CD795C80F504B0304140006080800019381575A11A76206010000B201000008000000636F72652E786D6C8D50CB4EC33010FC15
311
6BEF49FC086AA91C5740942FE0C4CDC46EB09AD8911F15FC3D761324B871DAD5CCECCEECF2F3E732A39BF6C138DB01A931206D47A78C9D3A48F1521D019D05F7CEC55F3240562EBA830283E0937769DDA1D1D9A86D41AD537A0765083A021AE7DC7410C60FBDC85AA69815E15AAF72BCCA49D7A4DE748247B3FC8C8E5ECBA8
311
15088A29AB08AD307925C7136D4F98BDF1A628054FC9A8DDCAA8EC6E2E467B10CFC3031BD8A1AF8E8F94562D6B9F728749D5E376E887036518BFF0A60C0B1EA2CF37EF4B72CE8882BC155FDE6C94E0EFCECDBB208752C8D9F90B04E64D21FE844EABFA47686323A3FBC26D22802039D09DC8C6E583B9DCDF9B6BF9B6F80650
311
4B01021400140006080800019381578F0924F0D7000000200100004F000000000000000000000000000000000039353333363237342D304142362D344237302D423432432D4343363743443144453843372F4173736574446174612F446566696E6974696F6E4974657261746F7250726F706572746965732E62696E504B01
311
02140014000608080001938157A757F5DAF80000003002000045000000000000000000000000004401000039353333363237342D304142362D344237302D423432432D4343363743443144453843372F4173736574446174612F496E7374616E636550726F706572746965732E62696E504B01021400140006080800019381
311
5728BB58AF800100009E0500003D000000000000000000000000009F02000039353333363237342D304142362D344237302D423432432D4343363743443144453843372F536368656D61732F436F6D6D6F6E536368656D612E786D6C504B01021400140006080800019381572CCEBD668A040000E01200003E000000000000
311
000000000000007A04000039353333363237342D304142362D344237302D423432432D4343363743443144453843372F536368656D61732F47656E65726963536368656D612E786D6C504B01021400140006080800019381576180134D5F0100006B0300004500000000000000000000000000600900003935333336323734
311
2D304142362D344237302D423432432D4343363743443144453843372F536368656D61732F52656E6465724D6174657269616C536368656D612E786D6C504B0102140014000608080001938157E85787BE4F000000570000004700000000000000000000000000220B000039353333363237342D304142362D344237302D42
311
3432432D4343363743443144453843372F4173736574446174612F41737365745461626C654F66436F6E74656E74732E62696E504B0102140014000608080001938157F865834058000000680000004500000000000000000000000000D60B000039353333363237342D304142362D344237302D423432432D434336374344
311
3144453843372F4173736574446174612F53747265616D56657273696F6E5461626C652E696E66504B0102140014000608080001938157A16FEA61340100009A0400003600000000000000000000000000910C000039353333363237342D304142362D344237302D423432432D4343363743443144453843372F4173736574
311
446174612F636E782E786D6C504B01021400140006080800019381570AFB96F0070100004F0300003400000000000000000000000000190E000039353333363237342D304142362D344237302D423432432D4343363743443144453843372F536368656D61732F636E782E786D6C504B010214001400060808000193815741
311
0A3D5871000000A40000002C00000000000000000000000000720F000039353333363237342D304142362D344237302D423432432D4343363743443144453843372F636E782E786D6C504B0102140014000608080001938157FECF53D87E000000A300000007000000000000000000000000002D100000636E782E786D6C50
311
4B010214001400060808000193815716E99B5DA6000000350100001300000000000000000000000000D01000005B436F6E74656E745F54797065735D2E786D6C504B01021400140006080800019381573DEE336E64000000790000001B00000000000000000000000000A71100006175746F6465736B2D64657369676E2D70
311
61636B6167652E786D6C504B010214001400060808000193815776DF4887F70000009601000037000000000000000000000000004412000039353333363237342D304142362D344237302D423432432D4343363743443144453843372F4173736574446174612F636F72652E786D6C504B0102140014000608080001938157
311
D2CC3CC3F50000009401000035000000000000000000000000009013000039353333363237342D304142362D344237302D423432432D4343363743443144453843372F536368656D61732F636F72652E786D6C504B0102140014000608080001938157DAE862C501010000D70100002D00000000000000000000000000D814
311
000039353333363237342D304142362D344237302D423432432D4343363743443144453843372F636F72652E786D6C504B01021400140006080800019381575A11A76206010000B2010000080000000000000000000000000024160000636F72652E786D6C504B050600000000110011005A060000501700000000
310
504B030414000608080001938157000000000000000000000000370000006662782F34373238393031372D363931392D343830372D383034392D4131304443373433343244412F617474726962757465732E62696E504B030414000608080001938157000000000000000000000000350000006662782F3437323839303137
310
2D363931392D343830372D383034392D4131304443373433343244412F76657274696365732E62696E504B030414000608080001938157F270F1330600000004000000360000006662782F34373238393031372D363931392D343830372D383034392D4131304443373433343244412F747269616E676C65732E62696E6366
310
60600000504B03041400060808000193815751464CB48900000043010000360000006662782F34373238393031372D363931392D343830372D383034392D4131304443373433343244412F6469726563746F72792E786D6C9D8F310EC2300C45AF127987122606C71DD918B841D4B851A43646695A717C52A85029031293A5
310
A76FBF6FACEF7DA7264E43906840EF0FA03836E242F406C6DCEE4EA06AC22492573150D1F66C60C640E8938CB705396EEDD86DE9B5042FE27813D640EA63BB001C722AF6E55CB61E4863F58284D5D3F53DD715CE1C3985E63FD7F1B7EBDD617E9F1E504B0304140006080800019381579D2AED8638070000201C0000340000
310
006662782F34373238393031372D363931392D343830372D383034392D4131304443373433343244412F6F626A656374732E786D6CDD59DB6EDB3810FD1542FBB2FB605D7C4B5C282E7C490AA3481BD4E862DF045AA61C6E74032925CE7EFD0E29529664D956B22D506C02240E430D67CECC9C198EDC8FFB2844CF84719AC4
310
378663DA0622B19F6C69BCBB31F22CE85D1BE8E314B92C49B2CA3E03C5382237865836A6EE8E2579AA96B624C079D85CBD9BFF85B84F6262203FC49CDF18DC7F241136719E255BC29FCC2DCEB0B90BF6A663161BEB62770CA78F8DA352CC489C81AAB01E8314A58153FF134CB2A6AE2536D4B6F5BB6D1B9CD96649C3EB8AD2
310
986738F68FB46AC8E977D36AE00C97B7FDD1A4371A0E07BDE1B8EFF4E677F365CFB91AD88BF1623199DD4E0C3475374912960E4849BC052FBE1A53C7B5C47F4AF3150A6D7AFB491C135FA1D9B6614B945C4A7813931AB08E34ADE290C2D6CAC2A0A3F127B67502A5A6520D6D6D9CFE5D8DDE64F33780C0BB4429E3444439CF
310
18F85A615FE483ED5AC56ACD2F94A3086784511CA2906E1866E020D85A38A82646648B10850466D28B5A5E555708ECCBB9D4A6659087A1C85F632A33CD837C2419979AD17F083B685F3D0D74026B731A67D7CAD8EC35051113D7928BC5FF067DF5CF024814847807D102668A4D837E03AF85E082D5D2987EBEDBECD7821FDA
310
0F4F5992129689C893C9ACF24E7BB0125A107C1D402970ADFBEE80CA3780FE0B205FEA825CF01CA3FBE17EA86D6738E641C222F00EB251CF861F36121F8F3EB956F9F014A11A579EC214D2F607615A33A3767605D2A9FB0C419FB081326EEDE31062FA9EC622CF21505098C012F07DB0D91BD31590292CC2533804EBE1DBB5
310
C44704BF0A39C0370D0FB5D16F0747E98469E6D9C1579F206618F54B57D56C3C85EFE887E03B5BAE3FAF7316609FDCABC45E9280C6348362DAAE500DF45ACA7F5F7D911979644F6D970FE7EC12411C2D7E592BBF20E9185045D4E1C23572E59E42BA87218E499273B5DE46547E1226CCDBBC7A450EB79EF5A70E82E230C86F
310
1101AD6406D5DD673415A01853655EC984E60127C1832A00778553BD0DF69F04BC9E0F8CF51E3D206A316B0ACDA3D4C35192C782BE8FC3BB699A39B0E597E34CFAF6A47F3D196B63B914AFB3475343A9BC3827C2E9894316356F29D6D0928B3C1A025BB659E043CF94675E92629F66EDB1D030426528807D56E52D0D829C03
310
A9B7C2D2D0D81C382364577E96879CD75E1DE2D108EF88176051E15ACFAB01540AD716B422B30B13CE694CB8EC508E98AB818A6D02111471ABA5B60421E55E4432FC9EF89325AF117E8C04A107BD5426BAD9CBD1A71554D5F39444D1B925B127ED7FF5388ED2B0E8D22E61E0F41B27B4E22A9416473C43BC7938F3EC2D914D
310
F725E9252F687C3B499FBC5BFC097818FEE9F0E82328B4DE50232F7BD63147CE447C5D03A98C47CEE04A3BE21256FAA84CF420610E5D93FFEABD10BA7BEC46689DCEE1240C3C1A8679E415F5202311B46038CB59A77C1D8FEC23E72B5E682444E5A48086D02077264DD97BE8EE03AC92CDC729D2AC1C0346D118EE689D0C39
310
B2A23584A52FE47D545CBB2E7BFFED52FF335F56EF294FE4F52561DB564DEB6D84EEC074C320E85255B8328EA4E4A95B4DBE485E5C2EE330D44214BF15B70415218C3C5331989037A0D6FB037FC1990F44BA96BF7B73C8882DD91E7A8A9A3835E630A670A896A6FBD4EA4D07C84E948F5AE3B512841AC1B4010B9EBD171FC2
310
6F185C0D9D1FB754576315EB2B51D84C18AC1CF43823EBEBA775430AAC747EFA4160445E1A12D4EA42347267447D5F1DFAD5860465D1F7D599C7B3C73CDAC4988ACA28C2026FD30F1FE55DF2C6828B8265CF9DD972713BEBF547E3EBDE707135E9CD6064D19B8CAEFAB793E564682F6616233CC9994FB8D5B76C4FF74E69BC
310
D3815140D7E546015385CB573F1DCF4D07FF8F6F1461B2C1A762F157BD5094ED9E68C81AB9D8F542D14AD49BB775FFCE1151B717B13775CEC5AC4007F8F9B20564A4EB7DF7D6428BD69D44BBCE958AF8C6C27BF2B6F2D36B4C8DD05BEB436D471BE5D7B918664F2D554ADF6E25AFCDE657F6DD6839EA0D870BF831BB83196C
310
7F7EDBBB1A0F87E3B9BDBCBBBA3DF46EAA1676AD2BBF04876A652B63349806F324A43094275BB42309DC8060EAD0815F5944B8BCD94003A0CAB87E23D0E1E9E762A69AE14DA89FF61F310CA6435591731F86A270EBB831D43AFA0DC6A06212298753E613141E15ED06CA19BD312004320AF5C5DCC0384B0E0FA5F4C6B812DC
310
86E39DB833154F957F1F1E13E840AC1CEC2AF774C14559568B4E180EA4F23D01B09D6E48DE6FBA5607E10C3E6EF2AC34E6B070B04681A05F0814C6C1D4EF49C1BB07E2396F9763CA3D35483A4DE6CFC64121B59761B693E3F50ADEB3E5832526E3ABAF280DF39D70E7B97A5F93D4137D4698174328170243999962710F5F7C
310
B01E5802AF982274472108D0EFFBEBF11FD62289A2242E96AC997A5185D68FF0DA696BE9911F342EB633B264DFA3C6FA30B7E2C4C45BFE040BE05A46C56CB480B81600253D5502407B44F8021EABED5F2D912A029516B6DABA0A78E44C1F4122897739226DAA1B2A0348C805D0AA98D3961FF4826B3118824FFF05504B0304
310
140006080800019381577F079F243E01000046050000300000006662782F34373238393031372D363931392D343830372D383034392D4131304443373433343244412F636E782E786D6CCD94414EC3301045AF62799F3849595495E34A2C38010BC4CE71A6C134B1237B8CE8EDB18B5340A88845A576678DFF48FFCD7C0DDF
310
BE4F237903E7B5352DADCB8A1230CAF6DA0C2D0DB82BD6946C0577D6E2371925464ED0D254A6820FCE8639977AD8C930A6EAA8CD3E1725A2D35D40F094A8517ADF52AF5E6092A50C687BF0FBB29728CBBA74E06D700A623FEA0972BF7220117A2A9AAA5915755354F563BDDE34779B6AF5CC59520ADE593B66BD3608CECE44
310
D9F830D14CC559FA163C389D3589808A2F6765A70D67F15F701FDD9A21EBF03027DD3C8F5A498C636256216011452027CE3EC582B3C4FB83FAE1FE6971407AED40A175872B0DA03E378093B13226E17FFC47E1DFD8B67B8DB8D7DAF659D86CEB62A84B5A7D8CEBEFFDC71449338CB717FA93B1CB673E9E12D4EAF690175F17
310
2266C79317979E2EA0F800504B0304140006080800019381577311B6EF7D000000A30000000B0000006662782F636E782E786D6C4D8CD10AC22018465F45FE7B4BD74F2AA863B41719CD0DC969D88C1E3F8D5D74F5C1E13B47F79F2D90B7CB2F9FA2017E62405CBCA7D9C7D540D9172A81F456E794F6BF1B90386DCE40C360
310
F59A53791E6876CB5442A3C1C7C701517452312EE855714551324125434507CEC69BC00B76E3508D7353EAFC7A755BDE7E01504B030414000608080001938157A6D797065F0000008200000007000000636E782E786D6C4DCB3B0E80201045D1AD90E9FD7516806B51190811670C8A61F982B1B0BAC9C97B72CA7B1037C6D3
310
332918DA1E04D2CAC69353902EDB8C20262D23F3F59B81A079470595414B17391D1F19B4730A5583A7ED43BBE4025D9592775E5ADFFA01504B0304140006080800019381574FEB6A7CA0000000F4000000130000005B436F6E74656E745F54797065735D2E786D6C7D8F4B0EC2300C44AF1279DFA6B0400835ED02B8011730
310
C16D239A8F121795DB93D02D6269CFBC19BBED573B8B17C564BC53B0AB1B10E4B47F18372A5878A88E20FAAEBDBD032591BD2E299898C349CAA427B2986A1FC86565F0D122E7318E32A07EE24872DF3407A9BD63725C71C980AEBDD080CBCCE2BAE6F5D69B7110E7CD57AA146008B3D1C8F92C5954F993BB1BF787F39A89AB
310
C491D09600F9FDA2FB00504B0304140006080800019381573DEE336E64000000790000001B0000006175746F6465736B2D64657369676E2D7061636B6167652E786D6C35CBC10E83200C00D05F21DCA56CA76D41FC96062B120735B69A7DBE268BB7777961F8D5AF396893C2ADB70FE7ADA196782C2DF776D7A97B5933C430
310
F15651E5469C55D70F80A4992A3ADC954792C525AE70A1E4D6AD9816CC044FEFDF01FE3FDE907802504B0304140006080800019381579A4BFBA8F7000000960100003B0000006662782F34373238393031372D363931392D343830372D383034392D4131304443373433343244412F7265736F75726365732F636F72652E78
310
6D6C8550CB4EC33010FC9568EF4E6227045339AE50802FE0C4CD72B6A9D5C68EFC407C3E761B243871DAD5ECCCECEE88E3D77AAD3ED107E3EC08B46EA142ABDD6CEC32428A27C2A13A4AE19D8BBF685059B5E20805062916EFD2B643DAD988B6A0D6CDB8832A048C50E96B6E4608FA8CABAA558A99112EF5A6F4452D58D3FA
310
CE93222533EF523367377332E8413EF67C1A9EA69E0C0FFC8DF48C0D84334EC9D44FD3EB0BA7EDF04C4553C45244B3FE6CD71E55C419246B594728232D7DA7FCC0FA43DB7D88A630A508D1E79FF7A5E53B901E834B5E6310CD7DFAC7356DF3FFAEC9D8D8B1DDF5AE0820CB91B781144D4929975B84B99644E537504B030414
310
00060808000193815726FD846DEF000000B1010000310000006662782F34373238393031372D363931392D343830372D383034392D4131304443373433343244412F636F72652E786D6C8D50CB6EC32010FC156BEFD880516D4798286A3EA1A7DE10901425068B47D4CF2FC4AED4DE725A343BC3CC0E3F7E2FF7E66142B4DE
310
CD405A0C8D71CA6BEBAE33E47441233447C183F7E90F0D1A271733438541F06BF079DD21E55D32AEA2CE6BB383324693A051F7F29821AA2FB3C856E65418F1D6AE52DDE4D5B4A4DD788227BBFC4A553032190D8262DA234211261F643C5076C0FD27EF2A53F09CADDEADAC2EEEF6624D00C1063A4E980CE86D221362231ED0
310
88D9844E049FDF07D6337A3EF1AE8A058F29949BF74FEA75AFCA37E1BFCC79D52F64B62EF57437DC14110429799E0BC1BB5A6019CF76CBAC658B1F504B030414000608080001938157CB6DCF0252010000DD0200000C0000006662782F636F72652E786D6C8D52DB6E842014FC15C33B2AACB576836C1ADB7E419FFAC622EB
310
92553008663FBFE025D6876E1B132473CE993933819CEE5D1B8DC20C52AB12A0380591505CD752352570F6020B109D28315ADB1F6D2052AC13250830A0A431DAF50BC4B5B2420554E95A2C201B066141C45B7F29C1C0AFA2633173D6770CB7B867FCC61A11A378EEA3C439592FA3B2F66CF2228501F4392BAAFCA5CA60FE54
310
7CC00CE31C16B840B0CAAAEAFDAD4069FE8A48128629B1B25BD5B911CC8A1A509CE2034418A6E81315479C1DD3C317494227258335DEF3221ADC017A39DF4932E33B3ED7D77FF339A9EC012F7CF3C40068586F2A5092847CFC6F0A6F9FA117F6F959766E570B370F8D825B6D325FA9B5DB4A236B9DF0D469347D2499AB9E79
310
22F88D073FE079CCE18362AAF1AB31EBAF676783FA7EA75E1838DA7BA4B4E958BB2D37AFB89D9BD0CED23ACE75ABCD7FA657AB6B98497898F41B504B0304140006080800019381578828C69F06010000B201000008000000636F72652E786D6C8D504D4FC42014FC2BE4DD690BAD1537948DA9FA0B3C79C3C256B22D347C6C
310
F4DF0BBB35D19BA74766E6BD19861F3FD7055DB40FC6D90148D500D27672CAD87980144F98013A0AEE9D8BBF6480AC5CF5000506C167EFD2B64393B351DB825AA7F40ECA107404342DF93140983EF42A2B9962568473B5C9E92C675D91EAA6133C9AF56775F25A46AD40D086B69850DC9057C20EB43B34ED1BAF8B52F0948C
310
DAAD8CCAEEE664B40771DFB1B17F183BDCDFB117DC51DA634619C163378ECF4F8C34FD23E17559163C449FFFBC1FC939230AF2527C797DA3047F776ED905399442CE2E5F201A5E17E24FE8B4A97F843636B6743F78DB08204AA02B918D4B83795CEBCDB3B42DBE01504B010214001400060808000193815700000000000000
310
00000000003700000000000000000000000000000000006662782F34373238393031372D363931392D343830372D383034392D4131304443373433343244412F617474726962757465732E62696E504B0102140014000608080001938157000000000000000000000000350000000000000000000000000055000000666278
310
2F34373238393031372D363931392D343830372D383034392D4131304443373433343244412F76657274696365732E62696E504B0102140014000608080001938157F270F13306000000040000003600000000000000000000000000A80000006662782F34373238393031372D363931392D343830372D383034392D413130
310
4443373433343244412F747269616E676C65732E62696E504B010214001400060808000193815751464CB489000000430100003600000000000000000000000000020100006662782F34373238393031372D363931392D343830372D383034392D4131304443373433343244412F6469726563746F72792E786D6C504B0102
310
1400140006080800019381579D2AED8638070000201C00003400000000000000000000000000DF0100006662782F34373238393031372D363931392D343830372D383034392D4131304443373433343244412F6F626A656374732E786D6C504B01021400140006080800019381577F079F243E010000460500003000000000
310
000000000000000000690900006662782F34373238393031372D363931392D343830372D383034392D4131304443373433343244412F636E782E786D6C504B01021400140006080800019381577311B6EF7D000000A30000000B00000000000000000000000000F50A00006662782F636E782E786D6C504B01021400140006
310
08080001938157A6D797065F0000008200000007000000000000000000000000009B0B0000636E782E786D6C504B01021400140006080800019381574FEB6A7CA0000000F400000013000000000000000000000000001F0C00005B436F6E74656E745F54797065735D2E786D6C504B01021400140006080800019381573DEE
310
336E64000000790000001B00000000000000000000000000F00C00006175746F6465736B2D64657369676E2D7061636B6167652E786D6C504B01021400140006080800019381579A4BFBA8F7000000960100003B000000000000000000000000008D0D00006662782F34373238393031372D363931392D343830372D383034
310
392D4131304443373433343244412F7265736F75726365732F636F72652E786D6C504B010214001400060808000193815726FD846DEF000000B10100003100000000000000000000000000DD0E00006662782F34373238393031372D363931392D343830372D383034392D4131304443373433343244412F636F72652E786D
310
6C504B0102140014000608080001938157CB6DCF0252010000DD0200000C000000000000000000000000001B1000006662782F636F72652E786D6C504B01021400140006080800019381578828C69F06010000B2010000080000000000000000000000000097110000636F72652E786D6C504B0506000000000E000E008004
310
0000C31200000000
  0
XRECORD
  5
83F0
102
{ACAD_REACTORS
330
83EB
102
}
330
83EB
100
AcDbXrecord
280
     1
270
     1
271
     1
  0
XRECORD
  5
83EF
102
{ACAD_REACTORS
330
83EB
102
}
330
83EB
100
AcDbXrecord
280
     1
270
     1
271
     1
  0
XRECORD
  5
83F1
102
{ACAD_REACTORS
330
83EB
102
}
330
83EB
100
AcDbXrecord
280
     1
270
     1
271
     1
  0
XRECORD
  5
83EE
102
{ACAD_REACTORS
330
83EB
102
}
330
83EB
100
AcDbXrecord
280
     1
270
     1
271
     1
  0
XRECORD
  5
881F
102
{ACAD_REACTORS
330
881E
102
}
330
881E
100
AcDbXrecord
280
     1
102
DISPLAYNAME
  1
Imperial24
102
FLAGS
 90
        0
  0
CELLSTYLEMAP
  5
87E6
102
{ACAD_REACTORS
330
87E5
102
}
330
87E5
100
AcDbCellStyleMap
 90
        3
300
CELLSTYLE
  1
TABLEFORMAT_BEGIN
 90
        5
170
     1
 91
        0
 92
    32768
 62
   257
 93
        1
300
CONTENTFORMAT
  1
CONTENTFORMAT_BEGIN
 90
        0
 91
        0
 92
      512
 93
        0
300

 40
0.0
140
1.0
 94
        5
 62
     0
340
841E
144
0.25
309
CONTENTFORMAT_END
171
     0
 94
        0
309
TABLEFORMAT_END
  1
CELLSTYLE_BEGIN
 90
        1
 91
        1
300
_TITLE
309
CELLSTYLE_END
300
CELLSTYLE
  1
TABLEFORMAT_BEGIN
 90
        5
170
     1
 91
        0
 92
        0
 62
   257
 93
        1
300
CONTENTFORMAT
  1
CONTENTFORMAT_BEGIN
 90
        0
 91
        0
 92
      512
 93
        0
300

 40
0.0
140
1.0
 94
        5
 62
     0
340
841E
144
0.18
309
CONTENTFORMAT_END
171
     0
 94
        0
309
TABLEFORMAT_END
  1
CELLSTYLE_BEGIN
 90
        2
 91
        1
300
_HEADER
309
CELLSTYLE_END
300
CELLSTYLE
  1
TABLEFORMAT_BEGIN
 90
        5
170
     1
 91
        0
 92
        0
 62
   257
 93
        1
300
CONTENTFORMAT
  1
CONTENTFORMAT_BEGIN
 90
        0
 91
        0
 92
      512
 93
        0
300

 40
0.0
140
1.0
 94
        2
 62
     0
340
841E
144
0.18
309
CONTENTFORMAT_END
171
     0
 94
        0
309
TABLEFORMAT_END
  1
CELLSTYLE_BEGIN
 90
        3
 91
        2
300
_DATA
309
CELLSTYLE_END
  0
XRECORD
  5
881C
102
{ACAD_REACTORS
330
87E5
102
}
330
87E5
100
AcDbXrecord
280
     1
102
ACAD_ROUNDTRIP_PRE2007_TABLESTYLE
 90
      512
 91
        0
  1

 92
      512
 93
        0
  2

 94
      512
 95
        0
  3

  0
XRECORD
  5
87F7
102
{ACAD_REACTORS
330
87F6
102
}
330
87F6
100
AcDbXrecord
280
     1
102
RTVSPost2010Prop28
280
     1
102
RTVSPost2010PropOp28
 70
     1
102
RTVSPost2010Prop29
280
     1
102
RTVSPost2010PropOp29
 70
     1
102
RTVSPost2010Prop30
280
     0
102
RTVSPost2010PropOp30
 70
     1
102
RTVSPost2010Prop31
280
     0
102
RTVSPost2010PropOp31
 70
     1
102
RTVSPost2010Prop32
280
     0
102
RTVSPost2010PropOp32
 70
     1
102
RTVSPost2010Prop33
280
     0
102
RTVSPost2010PropOp33
 70
     1
102
RTVSPost2010Prop34
280
     0
102
RTVSPost2010PropOp34
 70
     1
102
RTVSPost2010Prop35
280
     0
102
RTVSPost2010PropOp35
 70
     1
102
RTVSPost2010Prop36
280
     0
102
RTVSPost2010PropOp36
 70
     1
102
RTVSPost2010Prop37
 90
       50
102
RTVSPost2010PropOp37
 70
     1
102
RTVSPost2010Prop38
140
0.0
102
RTVSPost2010PropOp38
 70
     1
102
RTVSPost2010Prop39
140
1.0
102
RTVSPost2010PropOp39
 70
     1
102
RTVSPost2010Prop40
 90
        0
102
RTVSPost2010PropOp40
 70
     1
102
RTVSPost2010Prop41ColorIndex
 90
       18
102
RTVSPost2010Prop41ColorRGB
 90
        0
102
RTVSPost2010PropOp41
 70
     1
102
RTVSPost2010Prop42
 90
       50
102
RTVSPost2010PropOp42
 70
     1
102
RTVSPost2010Prop43
 90
        3
102
RTVSPost2010PropOp43
 70
     1
102
RTVSPost2010Prop44ColorIndex
 90
        5
102
RTVSPost2010Prop44ColorRGB
 90
      255
102
RTVSPost2010PropOp44
 70
     1
102
RTVSPost2010Prop45
280
     0
102
RTVSPost2010PropOp45
 70
     1
102
RTVSPost2010Prop46
 90
       50
102
RTVSPost2010PropOp46
 70
     1
102
RTVSPost2010Prop47
 90
       50
102
RTVSPost2010PropOp47
 70
     1
102
RTVSPost2010Prop48
 90
       50
102
RTVSPost2010PropOp48
 70
     1
102
RTVSPost2010Prop49
280
     0
102
RTVSPost2010PropOp49
 70
     1
102
RTVSPost2010Prop50
 90
       50
102
RTVSPost2010PropOp50
 70
     1
102
RTVSPost2010Prop51ColorIndex
 90
      256
102
RTVSPost2010Prop51ColorRGB
 90
-16777216
102
RTVSPost2010PropOp51
 70
     0
102
RTVSPost2010Prop52
140
1.0
102
RTVSPost2010PropOp52
 70
     0
102
RTVSPost2010Prop53
 90
        2
102
RTVSPost2010PropOp53
 70
     1
102
RTVSPost2010Prop54
  1
strokes_ogs.tif
102
RTVSPost2010PropOp54
 70
     1
102
RTVSPost2010Prop55
280
     0
102
RTVSPost2010PropOp55
 70
     1
102
RTVSPost2010Prop56
140
1.0
102
RTVSPost2010PropOp56
 70
     1
102
RTVSPost2010Prop57
140
1.0
102
RTVSPost2010PropOp57
 70
     1
102
RTVSPropertyOp0
 70
     1
102
RTVSPropertyOp1
 70
     1
102
RTVSPropertyOp2
 70
     1
102
RTVSPropertyOp3
 70
     1
102
RTVSPropertyOp4
 70
     1
102
RTVSPropertyOp5
 70
     1
102
RTVSPropertyOp6
 70
     1
102
RTVSPropertyOp7
 70
     1
102
RTVSPropertyOp8
 70
     1
102
RTVSPropertyOp9
 70
     1
102
RTVSPropertyOp10
 70
     1
102
RTVSPropertyOp11
 70
     1
102
RTVSPropertyOp12
 70
     1
102
RTVSPropertyOp13
 70
     1
102
RTVSPropertyOp14
 70
     1
102
RTVSPropertyOp15
 70
     1
102
RTVSPropertyOp16
 70
     1
102
RTVSPropertyOp17
 70
     1
102
RTVSPropertyOp18
 70
     1
102
RTVSPropertyOp19
 70
     1
102
RTVSPropertyOp20
 70
     1
102
RTVSPropertyOp21
 70
     1
102
RTVSPropertyOp22
 70
     1
102
RTVSPropertyOp23
 70
     1
102
RTVSPropertyOp24
 70
     1
102
RTVSPropertyOp25
 70
     1
102
RTVSPropertyOp26
 70
     1
102
RTVSPropertyOp27
 70
     1
102
RTVSPropertyOp28
 70
     1
102
RTVSPropertyOp29
 70
     1
102
RTVSPropertyOp30
 70
     1
102
RTVSPropertyOp31
 70
     1
102
RTVSPropertyOp32
 70
     1
102
RTVSPropertyOp33
 70
     1
102
RTVSPropertyOp34
 70
     1
102
RTVSPropertyOp35
 70
     1
102
RTVSPropertyOp36
 70
     1
102
RTVSPropertyOp37
 70
     1
102
RTVSPropertyOp38
 70
     1
102
RTVSPropertyOp39
 70
     1
102
RTVSPropertyOp40
 70
     1
102
RTVSPropertyOp41
 70
     1
102
RTVSPropertyOp42
 70
     1
102
RTVSPropertyOp43
 70
     1
102
RTVSPropertyOp44
 70
     1
102
RTVSPropertyOp45
 70
     1
102
RTVSPropertyOp46
 70
     1
102
RTVSPropertyOp47
 70
     1
102
RTVSPropertyOp48
 70
     1
102
RTVSPropertyOp49
 70
     1
102
RTVSPropertyOp50
 70
     1
102
RTVSPropertyOp51
 70
     0
102
RTVSPropertyOp52
 70
     0
102
RTVSPropertyOp53
 70
     1
102
RTVSPropertyOp54
 70
     1
102
RTVSPropertyOp55
 70
     1
102
RTVSPropertyOp56
 70
     1
102
RTVSPropertyOp57
 70
     1
102
RTVSPropertyOp58
 70
     1
102
RTVSPropertyOp59
 70
     1
102
RTVSPropertyOp60
 70
     1
102
RTVSPropertyOp61
 70
     1
102
RTVSPropertyOp62
 70
     1
  0
XRECORD
  5
87F5
102
{ACAD_REACTORS
330
87F4
102
}
330
87F4
100
AcDbXrecord
280
     1
102
RTVSPost2010Prop28
280
     0
102
RTVSPost2010PropOp28
 70
     1
102
RTVSPost2010Prop29
280
     1
102
RTVSPost2010PropOp29
 70
     1
102
RTVSPost2010Prop30
280
     1
102
RTVSPost2010PropOp30
 70
     1
102
RTVSPost2010Prop31
280
     0
102
RTVSPost2010PropOp31
 70
     1
102
RTVSPost2010Prop32
280
     0
102
RTVSPost2010PropOp32
 70
     1
102
RTVSPost2010Prop33
280
     0
102
RTVSPost2010PropOp33
 70
     1
102
RTVSPost2010Prop34
280
     0
102
RTVSPost2010PropOp34
 70
     1
102
RTVSPost2010Prop35
280
     0
102
RTVSPost2010PropOp35
 70
     1
102
RTVSPost2010Prop36
280
     0
102
RTVSPost2010PropOp36
 70
     1
102
RTVSPost2010Prop37
 90
       50
102
RTVSPost2010PropOp37
 70
     1
102
RTVSPost2010Prop38
140
0.0
102
RTVSPost2010PropOp38
 70
     1
102
RTVSPost2010Prop39
140
1.0
102
RTVSPost2010PropOp39
 70
     1
102
RTVSPost2010Prop40
 90
        0
102
RTVSPost2010PropOp40
 70
     1
102
RTVSPost2010Prop41ColorIndex
 90
       18
102
RTVSPost2010Prop41ColorRGB
 90
        0
102
RTVSPost2010PropOp41
 70
     1
102
RTVSPost2010Prop42
 90
       50
102
RTVSPost2010PropOp42
 70
     1
102
RTVSPost2010Prop43
 90
        3
102
RTVSPost2010PropOp43
 70
     1
102
RTVSPost2010Prop44ColorIndex
 90
        5
102
RTVSPost2010Prop44ColorRGB
 90
      255
102
RTVSPost2010PropOp44
 70
     1
102
RTVSPost2010Prop45
280
     0
102
RTVSPost2010PropOp45
 70
     1
102
RTVSPost2010Prop46
 90
       50
102
RTVSPost2010PropOp46
 70
     1
102
RTVSPost2010Prop47
 90
       50
102
RTVSPost2010PropOp47
 70
     1
102
RTVSPost2010Prop48
 90
       50
102
RTVSPost2010PropOp48
 70
     1
102
RTVSPost2010Prop49
280
     0
102
RTVSPost2010PropOp49
 70
     1
102
RTVSPost2010Prop50
 90
       50
102
RTVSPost2010PropOp50
 70
     1
102
RTVSPost2010Prop51ColorIndex
 90
      256
102
RTVSPost2010Prop51ColorRGB
 90
-16777216
102
RTVSPost2010PropOp51
 70
     0
102
RTVSPost2010Prop52
140
1.0
102
RTVSPost2010PropOp52
 70
     0
102
RTVSPost2010Prop53
 90
        2
102
RTVSPost2010PropOp53
 70
     1
102
RTVSPost2010Prop54
  1
strokes_ogs.tif
102
RTVSPost2010PropOp54
 70
     1
102
RTVSPost2010Prop55
280
     0
102
RTVSPost2010PropOp55
 70
     1
102
RTVSPost2010Prop56
140
1.0
102
RTVSPost2010PropOp56
 70
     1
102
RTVSPost2010Prop57
140
1.0
102
RTVSPost2010PropOp57
 70
     1
102
RTVSPropertyOp0
 70
     1
102
RTVSPropertyOp1
 70
     1
102
RTVSPropertyOp2
 70
     1
102
RTVSPropertyOp3
 70
     1
102
RTVSPropertyOp4
 70
     1
102
RTVSPropertyOp5
 70
     1
102
RTVSPropertyOp6
 70
     1
102
RTVSPropertyOp7
 70
     1
102
RTVSPropertyOp8
 70
     1
102
RTVSPropertyOp9
 70
     1
102
RTVSPropertyOp10
 70
     1
102
RTVSPropertyOp11
 70
     1
102
RTVSPropertyOp12
 70
     1
102
RTVSPropertyOp13
 70
     1
102
RTVSPropertyOp14
 70
     1
102
RTVSPropertyOp15
 70
     1
102
RTVSPropertyOp16
 70
     1
102
RTVSPropertyOp17
 70
     1
102
RTVSPropertyOp18
 70
     1
102
RTVSPropertyOp19
 70
     1
102
RTVSPropertyOp20
 70
     1
102
RTVSPropertyOp21
 70
     1
102
RTVSPropertyOp22
 70
     1
102
RTVSPropertyOp23
 70
     1
102
RTVSPropertyOp24
 70
     1
102
RTVSPropertyOp25
 70
     1
102
RTVSPropertyOp26
 70
     1
102
RTVSPropertyOp27
 70
     1
102
RTVSPropertyOp28
 70
     1
102
RTVSPropertyOp29
 70
     1
102
RTVSPropertyOp30
 70
     1
102
RTVSPropertyOp31
 70
     1
102
RTVSPropertyOp32
 70
     1
102
RTVSPropertyOp33
 70
     1
102
RTVSPropertyOp34
 70
     1
102
RTVSPropertyOp35
 70
     1
102
RTVSPropertyOp36
 70
     1
102
RTVSPropertyOp37
 70
     1
102
RTVSPropertyOp38
 70
     1
102
RTVSPropertyOp39
 70
     1
102
RTVSPropertyOp40
 70
     1
102
RTVSPropertyOp41
 70
     1
102
RTVSPropertyOp42
 70
     1
102
RTVSPropertyOp43
 70
     1
102
RTVSPropertyOp44
 70
     1
102
RTVSPropertyOp45
 70
     1
102
RTVSPropertyOp46
 70
     1
102
RTVSPropertyOp47
 70
     1
102
RTVSPropertyOp48
 70
     1
102
RTVSPropertyOp49
 70
     1
102
RTVSPropertyOp50
 70
     1
102
RTVSPropertyOp51
 70
     0
102
RTVSPropertyOp52
 70
     0
102
RTVSPropertyOp53
 70
     1
102
RTVSPropertyOp54
 70
     1
102
RTVSPropertyOp55
 70
     1
102
RTVSPropertyOp56
 70
     1
102
RTVSPropertyOp57
 70
     1
102
RTVSPropertyOp58
 70
     1
102
RTVSPropertyOp59
 70
     1
102
RTVSPropertyOp60
 70
     1
102
RTVSPropertyOp61
 70
     1
102
RTVSPropertyOp62
 70
     1
  0
XRECORD
  5
8803
102
{ACAD_REACTORS
330
8802
102
}
330
8802
100
AcDbXrecord
280
     1
102
RTVSPost2010Prop28
280
     0
102
RTVSPost2010PropOp28
 70
     1
102
RTVSPost2010Prop29
280
     1
102
RTVSPost2010PropOp29
 70
     1
102
RTVSPost2010Prop30
280
     1
102
RTVSPost2010PropOp30
 70
     1
102
RTVSPost2010Prop31
280
     0
102
RTVSPost2010PropOp31
 70
     1
102
RTVSPost2010Prop32
280
     0
102
RTVSPost2010PropOp32
 70
     1
102
RTVSPost2010Prop33
280
     0
102
RTVSPost2010PropOp33
 70
     1
102
RTVSPost2010Prop34
280
     0
102
RTVSPost2010PropOp34
 70
     1
102
RTVSPost2010Prop35
280
     0
102
RTVSPost2010PropOp35
 70
     1
102
RTVSPost2010Prop36
280
     0
102
RTVSPost2010PropOp36
 70
     1
102
RTVSPost2010Prop37
 90
       50
102
RTVSPost2010PropOp37
 70
     1
102
RTVSPost2010Prop38
140
0.0
102
RTVSPost2010PropOp38
 70
     1
102
RTVSPost2010Prop39
140
1.0
102
RTVSPost2010PropOp39
 70
     1
102
RTVSPost2010Prop40
 90
        0
102
RTVSPost2010PropOp40
 70
     1
102
RTVSPost2010Prop41ColorIndex
 90
       18
102
RTVSPost2010Prop41ColorRGB
 90
        0
102
RTVSPost2010PropOp41
 70
     1
102
RTVSPost2010Prop42
 90
       50
102
RTVSPost2010PropOp42
 70
     1
102
RTVSPost2010Prop43
 90
        3
102
RTVSPost2010PropOp43
 70
     1
102
RTVSPost2010Prop44ColorIndex
 90
        5
102
RTVSPost2010Prop44ColorRGB
 90
      255
102
RTVSPost2010PropOp44
 70
     1
102
RTVSPost2010Prop45
280
     0
102
RTVSPost2010PropOp45
 70
     1
102
RTVSPost2010Prop46
 90
       50
102
RTVSPost2010PropOp46
 70
     1
102
RTVSPost2010Prop47
 90
       50
102
RTVSPost2010PropOp47
 70
     1
102
RTVSPost2010Prop48
 90
       50
102
RTVSPost2010PropOp48
 70
     1
102
RTVSPost2010Prop49
280
     0
102
RTVSPost2010PropOp49
 70
     1
102
RTVSPost2010Prop50
 90
       50
102
RTVSPost2010PropOp50
 70
     1
102
RTVSPost2010Prop51ColorIndex
 90
      256
102
RTVSPost2010Prop51ColorRGB
 90
-16777216
102
RTVSPost2010PropOp51
 70
     0
102
RTVSPost2010Prop52
140
1.0
102
RTVSPost2010PropOp52
 70
     0
102
RTVSPost2010Prop53
 90
        2
102
RTVSPost2010PropOp53
 70
     1
102
RTVSPost2010Prop54
  1
strokes_ogs.tif
102
RTVSPost2010PropOp54
 70
     1
102
RTVSPost2010Prop55
280
     0
102
RTVSPost2010PropOp55
 70
     1
102
RTVSPost2010Prop56
140
1.0
102
RTVSPost2010PropOp56
 70
     1
102
RTVSPost2010Prop57
140
1.0
102
RTVSPost2010PropOp57
 70
     1
102
RTVSPropertyOp0
 70
     1
102
RTVSPropertyOp1
 70
     1
102
RTVSPropertyOp2
 70
     1
102
RTVSPropertyOp3
 70
     1
102
RTVSPropertyOp4
 70
     1
102
RTVSPropertyOp5
 70
     1
102
RTVSPropertyOp6
 70
     1
102
RTVSPropertyOp7
 70
     1
102
RTVSPropertyOp8
 70
     1
102
RTVSPropertyOp9
 70
     1
102
RTVSPropertyOp10
 70
     1
102
RTVSPropertyOp11
 70
     1
102
RTVSPropertyOp12
 70
     1
102
RTVSPropertyOp13
 70
     1
102
RTVSPropertyOp14
 70
     1
102
RTVSPropertyOp15
 70
     1
102
RTVSPropertyOp16
 70
     1
102
RTVSPropertyOp17
 70
     1
102
RTVSPropertyOp18
 70
     1
102
RTVSPropertyOp19
 70
     1
102
RTVSPropertyOp20
 70
     1
102
RTVSPropertyOp21
 70
     1
102
RTVSPropertyOp22
 70
     1
102
RTVSPropertyOp23
 70
     1
102
RTVSPropertyOp24
 70
     1
102
RTVSPropertyOp25
 70
     1
102
RTVSPropertyOp26
 70
     1
102
RTVSPropertyOp27
 70
     1
102
RTVSPropertyOp28
 70
     1
102
RTVSPropertyOp29
 70
     1
102
RTVSPropertyOp30
 70
     1
102
RTVSPropertyOp31
 70
     1
102
RTVSPropertyOp32
 70
     1
102
RTVSPropertyOp33
 70
     1
102
RTVSPropertyOp34
 70
     1
102
RTVSPropertyOp35
 70
     1
102
RTVSPropertyOp36
 70
     1
102
RTVSPropertyOp37
 70
     1
102
RTVSPropertyOp38
 70
     1
102
RTVSPropertyOp39
 70
     1
102
RTVSPropertyOp40
 70
     1
102
RTVSPropertyOp41
 70
     1
102
RTVSPropertyOp42
 70
     1
102
RTVSPropertyOp43
 70
     1
102
RTVSPropertyOp44
 70
     1
102
RTVSPropertyOp45
 70
     1
102
RTVSPropertyOp46
 70
     1
102
RTVSPropertyOp47
 70
     1
102
RTVSPropertyOp48
 70
     1
102
RTVSPropertyOp49
 70
     1
102
RTVSPropertyOp50
 70
     1
102
RTVSPropertyOp51
 70
     0
102
RTVSPropertyOp52
 70
     0
102
RTVSPropertyOp53
 70
     1
102
RTVSPropertyOp54
 70
     1
102
RTVSPropertyOp55
 70
     1
102
RTVSPropertyOp56
 70
     1
102
RTVSPropertyOp57
 70
     1
102
RTVSPropertyOp58
 70
     1
102
RTVSPropertyOp59
 70
     1
102
RTVSPropertyOp60
 70
     1
102
RTVSPropertyOp61
 70
     1
102
RTVSPropertyOp62
 70
     1
  0
XRECORD
  5
880B
102
{ACAD_REACTORS
330
880A
102
}
330
880A
100
AcDbXrecord
280
     1
102
RTVSPost2010Prop28
280
     0
102
RTVSPost2010PropOp28
 70
     1
102
RTVSPost2010Prop29
280
     1
102
RTVSPost2010PropOp29
 70
     1
102
RTVSPost2010Prop30
280
     1
102
RTVSPost2010PropOp30
 70
     1
102
RTVSPost2010Prop31
280
     0
102
RTVSPost2010PropOp31
 70
     1
102
RTVSPost2010Prop32
280
     0
102
RTVSPost2010PropOp32
 70
     1
102
RTVSPost2010Prop33
280
     0
102
RTVSPost2010PropOp33
 70
     1
102
RTVSPost2010Prop34
280
     0
102
RTVSPost2010PropOp34
 70
     1
102
RTVSPost2010Prop35
280
     0
102
RTVSPost2010PropOp35
 70
     1
102
RTVSPost2010Prop36
280
     0
102
RTVSPost2010PropOp36
 70
     1
102
RTVSPost2010Prop37
 90
       50
102
RTVSPost2010PropOp37
 70
     1
102
RTVSPost2010Prop38
140
0.0
102
RTVSPost2010PropOp38
 70
     1
102
RTVSPost2010Prop39
140
1.0
102
RTVSPost2010PropOp39
 70
     1
102
RTVSPost2010Prop40
 90
        0
102
RTVSPost2010PropOp40
 70
     1
102
RTVSPost2010Prop41ColorIndex
 90
       18
102
RTVSPost2010Prop41ColorRGB
 90
        0
102
RTVSPost2010PropOp41
 70
     1
102
RTVSPost2010Prop42
 90
       50
102
RTVSPost2010PropOp42
 70
     1
102
RTVSPost2010Prop43
 90
        3
102
RTVSPost2010PropOp43
 70
     1
102
RTVSPost2010Prop44ColorIndex
 90
        5
102
RTVSPost2010Prop44ColorRGB
 90
      255
102
RTVSPost2010PropOp44
 70
     1
102
RTVSPost2010Prop45
280
     0
102
RTVSPost2010PropOp45
 70
     1
102
RTVSPost2010Prop46
 90
       50
102
RTVSPost2010PropOp46
 70
     1
102
RTVSPost2010Prop47
 90
       50
102
RTVSPost2010PropOp47
 70
     1
102
RTVSPost2010Prop48
 90
       50
102
RTVSPost2010PropOp48
 70
     1
102
RTVSPost2010Prop49
280
     0
102
RTVSPost2010PropOp49
 70
     1
102
RTVSPost2010Prop50
 90
       50
102
RTVSPost2010PropOp50
 70
     1
102
RTVSPost2010Prop51ColorIndex
 90
      256
102
RTVSPost2010Prop51ColorRGB
 90
-16777216
102
RTVSPost2010PropOp51
 70
     0
102
RTVSPost2010Prop52
140
1.0
102
RTVSPost2010PropOp52
 70
     0
102
RTVSPost2010Prop53
 90
        2
102
RTVSPost2010PropOp53
 70
     1
102
RTVSPost2010Prop54
  1
strokes_ogs.tif
102
RTVSPost2010PropOp54
 70
     1
102
RTVSPost2010Prop55
280
     0
102
RTVSPost2010PropOp55
 70
     1
102
RTVSPost2010Prop56
140
1.0
102
RTVSPost2010PropOp56
 70
     1
102
RTVSPost2010Prop57
140
1.0
102
RTVSPost2010PropOp57
 70
     1
102
RTVSPropertyOp0
 70
     1
102
RTVSPropertyOp1
 70
     1
102
RTVSPropertyOp2
 70
     1
102
RTVSPropertyOp3
 70
     1
102
RTVSPropertyOp4
 70
     1
102
RTVSPropertyOp5
 70
     1
102
RTVSPropertyOp6
 70
     1
102
RTVSPropertyOp7
 70
     1
102
RTVSPropertyOp8
 70
     1
102
RTVSPropertyOp9
 70
     1
102
RTVSPropertyOp10
 70
     1
102
RTVSPropertyOp11
 70
     1
102
RTVSPropertyOp12
 70
     1
102
RTVSPropertyOp13
 70
     1
102
RTVSPropertyOp14
 70
     1
102
RTVSPropertyOp15
 70
     1
102
RTVSPropertyOp16
 70
     1
102
RTVSPropertyOp17
 70
     1
102
RTVSPropertyOp18
 70
     1
102
RTVSPropertyOp19
 70
     1
102
RTVSPropertyOp20
 70
     1
102
RTVSPropertyOp21
 70
     1
102
RTVSPropertyOp22
 70
     1
102
RTVSPropertyOp23
 70
     1
102
RTVSPropertyOp24
 70
     1
102
RTVSPropertyOp25
 70
     1
102
RTVSPropertyOp26
 70
     1
102
RTVSPropertyOp27
 70
     1
102
RTVSPropertyOp28
 70
     1
102
RTVSPropertyOp29
 70
     1
102
RTVSPropertyOp30
 70
     1
102
RTVSPropertyOp31
 70
     1
102
RTVSPropertyOp32
 70
     1
102
RTVSPropertyOp33
 70
     1
102
RTVSPropertyOp34
 70
     1
102
RTVSPropertyOp35
 70
     1
102
RTVSPropertyOp36
 70
     1
102
RTVSPropertyOp37
 70
     1
102
RTVSPropertyOp38
 70
     1
102
RTVSPropertyOp39
 70
     1
102
RTVSPropertyOp40
 70
     1
102
RTVSPropertyOp41
 70
     1
102
RTVSPropertyOp42
 70
     1
102
RTVSPropertyOp43
 70
     1
102
RTVSPropertyOp44
 70
     1
102
RTVSPropertyOp45
 70
     1
102
RTVSPropertyOp46
 70
     1
102
RTVSPropertyOp47
 70
     1
102
RTVSPropertyOp48
 70
     1
102
RTVSPropertyOp49
 70
     1
102
RTVSPropertyOp50
 70
     1
102
RTVSPropertyOp51
 70
     0
102
RTVSPropertyOp52
 70
     0
102
RTVSPropertyOp53
 70
     1
102
RTVSPropertyOp54
 70
     1
102
RTVSPropertyOp55
 70
     1
102
RTVSPropertyOp56
 70
     1
102
RTVSPropertyOp57
 70
     1
102
RTVSPropertyOp58
 70
     1
102
RTVSPropertyOp59
 70
     1
102
RTVSPropertyOp60
 70
     1
102
RTVSPropertyOp61
 70
     1
102
RTVSPropertyOp62
 70
     1
  0
XRECORD
  5
87FD
102
{ACAD_REACTORS
330
87FC
102
}
330
87FC
100
AcDbXrecord
280
     1
102
RTVSPost2010Prop28
280
     0
102
RTVSPost2010PropOp28
 70
     1
102
RTVSPost2010Prop29
280
     1
102
RTVSPost2010PropOp29
 70
     1
102
RTVSPost2010Prop30
280
     1
102
RTVSPost2010PropOp30
 70
     1
102
RTVSPost2010Prop31
280
     0
102
RTVSPost2010PropOp31
 70
     1
102
RTVSPost2010Prop32
280
     0
102
RTVSPost2010PropOp32
 70
     1
102
RTVSPost2010Prop33
280
     0
102
RTVSPost2010PropOp33
 70
     1
102
RTVSPost2010Prop34
280
     0
102
RTVSPost2010PropOp34
 70
     1
102
RTVSPost2010Prop35
280
     0
102
RTVSPost2010PropOp35
 70
     1
102
RTVSPost2010Prop36
280
     0
102
RTVSPost2010PropOp36
 70
     1
102
RTVSPost2010Prop37
 90
       50
102
RTVSPost2010PropOp37
 70
     1
102
RTVSPost2010Prop38
140
0.0
102
RTVSPost2010PropOp38
 70
     1
102
RTVSPost2010Prop39
140
1.0
102
RTVSPost2010PropOp39
 70
     1
102
RTVSPost2010Prop40
 90
        0
102
RTVSPost2010PropOp40
 70
     1
102
RTVSPost2010Prop41ColorIndex
 90
       18
102
RTVSPost2010Prop41ColorRGB
 90
        0
102
RTVSPost2010PropOp41
 70
     1
102
RTVSPost2010Prop42
 90
       50
102
RTVSPost2010PropOp42
 70
     1
102
RTVSPost2010Prop43
 90
        3
102
RTVSPost2010PropOp43
 70
     1
102
RTVSPost2010Prop44ColorIndex
 90
        5
102
RTVSPost2010Prop44ColorRGB
 90
      255
102
RTVSPost2010PropOp44
 70
     1
102
RTVSPost2010Prop45
280
     0
102
RTVSPost2010PropOp45
 70
     1
102
RTVSPost2010Prop46
 90
       50
102
RTVSPost2010PropOp46
 70
     1
102
RTVSPost2010Prop47
 90
       50
102
RTVSPost2010PropOp47
 70
     1
102
RTVSPost2010Prop48
 90
       50
102
RTVSPost2010PropOp48
 70
     1
102
RTVSPost2010Prop49
280
     0
102
RTVSPost2010PropOp49
 70
     1
102
RTVSPost2010Prop50
 90
       50
102
RTVSPost2010PropOp50
 70
     1
102
RTVSPost2010Prop51ColorIndex
 90
      256
102
RTVSPost2010Prop51ColorRGB
 90
-16777216
102
RTVSPost2010PropOp51
 70
     0
102
RTVSPost2010Prop52
140
1.0
102
RTVSPost2010PropOp52
 70
     0
102
RTVSPost2010Prop53
 90
        2
102
RTVSPost2010PropOp53
 70
     1
102
RTVSPost2010Prop54
  1
strokes_ogs.tif
102
RTVSPost2010PropOp54
 70
     1
102
RTVSPost2010Prop55
280
     0
102
RTVSPost2010PropOp55
 70
     1
102
RTVSPost2010Prop56
140
1.0
102
RTVSPost2010PropOp56
 70
     1
102
RTVSPost2010Prop57
140
1.0
102
RTVSPost2010PropOp57
 70
     1
102
RTVSPropertyOp0
 70
     1
102
RTVSPropertyOp1
 70
     1
102
RTVSPropertyOp2
 70
     1
102
RTVSPropertyOp3
 70
     1
102
RTVSPropertyOp4
 70
     1
102
RTVSPropertyOp5
 70
     1
102
RTVSPropertyOp6
 70
     1
102
RTVSPropertyOp7
 70
     1
102
RTVSPropertyOp8
 70
     1
102
RTVSPropertyOp9
 70
     1
102
RTVSPropertyOp10
 70
     1
102
RTVSPropertyOp11
 70
     1
102
RTVSPropertyOp12
 70
     1
102
RTVSPropertyOp13
 70
     1
102
RTVSPropertyOp14
 70
     1
102
RTVSPropertyOp15
 70
     1
102
RTVSPropertyOp16
 70
     1
102
RTVSPropertyOp17
 70
     1
102
RTVSPropertyOp18
 70
     1
102
RTVSPropertyOp19
 70
     1
102
RTVSPropertyOp20
 70
     1
102
RTVSPropertyOp21
 70
     1
102
RTVSPropertyOp22
 70
     1
102
RTVSPropertyOp23
 70
     1
102
RTVSPropertyOp24
 70
     1
102
RTVSPropertyOp25
 70
     1
102
RTVSPropertyOp26
 70
     1
102
RTVSPropertyOp27
 70
     1
102
RTVSPropertyOp28
 70
     1
102
RTVSPropertyOp29
 70
     1
102
RTVSPropertyOp30
 70
     1
102
RTVSPropertyOp31
 70
     1
102
RTVSPropertyOp32
 70
     1
102
RTVSPropertyOp33
 70
     1
102
RTVSPropertyOp34
 70
     1
102
RTVSPropertyOp35
 70
     1
102
RTVSPropertyOp36
 70
     1
102
RTVSPropertyOp37
 70
     1
102
RTVSPropertyOp38
 70
     1
102
RTVSPropertyOp39
 70
     1
102
RTVSPropertyOp40
 70
     1
102
RTVSPropertyOp41
 70
     1
102
RTVSPropertyOp42
 70
     1
102
RTVSPropertyOp43
 70
     1
102
RTVSPropertyOp44
 70
     1
102
RTVSPropertyOp45
 70
     1
102
RTVSPropertyOp46
 70
     1
102
RTVSPropertyOp47
 70
     1
102
RTVSPropertyOp48
 70
     1
102
RTVSPropertyOp49
 70
     1
102
RTVSPropertyOp50
 70
     1
102
RTVSPropertyOp51
 70
     0
102
RTVSPropertyOp52
 70
     0
102
RTVSPropertyOp53
 70
     1
102
RTVSPropertyOp54
 70
     1
102
RTVSPropertyOp55
 70
     1
102
RTVSPropertyOp56
 70
     1
102
RTVSPropertyOp57
 70
     1
102
RTVSPropertyOp58
 70
     1
102
RTVSPropertyOp59
 70
     1
102
RTVSPropertyOp60
 70
     1
102
RTVSPropertyOp61
 70
     1
102
RTVSPropertyOp62
 70
     1
  0
XRECORD
  5
8801
102
{ACAD_REACTORS
330
8800
102
}
330
8800
100
AcDbXrecord
280
     1
102
RTVSPost2010Prop28
280
     0
102
RTVSPost2010PropOp28
 70
     1
102
RTVSPost2010Prop29
280
     1
102
RTVSPost2010PropOp29
 70
     1
102
RTVSPost2010Prop30
280
     1
102
RTVSPost2010PropOp30
 70
     1
102
RTVSPost2010Prop31
280
     0
102
RTVSPost2010PropOp31
 70
     1
102
RTVSPost2010Prop32
280
     0
102
RTVSPost2010PropOp32
 70
     1
102
RTVSPost2010Prop33
280
     0
102
RTVSPost2010PropOp33
 70
     1
102
RTVSPost2010Prop34
280
     0
102
RTVSPost2010PropOp34
 70
     1
102
RTVSPost2010Prop35
280
     0
102
RTVSPost2010PropOp35
 70
     1
102
RTVSPost2010Prop36
280
     0
102
RTVSPost2010PropOp36
 70
     1
102
RTVSPost2010Prop37
 90
       50
102
RTVSPost2010PropOp37
 70
     1
102
RTVSPost2010Prop38
140
0.0
102
RTVSPost2010PropOp38
 70
     1
102
RTVSPost2010Prop39
140
1.0
102
RTVSPost2010PropOp39
 70
     1
102
RTVSPost2010Prop40
 90
        0
102
RTVSPost2010PropOp40
 70
     1
102
RTVSPost2010Prop41ColorIndex
 90
       18
102
RTVSPost2010Prop41ColorRGB
 90
        0
102
RTVSPost2010PropOp41
 70
     1
102
RTVSPost2010Prop42
 90
       50
102
RTVSPost2010PropOp42
 70
     1
102
RTVSPost2010Prop43
 90
        3
102
RTVSPost2010PropOp43
 70
     1
102
RTVSPost2010Prop44ColorIndex
 90
        5
102
RTVSPost2010Prop44ColorRGB
 90
      255
102
RTVSPost2010PropOp44
 70
     1
102
RTVSPost2010Prop45
280
     0
102
RTVSPost2010PropOp45
 70
     1
102
RTVSPost2010Prop46
 90
       50
102
RTVSPost2010PropOp46
 70
     1
102
RTVSPost2010Prop47
 90
       50
102
RTVSPost2010PropOp47
 70
     1
102
RTVSPost2010Prop48
 90
       50
102
RTVSPost2010PropOp48
 70
     1
102
RTVSPost2010Prop49
280
     0
102
RTVSPost2010PropOp49
 70
     1
102
RTVSPost2010Prop50
 90
       50
102
RTVSPost2010PropOp50
 70
     1
102
RTVSPost2010Prop51ColorIndex
 90
      256
102
RTVSPost2010Prop51ColorRGB
 90
-16777216
102
RTVSPost2010PropOp51
 70
     0
102
RTVSPost2010Prop52
140
1.0
102
RTVSPost2010PropOp52
 70
     0
102
RTVSPost2010Prop53
 90
        2
102
RTVSPost2010PropOp53
 70
     1
102
RTVSPost2010Prop54
  1
strokes_ogs.tif
102
RTVSPost2010PropOp54
 70
     1
102
RTVSPost2010Prop55
280
     0
102
RTVSPost2010PropOp55
 70
     1
102
RTVSPost2010Prop56
140
1.0
102
RTVSPost2010PropOp56
 70
     1
102
RTVSPost2010Prop57
140
1.0
102
RTVSPost2010PropOp57
 70
     1
102
RTVSPropertyOp0
 70
     1
102
RTVSPropertyOp1
 70
     1
102
RTVSPropertyOp2
 70
     1
102
RTVSPropertyOp3
 70
     1
102
RTVSPropertyOp4
 70
     1
102
RTVSPropertyOp5
 70
     1
102
RTVSPropertyOp6
 70
     1
102
RTVSPropertyOp7
 70
     1
102
RTVSPropertyOp8
 70
     1
102
RTVSPropertyOp9
 70
     1
102
RTVSPropertyOp10
 70
     1
102
RTVSPropertyOp11
 70
     1
102
RTVSPropertyOp12
 70
     1
102
RTVSPropertyOp13
 70
     1
102
RTVSPropertyOp14
 70
     1
102
RTVSPropertyOp15
 70
     1
102
RTVSPropertyOp16
 70
     1
102
RTVSPropertyOp17
 70
     1
102
RTVSPropertyOp18
 70
     1
102
RTVSPropertyOp19
 70
     1
102
RTVSPropertyOp20
 70
     1
102
RTVSPropertyOp21
 70
     1
102
RTVSPropertyOp22
 70
     1
102
RTVSPropertyOp23
 70
     1
102
RTVSPropertyOp24
 70
     1
102
RTVSPropertyOp25
 70
     1
102
RTVSPropertyOp26
 70
     1
102
RTVSPropertyOp27
 70
     1
102
RTVSPropertyOp28
 70
     1
102
RTVSPropertyOp29
 70
     1
102
RTVSPropertyOp30
 70
     1
102
RTVSPropertyOp31
 70
     1
102
RTVSPropertyOp32
 70
     1
102
RTVSPropertyOp33
 70
     1
102
RTVSPropertyOp34
 70
     1
102
RTVSPropertyOp35
 70
     1
102
RTVSPropertyOp36
 70
     1
102
RTVSPropertyOp37
 70
     1
102
RTVSPropertyOp38
 70
     1
102
RTVSPropertyOp39
 70
     1
102
RTVSPropertyOp40
 70
     1
102
RTVSPropertyOp41
 70
     1
102
RTVSPropertyOp42
 70
     1
102
RTVSPropertyOp43
 70
     1
102
RTVSPropertyOp44
 70
     1
102
RTVSPropertyOp45
 70
     1
102
RTVSPropertyOp46
 70
     1
102
RTVSPropertyOp47
 70
     1
102
RTVSPropertyOp48
 70
     1
102
RTVSPropertyOp49
 70
     1
102
RTVSPropertyOp50
 70
     1
102
RTVSPropertyOp51
 70
     0
102
RTVSPropertyOp52
 70
     0
102
RTVSPropertyOp53
 70
     1
102
RTVSPropertyOp54
 70
     1
102
RTVSPropertyOp55
 70
     1
102
RTVSPropertyOp56
 70
     1
102
RTVSPropertyOp57
 70
     1
102
RTVSPropertyOp58
 70
     1
102
RTVSPropertyOp59
 70
     1
102
RTVSPropertyOp60
 70
     1
102
RTVSPropertyOp61
 70
     1
102
RTVSPropertyOp62
 70
     1
  0
XRECORD
  5
881B
102
{ACAD_REACTORS
330
881A
102
}
330
881A
100
AcDbXrecord
280
     1
102
RTVSPost2010Prop28
280
     0
102
RTVSPost2010PropOp28
 70
     1
102
RTVSPost2010Prop29
280
     1
102
RTVSPost2010PropOp29
 70
     1
102
RTVSPost2010Prop30
280
     1
102
RTVSPost2010PropOp30
 70
     1
102
RTVSPost2010Prop31
280
     0
102
RTVSPost2010PropOp31
 70
     1
102
RTVSPost2010Prop32
280
     0
102
RTVSPost2010PropOp32
 70
     1
102
RTVSPost2010Prop33
280
     0
102
RTVSPost2010PropOp33
 70
     1
102
RTVSPost2010Prop34
280
     0
102
RTVSPost2010PropOp34
 70
     1
102
RTVSPost2010Prop35
280
     0
102
RTVSPost2010PropOp35
 70
     1
102
RTVSPost2010Prop36
280
     0
102
RTVSPost2010PropOp36
 70
     1
102
RTVSPost2010Prop37
 90
       50
102
RTVSPost2010PropOp37
 70
     0
102
RTVSPost2010Prop38
140
0.0
102
RTVSPost2010PropOp38
 70
     0
102
RTVSPost2010Prop39
140
1.0
102
RTVSPost2010PropOp39
 70
     0
102
RTVSPost2010Prop40
 90
        0
102
RTVSPost2010PropOp40
 70
     0
102
RTVSPost2010Prop41ColorIndex
 90
       18
102
RTVSPost2010Prop41ColorRGB
 90
        0
102
RTVSPost2010PropOp41
 70
     0
102
RTVSPost2010Prop42
 90
       50
102
RTVSPost2010PropOp42
 70
     0
102
RTVSPost2010Prop43
 90
        3
102
RTVSPost2010PropOp43
 70
     0
102
RTVSPost2010Prop44ColorIndex
 90
        5
102
RTVSPost2010Prop44ColorRGB
 90
      255
102
RTVSPost2010PropOp44
 70
     0
102
RTVSPost2010Prop45
280
     0
102
RTVSPost2010PropOp45
 70
     1
102
RTVSPost2010Prop46
 90
       50
102
RTVSPost2010PropOp46
 70
     0
102
RTVSPost2010Prop47
 90
       50
102
RTVSPost2010PropOp47
 70
     0
102
RTVSPost2010Prop48
 90
       50
102
RTVSPost2010PropOp48
 70
     0
102
RTVSPost2010Prop49
280
     0
102
RTVSPost2010PropOp49
 70
     1
102
RTVSPost2010Prop50
 90
       50
102
RTVSPost2010PropOp50
 70
     0
102
RTVSPost2010Prop51ColorIndex
 90
      256
102
RTVSPost2010Prop51ColorRGB
 90
-16777216
102
RTVSPost2010PropOp51
 70
     0
102
RTVSPost2010Prop52
140
1.0
102
RTVSPost2010PropOp52
 70
     0
102
RTVSPost2010Prop53
 90
        2
102
RTVSPost2010PropOp53
 70
     0
102
RTVSPost2010Prop54
  1
strokes_ogs.tif
102
RTVSPost2010PropOp54
 70
     0
102
RTVSPost2010Prop55
280
     0
102
RTVSPost2010PropOp55
 70
     1
102
RTVSPost2010Prop56
140
1.0
102
RTVSPost2010PropOp56
 70
     0
102
RTVSPost2010Prop57
140
1.0
102
RTVSPost2010PropOp57
 70
     0
102
RTVSPropertyOp0
 70
     0
102
RTVSPropertyOp1
 70
     0
102
RTVSPropertyOp2
 70
     0
102
RTVSPropertyOp3
 70
     0
102
RTVSPropertyOp4
 70
     0
102
RTVSPropertyOp5
 70
     0
102
RTVSPropertyOp6
 70
     0
102
RTVSPropertyOp7
 70
     0
102
RTVSPropertyOp8
 70
     0
102
RTVSPropertyOp9
 70
     0
102
RTVSPropertyOp10
 70
     0
102
RTVSPropertyOp11
 70
     0
102
RTVSPropertyOp12
 70
     0
102
RTVSPropertyOp13
 70
     0
102
RTVSPropertyOp14
 70
     2
102
RTVSPropertyOp15
 70
     0
102
RTVSPropertyOp16
 70
     0
102
RTVSPropertyOp17
 70
     0
102
RTVSPropertyOp18
 70
     0
102
RTVSPropertyOp19
 70
     0
102
RTVSPropertyOp20
 70
     0
102
RTVSPropertyOp21
 70
     0
102
RTVSPropertyOp22
 70
     0
102
RTVSPropertyOp23
 70
     0
102
RTVSPropertyOp24
 70
     0
102
RTVSPropertyOp25
 70
     0
102
RTVSPropertyOp26
 70
     0
102
RTVSPropertyOp27
 70
     0
102
RTVSPropertyOp28
 70
     1
102
RTVSPropertyOp29
 70
     1
102
RTVSPropertyOp30
 70
     1
102
RTVSPropertyOp31
 70
     1
102
RTVSPropertyOp32
 70
     1
102
RTVSPropertyOp33
 70
     1
102
RTVSPropertyOp34
 70
     1
102
RTVSPropertyOp35
 70
     1
102
RTVSPropertyOp36
 70
     1
102
RTVSPropertyOp37
 70
     0
102
RTVSPropertyOp38
 70
     0
102
RTVSPropertyOp39
 70
     0
102
RTVSPropertyOp40
 70
     0
102
RTVSPropertyOp41
 70
     0
102
RTVSPropertyOp42
 70
     0
102
RTVSPropertyOp43
 70
     0
102
RTVSPropertyOp44
 70
     0
102
RTVSPropertyOp45
 70
     1
102
RTVSPropertyOp46
 70
     0
102
RTVSPropertyOp47
 70
     0
102
RTVSPropertyOp48
 70
     0
102
RTVSPropertyOp49
 70
     1
102
RTVSPropertyOp50
 70
     0
102
RTVSPropertyOp51
 70
     0
102
RTVSPropertyOp52
 70
     0
102
RTVSPropertyOp53
 70
     0
102
RTVSPropertyOp54
 70
     0
102
RTVSPropertyOp55
 70
     1
102
RTVSPropertyOp56
 70
     0
102
RTVSPropertyOp57
 70
     0
102
RTVSPropertyOp58
 70
     0
102
RTVSPropertyOp59
 70
     0
102
RTVSPropertyOp60
 70
     0
102
RTVSPropertyOp61
 70
     0
102
RTVSPropertyOp62
 70
     0
  0
XRECORD
  5
8809
102
{ACAD_REACTORS
330
8808
102
}
330
8808
100
AcDbXrecord
280
     1
102
RTVSPost2010Prop28
280
     0
102
RTVSPost2010PropOp28
 70
     1
102
RTVSPost2010Prop29
280
     1
102
RTVSPost2010PropOp29
 70
     1
102
RTVSPost2010Prop30
280
     1
102
RTVSPost2010PropOp30
 70
     1
102
RTVSPost2010Prop31
280
     0
102
RTVSPost2010PropOp31
 70
     1
102
RTVSPost2010Prop32
280
     0
102
RTVSPost2010PropOp32
 70
     1
102
RTVSPost2010Prop33
280
     0
102
RTVSPost2010PropOp33
 70
     1
102
RTVSPost2010Prop34
280
     0
102
RTVSPost2010PropOp34
 70
     1
102
RTVSPost2010Prop35
280
     0
102
RTVSPost2010PropOp35
 70
     1
102
RTVSPost2010Prop36
280
     0
102
RTVSPost2010PropOp36
 70
     1
102
RTVSPost2010Prop37
 90
       50
102
RTVSPost2010PropOp37
 70
     1
102
RTVSPost2010Prop38
140
0.0
102
RTVSPost2010PropOp38
 70
     1
102
RTVSPost2010Prop39
140
1.0
102
RTVSPost2010PropOp39
 70
     1
102
RTVSPost2010Prop40
 90
        0
102
RTVSPost2010PropOp40
 70
     1
102
RTVSPost2010Prop41ColorIndex
 90
       18
102
RTVSPost2010Prop41ColorRGB
 90
        0
102
RTVSPost2010PropOp41
 70
     1
102
RTVSPost2010Prop42
 90
       50
102
RTVSPost2010PropOp42
 70
     1
102
RTVSPost2010Prop43
 90
        3
102
RTVSPost2010PropOp43
 70
     1
102
RTVSPost2010Prop44ColorIndex
 90
        5
102
RTVSPost2010Prop44ColorRGB
 90
      255
102
RTVSPost2010PropOp44
 70
     1
102
RTVSPost2010Prop45
280
     0
102
RTVSPost2010PropOp45
 70
     1
102
RTVSPost2010Prop46
 90
       50
102
RTVSPost2010PropOp46
 70
     1
102
RTVSPost2010Prop47
 90
       50
102
RTVSPost2010PropOp47
 70
     1
102
RTVSPost2010Prop48
 90
       50
102
RTVSPost2010PropOp48
 70
     1
102
RTVSPost2010Prop49
280
     0
102
RTVSPost2010PropOp49
 70
     1
102
RTVSPost2010Prop50
 90
       50
102
RTVSPost2010PropOp50
 70
     1
102
RTVSPost2010Prop51ColorIndex
 90
      256
102
RTVSPost2010Prop51ColorRGB
 90
-16777216
102
RTVSPost2010PropOp51
 70
     0
102
RTVSPost2010Prop52
140
1.0
102
RTVSPost2010PropOp52
 70
     0
102
RTVSPost2010Prop53
 90
        2
102
RTVSPost2010PropOp53
 70
     1
102
RTVSPost2010Prop54
  1
strokes_ogs.tif
102
RTVSPost2010PropOp54
 70
     1
102
RTVSPost2010Prop55
280
     0
102
RTVSPost2010PropOp55
 70
     1
102
RTVSPost2010Prop56
140
1.0
102
RTVSPost2010PropOp56
 70
     1
102
RTVSPost2010Prop57
140
1.0
102
RTVSPost2010PropOp57
 70
     1
102
RTVSPropertyOp0
 70
     1
102
RTVSPropertyOp1
 70
     1
102
RTVSPropertyOp2
 70
     1
102
RTVSPropertyOp3
 70
     1
102
RTVSPropertyOp4
 70
     1
102
RTVSPropertyOp5
 70
     1
102
RTVSPropertyOp6
 70
     1
102
RTVSPropertyOp7
 70
     1
102
RTVSPropertyOp8
 70
     1
102
RTVSPropertyOp9
 70
     1
102
RTVSPropertyOp10
 70
     1
102
RTVSPropertyOp11
 70
     1
102
RTVSPropertyOp12
 70
     1
102
RTVSPropertyOp13
 70
     1
102
RTVSPropertyOp14
 70
     1
102
RTVSPropertyOp15
 70
     1
102
RTVSPropertyOp16
 70
     1
102
RTVSPropertyOp17
 70
     1
102
RTVSPropertyOp18
 70
     1
102
RTVSPropertyOp19
 70
     1
102
RTVSPropertyOp20
 70
     1
102
RTVSPropertyOp21
 70
     1
102
RTVSPropertyOp22
 70
     1
102
RTVSPropertyOp23
 70
     1
102
RTVSPropertyOp24
 70
     1
102
RTVSPropertyOp25
 70
     1
102
RTVSPropertyOp26
 70
     1
102
RTVSPropertyOp27
 70
     1
102
RTVSPropertyOp28
 70
     1
102
RTVSPropertyOp29
 70
     1
102
RTVSPropertyOp30
 70
     1
102
RTVSPropertyOp31
 70
     1
102
RTVSPropertyOp32
 70
     1
102
RTVSPropertyOp33
 70
     1
102
RTVSPropertyOp34
 70
     1
102
RTVSPropertyOp35
 70
     1
102
RTVSPropertyOp36
 70
     1
102
RTVSPropertyOp37
 70
     1
102
RTVSPropertyOp38
 70
     1
102
RTVSPropertyOp39
 70
     1
102
RTVSPropertyOp40
 70
     1
102
RTVSPropertyOp41
 70
     1
102
RTVSPropertyOp42
 70
     1
102
RTVSPropertyOp43
 70
     1
102
RTVSPropertyOp44
 70
     1
102
RTVSPropertyOp45
 70
     1
102
RTVSPropertyOp46
 70
     1
102
RTVSPropertyOp47
 70
     1
102
RTVSPropertyOp48
 70
     1
102
RTVSPropertyOp49
 70
     1
102
RTVSPropertyOp50
 70
     1
102
RTVSPropertyOp51
 70
     0
102
RTVSPropertyOp52
 70
     0
102
RTVSPropertyOp53
 70
     1
102
RTVSPropertyOp54
 70
     1
102
RTVSPropertyOp55
 70
     1
102
RTVSPropertyOp56
 70
     1
102
RTVSPropertyOp57
 70
     1
102
RTVSPropertyOp58
 70
     1
102
RTVSPropertyOp59
 70
     1
102
RTVSPropertyOp60
 70
     1
102
RTVSPropertyOp61
 70
     1
102
RTVSPropertyOp62
 70
     1
  0
XRECORD
  5
87ED
102
{ACAD_REACTORS
330
87EC
102
}
330
87EC
100
AcDbXrecord
280
     1
102
RTVSPost2010Prop28
280
     0
102
RTVSPost2010PropOp28
 70
     1
102
RTVSPost2010Prop29
280
     1
102
RTVSPost2010PropOp29
 70
     1
102
RTVSPost2010Prop30
280
     1
102
RTVSPost2010PropOp30
 70
     1
102
RTVSPost2010Prop31
280
     0
102
RTVSPost2010PropOp31
 70
     1
102
RTVSPost2010Prop32
280
     0
102
RTVSPost2010PropOp32
 70
     1
102
RTVSPost2010Prop33
280
     0
102
RTVSPost2010PropOp33
 70
     1
102
RTVSPost2010Prop34
280
     0
102
RTVSPost2010PropOp34
 70
     1
102
RTVSPost2010Prop35
280
     0
102
RTVSPost2010PropOp35
 70
     1
102
RTVSPost2010Prop36
280
     0
102
RTVSPost2010PropOp36
 70
     1
102
RTVSPost2010Prop37
 90
       50
102
RTVSPost2010PropOp37
 70
     1
102
RTVSPost2010Prop38
140
0.0
102
RTVSPost2010PropOp38
 70
     1
102
RTVSPost2010Prop39
140
1.0
102
RTVSPost2010PropOp39
 70
     1
102
RTVSPost2010Prop40
 90
        0
102
RTVSPost2010PropOp40
 70
     1
102
RTVSPost2010Prop41ColorIndex
 90
       18
102
RTVSPost2010Prop41ColorRGB
 90
        0
102
RTVSPost2010PropOp41
 70
     1
102
RTVSPost2010Prop42
 90
       50
102
RTVSPost2010PropOp42
 70
     1
102
RTVSPost2010Prop43
 90
        3
102
RTVSPost2010PropOp43
 70
     1
102
RTVSPost2010Prop44ColorIndex
 90
        5
102
RTVSPost2010Prop44ColorRGB
 90
      255
102
RTVSPost2010PropOp44
 70
     1
102
RTVSPost2010Prop45
280
     0
102
RTVSPost2010PropOp45
 70
     1
102
RTVSPost2010Prop46
 90
       50
102
RTVSPost2010PropOp46
 70
     1
102
RTVSPost2010Prop47
 90
       50
102
RTVSPost2010PropOp47
 70
     1
102
RTVSPost2010Prop48
 90
       50
102
RTVSPost2010PropOp48
 70
     1
102
RTVSPost2010Prop49
280
     0
102
RTVSPost2010PropOp49
 70
     1
102
RTVSPost2010Prop50
 90
       50
102
RTVSPost2010PropOp50
 70
     1
102
RTVSPost2010Prop51ColorIndex
 90
      256
102
RTVSPost2010Prop51ColorRGB
 90
-16777216
102
RTVSPost2010PropOp51
 70
     0
102
RTVSPost2010Prop52
140
1.0
102
RTVSPost2010PropOp52
 70
     0
102
RTVSPost2010Prop53
 90
        2
102
RTVSPost2010PropOp53
 70
     1
102
RTVSPost2010Prop54
  1
strokes_ogs.tif
102
RTVSPost2010PropOp54
 70
     1
102
RTVSPost2010Prop55
280
     0
102
RTVSPost2010PropOp55
 70
     1
102
RTVSPost2010Prop56
140
1.0
102
RTVSPost2010PropOp56
 70
     1
102
RTVSPost2010Prop57
140
1.0
102
RTVSPost2010PropOp57
 70
     1
102
RTVSPropertyOp0
 70
     1
102
RTVSPropertyOp1
 70
     1
102
RTVSPropertyOp2
 70
     1
102
RTVSPropertyOp3
 70
     1
102
RTVSPropertyOp4
 70
     1
102
RTVSPropertyOp5
 70
     1
102
RTVSPropertyOp6
 70
     1
102
RTVSPropertyOp7
 70
     1
102
RTVSPropertyOp8
 70
     1
102
RTVSPropertyOp9
 70
     1
102
RTVSPropertyOp10
 70
     1
102
RTVSPropertyOp11
 70
     1
102
RTVSPropertyOp12
 70
     1
102
RTVSPropertyOp13
 70
     1
102
RTVSPropertyOp14
 70
     1
102
RTVSPropertyOp15
 70
     1
102
RTVSPropertyOp16
 70
     1
102
RTVSPropertyOp17
 70
     1
102
RTVSPropertyOp18
 70
     1
102
RTVSPropertyOp19
 70
     1
102
RTVSPropertyOp20
 70
     1
102
RTVSPropertyOp21
 70
     1
102
RTVSPropertyOp22
 70
     1
102
RTVSPropertyOp23
 70
     1
102
RTVSPropertyOp24
 70
     1
102
RTVSPropertyOp25
 70
     1
102
RTVSPropertyOp26
 70
     1
102
RTVSPropertyOp27
 70
     1
102
RTVSPropertyOp28
 70
     1
102
RTVSPropertyOp29
 70
     1
102
RTVSPropertyOp30
 70
     1
102
RTVSPropertyOp31
 70
     1
102
RTVSPropertyOp32
 70
     1
102
RTVSPropertyOp33
 70
     1
102
RTVSPropertyOp34
 70
     1
102
RTVSPropertyOp35
 70
     1
102
RTVSPropertyOp36
 70
     1
102
RTVSPropertyOp37
 70
     1
102
RTVSPropertyOp38
 70
     1
102
RTVSPropertyOp39
 70
     1
102
RTVSPropertyOp40
 70
     1
102
RTVSPropertyOp41
 70
     1
102
RTVSPropertyOp42
 70
     1
102
RTVSPropertyOp43
 70
     1
102
RTVSPropertyOp44
 70
     1
102
RTVSPropertyOp45
 70
     1
102
RTVSPropertyOp46
 70
     1
102
RTVSPropertyOp47
 70
     1
102
RTVSPropertyOp48
 70
     1
102
RTVSPropertyOp49
 70
     1
102
RTVSPropertyOp50
 70
     1
102
RTVSPropertyOp51
 70
     0
102
RTVSPropertyOp52
 70
     0
102
RTVSPropertyOp53
 70
     1
102
RTVSPropertyOp54
 70
     1
102
RTVSPropertyOp55
 70
     1
102
RTVSPropertyOp56
 70
     1
102
RTVSPropertyOp57
 70
     1
102
RTVSPropertyOp58
 70
     1
102
RTVSPropertyOp59
 70
     1
102
RTVSPropertyOp60
 70
     1
102
RTVSPropertyOp61
 70
     1
102
RTVSPropertyOp62
 70
     1
  0
XRECORD
  5
87EF
102
{ACAD_REACTORS
330
87EE
102
}
330
87EE
100
AcDbXrecord
280
     1
102
RTVSPost2010Prop28
280
     0
102
RTVSPost2010PropOp28
 70
     1
102
RTVSPost2010Prop29
280
     1
102
RTVSPost2010PropOp29
 70
     1
102
RTVSPost2010Prop30
280
     1
102
RTVSPost2010PropOp30
 70
     1
102
RTVSPost2010Prop31
280
     0
102
RTVSPost2010PropOp31
 70
     1
102
RTVSPost2010Prop32
280
     0
102
RTVSPost2010PropOp32
 70
     1
102
RTVSPost2010Prop33
280
     0
102
RTVSPost2010PropOp33
 70
     1
102
RTVSPost2010Prop34
280
     0
102
RTVSPost2010PropOp34
 70
     1
102
RTVSPost2010Prop35
280
     0
102
RTVSPost2010PropOp35
 70
     1
102
RTVSPost2010Prop36
280
     0
102
RTVSPost2010PropOp36
 70
     1
102
RTVSPost2010Prop37
 90
       50
102
RTVSPost2010PropOp37
 70
     1
102
RTVSPost2010Prop38
140
0.0
102
RTVSPost2010PropOp38
 70
     1
102
RTVSPost2010Prop39
140
1.0
102
RTVSPost2010PropOp39
 70
     1
102
RTVSPost2010Prop40
 90
        0
102
RTVSPost2010PropOp40
 70
     1
102
RTVSPost2010Prop41ColorIndex
 90
       18
102
RTVSPost2010Prop41ColorRGB
 90
        0
102
RTVSPost2010PropOp41
 70
     1
102
RTVSPost2010Prop42
 90
       50
102
RTVSPost2010PropOp42
 70
     1
102
RTVSPost2010Prop43
 90
        3
102
RTVSPost2010PropOp43
 70
     1
102
RTVSPost2010Prop44ColorIndex
 90
        5
102
RTVSPost2010Prop44ColorRGB
 90
      255
102
RTVSPost2010PropOp44
 70
     1
102
RTVSPost2010Prop45
280
     0
102
RTVSPost2010PropOp45
 70
     1
102
RTVSPost2010Prop46
 90
       50
102
RTVSPost2010PropOp46
 70
     1
102
RTVSPost2010Prop47
 90
       50
102
RTVSPost2010PropOp47
 70
     1
102
RTVSPost2010Prop48
 90
       50
102
RTVSPost2010PropOp48
 70
     1
102
RTVSPost2010Prop49
280
     0
102
RTVSPost2010PropOp49
 70
     1
102
RTVSPost2010Prop50
 90
       50
102
RTVSPost2010PropOp50
 70
     1
102
RTVSPost2010Prop51ColorIndex
 90
      256
102
RTVSPost2010Prop51ColorRGB
 90
-16777216
102
RTVSPost2010PropOp51
 70
     0
102
RTVSPost2010Prop52
140
1.0
102
RTVSPost2010PropOp52
 70
     0
102
RTVSPost2010Prop53
 90
        2
102
RTVSPost2010PropOp53
 70
     1
102
RTVSPost2010Prop54
  1
strokes_ogs.tif
102
RTVSPost2010PropOp54
 70
     1
102
RTVSPost2010Prop55
280
     0
102
RTVSPost2010PropOp55
 70
     1
102
RTVSPost2010Prop56
140
1.0
102
RTVSPost2010PropOp56
 70
     1
102
RTVSPost2010Prop57
140
1.0
102
RTVSPost2010PropOp57
 70
     1
102
RTVSPropertyOp0
 70
     1
102
RTVSPropertyOp1
 70
     1
102
RTVSPropertyOp2
 70
     1
102
RTVSPropertyOp3
 70
     1
102
RTVSPropertyOp4
 70
     1
102
RTVSPropertyOp5
 70
     1
102
RTVSPropertyOp6
 70
     1
102
RTVSPropertyOp7
 70
     1
102
RTVSPropertyOp8
 70
     1
102
RTVSPropertyOp9
 70
     1
102
RTVSPropertyOp10
 70
     1
102
RTVSPropertyOp11
 70
     1
102
RTVSPropertyOp12
 70
     1
102
RTVSPropertyOp13
 70
     1
102
RTVSPropertyOp14
 70
     1
102
RTVSPropertyOp15
 70
     1
102
RTVSPropertyOp16
 70
     1
102
RTVSPropertyOp17
 70
     1
102
RTVSPropertyOp18
 70
     1
102
RTVSPropertyOp19
 70
     1
102
RTVSPropertyOp20
 70
     1
102
RTVSPropertyOp21
 70
     1
102
RTVSPropertyOp22
 70
     1
102
RTVSPropertyOp23
 70
     1
102
RTVSPropertyOp24
 70
     1
102
RTVSPropertyOp25
 70
     1
102
RTVSPropertyOp26
 70
     1
102
RTVSPropertyOp27
 70
     1
102
RTVSPropertyOp28
 70
     1
102
RTVSPropertyOp29
 70
     1
102
RTVSPropertyOp30
 70
     1
102
RTVSPropertyOp31
 70
     1
102
RTVSPropertyOp32
 70
     1
102
RTVSPropertyOp33
 70
     1
102
RTVSPropertyOp34
 70
     1
102
RTVSPropertyOp35
 70
     1
102
RTVSPropertyOp36
 70
     1
102
RTVSPropertyOp37
 70
     1
102
RTVSPropertyOp38
 70
     1
102
RTVSPropertyOp39
 70
     1
102
RTVSPropertyOp40
 70
     1
102
RTVSPropertyOp41
 70
     1
102
RTVSPropertyOp42
 70
     1
102
RTVSPropertyOp43
 70
     1
102
RTVSPropertyOp44
 70
     1
102
RTVSPropertyOp45
 70
     1
102
RTVSPropertyOp46
 70
     1
102
RTVSPropertyOp47
 70
     1
102
RTVSPropertyOp48
 70
     1
102
RTVSPropertyOp49
 70
     1
102
RTVSPropertyOp50
 70
     1
102
RTVSPropertyOp51
 70
     0
102
RTVSPropertyOp52
 70
     0
102
RTVSPropertyOp53
 70
     1
102
RTVSPropertyOp54
 70
     1
102
RTVSPropertyOp55
 70
     1
102
RTVSPropertyOp56
 70
     1
102
RTVSPropertyOp57
 70
     1
102
RTVSPropertyOp58
 70
     1
102
RTVSPropertyOp59
 70
     1
102
RTVSPropertyOp60
 70
     1
102
RTVSPropertyOp61
 70
     1
102
RTVSPropertyOp62
 70
     1
  0
XRECORD
  5
87F1
102
{ACAD_REACTORS
330
87F0
102
}
330
87F0
100
AcDbXrecord
280
     1
102
RTVSPost2010Prop28
280
     0
102
RTVSPost2010PropOp28
 70
     1
102
RTVSPost2010Prop29
280
     1
102
RTVSPost2010PropOp29
 70
     1
102
RTVSPost2010Prop30
280
     1
102
RTVSPost2010PropOp30
 70
     1
102
RTVSPost2010Prop31
280
     0
102
RTVSPost2010PropOp31
 70
     1
102
RTVSPost2010Prop32
280
     0
102
RTVSPost2010PropOp32
 70
     1
102
RTVSPost2010Prop33
280
     0
102
RTVSPost2010PropOp33
 70
     1
102
RTVSPost2010Prop34
280
     0
102
RTVSPost2010PropOp34
 70
     1
102
RTVSPost2010Prop35
280
     0
102
RTVSPost2010PropOp35
 70
     1
102
RTVSPost2010Prop36
280
     0
102
RTVSPost2010PropOp36
 70
     1
102
RTVSPost2010Prop37
 90
       50
102
RTVSPost2010PropOp37
 70
     1
102
RTVSPost2010Prop38
140
0.0
102
RTVSPost2010PropOp38
 70
     1
102
RTVSPost2010Prop39
140
1.0
102
RTVSPost2010PropOp39
 70
     1
102
RTVSPost2010Prop40
 90
        0
102
RTVSPost2010PropOp40
 70
     1
102
RTVSPost2010Prop41ColorIndex
 90
       18
102
RTVSPost2010Prop41ColorRGB
 90
        0
102
RTVSPost2010PropOp41
 70
     1
102
RTVSPost2010Prop42
 90
       50
102
RTVSPost2010PropOp42
 70
     1
102
RTVSPost2010Prop43
 90
        3
102
RTVSPost2010PropOp43
 70
     1
102
RTVSPost2010Prop44ColorIndex
 90
        5
102
RTVSPost2010Prop44ColorRGB
 90
      255
102
RTVSPost2010PropOp44
 70
     1
102
RTVSPost2010Prop45
280
     0
102
RTVSPost2010PropOp45
 70
     1
102
RTVSPost2010Prop46
 90
       50
102
RTVSPost2010PropOp46
 70
     1
102
RTVSPost2010Prop47
 90
       50
102
RTVSPost2010PropOp47
 70
     1
102
RTVSPost2010Prop48
 90
       50
102
RTVSPost2010PropOp48
 70
     1
102
RTVSPost2010Prop49
280
     0
102
RTVSPost2010PropOp49
 70
     1
102
RTVSPost2010Prop50
 90
       50
102
RTVSPost2010PropOp50
 70
     1
102
RTVSPost2010Prop51ColorIndex
 90
      256
102
RTVSPost2010Prop51ColorRGB
 90
-16777216
102
RTVSPost2010PropOp51
 70
     0
102
RTVSPost2010Prop52
140
1.0
102
RTVSPost2010PropOp52
 70
     0
102
RTVSPost2010Prop53
 90
        2
102
RTVSPost2010PropOp53
 70
     1
102
RTVSPost2010Prop54
  1
strokes_ogs.tif
102
RTVSPost2010PropOp54
 70
     1
102
RTVSPost2010Prop55
280
     0
102
RTVSPost2010PropOp55
 70
     1
102
RTVSPost2010Prop56
140
1.0
102
RTVSPost2010PropOp56
 70
     1
102
RTVSPost2010Prop57
140
1.0
102
RTVSPost2010PropOp57
 70
     1
102
RTVSPropertyOp0
 70
     1
102
RTVSPropertyOp1
 70
     1
102
RTVSPropertyOp2
 70
     1
102
RTVSPropertyOp3
 70
     1
102
RTVSPropertyOp4
 70
     1
102
RTVSPropertyOp5
 70
     1
102
RTVSPropertyOp6
 70
     1
102
RTVSPropertyOp7
 70
     1
102
RTVSPropertyOp8
 70
     1
102
RTVSPropertyOp9
 70
     1
102
RTVSPropertyOp10
 70
     1
102
RTVSPropertyOp11
 70
     1
102
RTVSPropertyOp12
 70
     1
102
RTVSPropertyOp13
 70
     1
102
RTVSPropertyOp14
 70
     1
102
RTVSPropertyOp15
 70
     1
102
RTVSPropertyOp16
 70
     1
102
RTVSPropertyOp17
 70
     1
102
RTVSPropertyOp18
 70
     1
102
RTVSPropertyOp19
 70
     1
102
RTVSPropertyOp20
 70
     1
102
RTVSPropertyOp21
 70
     1
102
RTVSPropertyOp22
 70
     1
102
RTVSPropertyOp23
 70
     1
102
RTVSPropertyOp24
 70
     1
102
RTVSPropertyOp25
 70
     1
102
RTVSPropertyOp26
 70
     1
102
RTVSPropertyOp27
 70
     1
102
RTVSPropertyOp28
 70
     1
102
RTVSPropertyOp29
 70
     1
102
RTVSPropertyOp30
 70
     1
102
RTVSPropertyOp31
 70
     1
102
RTVSPropertyOp32
 70
     1
102
RTVSPropertyOp33
 70
     1
102
RTVSPropertyOp34
 70
     1
102
RTVSPropertyOp35
 70
     1
102
RTVSPropertyOp36
 70
     1
102
RTVSPropertyOp37
 70
     1
102
RTVSPropertyOp38
 70
     1
102
RTVSPropertyOp39
 70
     1
102
RTVSPropertyOp40
 70
     1
102
RTVSPropertyOp41
 70
     1
102
RTVSPropertyOp42
 70
     1
102
RTVSPropertyOp43
 70
     1
102
RTVSPropertyOp44
 70
     1
102
RTVSPropertyOp45
 70
     1
102
RTVSPropertyOp46
 70
     1
102
RTVSPropertyOp47
 70
     1
102
RTVSPropertyOp48
 70
     1
102
RTVSPropertyOp49
 70
     1
102
RTVSPropertyOp50
 70
     1
102
RTVSPropertyOp51
 70
     0
102
RTVSPropertyOp52
 70
     0
102
RTVSPropertyOp53
 70
     1
102
RTVSPropertyOp54
 70
     1
102
RTVSPropertyOp55
 70
     1
102
RTVSPropertyOp56
 70
     1
102
RTVSPropertyOp57
 70
     1
102
RTVSPropertyOp58
 70
     1
102
RTVSPropertyOp59
 70
     1
102
RTVSPropertyOp60
 70
     1
102
RTVSPropertyOp61
 70
     1
102
RTVSPropertyOp62
 70
     1
  0
XRECORD
  5
87F3
102
{ACAD_REACTORS
330
87F2
102
}
330
87F2
100
AcDbXrecord
280
     1
102
RTVSPost2010Prop28
280
     0
102
RTVSPost2010PropOp28
 70
     1
102
RTVSPost2010Prop29
280
     1
102
RTVSPost2010PropOp29
 70
     1
102
RTVSPost2010Prop30
280
     1
102
RTVSPost2010PropOp30
 70
     1
102
RTVSPost2010Prop31
280
     0
102
RTVSPost2010PropOp31
 70
     1
102
RTVSPost2010Prop32
280
     0
102
RTVSPost2010PropOp32
 70
     1
102
RTVSPost2010Prop33
280
     0
102
RTVSPost2010PropOp33
 70
     1
102
RTVSPost2010Prop34
280
     0
102
RTVSPost2010PropOp34
 70
     1
102
RTVSPost2010Prop35
280
     0
102
RTVSPost2010PropOp35
 70
     1
102
RTVSPost2010Prop36
280
     0
102
RTVSPost2010PropOp36
 70
     1
102
RTVSPost2010Prop37
 90
       50
102
RTVSPost2010PropOp37
 70
     1
102
RTVSPost2010Prop38
140
0.0
102
RTVSPost2010PropOp38
 70
     1
102
RTVSPost2010Prop39
140
1.0
102
RTVSPost2010PropOp39
 70
     1
102
RTVSPost2010Prop40
 90
        0
102
RTVSPost2010PropOp40
 70
     1
102
RTVSPost2010Prop41ColorIndex
 90
       18
102
RTVSPost2010Prop41ColorRGB
 90
        0
102
RTVSPost2010PropOp41
 70
     1
102
RTVSPost2010Prop42
 90
       50
102
RTVSPost2010PropOp42
 70
     1
102
RTVSPost2010Prop43
 90
        3
102
RTVSPost2010PropOp43
 70
     1
102
RTVSPost2010Prop44ColorIndex
 90
        5
102
RTVSPost2010Prop44ColorRGB
 90
      255
102
RTVSPost2010PropOp44
 70
     1
102
RTVSPost2010Prop45
280
     0
102
RTVSPost2010PropOp45
 70
     1
102
RTVSPost2010Prop46
 90
       50
102
RTVSPost2010PropOp46
 70
     1
102
RTVSPost2010Prop47
 90
       50
102
RTVSPost2010PropOp47
 70
     1
102
RTVSPost2010Prop48
 90
       50
102
RTVSPost2010PropOp48
 70
     1
102
RTVSPost2010Prop49
280
     0
102
RTVSPost2010PropOp49
 70
     1
102
RTVSPost2010Prop50
 90
       50
102
RTVSPost2010PropOp50
 70
     1
102
RTVSPost2010Prop51ColorIndex
 90
      256
102
RTVSPost2010Prop51ColorRGB
 90
-16777216
102
RTVSPost2010PropOp51
 70
     0
102
RTVSPost2010Prop52
140
1.0
102
RTVSPost2010PropOp52
 70
     0
102
RTVSPost2010Prop53
 90
        2
102
RTVSPost2010PropOp53
 70
     1
102
RTVSPost2010Prop54
  1
strokes_ogs.tif
102
RTVSPost2010PropOp54
 70
     1
102
RTVSPost2010Prop55
280
     0
102
RTVSPost2010PropOp55
 70
     1
102
RTVSPost2010Prop56
140
1.0
102
RTVSPost2010PropOp56
 70
     1
102
RTVSPost2010Prop57
140
1.0
102
RTVSPost2010PropOp57
 70
     1
102
RTVSPropertyOp0
 70
     1
102
RTVSPropertyOp1
 70
     1
102
RTVSPropertyOp2
 70
     1
102
RTVSPropertyOp3
 70
     1
102
RTVSPropertyOp4
 70
     1
102
RTVSPropertyOp5
 70
     1
102
RTVSPropertyOp6
 70
     1
102
RTVSPropertyOp7
 70
     1
102
RTVSPropertyOp8
 70
     1
102
RTVSPropertyOp9
 70
     1
102
RTVSPropertyOp10
 70
     1
102
RTVSPropertyOp11
 70
     1
102
RTVSPropertyOp12
 70
     1
102
RTVSPropertyOp13
 70
     1
102
RTVSPropertyOp14
 70
     1
102
RTVSPropertyOp15
 70
     1
102
RTVSPropertyOp16
 70
     1
102
RTVSPropertyOp17
 70
     1
102
RTVSPropertyOp18
 70
     1
102
RTVSPropertyOp19
 70
     1
102
RTVSPropertyOp20
 70
     1
102
RTVSPropertyOp21
 70
     1
102
RTVSPropertyOp22
 70
     1
102
RTVSPropertyOp23
 70
     1
102
RTVSPropertyOp24
 70
     1
102
RTVSPropertyOp25
 70
     1
102
RTVSPropertyOp26
 70
     1
102
RTVSPropertyOp27
 70
     1
102
RTVSPropertyOp28
 70
     1
102
RTVSPropertyOp29
 70
     1
102
RTVSPropertyOp30
 70
     1
102
RTVSPropertyOp31
 70
     1
102
RTVSPropertyOp32
 70
     1
102
RTVSPropertyOp33
 70
     1
102
RTVSPropertyOp34
 70
     1
102
RTVSPropertyOp35
 70
     1
102
RTVSPropertyOp36
 70
     1
102
RTVSPropertyOp37
 70
     1
102
RTVSPropertyOp38
 70
     1
102
RTVSPropertyOp39
 70
     1
102
RTVSPropertyOp40
 70
     1
102
RTVSPropertyOp41
 70
     1
102
RTVSPropertyOp42
 70
     1
102
RTVSPropertyOp43
 70
     1
102
RTVSPropertyOp44
 70
     1
102
RTVSPropertyOp45
 70
     1
102
RTVSPropertyOp46
 70
     1
102
RTVSPropertyOp47
 70
     1
102
RTVSPropertyOp48
 70
     1
102
RTVSPropertyOp49
 70
     1
102
RTVSPropertyOp50
 70
     1
102
RTVSPropertyOp51
 70
     0
102
RTVSPropertyOp52
 70
     0
102
RTVSPropertyOp53
 70
     1
102
RTVSPropertyOp54
 70
     1
102
RTVSPropertyOp55
 70
     1
102
RTVSPropertyOp56
 70
     1
102
RTVSPropertyOp57
 70
     1
102
RTVSPropertyOp58
 70
     1
102
RTVSPropertyOp59
 70
     1
102
RTVSPropertyOp60
 70
     1
102
RTVSPropertyOp61
 70
     1
102
RTVSPropertyOp62
 70
     1
  0
XRECORD
  5
87FB
102
{ACAD_REACTORS
330
87FA
102
}
330
87FA
100
AcDbXrecord
280
     1
102
RTVSPost2010Prop28
280
     0
102
RTVSPost2010PropOp28
 70
     1
102
RTVSPost2010Prop29
280
     1
102
RTVSPost2010PropOp29
 70
     1
102
RTVSPost2010Prop30
280
     1
102
RTVSPost2010PropOp30
 70
     1
102
RTVSPost2010Prop31
280
     0
102
RTVSPost2010PropOp31
 70
     1
102
RTVSPost2010Prop32
280
     0
102
RTVSPost2010PropOp32
 70
     1
102
RTVSPost2010Prop33
280
     0
102
RTVSPost2010PropOp33
 70
     1
102
RTVSPost2010Prop34
280
     0
102
RTVSPost2010PropOp34
 70
     1
102
RTVSPost2010Prop35
280
     0
102
RTVSPost2010PropOp35
 70
     1
102
RTVSPost2010Prop36
280
     0
102
RTVSPost2010PropOp36
 70
     1
102
RTVSPost2010Prop37
 90
       50
102
RTVSPost2010PropOp37
 70
     1
102
RTVSPost2010Prop38
140
0.0
102
RTVSPost2010PropOp38
 70
     1
102
RTVSPost2010Prop39
140
1.0
102
RTVSPost2010PropOp39
 70
     1
102
RTVSPost2010Prop40
 90
        0
102
RTVSPost2010PropOp40
 70
     1
102
RTVSPost2010Prop41ColorIndex
 90
       18
102
RTVSPost2010Prop41ColorRGB
 90
        0
102
RTVSPost2010PropOp41
 70
     1
102
RTVSPost2010Prop42
 90
       50
102
RTVSPost2010PropOp42
 70
     1
102
RTVSPost2010Prop43
 90
        3
102
RTVSPost2010PropOp43
 70
     1
102
RTVSPost2010Prop44ColorIndex
 90
        5
102
RTVSPost2010Prop44ColorRGB
 90
      255
102
RTVSPost2010PropOp44
 70
     1
102
RTVSPost2010Prop45
280
     0
102
RTVSPost2010PropOp45
 70
     1
102
RTVSPost2010Prop46
 90
       50
102
RTVSPost2010PropOp46
 70
     1
102
RTVSPost2010Prop47
 90
       50
102
RTVSPost2010PropOp47
 70
     1
102
RTVSPost2010Prop48
 90
       50
102
RTVSPost2010PropOp48
 70
     1
102
RTVSPost2010Prop49
280
     0
102
RTVSPost2010PropOp49
 70
     1
102
RTVSPost2010Prop50
 90
       50
102
RTVSPost2010PropOp50
 70
     1
102
RTVSPost2010Prop51ColorIndex
 90
      256
102
RTVSPost2010Prop51ColorRGB
 90
-16777216
102
RTVSPost2010PropOp51
 70
     0
102
RTVSPost2010Prop52
140
1.0
102
RTVSPost2010PropOp52
 70
     0
102
RTVSPost2010Prop53
 90
        2
102
RTVSPost2010PropOp53
 70
     1
102
RTVSPost2010Prop54
  1
strokes_ogs.tif
102
RTVSPost2010PropOp54
 70
     1
102
RTVSPost2010Prop55
280
     0
102
RTVSPost2010PropOp55
 70
     1
102
RTVSPost2010Prop56
140
1.0
102
RTVSPost2010PropOp56
 70
     1
102
RTVSPost2010Prop57
140
1.0
102
RTVSPost2010PropOp57
 70
     1
102
RTVSPropertyOp0
 70
     1
102
RTVSPropertyOp1
 70
     1
102
RTVSPropertyOp2
 70
     1
102
RTVSPropertyOp3
 70
     1
102
RTVSPropertyOp4
 70
     1
102
RTVSPropertyOp5
 70
     1
102
RTVSPropertyOp6
 70
     1
102
RTVSPropertyOp7
 70
     1
102
RTVSPropertyOp8
 70
     1
102
RTVSPropertyOp9
 70
     1
102
RTVSPropertyOp10
 70
     1
102
RTVSPropertyOp11
 70
     1
102
RTVSPropertyOp12
 70
     1
102
RTVSPropertyOp13
 70
     1
102
RTVSPropertyOp14
 70
     1
102
RTVSPropertyOp15
 70
     1
102
RTVSPropertyOp16
 70
     1
102
RTVSPropertyOp17
 70
     1
102
RTVSPropertyOp18
 70
     1
102
RTVSPropertyOp19
 70
     1
102
RTVSPropertyOp20
 70
     1
102
RTVSPropertyOp21
 70
     1
102
RTVSPropertyOp22
 70
     1
102
RTVSPropertyOp23
 70
     1
102
RTVSPropertyOp24
 70
     1
102
RTVSPropertyOp25
 70
     1
102
RTVSPropertyOp26
 70
     1
102
RTVSPropertyOp27
 70
     1
102
RTVSPropertyOp28
 70
     1
102
RTVSPropertyOp29
 70
     1
102
RTVSPropertyOp30
 70
     1
102
RTVSPropertyOp31
 70
     1
102
RTVSPropertyOp32
 70
     1
102
RTVSPropertyOp33
 70
     1
102
RTVSPropertyOp34
 70
     1
102
RTVSPropertyOp35
 70
     1
102
RTVSPropertyOp36
 70
     1
102
RTVSPropertyOp37
 70
     1
102
RTVSPropertyOp38
 70
     1
102
RTVSPropertyOp39
 70
     1
102
RTVSPropertyOp40
 70
     1
102
RTVSPropertyOp41
 70
     1
102
RTVSPropertyOp42
 70
     1
102
RTVSPropertyOp43
 70
     1
102
RTVSPropertyOp44
 70
     1
102
RTVSPropertyOp45
 70
     1
102
RTVSPropertyOp46
 70
     1
102
RTVSPropertyOp47
 70
     1
102
RTVSPropertyOp48
 70
     1
102
RTVSPropertyOp49
 70
     1
102
RTVSPropertyOp50
 70
     1
102
RTVSPropertyOp51
 70
     0
102
RTVSPropertyOp52
 70
     0
102
RTVSPropertyOp53
 70
     1
102
RTVSPropertyOp54
 70
     1
102
RTVSPropertyOp55
 70
     1
102
RTVSPropertyOp56
 70
     1
102
RTVSPropertyOp57
 70
     1
102
RTVSPropertyOp58
 70
     1
102
RTVSPropertyOp59
 70
     1
102
RTVSPropertyOp60
 70
     1
102
RTVSPropertyOp61
 70
     1
102
RTVSPropertyOp62
 70
     1
  0
XRECORD
  5
8817
102
{ACAD_REACTORS
330
8816
102
}
330
8816
100
AcDbXrecord
280
     1
102
RTVSPost2010Prop28
280
     0
102
RTVSPost2010PropOp28
 70
     1
102
RTVSPost2010Prop29
280
     1
102
RTVSPost2010PropOp29
 70
     1
102
RTVSPost2010Prop30
280
     1
102
RTVSPost2010PropOp30
 70
     1
102
RTVSPost2010Prop31
280
     0
102
RTVSPost2010PropOp31
 70
     1
102
RTVSPost2010Prop32
280
     0
102
RTVSPost2010PropOp32
 70
     1
102
RTVSPost2010Prop33
280
     0
102
RTVSPost2010PropOp33
 70
     1
102
RTVSPost2010Prop34
280
     0
102
RTVSPost2010PropOp34
 70
     1
102
RTVSPost2010Prop35
280
     0
102
RTVSPost2010PropOp35
 70
     1
102
RTVSPost2010Prop36
280
     0
102
RTVSPost2010PropOp36
 70
     1
102
RTVSPost2010Prop37
 90
       50
102
RTVSPost2010PropOp37
 70
     0
102
RTVSPost2010Prop38
140
0.0
102
RTVSPost2010PropOp38
 70
     0
102
RTVSPost2010Prop39
140
1.0
102
RTVSPost2010PropOp39
 70
     0
102
RTVSPost2010Prop40
 90
        0
102
RTVSPost2010PropOp40
 70
     0
102
RTVSPost2010Prop41ColorIndex
 90
       18
102
RTVSPost2010Prop41ColorRGB
 90
        0
102
RTVSPost2010PropOp41
 70
     0
102
RTVSPost2010Prop42
 90
       50
102
RTVSPost2010PropOp42
 70
     0
102
RTVSPost2010Prop43
 90
        3
102
RTVSPost2010PropOp43
 70
     0
102
RTVSPost2010Prop44ColorIndex
 90
        5
102
RTVSPost2010Prop44ColorRGB
 90
      255
102
RTVSPost2010PropOp44
 70
     0
102
RTVSPost2010Prop45
280
     0
102
RTVSPost2010PropOp45
 70
     1
102
RTVSPost2010Prop46
 90
       50
102
RTVSPost2010PropOp46
 70
     0
102
RTVSPost2010Prop47
 90
       50
102
RTVSPost2010PropOp47
 70
     0
102
RTVSPost2010Prop48
 90
       50
102
RTVSPost2010PropOp48
 70
     0
102
RTVSPost2010Prop49
280
     0
102
RTVSPost2010PropOp49
 70
     1
102
RTVSPost2010Prop50
 90
       50
102
RTVSPost2010PropOp50
 70
     0
102
RTVSPost2010Prop51ColorIndex
 90
      256
102
RTVSPost2010Prop51ColorRGB
 90
-16777216
102
RTVSPost2010PropOp51
 70
     0
102
RTVSPost2010Prop52
140
1.0
102
RTVSPost2010PropOp52
 70
     0
102
RTVSPost2010Prop53
 90
        2
102
RTVSPost2010PropOp53
 70
     0
102
RTVSPost2010Prop54
  1
strokes_ogs.tif
102
RTVSPost2010PropOp54
 70
     0
102
RTVSPost2010Prop55
280
     0
102
RTVSPost2010PropOp55
 70
     1
102
RTVSPost2010Prop56
140
1.0
102
RTVSPost2010PropOp56
 70
     0
102
RTVSPost2010Prop57
140
1.0
102
RTVSPost2010PropOp57
 70
     0
102
RTVSPropertyOp0
 70
     0
102
RTVSPropertyOp1
 70
     0
102
RTVSPropertyOp2
 70
     0
102
RTVSPropertyOp3
 70
     0
102
RTVSPropertyOp4
 70
     0
102
RTVSPropertyOp5
 70
     0
102
RTVSPropertyOp6
 70
     0
102
RTVSPropertyOp7
 70
     0
102
RTVSPropertyOp8
 70
     0
102
RTVSPropertyOp9
 70
     0
102
RTVSPropertyOp10
 70
     0
102
RTVSPropertyOp11
 70
     0
102
RTVSPropertyOp12
 70
     0
102
RTVSPropertyOp13
 70
     0
102
RTVSPropertyOp14
 70
     2
102
RTVSPropertyOp15
 70
     0
102
RTVSPropertyOp16
 70
     0
102
RTVSPropertyOp17
 70
     0
102
RTVSPropertyOp18
 70
     0
102
RTVSPropertyOp19
 70
     0
102
RTVSPropertyOp20
 70
     0
102
RTVSPropertyOp21
 70
     0
102
RTVSPropertyOp22
 70
     0
102
RTVSPropertyOp23
 70
     0
102
RTVSPropertyOp24
 70
     0
102
RTVSPropertyOp25
 70
     0
102
RTVSPropertyOp26
 70
     0
102
RTVSPropertyOp27
 70
     0
102
RTVSPropertyOp28
 70
     1
102
RTVSPropertyOp29
 70
     1
102
RTVSPropertyOp30
 70
     1
102
RTVSPropertyOp31
 70
     1
102
RTVSPropertyOp32
 70
     1
102
RTVSPropertyOp33
 70
     1
102
RTVSPropertyOp34
 70
     1
102
RTVSPropertyOp35
 70
     1
102
RTVSPropertyOp36
 70
     1
102
RTVSPropertyOp37
 70
     0
102
RTVSPropertyOp38
 70
     0
102
RTVSPropertyOp39
 70
     0
102
RTVSPropertyOp40
 70
     0
102
RTVSPropertyOp41
 70
     0
102
RTVSPropertyOp42
 70
     0
102
RTVSPropertyOp43
 70
     0
102
RTVSPropertyOp44
 70
     0
102
RTVSPropertyOp45
 70
     1
102
RTVSPropertyOp46
 70
     0
102
RTVSPropertyOp47
 70
     0
102
RTVSPropertyOp48
 70
     0
102
RTVSPropertyOp49
 70
     1
102
RTVSPropertyOp50
 70
     0
102
RTVSPropertyOp51
 70
     0
102
RTVSPropertyOp52
 70
     0
102
RTVSPropertyOp53
 70
     0
102
RTVSPropertyOp54
 70
     0
102
RTVSPropertyOp55
 70
     1
102
RTVSPropertyOp56
 70
     0
102
RTVSPropertyOp57
 70
     0
102
RTVSPropertyOp58
 70
     0
102
RTVSPropertyOp59
 70
     0
102
RTVSPropertyOp60
 70
     0
102
RTVSPropertyOp61
 70
     0
102
RTVSPropertyOp62
 70
     0
  0
XRECORD
  5
8807
102
{ACAD_REACTORS
330
8806
102
}
330
8806
100
AcDbXrecord
280
     1
102
RTVSPost2010Prop28
280
     0
102
RTVSPost2010PropOp28
 70
     1
102
RTVSPost2010Prop29
280
     1
102
RTVSPost2010PropOp29
 70
     1
102
RTVSPost2010Prop30
280
     1
102
RTVSPost2010PropOp30
 70
     1
102
RTVSPost2010Prop31
280
     0
102
RTVSPost2010PropOp31
 70
     1
102
RTVSPost2010Prop32
280
     0
102
RTVSPost2010PropOp32
 70
     1
102
RTVSPost2010Prop33
280
     0
102
RTVSPost2010PropOp33
 70
     1
102
RTVSPost2010Prop34
280
     0
102
RTVSPost2010PropOp34
 70
     1
102
RTVSPost2010Prop35
280
     0
102
RTVSPost2010PropOp35
 70
     1
102
RTVSPost2010Prop36
280
     0
102
RTVSPost2010PropOp36
 70
     1
102
RTVSPost2010Prop37
 90
       50
102
RTVSPost2010PropOp37
 70
     1
102
RTVSPost2010Prop38
140
0.0
102
RTVSPost2010PropOp38
 70
     1
102
RTVSPost2010Prop39
140
1.0
102
RTVSPost2010PropOp39
 70
     1
102
RTVSPost2010Prop40
 90
        0
102
RTVSPost2010PropOp40
 70
     1
102
RTVSPost2010Prop41ColorIndex
 90
       18
102
RTVSPost2010Prop41ColorRGB
 90
        0
102
RTVSPost2010PropOp41
 70
     1
102
RTVSPost2010Prop42
 90
       50
102
RTVSPost2010PropOp42
 70
     1
102
RTVSPost2010Prop43
 90
        3
102
RTVSPost2010PropOp43
 70
     1
102
RTVSPost2010Prop44ColorIndex
 90
        5
102
RTVSPost2010Prop44ColorRGB
 90
      255
102
RTVSPost2010PropOp44
 70
     1
102
RTVSPost2010Prop45
280
     0
102
RTVSPost2010PropOp45
 70
     1
102
RTVSPost2010Prop46
 90
       50
102
RTVSPost2010PropOp46
 70
     1
102
RTVSPost2010Prop47
 90
       50
102
RTVSPost2010PropOp47
 70
     1
102
RTVSPost2010Prop48
 90
       50
102
RTVSPost2010PropOp48
 70
     1
102
RTVSPost2010Prop49
280
     0
102
RTVSPost2010PropOp49
 70
     1
102
RTVSPost2010Prop50
 90
       50
102
RTVSPost2010PropOp50
 70
     1
102
RTVSPost2010Prop51ColorIndex
 90
      256
102
RTVSPost2010Prop51ColorRGB
 90
-16777216
102
RTVSPost2010PropOp51
 70
     0
102
RTVSPost2010Prop52
140
1.0
102
RTVSPost2010PropOp52
 70
     0
102
RTVSPost2010Prop53
 90
        2
102
RTVSPost2010PropOp53
 70
     1
102
RTVSPost2010Prop54
  1
strokes_ogs.tif
102
RTVSPost2010PropOp54
 70
     1
102
RTVSPost2010Prop55
280
     0
102
RTVSPost2010PropOp55
 70
     1
102
RTVSPost2010Prop56
140
1.0
102
RTVSPost2010PropOp56
 70
     1
102
RTVSPost2010Prop57
140
1.0
102
RTVSPost2010PropOp57
 70
     1
102
RTVSPropertyOp0
 70
     1
102
RTVSPropertyOp1
 70
     1
102
RTVSPropertyOp2
 70
     1
102
RTVSPropertyOp3
 70
     1
102
RTVSPropertyOp4
 70
     1
102
RTVSPropertyOp5
 70
     1
102
RTVSPropertyOp6
 70
     1
102
RTVSPropertyOp7
 70
     1
102
RTVSPropertyOp8
 70
     1
102
RTVSPropertyOp9
 70
     1
102
RTVSPropertyOp10
 70
     1
102
RTVSPropertyOp11
 70
     1
102
RTVSPropertyOp12
 70
     1
102
RTVSPropertyOp13
 70
     1
102
RTVSPropertyOp14
 70
     1
102
RTVSPropertyOp15
 70
     1
102
RTVSPropertyOp16
 70
     1
102
RTVSPropertyOp17
 70
     1
102
RTVSPropertyOp18
 70
     1
102
RTVSPropertyOp19
 70
     1
102
RTVSPropertyOp20
 70
     1
102
RTVSPropertyOp21
 70
     1
102
RTVSPropertyOp22
 70
     1
102
RTVSPropertyOp23
 70
     1
102
RTVSPropertyOp24
 70
     1
102
RTVSPropertyOp25
 70
     1
102
RTVSPropertyOp26
 70
     1
102
RTVSPropertyOp27
 70
     1
102
RTVSPropertyOp28
 70
     1
102
RTVSPropertyOp29
 70
     1
102
RTVSPropertyOp30
 70
     1
102
RTVSPropertyOp31
 70
     1
102
RTVSPropertyOp32
 70
     1
102
RTVSPropertyOp33
 70
     1
102
RTVSPropertyOp34
 70
     1
102
RTVSPropertyOp35
 70
     1
102
RTVSPropertyOp36
 70
     1
102
RTVSPropertyOp37
 70
     1
102
RTVSPropertyOp38
 70
     1
102
RTVSPropertyOp39
 70
     1
102
RTVSPropertyOp40
 70
     1
102
RTVSPropertyOp41
 70
     1
102
RTVSPropertyOp42
 70
     1
102
RTVSPropertyOp43
 70
     1
102
RTVSPropertyOp44
 70
     1
102
RTVSPropertyOp45
 70
     1
102
RTVSPropertyOp46
 70
     1
102
RTVSPropertyOp47
 70
     1
102
RTVSPropertyOp48
 70
     1
102
RTVSPropertyOp49
 70
     1
102
RTVSPropertyOp50
 70
     1
102
RTVSPropertyOp51
 70
     0
102
RTVSPropertyOp52
 70
     0
102
RTVSPropertyOp53
 70
     1
102
RTVSPropertyOp54
 70
     1
102
RTVSPropertyOp55
 70
     1
102
RTVSPropertyOp56
 70
     1
102
RTVSPropertyOp57
 70
     1
102
RTVSPropertyOp58
 70
     1
102
RTVSPropertyOp59
 70
     1
102
RTVSPropertyOp60
 70
     1
102
RTVSPropertyOp61
 70
     1
102
RTVSPropertyOp62
 70
     1
  0
XRECORD
  5
8819
102
{ACAD_REACTORS
330
8818
102
}
330
8818
100
AcDbXrecord
280
     1
102
RTVSPost2010Prop28
280
     0
102
RTVSPost2010PropOp28
 70
     1
102
RTVSPost2010Prop29
280
     1
102
RTVSPost2010PropOp29
 70
     1
102
RTVSPost2010Prop30
280
     1
102
RTVSPost2010PropOp30
 70
     1
102
RTVSPost2010Prop31
280
     0
102
RTVSPost2010PropOp31
 70
     1
102
RTVSPost2010Prop32
280
     0
102
RTVSPost2010PropOp32
 70
     1
102
RTVSPost2010Prop33
280
     0
102
RTVSPost2010PropOp33
 70
     1
102
RTVSPost2010Prop34
280
     0
102
RTVSPost2010PropOp34
 70
     1
102
RTVSPost2010Prop35
280
     0
102
RTVSPost2010PropOp35
 70
     1
102
RTVSPost2010Prop36
280
     0
102
RTVSPost2010PropOp36
 70
     1
102
RTVSPost2010Prop37
 90
       50
102
RTVSPost2010PropOp37
 70
     0
102
RTVSPost2010Prop38
140
0.0
102
RTVSPost2010PropOp38
 70
     0
102
RTVSPost2010Prop39
140
1.0
102
RTVSPost2010PropOp39
 70
     0
102
RTVSPost2010Prop40
 90
        0
102
RTVSPost2010PropOp40
 70
     0
102
RTVSPost2010Prop41ColorIndex
 90
       18
102
RTVSPost2010Prop41ColorRGB
 90
        0
102
RTVSPost2010PropOp41
 70
     0
102
RTVSPost2010Prop42
 90
       50
102
RTVSPost2010PropOp42
 70
     0
102
RTVSPost2010Prop43
 90
        3
102
RTVSPost2010PropOp43
 70
     0
102
RTVSPost2010Prop44ColorIndex
 90
        5
102
RTVSPost2010Prop44ColorRGB
 90
      255
102
RTVSPost2010PropOp44
 70
     0
102
RTVSPost2010Prop45
280
     0
102
RTVSPost2010PropOp45
 70
     1
102
RTVSPost2010Prop46
 90
       50
102
RTVSPost2010PropOp46
 70
     0
102
RTVSPost2010Prop47
 90
       50
102
RTVSPost2010PropOp47
 70
     0
102
RTVSPost2010Prop48
 90
       50
102
RTVSPost2010PropOp48
 70
     0
102
RTVSPost2010Prop49
280
     0
102
RTVSPost2010PropOp49
 70
     1
102
RTVSPost2010Prop50
 90
       50
102
RTVSPost2010PropOp50
 70
     0
102
RTVSPost2010Prop51ColorIndex
 90
      256
102
RTVSPost2010Prop51ColorRGB
 90
-16777216
102
RTVSPost2010PropOp51
 70
     0
102
RTVSPost2010Prop52
140
1.0
102
RTVSPost2010PropOp52
 70
     0
102
RTVSPost2010Prop53
 90
        2
102
RTVSPost2010PropOp53
 70
     0
102
RTVSPost2010Prop54
  1
strokes_ogs.tif
102
RTVSPost2010PropOp54
 70
     0
102
RTVSPost2010Prop55
280
     0
102
RTVSPost2010PropOp55
 70
     1
102
RTVSPost2010Prop56
140
1.0
102
RTVSPost2010PropOp56
 70
     0
102
RTVSPost2010Prop57
140
1.0
102
RTVSPost2010PropOp57
 70
     0
102
RTVSPropertyOp0
 70
     0
102
RTVSPropertyOp1
 70
     0
102
RTVSPropertyOp2
 70
     0
102
RTVSPropertyOp3
 70
     0
102
RTVSPropertyOp4
 70
     0
102
RTVSPropertyOp5
 70
     0
102
RTVSPropertyOp6
 70
     0
102
RTVSPropertyOp7
 70
     0
102
RTVSPropertyOp8
 70
     0
102
RTVSPropertyOp9
 70
     0
102
RTVSPropertyOp10
 70
     0
102
RTVSPropertyOp11
 70
     0
102
RTVSPropertyOp12
 70
     0
102
RTVSPropertyOp13
 70
     0
102
RTVSPropertyOp14
 70
     2
102
RTVSPropertyOp15
 70
     0
102
RTVSPropertyOp16
 70
     0
102
RTVSPropertyOp17
 70
     0
102
RTVSPropertyOp18
 70
     0
102
RTVSPropertyOp19
 70
     0
102
RTVSPropertyOp20
 70
     0
102
RTVSPropertyOp21
 70
     0
102
RTVSPropertyOp22
 70
     0
102
RTVSPropertyOp23
 70
     0
102
RTVSPropertyOp24
 70
     0
102
RTVSPropertyOp25
 70
     0
102
RTVSPropertyOp26
 70
     0
102
RTVSPropertyOp27
 70
     0
102
RTVSPropertyOp28
 70
     1
102
RTVSPropertyOp29
 70
     1
102
RTVSPropertyOp30
 70
     1
102
RTVSPropertyOp31
 70
     1
102
RTVSPropertyOp32
 70
     1
102
RTVSPropertyOp33
 70
     1
102
RTVSPropertyOp34
 70
     1
102
RTVSPropertyOp35
 70
     1
102
RTVSPropertyOp36
 70
     1
102
RTVSPropertyOp37
 70
     0
102
RTVSPropertyOp38
 70
     0
102
RTVSPropertyOp39
 70
     0
102
RTVSPropertyOp40
 70
     0
102
RTVSPropertyOp41
 70
     0
102
RTVSPropertyOp42
 70
     0
102
RTVSPropertyOp43
 70
     0
102
RTVSPropertyOp44
 70
     0
102
RTVSPropertyOp45
 70
     1
102
RTVSPropertyOp46
 70
     0
102
RTVSPropertyOp47
 70
     0
102
RTVSPropertyOp48
 70
     0
102
RTVSPropertyOp49
 70
     1
102
RTVSPropertyOp50
 70
     0
102
RTVSPropertyOp51
 70
     0
102
RTVSPropertyOp52
 70
     0
102
RTVSPropertyOp53
 70
     0
102
RTVSPropertyOp54
 70
     0
102
RTVSPropertyOp55
 70
     1
102
RTVSPropertyOp56
 70
     0
102
RTVSPropertyOp57
 70
     0
102
RTVSPropertyOp58
 70
     0
102
RTVSPropertyOp59
 70
     0
102
RTVSPropertyOp60
 70
     0
102
RTVSPropertyOp61
 70
     0
102
RTVSPropertyOp62
 70
     0
  0
XRECORD
  5
87FF
102
{ACAD_REACTORS
330
87FE
102
}
330
87FE
100
AcDbXrecord
280
     1
102
RTVSPost2010Prop28
280
     0
102
RTVSPost2010PropOp28
 70
     1
102
RTVSPost2010Prop29
280
     1
102
RTVSPost2010PropOp29
 70
     1
102
RTVSPost2010Prop30
280
     1
102
RTVSPost2010PropOp30
 70
     1
102
RTVSPost2010Prop31
280
     0
102
RTVSPost2010PropOp31
 70
     1
102
RTVSPost2010Prop32
280
     0
102
RTVSPost2010PropOp32
 70
     1
102
RTVSPost2010Prop33
280
     0
102
RTVSPost2010PropOp33
 70
     1
102
RTVSPost2010Prop34
280
     0
102
RTVSPost2010PropOp34
 70
     1
102
RTVSPost2010Prop35
280
     0
102
RTVSPost2010PropOp35
 70
     1
102
RTVSPost2010Prop36
280
     0
102
RTVSPost2010PropOp36
 70
     1
102
RTVSPost2010Prop37
 90
       50
102
RTVSPost2010PropOp37
 70
     1
102
RTVSPost2010Prop38
140
0.0
102
RTVSPost2010PropOp38
 70
     1
102
RTVSPost2010Prop39
140
1.0
102
RTVSPost2010PropOp39
 70
     1
102
RTVSPost2010Prop40
 90
        0
102
RTVSPost2010PropOp40
 70
     1
102
RTVSPost2010Prop41ColorIndex
 90
       18
102
RTVSPost2010Prop41ColorRGB
 90
        0
102
RTVSPost2010PropOp41
 70
     1
102
RTVSPost2010Prop42
 90
       50
102
RTVSPost2010PropOp42
 70
     1
102
RTVSPost2010Prop43
 90
        3
102
RTVSPost2010PropOp43
 70
     1
102
RTVSPost2010Prop44ColorIndex
 90
        5
102
RTVSPost2010Prop44ColorRGB
 90
      255
102
RTVSPost2010PropOp44
 70
     1
102
RTVSPost2010Prop45
280
     0
102
RTVSPost2010PropOp45
 70
     1
102
RTVSPost2010Prop46
 90
       50
102
RTVSPost2010PropOp46
 70
     1
102
RTVSPost2010Prop47
 90
       50
102
RTVSPost2010PropOp47
 70
     1
102
RTVSPost2010Prop48
 90
       50
102
RTVSPost2010PropOp48
 70
     1
102
RTVSPost2010Prop49
280
     0
102
RTVSPost2010PropOp49
 70
     1
102
RTVSPost2010Prop50
 90
       50
102
RTVSPost2010PropOp50
 70
     1
102
RTVSPost2010Prop51ColorIndex
 90
      256
102
RTVSPost2010Prop51ColorRGB
 90
-16777216
102
RTVSPost2010PropOp51
 70
     0
102
RTVSPost2010Prop52
140
1.0
102
RTVSPost2010PropOp52
 70
     0
102
RTVSPost2010Prop53
 90
        2
102
RTVSPost2010PropOp53
 70
     1
102
RTVSPost2010Prop54
  1
strokes_ogs.tif
102
RTVSPost2010PropOp54
 70
     1
102
RTVSPost2010Prop55
280
     0
102
RTVSPost2010PropOp55
 70
     1
102
RTVSPost2010Prop56
140
1.0
102
RTVSPost2010PropOp56
 70
     1
102
RTVSPost2010Prop57
140
1.0
102
RTVSPost2010PropOp57
 70
     1
102
RTVSPropertyOp0
 70
     1
102
RTVSPropertyOp1
 70
     1
102
RTVSPropertyOp2
 70
     1
102
RTVSPropertyOp3
 70
     1
102
RTVSPropertyOp4
 70
     1
102
RTVSPropertyOp5
 70
     1
102
RTVSPropertyOp6
 70
     1
102
RTVSPropertyOp7
 70
     1
102
RTVSPropertyOp8
 70
     1
102
RTVSPropertyOp9
 70
     1
102
RTVSPropertyOp10
 70
     1
102
RTVSPropertyOp11
 70
     1
102
RTVSPropertyOp12
 70
     1
102
RTVSPropertyOp13
 70
     1
102
RTVSPropertyOp14
 70
     1
102
RTVSPropertyOp15
 70
     1
102
RTVSPropertyOp16
 70
     1
102
RTVSPropertyOp17
 70
     1
102
RTVSPropertyOp18
 70
     1
102
RTVSPropertyOp19
 70
     1
102
RTVSPropertyOp20
 70
     1
102
RTVSPropertyOp21
 70
     1
102
RTVSPropertyOp22
 70
     1
102
RTVSPropertyOp23
 70
     1
102
RTVSPropertyOp24
 70
     1
102
RTVSPropertyOp25
 70
     1
102
RTVSPropertyOp26
 70
     1
102
RTVSPropertyOp27
 70
     1
102
RTVSPropertyOp28
 70
     1
102
RTVSPropertyOp29
 70
     1
102
RTVSPropertyOp30
 70
     1
102
RTVSPropertyOp31
 70
     1
102
RTVSPropertyOp32
 70
     1
102
RTVSPropertyOp33
 70
     1
102
RTVSPropertyOp34
 70
     1
102
RTVSPropertyOp35
 70
     1
102
RTVSPropertyOp36
 70
     1
102
RTVSPropertyOp37
 70
     1
102
RTVSPropertyOp38
 70
     1
102
RTVSPropertyOp39
 70
     1
102
RTVSPropertyOp40
 70
     1
102
RTVSPropertyOp41
 70
     1
102
RTVSPropertyOp42
 70
     1
102
RTVSPropertyOp43
 70
     1
102
RTVSPropertyOp44
 70
     1
102
RTVSPropertyOp45
 70
     1
102
RTVSPropertyOp46
 70
     1
102
RTVSPropertyOp47
 70
     1
102
RTVSPropertyOp48
 70
     1
102
RTVSPropertyOp49
 70
     1
102
RTVSPropertyOp50
 70
     1
102
RTVSPropertyOp51
 70
     0
102
RTVSPropertyOp52
 70
     0
102
RTVSPropertyOp53
 70
     1
102
RTVSPropertyOp54
 70
     1
102
RTVSPropertyOp55
 70
     1
102
RTVSPropertyOp56
 70
     1
102
RTVSPropertyOp57
 70
     1
102
RTVSPropertyOp58
 70
     1
102
RTVSPropertyOp59
 70
     1
102
RTVSPropertyOp60
 70
     1
102
RTVSPropertyOp61
 70
     1
102
RTVSPropertyOp62
 70
     1
  0
XRECORD
  5
8815
102
{ACAD_REACTORS
330
8814
102
}
330
8814
100
AcDbXrecord
280
     1
102
RTVSPost2010Prop28
280
     0
102
RTVSPost2010PropOp28
 70
     1
102
RTVSPost2010Prop29
280
     1
102
RTVSPost2010PropOp29
 70
     1
102
RTVSPost2010Prop30
280
     1
102
RTVSPost2010PropOp30
 70
     1
102
RTVSPost2010Prop31
280
     0
102
RTVSPost2010PropOp31
 70
     1
102
RTVSPost2010Prop32
280
     0
102
RTVSPost2010PropOp32
 70
     1
102
RTVSPost2010Prop33
280
     0
102
RTVSPost2010PropOp33
 70
     1
102
RTVSPost2010Prop34
280
     0
102
RTVSPost2010PropOp34
 70
     1
102
RTVSPost2010Prop35
280
     0
102
RTVSPost2010PropOp35
 70
     1
102
RTVSPost2010Prop36
280
     0
102
RTVSPost2010PropOp36
 70
     1
102
RTVSPost2010Prop37
 90
       50
102
RTVSPost2010PropOp37
 70
     1
102
RTVSPost2010Prop38
140
0.0
102
RTVSPost2010PropOp38
 70
     1
102
RTVSPost2010Prop39
140
1.0
102
RTVSPost2010PropOp39
 70
     1
102
RTVSPost2010Prop40
 90
        0
102
RTVSPost2010PropOp40
 70
     1
102
RTVSPost2010Prop41ColorIndex
 90
       18
102
RTVSPost2010Prop41ColorRGB
 90
        0
102
RTVSPost2010PropOp41
 70
     1
102
RTVSPost2010Prop42
 90
       50
102
RTVSPost2010PropOp42
 70
     1
102
RTVSPost2010Prop43
 90
        3
102
RTVSPost2010PropOp43
 70
     1
102
RTVSPost2010Prop44ColorIndex
 90
        5
102
RTVSPost2010Prop44ColorRGB
 90
      255
102
RTVSPost2010PropOp44
 70
     1
102
RTVSPost2010Prop45
280
     0
102
RTVSPost2010PropOp45
 70
     1
102
RTVSPost2010Prop46
 90
       50
102
RTVSPost2010PropOp46
 70
     1
102
RTVSPost2010Prop47
 90
       50
102
RTVSPost2010PropOp47
 70
     1
102
RTVSPost2010Prop48
 90
       50
102
RTVSPost2010PropOp48
 70
     1
102
RTVSPost2010Prop49
280
     0
102
RTVSPost2010PropOp49
 70
     1
102
RTVSPost2010Prop50
 90
       50
102
RTVSPost2010PropOp50
 70
     1
102
RTVSPost2010Prop51ColorIndex
 90
      256
102
RTVSPost2010Prop51ColorRGB
 90
-16777216
102
RTVSPost2010PropOp51
 70
     0
102
RTVSPost2010Prop52
140
1.0
102
RTVSPost2010PropOp52
 70
     0
102
RTVSPost2010Prop53
 90
        2
102
RTVSPost2010PropOp53
 70
     1
102
RTVSPost2010Prop54
  1
strokes_ogs.tif
102
RTVSPost2010PropOp54
 70
     1
102
RTVSPost2010Prop55
280
     0
102
RTVSPost2010PropOp55
 70
     1
102
RTVSPost2010Prop56
140
1.0
102
RTVSPost2010PropOp56
 70
     1
102
RTVSPost2010Prop57
140
1.0
102
RTVSPost2010PropOp57
 70
     1
102
RTVSPropertyOp0
 70
     1
102
RTVSPropertyOp1
 70
     1
102
RTVSPropertyOp2
 70
     1
102
RTVSPropertyOp3
 70
     1
102
RTVSPropertyOp4
 70
     1
102
RTVSPropertyOp5
 70
     1
102
RTVSPropertyOp6
 70
     1
102
RTVSPropertyOp7
 70
     1
102
RTVSPropertyOp8
 70
     1
102
RTVSPropertyOp9
 70
     1
102
RTVSPropertyOp10
 70
     1
102
RTVSPropertyOp11
 70
     1
102
RTVSPropertyOp12
 70
     1
102
RTVSPropertyOp13
 70
     1
102
RTVSPropertyOp14
 70
     1
102
RTVSPropertyOp15
 70
     1
102
RTVSPropertyOp16
 70
     1
102
RTVSPropertyOp17
 70
     1
102
RTVSPropertyOp18
 70
     1
102
RTVSPropertyOp19
 70
     1
102
RTVSPropertyOp20
 70
     1
102
RTVSPropertyOp21
 70
     1
102
RTVSPropertyOp22
 70
     1
102
RTVSPropertyOp23
 70
     1
102
RTVSPropertyOp24
 70
     1
102
RTVSPropertyOp25
 70
     1
102
RTVSPropertyOp26
 70
     1
102
RTVSPropertyOp27
 70
     1
102
RTVSPropertyOp28
 70
     1
102
RTVSPropertyOp29
 70
     1
102
RTVSPropertyOp30
 70
     1
102
RTVSPropertyOp31
 70
     1
102
RTVSPropertyOp32
 70
     1
102
RTVSPropertyOp33
 70
     1
102
RTVSPropertyOp34
 70
     1
102
RTVSPropertyOp35
 70
     1
102
RTVSPropertyOp36
 70
     1
102
RTVSPropertyOp37
 70
     1
102
RTVSPropertyOp38
 70
     1
102
RTVSPropertyOp39
 70
     1
102
RTVSPropertyOp40
 70
     1
102
RTVSPropertyOp41
 70
     1
102
RTVSPropertyOp42
 70
     1
102
RTVSPropertyOp43
 70
     1
102
RTVSPropertyOp44
 70
     1
102
RTVSPropertyOp45
 70
     1
102
RTVSPropertyOp46
 70
     1
102
RTVSPropertyOp47
 70
     1
102
RTVSPropertyOp48
 70
     1
102
RTVSPropertyOp49
 70
     1
102
RTVSPropertyOp50
 70
     1
102
RTVSPropertyOp51
 70
     0
102
RTVSPropertyOp52
 70
     0
102
RTVSPropertyOp53
 70
     1
102
RTVSPropertyOp54
 70
     1
102
RTVSPropertyOp55
 70
     1
102
RTVSPropertyOp56
 70
     1
102
RTVSPropertyOp57
 70
     1
102
RTVSPropertyOp58
 70
     1
102
RTVSPropertyOp59
 70
     1
102
RTVSPropertyOp60
 70
     1
102
RTVSPropertyOp61
 70
     1
102
RTVSPropertyOp62
 70
     1
  0
XRECORD
  5
8813
102
{ACAD_REACTORS
330
8812
102
}
330
8812
100
AcDbXrecord
280
     1
102
RTVSPost2010Prop28
280
     0
102
RTVSPost2010PropOp28
 70
     1
102
RTVSPost2010Prop29
280
     1
102
RTVSPost2010PropOp29
 70
     1
102
RTVSPost2010Prop30
280
     1
102
RTVSPost2010PropOp30
 70
     1
102
RTVSPost2010Prop31
280
     0
102
RTVSPost2010PropOp31
 70
     1
102
RTVSPost2010Prop32
280
     0
102
RTVSPost2010PropOp32
 70
     1
102
RTVSPost2010Prop33
280
     0
102
RTVSPost2010PropOp33
 70
     1
102
RTVSPost2010Prop34
280
     0
102
RTVSPost2010PropOp34
 70
     1
102
RTVSPost2010Prop35
280
     0
102
RTVSPost2010PropOp35
 70
     1
102
RTVSPost2010Prop36
280
     0
102
RTVSPost2010PropOp36
 70
     1
102
RTVSPost2010Prop37
 90
       50
102
RTVSPost2010PropOp37
 70
     1
102
RTVSPost2010Prop38
140
0.0
102
RTVSPost2010PropOp38
 70
     1
102
RTVSPost2010Prop39
140
1.0
102
RTVSPost2010PropOp39
 70
     1
102
RTVSPost2010Prop40
 90
        0
102
RTVSPost2010PropOp40
 70
     1
102
RTVSPost2010Prop41ColorIndex
 90
       18
102
RTVSPost2010Prop41ColorRGB
 90
        0
102
RTVSPost2010PropOp41
 70
     1
102
RTVSPost2010Prop42
 90
       50
102
RTVSPost2010PropOp42
 70
     1
102
RTVSPost2010Prop43
 90
        3
102
RTVSPost2010PropOp43
 70
     1
102
RTVSPost2010Prop44ColorIndex
 90
        5
102
RTVSPost2010Prop44ColorRGB
 90
      255
102
RTVSPost2010PropOp44
 70
     1
102
RTVSPost2010Prop45
280
     0
102
RTVSPost2010PropOp45
 70
     1
102
RTVSPost2010Prop46
 90
       50
102
RTVSPost2010PropOp46
 70
     1
102
RTVSPost2010Prop47
 90
       50
102
RTVSPost2010PropOp47
 70
     1
102
RTVSPost2010Prop48
 90
       50
102
RTVSPost2010PropOp48
 70
     1
102
RTVSPost2010Prop49
280
     0
102
RTVSPost2010PropOp49
 70
     1
102
RTVSPost2010Prop50
 90
       50
102
RTVSPost2010PropOp50
 70
     1
102
RTVSPost2010Prop51ColorIndex
 90
      256
102
RTVSPost2010Prop51ColorRGB
 90
-16777216
102
RTVSPost2010PropOp51
 70
     0
102
RTVSPost2010Prop52
140
1.0
102
RTVSPost2010PropOp52
 70
     0
102
RTVSPost2010Prop53
 90
        2
102
RTVSPost2010PropOp53
 70
     1
102
RTVSPost2010Prop54
  1
strokes_ogs.tif
102
RTVSPost2010PropOp54
 70
     1
102
RTVSPost2010Prop55
280
     0
102
RTVSPost2010PropOp55
 70
     1
102
RTVSPost2010Prop56
140
1.0
102
RTVSPost2010PropOp56
 70
     1
102
RTVSPost2010Prop57
140
1.0
102
RTVSPost2010PropOp57
 70
     1
102
RTVSPropertyOp0
 70
     1
102
RTVSPropertyOp1
 70
     1
102
RTVSPropertyOp2
 70
     1
102
RTVSPropertyOp3
 70
     1
102
RTVSPropertyOp4
 70
     1
102
RTVSPropertyOp5
 70
     1
102
RTVSPropertyOp6
 70
     1
102
RTVSPropertyOp7
 70
     1
102
RTVSPropertyOp8
 70
     1
102
RTVSPropertyOp9
 70
     1
102
RTVSPropertyOp10
 70
     1
102
RTVSPropertyOp11
 70
     1
102
RTVSPropertyOp12
 70
     1
102
RTVSPropertyOp13
 70
     1
102
RTVSPropertyOp14
 70
     1
102
RTVSPropertyOp15
 70
     1
102
RTVSPropertyOp16
 70
     1
102
RTVSPropertyOp17
 70
     1
102
RTVSPropertyOp18
 70
     1
102
RTVSPropertyOp19
 70
     1
102
RTVSPropertyOp20
 70
     1
102
RTVSPropertyOp21
 70
     1
102
RTVSPropertyOp22
 70
     1
102
RTVSPropertyOp23
 70
     1
102
RTVSPropertyOp24
 70
     1
102
RTVSPropertyOp25
 70
     1
102
RTVSPropertyOp26
 70
     1
102
RTVSPropertyOp27
 70
     1
102
RTVSPropertyOp28
 70
     1
102
RTVSPropertyOp29
 70
     1
102
RTVSPropertyOp30
 70
     1
102
RTVSPropertyOp31
 70
     1
102
RTVSPropertyOp32
 70
     1
102
RTVSPropertyOp33
 70
     1
102
RTVSPropertyOp34
 70
     1
102
RTVSPropertyOp35
 70
     1
102
RTVSPropertyOp36
 70
     1
102
RTVSPropertyOp37
 70
     1
102
RTVSPropertyOp38
 70
     1
102
RTVSPropertyOp39
 70
     1
102
RTVSPropertyOp40
 70
     1
102
RTVSPropertyOp41
 70
     1
102
RTVSPropertyOp42
 70
     1
102
RTVSPropertyOp43
 70
     1
102
RTVSPropertyOp44
 70
     1
102
RTVSPropertyOp45
 70
     1
102
RTVSPropertyOp46
 70
     1
102
RTVSPropertyOp47
 70
     1
102
RTVSPropertyOp48
 70
     1
102
RTVSPropertyOp49
 70
     1
102
RTVSPropertyOp50
 70
     1
102
RTVSPropertyOp51
 70
     0
102
RTVSPropertyOp52
 70
     0
102
RTVSPropertyOp53
 70
     1
102
RTVSPropertyOp54
 70
     1
102
RTVSPropertyOp55
 70
     1
102
RTVSPropertyOp56
 70
     1
102
RTVSPropertyOp57
 70
     1
102
RTVSPropertyOp58
 70
     1
102
RTVSPropertyOp59
 70
     1
102
RTVSPropertyOp60
 70
     1
102
RTVSPropertyOp61
 70
     1
102
RTVSPropertyOp62
 70
     1
  0
XRECORD
  5
880D
102
{ACAD_REACTORS
330
880C
102
}
330
880C
100
AcDbXrecord
280
     1
102
RTVSPost2010Prop28
280
     0
102
RTVSPost2010PropOp28
 70
     1
102
RTVSPost2010Prop29
280
     1
102
RTVSPost2010PropOp29
 70
     1
102
RTVSPost2010Prop30
280
     1
102
RTVSPost2010PropOp30
 70
     1
102
RTVSPost2010Prop31
280
     0
102
RTVSPost2010PropOp31
 70
     1
102
RTVSPost2010Prop32
280
     0
102
RTVSPost2010PropOp32
 70
     1
102
RTVSPost2010Prop33
280
     0
102
RTVSPost2010PropOp33
 70
     1
102
RTVSPost2010Prop34
280
     0
102
RTVSPost2010PropOp34
 70
     1
102
RTVSPost2010Prop35
280
     0
102
RTVSPost2010PropOp35
 70
     1
102
RTVSPost2010Prop36
280
     0
102
RTVSPost2010PropOp36
 70
     1
102
RTVSPost2010Prop37
 90
       50
102
RTVSPost2010PropOp37
 70
     1
102
RTVSPost2010Prop38
140
0.0
102
RTVSPost2010PropOp38
 70
     1
102
RTVSPost2010Prop39
140
1.0
102
RTVSPost2010PropOp39
 70
     1
102
RTVSPost2010Prop40
 90
        0
102
RTVSPost2010PropOp40
 70
     1
102
RTVSPost2010Prop41ColorIndex
 90
       18
102
RTVSPost2010Prop41ColorRGB
 90
        0
102
RTVSPost2010PropOp41
 70
     1
102
RTVSPost2010Prop42
 90
       50
102
RTVSPost2010PropOp42
 70
     1
102
RTVSPost2010Prop43
 90
        3
102
RTVSPost2010PropOp43
 70
     1
102
RTVSPost2010Prop44ColorIndex
 90
        5
102
RTVSPost2010Prop44ColorRGB
 90
      255
102
RTVSPost2010PropOp44
 70
     1
102
RTVSPost2010Prop45
280
     0
102
RTVSPost2010PropOp45
 70
     1
102
RTVSPost2010Prop46
 90
       50
102
RTVSPost2010PropOp46
 70
     1
102
RTVSPost2010Prop47
 90
       50
102
RTVSPost2010PropOp47
 70
     1
102
RTVSPost2010Prop48
 90
       50
102
RTVSPost2010PropOp48
 70
     1
102
RTVSPost2010Prop49
280
     0
102
RTVSPost2010PropOp49
 70
     1
102
RTVSPost2010Prop50
 90
       50
102
RTVSPost2010PropOp50
 70
     1
102
RTVSPost2010Prop51ColorIndex
 90
      256
102
RTVSPost2010Prop51ColorRGB
 90
-16777216
102
RTVSPost2010PropOp51
 70
     0
102
RTVSPost2010Prop52
140
1.0
102
RTVSPost2010PropOp52
 70
     0
102
RTVSPost2010Prop53
 90
        2
102
RTVSPost2010PropOp53
 70
     1
102
RTVSPost2010Prop54
  1
strokes_ogs.tif
102
RTVSPost2010PropOp54
 70
     1
102
RTVSPost2010Prop55
280
     0
102
RTVSPost2010PropOp55
 70
     1
102
RTVSPost2010Prop56
140
1.0
102
RTVSPost2010PropOp56
 70
     1
102
RTVSPost2010Prop57
140
1.0
102
RTVSPost2010PropOp57
 70
     1
102
RTVSPropertyOp0
 70
     1
102
RTVSPropertyOp1
 70
     1
102
RTVSPropertyOp2
 70
     1
102
RTVSPropertyOp3
 70
     1
102
RTVSPropertyOp4
 70
     1
102
RTVSPropertyOp5
 70
     1
102
RTVSPropertyOp6
 70
     1
102
RTVSPropertyOp7
 70
     1
102
RTVSPropertyOp8
 70
     1
102
RTVSPropertyOp9
 70
     1
102
RTVSPropertyOp10
 70
     1
102
RTVSPropertyOp11
 70
     1
102
RTVSPropertyOp12
 70
     1
102
RTVSPropertyOp13
 70
     1
102
RTVSPropertyOp14
 70
     1
102
RTVSPropertyOp15
 70
     1
102
RTVSPropertyOp16
 70
     1
102
RTVSPropertyOp17
 70
     1
102
RTVSPropertyOp18
 70
     1
102
RTVSPropertyOp19
 70
     1
102
RTVSPropertyOp20
 70
     1
102
RTVSPropertyOp21
 70
     1
102
RTVSPropertyOp22
 70
     1
102
RTVSPropertyOp23
 70
     1
102
RTVSPropertyOp24
 70
     1
102
RTVSPropertyOp25
 70
     1
102
RTVSPropertyOp26
 70
     1
102
RTVSPropertyOp27
 70
     1
102
RTVSPropertyOp28
 70
     1
102
RTVSPropertyOp29
 70
     1
102
RTVSPropertyOp30
 70
     1
102
RTVSPropertyOp31
 70
     1
102
RTVSPropertyOp32
 70
     1
102
RTVSPropertyOp33
 70
     1
102
RTVSPropertyOp34
 70
     1
102
RTVSPropertyOp35
 70
     1
102
RTVSPropertyOp36
 70
     1
102
RTVSPropertyOp37
 70
     1
102
RTVSPropertyOp38
 70
     1
102
RTVSPropertyOp39
 70
     1
102
RTVSPropertyOp40
 70
     1
102
RTVSPropertyOp41
 70
     1
102
RTVSPropertyOp42
 70
     1
102
RTVSPropertyOp43
 70
     1
102
RTVSPropertyOp44
 70
     1
102
RTVSPropertyOp45
 70
     1
102
RTVSPropertyOp46
 70
     1
102
RTVSPropertyOp47
 70
     1
102
RTVSPropertyOp48
 70
     1
102
RTVSPropertyOp49
 70
     1
102
RTVSPropertyOp50
 70
     1
102
RTVSPropertyOp51
 70
     0
102
RTVSPropertyOp52
 70
     0
102
RTVSPropertyOp53
 70
     1
102
RTVSPropertyOp54
 70
     1
102
RTVSPropertyOp55
 70
     1
102
RTVSPropertyOp56
 70
     1
102
RTVSPropertyOp57
 70
     1
102
RTVSPropertyOp58
 70
     1
102
RTVSPropertyOp59
 70
     1
102
RTVSPropertyOp60
 70
     1
102
RTVSPropertyOp61
 70
     1
102
RTVSPropertyOp62
 70
     1
  0
XRECORD
  5
880F
102
{ACAD_REACTORS
330
880E
102
}
330
880E
100
AcDbXrecord
280
     1
102
RTVSPost2010Prop28
280
     0
102
RTVSPost2010PropOp28
 70
     1
102
RTVSPost2010Prop29
280
     1
102
RTVSPost2010PropOp29
 70
     1
102
RTVSPost2010Prop30
280
     1
102
RTVSPost2010PropOp30
 70
     1
102
RTVSPost2010Prop31
280
     0
102
RTVSPost2010PropOp31
 70
     1
102
RTVSPost2010Prop32
280
     0
102
RTVSPost2010PropOp32
 70
     1
102
RTVSPost2010Prop33
280
     0
102
RTVSPost2010PropOp33
 70
     1
102
RTVSPost2010Prop34
280
     0
102
RTVSPost2010PropOp34
 70
     1
102
RTVSPost2010Prop35
280
     0
102
RTVSPost2010PropOp35
 70
     1
102
RTVSPost2010Prop36
280
     0
102
RTVSPost2010PropOp36
 70
     1
102
RTVSPost2010Prop37
 90
       50
102
RTVSPost2010PropOp37
 70
     1
102
RTVSPost2010Prop38
140
0.0
102
RTVSPost2010PropOp38
 70
     1
102
RTVSPost2010Prop39
140
1.0
102
RTVSPost2010PropOp39
 70
     1
102
RTVSPost2010Prop40
 90
        0
102
RTVSPost2010PropOp40
 70
     1
102
RTVSPost2010Prop41ColorIndex
 90
       18
102
RTVSPost2010Prop41ColorRGB
 90
        0
102
RTVSPost2010PropOp41
 70
     1
102
RTVSPost2010Prop42
 90
       50
102
RTVSPost2010PropOp42
 70
     1
102
RTVSPost2010Prop43
 90
        3
102
RTVSPost2010PropOp43
 70
     1
102
RTVSPost2010Prop44ColorIndex
 90
        5
102
RTVSPost2010Prop44ColorRGB
 90
      255
102
RTVSPost2010PropOp44
 70
     1
102
RTVSPost2010Prop45
280
     0
102
RTVSPost2010PropOp45
 70
     1
102
RTVSPost2010Prop46
 90
       50
102
RTVSPost2010PropOp46
 70
     1
102
RTVSPost2010Prop47
 90
       50
102
RTVSPost2010PropOp47
 70
     1
102
RTVSPost2010Prop48
 90
       50
102
RTVSPost2010PropOp48
 70
     1
102
RTVSPost2010Prop49
280
     0
102
RTVSPost2010PropOp49
 70
     1
102
RTVSPost2010Prop50
 90
       50
102
RTVSPost2010PropOp50
 70
     1
102
RTVSPost2010Prop51ColorIndex
 90
      256
102
RTVSPost2010Prop51ColorRGB
 90
-16777216
102
RTVSPost2010PropOp51
 70
     0
102
RTVSPost2010Prop52
140
1.0
102
RTVSPost2010PropOp52
 70
     0
102
RTVSPost2010Prop53
 90
        2
102
RTVSPost2010PropOp53
 70
     1
102
RTVSPost2010Prop54
  1
strokes_ogs.tif
102
RTVSPost2010PropOp54
 70
     1
102
RTVSPost2010Prop55
280
     0
102
RTVSPost2010PropOp55
 70
     1
102
RTVSPost2010Prop56
140
1.0
102
RTVSPost2010PropOp56
 70
     1
102
RTVSPost2010Prop57
140
1.0
102
RTVSPost2010PropOp57
 70
     1
102
RTVSPropertyOp0
 70
     1
102
RTVSPropertyOp1
 70
     1
102
RTVSPropertyOp2
 70
     1
102
RTVSPropertyOp3
 70
     1
102
RTVSPropertyOp4
 70
     1
102
RTVSPropertyOp5
 70
     1
102
RTVSPropertyOp6
 70
     1
102
RTVSPropertyOp7
 70
     1
102
RTVSPropertyOp8
 70
     1
102
RTVSPropertyOp9
 70
     1
102
RTVSPropertyOp10
 70
     1
102
RTVSPropertyOp11
 70
     1
102
RTVSPropertyOp12
 70
     1
102
RTVSPropertyOp13
 70
     1
102
RTVSPropertyOp14
 70
     1
102
RTVSPropertyOp15
 70
     1
102
RTVSPropertyOp16
 70
     1
102
RTVSPropertyOp17
 70
     1
102
RTVSPropertyOp18
 70
     1
102
RTVSPropertyOp19
 70
     1
102
RTVSPropertyOp20
 70
     1
102
RTVSPropertyOp21
 70
     1
102
RTVSPropertyOp22
 70
     1
102
RTVSPropertyOp23
 70
     1
102
RTVSPropertyOp24
 70
     1
102
RTVSPropertyOp25
 70
     1
102
RTVSPropertyOp26
 70
     1
102
RTVSPropertyOp27
 70
     1
102
RTVSPropertyOp28
 70
     1
102
RTVSPropertyOp29
 70
     1
102
RTVSPropertyOp30
 70
     1
102
RTVSPropertyOp31
 70
     1
102
RTVSPropertyOp32
 70
     1
102
RTVSPropertyOp33
 70
     1
102
RTVSPropertyOp34
 70
     1
102
RTVSPropertyOp35
 70
     1
102
RTVSPropertyOp36
 70
     1
102
RTVSPropertyOp37
 70
     1
102
RTVSPropertyOp38
 70
     1
102
RTVSPropertyOp39
 70
     1
102
RTVSPropertyOp40
 70
     1
102
RTVSPropertyOp41
 70
     1
102
RTVSPropertyOp42
 70
     1
102
RTVSPropertyOp43
 70
     1
102
RTVSPropertyOp44
 70
     1
102
RTVSPropertyOp45
 70
     1
102
RTVSPropertyOp46
 70
     1
102
RTVSPropertyOp47
 70
     1
102
RTVSPropertyOp48
 70
     1
102
RTVSPropertyOp49
 70
     1
102
RTVSPropertyOp50
 70
     1
102
RTVSPropertyOp51
 70
     0
102
RTVSPropertyOp52
 70
     0
102
RTVSPropertyOp53
 70
     1
102
RTVSPropertyOp54
 70
     1
102
RTVSPropertyOp55
 70
     1
102
RTVSPropertyOp56
 70
     1
102
RTVSPropertyOp57
 70
     1
102
RTVSPropertyOp58
 70
     1
102
RTVSPropertyOp59
 70
     1
102
RTVSPropertyOp60
 70
     1
102
RTVSPropertyOp61
 70
     1
102
RTVSPropertyOp62
 70
     1
  0
XRECORD
  5
8805
102
{ACAD_REACTORS
330
8804
102
}
330
8804
100
AcDbXrecord
280
     1
102
RTVSPost2010Prop28
280
     0
102
RTVSPost2010PropOp28
 70
     1
102
RTVSPost2010Prop29
280
     1
102
RTVSPost2010PropOp29
 70
     1
102
RTVSPost2010Prop30
280
     1
102
RTVSPost2010PropOp30
 70
     1
102
RTVSPost2010Prop31
280
     0
102
RTVSPost2010PropOp31
 70
     1
102
RTVSPost2010Prop32
280
     0
102
RTVSPost2010PropOp32
 70
     1
102
RTVSPost2010Prop33
280
     0
102
RTVSPost2010PropOp33
 70
     1
102
RTVSPost2010Prop34
280
     0
102
RTVSPost2010PropOp34
 70
     1
102
RTVSPost2010Prop35
280
     0
102
RTVSPost2010PropOp35
 70
     1
102
RTVSPost2010Prop36
280
     0
102
RTVSPost2010PropOp36
 70
     1
102
RTVSPost2010Prop37
 90
       50
102
RTVSPost2010PropOp37
 70
     1
102
RTVSPost2010Prop38
140
0.0
102
RTVSPost2010PropOp38
 70
     1
102
RTVSPost2010Prop39
140
1.0
102
RTVSPost2010PropOp39
 70
     1
102
RTVSPost2010Prop40
 90
        0
102
RTVSPost2010PropOp40
 70
     1
102
RTVSPost2010Prop41ColorIndex
 90
       18
102
RTVSPost2010Prop41ColorRGB
 90
        0
102
RTVSPost2010PropOp41
 70
     1
102
RTVSPost2010Prop42
 90
       50
102
RTVSPost2010PropOp42
 70
     1
102
RTVSPost2010Prop43
 90
        3
102
RTVSPost2010PropOp43
 70
     1
102
RTVSPost2010Prop44ColorIndex
 90
        5
102
RTVSPost2010Prop44ColorRGB
 90
      255
102
RTVSPost2010PropOp44
 70
     1
102
RTVSPost2010Prop45
280
     0
102
RTVSPost2010PropOp45
 70
     1
102
RTVSPost2010Prop46
 90
       50
102
RTVSPost2010PropOp46
 70
     1
102
RTVSPost2010Prop47
 90
       50
102
RTVSPost2010PropOp47
 70
     1
102
RTVSPost2010Prop48
 90
       50
102
RTVSPost2010PropOp48
 70
     1
102
RTVSPost2010Prop49
280
     0
102
RTVSPost2010PropOp49
 70
     1
102
RTVSPost2010Prop50
 90
       50
102
RTVSPost2010PropOp50
 70
     1
102
RTVSPost2010Prop51ColorIndex
 90
      256
102
RTVSPost2010Prop51ColorRGB
 90
-16777216
102
RTVSPost2010PropOp51
 70
     0
102
RTVSPost2010Prop52
140
1.0
102
RTVSPost2010PropOp52
 70
     0
102
RTVSPost2010Prop53
 90
        2
102
RTVSPost2010PropOp53
 70
     1
102
RTVSPost2010Prop54
  1
strokes_ogs.tif
102
RTVSPost2010PropOp54
 70
     1
102
RTVSPost2010Prop55
280
     0
102
RTVSPost2010PropOp55
 70
     1
102
RTVSPost2010Prop56
140
1.0
102
RTVSPost2010PropOp56
 70
     1
102
RTVSPost2010Prop57
140
1.0
102
RTVSPost2010PropOp57
 70
     1
102
RTVSPropertyOp0
 70
     1
102
RTVSPropertyOp1
 70
     1
102
RTVSPropertyOp2
 70
     1
102
RTVSPropertyOp3
 70
     1
102
RTVSPropertyOp4
 70
     1
102
RTVSPropertyOp5
 70
     1
102
RTVSPropertyOp6
 70
     1
102
RTVSPropertyOp7
 70
     1
102
RTVSPropertyOp8
 70
     1
102
RTVSPropertyOp9
 70
     1
102
RTVSPropertyOp10
 70
     1
102
RTVSPropertyOp11
 70
     1
102
RTVSPropertyOp12
 70
     1
102
RTVSPropertyOp13
 70
     1
102
RTVSPropertyOp14
 70
     1
102
RTVSPropertyOp15
 70
     1
102
RTVSPropertyOp16
 70
     1
102
RTVSPropertyOp17
 70
     1
102
RTVSPropertyOp18
 70
     1
102
RTVSPropertyOp19
 70
     1
102
RTVSPropertyOp20
 70
     1
102
RTVSPropertyOp21
 70
     1
102
RTVSPropertyOp22
 70
     1
102
RTVSPropertyOp23
 70
     1
102
RTVSPropertyOp24
 70
     1
102
RTVSPropertyOp25
 70
     1
102
RTVSPropertyOp26
 70
     1
102
RTVSPropertyOp27
 70
     1
102
RTVSPropertyOp28
 70
     1
102
RTVSPropertyOp29
 70
     1
102
RTVSPropertyOp30
 70
     1
102
RTVSPropertyOp31
 70
     1
102
RTVSPropertyOp32
 70
     1
102
RTVSPropertyOp33
 70
     1
102
RTVSPropertyOp34
 70
     1
102
RTVSPropertyOp35
 70
     1
102
RTVSPropertyOp36
 70
     1
102
RTVSPropertyOp37
 70
     1
102
RTVSPropertyOp38
 70
     1
102
RTVSPropertyOp39
 70
     1
102
RTVSPropertyOp40
 70
     1
102
RTVSPropertyOp41
 70
     1
102
RTVSPropertyOp42
 70
     1
102
RTVSPropertyOp43
 70
     1
102
RTVSPropertyOp44
 70
     1
102
RTVSPropertyOp45
 70
     1
102
RTVSPropertyOp46
 70
     1
102
RTVSPropertyOp47
 70
     1
102
RTVSPropertyOp48
 70
     1
102
RTVSPropertyOp49
 70
     1
102
RTVSPropertyOp50
 70
     1
102
RTVSPropertyOp51
 70
     0
102
RTVSPropertyOp52
 70
     0
102
RTVSPropertyOp53
 70
     1
102
RTVSPropertyOp54
 70
     1
102
RTVSPropertyOp55
 70
     1
102
RTVSPropertyOp56
 70
     1
102
RTVSPropertyOp57
 70
     1
102
RTVSPropertyOp58
 70
     1
102
RTVSPropertyOp59
 70
     1
102
RTVSPropertyOp60
 70
     1
102
RTVSPropertyOp61
 70
     1
102
RTVSPropertyOp62
 70
     1
  0
XRECORD
  5
87F9
102
{ACAD_REACTORS
330
87F8
102
}
330
87F8
100
AcDbXrecord
280
     1
102
RTVSPost2010Prop28
280
     0
102
RTVSPost2010PropOp28
 70
     1
102
RTVSPost2010Prop29
280
     1
102
RTVSPost2010PropOp29
 70
     1
102
RTVSPost2010Prop30
280
     1
102
RTVSPost2010PropOp30
 70
     1
102
RTVSPost2010Prop31
280
     0
102
RTVSPost2010PropOp31
 70
     1
102
RTVSPost2010Prop32
280
     0
102
RTVSPost2010PropOp32
 70
     1
102
RTVSPost2010Prop33
280
     0
102
RTVSPost2010PropOp33
 70
     1
102
RTVSPost2010Prop34
280
     0
102
RTVSPost2010PropOp34
 70
     1
102
RTVSPost2010Prop35
280
     0
102
RTVSPost2010PropOp35
 70
     1
102
RTVSPost2010Prop36
280
     0
102
RTVSPost2010PropOp36
 70
     1
102
RTVSPost2010Prop37
 90
       50
102
RTVSPost2010PropOp37
 70
     1
102
RTVSPost2010Prop38
140
0.0
102
RTVSPost2010PropOp38
 70
     1
102
RTVSPost2010Prop39
140
1.0
102
RTVSPost2010PropOp39
 70
     1
102
RTVSPost2010Prop40
 90
        0
102
RTVSPost2010PropOp40
 70
     1
102
RTVSPost2010Prop41ColorIndex
 90
       18
102
RTVSPost2010Prop41ColorRGB
 90
        0
102
RTVSPost2010PropOp41
 70
     1
102
RTVSPost2010Prop42
 90
       50
102
RTVSPost2010PropOp42
 70
     1
102
RTVSPost2010Prop43
 90
        3
102
RTVSPost2010PropOp43
 70
     1
102
RTVSPost2010Prop44ColorIndex
 90
        5
102
RTVSPost2010Prop44ColorRGB
 90
      255
102
RTVSPost2010PropOp44
 70
     1
102
RTVSPost2010Prop45
280
     0
102
RTVSPost2010PropOp45
 70
     1
102
RTVSPost2010Prop46
 90
       50
102
RTVSPost2010PropOp46
 70
     1
102
RTVSPost2010Prop47
 90
       50
102
RTVSPost2010PropOp47
 70
     1
102
RTVSPost2010Prop48
 90
       50
102
RTVSPost2010PropOp48
 70
     1
102
RTVSPost2010Prop49
280
     0
102
RTVSPost2010PropOp49
 70
     1
102
RTVSPost2010Prop50
 90
       50
102
RTVSPost2010PropOp50
 70
     1
102
RTVSPost2010Prop51ColorIndex
 90
      256
102
RTVSPost2010Prop51ColorRGB
 90
-16777216
102
RTVSPost2010PropOp51
 70
     0
102
RTVSPost2010Prop52
140
1.0
102
RTVSPost2010PropOp52
 70
     0
102
RTVSPost2010Prop53
 90
        2
102
RTVSPost2010PropOp53
 70
     1
102
RTVSPost2010Prop54
  1
strokes_ogs.tif
102
RTVSPost2010PropOp54
 70
     1
102
RTVSPost2010Prop55
280
     0
102
RTVSPost2010PropOp55
 70
     1
102
RTVSPost2010Prop56
140
1.0
102
RTVSPost2010PropOp56
 70
     1
102
RTVSPost2010Prop57
140
1.0
102
RTVSPost2010PropOp57
 70
     1
102
RTVSPropertyOp0
 70
     1
102
RTVSPropertyOp1
 70
     1
102
RTVSPropertyOp2
 70
     1
102
RTVSPropertyOp3
 70
     1
102
RTVSPropertyOp4
 70
     1
102
RTVSPropertyOp5
 70
     1
102
RTVSPropertyOp6
 70
     1
102
RTVSPropertyOp7
 70
     1
102
RTVSPropertyOp8
 70
     1
102
RTVSPropertyOp9
 70
     1
102
RTVSPropertyOp10
 70
     1
102
RTVSPropertyOp11
 70
     1
102
RTVSPropertyOp12
 70
     1
102
RTVSPropertyOp13
 70
     1
102
RTVSPropertyOp14
 70
     1
102
RTVSPropertyOp15
 70
     1
102
RTVSPropertyOp16
 70
     1
102
RTVSPropertyOp17
 70
     1
102
RTVSPropertyOp18
 70
     1
102
RTVSPropertyOp19
 70
     1
102
RTVSPropertyOp20
 70
     1
102
RTVSPropertyOp21
 70
     1
102
RTVSPropertyOp22
 70
     1
102
RTVSPropertyOp23
 70
     1
102
RTVSPropertyOp24
 70
     1
102
RTVSPropertyOp25
 70
     1
102
RTVSPropertyOp26
 70
     1
102
RTVSPropertyOp27
 70
     1
102
RTVSPropertyOp28
 70
     1
102
RTVSPropertyOp29
 70
     1
102
RTVSPropertyOp30
 70
     1
102
RTVSPropertyOp31
 70
     1
102
RTVSPropertyOp32
 70
     1
102
RTVSPropertyOp33
 70
     1
102
RTVSPropertyOp34
 70
     1
102
RTVSPropertyOp35
 70
     1
102
RTVSPropertyOp36
 70
     1
102
RTVSPropertyOp37
 70
     1
102
RTVSPropertyOp38
 70
     1
102
RTVSPropertyOp39
 70
     1
102
RTVSPropertyOp40
 70
     1
102
RTVSPropertyOp41
 70
     1
102
RTVSPropertyOp42
 70
     1
102
RTVSPropertyOp43
 70
     1
102
RTVSPropertyOp44
 70
     1
102
RTVSPropertyOp45
 70
     1
102
RTVSPropertyOp46
 70
     1
102
RTVSPropertyOp47
 70
     1
102
RTVSPropertyOp48
 70
     1
102
RTVSPropertyOp49
 70
     1
102
RTVSPropertyOp50
 70
     1
102
RTVSPropertyOp51
 70
     0
102
RTVSPropertyOp52
 70
     0
102
RTVSPropertyOp53
 70
     1
102
RTVSPropertyOp54
 70
     1
102
RTVSPropertyOp55
 70
     1
102
RTVSPropertyOp56
 70
     1
102
RTVSPropertyOp57
 70
     1
102
RTVSPropertyOp58
 70
     1
102
RTVSPropertyOp59
 70
     1
102
RTVSPropertyOp60
 70
     1
102
RTVSPropertyOp61
 70
     1
102
RTVSPropertyOp62
 70
     1
  0
XRECORD
  5
8811
102
{ACAD_REACTORS
330
8810
102
}
330
8810
100
AcDbXrecord
280
     1
102
RTVSPost2010Prop28
280
     0
102
RTVSPost2010PropOp28
 70
     1
102
RTVSPost2010Prop29
280
     1
102
RTVSPost2010PropOp29
 70
     1
102
RTVSPost2010Prop30
280
     1
102
RTVSPost2010PropOp30
 70
     1
102
RTVSPost2010Prop31
280
     0
102
RTVSPost2010PropOp31
 70
     1
102
RTVSPost2010Prop32
280
     0
102
RTVSPost2010PropOp32
 70
     1
102
RTVSPost2010Prop33
280
     0
102
RTVSPost2010PropOp33
 70
     1
102
RTVSPost2010Prop34
280
     0
102
RTVSPost2010PropOp34
 70
     1
102
RTVSPost2010Prop35
280
     0
102
RTVSPost2010PropOp35
 70
     1
102
RTVSPost2010Prop36
280
     0
102
RTVSPost2010PropOp36
 70
     1
102
RTVSPost2010Prop37
 90
       50
102
RTVSPost2010PropOp37
 70
     1
102
RTVSPost2010Prop38
140
0.0
102
RTVSPost2010PropOp38
 70
     1
102
RTVSPost2010Prop39
140
1.0
102
RTVSPost2010PropOp39
 70
     1
102
RTVSPost2010Prop40
 90
        0
102
RTVSPost2010PropOp40
 70
     1
102
RTVSPost2010Prop41ColorIndex
 90
       18
102
RTVSPost2010Prop41ColorRGB
 90
        0
102
RTVSPost2010PropOp41
 70
     1
102
RTVSPost2010Prop42
 90
       50
102
RTVSPost2010PropOp42
 70
     1
102
RTVSPost2010Prop43
 90
        3
102
RTVSPost2010PropOp43
 70
     1
102
RTVSPost2010Prop44ColorIndex
 90
        5
102
RTVSPost2010Prop44ColorRGB
 90
      255
102
RTVSPost2010PropOp44
 70
     1
102
RTVSPost2010Prop45
280
     0
102
RTVSPost2010PropOp45
 70
     1
102
RTVSPost2010Prop46
 90
       50
102
RTVSPost2010PropOp46
 70
     1
102
RTVSPost2010Prop47
 90
       50
102
RTVSPost2010PropOp47
 70
     1
102
RTVSPost2010Prop48
 90
       50
102
RTVSPost2010PropOp48
 70
     1
102
RTVSPost2010Prop49
280
     0
102
RTVSPost2010PropOp49
 70
     1
102
RTVSPost2010Prop50
 90
       50
102
RTVSPost2010PropOp50
 70
     1
102
RTVSPost2010Prop51ColorIndex
 90
      256
102
RTVSPost2010Prop51ColorRGB
 90
-16777216
102
RTVSPost2010PropOp51
 70
     0
102
RTVSPost2010Prop52
140
1.0
102
RTVSPost2010PropOp52
 70
     0
102
RTVSPost2010Prop53
 90
        2
102
RTVSPost2010PropOp53
 70
     1
102
RTVSPost2010Prop54
  1
strokes_ogs.tif
102
RTVSPost2010PropOp54
 70
     1
102
RTVSPost2010Prop55
280
     0
102
RTVSPost2010PropOp55
 70
     1
102
RTVSPost2010Prop56
140
1.0
102
RTVSPost2010PropOp56
 70
     1
102
RTVSPost2010Prop57
140
1.0
102
RTVSPost2010PropOp57
 70
     1
102
RTVSPropertyOp0
 70
     1
102
RTVSPropertyOp1
 70
     1
102
RTVSPropertyOp2
 70
     1
102
RTVSPropertyOp3
 70
     1
102
RTVSPropertyOp4
 70
     1
102
RTVSPropertyOp5
 70
     1
102
RTVSPropertyOp6
 70
     1
102
RTVSPropertyOp7
 70
     1
102
RTVSPropertyOp8
 70
     1
102
RTVSPropertyOp9
 70
     1
102
RTVSPropertyOp10
 70
     1
102
RTVSPropertyOp11
 70
     1
102
RTVSPropertyOp12
 70
     1
102
RTVSPropertyOp13
 70
     1
102
RTVSPropertyOp14
 70
     1
102
RTVSPropertyOp15
 70
     1
102
RTVSPropertyOp16
 70
     1
102
RTVSPropertyOp17
 70
     1
102
RTVSPropertyOp18
 70
     1
102
RTVSPropertyOp19
 70
     1
102
RTVSPropertyOp20
 70
     1
102
RTVSPropertyOp21
 70
     1
102
RTVSPropertyOp22
 70
     1
102
RTVSPropertyOp23
 70
     1
102
RTVSPropertyOp24
 70
     1
102
RTVSPropertyOp25
 70
     1
102
RTVSPropertyOp26
 70
     1
102
RTVSPropertyOp27
 70
     1
102
RTVSPropertyOp28
 70
     1
102
RTVSPropertyOp29
 70
     1
102
RTVSPropertyOp30
 70
     1
102
RTVSPropertyOp31
 70
     1
102
RTVSPropertyOp32
 70
     1
102
RTVSPropertyOp33
 70
     1
102
RTVSPropertyOp34
 70
     1
102
RTVSPropertyOp35
 70
     1
102
RTVSPropertyOp36
 70
     1
102
RTVSPropertyOp37
 70
     1
102
RTVSPropertyOp38
 70
     1
102
RTVSPropertyOp39
 70
     1
102
RTVSPropertyOp40
 70
     1
102
RTVSPropertyOp41
 70
     1
102
RTVSPropertyOp42
 70
     1
102
RTVSPropertyOp43
 70
     1
102
RTVSPropertyOp44
 70
     1
102
RTVSPropertyOp45
 70
     1
102
RTVSPropertyOp46
 70
     1
102
RTVSPropertyOp47
 70
     1
102
RTVSPropertyOp48
 70
     1
102
RTVSPropertyOp49
 70
     1
102
RTVSPropertyOp50
 70
     1
102
RTVSPropertyOp51
 70
     0
102
RTVSPropertyOp52
 70
     0
102
RTVSPropertyOp53
 70
     1
102
RTVSPropertyOp54
 70
     1
102
RTVSPropertyOp55
 70
     1
102
RTVSPropertyOp56
 70
     1
102
RTVSPropertyOp57
 70
     1
102
RTVSPropertyOp58
 70
     1
102
RTVSPropertyOp59
 70
     1
102
RTVSPropertyOp60
 70
     1
102
RTVSPropertyOp61
 70
     1
102
RTVSPropertyOp62
 70
     1
  0
ENDSEC
  0
EOF
