  0
SECTION
  2
HEADER
  9
$ACADVER
  1
AC1015
  9
$ACADMAINTVER
 70
    20
  9
$DWGCODEPAGE
  3
ANSI_932
  9
$INSBASE
 10
0.0
 20
0.0
 30
0.0
  9
$EXTMIN
 10
-0.2563280987742473
 20
-0.3600799482810544
 30
-0.0015258207003583
  9
$EXTMAX
 10
8400.256367214323
 20
11800.3601348963
 30
0.0000000349246037
  9
$LIMMIN
 10
0.0
 20
0.0
  9
$LIMMAX
 10
297.0
 20
210.0
  9
$ORTHOMODE
 70
     1
  9
$REGENMODE
 70
     1
  9
$FILLMODE
 70
     0
  9
$QTEXTMODE
 70
     0
  9
$MIRRTEXT
 70
     1
  9
$LTSCALE
 40
100.0
  9
$ATTMODE
 70
     1
  9
$TEXTSIZE
 40
180.0
  9
$TRACEWID
 40
0.05
  9
$TEXTSTYLE
  7
STANDARD
  9
$CLAYER
  8
3
  9
$CELTYPE
  6
ByLayer
  9
$CECOLOR
 62
   256
  9
$CELTSCALE
 40
1.0
  9
$DISPSILH
 70
     0
  9
$DIMSCALE
 40
40.0
  9
$DIMASZ
 40
2.0
  9
$DIMEXO
 40
0.5
  9
$DIMDLI
 40
10.0
  9
$DIMRND
 40
0.0
  9
$DIMDLE
 40
0.0
  9
$DIMEXE
 40
1.0
  9
$DIMTP
 40
1.0
  9
$DIMTM
 40
1.0
  9
$DIMTXT
 40
3.0
  9
$DIMCEN
 40
0.0
  9
$DIMTSZ
 40
0.0
  9
$DIMTOL
 70
     0
  9
$DIMLIM
 70
     0
  9
$DIMTIH
 70
     0
  9
$DIMTOH
 70
     0
  9
$DIMSE1
 70
     0
  9
$DIMSE2
 70
     0
  9
$DIMTAD
 70
     1
  9
$DIMZIN
 70
     8
  9
$DIMBLK
  1

  9
$DIMASO
 70
     1
  9
$DIMSHO
 70
     1
  9
$DIMPOST
  1

  9
$DIMAPOST
  1

  9
$DIMALT
 70
     0
  9
$DIMALTD
 70
     2
  9
$DIMALTF
 40
0.039
  9
$DIMLFAC
 40
1.0
  9
$DIMTOFL
 70
     1
  9
$DIMTVP
 40
0.0
  9
$DIMTIX
 70
     0
  9
$DIMSOXD
 70
     0
  9
$DIMSAH
 70
     1
  9
$DIMBLK1
  1
OPEN
  9
$DIMBLK2
  1
OPEN
  9
$DIMSTYLE
  2
IGA
  9
$DIMCLRD
 70
     0
  9
$DIMCLRE
 70
     0
  9
$DIMCLRT
 70
     0
  9
$DIMTFAC
 40
10.0
  9
$DIMGAP
 40
1.0
  9
$DIMJUST
 70
     0
  9
$DIMSD1
 70
     0
  9
$DIMSD2
 70
     0
  9
$DIMTOLJ
 70
     1
  9
$DIMTZIN
 70
     0
  9
$DIMALTZ
 70
     0
  9
$DIMALTTZ
 70
     0
  9
$DIMUPT
 70
     0
  9
$DIMDEC
 70
     4
  9
$DIMTDEC
 70
     4
  9
$DIMALTU
 70
     2
  9
$DIMALTTD
 70
     2
  9
$DIMTXSTY
  7
STANDARD
  9
$DIMAUNIT
 70
     0
  9
$DIMADEC
 70
     0
  9
$DIMALTRND
 40
0.0
  9
$DIMAZIN
 70
     0
  9
$DIMDSEP
 70
    46
  9
$DIMATFIT
 70
     3
  9
$DIMFRAC
 70
     0
  9
$DIMLDRBLK
  1
OPEN
  9
$DIMLUNIT
 70
     2
  9
$DIMLWD
 70
    -2
  9
$DIMLWE
 70
    -2
  9
$DIMTMOVE
 70
     0
  9
$LUNITS
 70
     2
  9
$LUPREC
 70
     3
  9
$SKETCHINC
 40
0.1
  9
$FILLETRAD
 40
50.0
  9
$AUNITS
 70
     0
  9
$AUPREC
 70
     0
  9
$MENU
  1
acad
  9
$ELEVATION
 40
0.0
  9
$PELEVATION
 40
0.0
  9
$THICKNESS
 40
0.0
  9
$LIMCHECK
 70
     0
  9
$CHAMFERA
 40
0.5
  9
$CHAMFERB
 40
0.5
  9
$CHAMFERC
 40
0.0
  9
$CHAMFERD
 40
0.0
  9
$SKPOLY
 70
     0
  9
$TDCREATE
 40
2451898.497236459
  9
$TDUCREATE
 40
2451898.122236458
  9
$TDUPDATE
 40
2460280.765826539
  9
$TDUUPDATE
 40
2460280.390826539
  9
$TDINDWG
 40
0.0172108912
  9
$TDUSRTIMER
 40
0.0172106250
  9
$USRTIMER
 70
     1
  9
$ANGBASE
 50
0.0
  9
$ANGDIR
 70
     0
  9
$PDMODE
 70
     0
  9
$PDSIZE
 40
0.0
  9
$PLINEWID
 40
0.0
  9
$SPLFRAME
 70
     0
  9
$SPLINETYPE
 70
     6
  9
$SPLINESEGS
 70
     8
  9
$HANDSEED
  5
87F4
  9
$SURFTAB1
 70
     6
  9
$SURFTAB2
 70
     6
  9
$SURFTYPE
 70
     6
  9
$SURFU
 70
     6
  9
$SURFV
 70
     6
  9
$UCSBASE
  2

  9
$UCSNAME
  2

  9
$UCSORG
 10
0.0
 20
0.0
 30
0.0
  9
$UCSXDIR
 10
1.0
 20
0.0
 30
0.0
  9
$UCSYDIR
 10
0.0
 20
1.0
 30
0.0
  9
$UCSORTHOREF
  2

  9
$UCSORTHOVIEW
 70
     0
  9
$UCSORGTOP
 10
0.0
 20
0.0
 30
0.0
  9
$UCSORGBOTTOM
 10
0.0
 20
0.0
 30
0.0
  9
$UCSORGLEFT
 10
0.0
 20
0.0
 30
0.0
  9
$UCSORGRIGHT
 10
0.0
 20
0.0
 30
0.0
  9
$UCSORGFRONT
 10
0.0
 20
0.0
 30
0.0
  9
$UCSORGBACK
 10
0.0
 20
0.0
 30
0.0
  9
$PUCSBASE
  2

  9
$PUCSNAME
  2

  9
$PUCSORG
 10
0.0
 20
0.0
 30
0.0
  9
$PUCSXDIR
 10
1.0
 20
0.0
 30
0.0
  9
$PUCSYDIR
 10
0.0
 20
1.0
 30
0.0
  9
$PUCSORTHOREF
  2

  9
$PUCSORTHOVIEW
 70
     0
  9
$PUCSORGTOP
 10
0.0
 20
0.0
 30
0.0
  9
$PUCSORGBOTTOM
 10
0.0
 20
0.0
 30
0.0
  9
$PUCSORGLEFT
 10
0.0
 20
0.0
 30
0.0
  9
$PUCSORGRIGHT
 10
0.0
 20
0.0
 30
0.0
  9
$PUCSORGFRONT
 10
0.0
 20
0.0
 30
0.0
  9
$PUCSORGBACK
 10
0.0
 20
0.0
 30
0.0
  9
$USERI1
 70
     0
  9
$USERI2
 70
     0
  9
$USERI3
 70
     0
  9
$USERI4
 70
     0
  9
$USERI5
 70
     0
  9
$USERR1
 40
0.0
  9
$USERR2
 40
0.0
  9
$USERR3
 40
0.0
  9
$USERR4
 40
0.0
  9
$USERR5
 40
0.0
  9
$WORLDVIEW
 70
     1
  9
$SHADEDGE
 70
     3
  9
$SHADEDIF
 70
    70
  9
$TILEMODE
 70
     1
  9
$MAXACTVP
 70
    16
  9
$PINSBASE
 10
0.0
 20
0.0
 30
0.0
  9
$PLIMCHECK
 70
     0
  9
$PEXTMIN
 10
1.000000000000000E+20
 20
1.000000000000000E+20
 30
1.000000000000000E+20
  9
$PEXTMAX
 10
-1.000000000000000E+20
 20
-1.000000000000000E+20
 30
-1.000000000000000E+20
  9
$PLIMMIN
 10
0.0
 20
0.0
  9
$PLIMMAX
 10
12.0
 20
9.0
  9
$UNITMODE
 70
     0
  9
$VISRETAIN
 70
     0
  9
$PLINEGEN
 70
     0
  9
$PSLTSCALE
 70
     1
  9
$TREEDEPTH
 70
  3020
  9
$CMLSTYLE
  2
Standard
  9
$CMLJUST
 70
     0
  9
$CMLSCALE
 40
1.0
  9
$PROXYGRAPHICS
 70
     1
  9
$MEASUREMENT
 70
     0
  9
$CELWEIGHT
370
    -1
  9
$ENDCAPS
280
     0
  9
$JOINSTYLE
280
     0
  9
$LWDISPLAY
290
     0
  9
$INSUNITS
 70
     0
  9
$HYPERLINKBASE
  1

  9
$STYLESHEET
  1

  9
$XEDIT
290
     1
  9
$CEPSNTYPE
380
     0
  9
$PSTYLEMODE
290
     1
  9
$FINGERPRINTGUID
  2
{D0A3D343-A727-43C9-A1F9-D30EECE11B35}
  9
$VERSIONGUID
  2
{EA4B0502-9CA7-40F4-9C91-3D94BE9A978E}
  9
$EXTNAMES
290
     1
  9
$PSVPSCALE
 40
0.0
  9
$OLESTARTUP
290
     0
  0
ENDSEC
  0
SECTION
  2
CLASSES
  0
CLASS
  1
ACDBDICTIONARYWDFLT
  2
AcDbDictionaryWithDefault
  3
ObjectDBX Classes
 90
        0
280
     0
281
     0
  0
CLASS
  1
MATERIAL
  2
AcDbMaterial
  3
ObjectDBX Classes
 90
     1153
280
     0
281
     0
  0
CLASS
  1
VISUALSTYLE
  2
AcDbVisualStyle
  3
ObjectDBX Classes
 90
     4095
280
     0
281
     0
  0
CLASS
  1
SCALE
  2
AcDbScale
  3
ObjectDBX Classes
 90
     1153
280
     0
281
     0
  0
CLASS
  1
TABLESTYLE
  2
AcDbTableStyle
  3
ObjectDBX Classes
 90
     4095
280
     0
281
     0
  0
CLASS
  1
MLEADERSTYLE
  2
AcDbMLeaderStyle
  3
ACDB_MLEADERSTYLE_CLASS
 90
     4095
280
     0
281
     0
  0
CLASS
  1
ACDBSECTIONVIEWSTYLE
  2
AcDbSectionViewStyle
  3
ObjectDBX Classes
 90
     1025
280
     0
281
     0
  0
CLASS
  1
ACDBDETAILVIEWSTYLE
  2
AcDbDetailViewStyle
  3
ObjectDBX Classes
 90
     1025
280
     0
281
     0
  0
CLASS
  1
DICTIONARYVAR
  2
AcDbDictionaryVar
  3
ObjectDBX Classes
 90
        0
280
     0
281
     0
  0
CLASS
  1
CELLSTYLEMAP
  2
AcDbCellStyleMap
  3
ObjectDBX Classes
 90
     1152
280
     0
281
     0
  0
CLASS
  1
SORTENTSTABLE
  2
AcDbSortentsTable
  3
ObjectDBX Classes
 90
        0
280
     0
281
     0
  0
CLASS
  1
ACDBPLACEHOLDER
  2
AcDbPlaceHolder
  3
ObjectDBX Classes
 90
        0
280
     0
281
     0
  0
CLASS
  1
LAYOUT
  2
AcDbLayout
  3
ObjectDBX Classes
 90
        0
280
     0
281
     0
  0
ENDSEC
  0
SECTION
  2
TABLES
  0
TABLE
  2
VPORT
  5
83A5
330
0
100
AcDbSymbolTable
 70
     1
  0
VPORT
  5
8411
330
83A5
100
AcDbSymbolTableRecord
100
AcDbViewportTableRecord
  2
*ACTIVE
 70
     0
 10
0.0
 20
0.0
 11
1.0
 21
1.0
 12
4200.000019557773
 22
5900.000027474012
 13
0.0
 23
0.0
 14
10.0
 24
10.0
 15
10.0
 25
10.0
 16
0.0
 26
0.0
 36
1.0
 17
0.0
 27
0.0
 37
0.0
 40
11876.28512550527
 41
2.050213675213675
 42
50.0
 43
0.0
 44
0.0
 50
0.0
 51
0.0
 71
     0
 72
   100
 73
     1
 74
     0
 75
     0
 76
     0
 77
     0
 78
     0
281
     0
 65
     1
110
0.0
120
0.0
130
0.0
111
1.0
121
0.0
131
0.0
112
0.0
122
1.0
132
0.0
 79
     0
146
0.0
1001
ACAD_NAV_VCDISPLAY
1070
     3
  0
ENDTAB
  0
TABLE
  2
LTYPE
  5
83A2
330
0
100
AcDbSymbolTable
 70
     3
  0
LTYPE
  5
83F7
330
83A2
100
AcDbSymbolTableRecord
100
AcDbLinetypeTableRecord
  2
ByBlock
 70
     0
  3

 72
    65
 73
     0
 40
0.0
  0
LTYPE
  5
83F8
330
83A2
100
AcDbSymbolTableRecord
100
AcDbLinetypeTableRecord
  2
ByLayer
 70
     0
  3

 72
    65
 73
     0
 40
0.0
  0
LTYPE
  5
83F9
330
83A2
100
AcDbSymbolTableRecord
100
AcDbLinetypeTableRecord
  2
CONTINUOUS
 70
     0
  3
Solid line
 72
    65
 73
     0
 40
0.0
  0
LTYPE
  5
8412
330
83A2
100
AcDbSymbolTableRecord
100
AcDbLinetypeTableRecord
  2
CENTER
 70
     0
  3
____ _ ____ _ ____ _ ____ _ ____ _ ____ _ ____ 
 72
    65
 73
     4
 40
2.0
 49
1.25
 74
     0
 49
-0.25
 74
     0
 49
0.25
 74
     0
 49
-0.25
 74
     0
  0
ENDTAB
  0
TABLE
  2
LAYER
  5
839F
330
0
100
AcDbSymbolTable
 70
     6
  0
LAYER
  5
83F1
102
{ACAD_XDICTIONARY
360
8454
102
}
330
839F
100
AcDbSymbolTableRecord
100
AcDbLayerTableRecord
  2
0
 70
     0
 62
     7
  6
CONTINUOUS
370
    -3
390
83AC
  0
LAYER
  5
8410
102
{ACAD_XDICTIONARY
360
8456
102
}
330
839F
100
AcDbSymbolTableRecord
100
AcDbLayerTableRecord
  2
3
 70
     0
 62
     2
  6
CONTINUOUS
370
    -3
390
83AC
  0
LAYER
  5
8413
102
{ACAD_XDICTIONARY
360
8458
102
}
330
839F
100
AcDbSymbolTableRecord
100
AcDbLayerTableRecord
  2
2
 70
     0
 62
     3
  6
CENTER
370
    -3
390
83AC
  0
LAYER
  5
8414
102
{ACAD_XDICTIONARY
360
845A
102
}
330
839F
100
AcDbSymbolTableRecord
100
AcDbLayerTableRecord
  2
1
 70
     0
 62
     4
  6
CONTINUOUS
370
    -3
390
83AC
  0
LAYER
  5
8415
102
{ACAD_XDICTIONARY
360
845C
102
}
330
839F
100
AcDbSymbolTableRecord
100
AcDbLayerTableRecord
  2
4
 70
     0
 62
     7
  6
CONTINUOUS
370
    -3
390
83AC
  0
LAYER
  5
8416
330
839F
100
AcDbSymbolTableRecord
100
AcDbLayerTableRecord
  2
DEFPOINTS
 70
     0
 62
     7
  6
CONTINUOUS
290
     0
370
    -3
390
83AC
  0
ENDTAB
  0
TABLE
  2
STYLE
  5
83A0
330
0
100
AcDbSymbolTable
 70
     2
  0
STYLE
  5
83F2
330
83A0
100
AcDbSymbolTableRecord
100
AcDbTextStyleTableRecord
  2
STANDARD
 70
     0
 40
0.0
 41
1.0
 50
0.0
 71
     0
 42
180.0
  3
simplex.shx
  4
extfont.shx
  0
STYLE
  5
83F6
330
83A0
100
AcDbSymbolTableRecord
100
AcDbTextStyleTableRecord
  2
Annotative
 70
     0
 40
0.0
 41
1.0
 50
0.0
 71
     0
 42
0.2
  3
txt
  4

1001
AcadAnnotative
1000
AnnotativeData
1002
{
1070
     1
1070
     1
1002
}
  0
ENDTAB
  0
TABLE
  2
VIEW
  5
83A3
330
0
100
AcDbSymbolTable
 70
     0
  0
ENDTAB
  0
TABLE
  2
UCS
  5
83A4
330
0
100
AcDbSymbolTable
 70
     0
  0
ENDTAB
  0
TABLE
  2
APPID
  5
83A6
330
0
100
AcDbSymbolTable
 70
     8
  0
APPID
  5
83F3
330
83A6
100
AcDbSymbolTableRecord
100
AcDbRegAppTableRecord
  2
ACAD
 70
     0
  0
APPID
  5
83FA
330
83A6
100
AcDbSymbolTableRecord
100
AcDbRegAppTableRecord
  2
AcadAnnotative
 70
     0
  0
APPID
  5
8468
330
83A6
100
AcDbSymbolTableRecord
100
AcDbRegAppTableRecord
  2
ACAD_NAV_VCDISPLAY
 70
     0
  0
APPID
  5
8508
330
83A6
100
AcDbSymbolTableRecord
100
AcDbRegAppTableRecord
  2
ACAD_DSTYLE_DIMJAG
 70
     0
  0
APPID
  5
8509
330
83A6
100
AcDbSymbolTableRecord
100
AcDbRegAppTableRecord
  2
ACAD_DSTYLE_DIMTALN
 70
     0
  0
APPID
  5
8517
330
83A6
100
AcDbSymbolTableRecord
100
AcDbRegAppTableRecord
  2
AcadAnnoMonitorAlertIconDisabled
 70
     0
  0
APPID
  5
8518
330
83A6
100
AcDbSymbolTableRecord
100
AcDbRegAppTableRecord
  2
ACAD_EXEMPT_FROM_CAD_STANDARDS
 70
     0
  0
APPID
  5
87EB
330
83A6
100
AcDbSymbolTableRecord
100
AcDbRegAppTableRecord
  2
ACAD_MLEADERVER
 70
     0
  0
ENDTAB
  0
TABLE
  2
DIMSTYLE
  5
83A7
330
0
100
AcDbSymbolTable
 70
     3
100
AcDbDimStyleTable
 71
     1
340
8417
  0
DIMSTYLE
105
83F4
330
83A7
100
AcDbSymbolTableRecord
100
AcDbDimStyleTableRecord
  2
Standard
 70
     0
340
83F2
  0
DIMSTYLE
105
83F5
330
83A7
100
AcDbSymbolTableRecord
100
AcDbDimStyleTableRecord
  2
Annotative
 70
     0
340
83F2
1001
AcadAnnotative
1000
AnnotativeData
1002
{
1070
     1
1070
     1
1002
}
  0
DIMSTYLE
105
8417
102
{ACAD_REACTORS
330
850A
330
852C
330
8539
330
8546
330
859B
330
85A8
330
85C2
330
85CF
330
85DC
330
85E9
330
85F6
330
860C
330
8619
330
8626
330
8633
330
8640
330
864D
330
865A
330
866C
330
867E
330
8799
330
87A6
102
}
330
83A7
100
AcDbSymbolTableRecord
100
AcDbDimStyleTableRecord
  2
IGA
 70
     0
 40
2.0
 41
2.0
 42
0.5
 43
10.0
 44
1.0
 47
1.0
 48
1.0
 73
     0
 74
     0
 77
     1
 78
     8
140
3.0
141
0.0
143
0.03937
146
10.0
147
1.0
173
     1
271
     3
272
     3
279
     2
284
     8
285
     8
286
     8
340
83F2
  0
ENDTAB
  0
TABLE
  2
BLOCK_RECORD
  5
839E
330
0
100
AcDbSymbolTable
 70
    59
  0
BLOCK_RECORD
  5
840C
102
{ACAD_XDICTIONARY
360
84AB
102
}
330
839E
100
AcDbSymbolTableRecord
100
AcDbBlockTableRecord
  2
*Model_Space
340
840F
  0
BLOCK_RECORD
  5
8408
330
839E
100
AcDbSymbolTableRecord
100
AcDbBlockTableRecord
  2
*Paper_Space
340
840B
  0
BLOCK_RECORD
  5
841B
330
839E
100
AcDbSymbolTableRecord
100
AcDbBlockTableRecord
  2
$MODEL_SPACE
340
0
  0
BLOCK_RECORD
  5
841D
330
839E
100
AcDbSymbolTableRecord
100
AcDbBlockTableRecord
  2
$PAPER_SPACE
340
0
  0
BLOCK_RECORD
  5
841F
330
839E
100
AcDbSymbolTableRecord
100
AcDbBlockTableRecord
  2
YA_N
340
0
102
{BLKREFS
331
7C21
331
7C3C
331
7C3D
331
7C62
331
7CA0
331
7CB0
331
7CDA
331
7CF1
102
}
  0
BLOCK_RECORD
  5
8421
330
839E
100
AcDbSymbolTableRecord
100
AcDbBlockTableRecord
  2
*D3
340
0
  0
BLOCK_RECORD
  5
8423
330
839E
100
AcDbSymbolTableRecord
100
AcDbBlockTableRecord
  2
_OPEN
340
0
102
{BLKREFS
331
8320
331
8328
331
8329
331
8331
331
8332
331
87AD
331
87AE
331
833A
331
833B
331
8795
331
87A0
331
87A1
331
82FB
331
82FC
331
8304
331
8305
331
830D
331
830E
331
8316
331
8317
331
831F
331
8343
331
8344
331
834C
331
834D
331
873B
331
8355
331
8356
331
86C7
331
86C8
331
835E
331
835F
331
8620
331
8621
331
862D
331
862E
331
863A
331
863B
331
8647
331
8648
331
8654
331
8655
331
8367
331
85C9
331
85CA
331
85D6
331
85D7
331
85E3
331
85E4
331
85F0
331
85F1
331
85FD
331
85FE
331
8606
331
8607
331
8613
331
8614
331
8368
331
858C
331
858D
331
8595
331
8596
331
85A2
331
85A3
331
85AF
331
85B0
331
8373
331
837B
331
837C
331
8384
331
8385
331
8526
331
8527
331
8533
331
8534
331
8189
331
818A
331
8196
331
8197
331
81A3
331
81A4
331
81B0
331
81B1
331
8214
331
8215
102
}
  0
BLOCK_RECORD
  5
8424
330
839E
100
AcDbSymbolTableRecord
100
AcDbBlockTableRecord
  2
*D5
340
0
  0
BLOCK_RECORD
  5
8426
330
839E
100
AcDbSymbolTableRecord
100
AcDbBlockTableRecord
  2
*D6
340
0
  0
BLOCK_RECORD
  5
8428
330
839E
100
AcDbSymbolTableRecord
100
AcDbBlockTableRecord
  2
*D7
340
0
  0
BLOCK_RECORD
  5
842A
330
839E
100
AcDbSymbolTableRecord
100
AcDbBlockTableRecord
  2
*D8
340
0
  0
BLOCK_RECORD
  5
842C
330
839E
100
AcDbSymbolTableRecord
100
AcDbBlockTableRecord
  2
*D9
340
0
  0
BLOCK_RECORD
  5
842E
330
839E
100
AcDbSymbolTableRecord
100
AcDbBlockTableRecord
  2
*D10
340
0
  0
BLOCK_RECORD
  5
8430
330
839E
100
AcDbSymbolTableRecord
100
AcDbBlockTableRecord
  2
*D11
340
0
  0
BLOCK_RECORD
  5
8432
330
839E
100
AcDbSymbolTableRecord
100
AcDbBlockTableRecord
  2
*D12
340
0
  0
BLOCK_RECORD
  5
8434
330
839E
100
AcDbSymbolTableRecord
100
AcDbBlockTableRecord
  2
*D13
340
0
  0
BLOCK_RECORD
  5
8436
330
839E
100
AcDbSymbolTableRecord
100
AcDbBlockTableRecord
  2
*D14
340
0
  0
BLOCK_RECORD
  5
8438
330
839E
100
AcDbSymbolTableRecord
100
AcDbBlockTableRecord
  2
*D15
340
0
  0
BLOCK_RECORD
  5
843A
330
839E
100
AcDbSymbolTableRecord
100
AcDbBlockTableRecord
  2
*D16
340
0
  0
BLOCK_RECORD
  5
843C
330
839E
100
AcDbSymbolTableRecord
100
AcDbBlockTableRecord
  2
*D17
340
0
  0
BLOCK_RECORD
  5
843E
330
839E
100
AcDbSymbolTableRecord
100
AcDbBlockTableRecord
  2
_DOT
340
0
102
{BLKREFS
331
8372
102
}
  0
BLOCK_RECORD
  5
843F
330
839E
100
AcDbSymbolTableRecord
100
AcDbBlockTableRecord
  2
*D19
340
0
  0
BLOCK_RECORD
  5
8441
330
839E
100
AcDbSymbolTableRecord
100
AcDbBlockTableRecord
  2
*D20
340
0
  0
BLOCK_RECORD
  5
8445
330
839E
100
AcDbSymbolTableRecord
100
AcDbBlockTableRecord
  2
*D21
340
0
  0
BLOCK_RECORD
  5
8447
330
839E
100
AcDbSymbolTableRecord
100
AcDbBlockTableRecord
  2
*D22
340
0
  0
BLOCK_RECORD
  5
8449
330
839E
100
AcDbSymbolTableRecord
100
AcDbBlockTableRecord
  2
*D23
340
0
  0
BLOCK_RECORD
  5
844B
330
839E
100
AcDbSymbolTableRecord
100
AcDbBlockTableRecord
  2
*D24
340
0
  0
BLOCK_RECORD
  5
844D
330
839E
100
AcDbSymbolTableRecord
100
AcDbBlockTableRecord
  2
_NONE
340
0
  0
BLOCK_RECORD
  5
844F
330
839E
100
AcDbSymbolTableRecord
100
AcDbBlockTableRecord
  2
*D26
340
0
  0
BLOCK_RECORD
  5
8451
330
839E
100
AcDbSymbolTableRecord
100
AcDbBlockTableRecord
  2
*D27
340
0
  0
BLOCK_RECORD
  5
84AE
330
839E
100
AcDbSymbolTableRecord
100
AcDbBlockTableRecord
  2
*D28
340
0
  0
BLOCK_RECORD
  5
84B9
330
839E
100
AcDbSymbolTableRecord
100
AcDbBlockTableRecord
  2
*D29
340
0
  0
BLOCK_RECORD
  5
84C6
330
839E
100
AcDbSymbolTableRecord
100
AcDbBlockTableRecord
  2
*D30
340
0
  0
BLOCK_RECORD
  5
84D3
330
839E
100
AcDbSymbolTableRecord
100
AcDbBlockTableRecord
  2
*D31
340
0
  0
BLOCK_RECORD
  5
84E0
330
839E
100
AcDbSymbolTableRecord
100
AcDbBlockTableRecord
  2
*D32
340
0
  0
BLOCK_RECORD
  5
84ED
330
839E
100
AcDbSymbolTableRecord
100
AcDbBlockTableRecord
  2
*D33
340
0
  0
BLOCK_RECORD
  5
84FA
330
839E
100
AcDbSymbolTableRecord
100
AcDbBlockTableRecord
  2
*D34
340
0
  0
BLOCK_RECORD
  5
850B
330
839E
100
AcDbSymbolTableRecord
100
AcDbBlockTableRecord
  2
*D35
340
0
  0
BLOCK_RECORD
  5
852D
330
839E
100
AcDbSymbolTableRecord
100
AcDbBlockTableRecord
  2
*D36
340
0
  0
BLOCK_RECORD
  5
853A
330
839E
100
AcDbSymbolTableRecord
100
AcDbBlockTableRecord
  2
*D37
340
0
  0
BLOCK_RECORD
  5
8547
330
839E
100
AcDbSymbolTableRecord
100
AcDbBlockTableRecord
  2
*D38
340
0
  0
BLOCK_RECORD
  5
859C
330
839E
100
AcDbSymbolTableRecord
100
AcDbBlockTableRecord
  2
*D39
340
0
  0
BLOCK_RECORD
  5
85A9
330
839E
100
AcDbSymbolTableRecord
100
AcDbBlockTableRecord
  2
*D40
340
0
  0
BLOCK_RECORD
  5
85B6
330
839E
100
AcDbSymbolTableRecord
100
AcDbBlockTableRecord
  2
*D41
340
0
  0
BLOCK_RECORD
  5
85C3
330
839E
100
AcDbSymbolTableRecord
100
AcDbBlockTableRecord
  2
*D42
340
0
  0
BLOCK_RECORD
  5
85D0
330
839E
100
AcDbSymbolTableRecord
100
AcDbBlockTableRecord
  2
*D43
340
0
  0
BLOCK_RECORD
  5
85DD
330
839E
100
AcDbSymbolTableRecord
100
AcDbBlockTableRecord
  2
*D44
340
0
  0
BLOCK_RECORD
  5
85EA
330
839E
100
AcDbSymbolTableRecord
100
AcDbBlockTableRecord
  2
*D45
340
0
  0
BLOCK_RECORD
  5
85F7
330
839E
100
AcDbSymbolTableRecord
100
AcDbBlockTableRecord
  2
*D46
340
0
  0
BLOCK_RECORD
  5
860D
330
839E
100
AcDbSymbolTableRecord
100
AcDbBlockTableRecord
  2
*D47
340
0
  0
BLOCK_RECORD
  5
861A
330
839E
100
AcDbSymbolTableRecord
100
AcDbBlockTableRecord
  2
*D48
340
0
  0
BLOCK_RECORD
  5
8627
330
839E
100
AcDbSymbolTableRecord
100
AcDbBlockTableRecord
  2
*D49
340
0
  0
BLOCK_RECORD
  5
8634
330
839E
100
AcDbSymbolTableRecord
100
AcDbBlockTableRecord
  2
*D50
340
0
  0
BLOCK_RECORD
  5
8641
330
839E
100
AcDbSymbolTableRecord
100
AcDbBlockTableRecord
  2
*D51
340
0
  0
BLOCK_RECORD
  5
864E
330
839E
100
AcDbSymbolTableRecord
100
AcDbBlockTableRecord
  2
*D52
340
0
  0
BLOCK_RECORD
  5
865B
330
839E
100
AcDbSymbolTableRecord
100
AcDbBlockTableRecord
  2
*D53
340
0
  0
BLOCK_RECORD
  5
866D
330
839E
100
AcDbSymbolTableRecord
100
AcDbBlockTableRecord
  2
*D54
340
0
  0
BLOCK_RECORD
  5
867F
330
839E
100
AcDbSymbolTableRecord
100
AcDbBlockTableRecord
  2
*D55
340
0
  0
BLOCK_RECORD
  5
872E
330
839E
100
AcDbSymbolTableRecord
100
AcDbBlockTableRecord
  2
_DotSmall
340
0
102
{BLKREFS
331
8794
331
873C
102
}
  0
BLOCK_RECORD
  5
879A
330
839E
100
AcDbSymbolTableRecord
100
AcDbBlockTableRecord
  2
*D57
340
0
  0
BLOCK_RECORD
  5
87A7
330
839E
100
AcDbSymbolTableRecord
100
AcDbBlockTableRecord
  2
*D58
340
0
  0
ENDTAB
  0
ENDSEC
  0
SECTION
  2
BLOCKS
  0
BLOCK
  5
840D
330
840C
100
AcDbEntity
  8
0
100
AcDbBlockBegin
  2
*Model_Space
 70
     0
 10
0.0
 20
0.0
 30
0.0
  3
*Model_Space
  1

  0
ENDBLK
  5
840E
330
840C
100
AcDbEntity
  8
0
100
AcDbBlockEnd
  0
BLOCK
  5
8409
330
8408
100
AcDbEntity
 67
     1
  8
0
100
AcDbBlockBegin
  2
*Paper_Space
 70
     0
 10
0.0
 20
0.0
 30
0.0
  3
*Paper_Space
  1

  0
ENDBLK
  5
840A
330
8408
100
AcDbEntity
 67
     1
  8
0
100
AcDbBlockEnd
  0
BLOCK
  5
841C
330
841B
100
AcDbEntity
  8
0
100
AcDbBlockBegin
  2
$MODEL_SPACE
 70
     0
 10
0.0
 20
0.0
 30
0.0
  3
$MODEL_SPACE
  1

  0
ENDBLK
  5
1B
330
841B
100
AcDbEntity
  8
0
100
AcDbBlockEnd
  0
BLOCK
  5
841E
330
841D
100
AcDbEntity
  8
0
100
AcDbBlockBegin
  2
$PAPER_SPACE
 70
     0
 10
0.0
 20
0.0
 30
0.0
  3
$PAPER_SPACE
  1

  0
ENDBLK
  5
18
330
841D
100
AcDbEntity
  8
0
100
AcDbBlockEnd
  0
BLOCK
  5
8420
330
841F
100
AcDbEntity
  8
0
100
AcDbBlockBegin
  2
YA_N
 70
     0
 10
0.0
 20
0.0
 30
0.0
  3
YA_N
  1

  0
ENDBLK
  5
79FE
330
841F
100
AcDbEntity
  8
0
100
AcDbBlockEnd
  0
BLOCK
  5
8422
330
8421
100
AcDbEntity
  8
0
100
AcDbBlockBegin
  2
*D3
 70
     1
 10
0.0
 20
0.0
 30
0.0
  3
*D3
  1

  0
LINE
  5
82F8
330
8421
100
AcDbEntity
  8
3
 62
     0
100
AcDbLine
 10
5228.039116178845
 20
4757.552421855573
 30
0.0
 11
5228.039116178845
 21
5040.007557733632
 31
0.0
  0
LINE
  5
82F9
330
8421
100
AcDbEntity
  8
3
 62
     0
100
AcDbLine
 10
6928.039116178847
 20
4757.552421855573
 30
0.0
 11
6928.039116178847
 21
5040.007557733632
 31
0.0
  0
LINE
  5
82FA
330
8421
100
AcDbEntity
  8
3
 62
     0
100
AcDbLine
 10
5308.039116178846
 20
5000.007557733631
 30
0.0
 11
6848.039116178846
 21
5000.007557733631
 31
0.0
  0
INSERT
  5
82FB
330
8421
100
AcDbEntity
  8
3
 62
     0
100
AcDbBlockReference
  2
_OPEN
 10
5228.039116178845
 20
5000.007557733631
 30
0.0
 41
80.0
 42
80.0
 43
80.0
 50
180.0
  0
INSERT
  5
82FC
330
8421
100
AcDbEntity
  8
3
 62
     0
100
AcDbBlockReference
  2
_OPEN
 10
6928.039116178847
 20
5000.007557733631
 30
0.0
 41
80.0
 42
80.0
 43
80.0
  0
TEXT
  5
838D
330
8421
100
AcDbEntity
  8
3
 62
     0
100
AcDbText
 10
5838.04
 20
4887.61
 30
0.0
 40
120.0
  1
1700
100
AcDbText
  0
POINT
  5
82FE
330
8421
100
AcDbEntity
  8
DEFPOINTS
 62
     0
100
AcDbPoint
 10
5228.039116178845
 20
4737.552421855573
 30
0.0
  0
POINT
  5
82FF
330
8421
100
AcDbEntity
  8
DEFPOINTS
 62
     0
100
AcDbPoint
 10
6928.039116178847
 20
4737.552421855573
 30
0.0
  0
POINT
  5
8300
330
8421
100
AcDbEntity
  8
DEFPOINTS
 62
     0
100
AcDbPoint
 10
6928.039116178847
 20
5000.007557733631
 30
0.0
  0
ENDBLK
  5
8134
330
8421
100
AcDbEntity
  8
0
100
AcDbBlockEnd
  0
BLOCK
  5
8443
330
8423
100
AcDbEntity
  8
0
100
AcDbBlockBegin
  2
_OPEN
 70
     0
 10
0.0
 20
0.0
 30
0.0
  3
_OPEN
  1

  0
LINE
  5
7F3A
330
8423
100
AcDbEntity
  8
0
  6
ByBlock
 62
     0
100
AcDbLine
 10
-1.0
 20
0.1666666666666666
 30
0.0
 11
0.0
 21
0.0
 31
0.0
  0
LINE
  5
7F3B
330
8423
100
AcDbEntity
  8
0
  6
ByBlock
 62
     0
100
AcDbLine
 10
0.0
 20
0.0
 30
0.0
 11
-1.0
 21
-0.1666666666666666
 31
0.0
  0
LINE
  5
7F3C
330
8423
100
AcDbEntity
  8
0
  6
ByBlock
 62
     0
100
AcDbLine
 10
0.0
 20
0.0
 30
0.0
 11
-1.0
 21
0.0
 31
0.0
  0
ENDBLK
  5
7F3D
330
8423
100
AcDbEntity
  8
0
100
AcDbBlockEnd
  0
BLOCK
  5
8425
330
8424
100
AcDbEntity
  8
0
100
AcDbBlockBegin
  2
*D5
 70
     1
 10
0.0
 20
0.0
 30
0.0
  3
*D5
  1

  0
LINE
  5
8301
330
8424
100
AcDbEntity
  8
3
 62
     0
100
AcDbLine
 10
4843.039116178847
 20
4227.929658934043
 30
0.0
 11
4843.039116178847
 21
5328.496809489447
 31
0.0
  0
LINE
  5
8302
330
8424
100
AcDbEntity
  8
3
 62
     0
100
AcDbLine
 10
6078.039116178846
 20
5185.719398998529
 30
0.0
 11
6078.039116178846
 21
5328.496809489447
 31
0.0
  0
LINE
  5
8303
330
8424
100
AcDbEntity
  8
3
 62
     0
100
AcDbLine
 10
4923.039116178848
 20
5288.496809489447
 30
0.0
 11
5998.039116178847
 21
5288.496809489447
 31
0.0
  0
INSERT
  5
8304
330
8424
100
AcDbEntity
  8
3
 62
     0
100
AcDbBlockReference
  2
_OPEN
 10
4843.039116178847
 20
5288.496809489447
 30
0.0
 41
80.0
 42
80.0
 43
80.0
 50
180.0
  0
INSERT
  5
8305
330
8424
100
AcDbEntity
  8
3
 62
     0
100
AcDbBlockReference
  2
_OPEN
 10
6078.039116178846
 20
5288.496809489447
 30
0.0
 41
80.0
 42
80.0
 43
80.0
  0
TEXT
  5
838E
330
8424
100
AcDbEntity
  8
3
 62
     0
100
AcDbText
 10
5220.539999999999
 20
5276.1
 30
0.0
 40
120.0
  1
MAX
100
AcDbText
  0
TEXT
  5
838F
330
8424
100
AcDbEntity
  8
3
 62
     0
100
AcDbText
 10
5220.539999999999
 20
5120.1
 30
0.0
 40
120.0
  1
1280
100
AcDbText
  0
POINT
  5
8307
330
8424
100
AcDbEntity
  8
DEFPOINTS
 62
     0
100
AcDbPoint
 10
4843.039116178847
 20
4207.929658934045
 30
0.0
  0
POINT
  5
8308
330
8424
100
AcDbEntity
  8
DEFPOINTS
 62
     0
100
AcDbPoint
 10
6078.039116178846
 20
5165.719398998528
 30
0.0
  0
POINT
  5
8309
330
8424
100
AcDbEntity
  8
DEFPOINTS
 62
     0
100
AcDbPoint
 10
6078.039116178846
 20
5288.496809489447
 30
0.0
  0
ENDBLK
  5
813F
330
8424
100
AcDbEntity
  8
0
100
AcDbBlockEnd
  0
BLOCK
  5
8427
330
8426
100
AcDbEntity
  8
0
100
AcDbBlockBegin
  2
*D6
 70
     1
 10
0.0
 20
0.0
 30
0.0
  3
*D6
  1

  0
LINE
  5
830A
330
8426
100
AcDbEntity
  8
3
 62
     0
100
AcDbLine
 10
6078.039116178846
 20
5185.719398998529
 30
0.0
 11
6078.039116178846
 21
5328.10922238426
 31
0.0
  0
LINE
  5
830B
330
8426
100
AcDbEntity
  8
3
 62
     0
100
AcDbLine
 10
7088.039116178847
 20
3843.267590036312
 30
0.0
 11
7088.039116178847
 21
5328.10922238426
 31
0.0
  0
LINE
  5
830C
330
8426
100
AcDbEntity
  8
3
 62
     0
100
AcDbLine
 10
6158.039116178847
 20
5288.10922238426
 30
0.0
 11
7008.039116178847
 21
5288.10922238426
 31
0.0
  0
INSERT
  5
830D
330
8426
100
AcDbEntity
  8
3
 62
     0
100
AcDbBlockReference
  2
_OPEN
 10
6078.039116178846
 20
5288.10922238426
 30
0.0
 41
80.0
 42
80.0
 43
80.0
 50
180.0
  0
INSERT
  5
830E
330
8426
100
AcDbEntity
  8
3
 62
     0
100
AcDbBlockReference
  2
_OPEN
 10
7088.039116178847
 20
5288.10922238426
 30
0.0
 41
80.0
 42
80.0
 43
80.0
  0
TEXT
  5
8390
330
8426
100
AcDbEntity
  8
3
 62
     0
100
AcDbText
 10
6343.04
 20
5207.14
 30
0.0
 40
120.0
  1
(1020)
100
AcDbText
  0
POINT
  5
8310
330
8426
100
AcDbEntity
  8
DEFPOINTS
 62
     0
100
AcDbPoint
 10
6078.039116178846
 20
5165.719398998528
 30
0.0
  0
POINT
  5
8311
330
8426
100
AcDbEntity
  8
DEFPOINTS
 62
     0
100
AcDbPoint
 10
7088.039116178847
 20
3823.267590036313
 30
0.0
  0
POINT
  5
8312
330
8426
100
AcDbEntity
  8
DEFPOINTS
 62
     0
100
AcDbPoint
 10
7088.039116178847
 20
5288.10922238426
 30
0.0
  0
ENDBLK
  5
814A
330
8426
100
AcDbEntity
  8
0
100
AcDbBlockEnd
  0
BLOCK
  5
8429
330
8428
100
AcDbEntity
  8
0
100
AcDbBlockBegin
  2
*D7
 70
     1
 10
0.0
 20
0.0
 30
0.0
  3
*D7
  1

  0
LINE
  5
8313
330
8428
100
AcDbEntity
  8
3
 62
     0
100
AcDbLine
 10
6950.339116178849
 20
4552.929658934043
 30
0.0
 11
7379.30874109135
 21
4552.929658934043
 31
0.0
  0
LINE
  5
8314
330
8428
100
AcDbEntity
  8
3
 62
     0
100
AcDbLine
 10
6950.339116178849
 20
3302.929658934043
 30
0.0
 11
7379.30874109135
 21
3302.929658934043
 31
0.0
  0
LINE
  5
8315
330
8428
100
AcDbEntity
  8
3
 62
     0
100
AcDbLine
 10
7339.30874109135
 20
4472.929658934043
 30
0.0
 11
7339.30874109135
 21
3382.929658934044
 31
0.0
  0
INSERT
  5
8316
330
8428
100
AcDbEntity
  8
3
 62
     0
100
AcDbBlockReference
  2
_OPEN
 10
7339.30874109135
 20
4552.929658934043
 30
0.0
 41
80.0
 42
80.0
 43
80.0
 50
90.0
  0
INSERT
  5
8317
330
8428
100
AcDbEntity
  8
3
 62
     0
100
AcDbBlockReference
  2
_OPEN
 10
7339.30874109135
 20
3302.929658934043
 30
0.0
 41
80.0
 42
80.0
 43
80.0
 50
270.0
  0
TEXT
  5
8391
330
8428
100
AcDbEntity
  8
3
 62
     0
100
AcDbText
 10
6999.310000000001
 20
3715.530000000001
 30
0.0
 40
120.0
  1
\U+03C61250
100
AcDbText
  0
POINT
  5
8319
330
8428
100
AcDbEntity
  8
DEFPOINTS
 62
     0
100
AcDbPoint
 10
6930.339116178848
 20
4552.929658934043
 30
0.0
  0
POINT
  5
831A
330
8428
100
AcDbEntity
  8
DEFPOINTS
 62
     0
100
AcDbPoint
 10
6930.339116178848
 20
3302.929658934043
 30
0.0
  0
POINT
  5
831B
330
8428
100
AcDbEntity
  8
DEFPOINTS
 62
     0
100
AcDbPoint
 10
7339.30874109135
 20
3302.929658934043
 30
0.0
  0
ENDBLK
  5
8028
330
8428
100
AcDbEntity
  8
0
100
AcDbBlockEnd
  0
BLOCK
  5
842B
330
842A
100
AcDbEntity
  8
0
100
AcDbBlockBegin
  2
*D8
 70
     1
 10
0.0
 20
0.0
 30
0.0
  3
*D8
  1

  0
LINE
  5
831C
330
842A
100
AcDbEntity
  8
3
 62
     0
100
AcDbLine
 10
1680.169444624878
 20
8705.437268273023
 30
0.0
 11
1211.153303389045
 21
8705.437268273023
 31
0.0
  0
LINE
  5
831D
330
842A
100
AcDbEntity
  8
3
 62
     0
100
AcDbLine
 10
1680.169444624878
 20
6585.437268273023
 30
0.0
 11
1211.153303389044
 21
6585.437268273023
 31
0.0
  0
LINE
  5
831E
330
842A
100
AcDbEntity
  8
3
 62
     0
100
AcDbLine
 10
1251.153303389045
 20
8625.437268273023
 30
0.0
 11
1251.153303389044
 21
6665.437268273021
 31
0.0
  0
INSERT
  5
831F
330
842A
100
AcDbEntity
  8
3
 62
     0
100
AcDbBlockReference
  2
_OPEN
 10
1251.153303389045
 20
8705.437268273023
 30
0.0
 41
80.0
 42
80.0
 43
80.0
 50
90.0
  0
INSERT
  5
8320
330
842A
100
AcDbEntity
  8
3
 62
     0
100
AcDbBlockReference
  2
_OPEN
 10
1251.153303389044
 20
6585.437268273023
 30
0.0
 41
80.0
 42
80.0
 43
80.0
 50
270.0
  0
TEXT
  5
8392
330
842A
100
AcDbEntity
  8
3
 62
     0
100
AcDbText
 10
911.153
 20
7433.04
 30
0.0
 40
120.0
  1
2120
100
AcDbText
  0
POINT
  5
8322
330
842A
100
AcDbEntity
  8
DEFPOINTS
 62
     0
100
AcDbPoint
 10
1700.169444624878
 20
8705.437268273023
 30
0.0
  0
POINT
  5
8323
330
842A
100
AcDbEntity
  8
DEFPOINTS
 62
     0
100
AcDbPoint
 10
1700.169444624878
 20
6585.437268273023
 30
0.0
  0
POINT
  5
8324
330
842A
100
AcDbEntity
  8
DEFPOINTS
 62
     0
100
AcDbPoint
 10
1251.153303389044
 20
6585.437268273023
 30
0.0
  0
ENDBLK
  5
7FFC
330
842A
100
AcDbEntity
  8
0
100
AcDbBlockEnd
  0
BLOCK
  5
842D
330
842C
100
AcDbEntity
  8
0
100
AcDbBlockBegin
  2
*D9
 70
     1
 10
0.0
 20
0.0
 30
0.0
  3
*D9
  1

  0
LINE
  5
8325
330
842C
100
AcDbEntity
  8
3
 62
     0
100
AcDbLine
 10
1700.169444624878
 20
8725.437268273024
 30
0.0
 11
1700.169444624878
 21
8950.073406778209
 31
0.0
  0
LINE
  5
8326
330
842C
100
AcDbEntity
  8
3
 62
     0
100
AcDbLine
 10
3200.169444624878
 20
8725.437268273024
 30
0.0
 11
3200.169444624878
 21
8950.073406778209
 31
0.0
  0
LINE
  5
8327
330
842C
100
AcDbEntity
  8
3
 62
     0
100
AcDbLine
 10
1780.169444624878
 20
8910.073406778208
 30
0.0
 11
3120.169444624878
 21
8910.073406778208
 31
0.0
  0
INSERT
  5
8328
330
842C
100
AcDbEntity
  8
3
 62
     0
100
AcDbBlockReference
  2
_OPEN
 10
1700.169444624878
 20
8910.073406778208
 30
0.0
 41
80.0
 42
80.0
 43
80.0
 50
180.0
  0
INSERT
  5
8329
330
842C
100
AcDbEntity
  8
3
 62
     0
100
AcDbBlockReference
  2
_OPEN
 10
3200.169444624878
 20
8910.073406778208
 30
0.0
 41
80.0
 42
80.0
 43
80.0
  0
TEXT
  5
8393
330
842C
100
AcDbEntity
  8
3
 62
     0
100
AcDbText
 10
2210.17
 20
8797.670000000001
 30
0.0
 40
120.0
  1
1500
100
AcDbText
  0
POINT
  5
832B
330
842C
100
AcDbEntity
  8
DEFPOINTS
 62
     0
100
AcDbPoint
 10
1700.169444624878
 20
8705.437268273023
 30
0.0
  0
POINT
  5
832C
330
842C
100
AcDbEntity
  8
DEFPOINTS
 62
     0
100
AcDbPoint
 10
3200.169444624878
 20
8705.437268273023
 30
0.0
  0
POINT
  5
832D
330
842C
100
AcDbEntity
  8
DEFPOINTS
 62
     0
100
AcDbPoint
 10
3200.169444624878
 20
8910.073406778208
 30
0.0
  0
ENDBLK
  5
7FF1
330
842C
100
AcDbEntity
  8
0
100
AcDbBlockEnd
  0
BLOCK
  5
842F
330
842E
100
AcDbEntity
  8
0
100
AcDbBlockBegin
  2
*D10
 70
     1
 10
0.0
 20
0.0
 30
0.0
  3
*D10
  1

  0
LINE
  5
832E
330
842E
100
AcDbEntity
  8
3
 62
     0
100
AcDbLine
 10
3200.169444624878
 20
8725.437268273024
 30
0.0
 11
3200.169444624878
 21
8950.073406778209
 31
0.0
  0
LINE
  5
832F
330
842E
100
AcDbEntity
  8
3
 62
     0
100
AcDbLine
 10
4150.169444624879
 20
7605.437268273023
 30
0.0
 11
4150.169444624879
 21
8950.073406778209
 31
0.0
  0
LINE
  5
8330
330
842E
100
AcDbEntity
  8
3
 62
     0
100
AcDbLine
 10
3280.16944462488
 20
8910.073406778208
 30
0.0
 11
4070.169444624879
 21
8910.073406778208
 31
0.0
  0
INSERT
  5
8331
330
842E
100
AcDbEntity
  8
3
 62
     0
100
AcDbBlockReference
  2
_OPEN
 10
3200.169444624878
 20
8910.073406778208
 30
0.0
 41
80.0
 42
80.0
 43
80.0
 50
180.0
  0
INSERT
  5
8332
330
842E
100
AcDbEntity
  8
3
 62
     0
100
AcDbBlockReference
  2
_OPEN
 10
4150.169444624879
 20
8910.073406778208
 30
0.0
 41
80.0
 42
80.0
 43
80.0
  0
TEXT
  5
8394
330
842E
100
AcDbEntity
  8
3
 62
     0
100
AcDbText
 10
3435.17
 20
8797.670000000001
 30
0.0
 40
120.0
  1
950
100
AcDbText
  0
POINT
  5
8334
330
842E
100
AcDbEntity
  8
DEFPOINTS
 62
     0
100
AcDbPoint
 10
3200.169444624878
 20
8705.437268273023
 30
0.0
  0
POINT
  5
8335
330
842E
100
AcDbEntity
  8
DEFPOINTS
 62
     0
100
AcDbPoint
 10
4150.169444624879
 20
7585.437268273023
 30
0.0
  0
POINT
  5
8336
330
842E
100
AcDbEntity
  8
DEFPOINTS
 62
     0
100
AcDbPoint
 10
4150.169444624879
 20
8910.073406778208
 30
0.0
  0
ENDBLK
  5
7FE6
330
842E
100
AcDbEntity
  8
0
100
AcDbBlockEnd
  0
BLOCK
  5
8431
330
8430
100
AcDbEntity
  8
0
100
AcDbBlockBegin
  2
*D11
 70
     1
 10
0.0
 20
0.0
 30
0.0
  3
*D11
  1

  0
LINE
  5
8337
330
8430
100
AcDbEntity
  8
3
 62
     0
100
AcDbLine
 10
4170.169444624879
 20
7585.437268273023
 30
0.0
 11
4456.495845732457
 21
7585.437268273023
 31
0.0
  0
LINE
  5
8338
330
8430
100
AcDbEntity
  8
3
 62
     0
100
AcDbLine
 10
4170.169444624879
 20
6585.437268273023
 30
0.0
 11
4456.495845732457
 21
6585.437268273023
 31
0.0
  0
LINE
  5
8339
330
8430
100
AcDbEntity
  8
3
 62
     0
100
AcDbLine
 10
4416.495845732457
 20
7505.437268273023
 30
0.0
 11
4416.495845732457
 21
6665.437268273023
 31
0.0
  0
INSERT
  5
833A
330
8430
100
AcDbEntity
  8
3
 62
     0
100
AcDbBlockReference
  2
_OPEN
 10
4416.495845732457
 20
7585.437268273023
 30
0.0
 41
80.0
 42
80.0
 43
80.0
 50
90.0
  0
INSERT
  5
833B
330
8430
100
AcDbEntity
  8
3
 62
     0
100
AcDbBlockReference
  2
_OPEN
 10
4416.495845732457
 20
6585.437268273023
 30
0.0
 41
80.0
 42
80.0
 43
80.0
 50
270.0
  0
TEXT
  5
8395
330
8430
100
AcDbEntity
  8
3
 62
     0
100
AcDbText
 10
4076.5
 20
6873.04
 30
0.0
 40
120.0
  1
1000
100
AcDbText
  0
POINT
  5
833D
330
8430
100
AcDbEntity
  8
DEFPOINTS
 62
     0
100
AcDbPoint
 10
4150.169444624879
 20
7585.437268273023
 30
0.0
  0
POINT
  5
833E
330
8430
100
AcDbEntity
  8
DEFPOINTS
 62
     0
100
AcDbPoint
 10
4150.169444624879
 20
6585.437268273023
 30
0.0
  0
POINT
  5
833F
330
8430
100
AcDbEntity
  8
DEFPOINTS
 62
     0
100
AcDbPoint
 10
4416.495845732457
 20
6585.437268273023
 30
0.0
  0
ENDBLK
  5
7FDB
330
8430
100
AcDbEntity
  8
0
100
AcDbBlockEnd
  0
BLOCK
  5
8433
330
8432
100
AcDbEntity
  8
0
100
AcDbBlockBegin
  2
*D12
 70
     1
 10
0.0
 20
0.0
 30
0.0
  3
*D12
  1

  0
LINE
  5
8340
330
8432
100
AcDbEntity
  8
3
 62
     0
100
AcDbLine
 10
4150.169444624879
 20
6565.437268273022
 30
0.0
 11
4150.169444624879
 21
6180.683390083371
 31
0.0
  0
LINE
  5
8341
330
8432
100
AcDbEntity
  8
3
 62
     0
100
AcDbLine
 10
1700.169444624878
 20
6565.437268273021
 30
0.0
 11
1700.169444624878
 21
6180.683390083371
 31
0.0
  0
LINE
  5
8342
330
8432
100
AcDbEntity
  8
3
 62
     0
100
AcDbLine
 10
4070.169444624879
 20
6220.683390083371
 30
0.0
 11
1780.169444624878
 21
6220.683390083371
 31
0.0
  0
INSERT
  5
8343
330
8432
100
AcDbEntity
  8
3
 62
     0
100
AcDbBlockReference
  2
_OPEN
 10
4150.169444624879
 20
6220.683390083371
 30
0.0
 41
80.0
 42
80.0
 43
80.0
  0
INSERT
  5
8344
330
8432
100
AcDbEntity
  8
3
 62
     0
100
AcDbBlockReference
  2
_OPEN
 10
1700.169444624878
 20
6220.683390083371
 30
0.0
 41
80.0
 42
80.0
 43
80.0
 50
180.0
  0
TEXT
  5
8396
330
8432
100
AcDbEntity
  8
3
 62
     0
100
AcDbText
 10
2685.17
 20
6108.28
 30
0.0
 40
120.0
  1
2450
100
AcDbText
  0
POINT
  5
8346
330
8432
100
AcDbEntity
  8
DEFPOINTS
 62
     0
100
AcDbPoint
 10
4150.169444624879
 20
6585.437268273023
 30
0.0
  0
POINT
  5
8347
330
8432
100
AcDbEntity
  8
DEFPOINTS
 62
     0
100
AcDbPoint
 10
1700.169444624878
 20
6585.437268273023
 30
0.0
  0
POINT
  5
8348
330
8432
100
AcDbEntity
  8
DEFPOINTS
 62
     0
100
AcDbPoint
 10
1700.169444624878
 20
6220.683390083371
 30
0.0
  0
ENDBLK
  5
7FD0
330
8432
100
AcDbEntity
  8
0
100
AcDbBlockEnd
  0
BLOCK
  5
8435
330
8434
100
AcDbEntity
  8
0
100
AcDbBlockBegin
  2
*D13
 70
     1
 10
0.0
 20
0.0
 30
0.0
  3
*D13
  1

  0
LINE
  5
8349
330
8434
100
AcDbEntity
  8
3
 62
     0
100
AcDbLine
 10
3784.169444624879
 20
4772.929658934045
 30
0.0
 11
3784.169444624879
 21
5045.940691624004
 31
0.0
  0
LINE
  5
834A
330
8434
100
AcDbEntity
  8
3
 62
     0
100
AcDbLine
 10
2504.169444624878
 20
4772.929658934045
 30
0.0
 11
2504.169444624878
 21
5045.940691624004
 31
0.0
  0
LINE
  5
834B
330
8434
100
AcDbEntity
  8
3
 62
     0
100
AcDbLine
 10
3704.169444624878
 20
5005.940691624002
 30
0.0
 11
2584.169444624878
 21
5005.940691624002
 31
0.0
  0
INSERT
  5
834C
330
8434
100
AcDbEntity
  8
3
 62
     0
100
AcDbBlockReference
  2
_OPEN
 10
3784.169444624879
 20
5005.940691624002
 30
0.0
 41
80.0
 42
80.0
 43
80.0
  0
INSERT
  5
834D
330
8434
100
AcDbEntity
  8
3
 62
     0
100
AcDbBlockReference
  2
_OPEN
 10
2504.169444624878
 20
5005.940691624002
 30
0.0
 41
80.0
 42
80.0
 43
80.0
 50
180.0
  0
TEXT
  5
8397
330
8434
100
AcDbEntity
  8
3
 62
     0
100
AcDbText
 10
2904.17
 20
4893.54
 30
0.0
 40
120.0
  1
1280
100
AcDbText
  0
POINT
  5
834F
330
8434
100
AcDbEntity
  8
DEFPOINTS
 62
     0
100
AcDbPoint
 10
3784.169444624879
 20
4752.929658934045
 30
0.0
  0
POINT
  5
8350
330
8434
100
AcDbEntity
  8
DEFPOINTS
 62
     0
100
AcDbPoint
 10
2504.169444624878
 20
4752.929658934045
 30
0.0
  0
POINT
  5
8351
330
8434
100
AcDbEntity
  8
DEFPOINTS
 62
     0
100
AcDbPoint
 10
2504.169444624878
 20
5005.940691624002
 30
0.0
  0
ENDBLK
  5
7FBA
330
8434
100
AcDbEntity
  8
0
100
AcDbBlockEnd
  0
BLOCK
  5
8437
330
8436
100
AcDbEntity
  8
0
100
AcDbBlockBegin
  2
*D14
 70
     1
 10
0.0
 20
0.0
 30
0.0
  3
*D14
  1

  0
LINE
  5
8352
330
8436
100
AcDbEntity
  8
3
 62
     0
100
AcDbLine
 10
3784.169444624879
 20
4772.929658934045
 30
0.0
 11
3784.169444624879
 21
5293.003534080533
 31
0.0
  0
LINE
  5
8353
330
8436
100
AcDbEntity
  8
3
 62
     0
100
AcDbLine
 10
2450.169444624878
 20
4851.366197182898
 30
0.0
 11
2450.169444624878
 21
5293.003534080533
 31
0.0
  0
LINE
  5
8354
330
8436
100
AcDbEntity
  8
3
 62
     0
100
AcDbLine
 10
3704.169444624878
 20
5253.003534080533
 30
0.0
 11
2530.169444624878
 21
5253.003534080533
 31
0.0
  0
INSERT
  5
8355
330
8436
100
AcDbEntity
  8
3
 62
     0
100
AcDbBlockReference
  2
_OPEN
 10
3784.169444624879
 20
5253.003534080533
 30
0.0
 41
80.0
 42
80.0
 43
80.0
  0
INSERT
  5
8356
330
8436
100
AcDbEntity
  8
3
 62
     0
100
AcDbBlockReference
  2
_OPEN
 10
2450.169444624878
 20
5253.003534080533
 30
0.0
 41
80.0
 42
80.0
 43
80.0
 50
180.0
  0
TEXT
  5
8398
330
8436
100
AcDbEntity
  8
3
 62
     0
100
AcDbText
 10
2877.17
 20
5140.6
 30
0.0
 40
120.0
  1
1334
100
AcDbText
  0
POINT
  5
8358
330
8436
100
AcDbEntity
  8
DEFPOINTS
 62
     0
100
AcDbPoint
 10
3784.169444624879
 20
4752.929658934045
 30
0.0
  0
POINT
  5
8359
330
8436
100
AcDbEntity
  8
DEFPOINTS
 62
     0
100
AcDbPoint
 10
2450.169444624878
 20
4831.366197182897
 30
0.0
  0
POINT
  5
835A
330
8436
100
AcDbEntity
  8
DEFPOINTS
 62
     0
100
AcDbPoint
 10
2450.169444624878
 20
5253.003534080533
 30
0.0
  0
ENDBLK
  5
7FAF
330
8436
100
AcDbEntity
  8
0
100
AcDbBlockEnd
  0
BLOCK
  5
8439
330
8438
100
AcDbEntity
  8
0
100
AcDbBlockBegin
  2
*D15
 70
     1
 10
0.0
 20
0.0
 30
0.0
  3
*D15
  1

  0
LINE
  5
835B
330
8438
100
AcDbEntity
  8
3
 62
     0
100
AcDbLine
 10
2431.169444624878
 20
4752.929658934045
 30
0.0
 11
1245.934760259599
 21
4752.929658934045
 31
0.0
  0
LINE
  5
835C
330
8438
100
AcDbEntity
  8
3
 62
     0
100
AcDbLine
 10
1444.143307902599
 20
3927.929658934044
 30
0.0
 11
1245.934760259599
 21
3927.929658934044
 31
0.0
  0
LINE
  5
835D
330
8438
100
AcDbEntity
  8
3
 62
     0
100
AcDbLine
 10
1285.934760259599
 20
4672.929658934044
 30
0.0
 11
1285.934760259599
 21
4007.929658934044
 31
0.0
  0
INSERT
  5
835E
330
8438
100
AcDbEntity
  8
3
 62
     0
100
AcDbBlockReference
  2
_OPEN
 10
1285.934760259599
 20
4752.929658934045
 30
0.0
 41
80.0
 42
80.0
 43
80.0
 50
90.0
  0
INSERT
  5
835F
330
8438
100
AcDbEntity
  8
3
 62
     0
100
AcDbBlockReference
  2
_OPEN
 10
1285.934760259599
 20
3927.929658934044
 30
0.0
 41
80.0
 42
80.0
 43
80.0
 50
270.0
  0
TEXT
  5
8399
330
8438
100
AcDbEntity
  8
3
 62
     0
100
AcDbText
 10
945.9349999999998
 20
4128.029999999999
 30
0.0
 40
120.0
  1
825
100
AcDbText
  0
POINT
  5
8361
330
8438
100
AcDbEntity
  8
DEFPOINTS
 62
     0
100
AcDbPoint
 10
2451.169444624878
 20
4752.929658934045
 30
0.0
  0
POINT
  5
8362
330
8438
100
AcDbEntity
  8
DEFPOINTS
 62
     0
100
AcDbPoint
 10
1464.143307902599
 20
3927.929658934044
 30
0.0
  0
POINT
  5
8363
330
8438
100
AcDbEntity
  8
DEFPOINTS
 62
     0
100
AcDbPoint
 10
1285.934760259599
 20
3927.929658934044
 30
0.0
  0
ENDBLK
  5
7F8E
330
8438
100
AcDbEntity
  8
0
100
AcDbBlockEnd
  0
BLOCK
  5
843B
330
843A
100
AcDbEntity
  8
0
100
AcDbBlockBegin
  2
*D16
 70
     1
 10
0.0
 20
0.0
 30
0.0
  3
*D16
  1

  0
LINE
  5
8364
330
843A
100
AcDbEntity
  8
3
 62
     0
100
AcDbLine
 10
1444.143307902599
 20
3927.929658934044
 30
0.0
 11
1245.934760259599
 21
3927.929658934044
 31
0.0
  0
LINE
  5
8365
330
843A
100
AcDbEntity
  8
3
 62
     0
100
AcDbLine
 10
1680.169444624878
 20
2817.929658934044
 30
0.0
 11
1245.934760259599
 21
2817.929658934044
 31
0.0
  0
LINE
  5
8366
330
843A
100
AcDbEntity
  8
3
 62
     0
100
AcDbLine
 10
1285.934760259599
 20
3847.929658934045
 30
0.0
 11
1285.934760259599
 21
2897.929658934044
 31
0.0
  0
INSERT
  5
8367
330
843A
100
AcDbEntity
  8
3
 62
     0
100
AcDbBlockReference
  2
_OPEN
 10
1285.934760259599
 20
3927.929658934044
 30
0.0
 41
80.0
 42
80.0
 43
80.0
 50
90.0
  0
INSERT
  5
8368
330
843A
100
AcDbEntity
  8
3
 62
     0
100
AcDbBlockReference
  2
_OPEN
 10
1285.934760259599
 20
2817.929658934044
 30
0.0
 41
80.0
 42
80.0
 43
80.0
 50
270.0
  0
TEXT
  5
839A
330
843A
100
AcDbEntity
  8
3
 62
     0
100
AcDbText
 10
945.9349999999998
 20
3160.53
 30
0.0
 40
120.0
  1
1110
100
AcDbText
  0
POINT
  5
836A
330
843A
100
AcDbEntity
  8
DEFPOINTS
 62
     0
100
AcDbPoint
 10
1464.143307902599
 20
3927.929658934044
 30
0.0
  0
POINT
  5
836B
330
843A
100
AcDbEntity
  8
DEFPOINTS
 62
     0
100
AcDbPoint
 10
1700.169444624878
 20
2817.929658934044
 30
0.0
  0
POINT
  5
836C
330
843A
100
AcDbEntity
  8
DEFPOINTS
 62
     0
100
AcDbPoint
 10
1285.934760259599
 20
2817.929658934044
 30
0.0
  0
ENDBLK
  5
7F83
330
843A
100
AcDbEntity
  8
0
100
AcDbBlockEnd
  0
BLOCK
  5
843D
330
843C
100
AcDbEntity
  8
0
100
AcDbBlockBegin
  2
*D17
 70
     1
 10
0.0
 20
0.0
 30
0.0
  3
*D17
  1

  0
LINE
  5
836D
330
843C
100
AcDbEntity
  8
3
 62
     0
100
AcDbLine
 10
1680.169444624878
 20
2702.929658934044
 30
0.0
 11
1245.934760259599
 21
2702.929658934044
 31
0.0
  0
LINE
  5
836E
330
843C
100
AcDbEntity
  8
3
 62
     0
100
AcDbLine
 10
1680.169444624878
 20
2637.929658934044
 30
0.0
 11
1245.934760259599
 21
2637.929658934044
 31
0.0
  0
LINE
  5
836F
330
843C
100
AcDbEntity
  8
3
 62
     0
100
AcDbLine
 10
1285.934760259599
 20
2782.929658934044
 30
0.0
 11
1285.934760259599
 21
2862.929658934044
 31
0.0
  0
LINE
  5
8370
330
843C
100
AcDbEntity
  8
3
 62
     0
100
AcDbLine
 10
1285.934760259598
 20
2557.929658934044
 30
0.0
 11
1285.934760259598
 21
2203.64394464833
 31
0.0
  0
LINE
  5
8371
330
843C
100
AcDbEntity
  8
3
 62
     0
100
AcDbLine
 10
1285.934760259599
 20
2702.929658934044
 30
0.0
 11
1285.934760259599
 21
2637.929658934044
 31
0.0
  0
INSERT
  5
8372
330
843C
100
AcDbEntity
  8
3
 62
     0
100
AcDbBlockReference
  2
_DOT
 10
1285.934760259599
 20
2702.929658934044
 30
0.0
 41
80.0
 42
80.0
 43
80.0
 50
270.0
  0
INSERT
  5
8373
330
843C
100
AcDbEntity
  8
3
 62
     0
100
AcDbBlockReference
  2
_OPEN
 10
1285.934760259599
 20
2637.929658934044
 30
0.0
 41
80.0
 42
80.0
 43
80.0
 50
90.0
  0
TEXT
  5
839B
330
843C
100
AcDbEntity
  8
3
 62
     0
100
AcDbText
 10
945.9349999999998
 20
2128.39
 30
0.0
 40
120.0
  1
65
100
AcDbText
  0
POINT
  5
8375
330
843C
100
AcDbEntity
  8
DEFPOINTS
 62
     0
100
AcDbPoint
 10
1700.169444624878
 20
2702.929658934044
 30
0.0
  0
POINT
  5
8376
330
843C
100
AcDbEntity
  8
DEFPOINTS
 62
     0
100
AcDbPoint
 10
1700.169444624878
 20
2637.929658934044
 30
0.0
  0
POINT
  5
8377
330
843C
100
AcDbEntity
  8
DEFPOINTS
 62
     0
100
AcDbPoint
 10
1285.934760259599
 20
2637.929658934044
 30
0.0
  0
ENDBLK
  5
80ED
330
843C
100
AcDbEntity
  8
0
100
AcDbBlockEnd
  0
BLOCK
  5
8444
330
843E
100
AcDbEntity
  8
0
100
AcDbBlockBegin
  2
_DOT
 70
     0
 10
0.0
 20
0.0
 30
0.0
  3
_DOT
  1

  0
LINE
  5
80EE
330
843E
100
AcDbEntity
  8
0
  6
ByBlock
 62
     0
100
AcDbLine
 10
0.0
 20
0.0
 30
0.0
 11
-1.0
 21
-0.0000000000000284
 31
0.0
  0
LWPOLYLINE
  5
80EF
330
843E
100
AcDbEntity
  8
0
  6
ByBlock
 62
     0
100
AcDbPolyline
 90
        2
 70
     1
 43
0.1666666666666666
 10
-0.0833333333333286
 20
-0.0000000000000284
 42
1.0
 10
0.0833333333333286
 20
-0.0000000000000284
 42
1.0
  0
ENDBLK
  5
80D3
330
843E
100
AcDbEntity
  8
0
100
AcDbBlockEnd
  0
BLOCK
  5
8440
330
843F
100
AcDbEntity
  8
0
100
AcDbBlockBegin
  2
*D19
 70
     1
 10
0.0
 20
0.0
 30
0.0
  3
*D19
  1

  0
LINE
  5
8378
330
843F
100
AcDbEntity
  8
3
 62
     0
100
AcDbLine
 10
4150.169444624879
 20
2962.929658934045
 30
0.0
 11
4150.169444624879
 21
5534.836675797562
 31
0.0
  0
LINE
  5
8379
330
843F
100
AcDbEntity
  8
3
 62
     0
100
AcDbLine
 10
1553.169444624878
 20
3856.929658934045
 30
0.0
 11
1553.169444624878
 21
5534.836675797562
 31
0.0
  0
LINE
  5
837A
330
843F
100
AcDbEntity
  8
3
 62
     0
100
AcDbLine
 10
4070.169444624879
 20
5494.836675797562
 30
0.0
 11
1633.169444624878
 21
5494.836675797562
 31
0.0
  0
INSERT
  5
837B
330
843F
100
AcDbEntity
  8
3
 62
     0
100
AcDbBlockReference
  2
_OPEN
 10
4150.169444624879
 20
5494.836675797562
 30
0.0
 41
80.0
 42
80.0
 43
80.0
  0
INSERT
  5
837C
330
843F
100
AcDbEntity
  8
3
 62
     0
100
AcDbBlockReference
  2
_OPEN
 10
1553.169444624878
 20
5494.836675797562
 30
0.0
 41
80.0
 42
80.0
 43
80.0
 50
180.0
  0
TEXT
  5
839C
330
843F
100
AcDbEntity
  8
3
 62
     0
100
AcDbText
 10
2611.67
 20
5382.439999999999
 30
0.0
 40
120.0
  1
2597
100
AcDbText
  0
POINT
  5
837E
330
843F
100
AcDbEntity
  8
DEFPOINTS
 62
     0
100
AcDbPoint
 10
4150.169444624879
 20
2942.929658934044
 30
0.0
  0
POINT
  5
837F
330
843F
100
AcDbEntity
  8
DEFPOINTS
 62
     0
100
AcDbPoint
 10
1553.169444624878
 20
3836.929658934045
 30
0.0
  0
POINT
  5
8380
330
843F
100
AcDbEntity
  8
DEFPOINTS
 62
     0
100
AcDbPoint
 10
1553.169444624878
 20
5494.836675797562
 30
0.0
  0
ENDBLK
  5
7F53
330
843F
100
AcDbEntity
  8
0
100
AcDbBlockEnd
  0
BLOCK
  5
8442
330
8441
100
AcDbEntity
  8
0
100
AcDbBlockBegin
  2
*D20
 70
     1
 10
0.0
 20
0.0
 30
0.0
  3
*D20
  1

  0
LINE
  5
8381
330
8441
100
AcDbEntity
  8
3
 62
     0
100
AcDbLine
 10
2450.169444624878
 20
4851.366197182898
 30
0.0
 11
2450.169444624878
 21
5293.003534080533
 31
0.0
  0
LINE
  5
8382
330
8441
100
AcDbEntity
  8
3
 62
     0
100
AcDbLine
 10
1553.169444624878
 20
3856.929658934045
 30
0.0
 11
1553.169444624878
 21
5293.003534080533
 31
0.0
  0
LINE
  5
8383
330
8441
100
AcDbEntity
  8
3
 62
     0
100
AcDbLine
 10
2370.169444624878
 20
5253.003534080533
 30
0.0
 11
1633.169444624878
 21
5253.003534080533
 31
0.0
  0
INSERT
  5
8384
330
8441
100
AcDbEntity
  8
3
 62
     0
100
AcDbBlockReference
  2
_OPEN
 10
2450.169444624878
 20
5253.003534080533
 30
0.0
 41
80.0
 42
80.0
 43
80.0
  0
INSERT
  5
8385
330
8441
100
AcDbEntity
  8
3
 62
     0
100
AcDbBlockReference
  2
_OPEN
 10
1553.169444624878
 20
5253.003534080533
 30
0.0
 41
80.0
 42
80.0
 43
80.0
 50
180.0
  0
TEXT
  5
839D
330
8441
100
AcDbEntity
  8
3
 62
     0
100
AcDbText
 10
1761.67
 20
5140.6
 30
0.0
 40
120.0
  1
897
100
AcDbText
  0
POINT
  5
8387
330
8441
100
AcDbEntity
  8
DEFPOINTS
 62
     0
100
AcDbPoint
 10
2450.169444624878
 20
4831.366197182897
 30
0.0
  0
POINT
  5
8388
330
8441
100
AcDbEntity
  8
DEFPOINTS
 62
     0
100
AcDbPoint
 10
1553.169444624878
 20
3836.929658934045
 30
0.0
  0
POINT
  5
8389
330
8441
100
AcDbEntity
  8
DEFPOINTS
 62
     0
100
AcDbPoint
 10
1553.169444624878
 20
5253.003534080533
 30
0.0
  0
ENDBLK
  5
7F48
330
8441
100
AcDbEntity
  8
0
100
AcDbBlockEnd
  0
BLOCK
  5
8446
330
8445
100
AcDbEntity
  8
0
100
AcDbBlockBegin
  2
*D21
 70
     1
 10
0.0
 20
0.0
 30
0.0
  3
*D21
  1

  0
LINE
  5
8186
330
8445
100
AcDbEntity
  8
0
  6
ByBlock
 62
     0
100
AcDbLine
 10
1700.169444624878
 20
2712.929658934045
 30
0.0
 11
1700.169444624878
 21
2419.435559259185
 31
0.0
  0
LINE
  5
8187
330
8445
100
AcDbEntity
  8
0
  6
ByBlock
 62
     0
100
AcDbLine
 10
2450.169444624878
 20
2712.929658934044
 30
0.0
 11
2450.169444624878
 21
2419.435559259185
 31
0.0
  0
LINE
  5
8188
330
8445
100
AcDbEntity
  8
0
  6
ByBlock
 62
     0
100
AcDbLine
 10
1780.169444624878
 20
2459.435559259186
 30
0.0
 11
2370.169444624877
 21
2459.435559259186
 31
0.0
  0
INSERT
  5
8189
330
8445
100
AcDbEntity
  8
0
  6
ByBlock
 62
     0
100
AcDbBlockReference
  2
_OPEN
 10
1700.169444624878
 20
2459.435559259186
 30
0.0
 41
80.0
 42
80.0
 43
80.0
 50
180.0
  0
INSERT
  5
818A
330
8445
100
AcDbEntity
  8
0
  6
ByBlock
 62
     0
100
AcDbBlockReference
  2
_OPEN
 10
2450.169444624878
 20
2459.435559259186
 30
0.0
 41
80.0
 42
80.0
 43
80.0
  0
TEXT
  5
818B
330
8445
100
AcDbEntity
  8
3
 62
     0
100
AcDbText
 10
1920.883730339164
 20
2499.435559259185
 30
0.0
 40
120.0
  1
750
100
AcDbText
  0
POINT
  5
818C
330
8445
100
AcDbEntity
  8
DEFPOINTS
  6
ByBlock
 62
     0
100
AcDbPoint
 10
1700.169444624878
 20
2732.929658934045
 30
0.0
  0
POINT
  5
818D
330
8445
100
AcDbEntity
  8
DEFPOINTS
  6
ByBlock
 62
     0
100
AcDbPoint
 10
2450.169444624878
 20
2732.929658934044
 30
0.0
  0
POINT
  5
818E
330
8445
100
AcDbEntity
  8
DEFPOINTS
  6
ByBlock
 62
     0
100
AcDbPoint
 10
2450.169444624878
 20
2459.435559259186
 30
0.0
  0
ENDBLK
  5
818F
330
8445
100
AcDbEntity
  8
0
100
AcDbBlockEnd
  0
BLOCK
  5
8448
330
8447
100
AcDbEntity
  8
0
100
AcDbBlockBegin
  2
*D22
 70
     1
 10
0.0
 20
0.0
 30
0.0
  3
*D22
  1

  0
LINE
  5
8193
330
8447
100
AcDbEntity
  8
0
  6
ByBlock
 62
     0
100
AcDbLine
 10
2450.169444624878
 20
2712.929658934044
 30
0.0
 11
2450.169444624878
 21
2419.435559259185
 31
0.0
  0
LINE
  5
8194
330
8447
100
AcDbEntity
  8
0
  6
ByBlock
 62
     0
100
AcDbLine
 10
4150.169444624879
 20
2712.929658934045
 30
0.0
 11
4150.169444624879
 21
2419.435559259185
 31
0.0
  0
LINE
  5
8195
330
8447
100
AcDbEntity
  8
0
  6
ByBlock
 62
     0
100
AcDbLine
 10
2530.169444624878
 20
2459.435559259186
 30
0.0
 11
4070.169444624879
 21
2459.435559259186
 31
0.0
  0
INSERT
  5
8196
330
8447
100
AcDbEntity
  8
0
  6
ByBlock
 62
     0
100
AcDbBlockReference
  2
_OPEN
 10
2450.169444624878
 20
2459.435559259186
 30
0.0
 41
80.0
 42
80.0
 43
80.0
 50
180.0
  0
INSERT
  5
8197
330
8447
100
AcDbEntity
  8
0
  6
ByBlock
 62
     0
100
AcDbBlockReference
  2
_OPEN
 10
4150.169444624879
 20
2459.435559259186
 30
0.0
 41
80.0
 42
80.0
 43
80.0
  0
TEXT
  5
8198
330
8447
100
AcDbEntity
  8
3
 62
     0
100
AcDbText
 10
3100.169444624878
 20
2499.435559259185
 30
0.0
 40
120.0
  1
1700
100
AcDbText
  0
POINT
  5
8199
330
8447
100
AcDbEntity
  8
DEFPOINTS
  6
ByBlock
 62
     0
100
AcDbPoint
 10
2450.169444624878
 20
2732.929658934044
 30
0.0
  0
POINT
  5
819A
330
8447
100
AcDbEntity
  8
DEFPOINTS
  6
ByBlock
 62
     0
100
AcDbPoint
 10
4150.169444624879
 20
2732.929658934045
 30
0.0
  0
POINT
  5
819B
330
8447
100
AcDbEntity
  8
DEFPOINTS
  6
ByBlock
 62
     0
100
AcDbPoint
 10
4150.169444624879
 20
2459.435559259186
 30
0.0
  0
ENDBLK
  5
819C
330
8447
100
AcDbEntity
  8
0
100
AcDbBlockEnd
  0
BLOCK
  5
844A
330
8449
100
AcDbEntity
  8
0
100
AcDbBlockBegin
  2
*D23
 70
     1
 10
0.0
 20
0.0
 30
0.0
  3
*D23
  1

  0
LINE
  5
81A0
330
8449
100
AcDbEntity
  8
0
  6
ByBlock
 62
     0
100
AcDbLine
 10
4876.039116178848
 20
2712.929658934045
 30
0.0
 11
4876.039116178848
 21
2419.435559259185
 31
0.0
  0
LINE
  5
81A1
330
8449
100
AcDbEntity
  8
0
  6
ByBlock
 62
     0
100
AcDbLine
 10
6078.039116178845
 20
2712.929658934045
 30
0.0
 11
6078.039116178845
 21
2419.435559259185
 31
0.0
  0
LINE
  5
81A2
330
8449
100
AcDbEntity
  8
0
  6
ByBlock
 62
     0
100
AcDbLine
 10
4956.039116178846
 20
2459.435559259186
 30
0.0
 11
5998.039116178844
 21
2459.435559259186
 31
0.0
  0
INSERT
  5
81A3
330
8449
100
AcDbEntity
  8
0
  6
ByBlock
 62
     0
100
AcDbBlockReference
  2
_OPEN
 10
4876.039116178848
 20
2459.435559259186
 30
0.0
 41
80.0
 42
80.0
 43
80.0
 50
180.0
  0
INSERT
  5
81A4
330
8449
100
AcDbEntity
  8
0
  6
ByBlock
 62
     0
100
AcDbBlockReference
  2
_OPEN
 10
6078.039116178845
 20
2459.435559259186
 30
0.0
 41
80.0
 42
80.0
 43
80.0
  0
TEXT
  5
81A5
330
8449
100
AcDbEntity
  8
3
 62
     0
100
AcDbText
 10
5277.039116178847
 20
2499.435559259185
 30
0.0
 40
120.0
  1
1202
100
AcDbText
  0
POINT
  5
81A6
330
8449
100
AcDbEntity
  8
DEFPOINTS
  6
ByBlock
 62
     0
100
AcDbPoint
 10
4876.039116178848
 20
2732.929658934045
 30
0.0
  0
POINT
  5
81A7
330
8449
100
AcDbEntity
  8
DEFPOINTS
  6
ByBlock
 62
     0
100
AcDbPoint
 10
6078.039116178845
 20
2732.929658934045
 30
0.0
  0
POINT
  5
81A8
330
8449
100
AcDbEntity
  8
DEFPOINTS
  6
ByBlock
 62
     0
100
AcDbPoint
 10
6078.039116178845
 20
2459.435559259186
 30
0.0
  0
ENDBLK
  5
81A9
330
8449
100
AcDbEntity
  8
0
100
AcDbBlockEnd
  0
BLOCK
  5
844C
330
844B
100
AcDbEntity
  8
0
100
AcDbBlockBegin
  2
*D24
 70
     1
 10
0.0
 20
0.0
 30
0.0
  3
*D24
  1

  0
LINE
  5
81AD
330
844B
100
AcDbEntity
  8
0
  6
ByBlock
 62
     0
100
AcDbLine
 10
6078.039116178845
 20
2712.929658934045
 30
0.0
 11
6078.039116178845
 21
2419.435559259185
 31
0.0
  0
LINE
  5
81AE
330
844B
100
AcDbEntity
  8
0
  6
ByBlock
 62
     0
100
AcDbLine
 10
6996.039116178846
 20
2712.929658934045
 30
0.0
 11
6996.039116178846
 21
2419.435559259185
 31
0.0
  0
LINE
  5
81AF
330
844B
100
AcDbEntity
  8
0
  6
ByBlock
 62
     0
100
AcDbLine
 10
6158.039116178844
 20
2459.435559259186
 30
0.0
 11
6916.039116178847
 21
2459.435559259186
 31
0.0
  0
INSERT
  5
81B0
330
844B
100
AcDbEntity
  8
0
  6
ByBlock
 62
     0
100
AcDbBlockReference
  2
_OPEN
 10
6078.039116178845
 20
2459.435559259186
 30
0.0
 41
80.0
 42
80.0
 43
80.0
 50
180.0
  0
INSERT
  5
81B1
330
844B
100
AcDbEntity
  8
0
  6
ByBlock
 62
     0
100
AcDbBlockReference
  2
_OPEN
 10
6996.039116178846
 20
2459.435559259186
 30
0.0
 41
80.0
 42
80.0
 43
80.0
  0
TEXT
  5
81B2
330
844B
100
AcDbEntity
  8
3
 62
     0
100
AcDbText
 10
6394.181973321702
 20
2499.435559259185
 30
0.0
 40
120.0
  1
918
100
AcDbText
  0
POINT
  5
81B3
330
844B
100
AcDbEntity
  8
DEFPOINTS
  6
ByBlock
 62
     0
100
AcDbPoint
 10
6078.039116178845
 20
2732.929658934045
 30
0.0
  0
POINT
  5
81B4
330
844B
100
AcDbEntity
  8
DEFPOINTS
  6
ByBlock
 62
     0
100
AcDbPoint
 10
6996.039116178846
 20
2732.929658934045
 30
0.0
  0
POINT
  5
81B5
330
844B
100
AcDbEntity
  8
DEFPOINTS
  6
ByBlock
 62
     0
100
AcDbPoint
 10
6996.039116178846
 20
2459.435559259186
 30
0.0
  0
ENDBLK
  5
81B6
330
844B
100
AcDbEntity
  8
0
100
AcDbBlockEnd
  0
BLOCK
  5
844E
330
844D
100
AcDbEntity
  8
0
100
AcDbBlockBegin
  2
_NONE
 70
     0
 10
0.0
 20
0.0
 30
0.0
  3
_NONE
  1

  0
CIRCLE
  5
81BA
330
844D
100
AcDbEntity
  8
0
  6
ByBlock
 62
     0
100
AcDbCircle
 10
0.0
 20
0.0
 30
0.0
 40
0.25
  0
ENDBLK
  5
81BB
330
844D
100
AcDbEntity
  8
0
100
AcDbBlockEnd
  0
BLOCK
  5
8450
330
844F
100
AcDbEntity
  8
0
100
AcDbBlockBegin
  2
*D26
 70
     1
 10
0.0
 20
0.0
 30
0.0
  3
*D26
  1

  0
LINE
  5
8209
330
844F
100
AcDbEntity
  8
0
  6
ByBlock
 62
     0
100
AcDbLine
 10
1287.751998098705
 20
2702.929658934044
 30
0.0
 11
1287.751998098705
 21
2817.929658934044
 31
0.0
  0
TEXT
  5
820A
330
844F
100
AcDbEntity
  8
3
 62
     0
100
AcDbText
 10
1136.323426670134
 20
2443.858230362616
 30
0.0
 40
120.0
  1
   (115)
 50
90.0
100
AcDbText
  0
POINT
  5
820B
330
844F
100
AcDbEntity
  8
DEFPOINTS
  6
ByBlock
 62
     0
100
AcDbPoint
 10
1700.169444624878
 20
2702.929658934044
 30
0.0
  0
POINT
  5
820C
330
844F
100
AcDbEntity
  8
DEFPOINTS
  6
ByBlock
 62
     0
100
AcDbPoint
 10
1700.169444624878
 20
2817.929658934044
 30
0.0
  0
POINT
  5
820D
330
844F
100
AcDbEntity
  8
DEFPOINTS
  6
ByBlock
 62
     0
100
AcDbPoint
 10
1287.751998098705
 20
2817.929658934044
 30
0.0
  0
ENDBLK
  5
820E
330
844F
100
AcDbEntity
  8
0
100
AcDbBlockEnd
  0
BLOCK
  5
8452
330
8451
100
AcDbEntity
  8
0
100
AcDbBlockBegin
  2
*D27
 70
     1
 10
0.0
 20
0.0
 30
0.0
  3
*D27
  1

  0
LINE
  5
8211
330
8451
100
AcDbEntity
  8
0
  6
ByBlock
 62
     0
100
AcDbLine
 10
1680.169444624878
 20
2637.929658934044
 30
0.0
 11
896.0395945526833
 21
2637.929658934044
 31
0.0
  0
LINE
  5
8212
330
8451
100
AcDbEntity
  8
0
  6
ByBlock
 62
     0
100
AcDbLine
 10
2411.169444624878
 20
4752.929658934045
 30
0.0
 11
896.0395945526833
 21
4752.929658934045
 31
0.0
  0
LINE
  5
8213
330
8451
100
AcDbEntity
  8
0
  6
ByBlock
 62
     0
100
AcDbLine
 10
936.0395945526834
 20
2717.929658934044
 30
0.0
 11
936.0395945526834
 21
4672.929658934044
 31
0.0
  0
INSERT
  5
8214
330
8451
100
AcDbEntity
  8
0
  6
ByBlock
 62
     0
100
AcDbBlockReference
  2
_OPEN
 10
936.0395945526834
 20
2637.929658934044
 30
0.0
 41
80.0
 42
80.0
 43
80.0
 50
270.0
  0
INSERT
  5
8215
330
8451
100
AcDbEntity
  8
0
  6
ByBlock
 62
     0
100
AcDbBlockReference
  2
_OPEN
 10
936.0395945526834
 20
4752.929658934045
 30
0.0
 41
80.0
 42
80.0
 43
80.0
 50
90.0
  0
TEXT
  5
8216
330
8451
100
AcDbEntity
  8
3
 62
     0
100
AcDbText
 10
844.6110231241119
 20
3429.715373219759
 30
0.0
 40
120.0
  1
(2115)
 50
90.0
100
AcDbText
  0
POINT
  5
8217
330
8451
100
AcDbEntity
  8
DEFPOINTS
  6
ByBlock
 62
     0
100
AcDbPoint
 10
1700.169444624878
 20
2637.929658934044
 30
0.0
  0
POINT
  5
8218
330
8451
100
AcDbEntity
  8
DEFPOINTS
  6
ByBlock
 62
     0
100
AcDbPoint
 10
2431.169444624878
 20
4752.929658934045
 30
0.0
  0
POINT
  5
8219
330
8451
100
AcDbEntity
  8
DEFPOINTS
  6
ByBlock
 62
     0
100
AcDbPoint
 10
936.0395945526834
 20
4752.929658934045
 30
0.0
  0
ENDBLK
  5
821A
330
8451
100
AcDbEntity
  8
0
100
AcDbBlockEnd
  0
BLOCK
  5
84AF
330
84AE
100
AcDbEntity
  8
0
100
AcDbBlockBegin
  2
*D28
 70
     1
 10
0.0
 20
0.0
 30
0.0
  3
*D28
  1

  0
LINE
  5
84B1
330
84AE
100
AcDbEntity
  8
3
 62
     0
370
    -2
100
AcDbLine
 10
1287.751998098705
 20
2720.129658934044
 30
0.0
 11
1287.751998098705
 21
2756.34394464833
 31
0.0
  0
LINE
  5
84B2
330
84AE
100
AcDbEntity
  8
3
 62
     0
370
    -2
100
AcDbLine
 10
1287.751998098705
 20
2810.729658934045
 30
0.0
 11
1287.751998098705
 21
2774.515373219759
 31
0.0
  0
SOLID
  5
84B3
330
84AE
100
AcDbEntity
  8
3
 62
     0
100
AcDbTrace
 10
1286.551998098705
 20
2720.129658934044
 30
0.0
 11
1288.951998098705
 21
2720.129658934044
 31
0.0
 12
1287.751998098705
 22
2712.929658934044
 32
0.0
 13
1287.751998098705
 23
2712.929658934044
 33
0.0
  0
SOLID
  5
84B4
330
84AE
100
AcDbEntity
  8
3
 62
     0
100
AcDbTrace
 10
1286.551998098705
 20
2810.729658934045
 30
0.0
 11
1288.951998098705
 21
2810.729658934045
 31
0.0
 12
1287.751998098705
 22
2817.929658934044
 32
0.0
 13
1287.751998098705
 23
2817.929658934044
 33
0.0
  0
MTEXT
  5
84B5
330
84AE
100
AcDbEntity
  8
3
 62
     0
100
AcDbMText
 10
1287.751998098704
 20
2765.429658934045
 30
0.0
 40
7.199999999999999
 41
0.0
 71
     5
 72
     1
  1
\A1;   (105)
 73
     1
 44
1.0
1001
ACAD
1000
MTEXTBEGIN
1070
    73
1070
     1
1070
    44
1040
1.0
1070
    74
1070
     0
1000
MTEXTEND
  0
POINT
  5
84B6
330
84AE
100
AcDbEntity
  8
DEFPOINTS
 62
     0
100
AcDbPoint
 10
1700.169444624878
 20
2712.929658934044
 30
0.0
  0
POINT
  5
84B7
330
84AE
100
AcDbEntity
  8
DEFPOINTS
 62
     0
100
AcDbPoint
 10
1700.169444624878
 20
2817.929658934044
 30
0.0
  0
POINT
  5
84B8
330
84AE
100
AcDbEntity
  8
DEFPOINTS
 62
     0
100
AcDbPoint
 10
1287.751998098705
 20
2817.929658934044
 30
0.0
  0
ENDBLK
  5
84B0
330
84AE
100
AcDbEntity
  8
0
100
AcDbBlockEnd
  0
BLOCK
  5
84BA
330
84B9
100
AcDbEntity
  8
0
100
AcDbBlockBegin
  2
*D29
 70
     1
 10
0.0
 20
0.0
 30
0.0
  3
*D29
  1

  0
LINE
  5
84BC
330
84B9
100
AcDbEntity
  8
3
 62
     0
370
    -2
100
AcDbLine
 10
1700.169444624878
 20
2645.429658934044
 30
0.0
 11
1700.169444624878
 21
2367.235559259185
 31
0.0
  0
LINE
  5
84BD
330
84B9
100
AcDbEntity
  8
3
 62
     0
370
    -2
100
AcDbLine
 10
2450.169444624878
 20
2645.429658934044
 30
0.0
 11
2450.169444624878
 21
2367.235559259185
 31
0.0
  0
LINE
  5
84BE
330
84B9
100
AcDbEntity
  8
3
 62
     0
370
    -2
100
AcDbLine
 10
1707.369444624878
 20
2374.435559259185
 30
0.0
 11
2062.312301767736
 21
2374.435559259185
 31
0.0
  0
LINE
  5
84BF
330
84B9
100
AcDbEntity
  8
3
 62
     0
370
    -2
100
AcDbLine
 10
2442.969444624878
 20
2374.435559259185
 30
0.0
 11
2088.026587482021
 21
2374.435559259185
 31
0.0
  0
SOLID
  5
84C0
330
84B9
100
AcDbEntity
  8
3
 62
     0
100
AcDbTrace
 10
1707.369444624878
 20
2375.635559259185
 30
0.0
 11
1707.369444624878
 21
2373.235559259185
 31
0.0
 12
1700.169444624878
 22
2374.435559259185
 32
0.0
 13
1700.169444624878
 23
2374.435559259185
 33
0.0
  0
SOLID
  5
84C1
330
84B9
100
AcDbEntity
  8
3
 62
     0
100
AcDbTrace
 10
2442.969444624878
 20
2375.635559259185
 30
0.0
 11
2442.969444624878
 21
2373.235559259185
 31
0.0
 12
2450.169444624878
 22
2374.435559259185
 32
0.0
 13
2450.169444624878
 23
2374.435559259185
 33
0.0
  0
MTEXT
  5
84C2
330
84B9
100
AcDbEntity
  8
3
 62
     0
100
AcDbMText
 10
2075.169444624878
 20
2374.435559259185
 30
0.0
 40
7.199999999999999
 41
0.0
 71
     5
 72
     1
  1
\A1;750
 73
     1
 44
1.0
1001
ACAD
1000
MTEXTBEGIN
1070
    73
1070
     1
1070
    44
1040
1.0
1070
    74
1070
     0
1000
MTEXTEND
  0
POINT
  5
84C3
330
84B9
100
AcDbEntity
  8
DEFPOINTS
 62
     0
100
AcDbPoint
 10
1700.169444624878
 20
2647.929658934044
 30
0.0
  0
POINT
  5
84C4
330
84B9
100
AcDbEntity
  8
DEFPOINTS
 62
     0
100
AcDbPoint
 10
2450.169444624878
 20
2647.929658934044
 30
0.0
  0
POINT
  5
84C5
330
84B9
100
AcDbEntity
  8
DEFPOINTS
 62
     0
100
AcDbPoint
 10
2450.169444624878
 20
2374.435559259185
 30
0.0
  0
ENDBLK
  5
84BB
330
84B9
100
AcDbEntity
  8
0
100
AcDbBlockEnd
  0
BLOCK
  5
84C7
330
84C6
100
AcDbEntity
  8
0
100
AcDbBlockBegin
  2
*D30
 70
     1
 10
0.0
 20
0.0
 30
0.0
  3
*D30
  1

  0
LINE
  5
84C9
330
84C6
100
AcDbEntity
  8
3
 62
     0
370
    -2
100
AcDbLine
 10
2450.169444624878
 20
2645.429658934044
 30
0.0
 11
2450.169444624878
 21
2367.235559259185
 31
0.0
  0
LINE
  5
84CA
330
84C6
100
AcDbEntity
  8
3
 62
     0
370
    -2
100
AcDbLine
 10
4150.169444624879
 20
2645.429658934044
 30
0.0
 11
4150.169444624879
 21
2367.235559259185
 31
0.0
  0
LINE
  5
84CB
330
84C6
100
AcDbEntity
  8
3
 62
     0
370
    -2
100
AcDbLine
 10
2457.369444624878
 20
2374.435559259185
 30
0.0
 11
3284.569444624878
 21
2374.435559259185
 31
0.0
  0
LINE
  5
84CC
330
84C6
100
AcDbEntity
  8
3
 62
     0
370
    -2
100
AcDbLine
 10
4142.969444624879
 20
2374.435559259185
 30
0.0
 11
3315.769444624879
 21
2374.435559259185
 31
0.0
  0
SOLID
  5
84CD
330
84C6
100
AcDbEntity
  8
3
 62
     0
100
AcDbTrace
 10
2457.369444624878
 20
2375.635559259185
 30
0.0
 11
2457.369444624878
 21
2373.235559259185
 31
0.0
 12
2450.169444624878
 22
2374.435559259185
 32
0.0
 13
2450.169444624878
 23
2374.435559259185
 33
0.0
  0
SOLID
  5
84CE
330
84C6
100
AcDbEntity
  8
3
 62
     0
100
AcDbTrace
 10
4142.969444624879
 20
2375.635559259185
 30
0.0
 11
4142.969444624879
 21
2373.235559259185
 31
0.0
 12
4150.169444624879
 22
2374.435559259185
 32
0.0
 13
4150.169444624879
 23
2374.435559259185
 33
0.0
  0
MTEXT
  5
84CF
330
84C6
100
AcDbEntity
  8
3
 62
     0
100
AcDbMText
 10
3300.169444624879
 20
2374.435559259185
 30
0.0
 40
7.199999999999999
 41
0.0
 71
     5
 72
     1
  1
\A1;1700
 73
     1
 44
1.0
1001
ACAD
1000
MTEXTBEGIN
1070
    73
1070
     1
1070
    44
1040
1.0
1070
    74
1070
     0
1000
MTEXTEND
  0
POINT
  5
84D0
330
84C6
100
AcDbEntity
  8
DEFPOINTS
 62
     0
100
AcDbPoint
 10
2450.169444624878
 20
2647.929658934044
 30
0.0
  0
POINT
  5
84D1
330
84C6
100
AcDbEntity
  8
DEFPOINTS
 62
     0
100
AcDbPoint
 10
4150.169444624879
 20
2647.929658934044
 30
0.0
  0
POINT
  5
84D2
330
84C6
100
AcDbEntity
  8
DEFPOINTS
 62
     0
100
AcDbPoint
 10
4150.169444624879
 20
2374.435559259185
 30
0.0
  0
ENDBLK
  5
84C8
330
84C6
100
AcDbEntity
  8
0
100
AcDbBlockEnd
  0
BLOCK
  5
84D4
330
84D3
100
AcDbEntity
  8
0
100
AcDbBlockBegin
  2
*D31
 70
     1
 10
0.0
 20
0.0
 30
0.0
  3
*D31
  1

  0
LINE
  5
84D6
330
84D3
100
AcDbEntity
  8
3
 62
     0
370
    -2
100
AcDbLine
 10
4876.039116178848
 20
2645.429658934044
 30
0.0
 11
4876.039116178848
 21
2367.235559259185
 31
0.0
  0
LINE
  5
84D7
330
84D3
100
AcDbEntity
  8
3
 62
     0
370
    -2
100
AcDbLine
 10
6078.039116178845
 20
2645.429658934044
 30
0.0
 11
6078.039116178845
 21
2367.235559259185
 31
0.0
  0
LINE
  5
84D8
330
84D3
100
AcDbEntity
  8
3
 62
     0
370
    -2
100
AcDbLine
 10
4883.239116178849
 20
2374.435559259185
 30
0.0
 11
5461.439116178846
 21
2374.435559259185
 31
0.0
  0
LINE
  5
84D9
330
84D3
100
AcDbEntity
  8
3
 62
     0
370
    -2
100
AcDbLine
 10
6070.839116178845
 20
2374.435559259185
 30
0.0
 11
5492.639116178847
 21
2374.435559259185
 31
0.0
  0
SOLID
  5
84DA
330
84D3
100
AcDbEntity
  8
3
 62
     0
100
AcDbTrace
 10
4883.239116178849
 20
2375.635559259185
 30
0.0
 11
4883.239116178849
 21
2373.235559259185
 31
0.0
 12
4876.039116178848
 22
2374.435559259185
 32
0.0
 13
4876.039116178848
 23
2374.435559259185
 33
0.0
  0
SOLID
  5
84DB
330
84D3
100
AcDbEntity
  8
3
 62
     0
100
AcDbTrace
 10
6070.839116178845
 20
2375.635559259185
 30
0.0
 11
6070.839116178845
 21
2373.235559259185
 31
0.0
 12
6078.039116178845
 22
2374.435559259185
 32
0.0
 13
6078.039116178845
 23
2374.435559259185
 33
0.0
  0
MTEXT
  5
84DC
330
84D3
100
AcDbEntity
  8
3
 62
     0
100
AcDbMText
 10
5477.039116178847
 20
2374.435559259185
 30
0.0
 40
7.199999999999999
 41
0.0
 71
     5
 72
     1
  1
\A1;1202
 73
     1
 44
1.0
1001
ACAD
1000
MTEXTBEGIN
1070
    73
1070
     1
1070
    44
1040
1.0
1070
    74
1070
     0
1000
MTEXTEND
  0
POINT
  5
84DD
330
84D3
100
AcDbEntity
  8
DEFPOINTS
 62
     0
100
AcDbPoint
 10
4876.039116178848
 20
2647.929658934044
 30
0.0
  0
POINT
  5
84DE
330
84D3
100
AcDbEntity
  8
DEFPOINTS
 62
     0
100
AcDbPoint
 10
6078.039116178845
 20
2647.929658934044
 30
0.0
  0
POINT
  5
84DF
330
84D3
100
AcDbEntity
  8
DEFPOINTS
 62
     0
100
AcDbPoint
 10
6078.039116178845
 20
2374.435559259185
 30
0.0
  0
ENDBLK
  5
84D5
330
84D3
100
AcDbEntity
  8
0
100
AcDbBlockEnd
  0
BLOCK
  5
84E1
330
84E0
100
AcDbEntity
  8
0
100
AcDbBlockBegin
  2
*D32
 70
     1
 10
0.0
 20
0.0
 30
0.0
  3
*D32
  1

  0
LINE
  5
84E3
330
84E0
100
AcDbEntity
  8
3
 62
     0
370
    -2
100
AcDbLine
 10
6078.039116178845
 20
2645.429658934044
 30
0.0
 11
6078.039116178845
 21
2367.235559259185
 31
0.0
  0
LINE
  5
84E4
330
84E0
100
AcDbEntity
  8
3
 62
     0
370
    -2
100
AcDbLine
 10
6996.039116178846
 20
2645.429658934044
 30
0.0
 11
6996.039116178846
 21
2367.235559259185
 31
0.0
  0
LINE
  5
84E5
330
84E0
100
AcDbEntity
  8
3
 62
     0
370
    -2
100
AcDbLine
 10
6085.239116178844
 20
2374.435559259185
 30
0.0
 11
6524.867687607417
 21
2374.435559259185
 31
0.0
  0
LINE
  5
84E6
330
84E0
100
AcDbEntity
  8
3
 62
     0
370
    -2
100
AcDbLine
 10
6988.839116178848
 20
2374.435559259185
 30
0.0
 11
6549.210544750275
 21
2374.435559259185
 31
0.0
  0
SOLID
  5
84E7
330
84E0
100
AcDbEntity
  8
3
 62
     0
100
AcDbTrace
 10
6085.239116178844
 20
2375.635559259185
 30
0.0
 11
6085.239116178844
 21
2373.235559259185
 31
0.0
 12
6078.039116178845
 22
2374.435559259185
 32
0.0
 13
6078.039116178845
 23
2374.435559259185
 33
0.0
  0
SOLID
  5
84E8
330
84E0
100
AcDbEntity
  8
3
 62
     0
100
AcDbTrace
 10
6988.839116178848
 20
2375.635559259185
 30
0.0
 11
6988.839116178848
 21
2373.235559259185
 31
0.0
 12
6996.039116178846
 22
2374.435559259185
 32
0.0
 13
6996.039116178846
 23
2374.435559259185
 33
0.0
  0
MTEXT
  5
84E9
330
84E0
100
AcDbEntity
  8
3
 62
     0
100
AcDbMText
 10
6537.039116178846
 20
2374.435559259185
 30
0.0
 40
7.199999999999999
 41
0.0
 71
     5
 72
     1
  1
\A1;918
 73
     1
 44
1.0
1001
ACAD
1000
MTEXTBEGIN
1070
    73
1070
     1
1070
    44
1040
1.0
1070
    74
1070
     0
1000
MTEXTEND
  0
POINT
  5
84EA
330
84E0
100
AcDbEntity
  8
DEFPOINTS
 62
     0
100
AcDbPoint
 10
6078.039116178845
 20
2647.929658934044
 30
0.0
  0
POINT
  5
84EB
330
84E0
100
AcDbEntity
  8
DEFPOINTS
 62
     0
100
AcDbPoint
 10
6996.039116178846
 20
2647.929658934044
 30
0.0
  0
POINT
  5
84EC
330
84E0
100
AcDbEntity
  8
DEFPOINTS
 62
     0
100
AcDbPoint
 10
6996.039116178846
 20
2374.435559259185
 30
0.0
  0
ENDBLK
  5
84E2
330
84E0
100
AcDbEntity
  8
0
100
AcDbBlockEnd
  0
BLOCK
  5
84EE
330
84ED
100
AcDbEntity
  8
0
100
AcDbBlockBegin
  2
*D33
 70
     1
 10
0.0
 20
0.0
 30
0.0
  3
*D33
  1

  0
LINE
  5
84F0
330
84ED
100
AcDbEntity
  8
3
 62
     0
370
    -2
100
AcDbLine
 10
1697.669444624878
 20
2647.929658934044
 30
0.0
 11
928.8395945526829
 21
2647.929658934045
 31
0.0
  0
LINE
  5
84F1
330
84ED
100
AcDbEntity
  8
3
 62
     0
370
    -2
100
AcDbLine
 10
2428.669444624878
 20
4752.929658934045
 30
0.0
 11
928.8395945526835
 21
4752.929658934045
 31
0.0
  0
LINE
  5
84F2
330
84ED
100
AcDbEntity
  8
3
 62
     0
370
    -2
100
AcDbLine
 10
936.039594552683
 20
2655.129658934044
 30
0.0
 11
936.0395945526832
 21
3691.34394464833
 31
0.0
  0
LINE
  5
84F3
330
84ED
100
AcDbEntity
  8
3
 62
     0
370
    -2
100
AcDbLine
 10
936.0395945526834
 20
4745.729658934045
 30
0.0
 11
936.0395945526832
 21
3709.51537321976
 31
0.0
  0
SOLID
  5
84F4
330
84ED
100
AcDbEntity
  8
3
 62
     0
100
AcDbTrace
 10
934.839594552683
 20
2655.129658934044
 30
0.0
 11
937.2395945526831
 21
2655.129658934044
 31
0.0
 12
936.039594552683
 22
2647.929658934045
 32
0.0
 13
936.039594552683
 23
2647.929658934045
 33
0.0
  0
SOLID
  5
84F5
330
84ED
100
AcDbEntity
  8
3
 62
     0
100
AcDbTrace
 10
934.8395945526833
 20
4745.729658934045
 30
0.0
 11
937.2395945526834
 21
4745.729658934045
 31
0.0
 12
936.0395945526834
 22
4752.929658934045
 32
0.0
 13
936.0395945526834
 23
4752.929658934045
 33
0.0
  0
MTEXT
  5
84F6
330
84ED
100
AcDbEntity
  8
3
 62
     0
100
AcDbMText
 10
936.0395945526827
 20
3700.429658934045
 30
0.0
 40
7.199999999999999
 41
0.0
 71
     5
 72
     1
  1
\A1;(2105)
 73
     1
 44
1.0
1001
ACAD
1000
MTEXTBEGIN
1070
    73
1070
     1
1070
    44
1040
1.0
1070
    74
1070
     0
1000
MTEXTEND
  0
POINT
  5
84F7
330
84ED
100
AcDbEntity
  8
DEFPOINTS
 62
     0
100
AcDbPoint
 10
1700.169444624878
 20
2647.929658934044
 30
0.0
  0
POINT
  5
84F8
330
84ED
100
AcDbEntity
  8
DEFPOINTS
 62
     0
100
AcDbPoint
 10
2431.169444624878
 20
4752.929658934045
 30
0.0
  0
POINT
  5
84F9
330
84ED
100
AcDbEntity
  8
DEFPOINTS
 62
     0
100
AcDbPoint
 10
936.0395945526834
 20
4752.929658934045
 30
0.0
  0
ENDBLK
  5
84EF
330
84ED
100
AcDbEntity
  8
0
100
AcDbBlockEnd
  0
BLOCK
  5
84FB
330
84FA
100
AcDbEntity
  8
0
100
AcDbBlockBegin
  2
*D34
 70
     1
 10
0.0
 20
0.0
 30
0.0
  3
*D34
  1

  0
LINE
  5
84FD
330
84FA
100
AcDbEntity
  8
3
 62
     0
370
    -2
100
AcDbLine
 10
1697.669444624878
 20
2712.929658934044
 30
0.0
 11
1278.734760259599
 21
2712.929658934044
 31
0.0
  0
LINE
  5
84FE
330
84FA
100
AcDbEntity
  8
3
 62
     0
370
    -2
100
AcDbLine
 10
1697.669444624878
 20
2647.929658934044
 30
0.0
 11
1278.734760259599
 21
2647.929658934044
 31
0.0
  0
LINE
  5
84FF
330
84FA
100
AcDbEntity
  8
3
 62
     0
370
    -2
100
AcDbLine
 10
1285.934760259599
 20
2705.729658934044
 30
0.0
 11
1285.934760259599
 21
2687.629658934044
 31
0.0
  0
LINE
  5
8500
330
84FA
100
AcDbEntity
  8
3
 62
     0
370
    -2
100
AcDbLine
 10
1285.934760259599
 20
2655.129658934044
 30
0.0
 11
1285.934760259599
 21
2673.229658934044
 31
0.0
  0
SOLID
  5
8501
330
84FA
100
AcDbEntity
  8
3
 62
     0
100
AcDbTrace
 10
1284.734760259599
 20
2705.729658934044
 30
0.0
 11
1287.134760259599
 21
2705.729658934044
 31
0.0
 12
1285.934760259599
 22
2712.929658934044
 32
0.0
 13
1285.934760259599
 23
2712.929658934044
 33
0.0
  0
SOLID
  5
8502
330
84FA
100
AcDbEntity
  8
3
 62
     0
100
AcDbTrace
 10
1284.734760259599
 20
2655.129658934044
 30
0.0
 11
1287.134760259599
 21
2655.129658934044
 31
0.0
 12
1285.934760259599
 22
2647.929658934044
 32
0.0
 13
1285.934760259599
 23
2647.929658934044
 33
0.0
  0
MTEXT
  5
8503
330
84FA
100
AcDbEntity
  8
3
 62
     0
100
AcDbMText
 10
1285.934760259598
 20
2680.429658934044
 30
0.0
 40
7.199999999999999
 41
0.0
 71
     5
 72
     1
  1
\A1;65
 73
     1
 44
1.0
1001
ACAD
1000
MTEXTBEGIN
1070
    73
1070
     1
1070
    44
1040
1.0
1070
    74
1070
     0
1000
MTEXTEND
  0
POINT
  5
8504
330
84FA
100
AcDbEntity
  8
DEFPOINTS
 62
     0
100
AcDbPoint
 10
1700.169444624878
 20
2712.929658934044
 30
0.0
  0
POINT
  5
8505
330
84FA
100
AcDbEntity
  8
DEFPOINTS
 62
     0
100
AcDbPoint
 10
1700.169444624878
 20
2647.929658934044
 30
0.0
  0
POINT
  5
8506
330
84FA
100
AcDbEntity
  8
DEFPOINTS
 62
     0
100
AcDbPoint
 10
1285.934760259599
 20
2647.929658934044
 30
0.0
  0
ENDBLK
  5
84FC
330
84FA
100
AcDbEntity
  8
0
100
AcDbBlockEnd
  0
BLOCK
  5
850C
330
850B
100
AcDbEntity
  8
0
100
AcDbBlockBegin
  2
*D35
 70
     1
 10
0.0
 20
0.0
 30
0.0
  3
*D35
  1

  0
LINE
  5
8523
330
850B
100
AcDbEntity
  8
3
 62
     0
370
    -2
100
AcDbLine
 10
6948.039116178846
 20
4552.929658934044
 30
0.0
 11
7379.30874109135
 21
4552.929658934044
 31
0.0
  0
LINE
  5
8524
330
850B
100
AcDbEntity
  8
3
 62
     0
370
    -2
100
AcDbLine
 10
6948.039116178846
 20
3302.929658934044
 30
0.0
 11
7379.30874109135
 21
3302.929658934044
 31
0.0
  0
LINE
  5
8525
330
850B
100
AcDbEntity
  8
3
 62
     0
370
    -2
100
AcDbLine
 10
7339.30874109135
 20
4472.929658934044
 30
0.0
 11
7339.30874109135
 21
3382.929658934044
 31
0.0
  0
INSERT
  5
8526
330
850B
100
AcDbEntity
  8
3
 62
     0
370
    -2
100
AcDbBlockReference
  2
_OPEN
 10
7339.30874109135
 20
4552.929658934044
 30
0.0
 41
80.0
 42
80.0
 43
80.0
 50
90.0
  0
INSERT
  5
8527
330
850B
100
AcDbEntity
  8
3
 62
     0
370
    -2
100
AcDbBlockReference
  2
_OPEN
 10
7339.30874109135
 20
3302.929658934044
 30
0.0
 41
80.0
 42
80.0
 43
80.0
 50
270.0
  0
MTEXT
  5
8528
330
850B
100
AcDbEntity
  8
3
 62
     0
100
AcDbMText
 10
7239.308741091349
 20
3927.929658934046
 30
0.0
 40
120.0
 41
0.0
 71
     5
 72
     1
  1
\A1;\U+03C61250
 11
0.0000000000000001
 21
1.0
 31
0.0
 73
     1
 44
1.0
1001
ACAD
1000
MTEXTBEGIN
1070
    73
1070
     1
1070
    44
1040
1.0
1070
    74
1070
     0
1000
MTEXTEND
  0
POINT
  5
8529
330
850B
100
AcDbEntity
  8
DEFPOINTS
 62
     0
100
AcDbPoint
 10
6928.039116178847
 20
4552.929658934044
 30
0.0
  0
POINT
  5
852A
330
850B
100
AcDbEntity
  8
DEFPOINTS
 62
     0
100
AcDbPoint
 10
6928.039116178847
 20
3302.929658934044
 30
0.0
  0
POINT
  5
852B
330
850B
100
AcDbEntity
  8
DEFPOINTS
 62
     0
100
AcDbPoint
 10
7339.30874109135
 20
3302.929658934044
 30
0.0
  0
ENDBLK
  5
850D
330
850B
100
AcDbEntity
  8
0
100
AcDbBlockEnd
  0
BLOCK
  5
852E
330
852D
100
AcDbEntity
  8
0
100
AcDbBlockBegin
  2
*D36
 70
     1
 10
0.0
 20
0.0
 30
0.0
  3
*D36
  1

  0
LINE
  5
8530
330
852D
100
AcDbEntity
  8
3
 62
     0
370
    -2
100
AcDbLine
 10
5228.039116178845
 20
4772.929658934045
 30
0.0
 11
5228.039116178845
 21
5040.00755773363
 31
0.0
  0
LINE
  5
8531
330
852D
100
AcDbEntity
  8
3
 62
     0
370
    -2
100
AcDbLine
 10
6928.039116178847
 20
4772.929658934045
 30
0.0
 11
6928.039116178847
 21
5040.00755773363
 31
0.0
  0
LINE
  5
8532
330
852D
100
AcDbEntity
  8
3
 62
     0
370
    -2
100
AcDbLine
 10
5308.039116178846
 20
5000.007557733631
 30
0.0
 11
6848.039116178846
 21
5000.007557733631
 31
0.0
  0
INSERT
  5
8533
330
852D
100
AcDbEntity
  8
3
 62
     0
370
    -2
100
AcDbBlockReference
  2
_OPEN
 10
5228.039116178845
 20
5000.007557733631
 30
0.0
 41
80.0
 42
80.0
 43
80.0
 50
180.0
  0
INSERT
  5
8534
330
852D
100
AcDbEntity
  8
3
 62
     0
370
    -2
100
AcDbBlockReference
  2
_OPEN
 10
6928.039116178847
 20
5000.007557733631
 30
0.0
 41
80.0
 42
80.0
 43
80.0
  0
MTEXT
  5
8535
330
852D
100
AcDbEntity
  8
3
 62
     0
100
AcDbMText
 10
6078.039116178846
 20
5100.007557733631
 30
0.0
 40
120.0
 41
0.0
 71
     5
 72
     1
  1
\A1;1700
 73
     1
 44
1.0
1001
ACAD
1000
MTEXTBEGIN
1070
    73
1070
     1
1070
    44
1040
1.0
1070
    74
1070
     0
1000
MTEXTEND
  0
POINT
  5
8536
330
852D
100
AcDbEntity
  8
DEFPOINTS
 62
     0
100
AcDbPoint
 10
5228.039116178845
 20
4752.929658934045
 30
0.0
  0
POINT
  5
8537
330
852D
100
AcDbEntity
  8
DEFPOINTS
 62
     0
100
AcDbPoint
 10
6928.039116178847
 20
4752.929658934045
 30
0.0
  0
POINT
  5
8538
330
852D
100
AcDbEntity
  8
DEFPOINTS
 62
     0
100
AcDbPoint
 10
6928.039116178847
 20
5000.007557733631
 30
0.0
  0
ENDBLK
  5
852F
330
852D
100
AcDbEntity
  8
0
100
AcDbBlockEnd
  0
BLOCK
  5
853B
330
853A
100
AcDbEntity
  8
0
100
AcDbBlockBegin
  2
*D37
 70
     1
 10
0.0
 20
0.0
 30
0.0
  3
*D37
  1

  0
LINE
  5
8592
330
853A
100
AcDbEntity
  8
3
 62
     0
370
    -2
100
AcDbLine
 10
4798.039116178847
 20
4327.929658934045
 30
0.0
 11
4798.039116178847
 21
5328.10922238426
 31
0.0
  0
LINE
  5
8593
330
853A
100
AcDbEntity
  8
3
 62
     0
370
    -2
100
AcDbLine
 10
6078.039116178846
 20
5180.007557733631
 30
0.0
 11
6078.039116178846
 21
5328.10922238426
 31
0.0
  0
LINE
  5
8594
330
853A
100
AcDbEntity
  8
3
 62
     0
370
    -2
100
AcDbLine
 10
4878.039116178847
 20
5288.10922238426
 30
0.0
 11
5998.039116178847
 21
5288.10922238426
 31
0.0
  0
INSERT
  5
8595
330
853A
100
AcDbEntity
  8
3
 62
     0
370
    -2
100
AcDbBlockReference
  2
_OPEN
 10
4798.039116178847
 20
5288.10922238426
 30
0.0
 41
80.0
 42
80.0
 43
80.0
 50
180.0
  0
INSERT
  5
8596
330
853A
100
AcDbEntity
  8
3
 62
     0
370
    -2
100
AcDbBlockReference
  2
_OPEN
 10
6078.039116178846
 20
5288.10922238426
 30
0.0
 41
80.0
 42
80.0
 43
80.0
  0
MTEXT
  5
8597
330
853A
100
AcDbEntity
  8
3
 62
     0
100
AcDbMText
 10
5438.039116178846
 20
5419.537793812832
 30
0.0
 40
120.0
 41
0.0
 71
     5
 72
     1
  1
\A1;(1280)
 73
     1
 44
1.0
1001
ACAD
1000
MTEXTBEGIN
1070
    73
1070
     1
1070
    44
1040
1.0
1070
    74
1070
     0
1000
MTEXTEND
  0
POINT
  5
8598
330
853A
100
AcDbEntity
  8
DEFPOINTS
 62
     0
100
AcDbPoint
 10
4798.039116178847
 20
4307.929658934045
 30
0.0
  0
POINT
  5
8599
330
853A
100
AcDbEntity
  8
DEFPOINTS
 62
     0
100
AcDbPoint
 10
6078.039116178846
 20
5160.007557733631
 30
0.0
  0
POINT
  5
859A
330
853A
100
AcDbEntity
  8
DEFPOINTS
 62
     0
100
AcDbPoint
 10
6078.039116178846
 20
5288.10922238426
 30
0.0
  0
ENDBLK
  5
853C
330
853A
100
AcDbEntity
  8
0
100
AcDbBlockEnd
  0
BLOCK
  5
8548
330
8547
100
AcDbEntity
  8
0
100
AcDbBlockBegin
  2
*D38
 70
     1
 10
0.0
 20
0.0
 30
0.0
  3
*D38
  1

  0
LINE
  5
8589
330
8547
100
AcDbEntity
  8
3
 62
     0
370
    -2
100
AcDbLine
 10
6078.039116178846
 20
5180.007557733631
 30
0.0
 11
6078.039116178846
 21
5328.10922238426
 31
0.0
  0
LINE
  5
858A
330
8547
100
AcDbEntity
  8
3
 62
     0
370
    -2
100
AcDbLine
 10
7098.039116178846
 20
3871.929658934045
 30
0.0
 11
7098.039116178846
 21
5328.10922238426
 31
0.0
  0
LINE
  5
858B
330
8547
100
AcDbEntity
  8
3
 62
     0
370
    -2
100
AcDbLine
 10
6158.039116178847
 20
5288.10922238426
 30
0.0
 11
7018.039116178846
 21
5288.10922238426
 31
0.0
  0
INSERT
  5
858C
330
8547
100
AcDbEntity
  8
3
 62
     0
370
    -2
100
AcDbBlockReference
  2
_OPEN
 10
6078.039116178846
 20
5288.10922238426
 30
0.0
 41
80.0
 42
80.0
 43
80.0
 50
180.0
  0
INSERT
  5
858D
330
8547
100
AcDbEntity
  8
3
 62
     0
370
    -2
100
AcDbBlockReference
  2
_OPEN
 10
7098.039116178846
 20
5288.10922238426
 30
0.0
 41
80.0
 42
80.0
 43
80.0
  0
MTEXT
  5
858E
330
8547
100
AcDbEntity
  8
3
 62
     0
100
AcDbMText
 10
6588.039116178847
 20
5419.537793812832
 30
0.0
 40
120.0
 41
0.0
 71
     5
 72
     1
  1
\A1;(1020)
 73
     1
 44
1.0
1001
ACAD
1000
MTEXTBEGIN
1070
    73
1070
     1
1070
    44
1040
1.0
1070
    74
1070
     0
1000
MTEXTEND
  0
POINT
  5
858F
330
8547
100
AcDbEntity
  8
DEFPOINTS
 62
     0
100
AcDbPoint
 10
6078.039116178846
 20
5160.007557733631
 30
0.0
  0
POINT
  5
8590
330
8547
100
AcDbEntity
  8
DEFPOINTS
 62
     0
100
AcDbPoint
 10
7098.039116178846
 20
3851.929658934045
 30
0.0
  0
POINT
  5
8591
330
8547
100
AcDbEntity
  8
DEFPOINTS
 62
     0
100
AcDbPoint
 10
7098.039116178846
 20
5288.10922238426
 30
0.0
  0
ENDBLK
  5
8549
330
8547
100
AcDbEntity
  8
0
100
AcDbBlockEnd
  0
BLOCK
  5
859D
330
859C
100
AcDbEntity
  8
0
100
AcDbBlockBegin
  2
*D39
 70
     1
 10
0.0
 20
0.0
 30
0.0
  3
*D39
  1

  0
LINE
  5
859F
330
859C
100
AcDbEntity
  8
3
 62
     0
370
    -2
100
AcDbLine
 10
4876.039116178848
 20
2627.929658934044
 30
0.0
 11
4876.039116178848
 21
2364.66995559412
 31
0.0
  0
LINE
  5
85A0
330
859C
100
AcDbEntity
  8
3
 62
     0
370
    -2
100
AcDbLine
 10
6078.039116178845
 20
2627.929658934044
 30
0.0
 11
6078.039116178845
 21
2364.66995559412
 31
0.0
  0
LINE
  5
85A1
330
859C
100
AcDbEntity
  8
3
 62
     0
370
    -2
100
AcDbLine
 10
4956.039116178849
 20
2404.66995559412
 30
0.0
 11
5998.039116178844
 21
2404.66995559412
 31
0.0
  0
INSERT
  5
85A2
330
859C
100
AcDbEntity
  8
3
 62
     0
370
    -2
100
AcDbBlockReference
  2
_OPEN
 10
4876.039116178848
 20
2404.66995559412
 30
0.0
 41
80.0
 42
80.0
 43
80.0
 50
180.0
  0
INSERT
  5
85A3
330
859C
100
AcDbEntity
  8
3
 62
     0
370
    -2
100
AcDbBlockReference
  2
_OPEN
 10
6078.039116178845
 20
2404.66995559412
 30
0.0
 41
80.0
 42
80.0
 43
80.0
  0
MTEXT
  5
85A4
330
859C
100
AcDbEntity
  8
3
 62
     0
100
AcDbMText
 10
5477.039116178847
 20
2504.66995559412
 30
0.0
 40
120.0
 41
0.0
 71
     5
 72
     1
  1
\A1;1202
 73
     1
 44
1.0
1001
ACAD
1000
MTEXTBEGIN
1070
    73
1070
     1
1070
    44
1040
1.0
1070
    74
1070
     0
1000
MTEXTEND
  0
POINT
  5
85A5
330
859C
100
AcDbEntity
  8
DEFPOINTS
 62
     0
100
AcDbPoint
 10
4876.039116178848
 20
2647.929658934044
 30
0.0
  0
POINT
  5
85A6
330
859C
100
AcDbEntity
  8
DEFPOINTS
 62
     0
100
AcDbPoint
 10
6078.039116178845
 20
2647.929658934044
 30
0.0
  0
POINT
  5
85A7
330
859C
100
AcDbEntity
  8
DEFPOINTS
 62
     0
100
AcDbPoint
 10
6078.039116178845
 20
2404.66995559412
 30
0.0
  0
ENDBLK
  5
859E
330
859C
100
AcDbEntity
  8
0
100
AcDbBlockEnd
  0
BLOCK
  5
85AA
330
85A9
100
AcDbEntity
  8
0
100
AcDbBlockBegin
  2
*D40
 70
     1
 10
0.0
 20
0.0
 30
0.0
  3
*D40
  1

  0
LINE
  5
85AC
330
85A9
100
AcDbEntity
  8
3
 62
     0
370
    -2
100
AcDbLine
 10
6078.039116178845
 20
2627.929658934044
 30
0.0
 11
6078.039116178845
 21
2364.66995559412
 31
0.0
  0
LINE
  5
85AD
330
85A9
100
AcDbEntity
  8
3
 62
     0
370
    -2
100
AcDbLine
 10
6996.039116178846
 20
2627.929658934044
 30
0.0
 11
6996.039116178846
 21
2364.66995559412
 31
0.0
  0
LINE
  5
85AE
330
85A9
100
AcDbEntity
  8
3
 62
     0
370
    -2
100
AcDbLine
 10
6158.039116178844
 20
2404.66995559412
 30
0.0
 11
6916.039116178847
 21
2404.66995559412
 31
0.0
  0
INSERT
  5
85AF
330
85A9
100
AcDbEntity
  8
3
 62
     0
370
    -2
100
AcDbBlockReference
  2
_OPEN
 10
6078.039116178845
 20
2404.66995559412
 30
0.0
 41
80.0
 42
80.0
 43
80.0
 50
180.0
  0
INSERT
  5
85B0
330
85A9
100
AcDbEntity
  8
3
 62
     0
370
    -2
100
AcDbBlockReference
  2
_OPEN
 10
6996.039116178846
 20
2404.66995559412
 30
0.0
 41
80.0
 42
80.0
 43
80.0
  0
MTEXT
  5
85B1
330
85A9
100
AcDbEntity
  8
3
 62
     0
100
AcDbMText
 10
6537.039116178846
 20
2504.66995559412
 30
0.0
 40
120.0
 41
0.0
 71
     5
 72
     1
  1
\A1;918
 73
     1
 44
1.0
1001
ACAD
1000
MTEXTBEGIN
1070
    73
1070
     1
1070
    44
1040
1.0
1070
    74
1070
     0
1000
MTEXTEND
  0
POINT
  5
85B2
330
85A9
100
AcDbEntity
  8
DEFPOINTS
 62
     0
100
AcDbPoint
 10
6078.039116178845
 20
2647.929658934044
 30
0.0
  0
POINT
  5
85B3
330
85A9
100
AcDbEntity
  8
DEFPOINTS
 62
     0
100
AcDbPoint
 10
6996.039116178846
 20
2647.929658934044
 30
0.0
  0
POINT
  5
85B4
330
85A9
100
AcDbEntity
  8
DEFPOINTS
 62
     0
100
AcDbPoint
 10
6996.039116178846
 20
2404.66995559412
 30
0.0
  0
ENDBLK
  5
85AB
330
85A9
100
AcDbEntity
  8
0
100
AcDbBlockEnd
  0
BLOCK
  5
85B7
330
85B6
100
AcDbEntity
  8
0
100
AcDbBlockBegin
  2
*D41
 70
     1
 10
0.0
 20
0.0
 30
0.0
  3
*D41
  1

  0
LINE
  5
8603
330
85B6
100
AcDbEntity
  8
3
 62
     0
370
    -2
100
AcDbLine
 10
1454.342323903158
 20
7787.437268273027
 30
0.0
 11
274.0085242149945
 21
7787.437268273027
 31
0.0
  0
LINE
  5
8604
330
85B6
100
AcDbEntity
  8
3
 62
     0
370
    -2
100
AcDbLine
 10
2050.169444624878
 20
6507.437268273022
 30
0.0
 11
274.0085242149942
 21
6507.437268273024
 31
0.0
  0
LINE
  5
8605
330
85B6
100
AcDbEntity
  8
3
 62
     0
370
    -2
100
AcDbLine
 10
314.0085242149946
 20
7707.437268273027
 30
0.0
 11
314.0085242149944
 21
6587.437268273024
 31
0.0
  0
INSERT
  5
8606
330
85B6
100
AcDbEntity
  8
3
 62
     0
370
    -2
100
AcDbBlockReference
  2
_OPEN
 10
314.0085242149946
 20
7787.437268273027
 30
0.0
 41
80.0
 42
80.0
 43
80.0
 50
90.0
  0
INSERT
  5
8607
330
85B6
100
AcDbEntity
  8
3
 62
     0
370
    -2
100
AcDbBlockReference
  2
_OPEN
 10
314.0085242149943
 20
6507.437268273024
 30
0.0
 41
80.0
 42
80.0
 43
80.0
 50
270.0
  0
MTEXT
  5
8608
330
85B6
100
AcDbEntity
  8
3
 62
     0
100
AcDbMText
 10
214.0085242149933
 20
7147.437268273025
 30
0.0
 40
120.0
 41
0.0
 71
     5
 72
     1
  1
\A1;1280
 11
0.0000000000000001
 21
1.0
 31
0.0
 73
     1
 44
1.0
1001
ACAD
1000
MTEXTBEGIN
1070
    73
1070
     1
1070
    44
1040
1.0
1070
    74
1070
     0
1000
MTEXTEND
  0
POINT
  5
8609
330
85B6
100
AcDbEntity
  8
DEFPOINTS
 62
     0
100
AcDbPoint
 10
1474.342323903158
 20
7787.437268273027
 30
0.0
  0
POINT
  5
860A
330
85B6
100
AcDbEntity
  8
DEFPOINTS
 62
     0
100
AcDbPoint
 10
2070.169444624878
 20
6507.437268273022
 30
0.0
  0
POINT
  5
860B
330
85B6
100
AcDbEntity
  8
DEFPOINTS
 62
     0
100
AcDbPoint
 10
314.0085242149943
 20
6507.437268273024
 30
0.0
  0
ENDBLK
  5
85B8
330
85B6
100
AcDbEntity
  8
0
100
AcDbBlockEnd
  0
BLOCK
  5
85C4
330
85C3
100
AcDbEntity
  8
0
100
AcDbBlockBegin
  2
*D42
 70
     1
 10
0.0
 20
0.0
 30
0.0
  3
*D42
  1

  0
LINE
  5
85C6
330
85C3
100
AcDbEntity
  8
3
 62
     0
370
    -2
100
AcDbLine
 10
1680.169444624878
 20
8705.437268273023
 30
0.0
 11
1211.153303389045
 21
8705.437268273023
 31
0.0
  0
LINE
  5
85C7
330
85C3
100
AcDbEntity
  8
3
 62
     0
370
    -2
100
AcDbLine
 10
1680.169444624878
 20
6585.437268273023
 30
0.0
 11
1211.153303389044
 21
6585.437268273023
 31
0.0
  0
LINE
  5
85C8
330
85C3
100
AcDbEntity
  8
3
 62
     0
370
    -2
100
AcDbLine
 10
1251.153303389044
 20
8625.437268273023
 30
0.0
 11
1251.153303389044
 21
6665.437268273023
 31
0.0
  0
INSERT
  5
85C9
330
85C3
100
AcDbEntity
  8
3
 62
     0
370
    -2
100
AcDbBlockReference
  2
_OPEN
 10
1251.153303389045
 20
8705.437268273023
 30
0.0
 41
80.0
 42
80.0
 43
80.0
 50
90.0
  0
INSERT
  5
85CA
330
85C3
100
AcDbEntity
  8
3
 62
     0
370
    -2
100
AcDbBlockReference
  2
_OPEN
 10
1251.153303389044
 20
6585.437268273023
 30
0.0
 41
80.0
 42
80.0
 43
80.0
 50
270.0
  0
MTEXT
  5
85CB
330
85C3
100
AcDbEntity
  8
3
 62
     0
100
AcDbMText
 10
1151.153303389043
 20
7645.437268273022
 30
0.0
 40
120.0
 41
0.0
 71
     5
 72
     1
  1
\A1;2120
 11
0.0000000000000001
 21
1.0
 31
0.0
 73
     1
 44
1.0
1001
ACAD
1000
MTEXTBEGIN
1070
    73
1070
     1
1070
    44
1040
1.0
1070
    74
1070
     0
1000
MTEXTEND
  0
POINT
  5
85CC
330
85C3
100
AcDbEntity
  8
DEFPOINTS
 62
     0
100
AcDbPoint
 10
1700.169444624878
 20
8705.437268273023
 30
0.0
  0
POINT
  5
85CD
330
85C3
100
AcDbEntity
  8
DEFPOINTS
 62
     0
100
AcDbPoint
 10
1700.169444624878
 20
6585.437268273023
 30
0.0
  0
POINT
  5
85CE
330
85C3
100
AcDbEntity
  8
DEFPOINTS
 62
     0
100
AcDbPoint
 10
1251.153303389044
 20
6585.437268273023
 30
0.0
  0
ENDBLK
  5
85C5
330
85C3
100
AcDbEntity
  8
0
100
AcDbBlockEnd
  0
BLOCK
  5
85D1
330
85D0
100
AcDbEntity
  8
0
100
AcDbBlockBegin
  2
*D43
 70
     1
 10
0.0
 20
0.0
 30
0.0
  3
*D43
  1

  0
LINE
  5
85D3
330
85D0
100
AcDbEntity
  8
3
 62
     0
370
    -2
100
AcDbLine
 10
1700.169444624878
 20
6565.437268273022
 30
0.0
 11
1700.169444624878
 21
6180.683390083371
 31
0.0
  0
LINE
  5
85D4
330
85D0
100
AcDbEntity
  8
3
 62
     0
370
    -2
100
AcDbLine
 10
4150.169444624879
 20
6565.437268273022
 30
0.0
 11
4150.169444624879
 21
6180.683390083371
 31
0.0
  0
LINE
  5
85D5
330
85D0
100
AcDbEntity
  8
3
 62
     0
370
    -2
100
AcDbLine
 10
1780.169444624878
 20
6220.683390083371
 30
0.0
 11
4070.169444624879
 21
6220.683390083371
 31
0.0
  0
INSERT
  5
85D6
330
85D0
100
AcDbEntity
  8
3
 62
     0
370
    -2
100
AcDbBlockReference
  2
_OPEN
 10
1700.169444624878
 20
6220.683390083371
 30
0.0
 41
80.0
 42
80.0
 43
80.0
 50
180.0
  0
INSERT
  5
85D7
330
85D0
100
AcDbEntity
  8
3
 62
     0
370
    -2
100
AcDbBlockReference
  2
_OPEN
 10
4150.169444624879
 20
6220.683390083371
 30
0.0
 41
80.0
 42
80.0
 43
80.0
  0
MTEXT
  5
85D8
330
85D0
100
AcDbEntity
  8
3
 62
     0
100
AcDbMText
 10
2925.169444624879
 20
6320.68339008337
 30
0.0
 40
120.0
 41
0.0
 71
     5
 72
     1
  1
\A1;2450
 73
     1
 44
1.0
1001
ACAD
1000
MTEXTBEGIN
1070
    73
1070
     1
1070
    44
1040
1.0
1070
    74
1070
     0
1000
MTEXTEND
  0
POINT
  5
85D9
330
85D0
100
AcDbEntity
  8
DEFPOINTS
 62
     0
100
AcDbPoint
 10
1700.169444624878
 20
6585.437268273023
 30
0.0
  0
POINT
  5
85DA
330
85D0
100
AcDbEntity
  8
DEFPOINTS
 62
     0
100
AcDbPoint
 10
4150.169444624879
 20
6585.437268273023
 30
0.0
  0
POINT
  5
85DB
330
85D0
100
AcDbEntity
  8
DEFPOINTS
 62
     0
100
AcDbPoint
 10
4150.169444624879
 20
6220.683390083371
 30
0.0
  0
ENDBLK
  5
85D2
330
85D0
100
AcDbEntity
  8
0
100
AcDbBlockEnd
  0
BLOCK
  5
85DE
330
85DD
100
AcDbEntity
  8
0
100
AcDbBlockBegin
  2
*D44
 70
     1
 10
0.0
 20
0.0
 30
0.0
  3
*D44
  1

  0
LINE
  5
85E0
330
85DD
100
AcDbEntity
  8
3
 62
     0
370
    -2
100
AcDbLine
 10
4170.169444624879
 20
6585.437268273023
 30
0.0
 11
4456.495845732457
 21
6585.437268273023
 31
0.0
  0
LINE
  5
85E1
330
85DD
100
AcDbEntity
  8
3
 62
     0
370
    -2
100
AcDbLine
 10
4170.169444624879
 20
7585.437268273023
 30
0.0
 11
4456.495845732457
 21
7585.437268273023
 31
0.0
  0
LINE
  5
85E2
330
85DD
100
AcDbEntity
  8
3
 62
     0
370
    -2
100
AcDbLine
 10
4416.495845732457
 20
6665.437268273023
 30
0.0
 11
4416.495845732457
 21
7505.437268273023
 31
0.0
  0
INSERT
  5
85E3
330
85DD
100
AcDbEntity
  8
3
 62
     0
370
    -2
100
AcDbBlockReference
  2
_OPEN
 10
4416.495845732457
 20
6585.437268273023
 30
0.0
 41
80.0
 42
80.0
 43
80.0
 50
270.0
  0
INSERT
  5
85E4
330
85DD
100
AcDbEntity
  8
3
 62
     0
370
    -2
100
AcDbBlockReference
  2
_OPEN
 10
4416.495845732457
 20
7585.437268273023
 30
0.0
 41
80.0
 42
80.0
 43
80.0
 50
90.0
  0
MTEXT
  5
85E5
330
85DD
100
AcDbEntity
  8
3
 62
     0
100
AcDbMText
 10
4316.495845732456
 20
7085.437268273024
 30
0.0
 40
120.0
 41
0.0
 71
     5
 72
     1
  1
\A1;1000
 11
0.0000000000000001
 21
1.0
 31
0.0
 73
     1
 44
1.0
1001
ACAD
1000
MTEXTBEGIN
1070
    73
1070
     1
1070
    44
1040
1.0
1070
    74
1070
     0
1000
MTEXTEND
  0
POINT
  5
85E6
330
85DD
100
AcDbEntity
  8
DEFPOINTS
 62
     0
100
AcDbPoint
 10
4150.169444624879
 20
6585.437268273023
 30
0.0
  0
POINT
  5
85E7
330
85DD
100
AcDbEntity
  8
DEFPOINTS
 62
     0
100
AcDbPoint
 10
4150.169444624879
 20
7585.437268273023
 30
0.0
  0
POINT
  5
85E8
330
85DD
100
AcDbEntity
  8
DEFPOINTS
 62
     0
100
AcDbPoint
 10
4416.495845732457
 20
7585.437268273023
 30
0.0
  0
ENDBLK
  5
85DF
330
85DD
100
AcDbEntity
  8
0
100
AcDbBlockEnd
  0
BLOCK
  5
85EB
330
85EA
100
AcDbEntity
  8
0
100
AcDbBlockBegin
  2
*D45
 70
     1
 10
0.0
 20
0.0
 30
0.0
  3
*D45
  1

  0
LINE
  5
85ED
330
85EA
100
AcDbEntity
  8
3
 62
     0
370
    -2
100
AcDbLine
 10
4150.169444624879
 20
7605.437268273023
 30
0.0
 11
4150.169444624879
 21
8950.073406778209
 31
0.0
  0
LINE
  5
85EE
330
85EA
100
AcDbEntity
  8
3
 62
     0
370
    -2
100
AcDbLine
 10
3200.169444624878
 20
8725.437268273024
 30
0.0
 11
3200.169444624878
 21
8950.073406778209
 31
0.0
  0
LINE
  5
85EF
330
85EA
100
AcDbEntity
  8
3
 62
     0
370
    -2
100
AcDbLine
 10
4070.169444624879
 20
8910.073406778208
 30
0.0
 11
3280.169444624878
 21
8910.073406778208
 31
0.0
  0
INSERT
  5
85F0
330
85EA
100
AcDbEntity
  8
3
 62
     0
370
    -2
100
AcDbBlockReference
  2
_OPEN
 10
4150.169444624879
 20
8910.073406778208
 30
0.0
 41
80.0
 42
80.0
 43
80.0
  0
INSERT
  5
85F1
330
85EA
100
AcDbEntity
  8
3
 62
     0
370
    -2
100
AcDbBlockReference
  2
_OPEN
 10
3200.169444624878
 20
8910.073406778208
 30
0.0
 41
80.0
 42
80.0
 43
80.0
 50
180.0
  0
MTEXT
  5
85F2
330
85EA
100
AcDbEntity
  8
3
 62
     0
100
AcDbMText
 10
3675.169444624879
 20
9010.073406778209
 30
0.0
 40
120.0
 41
0.0
 71
     5
 72
     1
  1
\A1;950
 73
     1
 44
1.0
1001
ACAD
1000
MTEXTBEGIN
1070
    73
1070
     1
1070
    44
1040
1.0
1070
    74
1070
     0
1000
MTEXTEND
  0
POINT
  5
85F3
330
85EA
100
AcDbEntity
  8
DEFPOINTS
 62
     0
100
AcDbPoint
 10
4150.169444624879
 20
7585.437268273023
 30
0.0
  0
POINT
  5
85F4
330
85EA
100
AcDbEntity
  8
DEFPOINTS
 62
     0
100
AcDbPoint
 10
3200.169444624878
 20
8705.437268273023
 30
0.0
  0
POINT
  5
85F5
330
85EA
100
AcDbEntity
  8
DEFPOINTS
 62
     0
100
AcDbPoint
 10
3200.169444624878
 20
8910.073406778208
 30
0.0
  0
ENDBLK
  5
85EC
330
85EA
100
AcDbEntity
  8
0
100
AcDbBlockEnd
  0
BLOCK
  5
85F8
330
85F7
100
AcDbEntity
  8
0
100
AcDbBlockBegin
  2
*D46
 70
     1
 10
0.0
 20
0.0
 30
0.0
  3
*D46
  1

  0
LINE
  5
85FA
330
85F7
100
AcDbEntity
  8
3
 62
     0
370
    -2
100
AcDbLine
 10
3200.169444624878
 20
8725.437268273024
 30
0.0
 11
3200.169444624878
 21
8950.073406778209
 31
0.0
  0
LINE
  5
85FB
330
85F7
100
AcDbEntity
  8
3
 62
     0
370
    -2
100
AcDbLine
 10
1700.169444624878
 20
8725.437268273024
 30
0.0
 11
1700.169444624878
 21
8950.073406778209
 31
0.0
  0
LINE
  5
85FC
330
85F7
100
AcDbEntity
  8
3
 62
     0
370
    -2
100
AcDbLine
 10
3120.169444624878
 20
8910.073406778208
 30
0.0
 11
1780.169444624878
 21
8910.073406778208
 31
0.0
  0
INSERT
  5
85FD
330
85F7
100
AcDbEntity
  8
3
 62
     0
370
    -2
100
AcDbBlockReference
  2
_OPEN
 10
3200.169444624878
 20
8910.073406778208
 30
0.0
 41
80.0
 42
80.0
 43
80.0
  0
INSERT
  5
85FE
330
85F7
100
AcDbEntity
  8
3
 62
     0
370
    -2
100
AcDbBlockReference
  2
_OPEN
 10
1700.169444624878
 20
8910.073406778208
 30
0.0
 41
80.0
 42
80.0
 43
80.0
 50
180.0
  0
MTEXT
  5
85FF
330
85F7
100
AcDbEntity
  8
3
 62
     0
100
AcDbMText
 10
2450.169444624878
 20
9010.073406778209
 30
0.0
 40
120.0
 41
0.0
 71
     5
 72
     1
  1
\A1;1500
 73
     1
 44
1.0
1001
ACAD
1000
MTEXTBEGIN
1070
    73
1070
     1
1070
    44
1040
1.0
1070
    74
1070
     0
1000
MTEXTEND
  0
POINT
  5
8600
330
85F7
100
AcDbEntity
  8
DEFPOINTS
 62
     0
100
AcDbPoint
 10
3200.169444624878
 20
8705.437268273023
 30
0.0
  0
POINT
  5
8601
330
85F7
100
AcDbEntity
  8
DEFPOINTS
 62
     0
100
AcDbPoint
 10
1700.169444624878
 20
8705.437268273023
 30
0.0
  0
POINT
  5
8602
330
85F7
100
AcDbEntity
  8
DEFPOINTS
 62
     0
100
AcDbPoint
 10
1700.169444624878
 20
8910.073406778208
 30
0.0
  0
ENDBLK
  5
85F9
330
85F7
100
AcDbEntity
  8
0
100
AcDbBlockEnd
  0
BLOCK
  5
860E
330
860D
100
AcDbEntity
  8
0
100
AcDbBlockBegin
  2
*D47
 70
     1
 10
0.0
 20
0.0
 30
0.0
  3
*D47
  1

  0
LINE
  5
8610
330
860D
100
AcDbEntity
  8
3
 62
     0
370
    -2
100
AcDbLine
 10
2504.169444624878
 20
4772.929658934045
 30
0.0
 11
2504.169444624878
 21
5045.940691624003
 31
0.0
  0
LINE
  5
8611
330
860D
100
AcDbEntity
  8
3
 62
     0
370
    -2
100
AcDbLine
 10
3784.169444624879
 20
4772.929658934045
 30
0.0
 11
3784.169444624879
 21
5045.940691624003
 31
0.0
  0
LINE
  5
8612
330
860D
100
AcDbEntity
  8
3
 62
     0
370
    -2
100
AcDbLine
 10
2584.169444624878
 20
5005.940691624002
 30
0.0
 11
3704.16944462488
 21
5005.940691624002
 31
0.0
  0
INSERT
  5
8613
330
860D
100
AcDbEntity
  8
3
 62
     0
370
    -2
100
AcDbBlockReference
  2
_OPEN
 10
2504.169444624878
 20
5005.940691624002
 30
0.0
 41
80.0
 42
80.0
 43
80.0
 50
180.0
  0
INSERT
  5
8614
330
860D
100
AcDbEntity
  8
3
 62
     0
370
    -2
100
AcDbBlockReference
  2
_OPEN
 10
3784.169444624879
 20
5005.940691624002
 30
0.0
 41
80.0
 42
80.0
 43
80.0
  0
MTEXT
  5
8615
330
860D
100
AcDbEntity
  8
3
 62
     0
100
AcDbMText
 10
3144.169444624879
 20
5105.940691624002
 30
0.0
 40
120.0
 41
0.0
 71
     5
 72
     1
  1
\A1;1280
 73
     1
 44
1.0
1001
ACAD
1000
MTEXTBEGIN
1070
    73
1070
     1
1070
    44
1040
1.0
1070
    74
1070
     0
1000
MTEXTEND
  0
POINT
  5
8616
330
860D
100
AcDbEntity
  8
DEFPOINTS
 62
     0
100
AcDbPoint
 10
2504.169444624878
 20
4752.929658934045
 30
0.0
  0
POINT
  5
8617
330
860D
100
AcDbEntity
  8
DEFPOINTS
 62
     0
100
AcDbPoint
 10
3784.169444624879
 20
4752.929658934045
 30
0.0
  0
POINT
  5
8618
330
860D
100
AcDbEntity
  8
DEFPOINTS
 62
     0
100
AcDbPoint
 10
3784.169444624879
 20
5005.940691624002
 30
0.0
  0
ENDBLK
  5
860F
330
860D
100
AcDbEntity
  8
0
100
AcDbBlockEnd
  0
BLOCK
  5
861B
330
861A
100
AcDbEntity
  8
0
100
AcDbBlockBegin
  2
*D48
 70
     1
 10
0.0
 20
0.0
 30
0.0
  3
*D48
  1

  0
LINE
  5
861D
330
861A
100
AcDbEntity
  8
3
 62
     0
370
    -2
100
AcDbLine
 10
3784.169444624879
 20
4772.929658934045
 30
0.0
 11
3784.169444624879
 21
5293.003534080533
 31
0.0
  0
LINE
  5
861E
330
861A
100
AcDbEntity
  8
3
 62
     0
370
    -2
100
AcDbLine
 10
2450.169444624878
 20
4813.547459956273
 30
0.0
 11
2450.169444624878
 21
5293.003534080533
 31
0.0
  0
LINE
  5
861F
330
861A
100
AcDbEntity
  8
3
 62
     0
370
    -2
100
AcDbLine
 10
3704.16944462488
 20
5253.003534080533
 30
0.0
 11
2530.169444624878
 21
5253.003534080533
 31
0.0
  0
INSERT
  5
8620
330
861A
100
AcDbEntity
  8
3
 62
     0
370
    -2
100
AcDbBlockReference
  2
_OPEN
 10
3784.169444624879
 20
5253.003534080533
 30
0.0
 41
80.0
 42
80.0
 43
80.0
  0
INSERT
  5
8621
330
861A
100
AcDbEntity
  8
3
 62
     0
370
    -2
100
AcDbBlockReference
  2
_OPEN
 10
2450.169444624878
 20
5253.003534080533
 30
0.0
 41
80.0
 42
80.0
 43
80.0
 50
180.0
  0
MTEXT
  5
8622
330
861A
100
AcDbEntity
  8
3
 62
     0
100
AcDbMText
 10
3117.169444624879
 20
5353.003534080532
 30
0.0
 40
120.0
 41
0.0
 71
     5
 72
     1
  1
\A1;1334
 73
     1
 44
1.0
1001
ACAD
1000
MTEXTBEGIN
1070
    73
1070
     1
1070
    44
1040
1.0
1070
    74
1070
     0
1000
MTEXTEND
  0
POINT
  5
8623
330
861A
100
AcDbEntity
  8
DEFPOINTS
 62
     0
100
AcDbPoint
 10
3784.169444624879
 20
4752.929658934045
 30
0.0
  0
POINT
  5
8624
330
861A
100
AcDbEntity
  8
DEFPOINTS
 62
     0
100
AcDbPoint
 10
2450.169444624878
 20
4793.547459956273
 30
0.0
  0
POINT
  5
8625
330
861A
100
AcDbEntity
  8
DEFPOINTS
 62
     0
100
AcDbPoint
 10
2450.169444624878
 20
5253.003534080533
 30
0.0
  0
ENDBLK
  5
861C
330
861A
100
AcDbEntity
  8
0
100
AcDbBlockEnd
  0
BLOCK
  5
8628
330
8627
100
AcDbEntity
  8
0
100
AcDbBlockBegin
  2
*D49
 70
     1
 10
0.0
 20
0.0
 30
0.0
  3
*D49
  1

  0
LINE
  5
862A
330
8627
100
AcDbEntity
  8
3
 62
     0
370
    -2
100
AcDbLine
 10
2450.169444624878
 20
4813.547459956273
 30
0.0
 11
2450.169444624878
 21
5293.003534080533
 31
0.0
  0
LINE
  5
862B
330
8627
100
AcDbEntity
  8
3
 62
     0
370
    -2
100
AcDbLine
 10
1553.169444624878
 20
3856.929658934045
 30
0.0
 11
1553.169444624878
 21
5293.003534080533
 31
0.0
  0
LINE
  5
862C
330
8627
100
AcDbEntity
  8
3
 62
     0
370
    -2
100
AcDbLine
 10
2370.169444624878
 20
5253.003534080533
 30
0.0
 11
1633.169444624878
 21
5253.003534080533
 31
0.0
  0
INSERT
  5
862D
330
8627
100
AcDbEntity
  8
3
 62
     0
370
    -2
100
AcDbBlockReference
  2
_OPEN
 10
2450.169444624878
 20
5253.003534080533
 30
0.0
 41
80.0
 42
80.0
 43
80.0
  0
INSERT
  5
862E
330
8627
100
AcDbEntity
  8
3
 62
     0
370
    -2
100
AcDbBlockReference
  2
_OPEN
 10
1553.169444624878
 20
5253.003534080533
 30
0.0
 41
80.0
 42
80.0
 43
80.0
 50
180.0
  0
MTEXT
  5
862F
330
8627
100
AcDbEntity
  8
3
 62
     0
100
AcDbMText
 10
2001.669444624878
 20
5353.003534080532
 30
0.0
 40
120.0
 41
0.0
 71
     5
 72
     1
  1
\A1;897
 73
     1
 44
1.0
1001
ACAD
1000
MTEXTBEGIN
1070
    73
1070
     1
1070
    44
1040
1.0
1070
    74
1070
     0
1000
MTEXTEND
  0
POINT
  5
8630
330
8627
100
AcDbEntity
  8
DEFPOINTS
 62
     0
100
AcDbPoint
 10
2450.169444624878
 20
4793.547459956273
 30
0.0
  0
POINT
  5
8631
330
8627
100
AcDbEntity
  8
DEFPOINTS
 62
     0
100
AcDbPoint
 10
1553.169444624878
 20
3836.929658934045
 30
0.0
  0
POINT
  5
8632
330
8627
100
AcDbEntity
  8
DEFPOINTS
 62
     0
100
AcDbPoint
 10
1553.169444624878
 20
5253.003534080533
 30
0.0
  0
ENDBLK
  5
8629
330
8627
100
AcDbEntity
  8
0
100
AcDbBlockEnd
  0
BLOCK
  5
8635
330
8634
100
AcDbEntity
  8
0
100
AcDbBlockBegin
  2
*D50
 70
     1
 10
0.0
 20
0.0
 30
0.0
  3
*D50
  1

  0
LINE
  5
8637
330
8634
100
AcDbEntity
  8
3
 62
     0
370
    -2
100
AcDbLine
 10
1553.169444624878
 20
3856.929658934045
 30
0.0
 11
1553.169444624878
 21
5534.836675797562
 31
0.0
  0
LINE
  5
8638
330
8634
100
AcDbEntity
  8
3
 62
     0
370
    -2
100
AcDbLine
 10
4150.169444624879
 20
2962.929658934044
 30
0.0
 11
4150.169444624879
 21
5534.836675797562
 31
0.0
  0
LINE
  5
8639
330
8634
100
AcDbEntity
  8
3
 62
     0
370
    -2
100
AcDbLine
 10
1633.169444624878
 20
5494.836675797562
 30
0.0
 11
4070.169444624879
 21
5494.836675797562
 31
0.0
  0
INSERT
  5
863A
330
8634
100
AcDbEntity
  8
3
 62
     0
370
    -2
100
AcDbBlockReference
  2
_OPEN
 10
1553.169444624878
 20
5494.836675797562
 30
0.0
 41
80.0
 42
80.0
 43
80.0
 50
180.0
  0
INSERT
  5
863B
330
8634
100
AcDbEntity
  8
3
 62
     0
370
    -2
100
AcDbBlockReference
  2
_OPEN
 10
4150.169444624879
 20
5494.836675797562
 30
0.0
 41
80.0
 42
80.0
 43
80.0
  0
MTEXT
  5
863C
330
8634
100
AcDbEntity
  8
3
 62
     0
100
AcDbMText
 10
2851.669444624878
 20
5594.836675797562
 30
0.0
 40
120.0
 41
0.0
 71
     5
 72
     1
  1
\A1;2597
 73
     1
 44
1.0
1001
ACAD
1000
MTEXTBEGIN
1070
    73
1070
     1
1070
    44
1040
1.0
1070
    74
1070
     0
1000
MTEXTEND
  0
POINT
  5
863D
330
8634
100
AcDbEntity
  8
DEFPOINTS
 62
     0
100
AcDbPoint
 10
1553.169444624878
 20
3836.929658934045
 30
0.0
  0
POINT
  5
863E
330
8634
100
AcDbEntity
  8
DEFPOINTS
 62
     0
100
AcDbPoint
 10
4150.169444624879
 20
2942.929658934044
 30
0.0
  0
POINT
  5
863F
330
8634
100
AcDbEntity
  8
DEFPOINTS
 62
     0
100
AcDbPoint
 10
4150.169444624879
 20
5494.836675797562
 30
0.0
  0
ENDBLK
  5
8636
330
8634
100
AcDbEntity
  8
0
100
AcDbBlockEnd
  0
BLOCK
  5
8642
330
8641
100
AcDbEntity
  8
0
100
AcDbBlockBegin
  2
*D51
 70
     1
 10
0.0
 20
0.0
 30
0.0
  3
*D51
  1

  0
LINE
  5
8644
330
8641
100
AcDbEntity
  8
3
 62
     0
370
    -2
100
AcDbLine
 10
2431.169444624878
 20
4752.929658934045
 30
0.0
 11
1280.82078737249
 21
4752.929658934045
 31
0.0
  0
LINE
  5
8645
330
8641
100
AcDbEntity
  8
3
 62
     0
370
    -2
100
AcDbLine
 10
1526.732906376026
 20
3927.929658934044
 30
0.0
 11
1280.820787372489
 21
3927.929658934044
 31
0.0
  0
LINE
  5
8646
330
8641
100
AcDbEntity
  8
3
 62
     0
370
    -2
100
AcDbLine
 10
1320.82078737249
 20
4672.929658934045
 30
0.0
 11
1320.820787372489
 21
4007.929658934044
 31
0.0
  0
INSERT
  5
8647
330
8641
100
AcDbEntity
  8
3
 62
     0
370
    -2
100
AcDbBlockReference
  2
_OPEN
 10
1320.82078737249
 20
4752.929658934045
 30
0.0
 41
80.0
 42
80.0
 43
80.0
 50
90.0
  0
INSERT
  5
8648
330
8641
100
AcDbEntity
  8
3
 62
     0
370
    -2
100
AcDbBlockReference
  2
_OPEN
 10
1320.820787372489
 20
3927.929658934044
 30
0.0
 41
80.0
 42
80.0
 43
80.0
 50
270.0
  0
MTEXT
  5
8649
330
8641
100
AcDbEntity
  8
3
 62
     0
100
AcDbMText
 10
1220.820787372489
 20
4340.429658934044
 30
0.0
 40
120.0
 41
0.0
 71
     5
 72
     1
  1
\A1;825
 11
0.0000000000000001
 21
1.0
 31
0.0
 73
     1
 44
1.0
1001
ACAD
1000
MTEXTBEGIN
1070
    73
1070
     1
1070
    44
1040
1.0
1070
    74
1070
     0
1000
MTEXTEND
  0
POINT
  5
864A
330
8641
100
AcDbEntity
  8
DEFPOINTS
 62
     0
100
AcDbPoint
 10
2451.169444624878
 20
4752.929658934045
 30
0.0
  0
POINT
  5
864B
330
8641
100
AcDbEntity
  8
DEFPOINTS
 62
     0
100
AcDbPoint
 10
1546.732906376026
 20
3927.929658934044
 30
0.0
  0
POINT
  5
864C
330
8641
100
AcDbEntity
  8
DEFPOINTS
 62
     0
100
AcDbPoint
 10
1320.820787372489
 20
3927.929658934044
 30
0.0
  0
ENDBLK
  5
8643
330
8641
100
AcDbEntity
  8
0
100
AcDbBlockEnd
  0
BLOCK
  5
864F
330
864E
100
AcDbEntity
  8
0
100
AcDbBlockBegin
  2
*D52
 70
     1
 10
0.0
 20
0.0
 30
0.0
  3
*D52
  1

  0
LINE
  5
8651
330
864E
100
AcDbEntity
  8
3
 62
     0
370
    -2
100
AcDbLine
 10
1526.732906376026
 20
3927.929658934044
 30
0.0
 11
1280.820787372489
 21
3927.929658934044
 31
0.0
  0
LINE
  5
8652
330
864E
100
AcDbEntity
  8
3
 62
     0
370
    -2
100
AcDbLine
 10
1680.169444624878
 20
2817.929658934044
 30
0.0
 11
1280.820787372489
 21
2817.929658934044
 31
0.0
  0
LINE
  5
8653
330
864E
100
AcDbEntity
  8
3
 62
     0
370
    -2
100
AcDbLine
 10
1320.820787372489
 20
3847.929658934044
 30
0.0
 11
1320.820787372489
 21
2897.929658934044
 31
0.0
  0
INSERT
  5
8654
330
864E
100
AcDbEntity
  8
3
 62
     0
370
    -2
100
AcDbBlockReference
  2
_OPEN
 10
1320.820787372489
 20
3927.929658934044
 30
0.0
 41
80.0
 42
80.0
 43
80.0
 50
90.0
  0
INSERT
  5
8655
330
864E
100
AcDbEntity
  8
3
 62
     0
370
    -2
100
AcDbBlockReference
  2
_OPEN
 10
1320.820787372489
 20
2817.929658934044
 30
0.0
 41
80.0
 42
80.0
 43
80.0
 50
270.0
  0
MTEXT
  5
8656
330
864E
100
AcDbEntity
  8
3
 62
     0
100
AcDbMText
 10
1220.820787372489
 20
3372.929658934045
 30
0.0
 40
120.0
 41
0.0
 71
     5
 72
     1
  1
\A1;1110
 11
0.0000000000000001
 21
1.0
 31
0.0
 73
     1
 44
1.0
1001
ACAD
1000
MTEXTBEGIN
1070
    73
1070
     1
1070
    44
1040
1.0
1070
    74
1070
     0
1000
MTEXTEND
  0
POINT
  5
8657
330
864E
100
AcDbEntity
  8
DEFPOINTS
 62
     0
100
AcDbPoint
 10
1546.732906376026
 20
3927.929658934044
 30
0.0
  0
POINT
  5
8658
330
864E
100
AcDbEntity
  8
DEFPOINTS
 62
     0
100
AcDbPoint
 10
1700.169444624878
 20
2817.929658934044
 30
0.0
  0
POINT
  5
8659
330
864E
100
AcDbEntity
  8
DEFPOINTS
 62
     0
100
AcDbPoint
 10
1320.820787372489
 20
2817.929658934044
 30
0.0
  0
ENDBLK
  5
8650
330
864E
100
AcDbEntity
  8
0
100
AcDbBlockEnd
  0
BLOCK
  5
865C
330
865B
100
AcDbEntity
  8
0
100
AcDbBlockBegin
  2
*D53
 70
     1
 10
0.0
 20
0.0
 30
0.0
  3
*D53
  1

  0
LINE
  5
8732
330
865B
100
AcDbEntity
  8
3
 62
     0
370
    -2
100
AcDbLine
 10
1680.169444624878
 20
2817.929658934044
 30
0.0
 11
1280.820787372489
 21
2817.929658934044
 31
0.0
  0
LINE
  5
8733
330
865B
100
AcDbEntity
  8
3
 62
     0
370
    -2
100
AcDbLine
 10
1680.169444624878
 20
2712.929658934044
 30
0.0
 11
1280.820787372489
 21
2712.929658934044
 31
0.0
  0
LINE
  5
8734
330
865B
100
AcDbEntity
  8
3
 62
     0
370
    -2
100
AcDbLine
 10
1320.820787372489
 20
2897.929658934044
 30
0.0
 11
1320.820787372489
 21
2977.929658934045
 31
0.0
  0
LINE
  5
8735
330
865B
100
AcDbEntity
  8
3
 62
     0
370
    -2
100
AcDbLine
 10
1320.820787372489
 20
2712.929658934044
 30
0.0
 11
1320.820787372489
 21
2632.929658934044
 31
0.0
  0
LINE
  5
8736
330
865B
100
AcDbEntity
  8
3
 62
     0
370
    -2
100
AcDbLine
 10
1320.820787372489
 20
2765.429658934044
 30
0.0
 11
1129.392215943918
 21
2822.858230362616
 31
0.0
  0
LINE
  5
8737
330
865B
100
AcDbEntity
  8
3
 62
     0
370
    -2
100
AcDbLine
 10
1129.392215943918
 20
2822.858230362616
 30
0.0
 11
1129.392215943918
 21
3342.858230362616
 31
0.0
  0
MTEXT
  5
8738
330
865B
100
AcDbEntity
  8
3
 62
     0
100
AcDbMText
 10
997.9636445153461
 20
3082.858230362616
 30
0.0
 40
120.0
 41
0.0
 71
     5
 72
     1
  1
\A1;(105)
 11
0.0000000000000001
 21
1.0
 31
0.0
 73
     1
 44
1.0
1001
ACAD
1000
MTEXTBEGIN
1070
    73
1070
     1
1070
    44
1040
1.0
1070
    74
1070
     0
1000
MTEXTEND
  0
LINE
  5
8739
330
865B
100
AcDbEntity
  8
3
 62
     0
370
    -2
100
AcDbLine
 10
1320.820787372489
 20
2817.929658934044
 30
0.0
 11
1320.820787372489
 21
2712.929658934044
 31
0.0
  0
LINE
  5
873A
330
865B
100
AcDbEntity
  8
3
 62
     0
370
    -2
100
AcDbLine
 10
1320.820787372489
 20
2817.929658934044
 30
0.0
 11
1320.820787372489
 21
2712.929658934044
 31
0.0
  0
INSERT
  5
873B
330
865B
100
AcDbEntity
  8
3
 62
     0
370
    -2
100
AcDbBlockReference
  2
_OPEN
 10
1320.820787372489
 20
2817.929658934044
 30
0.0
 41
80.0
 42
80.0
 43
80.0
 50
270.0
  0
INSERT
  5
873C
330
865B
100
AcDbEntity
  8
3
 62
     0
370
    -2
100
AcDbBlockReference
  2
_DotSmall
 10
1320.820787372489
 20
2712.929658934044
 30
0.0
 41
80.0
 42
80.0
 43
80.0
 50
90.0
  0
POINT
  5
873D
330
865B
100
AcDbEntity
  8
DEFPOINTS
 62
     0
100
AcDbPoint
 10
1700.169444624878
 20
2817.929658934044
 30
0.0
  0
POINT
  5
873E
330
865B
100
AcDbEntity
  8
DEFPOINTS
 62
     0
100
AcDbPoint
 10
1700.169444624878
 20
2712.929658934044
 30
0.0
  0
POINT
  5
873F
330
865B
100
AcDbEntity
  8
DEFPOINTS
 62
     0
100
AcDbPoint
 10
1320.820787372489
 20
2712.929658934044
 30
0.0
  0
ENDBLK
  5
865D
330
865B
100
AcDbEntity
  8
0
100
AcDbBlockEnd
  0
BLOCK
  5
866E
330
866D
100
AcDbEntity
  8
0
100
AcDbBlockBegin
  2
*D54
 70
     1
 10
0.0
 20
0.0
 30
0.0
  3
*D54
  1

  0
LINE
  5
878E
330
866D
100
AcDbEntity
  8
3
 62
     0
370
    -2
100
AcDbLine
 10
1680.169444624878
 20
2712.929658934044
 30
0.0
 11
1280.820787372489
 21
2712.929658934044
 31
0.0
  0
LINE
  5
878F
330
866D
100
AcDbEntity
  8
3
 62
     0
370
    -2
100
AcDbLine
 10
1680.169444624878
 20
2647.929658934044
 30
0.0
 11
1280.820787372489
 21
2647.929658934044
 31
0.0
  0
LINE
  5
8790
330
866D
100
AcDbEntity
  8
3
 62
     0
370
    -2
100
AcDbLine
 10
1320.820787372489
 20
2712.929658934044
 30
0.0
 11
1320.820787372489
 21
2792.929658934044
 31
0.0
  0
LINE
  5
8791
330
866D
100
AcDbEntity
  8
3
 62
     0
370
    -2
100
AcDbLine
 10
1320.820787372489
 20
2567.929658934044
 30
0.0
 11
1320.820787372489
 21
2487.929658934044
 31
0.0
  0
MTEXT
  5
8792
330
866D
100
AcDbEntity
  8
3
 62
     0
100
AcDbMText
 10
1220.820787372489
 20
2487.929658934044
 30
0.0
 40
120.0
 41
0.0
 71
     5
 72
     1
  1
\A1;65
 11
0.0000000000000001
 21
1.0
 31
0.0
 73
     1
 44
1.0
1001
ACAD
1000
MTEXTBEGIN
1070
    73
1070
     1
1070
    44
1040
1.0
1070
    74
1070
     0
1000
MTEXTEND
  0
LINE
  5
8793
330
866D
100
AcDbEntity
  8
3
 62
     0
370
    -2
100
AcDbLine
 10
1320.820787372489
 20
2712.929658934044
 30
0.0
 11
1320.820787372489
 21
2647.929658934044
 31
0.0
  0
INSERT
  5
8794
330
866D
100
AcDbEntity
  8
3
 62
     0
370
    -2
100
AcDbBlockReference
  2
_DotSmall
 10
1320.820787372489
 20
2712.929658934044
 30
0.0
 41
80.0
 42
80.0
 43
80.0
 50
270.0
  0
INSERT
  5
8795
330
866D
100
AcDbEntity
  8
3
 62
     0
370
    -2
100
AcDbBlockReference
  2
_OPEN
 10
1320.820787372489
 20
2647.929658934044
 30
0.0
 41
80.0
 42
80.0
 43
80.0
 50
90.0
  0
POINT
  5
8796
330
866D
100
AcDbEntity
  8
DEFPOINTS
 62
     0
100
AcDbPoint
 10
1700.169444624878
 20
2712.929658934044
 30
0.0
  0
POINT
  5
8797
330
866D
100
AcDbEntity
  8
DEFPOINTS
 62
     0
100
AcDbPoint
 10
1700.169444624878
 20
2647.929658934044
 30
0.0
  0
POINT
  5
8798
330
866D
100
AcDbEntity
  8
DEFPOINTS
 62
     0
100
AcDbPoint
 10
1320.820787372489
 20
2647.929658934044
 30
0.0
  0
ENDBLK
  5
866F
330
866D
100
AcDbEntity
  8
0
100
AcDbBlockEnd
  0
BLOCK
  5
8680
330
867F
100
AcDbEntity
  8
0
100
AcDbBlockBegin
  2
*D55
 70
     1
 10
0.0
 20
0.0
 30
0.0
  3
*D55
  1

  0
LINE
  5
86C4
330
867F
100
AcDbEntity
  8
3
 62
     0
370
    -2
100
AcDbLine
 10
1680.169444624878
 20
2647.929658934044
 30
0.0
 11
793.1247629570858
 21
2647.929658934045
 31
0.0
  0
LINE
  5
86C5
330
867F
100
AcDbEntity
  8
3
 62
     0
370
    -2
100
AcDbLine
 10
2431.169444624878
 20
4752.929658934045
 30
0.0
 11
793.1247629570862
 21
4752.929658934045
 31
0.0
  0
LINE
  5
86C6
330
867F
100
AcDbEntity
  8
3
 62
     0
370
    -2
100
AcDbLine
 10
833.1247629570858
 20
2727.929658934045
 30
0.0
 11
833.1247629570864
 21
4672.929658934045
 31
0.0
  0
INSERT
  5
86C7
330
867F
100
AcDbEntity
  8
3
 62
     0
370
    -2
100
AcDbBlockReference
  2
_OPEN
 10
833.1247629570858
 20
2647.929658934045
 30
0.0
 41
80.0
 42
80.0
 43
80.0
 50
270.0
  0
INSERT
  5
86C8
330
867F
100
AcDbEntity
  8
3
 62
     0
370
    -2
100
AcDbBlockReference
  2
_OPEN
 10
833.1247629570864
 20
4752.929658934045
 30
0.0
 41
80.0
 42
80.0
 43
80.0
 50
90.0
  0
MTEXT
  5
86C9
330
867F
100
AcDbEntity
  8
3
 62
     0
100
AcDbMText
 10
701.6961915285141
 20
3700.429658934045
 30
0.0
 40
120.0
 41
0.0
 71
     5
 72
     1
  1
\A1;(2105)
 11
0.0000000000000001
 21
1.0
 31
0.0
 73
     1
 44
1.0
1001
ACAD
1000
MTEXTBEGIN
1070
    73
1070
     1
1070
    44
1040
1.0
1070
    74
1070
     0
1000
MTEXTEND
  0
POINT
  5
86CA
330
867F
100
AcDbEntity
  8
DEFPOINTS
 62
     0
100
AcDbPoint
 10
1700.169444624878
 20
2647.929658934044
 30
0.0
  0
POINT
  5
86CB
330
867F
100
AcDbEntity
  8
DEFPOINTS
 62
     0
100
AcDbPoint
 10
2451.169444624878
 20
4752.929658934045
 30
0.0
  0
POINT
  5
86CC
330
867F
100
AcDbEntity
  8
DEFPOINTS
 62
     0
100
AcDbPoint
 10
833.1247629570864
 20
4752.929658934045
 30
0.0
  0
ENDBLK
  5
8681
330
867F
100
AcDbEntity
  8
0
100
AcDbBlockEnd
  0
BLOCK
  5
8730
330
872E
100
AcDbEntity
  8
0
100
AcDbBlockBegin
  2
_DotSmall
 70
     0
 10
0.0
 20
0.0
 30
0.0
  3
_DotSmall
  1

  0
LWPOLYLINE
  5
872F
330
872E
100
AcDbEntity
  8
0
  6
ByBlock
 62
     0
100
AcDbPolyline
 90
        2
 70
     1
 43
0.5
 10
-0.0625
 20
0.0
 42
1.0
 10
0.0625
 20
0.0
 42
1.0
  0
ENDBLK
  5
8731
330
872E
100
AcDbEntity
  8
0
100
AcDbBlockEnd
  0
BLOCK
  5
879B
330
879A
100
AcDbEntity
  8
0
100
AcDbBlockBegin
  2
*D57
 70
     1
 10
0.0
 20
0.0
 30
0.0
  3
*D57
  1

  0
LINE
  5
879D
330
879A
100
AcDbEntity
  8
3
 62
     0
370
    -2
100
AcDbLine
 10
1700.169444624878
 20
2627.929658934044
 30
0.0
 11
1700.169444624878
 21
2356.795258662209
 31
0.0
  0
LINE
  5
879E
330
879A
100
AcDbEntity
  8
3
 62
     0
370
    -2
100
AcDbLine
 10
2450.169444624878
 20
2627.929658934044
 30
0.0
 11
2450.169444624878
 21
2356.795258662209
 31
0.0
  0
LINE
  5
879F
330
879A
100
AcDbEntity
  8
3
 62
     0
370
    -2
100
AcDbLine
 10
1780.169444624878
 20
2396.795258662208
 30
0.0
 11
2370.169444624878
 21
2396.795258662208
 31
0.0
  0
INSERT
  5
87A0
330
879A
100
AcDbEntity
  8
3
 62
     0
370
    -2
100
AcDbBlockReference
  2
_OPEN
 10
1700.169444624878
 20
2396.795258662208
 30
0.0
 41
80.0
 42
80.0
 43
80.0
 50
180.0
  0
INSERT
  5
87A1
330
879A
100
AcDbEntity
  8
3
 62
     0
370
    -2
100
AcDbBlockReference
  2
_OPEN
 10
2450.169444624878
 20
2396.795258662208
 30
0.0
 41
80.0
 42
80.0
 43
80.0
  0
MTEXT
  5
87A2
330
879A
100
AcDbEntity
  8
3
 62
     0
100
AcDbMText
 10
2075.169444624878
 20
2496.795258662209
 30
0.0
 40
120.0
 41
0.0
 71
     5
 72
     1
  1
\A1;750
 73
     1
 44
1.0
1001
ACAD
1000
MTEXTBEGIN
1070
    73
1070
     1
1070
    44
1040
1.0
1070
    74
1070
     0
1000
MTEXTEND
  0
POINT
  5
87A3
330
879A
100
AcDbEntity
  8
DEFPOINTS
 62
     0
100
AcDbPoint
 10
1700.169444624878
 20
2647.929658934044
 30
0.0
  0
POINT
  5
87A4
330
879A
100
AcDbEntity
  8
DEFPOINTS
 62
     0
100
AcDbPoint
 10
2450.169444624878
 20
2647.929658934044
 30
0.0
  0
POINT
  5
87A5
330
879A
100
AcDbEntity
  8
DEFPOINTS
 62
     0
100
AcDbPoint
 10
2450.169444624878
 20
2396.795258662208
 30
0.0
  0
ENDBLK
  5
879C
330
879A
100
AcDbEntity
  8
0
100
AcDbBlockEnd
  0
BLOCK
  5
87A8
330
87A7
100
AcDbEntity
  8
0
100
AcDbBlockBegin
  2
*D58
 70
     1
 10
0.0
 20
0.0
 30
0.0
  3
*D58
  1

  0
LINE
  5
87AA
330
87A7
100
AcDbEntity
  8
3
 62
     0
370
    -2
100
AcDbLine
 10
2450.169444624878
 20
2627.929658934044
 30
0.0
 11
2450.169444624878
 21
2356.795258662209
 31
0.0
  0
LINE
  5
87AB
330
87A7
100
AcDbEntity
  8
3
 62
     0
370
    -2
100
AcDbLine
 10
4150.169444624879
 20
2627.929658934044
 30
0.0
 11
4150.169444624879
 21
2356.795258662209
 31
0.0
  0
LINE
  5
87AC
330
87A7
100
AcDbEntity
  8
3
 62
     0
370
    -2
100
AcDbLine
 10
2530.169444624878
 20
2396.795258662208
 30
0.0
 11
4070.169444624879
 21
2396.795258662208
 31
0.0
  0
INSERT
  5
87AD
330
87A7
100
AcDbEntity
  8
3
 62
     0
370
    -2
100
AcDbBlockReference
  2
_OPEN
 10
2450.169444624878
 20
2396.795258662208
 30
0.0
 41
80.0
 42
80.0
 43
80.0
 50
180.0
  0
INSERT
  5
87AE
330
87A7
100
AcDbEntity
  8
3
 62
     0
370
    -2
100
AcDbBlockReference
  2
_OPEN
 10
4150.169444624879
 20
2396.795258662208
 30
0.0
 41
80.0
 42
80.0
 43
80.0
  0
MTEXT
  5
87AF
330
87A7
100
AcDbEntity
  8
3
 62
     0
100
AcDbMText
 10
3300.169444624879
 20
2496.795258662209
 30
0.0
 40
120.0
 41
0.0
 71
     5
 72
     1
  1
\A1;1700
 73
     1
 44
1.0
1001
ACAD
1000
MTEXTBEGIN
1070
    73
1070
     1
1070
    44
1040
1.0
1070
    74
1070
     0
1000
MTEXTEND
  0
POINT
  5
87B0
330
87A7
100
AcDbEntity
  8
DEFPOINTS
 62
     0
100
AcDbPoint
 10
2450.169444624878
 20
2647.929658934044
 30
0.0
  0
POINT
  5
87B1
330
87A7
100
AcDbEntity
  8
DEFPOINTS
 62
     0
100
AcDbPoint
 10
4150.169444624879
 20
2647.929658934044
 30
0.0
  0
POINT
  5
87B2
330
87A7
100
AcDbEntity
  8
DEFPOINTS
 62
     0
100
AcDbPoint
 10
4150.169444624879
 20
2396.795258662208
 30
0.0
  0
ENDBLK
  5
87A9
330
87A7
100
AcDbEntity
  8
0
100
AcDbBlockEnd
  0
ENDSEC
  0
SECTION
  2
ENTITIES
  0
INSERT
  5
7C21
330
840C
100
AcDbEntity
  8
1
100
AcDbBlockReference
  2
YA_N
 10
6.0
 20
5.0
 30
0.0
  0
LINE
  5
7C22
330
840C
100
AcDbEntity
  8
2
100
AcDbLine
 10
2450.169444624878
 20
4793.547459956273
 30
0.0
 11
2450.169444624878
 21
2647.929658934044
 31
0.0
  0
LINE
  5
7C23
330
840C
100
AcDbEntity
  8
1
100
AcDbLine
 10
4876.039116178847
 20
2817.929658934044
 30
0.0
 11
6996.039116178846
 21
2817.929658934044
 31
0.0
1001
ACAD
1000
ASC_BOUNDS
1002
{
1070
    19
1005
0
1005
0
1002
}
  0
LINE
  5
7C24
330
840C
100
AcDbEntity
  8
1
100
AcDbLine
 10
4876.039116178847
 20
2942.929658934044
 30
0.0
 11
6996.039116178848
 21
2942.929658934044
 31
0.0
  0
LINE
  5
7C25
330
840C
100
AcDbEntity
  8
1
100
AcDbLine
 10
6928.039116178847
 20
4752.929658934045
 30
0.0
 11
6928.039116178847
 21
3927.929658934044
 31
0.0
  0
LINE
  5
7C26
330
840C
100
AcDbEntity
  8
1
100
AcDbLine
 10
5228.039116178845
 20
4752.929658934045
 30
0.0
 11
5228.039116178845
 21
3927.929658934044
 31
0.0
  0
LINE
  5
7C27
330
840C
100
AcDbEntity
  8
2
100
AcDbLine
 10
1546.732906376026
 20
3927.929658934044
 30
0.0
 11
3873.047819172239
 21
3927.929658934044
 31
0.0
  0
LINE
  5
7C28
330
840C
100
AcDbEntity
  8
2
100
AcDbLine
 10
4862.739116178847
 20
3927.929658934044
 30
0.0
 11
7111.549602418083
 21
3927.929658934044
 31
0.0
  0
LINE
  5
7C29
330
840C
100
AcDbEntity
  8
2
100
AcDbLine
 10
4806.53638958247
 20
3202.929658934044
 30
0.0
 11
5846.503247508856
 21
3202.929658934044
 31
0.0
  0
LINE
  5
7C2A
330
840C
100
AcDbEntity
  8
1
100
AcDbLine
 10
4883.039116178848
 20
3308.929658934044
 30
0.0
 11
4960.939116178846
 21
3308.929658934044
 31
0.0
  0
LINE
  5
7C2B
330
840C
100
AcDbEntity
  8
1
100
AcDbLine
 10
4883.039116178848
 20
3096.929658934044
 30
0.0
 11
4960.939116178847
 21
3096.929658934044
 31
0.0
  0
LINE
  5
7C2C
330
840C
100
AcDbEntity
  8
1
100
AcDbLine
 10
4981.039116178846
 20
3997.929658934045
 30
0.0
 11
4981.039116178846
 21
3857.929658934045
 31
0.0
  0
LINE
  5
7C2D
330
840C
100
AcDbEntity
  8
1
100
AcDbLine
 10
4960.939116178847
 20
4181.929658934044
 30
0.0
 11
4960.939116178847
 21
3997.929658934045
 31
0.0
  0
LINE
  5
7C2E
330
840C
100
AcDbEntity
  8
1
100
AcDbLine
 10
4960.939116178847
 20
3997.929658934045
 30
0.0
 11
4981.039116178846
 21
3997.929658934045
 31
0.0
  0
LINE
  5
7C2F
330
840C
100
AcDbEntity
  8
1
100
AcDbLine
 10
4960.939116178846
 20
3857.929658934045
 30
0.0
 11
4981.039116178846
 21
3857.929658934045
 31
0.0
  0
LINE
  5
7C30
330
840C
100
AcDbEntity
  8
1
100
AcDbLine
 10
4960.939116178847
 20
3857.929658934045
 30
0.0
 11
4960.939116178847
 21
3262.929658934044
 31
0.0
  0
LINE
  5
7C31
330
840C
100
AcDbEntity
  8
1
100
AcDbLine
 10
4883.039116178848
 20
4181.929658934044
 30
0.0
 11
4883.039116178848
 21
3096.929658934044
 31
0.0
  0
LINE
  5
7C32
330
840C
100
AcDbEntity
  8
1
100
AcDbLine
 10
4976.039116178847
 20
3262.929658934044
 30
0.0
 11
4976.039116178847
 21
3142.929658934044
 31
0.0
  0
LINE
  5
7C33
330
840C
100
AcDbEntity
  8
1
100
AcDbLine
 10
4960.939116178847
 20
3262.929658934044
 30
0.0
 11
4976.039116178847
 21
3262.929658934044
 31
0.0
  0
LINE
  5
7C34
330
840C
100
AcDbEntity
  8
1
100
AcDbLine
 10
4960.939116178847
 20
3142.929658934044
 30
0.0
 11
4976.039116178847
 21
3142.929658934044
 31
0.0
  0
LINE
  5
7C35
330
840C
100
AcDbEntity
  8
1
100
AcDbLine
 10
4960.939116178847
 20
3142.929658934044
 30
0.0
 11
4960.939116178847
 21
3096.929658934044
 31
0.0
  0
LINE
  5
7C36
330
840C
100
AcDbEntity
  8
1
100
AcDbLine
 10
4798.039116178847
 20
2982.929658934045
 30
0.0
 11
5043.039116178849
 21
2982.929658934045
 31
0.0
  0
LINE
  5
7C37
330
840C
100
AcDbEntity
  8
1
100
AcDbLine
 10
4798.039116178847
 20
4307.929658934045
 30
0.0
 11
4798.039116178847
 21
2982.929658934045
 31
0.0
  0
LINE
  5
7C38
330
840C
100
AcDbEntity
  8
1
100
AcDbLine
 10
5043.039116178846
 20
4307.929658934045
 30
0.0
 11
5043.039116178849
 21
4287.929658934045
 31
0.0
  0
LINE
  5
7C39
330
840C
100
AcDbEntity
  8
2
100
AcDbLine
 10
2450.169444624878
 20
8805.121610998787
 30
0.0
 11
2450.169444624878
 21
6469.943933730482
 31
0.0
  0
LINE
  5
7C3A
330
840C
100
AcDbEntity
  8
2
100
AcDbLine
 10
3870.169444624878
 20
7460.254487396347
 30
0.0
 11
3870.169444624878
 21
6456.824955162199
 31
0.0
  0
LINE
  5
7C3B
330
840C
100
AcDbEntity
  8
2
100
AcDbLine
 10
6078.039116178846
 20
4963.074884636641
 30
0.0
 11
6078.039116178845
 21
2647.929658934044
 31
0.0
  0
INSERT
  5
7C3C
330
840C
100
AcDbEntity
  8
1
100
AcDbBlockReference
  2
YA_N
 10
-1757.227407310314
 20
-1218.78641745778
 30
0.0
 41
30.0
 42
30.0
 43
30.0
  0
INSERT
  5
7C3D
330
840C
100
AcDbEntity
  8
1
100
AcDbBlockReference
  2
YA_N
 10
-755.2436758818473
 20
-538.554984833856
 30
0.0
 41
30.0
 42
30.0
 43
30.0
  0
LINE
  5
7C3E
330
840C
100
AcDbEntity
  8
1
100
AcDbLine
 10
4876.039116178844
 20
2712.929658934044
 30
0.0
 11
6996.039116178848
 21
2712.929658934044
 31
0.0
1001
ACAD
1000
ASC_BOUNDS
1002
{
1070
    19
1005
0
1005
0
1002
}
  0
LINE
  5
7C3F
330
840C
100
AcDbEntity
  8
1
100
AcDbLine
 10
4876.039116178844
 20
2647.929658934044
 30
0.0
 11
6996.039116178846
 21
2647.929658934044
 31
0.0
  0
LINE
  5
7C40
330
840C
100
AcDbEntity
  8
1
100
AcDbLine
 10
6996.039116178846
 20
2712.929658934044
 30
0.0
 11
6996.039116178846
 21
2647.929658934044
 31
0.0
  0
LINE
  5
7C41
330
840C
100
AcDbEntity
  8
1
100
AcDbLine
 10
6928.039116178847
 20
3928.929658934045
 30
0.0
 11
6928.039116178847
 21
2942.929658934044
 31
0.0
  0
LINE
  5
7C42
330
840C
100
AcDbEntity
  8
1
100
AcDbLine
 10
5228.039116178845
 20
3928.929658934045
 30
0.0
 11
5228.039116178845
 21
3412.929658934046
 31
0.0
  0
LINE
  5
7C43
330
840C
100
AcDbEntity
  8
1
100
AcDbLine
 10
1700.169444624878
 20
8705.437268273023
 30
0.0
 11
3200.169444624878
 21
8705.437268273023
 31
0.0
  0
LINE
  5
7C44
330
840C
100
AcDbEntity
  8
1
100
AcDbLine
 10
1700.169444624878
 20
6585.437268273023
 30
0.0
 11
4150.169444624879
 21
6585.437268273023
 31
0.0
  0
LINE
  5
7C45
330
840C
100
AcDbEntity
  8
1
100
AcDbLine
 10
1700.169444624878
 20
8705.437268273023
 30
0.0
 11
1700.169444624878
 21
8637.437268273025
 31
0.0
  0
LINE
  5
7C46
330
840C
100
AcDbEntity
  8
1
100
AcDbLine
 10
4150.169444624879
 20
7585.437268273023
 30
0.0
 11
4150.169444624879
 21
6585.437268273023
 31
0.0
  0
LINE
  5
7C47
330
840C
100
AcDbEntity
  8
1
100
AcDbLine
 10
3200.169444624878
 20
8705.437268273023
 30
0.0
 11
3200.169444624878
 21
8637.437268273025
 31
0.0
  0
LINE
  5
7C48
330
840C
100
AcDbEntity
  8
1
100
AcDbLine
 10
3784.169444624879
 20
7585.437268273023
 30
0.0
 11
4150.169444624879
 21
7585.437268273023
 31
0.0
  0
LINE
  5
7C4A
330
840C
100
AcDbEntity
  8
1
100
AcDbLine
 10
5070.539116178847
 20
3851.929658934045
 30
0.0
 11
5070.539116178847
 21
3721.929658934044
 31
0.0
  0
LINE
  5
7C4B
330
840C
100
AcDbEntity
  8
1
100
AcDbLine
 10
5210.539116178846
 20
3861.929658934045
 30
0.0
 11
5210.539116178846
 21
3711.929658934045
 31
0.0
  0
LINE
  5
7C4C
330
840C
100
AcDbEntity
  8
1
100
AcDbLine
 10
5080.539116178846
 20
3861.929658934045
 30
0.0
 11
5150.739116178848
 21
3861.929658934045
 31
0.0
  0
LINE
  5
7C4D
330
840C
100
AcDbEntity
  8
1
100
AcDbLine
 10
5080.539116178846
 20
3711.929658934045
 30
0.0
 11
5150.739116178848
 21
3711.929658934045
 31
0.0
  0
ARC
  5
7C4E
330
840C
100
AcDbEntity
  8
1
100
AcDbCircle
 10
5080.539116178846
 20
3851.929658934045
 30
0.0
 40
10.0
100
AcDbArc
 50
90.0
 51
180.0
  0
ARC
  5
7C4F
330
840C
100
AcDbEntity
  8
1
100
AcDbCircle
 10
5080.539116178846
 20
3721.929658934044
 30
0.0
 40
10.0
100
AcDbArc
 50
180.0
 51
270.0
  0
LINE
  5
7C50
330
840C
100
AcDbEntity
  8
1
100
AcDbLine
 10
5150.739116178847
 20
3711.929658934045
 30
0.0
 11
5210.539116178846
 21
3711.929658934045
 31
0.0
  0
LINE
  5
7C51
330
840C
100
AcDbEntity
  8
1
100
AcDbLine
 10
5150.739116178847
 20
3861.929658934045
 30
0.0
 11
5210.539116178846
 21
3861.929658934045
 31
0.0
  0
LINE
  5
7C52
330
840C
100
AcDbEntity
  8
1
100
AcDbLine
 10
7098.039116178846
 20
3851.929658934045
 30
0.0
 11
7098.039116178846
 21
3721.929658934044
 31
0.0
  0
LINE
  5
7C53
330
840C
100
AcDbEntity
  8
1
100
AcDbLine
 10
6945.539116178847
 20
3861.929658934045
 30
0.0
 11
6945.539116178847
 21
3711.929658934045
 31
0.0
  0
LINE
  5
7C54
330
840C
100
AcDbEntity
  8
1
100
AcDbLine
 10
7088.039116178847
 20
3711.929658934045
 30
0.0
 11
7005.339116178845
 21
3711.929658934045
 31
0.0
  0
ARC
  5
7C55
330
840C
100
AcDbEntity
  8
1
100
AcDbCircle
 10
7088.039116178847
 20
3721.929658934044
 30
0.0
 40
10.0
100
AcDbArc
 50
270.0
 51
0.0
  0
LINE
  5
7C56
330
840C
100
AcDbEntity
  8
1
100
AcDbLine
 10
7005.339116178845
 20
3711.929658934045
 30
0.0
 11
6945.539116178847
 21
3711.929658934045
 31
0.0
  0
LINE
  5
7C57
330
840C
100
AcDbEntity
  8
1
100
AcDbLine
 10
7088.039116178847
 20
3861.929658934045
 30
0.0
 11
7005.339116178845
 21
3861.929658934045
 31
0.0
  0
ARC
  5
7C58
330
840C
100
AcDbEntity
  8
1
100
AcDbCircle
 10
7088.039116178847
 20
3851.929658934045
 30
0.0
 40
10.0
100
AcDbArc
 50
0.0
 51
90.0
  0
LINE
  5
7C59
330
840C
100
AcDbEntity
  8
1
100
AcDbLine
 10
7005.339116178845
 20
3861.929658934045
 30
0.0
 11
6945.539116178847
 21
3861.929658934045
 31
0.0
  0
LINE
  5
7C5E
330
840C
100
AcDbEntity
  8
1
100
AcDbLine
 10
4883.039116178848
 20
4181.929658934044
 30
0.0
 11
4960.939116178846
 21
4181.929658934044
 31
0.0
  0
LINE
  5
7C5F
330
840C
100
AcDbEntity
  8
1
100
AcDbLine
 10
4883.039116178848
 20
3673.929658934044
 30
0.0
 11
4960.939116178846
 21
3673.929658934044
 31
0.0
  0
LINE
  5
7C60
330
840C
100
AcDbEntity
  8
1
100
AcDbLine
 10
4798.039116178847
 20
4307.929658934045
 30
0.0
 11
5043.039116178846
 21
4307.929658934045
 31
0.0
  0
LINE
  5
7C61
330
840C
100
AcDbEntity
  8
1
100
AcDbLine
 10
5043.039116178849
 20
3002.929658934045
 30
0.0
 11
5043.039116178849
 21
2982.929658934045
 31
0.0
  0
INSERT
  5
7C62
330
840C
100
AcDbEntity
  8
1
100
AcDbBlockReference
  2
YA_N
 10
4767.943419715615
 20
-1494.695868425496
 30
0.0
  0
LINE
  5
7C63
330
840C
100
AcDbEntity
  8
1
100
AcDbLine
 10
6996.039116178846
 20
2942.929658934044
 30
0.0
 11
6996.039116178846
 21
2817.929658934044
 31
0.0
  0
LINE
  5
7C64
330
840C
100
AcDbEntity
  8
1
100
AcDbLine
 10
4876.039116178844
 20
2712.929658934044
 30
0.0
 11
4876.039116178848
 21
2647.929658934044
 31
0.0
  0
LINE
  5
7C65
330
840C
100
AcDbEntity
  8
1
100
AcDbLine
 10
4876.039116178847
 20
2942.929658934044
 30
0.0
 11
4876.039116178847
 21
2817.929658934044
 31
0.0
  0
LINE
  5
7C69
330
840C
100
AcDbEntity
  8
1
100
AcDbLine
 10
4981.039116178846
 20
3965.429658934045
 30
0.0
 11
5228.039116178845
 21
3965.429658934045
 31
0.0
  0
LINE
  5
7C6A
330
840C
100
AcDbEntity
  8
1
100
AcDbLine
 10
4981.039116178846
 20
3890.429658934044
 30
0.0
 11
5228.039116178845
 21
3890.429658934044
 31
0.0
  0
LINE
  5
7C6B
330
840C
100
AcDbEntity
  8
1
100
AcDbLine
 10
5071.989116178848
 20
3002.929658934045
 30
0.0
 11
5071.989116178848
 21
3202.929658934045
 31
0.0
  0
LINE
  5
7C6C
330
840C
100
AcDbEntity
  8
1
100
AcDbLine
 10
5071.989116178849
 20
3002.929658934045
 30
0.0
 11
5721.489116178847
 21
3002.929658934048
 31
0.0
  0
LINE
  5
7C6D
330
840C
100
AcDbEntity
  8
1
100
AcDbLine
 10
5721.489116178847
 20
3412.929658934049
 30
0.0
 11
5071.989116178848
 21
3412.929658934045
 31
0.0
  0
LINE
  5
7C6E
330
840C
100
AcDbEntity
  8
1
100
AcDbLine
 10
5061.989116178847
 20
3172.929658934045
 30
0.0
 11
4976.039116178847
 21
3172.929658934044
 31
0.0
  0
LINE
  5
7C6F
330
840C
100
AcDbEntity
  8
1
100
AcDbLine
 10
5061.989116178847
 20
3232.929658934045
 30
0.0
 11
4976.039116178847
 21
3232.929658934045
 31
0.0
  0
LINE
  5
7C70
330
840C
100
AcDbEntity
  8
1
100
AcDbLine
 10
5071.989116178848
 20
3412.929658934045
 30
0.0
 11
5071.989116178848
 21
3202.929658934045
 31
0.0
  0
LINE
  5
7C71
330
840C
100
AcDbEntity
  8
1
100
AcDbLine
 10
5061.989116178847
 20
3170.429658934045
 30
0.0
 11
5061.989116178847
 21
3235.429658934044
 31
0.0
  0
LINE
  5
7C72
330
840C
100
AcDbEntity
  8
1
100
AcDbLine
 10
5061.989116178847
 20
3170.429658934045
 30
0.0
 11
5071.989116178848
 21
3170.429658934045
 31
0.0
  0
LINE
  5
7C73
330
840C
100
AcDbEntity
  8
1
100
AcDbLine
 10
5061.989116178847
 20
3235.429658934044
 30
0.0
 11
5071.989116178848
 21
3235.429658934044
 31
0.0
  0
LINE
  5
7C74
330
840C
100
AcDbEntity
  8
2
100
AcDbLine
 10
1474.342323903158
 20
7787.437268273027
 30
0.0
 11
3943.598483867205
 21
7787.437268273023
 31
0.0
  0
LINE
  5
7C75
330
840C
100
AcDbEntity
  8
1
100
AcDbLine
 10
2070.169444624878
 20
6507.437268273024
 30
0.0
 11
4090.169444624878
 21
6507.437268273024
 31
0.0
  0
LINE
  5
7C76
330
840C
100
AcDbEntity
  8
1
100
AcDbLine
 10
2196.169444624878
 20
6592.437268273027
 30
0.0
 11
2704.169444624878
 21
6592.437268273027
 31
0.0
  0
LINE
  5
7C77
330
840C
100
AcDbEntity
  8
1
100
AcDbLine
 10
2520.169444624878
 20
6670.337268273025
 30
0.0
 11
2704.169444624878
 21
6670.337268273025
 31
0.0
  0
LINE
  5
7C78
330
840C
100
AcDbEntity
  8
1
100
AcDbLine
 10
3900.169444624879
 20
6771.387268273024
 30
0.0
 11
3900.169444624879
 21
6685.437268273024
 31
0.0
  0
LINE
  5
7C79
330
840C
100
AcDbEntity
  8
1
100
AcDbLine
 10
3840.169444624878
 20
6771.387268273024
 30
0.0
 11
3840.169444624878
 21
6685.437268273024
 31
0.0
  0
LINE
  5
7C7A
330
840C
100
AcDbEntity
  8
1
100
AcDbLine
 10
4090.169444624878
 20
6507.437268273024
 30
0.0
 11
4090.169444624878
 21
6752.437268273023
 31
0.0
  0
LINE
  5
7C7B
330
840C
100
AcDbEntity
  8
1
100
AcDbLine
 10
3250.169444624878
 20
6585.437268273024
 30
0.0
 11
3375.169444624878
 21
6585.437268273024
 31
0.0
  0
LINE
  5
7C7C
330
840C
100
AcDbEntity
  8
1
100
AcDbLine
 10
3394.169444624878
 20
6585.437268273023
 30
0.0
 11
3459.169444624878
 21
6585.437268273024
 31
0.0
  0
LINE
  5
7C7D
330
840C
100
AcDbEntity
  8
1
100
AcDbLine
 10
3810.169444624878
 20
6685.437268273024
 30
0.0
 11
3930.169444624878
 21
6685.437268273024
 31
0.0
  0
LINE
  5
7C7E
330
840C
100
AcDbEntity
  8
1
100
AcDbLine
 10
3930.169444624878
 20
6670.337268273025
 30
0.0
 11
3976.169444624878
 21
6670.337268273025
 31
0.0
  0
LINE
  5
7C7F
330
840C
100
AcDbEntity
  8
1
100
AcDbLine
 10
3976.169444624878
 20
6592.437268273027
 30
0.0
 11
3976.169444624878
 21
6670.337268273025
 31
0.0
  0
LINE
  5
7C80
330
840C
100
AcDbEntity
  8
1
100
AcDbLine
 10
3930.169444624878
 20
6670.337268273025
 30
0.0
 11
3930.169444624878
 21
6685.437268273024
 31
0.0
  0
LINE
  5
7C81
330
840C
100
AcDbEntity
  8
1
100
AcDbLine
 10
3764.169444624878
 20
6592.437268273027
 30
0.0
 11
3764.169444624878
 21
6670.337268273022
 31
0.0
  0
LINE
  5
7C82
330
840C
100
AcDbEntity
  8
1
100
AcDbLine
 10
3810.169444624878
 20
6670.337268273025
 30
0.0
 11
3810.169444624878
 21
6685.437268273024
 31
0.0
  0
LINE
  5
7C83
330
840C
100
AcDbEntity
  8
1
100
AcDbLine
 10
2704.169444624878
 20
6592.437268273027
 30
0.0
 11
2704.169444624878
 21
6670.337268273022
 31
0.0
  0
LINE
  5
7C84
330
840C
100
AcDbEntity
  8
1
100
AcDbLine
 10
3660.169444624878
 20
6781.387268273025
 30
0.0
 11
3870.169444624878
 21
6781.387268273025
 31
0.0
  0
LINE
  5
7C85
330
840C
100
AcDbEntity
  8
1
100
AcDbLine
 10
3902.669444624878
 20
6771.387268273024
 30
0.0
 11
3837.669444624879
 21
6771.387268273024
 31
0.0
  0
LINE
  5
7C86
330
840C
100
AcDbEntity
  8
1
100
AcDbLine
 10
4070.169444624879
 20
6781.387268273026
 30
0.0
 11
4070.169444624871
 21
7430.887268273027
 31
0.0
  0
LINE
  5
7C87
330
840C
100
AcDbEntity
  8
1
100
AcDbLine
 10
4070.169444624879
 20
6781.387268273025
 30
0.0
 11
3870.169444624878
 21
6781.387268273025
 31
0.0
  0
LINE
  5
7C88
330
840C
100
AcDbEntity
  8
1
100
AcDbLine
 10
3902.669444624878
 20
6771.387268273024
 30
0.0
 11
3902.669444624878
 21
6781.387268273025
 31
0.0
  0
LINE
  5
7C89
330
840C
100
AcDbEntity
  8
1
100
AcDbLine
 10
4070.169444624876
 20
6956.887268273026
 30
0.0
 11
4069.169444624876
 21
6956.887268273026
 31
0.0
  0
LINE
  5
7C8A
330
840C
100
AcDbEntity
  8
1
100
AcDbLine
 10
3660.169444624877
 20
6937.437268273022
 30
0.0
 11
3660.169444624878
 21
6781.387268273023
 31
0.0
  0
LINE
  5
7C8B
330
840C
100
AcDbEntity
  8
1
100
AcDbLine
 10
3837.669444624879
 20
6771.387268273024
 30
0.0
 11
3837.669444624879
 21
6781.387268273025
 31
0.0
  0
LINE
  5
7C8C
330
840C
100
AcDbEntity
  8
1
100
AcDbLine
 10
2487.669444624878
 20
6690.437268273024
 30
0.0
 11
2487.669444624878
 21
6937.437268273022
 31
0.0
  0
LINE
  5
7C8D
330
840C
100
AcDbEntity
  8
1
100
AcDbLine
 10
2412.669444624878
 20
6690.437268273024
 30
0.0
 11
2412.669444624878
 21
6937.437268273024
 31
0.0
  0
LINE
  5
7C8E
330
840C
100
AcDbEntity
  8
1
100
AcDbLine
 10
2070.169444624878
 20
6507.437268273022
 30
0.0
 11
2070.169444624878
 21
6752.437268273023
 31
0.0
  0
LINE
  5
7C8F
330
840C
100
AcDbEntity
  8
1
100
AcDbLine
 10
2380.169444624878
 20
6690.437268273024
 30
0.0
 11
2520.169444624878
 21
6690.437268273024
 31
0.0
  0
LINE
  5
7C90
330
840C
100
AcDbEntity
  8
1
100
AcDbLine
 10
2520.169444624878
 20
6670.337268273022
 30
0.0
 11
2520.169444624878
 21
6690.437268273024
 31
0.0
  0
LINE
  5
7C91
330
840C
100
AcDbEntity
  8
1
100
AcDbLine
 10
2196.169444624878
 20
6670.337268273025
 30
0.0
 11
2380.169444624878
 21
6670.337268273025
 31
0.0
  0
LINE
  5
7C92
330
840C
100
AcDbEntity
  8
1
100
AcDbLine
 10
2380.169444624878
 20
6670.337268273025
 30
0.0
 11
2380.169444624878
 21
6690.437268273024
 31
0.0
  0
LINE
  5
7C93
330
840C
100
AcDbEntity
  8
1
100
AcDbLine
 10
2196.169444624878
 20
6592.437268273027
 30
0.0
 11
2196.169444624878
 21
6670.337268273022
 31
0.0
  0
LINE
  5
7C94
330
840C
100
AcDbEntity
  8
1
100
AcDbLine
 10
2070.169444624878
 20
6752.437268273023
 30
0.0
 11
4090.169444624878
 21
6752.437268273117
 31
0.0
  0
LINE
  5
7C95
330
840C
100
AcDbEntity
  8
1
100
AcDbLine
 10
4070.169444624876
 20
7430.887268273027
 30
0.0
 11
3784.169444624879
 21
7430.887268273024
 31
0.0
  0
LINE
  5
7C96
330
840C
100
AcDbEntity
  8
1
100
AcDbLine
 10
1553.169444624878
 20
8637.437268273025
 30
0.0
 11
3784.169444624879
 21
8637.437268273025
 31
0.0
  0
LINE
  5
7C97
330
840C
100
AcDbEntity
  8
1
100
AcDbLine
 10
1553.169444624878
 20
6937.437268273022
 30
0.0
 11
3784.169444624879
 21
6937.437268273024
 31
0.0
  0
LINE
  5
7C98
330
840C
100
AcDbEntity
  8
1
100
AcDbLine
 10
1700.169444624878
 20
6937.437268273022
 30
0.0
 11
1700.169444624878
 21
6585.437268273023
 31
0.0
  0
LINE
  5
7C99
330
840C
100
AcDbEntity
  8
1
100
AcDbLine
 10
3764.169444624878
 20
6670.337268273025
 30
0.0
 11
3810.169444624878
 21
6670.337268273025
 31
0.0
  0
LINE
  5
7C9A
330
840C
100
AcDbEntity
  8
1
100
AcDbLine
 10
3764.169444624878
 20
6592.437268273027
 30
0.0
 11
3976.169444624878
 21
6592.437268273027
 31
0.0
  0
INSERT
  5
7CA0
330
840C
100
AcDbEntity
  8
1
100
AcDbBlockReference
  2
YA_N
 10
10738.86349375248
 20
1135.274830878665
 30
0.0
  0
ARC
  5
7CA2
330
840C
100
AcDbEntity
  8
1
100
AcDbCircle
 10
2541.169444624878
 20
4018.929658934045
 30
0.0
 40
1170.0
100
AcDbArc
 50
293.1238475675229
 51
355.539156302126
  0
ARC
  5
7CA3
330
840C
100
AcDbEntity
  8
1
100
AcDbCircle
 10
2541.169444624878
 20
3836.929658934045
 30
0.0
 40
988.0
100
AcDbArc
 50
174.7152670454654
 51
244.8042051557864
  0
ARC
  5
7CA4
330
840C
100
AcDbEntity
  8
1
100
AcDbCircle
 10
2373.169444624878
 20
3850.929658934045
 30
0.0
 40
820.0
100
AcDbArc
 50
87.24248524420788
 51
174.6118481956725
  0
LINE
  5
7CA5
330
840C
100
AcDbEntity
  8
1
100
AcDbLine
 10
3707.625187462986
 20
3927.929658934044
 30
0.0
 11
3784.169444624879
 21
4752.929658934045
 31
0.0
  0
LINE
  5
7CA6
330
840C
100
AcDbEntity
  8
1
100
AcDbLine
 10
1700.169444624878
 20
2817.929658934044
 30
0.0
 11
4150.169444624879
 21
2817.929658934044
 31
0.0
1001
ACAD
1000
ASC_BOUNDS
1002
{
1070
    19
1002
}
  0
LINE
  5
7CA7
330
840C
100
AcDbEntity
  8
1
100
AcDbLine
 10
1700.169444624878
 20
2942.929658934044
 30
0.0
 11
4150.169444624879
 21
2942.929658934044
 31
0.0
  0
LINE
  5
7CA8
330
840C
100
AcDbEntity
  8
1
100
AcDbLine
 10
1700.169444624878
 20
2942.929658934044
 30
0.0
 11
1700.169444624878
 21
2817.929658934044
 31
0.0
  0
LINE
  5
7CA9
330
840C
100
AcDbEntity
  8
1
100
AcDbLine
 10
4150.169444624879
 20
2942.929658934044
 30
0.0
 11
4150.169444624879
 21
2817.929658934044
 31
0.0
  0
LINE
  5
7CAA
330
840C
100
AcDbEntity
  8
2
100
AcDbLine
 10
3870.169444624878
 20
3493.784175539754
 30
0.0
 11
3870.169444624878
 21
2647.929658934045
 31
0.0
  0
LINE
  5
7CAB
330
840C
100
AcDbEntity
  8
2
100
AcDbLine
 10
3589.855227866727
 20
3202.929658934044
 30
0.0
 11
4277.333922919592
 21
3202.929658934044
 31
0.0
  0
LINE
  5
7CAC
330
840C
100
AcDbEntity
  8
1
100
AcDbLine
 10
2504.169444624878
 20
4752.929658934045
 30
0.0
 11
2504.169444624877
 21
4668.964745822647
 31
0.0
  0
LINE
  5
7CAD
330
840C
100
AcDbEntity
  8
1
100
AcDbLine
 10
3779.530398736279
 20
4702.929658934045
 30
0.0
 11
2504.169444624878
 21
4702.929658934045
 31
0.0
  0
LINE
  5
7CAE
330
840C
100
AcDbEntity
  8
1
100
AcDbLine
 10
3837.169444624878
 20
4752.929658934045
 30
0.0
 11
2451.169444624878
 21
4752.929658934045
 31
0.0
  0
POINT
  5
7CAF
330
840C
100
AcDbEntity
  8
1
100
AcDbPoint
 10
3524.969729235531
 20
3927.929658934044
 30
0.0
  0
INSERT
  5
7CB0
330
840C
100
AcDbEntity
  8
1
100
AcDbBlockReference
  2
YA_N
 10
8975.636086442174
 20
-88.51158657911581
 30
0.0
 41
30.0
 42
30.0
 43
30.0
  0
LINE
  5
7CB2
330
840C
100
AcDbEntity
  8
1
100
AcDbLine
 10
1700.169444624878
 20
2712.929658934044
 30
0.0
 11
4150.169444624879
 21
2712.929658934044
 31
0.0
1001
ACAD
1000
ASC_BOUNDS
1002
{
1070
    19
1002
}
  0
LINE
  5
7CB3
330
840C
100
AcDbEntity
  8
1
100
AcDbLine
 10
1700.169444624878
 20
2647.929658934044
 30
0.0
 11
4150.169444624879
 21
2647.929658934044
 31
0.0
  0
LINE
  5
7CB4
330
840C
100
AcDbEntity
  8
1
100
AcDbLine
 10
1700.169444624878
 20
2712.929658934044
 30
0.0
 11
1700.169444624878
 21
2647.929658934044
 31
0.0
  0
LINE
  5
7CB5
330
840C
100
AcDbEntity
  8
1
100
AcDbLine
 10
4150.169444624879
 20
2712.929658934044
 30
0.0
 11
4150.169444624879
 21
2647.929658934044
 31
0.0
  0
ARC
  5
7CB6
330
840C
100
AcDbEntity
  8
1
100
AcDbCircle
 10
3870.169444624878
 20
3202.929658934044
 30
0.0
 40
203.5
100
AcDbArc
 50
285.60376
 51
254.396301
  0
LINE
  5
7CB7
330
840C
100
AcDbEntity
  8
1
100
AcDbLine
 10
3924.90748162488
 20
3006.929658934045
 30
0.0
 11
3815.431407624877
 21
3006.929658934045
 31
0.0
  0
ARC
  5
7CB8
330
840C
100
AcDbEntity
  8
1
100
AcDbCircle
 10
3684.169444624878
 20
3019.929658934044
 30
0.0
 40
3.0
100
AcDbArc
 50
90.0
 51
180.0
  0
ARC
  5
7CB9
330
840C
100
AcDbEntity
  8
1
100
AcDbCircle
 10
3686.169444624879
 20
3077.256319934045
 30
0.0
 40
5.000066999999999
100
AcDbArc
 50
124.943665
 51
180.0
  0
LINE
  5
7CBA
330
840C
100
AcDbEntity
  8
1
100
AcDbLine
 10
3681.169444624878
 20
3077.256319934045
 30
0.0
 11
3681.169444624878
 21
3002.929658934045
 31
0.0
  0
LINE
  5
7CBE
330
840C
100
AcDbEntity
  8
1
100
AcDbLine
 10
3766.066874624877
 20
3028.072847934045
 30
0.0
 11
3760.66944462488
 21
3007.929658934044
 31
0.0
  0
LINE
  5
7CBF
330
840C
100
AcDbEntity
  8
1
100
AcDbLine
 10
3760.66944462488
 20
3019.929658934044
 30
0.0
 11
3760.66944462488
 21
3002.929658934045
 31
0.0
  0
LINE
  5
7CC0
330
840C
100
AcDbEntity
  8
1
100
AcDbLine
 10
3757.669444624879
 20
3022.929658934045
 30
0.0
 11
3684.169444624878
 21
3022.929658934045
 31
0.0
  0
ARC
  5
7CC1
330
840C
100
AcDbEntity
  8
1
100
AcDbCircle
 10
3757.669444624879
 20
3019.929658934044
 30
0.0
 40
3.0
100
AcDbArc
 50
0.0
 51
90.0
  0
LINE
  5
7CC2
330
840C
100
AcDbEntity
  8
1
100
AcDbLine
 10
3683.305674624879
 20
3081.354951934045
 30
0.0
 11
3699.24354062488
 21
3092.491426934044
 31
0.0
  0
LINE
  5
7CC3
330
840C
100
AcDbEntity
  8
1
100
AcDbLine
 10
4059.169444624878
 20
3077.256319934045
 30
0.0
 11
4059.169444624878
 21
3002.929658934045
 31
0.0
  0
LINE
  5
7CC7
330
840C
100
AcDbEntity
  8
1
100
AcDbLine
 10
3974.272227624879
 20
3028.072969934044
 30
0.0
 11
3979.669444624878
 21
3007.929658934044
 31
0.0
  0
LINE
  5
7CC8
330
840C
100
AcDbEntity
  8
1
100
AcDbLine
 10
3979.669444624878
 20
3019.929658934044
 30
0.0
 11
3979.669444624878
 21
3002.929658934045
 31
0.0
  0
LINE
  5
7CC9
330
840C
100
AcDbEntity
  8
1
100
AcDbLine
 10
3982.669444624878
 20
3022.929658934045
 30
0.0
 11
4056.169444624877
 21
3022.929658934045
 31
0.0
  0
ARC
  5
7CCA
330
840C
100
AcDbEntity
  8
1
100
AcDbCircle
 10
3982.669444624878
 20
3019.929658934044
 30
0.0
 40
3.0
100
AcDbArc
 50
90.0
 51
180.0
  0
ARC
  5
7CCB
330
840C
100
AcDbEntity
  8
1
100
AcDbCircle
 10
4056.169444624877
 20
3019.929658934044
 30
0.0
 40
3.0
100
AcDbArc
 50
0.0
 51
90.0
  0
LINE
  5
7CCC
330
840C
100
AcDbEntity
  8
1
100
AcDbLine
 10
4057.033335624876
 20
3081.354951934045
 30
0.0
 11
4041.095469624877
 21
3092.491426934044
 31
0.0
  0
ARC
  5
7CCD
330
840C
100
AcDbEntity
  8
1
100
AcDbCircle
 10
4054.169444624878
 20
3077.256319934045
 30
0.0
 40
5.0
100
AcDbArc
 50
0.0
 51
55.05633899999998
  0
LINE
  5
7CCE
330
840C
100
AcDbEntity
  8
1
100
AcDbLine
 10
3626.74641958227
 20
3002.929658934045
 30
0.0
 11
3800.169444624879
 21
3002.929658934045
 31
0.0
  0
LINE
  5
7CCF
330
840C
100
AcDbEntity
  8
1
100
AcDbLine
 10
3610.169444624878
 20
2942.929658934044
 30
0.0
 11
3626.74641958227
 21
3002.929658934045
 31
0.0
  0
LINE
  5
7CD0
330
840C
100
AcDbEntity
  8
1
100
AcDbLine
 10
4130.169444624879
 20
2942.929658934044
 30
0.0
 11
4113.98848807976
 21
3002.929658934045
 31
0.0
  0
LINE
  5
7CD1
330
840C
100
AcDbEntity
  8
1
100
AcDbLine
 10
3800.169444624879
 20
2992.929658934045
 30
0.0
 11
3940.169444624878
 21
2992.929658934045
 31
0.0
  0
LINE
  5
7CD3
330
840C
100
AcDbEntity
  8
1
100
AcDbLine
 10
3940.169444624878
 20
3002.929658934045
 30
0.0
 11
3940.169444624878
 21
2992.929658934045
 31
0.0
  0
LINE
  5
7CD4
330
840C
100
AcDbEntity
  8
1
100
AcDbLine
 10
3800.169444624879
 20
3002.929658934045
 30
0.0
 11
3800.169444624879
 21
2992.929658934045
 31
0.0
  0
LINE
  5
7CD7
330
840C
100
AcDbEntity
  8
1
100
AcDbLine
 10
3940.169444624878
 20
3002.929658934045
 30
0.0
 11
4113.98848807976
 21
3002.929658934045
 31
0.0
  0
INSERT
  5
7CDA
330
840C
100
AcDbEntity
  8
1
100
AcDbBlockReference
  2
YA_N
 10
9977.619817870641
 20
591.719846044809
 30
0.0
 41
30.0
 42
30.0
 43
30.0
  0
CIRCLE
  5
7CE0
330
840C
100
AcDbEntity
  8
1
100
AcDbCircle
 10
3870.169444624878
 20
3202.929658934044
 30
0.0
 40
107.0
  0
POINT
  5
7CE1
330
840C
100
AcDbEntity
  8
1
100
AcDbPoint
 10
1700.169444624878
 20
2712.929658934044
 30
0.0
  0
POINT
  5
7CE2
330
840C
100
AcDbEntity
  8
1
100
AcDbPoint
 10
1700.169444624878
 20
2817.929658934044
 30
0.0
  0
POINT
  5
7CE3
330
840C
100
AcDbEntity
  8
1
100
AcDbPoint
 10
1700.169444624878
 20
2712.929658934044
 30
0.0
  0
ARC
  5
7CE5
330
840C
100
AcDbEntity
  8
1
100
AcDbCircle
 10
2450.169444624878
 20
3927.929658934044
 30
0.0
 40
625.0
100
AcDbArc
 50
0.0
 51
180.0
  0
ARC
  5
7CE6
330
840C
100
AcDbEntity
  8
1
100
AcDbCircle
 10
2450.169444624878
 20
3927.929658934044
 30
0.0
 40
675.0
100
AcDbArc
 50
0.0
 51
180.0
  0
ARC
  5
7CE7
330
840C
100
AcDbEntity
  8
1
100
AcDbCircle
 10
2450.169444624878
 20
3927.929658934044
 30
0.0
 40
625.0
100
AcDbArc
 50
180.0
 51
0.0
  0
ARC
  5
7CE8
330
840C
100
AcDbEntity
  8
1
100
AcDbCircle
 10
2450.169444624878
 20
3927.929658934044
 30
0.0
 40
675.0
100
AcDbArc
 50
180.0
 51
0.0
  0
CIRCLE
  5
7CEB
330
840C
100
AcDbEntity
  8
1
100
AcDbCircle
 10
2450.169444624878
 20
3927.929658934044
 30
0.0
 40
254.0
  0
POINT
  5
7CEC
330
840C
100
AcDbEntity
  8
1
100
AcDbPoint
 10
1700.169444624878
 20
2712.929658934044
 30
0.0
  0
POINT
  5
7CEE
330
840C
100
AcDbEntity
  8
1
100
AcDbPoint
 10
1700.169444624878
 20
2712.929658934044
 30
0.0
  0
POINT
  5
7CEF
330
840C
100
AcDbEntity
  8
1
100
AcDbPoint
 10
1700.169444624878
 20
2817.929658934044
 30
0.0
  0
ARC
  5
7CF0
330
840C
100
AcDbEntity
  8
1
100
AcDbCircle
 10
2450.169444624878
 20
3927.929658934044
 30
0.0
 40
743.0
100
AcDbArc
 50
85.83216367783837
 51
92.89690804102592
  0
INSERT
  5
7CF1
330
840C
100
AcDbEntity
  8
1
100
AcDbBlockReference
  2
YA_N
 10
15500.8069134681
 20
-364.421037546832
 30
0.0
  0
ARC
  5
7CF3
330
840C
100
AcDbEntity
  8
1
100
AcDbCircle
 10
2450.169444624878
 20
3927.929658934044
 30
0.0
 40
380.0
100
AcDbArc
 50
57.19331344564078
 51
248.7123021170166
  0
ARC
  5
7CF4
330
840C
100
AcDbEntity
  8
1
100
AcDbCircle
 10
3870.169444624878
 20
3202.929658934044
 30
0.0
 40
220.0
100
AcDbArc
 50
248.7123021170166
 51
57.19331344564078
  0
LINE
  5
7CF5
330
840C
100
AcDbEntity
  8
1
100
AcDbLine
 10
2656.055839660199
 20
4247.320943003225
 30
0.0
 11
3989.366831224275
 21
3387.840402342517
 31
0.0
  0
LINE
  5
7CF6
330
840C
100
AcDbEntity
  8
1
100
AcDbLine
 10
2586.034807912739
 20
4142.53768082199
 30
0.0
 11
3927.404066167403
 21
3293.335400438023
 31
0.0
  0
LINE
  5
7CF7
330
840C
100
AcDbEntity
  8
1
100
AcDbLine
 10
2356.018824504375
 20
3692.023616766989
 30
0.0
 11
3830.507569219784
 21
3103.551916761309
 31
0.0
  0
LINE
  5
7CF8
330
840C
100
AcDbEntity
  8
1
100
AcDbLine
 10
2312.209997593609
 20
3573.857362679698
 30
0.0
 11
3790.298185817301
 21
2997.940434786791
 31
0.0
  0
POINT
  5
7CFB
330
840C
100
AcDbEntity
  8
1
100
AcDbPoint
 10
1700.169444624878
 20
2712.929658934044
 30
0.0
  0
POINT
  5
7CFD
330
840C
100
AcDbEntity
  8
1
100
AcDbPoint
 10
1700.169444624878
 20
2712.929658934044
 30
0.0
  0
POINT
  5
7CFE
330
840C
100
AcDbEntity
  8
1
100
AcDbPoint
 10
1700.169444624878
 20
2817.929658934044
 30
0.0
  0
LINE
  5
7D01
330
840C
100
AcDbEntity
  8
1
100
AcDbLine
 10
5175.039116178846
 20
4752.929658934045
 30
0.0
 11
6981.039116178847
 21
4752.929658934045
 31
0.0
  0
LINE
  5
7D02
330
840C
100
AcDbEntity
  8
1
100
AcDbLine
 10
5228.039116178845
 20
4702.929658934045
 30
0.0
 11
6928.039116178847
 21
4702.929658934045
 31
0.0
  0
LINE
  5
7D03
330
840C
100
AcDbEntity
  8
1
100
AcDbLine
 10
1553.169444624878
 20
8637.437268273025
 30
0.0
 11
1553.169444624878
 21
6937.437268273021
 31
0.0
  0
LINE
  5
7D04
330
840C
100
AcDbEntity
  8
1
100
AcDbLine
 10
3784.169444624879
 20
8637.437268273025
 30
0.0
 11
3784.169444624879
 21
6937.437268273022
 31
0.0
  0
LINE
  5
7D05
330
840C
100
AcDbEntity
  8
1
100
AcDbLine
 10
2504.169444624878
 20
8637.437268273025
 30
0.0
 11
2504.169444624878
 21
6937.437268273022
 31
0.0
  0
LINE
  5
7D06
330
840C
100
AcDbEntity
  8
1
100
AcDbLine
 10
2504.169444624878
 20
8637.437268273025
 30
0.0
 11
3784.169444624879
 21
6937.437268273024
 31
0.0
  0
LINE
  5
7D07
330
840C
100
AcDbEntity
  8
1
100
AcDbLine
 10
3784.169444624878
 20
8637.437268273025
 30
0.0
 11
2504.169444624878
 21
6937.437268273022
 31
0.0
  0
LINE
  5
7D0A
330
840C
100
AcDbEntity
  8
1
100
AcDbLine
 10
5721.489116178847
 20
3002.929658934048
 30
0.0
 11
5721.489116178847
 21
3412.929658934049
 31
0.0
  0
LINE
  5
7D0B
330
840C
100
AcDbEntity
  8
1
100
AcDbLine
 10
5228.039116178845
 20
3002.929658934046
 30
0.0
 11
5228.039116178845
 21
2942.929658934044
 31
0.0
  0
LINE
  5
7D0C
330
840C
100
AcDbEntity
  8
1
100
AcDbLine
 10
5636.18896220007
 20
3002.929658934048
 30
0.0
 11
5636.18896220007
 21
2942.929658934044
 31
0.0
  0
LINE
  5
80A3
330
840C
100
AcDbEntity
  8
4
100
AcDbLine
 10
7400.0
 20
2000.0
 30
0.0
 11
7400.0
 21
1200.0
 31
0.0
  0
LINE
  5
80A4
330
840C
100
AcDbEntity
  8
4
100
AcDbLine
 10
4600.0
 20
2000.0
 30
0.0
 11
4600.0
 21
1200.0
 31
0.0
  0
LINE
  5
80A5
330
840C
100
AcDbEntity
  8
4
100
AcDbLine
 10
2600.0
 20
2000.0
 30
0.0
 11
2600.0
 21
1200.0
 31
0.0
  0
LINE
  5
80A8
330
840C
100
AcDbEntity
  8
4
100
AcDbLine
 10
2600.0
 20
1200.0
 30
0.0
 11
7400.0
 21
1200.0
 31
0.0
  0
LINE
  5
80A9
330
840C
100
AcDbEntity
  8
4
100
AcDbLine
 10
2600.0
 20
1600.0
 30
0.0
 11
7400.0
 21
1600.0
 31
0.0
  0
TEXT
  5
80AA
330
840C
100
AcDbEntity
  8
4
100
AcDbText
 10
2754.008323387607
 20
1726.172103466451
 30
0.0
 40
200.0
  1
機器名称
100
AcDbText
  0
TEXT
  5
80AB
330
840C
100
AcDbEntity
  8
4
100
AcDbText
 10
2745.03242409919
 20
1286.580626928043
 30
0.0
 40
200.0
  1
機器型番
100
AcDbText
  0
TEXT
  5
80AC
330
840C
100
AcDbEntity
  8
4
100
AcDbText
 10
4710.714981950659
 20
1690.287075830274
 30
0.0
 40
200.0
  1
ミツヤ多翼送風機
100
AcDbText
  0
TEXT
  5
80AD
330
840C
100
AcDbEntity
  8
4
100
AcDbText
 10
4746.617982341923
 20
1268.638337119773
 30
0.0
 40
200.0
  1
MF#8-5
100
AcDbText
  0
TEXT
  5
80AF
330
840C
100
AcDbEntity
  8
4
100
AcDbText
 10
3284.299786541094
 20
9533.715365330063
 30
0.0
 40
215.9999999999999
  1
床置防振ベット
100
AcDbText
  0
TEXT
  5
80B0
330
840C
100
AcDbEntity
  8
4
100
AcDbText
 10
1264.670373317785
 20
10135.52390479719
 30
0.0
 40
288.0
  1
遠心式両吸込両持多翼ファン
100
AcDbText
  0
LINE
  5
80B1
330
840C
100
AcDbEntity
  8
4
100
AcDbLine
 10
1000.0
 20
9877.635017059219
 30
0.0
 11
7400.0
 21
9877.635017059219
 31
0.0
  0
LINE
  5
80B2
330
840C
100
AcDbEntity
  8
4
100
AcDbLine
 10
1000.0
 20
10677.63501705921
 30
0.0
 11
7400.0
 21
10677.63501705921
 31
0.0
  0
LINE
  5
80B3
330
840C
100
AcDbEntity
  8
4
100
AcDbLine
 10
2600.0
 20
2000.0
 30
0.0
 11
7400.0
 21
2000.0
 31
0.0
  0
LINE
  5
80B4
330
840C
100
AcDbEntity
  8
4
100
AcDbLine
 10
1000.0
 20
10677.63501705921
 30
0.0
 11
1000.0
 21
9877.635017059219
 31
0.0
  0
TEXT
  5
80B5
330
840C
100
AcDbEntity
  8
4
100
AcDbText
 10
1540.864457570284
 20
9529.277910185374
 30
0.0
 40
215.9999999999999
  1
左回転上向
100
AcDbText
  0
TEXT
  5
80B6
330
840C
100
AcDbEntity
  8
4
100
AcDbText
 10
5875.878236997159
 20
10824.24432598123
 30
0.0
 40
224.0
  1
No.
100
AcDbText
  0
TEXT
  5
80B7
330
840C
100
AcDbEntity
  8
4
100
AcDbText
 10
5245.184250400053
 20
9533.715365330063
 30
0.0
 40
215.9999999999999
  1
縮尺：1/40
100
AcDbText
  0
LINE
  5
80B8
330
840C
100
AcDbEntity
  8
4
100
AcDbLine
 10
7400.0
 20
10677.63501705921
 30
0.0
 11
7400.0
 21
9877.635017059219
 31
0.0
  0
LINE
  5
80B9
330
840C
100
AcDbEntity
  8
4
100
AcDbLine
 10
8400.0
 20
11800.0
 30
0.0
 11
8400.0
 21
11800.0
 31
0.0
  0
LINE
  5
80BA
330
840C
100
AcDbEntity
  8
4
100
AcDbLine
 10
5762.469689439458
 20
10725.0543325016
 30
0.0
 11
5762.469689439458
 21
11146.609046199
 31
0.0
  0
LINE
  5
80BB
330
840C
100
AcDbEntity
  8
4
100
AcDbLine
 10
5762.469689439458
 20
11146.609046199
 30
0.0
 11
7400.0
 21
11146.609046199
 31
0.0
  0
LINE
  5
80BC
330
840C
100
AcDbEntity
  8
4
100
AcDbLine
 10
7400.0
 20
11146.609046199
 30
0.0
 11
7400.0
 21
10725.0543325016
 31
0.0
  0
LINE
  5
80BD
330
840C
100
AcDbEntity
  8
4
100
AcDbLine
 10
7400.0
 20
10725.0543325016
 30
0.0
 11
5762.469689439458
 21
10725.0543325016
 31
0.0
  0
LINE
  5
80BE
330
840C
100
AcDbEntity
  8
4
100
AcDbLine
 10
0.0
 20
0.0
 30
0.0
 11
0.0
 21
11800.0
 31
0.0
  0
LINE
  5
80BF
330
840C
100
AcDbEntity
  8
4
100
AcDbLine
 10
0.0
 20
11800.0
 30
0.0
 11
8400.0
 21
11800.0
 31
0.0
  0
LINE
  5
80C0
330
840C
100
AcDbEntity
  8
4
100
AcDbLine
 10
8400.0
 20
11800.0
 30
0.0
 11
8400.0
 21
0.0
 31
0.0
  0
LINE
  5
80C1
330
840C
100
AcDbEntity
  8
4
100
AcDbLine
 10
8400.0
 20
0.0
 30
0.0
 11
0.0
 21
0.0
 31
0.0
  0
DIMENSION
  5
850A
330
840C
100
AcDbEntity
  8
3
100
AcDbDimension
  2
*D35
 10
7339.30874109135
 20
3302.929658934044
 30
0.0
 11
7239.308741091349
 21
3927.929658934046
 31
0.0
 70
    32
  1
\U+03C6<>
 71
     5
 42
1250.000000000001
  3
IGA
100
AcDbAlignedDimension
 13
6928.039116178847
 23
4552.929658934044
 33
0.0
 14
6928.039116178847
 24
3302.929658934044
 34
0.0
 50
90.0
100
AcDbRotatedDimension
1001
ACAD
1000
DSTYLE
1002
{
1070
    40
1040
40.0
1070
   143
1040
0.039
1070
   172
1070
     1
1070
   271
1070
     4
1070
   272
1070
     4
1070
   279
1070
     0
1070
   284
1070
     0
1070
   285
1070
     0
1070
   286
1070
     0
1070
   341
1005
8423
1070
   343
1005
8423
1070
   344
1005
8423
1002
}
  0
DIMENSION
  5
852C
330
840C
100
AcDbEntity
  8
3
100
AcDbDimension
  2
*D36
 10
6928.039116178847
 20
5000.007557733631
 30
0.0
 11
6078.039116178846
 21
5100.007557733631
 31
0.0
 70
    32
 71
     5
 42
1700.000000000001
  3
IGA
100
AcDbAlignedDimension
 13
5228.039116178845
 23
4752.929658934045
 33
0.0
 14
6928.039116178847
 24
4752.929658934045
 34
0.0
100
AcDbRotatedDimension
1001
ACAD
1000
DSTYLE
1002
{
1070
    40
1040
40.0
1070
   143
1040
0.039
1070
   172
1070
     1
1070
   271
1070
     4
1070
   272
1070
     4
1070
   279
1070
     0
1070
   284
1070
     0
1070
   285
1070
     0
1070
   286
1070
     0
1070
   341
1005
8423
1070
   343
1005
8423
1070
   344
1005
8423
1002
}
  0
DIMENSION
  5
8539
330
840C
100
AcDbEntity
  8
3
100
AcDbDimension
  2
*D37
 10
6078.039116178846
 20
5288.10922238426
 30
0.0
 11
5438.039116178846
 21
5419.537793812832
 31
0.0
 70
    32
  1
(<>)
 71
     5
 42
1280.0
  3
IGA
100
AcDbAlignedDimension
 13
4798.039116178847
 23
4307.929658934045
 33
0.0
 14
6078.039116178846
 24
5160.007557733631
 34
0.0
100
AcDbRotatedDimension
1001
ACAD
1000
DSTYLE
1002
{
1070
    40
1040
40.0
1070
   143
1040
0.039
1070
   172
1070
     1
1070
   271
1070
     4
1070
   272
1070
     4
1070
   279
1070
     0
1070
   284
1070
     0
1070
   285
1070
     0
1070
   286
1070
     0
1070
   341
1005
8423
1070
   343
1005
8423
1070
   344
1005
8423
1002
}
  0
DIMENSION
  5
8546
330
840C
100
AcDbEntity
  8
3
100
AcDbDimension
  2
*D38
 10
7098.039116178846
 20
5288.10922238426
 30
0.0
 11
6588.039116178847
 21
5419.537793812832
 31
0.0
 70
    32
  1
(<>)
 71
     5
 42
1020.0
  3
IGA
100
AcDbAlignedDimension
 13
6078.039116178846
 23
5160.007557733631
 33
0.0
 14
7098.039116178846
 24
3851.929658934045
 34
0.0
100
AcDbRotatedDimension
1001
ACAD
1000
DSTYLE
1002
{
1070
    40
1040
40.0
1070
   143
1040
0.039
1070
   172
1070
     1
1070
   271
1070
     4
1070
   272
1070
     4
1070
   279
1070
     1
1070
   284
1070
     0
1070
   285
1070
     0
1070
   286
1070
     0
1070
   341
1005
8423
1070
   343
1005
8423
1070
   344
1005
8423
1002
}
  0
DIMENSION
  5
859B
330
840C
100
AcDbEntity
  8
3
100
AcDbDimension
  2
*D39
 10
6078.039116178845
 20
2404.66995559412
 30
0.0
 11
5477.039116178847
 21
2504.66995559412
 31
0.0
 70
    32
 71
     5
 42
1201.999999999996
  3
IGA
100
AcDbAlignedDimension
 13
4876.039116178848
 23
2647.929658934044
 33
0.0
 14
6078.039116178845
 24
2647.929658934044
 34
0.0
100
AcDbRotatedDimension
1001
ACAD
1000
DSTYLE
1002
{
1070
    40
1040
40.0
1070
   143
1040
0.039
1070
   172
1070
     1
1070
   271
1070
     4
1070
   272
1070
     4
1070
   279
1070
     0
1070
   284
1070
     0
1070
   285
1070
     0
1070
   286
1070
     0
1070
   341
1005
8423
1070
   343
1005
8423
1070
   344
1005
8423
1002
}
  0
DIMENSION
  5
85A8
330
840C
100
AcDbEntity
  8
3
100
AcDbDimension
  2
*D40
 10
6996.039116178846
 20
2404.66995559412
 30
0.0
 11
6537.039116178846
 21
2504.66995559412
 31
0.0
 70
    32
 71
     5
 42
918.0000000000019
  3
IGA
100
AcDbAlignedDimension
 13
6078.039116178845
 23
2647.929658934044
 33
0.0
 14
6996.039116178846
 24
2647.929658934044
 34
0.0
100
AcDbRotatedDimension
1001
ACAD
1000
DSTYLE
1002
{
1070
    40
1040
40.0
1070
   143
1040
0.039
1070
   172
1070
     1
1070
   271
1070
     4
1070
   272
1070
     4
1070
   279
1070
     1
1070
   284
1070
     0
1070
   285
1070
     0
1070
   286
1070
     0
1070
   341
1005
8423
1070
   343
1005
8423
1070
   344
1005
8423
1002
}
  0
DIMENSION
  5
85C2
330
840C
100
AcDbEntity
  8
3
100
AcDbDimension
  2
*D42
 10
1251.153303389044
 20
6585.437268273023
 30
0.0
 11
1151.153303389043
 21
7645.437268273022
 31
0.0
 70
    32
 71
     5
 42
2120.0
  3
IGA
100
AcDbAlignedDimension
 13
1700.169444624878
 23
8705.437268273023
 33
0.0
 14
1700.169444624878
 24
6585.437268273023
 34
0.0
 50
90.0
100
AcDbRotatedDimension
1001
ACAD
1000
DSTYLE
1002
{
1070
    40
1040
40.0
1070
   143
1040
0.039
1070
   172
1070
     1
1070
   271
1070
     4
1070
   272
1070
     4
1070
   279
1070
     0
1070
   284
1070
     0
1070
   285
1070
     0
1070
   286
1070
     0
1070
   341
1005
8423
1070
   343
1005
8423
1070
   344
1005
8423
1002
}
  0
DIMENSION
  5
85CF
330
840C
100
AcDbEntity
  8
3
100
AcDbDimension
  2
*D43
 10
4150.169444624879
 20
6220.683390083371
 30
0.0
 11
2925.169444624879
 21
6320.68339008337
 31
0.0
 70
    32
 71
     5
 42
2450.000000000001
  3
IGA
100
AcDbAlignedDimension
 13
1700.169444624878
 23
6585.437268273023
 33
0.0
 14
4150.169444624879
 24
6585.437268273023
 34
0.0
100
AcDbRotatedDimension
1001
ACAD
1000
DSTYLE
1002
{
1070
    40
1040
40.0
1070
   143
1040
0.039
1070
   172
1070
     1
1070
   271
1070
     4
1070
   272
1070
     4
1070
   279
1070
     0
1070
   284
1070
     0
1070
   285
1070
     0
1070
   286
1070
     0
1070
   341
1005
8423
1070
   343
1005
8423
1070
   344
1005
8423
1002
}
  0
DIMENSION
  5
85DC
330
840C
100
AcDbEntity
  8
3
100
AcDbDimension
  2
*D44
 10
4416.495845732457
 20
7585.437268273023
 30
0.0
 11
4316.495845732456
 21
7085.437268273024
 31
0.0
 70
    32
 71
     5
 42
1000.0
  3
IGA
100
AcDbAlignedDimension
 13
4150.169444624879
 23
6585.437268273023
 33
0.0
 14
4150.169444624879
 24
7585.437268273023
 34
0.0
 50
90.0
100
AcDbRotatedDimension
1001
ACAD
1000
DSTYLE
1002
{
1070
    40
1040
40.0
1070
   143
1040
0.039
1070
   172
1070
     1
1070
   271
1070
     4
1070
   272
1070
     4
1070
   279
1070
     0
1070
   284
1070
     0
1070
   285
1070
     0
1070
   286
1070
     0
1070
   341
1005
8423
1070
   343
1005
8423
1070
   344
1005
8423
1002
}
  0
DIMENSION
  5
85E9
330
840C
100
AcDbEntity
  8
3
100
AcDbDimension
  2
*D45
 10
3200.169444624878
 20
8910.073406778208
 30
0.0
 11
3675.169444624879
 21
9010.073406778209
 31
0.0
 70
    32
 71
     5
 42
950.0000000000014
  3
IGA
100
AcDbAlignedDimension
 13
4150.169444624879
 23
7585.437268273023
 33
0.0
 14
3200.169444624878
 24
8705.437268273023
 34
0.0
100
AcDbRotatedDimension
1001
ACAD
1000
DSTYLE
1002
{
1070
    40
1040
40.0
1070
   143
1040
0.039
1070
   172
1070
     1
1070
   271
1070
     4
1070
   272
1070
     4
1070
   279
1070
     0
1070
   284
1070
     0
1070
   285
1070
     0
1070
   286
1070
     0
1070
   341
1005
8423
1070
   343
1005
8423
1070
   344
1005
8423
1002
}
  0
DIMENSION
  5
85F6
330
840C
100
AcDbEntity
  8
3
100
AcDbDimension
  2
*D46
 10
1700.169444624878
 20
8910.073406778208
 30
0.0
 11
2450.169444624878
 21
9010.073406778209
 31
0.0
 70
    32
 71
     5
 42
1500.0
  3
IGA
100
AcDbAlignedDimension
 13
3200.169444624878
 23
8705.437268273023
 33
0.0
 14
1700.169444624878
 24
8705.437268273023
 34
0.0
100
AcDbRotatedDimension
1001
ACAD
1000
DSTYLE
1002
{
1070
    40
1040
40.0
1070
   143
1040
0.039
1070
   172
1070
     1
1070
   271
1070
     4
1070
   272
1070
     4
1070
   279
1070
     1
1070
   284
1070
     0
1070
   285
1070
     0
1070
   286
1070
     0
1070
   341
1005
8423
1070
   343
1005
8423
1070
   344
1005
8423
1002
}
  0
DIMENSION
  5
860C
330
840C
100
AcDbEntity
  8
3
100
AcDbDimension
  2
*D47
 10
3784.169444624879
 20
5005.940691624002
 30
0.0
 11
3144.169444624879
 21
5105.940691624002
 31
0.0
 70
    32
 71
     5
 42
1280.000000000001
  3
IGA
100
AcDbAlignedDimension
 13
2504.169444624878
 23
4752.929658934045
 33
0.0
 14
3784.169444624879
 24
4752.929658934045
 34
0.0
100
AcDbRotatedDimension
1001
ACAD
1000
DSTYLE
1002
{
1070
    40
1040
40.0
1070
   143
1040
0.039
1070
   172
1070
     1
1070
   271
1070
     4
1070
   272
1070
     4
1070
   279
1070
     0
1070
   284
1070
     0
1070
   285
1070
     0
1070
   286
1070
     0
1070
   341
1005
8423
1070
   343
1005
8423
1070
   344
1005
8423
1002
}
  0
DIMENSION
  5
8619
330
840C
100
AcDbEntity
  8
3
100
AcDbDimension
  2
*D48
 10
2450.169444624878
 20
5253.003534080533
 30
0.0
 11
3117.169444624879
 21
5353.003534080532
 31
0.0
 70
    32
 71
     5
 42
1334.000000000001
  3
IGA
100
AcDbAlignedDimension
 13
3784.169444624879
 23
4752.929658934045
 33
0.0
 14
2450.169444624878
 24
4793.547459956273
 34
0.0
100
AcDbRotatedDimension
1001
ACAD
1000
DSTYLE
1002
{
1070
    40
1040
40.0
1070
   143
1040
0.039
1070
   172
1070
     1
1070
   271
1070
     4
1070
   272
1070
     4
1070
   279
1070
     0
1070
   284
1070
     0
1070
   285
1070
     0
1070
   286
1070
     0
1070
   341
1005
8423
1070
   343
1005
8423
1070
   344
1005
8423
1002
}
  0
DIMENSION
  5
8626
330
840C
100
AcDbEntity
  8
3
100
AcDbDimension
  2
*D49
 10
1553.169444624878
 20
5253.003534080533
 30
0.0
 11
2001.669444624878
 21
5353.003534080532
 31
0.0
 70
    32
 71
     5
 42
897.0
  3
IGA
100
AcDbAlignedDimension
 13
2450.169444624878
 23
4793.547459956273
 33
0.0
 14
1553.169444624878
 24
3836.929658934045
 34
0.0
100
AcDbRotatedDimension
1001
ACAD
1000
DSTYLE
1002
{
1070
    40
1040
40.0
1070
   143
1040
0.039
1070
   172
1070
     1
1070
   271
1070
     4
1070
   272
1070
     4
1070
   279
1070
     1
1070
   284
1070
     0
1070
   285
1070
     0
1070
   286
1070
     0
1070
   341
1005
8423
1070
   343
1005
8423
1070
   344
1005
8423
1002
}
  0
DIMENSION
  5
8633
330
840C
100
AcDbEntity
  8
3
100
AcDbDimension
  2
*D50
 10
4150.169444624879
 20
5494.836675797562
 30
0.0
 11
2851.669444624878
 21
5594.836675797562
 31
0.0
 70
    32
 71
     5
 42
2597.000000000001
  3
IGA
100
AcDbAlignedDimension
 13
1553.169444624878
 23
3836.929658934045
 33
0.0
 14
4150.169444624879
 24
2942.929658934044
 34
0.0
100
AcDbRotatedDimension
1001
ACAD
1000
DSTYLE
1002
{
1070
    40
1040
40.0
1070
   143
1040
0.039
1070
   172
1070
     1
1070
   271
1070
     4
1070
   272
1070
     4
1070
   279
1070
     0
1070
   284
1070
     0
1070
   285
1070
     0
1070
   286
1070
     0
1070
   341
1005
8423
1070
   343
1005
8423
1070
   344
1005
8423
1002
}
  0
DIMENSION
  5
8640
330
840C
100
AcDbEntity
  8
3
100
AcDbDimension
  2
*D51
 10
1320.820787372489
 20
3927.929658934044
 30
0.0
 11
1220.820787372489
 21
4340.429658934044
 31
0.0
 70
    32
 71
     5
 42
825.0000000000008
  3
IGA
100
AcDbAlignedDimension
 13
2451.169444624878
 23
4752.929658934045
 33
0.0
 14
1546.732906376026
 24
3927.929658934044
 34
0.0
 50
90.0
100
AcDbRotatedDimension
1001
ACAD
1000
DSTYLE
1002
{
1070
    40
1040
40.0
1070
   143
1040
0.039
1070
   172
1070
     1
1070
   271
1070
     4
1070
   272
1070
     4
1070
   279
1070
     0
1070
   284
1070
     0
1070
   285
1070
     0
1070
   286
1070
     0
1070
   341
1005
8423
1070
   343
1005
8423
1070
   344
1005
8423
1002
}
  0
DIMENSION
  5
864D
330
840C
100
AcDbEntity
  8
3
100
AcDbDimension
  2
*D52
 10
1320.820787372489
 20
2817.929658934044
 30
0.0
 11
1220.820787372489
 21
3372.929658934045
 31
0.0
 70
    32
 71
     5
 42
1110.0
  3
IGA
100
AcDbAlignedDimension
 13
1546.732906376026
 23
3927.929658934044
 33
0.0
 14
1700.169444624878
 24
2817.929658934044
 34
0.0
 50
90.0
100
AcDbRotatedDimension
1001
ACAD
1000
DSTYLE
1002
{
1070
    40
1040
40.0
1070
   143
1040
0.039
1070
   172
1070
     1
1070
   271
1070
     4
1070
   272
1070
     4
1070
   279
1070
     1
1070
   284
1070
     0
1070
   285
1070
     0
1070
   286
1070
     0
1070
   341
1005
8423
1070
   343
1005
8423
1070
   344
1005
8423
1002
}
  0
DIMENSION
  5
865A
330
840C
100
AcDbEntity
  8
3
100
AcDbDimension
  2
*D53
 10
1320.820787372489
 20
2712.929658934044
 30
0.0
 11
997.9636445153461
 21
2862.858230362617
 31
0.0
 70
    32
  1
(<>)
 71
     5
 42
105.0000000000004
  3
IGA
100
AcDbAlignedDimension
 13
1700.169444624878
 23
2817.929658934044
 33
0.0
 14
1700.169444624878
 24
2712.929658934044
 34
0.0
 50
90.0
100
AcDbRotatedDimension
1001
ACAD
1000
DSTYLE
1002
{
1070
    40
1040
40.0
1070
   143
1040
0.039
1070
   172
1070
     1
1070
   271
1070
     4
1070
   272
1070
     4
1070
   279
1070
     1
1070
   284
1070
     0
1070
   285
1070
     0
1070
   286
1070
     0
1070
   341
1005
8423
1070
   343
1005
8423
1070
   344
1005
872E
1002
}
  0
DIMENSION
  5
866C
330
840C
100
AcDbEntity
  8
3
100
AcDbDimension
  2
*D54
 10
1320.820787372489
 20
2647.929658934044
 30
0.0
 11
1320.820787372489
 21
2487.929658934044
 31
0.0
 70
   160
 71
     5
 42
65.0
  3
IGA
100
AcDbAlignedDimension
 13
1700.169444624878
 23
2712.929658934044
 33
0.0
 14
1700.169444624878
 24
2647.929658934044
 34
0.0
 50
90.0
100
AcDbRotatedDimension
1001
ACAD
1000
DSTYLE
1002
{
1070
    40
1040
40.0
1070
   143
1040
0.039
1070
   172
1070
     1
1070
   271
1070
     4
1070
   272
1070
     4
1070
   279
1070
     1
1070
   284
1070
     0
1070
   285
1070
     0
1070
   286
1070
     0
1070
   341
1005
8423
1070
   343
1005
872E
1070
   344
1005
8423
1002
}
  0
DIMENSION
  5
867E
330
840C
100
AcDbEntity
  8
3
100
AcDbDimension
  2
*D55
 10
833.1247629570864
 20
4752.929658934045
 30
0.0
 11
701.6961915285141
 21
3700.429658934045
 31
0.0
 70
    32
  1
(<>)
 71
     5
 42
2105.000000000002
  3
IGA
100
AcDbAlignedDimension
 13
1700.169444624878
 23
2647.929658934044
 33
0.0
 14
2451.169444624878
 24
4752.929658934045
 34
0.0
 50
90.0
100
AcDbRotatedDimension
1001
ACAD
1000
DSTYLE
1002
{
1070
    40
1040
40.0
1070
   143
1040
0.039
1070
   172
1070
     1
1070
   271
1070
     4
1070
   272
1070
     4
1070
   279
1070
     0
1070
   284
1070
     0
1070
   285
1070
     0
1070
   286
1070
     0
1070
   341
1005
8423
1070
   343
1005
8423
1070
   344
1005
8423
1002
}
  0
DIMENSION
  5
8799
330
840C
100
AcDbEntity
  8
3
100
AcDbDimension
  2
*D57
 10
2450.169444624878
 20
2396.795258662208
 30
0.0
 11
2075.169444624878
 21
2496.795258662209
 31
0.0
 70
    32
 71
     5
 42
750.0
  3
IGA
100
AcDbAlignedDimension
 13
1700.169444624878
 23
2647.929658934044
 33
0.0
 14
2450.169444624878
 24
2647.929658934044
 34
0.0
100
AcDbRotatedDimension
1001
ACAD
1000
DSTYLE
1002
{
1070
    40
1040
40.0
1070
   143
1040
0.039
1070
   172
1070
     1
1070
   271
1070
     4
1070
   272
1070
     4
1070
   279
1070
     0
1070
   284
1070
     0
1070
   285
1070
     0
1070
   286
1070
     0
1070
   341
1005
8423
1070
   343
1005
8423
1070
   344
1005
8423
1002
}
  0
DIMENSION
  5
87A6
330
840C
100
AcDbEntity
  8
3
100
AcDbDimension
  2
*D58
 10
4150.169444624879
 20
2396.795258662208
 30
0.0
 11
3300.169444624879
 21
2496.795258662209
 31
0.0
 70
    32
 71
     5
 42
1700.000000000001
  3
IGA
100
AcDbAlignedDimension
 13
2450.169444624878
 23
2647.929658934044
 33
0.0
 14
4150.169444624879
 24
2647.929658934044
 34
0.0
100
AcDbRotatedDimension
1001
ACAD
1000
DSTYLE
1002
{
1070
    40
1040
40.0
1070
   143
1040
0.039
1070
   172
1070
     1
1070
   271
1070
     4
1070
   272
1070
     4
1070
   279
1070
     1
1070
   284
1070
     0
1070
   285
1070
     0
1070
   286
1070
     0
1070
   341
1005
8423
1070
   343
1005
8423
1070
   344
1005
8423
1002
}
  0
ENDSEC
  0
SECTION
  2
OBJECTS
  0
DICTIONARY
  5
83A9
330
0
100
AcDbDictionary
281
     1
  3
ACAD_CIP_PREVIOUS_PRODUCT_INFO
350
8453
  3
ACAD_COLOR
350
83FF
  3
ACAD_DETAILVIEWSTYLE
350
8406
  3
ACAD_GROUP
350
83AA
  3
ACAD_LAYOUT
350
83FE
  3
ACAD_MATERIAL
350
83AD
  3
ACAD_MLEADERSTYLE
350
8402
  3
ACAD_MLINESTYLE
350
83FB
  3
ACAD_PLOTSETTINGS
350
83FD
  3
ACAD_PLOTSTYLENAME
350
83AB
  3
ACAD_SCALELIST
350
83DF
  3
ACAD_SECTIONVIEWSTYLE
350
8404
  3
ACAD_TABLESTYLE
350
8400
  3
ACAD_VISUALSTYLE
350
83C6
  3
ACDB_RECOMPOSE_DATA
350
87B5
  3
AcDbVariableDictionary
350
845E
  3
DWGPROPS
350
87B6
  0
DICTIONARY
  5
8454
330
83F1
100
AcDbDictionary
280
     1
281
     1
  3
ADSK_XREC_LAYER_RECONCILED
360
8455
  0
DICTIONARY
  5
8456
330
8410
100
AcDbDictionary
280
     1
281
     1
  3
ADSK_XREC_LAYER_RECONCILED
360
8457
  0
DICTIONARY
  5
8458
330
8413
100
AcDbDictionary
280
     1
281
     1
  3
ADSK_XREC_LAYER_RECONCILED
360
8459
  0
DICTIONARY
  5
845A
330
8414
100
AcDbDictionary
280
     1
281
     1
  3
ADSK_XREC_LAYER_RECONCILED
360
845B
  0
DICTIONARY
  5
845C
330
8415
100
AcDbDictionary
280
     1
281
     1
  3
ADSK_XREC_LAYER_RECONCILED
360
845D
  0
DICTIONARY
  5
84AB
330
840C
100
AcDbDictionary
280
     1
281
     1
  3
ACAD_SORTENTS
360
84AC
  0
XRECORD
  5
8453
102
{ACAD_REACTORS
330
83A9
102
}
330
83A9
100
AcDbXrecord
280
     1
300
ACDLT
300
2015
300
INVLTS_F_S
  0
DICTIONARY
  5
83FF
102
{ACAD_REACTORS
330
83A9
102
}
330
83A9
100
AcDbDictionary
281
     1
  0
DICTIONARY
  5
8406
102
{ACAD_REACTORS
330
83A9
102
}
330
83A9
100
AcDbDictionary
281
     1
  3
Imperial24
350
8407
  0
DICTIONARY
  5
83AA
102
{ACAD_REACTORS
330
83A9
102
}
330
83A9
100
AcDbDictionary
281
     1
  0
DICTIONARY
  5
83FE
102
{ACAD_REACTORS
330
83A9
102
}
330
83A9
100
AcDbDictionary
281
     1
  3
Model
350
840F
  3
レイアウト1
350
840B
  0
DICTIONARY
  5
83AD
102
{ACAD_REACTORS
330
83A9
102
}
330
83A9
100
AcDbDictionary
281
     1
  3
ByBlock
350
83B6
  3
ByLayer
350
83AE
  3
Global
350
83BE
  0
DICTIONARY
  5
8402
102
{ACAD_REACTORS
330
83A9
102
}
330
83A9
100
AcDbDictionary
281
     1
  3
Standard
350
8403
  0
DICTIONARY
  5
83FB
102
{ACAD_REACTORS
330
83A9
102
}
330
83A9
100
AcDbDictionary
281
     1
  3
Standard
350
83FC
  0
DICTIONARY
  5
83FD
102
{ACAD_REACTORS
330
83A9
102
}
330
83A9
100
AcDbDictionary
281
     1
  0
ACDBDICTIONARYWDFLT
  5
83AB
102
{ACAD_REACTORS
330
83A9
102
}
330
83A9
100
AcDbDictionary
281
     1
  3
Normal
350
83AC
100
AcDbDictionaryWithDefault
340
83AC
  0
DICTIONARY
  5
83DF
102
{ACAD_REACTORS
330
83A9
102
}
330
83A9
100
AcDbDictionary
281
     1
  3
A0
350
83E0
  3
A1
350
83E1
  3
A2
350
83E2
  3
A3
350
83E3
  3
A4
350
83E4
  3
A5
350
83E5
  3
A6
350
83E6
  3
A7
350
83E7
  3
A8
350
83E8
  3
A9
350
83E9
  3
B0
350
83EA
  3
B1
350
83EB
  3
B2
350
83EC
  3
B3
350
83ED
  3
B4
350
83EE
  3
B5
350
83EF
  3
B6
350
83F0
  0
DICTIONARY
  5
8404
102
{ACAD_REACTORS
330
83A9
102
}
330
83A9
100
AcDbDictionary
281
     1
  3
Imperial24
350
8405
  0
DICTIONARY
  5
8400
102
{ACAD_REACTORS
330
83A9
102
}
330
83A9
100
AcDbDictionary
281
     1
  3
Standard
350
8401
  0
DICTIONARY
  5
83C6
102
{ACAD_REACTORS
330
83A9
102
}
330
83A9
100
AcDbDictionary
281
     1
  3
2dWireframe
350
83CC
  3
Basic
350
83CB
  3
Brighten
350
83D2
  3
ColorChange
350
83D6
  3
Conceptual
350
83CF
  3
Dim
350
83D1
  3
EdgeColorOff
350
83DE
  3
Facepattern
350
83D5
  3
Flat
350
83C7
  3
FlatWithEdges
350
83C8
  3
Gouraud
350
83C9
  3
GouraudWithEdges
350
83CA
  3
Hidden
350
83CE
  3
JitterOff
350
83DC
  3
Linepattern
350
83D4
  3
OverhangOff
350
83DD
  3
Realistic
350
83D0
  3
Shaded
350
83DB
  3
Shaded with edges
350
83DA
  3
Shades of Gray
350
83D7
  3
Sketchy
350
83D8
  3
Thicken
350
83D3
  3
Wireframe
350
83CD
  3
X-Ray
350
83D9
  0
XRECORD
  5
87B5
102
{ACAD_REACTORS
330
83A9
102
}
330
83A9
100
AcDbXrecord
280
     1
 90
        1
330
8401
  0
DICTIONARY
  5
845E
102
{ACAD_REACTORS
330
83A9
102
}
330
83A9
100
AcDbDictionary
281
     1
  3
CANNOSCALE
350
8463
  3
CMLEADERSTYLE
350
8460
  3
CTABLESTYLE
350
845F
  3
CVIEWDETAILSTYLE
350
8461
  3
CVIEWSECTIONSTYLE
350
8462
  3
DIMASSOC
350
8466
  3
INDEXCTL
350
8465
  3
SORTENTS
350
8464
  3
XCLIPFRAME
350
8467
  0
XRECORD
  5
87B6
102
{ACAD_REACTORS
330
83A9
102
}
330
83A9
100
AcDbXrecord
280
     1
  1
DWGPROPS COOKIE
  2

  3

  4

  6

  7

  8
yasukiyo.ogawa
  9

300
=
301
=
302
=
303
=
304
=
305
=
306
=
307
=
308
=
309
=
 40
0.0172100115740741
 41
2451898.497236459
 42
2460280.765826539
  1

 90
        0
  0
XRECORD
  5
8455
102
{ACAD_REACTORS
330
8454
102
}
330
8454
100
AcDbXrecord
280
     1
290
     1
  0
XRECORD
  5
8457
102
{ACAD_REACTORS
330
8456
102
}
330
8456
100
AcDbXrecord
280
     1
290
     1
  0
XRECORD
  5
8459
102
{ACAD_REACTORS
330
8458
102
}
330
8458
100
AcDbXrecord
280
     1
290
     1
  0
XRECORD
  5
845B
102
{ACAD_REACTORS
330
845A
102
}
330
845A
100
AcDbXrecord
280
     1
290
     1
  0
XRECORD
  5
845D
102
{ACAD_REACTORS
330
845C
102
}
330
845C
100
AcDbXrecord
280
     1
290
     1
  0
SORTENTSTABLE
  5
84AC
102
{ACAD_REACTORS
330
84AB
102
}
330
84AB
100
AcDbSortentsTable
330
840C
331
80A8
  5
80AA
331
80B9
  5
80BB
331
7CB8
  5
7CBA
331
7C60
  5
7C62
331
7CC9
  5
7CCB
331
7C71
  5
7C73
331
7CDA
  5
7CDE
331
7CEB
  5
7CEE
331
7C93
  5
7C95
331
7CA7
  5
7CA9
331
7C4F
  5
7C51
331
7C3E
  5
7C40
331
7C2D
  5
7C2F
331
7C82
  5
7C84
331
80A9
  5
80AB
331
7CA8
  5
7CAA
331
7C50
  5
7C52
331
80BA
  5
80BC
331
7CB9
  5
7CBE
331
7C61
  5
7C63
331
7CCA
  5
7CCC
331
7C72
  5
7C74
331
7CFD
  5
7D00
331
7CEC
  5
7CEF
331
7C94
  5
7C96
331
7C3F
  5
7C41
331
7C2E
  5
7C30
331
7C83
  5
7C85
331
7C98
  5
7C9A
331
7C40
  5
7C42
331
80AA
  5
80AC
331
7CA9
  5
7CAB
331
7C51
  5
7C53
331
80BB
  5
80BD
331
7CBA
  5
7CBF
331
7C62
  5
7C64
331
7CCB
  5
7CCD
331
7CFE
  5
7D01
331
7C95
  5
7C97
331
7C2F
  5
7C31
331
7C84
  5
7C86
331
7C73
  5
7C75
331
7C99
  5
7C9B
331
7C41
  5
7C43
331
7C30
  5
7C32
331
80AB
  5
80AD
331
7CAA
  5
7CAC
331
7C52
  5
7C54
331
80BC
  5
80BE
331
7CCC
  5
7CCE
331
7C74
  5
7C76
331
7CEE
  5
7CF0
331
7C96
  5
7C98
331
7C85
  5
7C87
331
7C63
  5
7C65
331
7C9A
  5
7C9C
331
7C42
  5
7C44
331
7C31
  5
7C33
331
80AC
  5
80AF
331
7CAB
  5
7CAD
331
7C53
  5
7C55
331
80BD
  5
80BF
331
7CCD
  5
7CCF
331
7C75
  5
7C77
331
7CEF
  5
7CF1
331
7C97
  5
7C99
331
7C86
  5
7C88
331
7C64
  5
7C69
331
7C43
  5
7C45
331
7C32
  5
7C34
331
80AD
  5
80B0
331
7CAC
  5
7CAE
331
7C54
  5
7C56
331
80BE
  5
80C0
331
7CCE
  5
7CD0
331
7C76
  5
7C78
331
7D01
  5
7D03
331
7CF0
  5
7CF3
331
7C87
  5
7C89
331
7C65
  5
7C6A
331
7C21
  5
7C21
331
7C44
  5
7C46
331
7C33
  5
7C35
331
80BF
  5
80C1
331
7CBE
  5
7CC0
331
7CAD
  5
7CAF
331
7C55
  5
7C57
331
7CCF
  5
7CD1
331
7D02
  5
7D04
331
7CF1
  5
7CF4
331
7CE0
  5
7CE2
331
7C88
  5
7C8A
331
7C77
  5
7C79
331
7C22
  5
7C22
331
7C45
  5
7C47
331
7C34
  5
7C36
331
80AF
  5
80B1
331
7CAE
  5
7CB0
331
7C56
  5
7C58
331
80C0
  5
8190
331
7CD0
  5
7CD3
331
7C78
  5
7C7A
331
7D03
  5
7D05
331
7CE1
  5
7CE3
331
7C89
  5
7C8B
331
7CBF
  5
7CC1
331
7C23
  5
7C23
331
7C46
  5
7C48
331
7C35
  5
7C37
331
80B0
  5
80B2
331
7CAF
  5
7CB2
331
7C57
  5
7C59
331
80C1
  5
819D
331
7CD1
  5
7CD4
331
7C79
  5
7C7B
331
7D04
  5
7D06
331
7CF3
  5
7CF5
331
7CE2
  5
7CE5
331
7C8A
  5
7C8C
331
7CC0
  5
7CC2
331
7C24
  5
7C24
331
7C47
  5
7C49
331
7C36
  5
7C38
331
80B1
  5
80B3
331
7CB0
  5
7CB3
331
7C58
  5
7C5B
331
7CC1
  5
7CC3
331
7D05
  5
7D07
331
7CF4
  5
7CF6
331
7CE3
  5
7CE6
331
7C8B
  5
7C8D
331
7C7A
  5
7C7C
331
7C69
  5
7C6B
331
7C25
  5
7C25
331
7CA0
  5
7CA3
331
7C48
  5
7C4A
331
7C37
  5
7C39
331
80B2
  5
80B4
331
7C59
  5
7C5C
331
7CC2
  5
7CC7
331
7CD3
  5
7CD7
331
7C7B
  5
7C7D
331
7D06
  5
7D09
331
7CF5
  5
7CF7
331
7C8C
  5
7C8E
331
7C6A
  5
7C6C
331
7C26
  5
7C26
331
80B3
  5
80B5
331
7CB2
  5
7CB4
331
7C38
  5
7C3A
331
7CC3
  5
7CC8
331
7C6B
  5
7C6D
331
7CD4
  5
7CDA
331
7D07
  5
7D0A
331
7CF6
  5
7CF8
331
7CE5
  5
7CE7
331
7C8D
  5
7C8F
331
7C7C
  5
7C7E
331
7C27
  5
7C27
331
80A3
  5
80A5
331
7CA2
  5
7CA4
331
7C4A
  5
7C4C
331
7C39
  5
7C3B
331
80B4
  5
80B6
331
7CB3
  5
7CB5
331
7CF7
  5
7CF9
331
7CE6
  5
7CE8
331
7C8E
  5
7C90
331
7C7D
  5
7C7F
331
7C6C
  5
7C6E
331
7C28
  5
7C28
331
7CF8
  5
7CFA
331
80A4
  5
80A8
331
7CA3
  5
7CA5
331
7C4B
  5
7C4D
331
7C3A
  5
7C3C
331
7C29
  5
7C2B
331
80B5
  5
80B7
331
7CB4
  5
7CB6
331
7CE7
  5
7CEB
331
7C8F
  5
7C91
331
7C7E
  5
7C80
331
7C6D
  5
7C6F
331
7D0A
  5
7D0C
331
7CE8
  5
7CEC
331
7C90
  5
7C92
331
80A5
  5
80A9
331
7CA4
  5
7CA6
331
7C4C
  5
7C4E
331
7C3B
  5
7C3D
331
7C2A
  5
7C2C
331
80B6
  5
80B8
331
7CB5
  5
7CB7
331
7CD7
  5
7CDD
331
7C7F
  5
7C81
331
7C6E
  5
7C70
331
7D0B
  5
7D0D
331
7C91
  5
7C93
331
7C80
  5
7C82
331
7CA5
  5
7CA7
331
7C4D
  5
7C4F
331
7C3C
  5
7C3E
331
7C2B
  5
7C2D
331
80B7
  5
80B9
331
7CB6
  5
7CB8
331
7C5E
  5
7C60
331
7CC7
  5
7CC9
331
7C6F
  5
7C71
331
80B8
  5
80BA
331
7CC8
  5
7CCA
331
7C70
  5
7C72
331
7D0C
  5
80A3
331
7CFB
  5
7CFE
331
7C92
  5
7C94
331
7C81
  5
7C83
331
7CA6
  5
7CA8
331
7C4E
  5
7C50
331
7C3D
  5
7C3F
331
7CB7
  5
7CB9
331
7C5F
  5
7C61
331
7C2C
  5
7C2E
  0
ACDBDETAILVIEWSTYLE
  5
8407
102
{ACAD_XDICTIONARY
360
87EE
102
}
102
{ACAD_REACTORS
330
8406
102
}
330
8406
100
AcDbModelDocViewStyle
 70
     0
  3
Imperial24
290
     0
100
AcDbDetailViewStyle
 70
     0
 71
     0
 90
        3
 71
     1
340
83F2
 40
0.24
340
0
 40
0.24
300

 40
0.36
280
     3
 71
     2
340
83F9
 90
       25
 71
     3
340
83F2
 40
0.24
 90
        1
 40
0.75
 90
        1
300
%<\AcVar ViewType \f "%tc1">% %<\AcVar ViewDetailId>%\PSCALE %<\AcVar ViewScale \f "%sn">%
 71
     4
340
83F9
 90
       25
340
83F9
 90
       25
280
     0
  0
LAYOUT
  5
840F
102
{ACAD_XDICTIONARY
360
87F2
102
}
102
{ACAD_REACTORS
330
83FE
102
}
330
83FE
100
AcDbPlotSettings
  1

  2
RICOH imagio MP W3600 RPCS
  4

  6

 40
0.0
 41
0.0
 42
0.0
 43
0.0
 44
0.0
 45
0.0
 46
0.0
 47
0.0
 48
0.0
 49
0.0
140
0.0
141
0.0
142
1.0
143
1.0
 70
  1712
 72
     0
 73
     0
 74
     0
  7

 75
     0
147
1.0
148
0.0
149
0.0
100
AcDbLayout
  1
Model
 70
     1
 71
     0
 10
0.0
 20
0.0
 11
12.0
 21
9.0
 12
0.0
 22
0.0
 32
0.0
 14
0.0
 24
0.0
 34
0.0
 15
0.0
 25
0.0
 35
0.0
146
0.0
 13
0.0
 23
0.0
 33
0.0
 16
1.0
 26
0.0
 36
0.0
 17
0.0
 27
1.0
 37
0.0
 76
     0
330
840C
331
8411
  0
LAYOUT
  5
840B
102
{ACAD_XDICTIONARY
360
87F0
102
}
102
{ACAD_REACTORS
330
83FE
102
}
330
83FE
100
AcDbPlotSettings
  1

  2
RICOH imagio MP W3600 RPCS
  4

  6

 40
0.0
 41
0.0
 42
0.0
 43
0.0
 44
0.0
 45
0.0
 46
0.0
 47
0.0
 48
0.0
 49
0.0
140
0.0
141
0.0
142
1.0
143
1.0
 70
   688
 72
     0
 73
     0
 74
     5
  7

 75
    16
147
1.0
148
0.0
149
0.0
100
AcDbLayout
  1
レイアウト1
 70
     1
 71
     1
 10
0.0
 20
0.0
 11
12.0
 21
9.0
 12
0.0
 22
0.0
 32
0.0
 14
1.000000000000000E+20
 24
1.000000000000000E+20
 34
1.000000000000000E+20
 15
-1.000000000000000E+20
 25
-1.000000000000000E+20
 35
-1.000000000000000E+20
146
0.0
 13
0.0
 23
0.0
 33
0.0
 16
1.0
 26
0.0
 36
0.0
 17
0.0
 27
1.0
 37
0.0
 76
     0
330
8408
  0
MATERIAL
  5
83B6
102
{ACAD_XDICTIONARY
360
83B7
102
}
102
{ACAD_REACTORS
330
83AD
102
}
330
83AD
100
AcDbMaterial
  1
ByBlock
 72
     0
 43
0.0208333333333333
 43
0.0
 43
0.0
 43
0.0
 43
0.0
 43
0.0208333333333333
 43
0.0
 43
0.0
 43
0.0
 43
0.0
 43
1.0
 43
0.0
 43
0.0
 43
0.0
 43
0.0
 43
1.0
 77
     0
 47
0.0208333333333333
 47
0.0
 47
0.0
 47
0.0
 47
0.0
 47
0.0208333333333333
 47
0.0
 47
0.0
 47
0.0
 47
0.0
 47
1.0
 47
0.0
 47
0.0
 47
0.0
 47
0.0
 47
1.0
171
     0
 49
0.0208333333333333
 49
0.0
 49
0.0
 49
0.0
 49
0.0
 49
0.0208333333333333
 49
0.0
 49
0.0
 49
0.0
 49
0.0
 49
1.0
 49
0.0
 49
0.0
 49
0.0
 49
0.0
 49
1.0
175
     0
142
0.0208333333333333
142
0.0
142
0.0
142
0.0
142
0.0
142
0.0208333333333333
142
0.0
142
0.0
142
0.0
142
0.0
142
1.0
142
0.0
142
0.0
142
0.0
142
0.0
142
1.0
179
     0
144
0.0208333333333333
144
0.0
144
0.0
144
0.0
144
0.0
144
0.0208333333333333
144
0.0
144
0.0
144
0.0
144
0.0
144
1.0
144
0.0
144
0.0
144
0.0
144
0.0
144
1.0
147
0.0208333333333333
147
0.0
147
0.0
147
0.0
147
0.0
147
0.0208333333333333
147
0.0
147
0.0
147
0.0
147
0.0
147
1.0
147
0.0
147
0.0
147
0.0
147
0.0
147
1.0
  0
MATERIAL
  5
83AE
102
{ACAD_XDICTIONARY
360
83AF
102
}
102
{ACAD_REACTORS
330
83AD
102
}
330
83AD
100
AcDbMaterial
  1
ByLayer
 72
     0
 43
0.0208333333333333
 43
0.0
 43
0.0
 43
0.0
 43
0.0
 43
0.0208333333333333
 43
0.0
 43
0.0
 43
0.0
 43
0.0
 43
1.0
 43
0.0
 43
0.0
 43
0.0
 43
0.0
 43
1.0
 77
     0
 47
0.0208333333333333
 47
0.0
 47
0.0
 47
0.0
 47
0.0
 47
0.0208333333333333
 47
0.0
 47
0.0
 47
0.0
 47
0.0
 47
1.0
 47
0.0
 47
0.0
 47
0.0
 47
0.0
 47
1.0
171
     0
 49
0.0208333333333333
 49
0.0
 49
0.0
 49
0.0
 49
0.0
 49
0.0208333333333333
 49
0.0
 49
0.0
 49
0.0
 49
0.0
 49
1.0
 49
0.0
 49
0.0
 49
0.0
 49
0.0
 49
1.0
175
     0
142
0.0208333333333333
142
0.0
142
0.0
142
0.0
142
0.0
142
0.0208333333333333
142
0.0
142
0.0
142
0.0
142
0.0
142
1.0
142
0.0
142
0.0
142
0.0
142
0.0
142
1.0
179
     0
144
0.0208333333333333
144
0.0
144
0.0
144
0.0
144
0.0
144
0.0208333333333333
144
0.0
144
0.0
144
0.0
144
0.0
144
1.0
144
0.0
144
0.0
144
0.0
144
0.0
144
1.0
147
0.0208333333333333
147
0.0
147
0.0
147
0.0
147
0.0
147
0.0208333333333333
147
0.0
147
0.0
147
0.0
147
0.0
147
1.0
147
0.0
147
0.0
147
0.0
147
0.0
147
1.0
  0
MATERIAL
  5
83BE
102
{ACAD_XDICTIONARY
360
83BF
102
}
102
{ACAD_REACTORS
330
83AD
102
}
330
83AD
100
AcDbMaterial
  1
Global
 72
     0
 43
0.0208333333333333
 43
0.0
 43
0.0
 43
0.0
 43
0.0
 43
0.0208333333333333
 43
0.0
 43
0.0
 43
0.0
 43
0.0
 43
1.0
 43
0.0
 43
0.0
 43
0.0
 43
0.0
 43
1.0
 77
     0
 47
0.0208333333333333
 47
0.0
 47
0.0
 47
0.0
 47
0.0
 47
0.0208333333333333
 47
0.0
 47
0.0
 47
0.0
 47
0.0
 47
1.0
 47
0.0
 47
0.0
 47
0.0
 47
0.0
 47
1.0
171
     0
 49
0.0208333333333333
 49
0.0
 49
0.0
 49
0.0
 49
0.0
 49
0.0208333333333333
 49
0.0
 49
0.0
 49
0.0
 49
0.0
 49
1.0
 49
0.0
 49
0.0
 49
0.0
 49
0.0
 49
1.0
175
     0
142
0.0208333333333333
142
0.0
142
0.0
142
0.0
142
0.0
142
0.0208333333333333
142
0.0
142
0.0
142
0.0
142
0.0
142
1.0
142
0.0
142
0.0
142
0.0
142
0.0
142
1.0
179
     0
144
0.0208333333333333
144
0.0
144
0.0
144
0.0
144
0.0
144
0.0208333333333333
144
0.0
144
0.0
144
0.0
144
0.0
144
1.0
144
0.0
144
0.0
144
0.0
144
0.0
144
1.0
147
0.0208333333333333
147
0.0
147
0.0
147
0.0
147
0.0
147
0.0208333333333333
147
0.0
147
0.0
147
0.0
147
0.0
147
1.0
147
0.0
147
0.0
147
0.0
147
0.0
147
1.0
  0
MLEADERSTYLE
  5
8403
102
{ACAD_REACTORS
330
8402
102
}
330
8402
100
AcDbMLeaderStyle
170
     2
171
     1
172
     0
 90
        2
 40
0.0
 41
0.0
173
     1
 91
-1056964608
340
83F7
 92
       -2
290
     1
 42
0.09
291
     1
 43
0.36
  3
Standard
 44
0.18
300

342
83F2
174
     1
178
     6
175
     1
176
     0
 93
-1056964608
 45
0.18
292
     0
297
     0
 46
0.18
 94
-1056964608
 47
1.0
 49
1.0
140
1.0
293
     1
141
0.0
294
     1
177
     0
142
1.0
295
     0
296
     0
143
0.125
1001
ACAD_MLEADERVER
1070
     2
  0
MLINESTYLE
  5
83FC
102
{ACAD_REACTORS
330
83FB
102
}
330
83FB
100
AcDbMlineStyle
  2
STANDARD
 70
     0
  3

 62
   256
 51
90.0
 52
90.0
 71
     2
 49
0.5
 62
   256
  6
BYLAYER
 49
-0.5
 62
   256
  6
BYLAYER
  0
ACDBPLACEHOLDER
  5
83AC
102
{ACAD_REACTORS
330
83AB
102
}
330
83AB
  0
SCALE
  5
83E0
102
{ACAD_REACTORS
330
83DF
102
}
330
83DF
100
AcDbScale
 70
     0
300
1:1
140
1.0
141
1.0
290
     1
  0
SCALE
  5
83E1
102
{ACAD_REACTORS
330
83DF
102
}
330
83DF
100
AcDbScale
 70
     0
300
1/128" = 1'-0"
140
0.0078125
141
12.0
290
     0
  0
SCALE
  5
83E2
102
{ACAD_REACTORS
330
83DF
102
}
330
83DF
100
AcDbScale
 70
     0
300
1/64" = 1'-0"
140
0.015625
141
12.0
290
     0
  0
SCALE
  5
83E3
102
{ACAD_REACTORS
330
83DF
102
}
330
83DF
100
AcDbScale
 70
     0
300
1/32" = 1'-0"
140
0.03125
141
12.0
290
     0
  0
SCALE
  5
83E4
102
{ACAD_REACTORS
330
83DF
102
}
330
83DF
100
AcDbScale
 70
     0
300
1/16" = 1'-0"
140
0.0625
141
12.0
290
     0
  0
SCALE
  5
83E5
102
{ACAD_REACTORS
330
83DF
102
}
330
83DF
100
AcDbScale
 70
     0
300
3/32" = 1'-0"
140
0.09375
141
12.0
290
     0
  0
SCALE
  5
83E6
102
{ACAD_REACTORS
330
83DF
102
}
330
83DF
100
AcDbScale
 70
     0
300
1/8" = 1'-0"
140
0.125
141
12.0
290
     0
  0
SCALE
  5
83E7
102
{ACAD_REACTORS
330
83DF
102
}
330
83DF
100
AcDbScale
 70
     0
300
3/16" = 1'-0"
140
0.1875
141
12.0
290
     0
  0
SCALE
  5
83E8
102
{ACAD_REACTORS
330
83DF
102
}
330
83DF
100
AcDbScale
 70
     0
300
1/4" = 1'-0"
140
0.25
141
12.0
290
     0
  0
SCALE
  5
83E9
102
{ACAD_REACTORS
330
83DF
102
}
330
83DF
100
AcDbScale
 70
     0
300
3/8" = 1'-0"
140
0.375
141
12.0
290
     0
  0
SCALE
  5
83EA
102
{ACAD_REACTORS
330
83DF
102
}
330
83DF
100
AcDbScale
 70
     0
300
1/2" = 1'-0"
140
0.5
141
12.0
290
     0
  0
SCALE
  5
83EB
102
{ACAD_REACTORS
330
83DF
102
}
330
83DF
100
AcDbScale
 70
     0
300
3/4" = 1'-0"
140
0.75
141
12.0
290
     0
  0
SCALE
  5
83EC
102
{ACAD_REACTORS
330
83DF
102
}
330
83DF
100
AcDbScale
 70
     0
300
1" = 1'-0"
140
1.0
141
12.0
290
     0
  0
SCALE
  5
83ED
102
{ACAD_REACTORS
330
83DF
102
}
330
83DF
100
AcDbScale
 70
     0
300
1-1/2" = 1'-0"
140
1.5
141
12.0
290
     0
  0
SCALE
  5
83EE
102
{ACAD_REACTORS
330
83DF
102
}
330
83DF
100
AcDbScale
 70
     0
300
3" = 1'-0"
140
3.0
141
12.0
290
     0
  0
SCALE
  5
83EF
102
{ACAD_REACTORS
330
83DF
102
}
330
83DF
100
AcDbScale
 70
     0
300
6" = 1'-0"
140
6.0
141
12.0
290
     0
  0
SCALE
  5
83F0
102
{ACAD_REACTORS
330
83DF
102
}
330
83DF
100
AcDbScale
 70
     0
300
1'-0" = 1'-0"
140
12.0
141
12.0
290
     0
  0
ACDBSECTIONVIEWSTYLE
  5
8405
102
{ACAD_XDICTIONARY
360
87EC
102
}
102
{ACAD_REACTORS
330
8404
102
}
330
8404
100
AcDbModelDocViewStyle
 70
     0
  3
Imperial24
290
     0
100
AcDbSectionViewStyle
 70
     0
 71
     0
 90
       78
 71
     1
340
83F2
 40
0.24
340
0
340
0
 40
0.24
300
I, O, Q, S, X, Z
 40
0.48
 90
        3
 40
0.18
 90
        1
 71
     2
340
83F9
 90
       25
340
83F9
 90
       50
 40
0.24
 40
0.0
 40
0.24
 71
     3
340
83F2
 40
0.24
 90
        1
 40
0.75
 90
        1
300
%<\AcVar ViewType \f "%tc1">% %<\AcVar ViewSectionStartId>%-%<\AcVar ViewSectionEndId>%\PSCALE %<\AcVar ViewScale \f "%sn">%
 71
     4
300
ANSI31
 40
1.0
 90
        0
290
     0
290
     0
 90
        6
 40
0.0
 40
1.570796326794896
 40
0.2617993877991494
 40
1.308996938995747
 40
-0.2617993877991494
 40
1.832595714594046
  0
TABLESTYLE
  5
8401
102
{ACAD_XDICTIONARY
360
87B3
102
}
102
{ACAD_REACTORS
330
8400
102
}
330
8400
100
AcDbTableStyle
  3
Standard
 70
     0
 71
     0
 40
0.06
 41
0.06
280
     0
281
     0
  7
STANDARD
140
0.18
170
     2
 62
     0
 63
     7
283
     0
274
    -2
284
     1
 64
     0
275
    -2
285
     1
 65
     0
276
    -2
286
     1
 66
     0
277
    -2
287
     1
 67
     0
278
    -2
288
     1
 68
     0
279
    -2
289
     1
 69
     0
  7
STANDARD
140
0.25
170
     5
 62
     0
 63
     7
283
     0
274
    -2
284
     1
 64
     0
275
    -2
285
     1
 65
     0
276
    -2
286
     1
 66
     0
277
    -2
287
     1
 67
     0
278
    -2
288
     1
 68
     0
279
    -2
289
     1
 69
     0
  7
STANDARD
140
0.18
170
     5
 62
     0
 63
     7
283
     0
274
    -2
284
     1
 64
     0
275
    -2
285
     1
 65
     0
276
    -2
286
     1
 66
     0
277
    -2
287
     1
 67
     0
278
    -2
288
     1
 68
     0
279
    -2
289
     1
 69
     0
  0
VISUALSTYLE
  5
83CC
102
{ACAD_XDICTIONARY
360
87C4
102
}
102
{ACAD_REACTORS
330
83C6
102
}
330
83C6
100
AcDbVisualStyle
  2
2dWireframe
 70
     4
 71
     0
 72
     2
 73
     0
 90
        0
 40
-0.6
 41
-30.0
 62
     5
 63
     7
 74
     1
 91
        4
 64
     7
 65
   257
 75
     1
175
     1
 42
1.0
 92
        0
 66
   257
 43
1.0
 76
     1
 77
     6
 78
     2
 67
     7
 79
     5
170
     0
171
     0
290
     0
174
     0
 93
        1
 44
0.0
173
     0
291
     0
 45
0.0
1001
ACAD
1000
AcDbSavedByObjectVersion
1070
     0
  0
VISUALSTYLE
  5
83CB
102
{ACAD_XDICTIONARY
360
87C2
102
}
102
{ACAD_REACTORS
330
83C6
102
}
330
83C6
100
AcDbVisualStyle
  2
Basic
 70
     7
 71
     1
 72
     0
 73
     1
 90
        0
 40
-0.6
 41
-30.0
 62
     5
 63
     7
 74
     0
 91
        4
 64
     7
 65
   257
 75
     1
175
     1
 42
1.0
 92
        8
 66
     7
 43
1.0
 76
     1
 77
     6
 78
     2
 67
     7
 79
     5
170
     0
171
     0
290
     0
174
     0
 93
        1
 44
0.0
173
     0
291
     1
 45
0.0
1001
ACAD
1000
AcDbSavedByObjectVersion
1070
     0
  0
VISUALSTYLE
  5
83D2
102
{ACAD_XDICTIONARY
360
87D0
102
}
102
{ACAD_REACTORS
330
83C6
102
}
330
83C6
100
AcDbVisualStyle
  2
Brighten
 70
    12
 71
     2
 72
     2
 73
     0
 90
        0
 40
-0.6
 41
-30.0
 62
     5
 63
     7
 74
     1
 91
        4
 64
     7
 65
   257
 75
     1
175
     1
 42
1.0
 92
        8
 66
     7
 43
1.0
 76
     1
 77
     6
 78
     2
 67
     7
 79
     5
170
     0
171
     0
290
     0
174
     0
 93
        1
 44
50.0
173
     0
291
     1
 45
0.0
1001
ACAD
1000
AcDbSavedByObjectVersion
1070
     0
  0
VISUALSTYLE
  5
83D6
102
{ACAD_XDICTIONARY
360
87D8
102
}
102
{ACAD_REACTORS
330
83C6
102
}
330
83C6
100
AcDbVisualStyle
  2
ColorChange
 70
    16
 71
     2
 72
     2
 73
     3
 90
        0
 40
-0.6
 41
-30.0
 62
     5
 63
     8
 74
     1
 91
        4
 64
     7
 65
   257
 75
     1
175
     1
 42
1.0
 92
        8
 66
     8
 43
1.0
 76
     1
 77
     6
 78
     2
 67
     7
 79
     5
170
     0
171
     0
290
     0
174
     0
 93
        1
 44
0.0
173
     0
291
     1
 45
0.0
1001
ACAD
1000
AcDbSavedByObjectVersion
1070
     0
  0
VISUALSTYLE
  5
83CF
102
{ACAD_XDICTIONARY
360
87CA
102
}
102
{ACAD_REACTORS
330
83C6
102
}
330
83C6
100
AcDbVisualStyle
  2
Conceptual
 70
     9
 71
     3
 72
     2
 73
     0
 90
        0
 40
-0.6
 41
-30.0
 62
     5
 63
     7
 74
     2
 91
        2
 64
     7
 65
   257
 75
     1
175
     1
 42
179.0
 92
        8
 66
     7
 43
1.0
 76
     1
 77
     6
 78
     2
 67
     7
 79
     3
170
     0
171
     0
290
     0
174
     0
 93
        1
 44
0.0
173
     0
291
     0
 45
0.0
1001
ACAD
1000
AcDbSavedByObjectVersion
1070
     0
  0
VISUALSTYLE
  5
83D1
102
{ACAD_XDICTIONARY
360
87CE
102
}
102
{ACAD_REACTORS
330
83C6
102
}
330
83C6
100
AcDbVisualStyle
  2
Dim
 70
    11
 71
     2
 72
     2
 73
     0
 90
        0
 40
-0.6
 41
-30.0
 62
     5
 63
     7
 74
     1
 91
        4
 64
     7
 65
   257
 75
     1
175
     1
 42
1.0
 92
        8
 66
     7
 43
1.0
 76
     1
 77
     6
 78
     2
 67
     7
 79
     5
170
     0
171
     0
290
     0
174
     0
 93
        1
 44
-50.0
173
     0
291
     1
 45
0.0
1001
ACAD
1000
AcDbSavedByObjectVersion
1070
     0
  0
VISUALSTYLE
  5
83DE
102
{ACAD_XDICTIONARY
360
87E8
102
}
102
{ACAD_REACTORS
330
83C6
102
}
330
83C6
100
AcDbVisualStyle
  2
EdgeColorOff
 70
    22
 71
     2
 72
     2
 73
     0
 90
        0
 40
-0.6
 41
-30.0
 62
     5
 63
     7
 74
     1
 91
        4
 64
     7
 65
   257
 75
     1
175
     1
 42
1.0
 92
        8
 66
     7
 43
1.0
 76
     1
 77
     6
 78
     2
 67
     7
 79
     5
170
     0
171
     0
290
     0
174
     0
 93
        1
 44
0.0
173
     0
291
     1
 45
0.0
1001
ACAD
1000
AcDbSavedByObjectVersion
1070
     0
  0
VISUALSTYLE
  5
83D5
102
{ACAD_XDICTIONARY
360
87D6
102
}
102
{ACAD_REACTORS
330
83C6
102
}
330
83C6
100
AcDbVisualStyle
  2
Facepattern
 70
    15
 71
     2
 72
     2
 73
     0
 90
        0
 40
-0.6
 41
-30.0
 62
     5
 63
     7
 74
     1
 91
        4
 64
     7
 65
   257
 75
     1
175
     1
 42
1.0
 92
        8
 66
     7
 43
1.0
 76
     1
 77
     6
 78
     2
 67
     7
 79
     5
170
     0
171
     0
290
     0
174
     0
 93
        1
 44
0.0
173
     0
291
     1
 45
0.0
1001
ACAD
1000
AcDbSavedByObjectVersion
1070
     0
  0
VISUALSTYLE
  5
83C7
102
{ACAD_XDICTIONARY
360
87BA
102
}
102
{ACAD_REACTORS
330
83C6
102
}
330
83C6
100
AcDbVisualStyle
  2
Flat
 70
     0
 71
     2
 72
     1
 73
     1
 90
        2
 40
-0.6
 41
30.0
 62
     5
 63
     7
 74
     0
 91
        0
 64
     7
 65
   257
 75
     1
175
     1
 42
1.0
 92
        8
 66
     7
 43
1.0
 76
     1
 77
     6
 78
     2
 67
     7
 79
     5
170
     0
171
     0
290
     0
174
     0
 93
       13
 44
0.0
173
     0
291
     1
 45
0.0
1001
ACAD
1000
AcDbSavedByObjectVersion
1070
     0
  0
VISUALSTYLE
  5
83C8
102
{ACAD_XDICTIONARY
360
87BC
102
}
102
{ACAD_REACTORS
330
83C6
102
}
330
83C6
100
AcDbVisualStyle
  2
FlatWithEdges
 70
     1
 71
     2
 72
     1
 73
     1
 90
        2
 40
-0.6
 41
30.0
 62
     5
 63
     7
 74
     1
 91
        0
 64
     7
 65
   257
 75
     1
175
     1
 42
1.0
 92
        0
 66
   257
 43
1.0
 76
     1
 77
     6
 78
     2
 67
     7
 79
     5
170
     0
171
     0
290
     0
174
     0
 93
       13
 44
0.0
173
     0
291
     1
 45
0.0
1001
ACAD
1000
AcDbSavedByObjectVersion
1070
     0
  0
VISUALSTYLE
  5
83C9
102
{ACAD_XDICTIONARY
360
87BE
102
}
102
{ACAD_REACTORS
330
83C6
102
}
330
83C6
100
AcDbVisualStyle
  2
Gouraud
 70
     2
 71
     2
 72
     2
 73
     1
 90
        2
 40
-0.6
 41
30.0
 62
     5
 63
     7
 74
     0
 91
        0
 64
     7
 65
   257
 75
     1
175
     1
 42
1.0
 92
        0
 66
     7
 43
1.0
 76
     1
 77
     6
 78
     2
 67
     7
 79
     5
170
     0
171
     0
290
     0
174
     0
 93
       13
 44
0.0
173
     0
291
     1
 45
0.0
1001
ACAD
1000
AcDbSavedByObjectVersion
1070
     0
  0
VISUALSTYLE
  5
83CA
102
{ACAD_XDICTIONARY
360
87C0
102
}
102
{ACAD_REACTORS
330
83C6
102
}
330
83C6
100
AcDbVisualStyle
  2
GouraudWithEdges
 70
     3
 71
     2
 72
     2
 73
     1
 90
        2
 40
-0.6
 41
30.0
 62
     5
 63
     7
 74
     1
 91
        0
 64
     7
 65
   257
 75
     1
175
     1
 42
1.0
 92
        0
 66
   257
 43
1.0
 76
     1
 77
     6
 78
     2
 67
     7
 79
     5
170
     0
171
     0
290
     0
174
     0
 93
       13
 44
0.0
173
     0
291
     1
 45
0.0
1001
ACAD
1000
AcDbSavedByObjectVersion
1070
     0
  0
VISUALSTYLE
  5
83CE
102
{ACAD_XDICTIONARY
360
87C8
102
}
102
{ACAD_REACTORS
330
83C6
102
}
330
83C6
100
AcDbVisualStyle
  2
Hidden
 70
     6
 71
     1
 72
     2
 73
     2
 90
        0
 40
-0.6
 41
-30.0
 62
     5
 63
     7
 74
     2
 91
        2
 64
     7
 65
   257
 75
     2
175
     1
 42
40.0
 92
        0
 66
   257
 43
1.0
 76
     1
 77
     6
 78
     2
 67
     7
 79
     3
170
     0
171
     0
290
     0
174
     0
 93
        1
 44
0.0
173
     0
291
     0
 45
0.0
1001
ACAD
1000
AcDbSavedByObjectVersion
1070
     0
  0
VISUALSTYLE
  5
83DC
102
{ACAD_XDICTIONARY
360
87E4
102
}
102
{ACAD_REACTORS
330
83C6
102
}
330
83C6
100
AcDbVisualStyle
  2
JitterOff
 70
    20
 71
     2
 72
     2
 73
     0
 90
        0
 40
-0.6
 41
-30.0
 62
     5
 63
     7
 74
     1
 91
        4
 64
     7
 65
   257
 75
     1
175
     1
 42
1.0
 92
       10
 66
     7
 43
1.0
 76
     1
 77
     6
 78
     2
 67
     7
 79
     5
170
     0
171
     0
290
     0
174
     0
 93
        1
 44
0.0
173
     0
291
     1
 45
0.0
1001
ACAD
1000
AcDbSavedByObjectVersion
1070
     0
  0
VISUALSTYLE
  5
83D4
102
{ACAD_XDICTIONARY
360
87D4
102
}
102
{ACAD_REACTORS
330
83C6
102
}
330
83C6
100
AcDbVisualStyle
  2
Linepattern
 70
    14
 71
     2
 72
     2
 73
     0
 90
        0
 40
-0.6
 41
-30.0
 62
     5
 63
     7
 74
     1
 91
        4
 64
     7
 65
   257
 75
     7
175
     7
 42
1.0
 92
        8
 66
     7
 43
1.0
 76
     1
 77
     6
 78
     2
 67
     7
 79
     5
170
     0
171
     0
290
     0
174
     0
 93
        1
 44
0.0
173
     0
291
     1
 45
0.0
1001
ACAD
1000
AcDbSavedByObjectVersion
1070
     0
  0
VISUALSTYLE
  5
83DD
102
{ACAD_XDICTIONARY
360
87E6
102
}
102
{ACAD_REACTORS
330
83C6
102
}
330
83C6
100
AcDbVisualStyle
  2
OverhangOff
 70
    21
 71
     2
 72
     2
 73
     0
 90
        0
 40
-0.6
 41
-30.0
 62
     5
 63
     7
 74
     1
 91
        4
 64
     7
 65
   257
 75
     1
175
     1
 42
1.0
 92
        9
 66
     7
 43
1.0
 76
     1
 77
     6
 78
     2
 67
     7
 79
     5
170
     0
171
     0
290
     0
174
     0
 93
        1
 44
0.0
173
     0
291
     1
 45
0.0
1001
ACAD
1000
AcDbSavedByObjectVersion
1070
     0
  0
VISUALSTYLE
  5
83D0
102
{ACAD_XDICTIONARY
360
87CC
102
}
102
{ACAD_REACTORS
330
83C6
102
}
330
83C6
100
AcDbVisualStyle
  2
Realistic
 70
     8
 71
     2
 72
     3
 73
     0
 90
        2
 40
-0.6
 41
30.0
 62
     5
 63
     7
 74
     0
 91
        0
 64
     7
 65
   257
 75
     1
175
     1
 42
1.0
 92
        8
 66
   257
 43
1.0
 76
     1
 77
     6
 78
     2
 67
     7
 79
     3
170
     0
171
     0
290
     0
174
     0
 93
       13
 44
0.0
173
     0
291
     0
 45
0.0
1001
ACAD
1000
AcDbSavedByObjectVersion
1070
     0
  0
VISUALSTYLE
  5
83DB
102
{ACAD_XDICTIONARY
360
87E2
102
}
102
{ACAD_REACTORS
330
83C6
102
}
330
83C6
100
AcDbVisualStyle
  2
Shaded
 70
    27
 71
     2
 72
     2
 73
     1
 90
        2
 40
-0.6
 41
30.0
 62
     5
 63
     7
 74
     0
 91
        4
 64
     7
 65
   257
 75
     1
175
     1
 42
1.0
 92
        8
 66
   257
 43
1.0
 76
     1
 77
     6
 78
     2
 67
     8
 79
     3
170
     0
171
     0
290
     0
174
     0
 93
        5
 44
0.0
173
     0
291
     0
 45
0.0
1001
ACAD
1000
AcDbSavedByObjectVersion
1070
     0
  0
VISUALSTYLE
  5
83DA
102
{ACAD_XDICTIONARY
360
87E0
102
}
102
{ACAD_REACTORS
330
83C6
102
}
330
83C6
100
AcDbVisualStyle
  2
Shaded with edges
 70
    26
 71
     2
 72
     2
 73
     1
 90
        2
 40
-0.6
 41
30.0
 62
     5
 63
     7
 74
     1
 91
       10
 64
     7
 65
   257
 75
     2
175
     1
 42
1.0
 92
        8
 66
   257
 43
1.0
 76
     1
 77
     6
 78
     2
 67
     7
 79
     3
170
     0
171
     0
290
     0
174
     0
 93
        5
 44
0.0
173
     0
291
     0
 45
0.0
1001
ACAD
1000
AcDbSavedByObjectVersion
1070
     0
  0
VISUALSTYLE
  5
83D7
102
{ACAD_XDICTIONARY
360
87DA
102
}
102
{ACAD_REACTORS
330
83C6
102
}
330
83C6
100
AcDbVisualStyle
  2
Shades of Gray
 70
    23
 71
     2
 72
     2
 73
     3
 90
        0
 40
-0.6
 41
-30.0
 62
     5
 63
     7
 74
     2
 91
        2
 64
     7
 65
     7
 75
     1
175
     1
 42
40.0
 92
        8
 66
     7
 43
1.0
 76
     1
 77
     6
 78
     2
 67
     7
 79
     3
170
     0
171
     0
290
     0
174
     0
 93
        1
 44
0.0
173
     0
291
     0
 45
0.0
1001
ACAD
1000
AcDbSavedByObjectVersion
1070
     0
  0
VISUALSTYLE
  5
83D8
102
{ACAD_XDICTIONARY
360
87DC
102
}
102
{ACAD_REACTORS
330
83C6
102
}
330
83C6
100
AcDbVisualStyle
  2
Sketchy
 70
    24
 71
     1
 72
     2
 73
     2
 90
        0
 40
-0.6
 41
-30.0
 62
     5
 63
     7
 74
     2
 91
        2
 64
     7
 65
     7
 75
     1
175
     1
 42
40.0
 92
       11
 66
     7
 43
1.0
 76
     1
 77
     6
 78
     2
 67
     7
 79
     6
170
     0
171
     0
290
     0
174
     0
 93
        1
 44
0.0
173
     0
291
     0
 45
0.0
1001
ACAD
1000
AcDbSavedByObjectVersion
1070
     0
  0
VISUALSTYLE
  5
83D3
102
{ACAD_XDICTIONARY
360
87D2
102
}
102
{ACAD_REACTORS
330
83C6
102
}
330
83C6
100
AcDbVisualStyle
  2
Thicken
 70
    13
 71
     2
 72
     2
 73
     0
 90
        0
 40
-0.6
 41
-30.0
 62
     5
 63
     7
 74
     1
 91
        4
 64
     7
 65
   257
 75
     1
175
     1
 42
1.0
 92
       12
 66
     7
 43
1.0
 76
     1
 77
     6
 78
     2
 67
     7
 79
     5
170
     0
171
     0
290
     0
174
     0
 93
        1
 44
0.0
173
     0
291
     1
 45
0.0
1001
ACAD
1000
AcDbSavedByObjectVersion
1070
     0
  0
VISUALSTYLE
  5
83CD
102
{ACAD_XDICTIONARY
360
87C6
102
}
102
{ACAD_REACTORS
330
83C6
102
}
330
83C6
100
AcDbVisualStyle
  2
Wireframe
 70
     5
 71
     0
 72
     2
 73
     0
 90
        0
 40
-0.6
 41
-30.0
 62
     5
 63
     7
 74
     1
 91
        4
 64
     7
 65
   257
 75
     1
175
     1
 42
1.0
 92
        0
 66
   257
 43
1.0
 76
     1
 77
     6
 78
     2
 67
     7
 79
     3
170
     0
171
     0
290
     0
174
     0
 93
        1
 44
0.0
173
     0
291
     0
 45
0.0
1001
ACAD
1000
AcDbSavedByObjectVersion
1070
     0
  0
VISUALSTYLE
  5
83D9
102
{ACAD_XDICTIONARY
360
87DE
102
}
102
{ACAD_REACTORS
330
83C6
102
}
330
83C6
100
AcDbVisualStyle
  2
X-Ray
 70
    25
 71
     2
 72
     2
 73
     1
 90
        1
 40
0.5
 41
-30.0
 62
     5
 63
     7
 74
     1
 91
        0
 64
     7
 65
   257
 75
     1
175
     1
 42
1.0
 92
        8
 66
     7
 43
1.0
 76
     1
 77
     6
 78
     2
 67
     7
 79
     3
170
     0
171
     0
290
     0
174
     0
 93
       13
 44
0.0
173
     0
291
     0
 45
0.0
1001
ACAD
1000
AcDbSavedByObjectVersion
1070
     0
  0
DICTIONARYVAR
  5
8463
102
{ACAD_REACTORS
330
845E
102
}
330
845E
100
DictionaryVariables
280
     0
  1
1:1
  0
DICTIONARYVAR
  5
8460
102
{ACAD_REACTORS
330
845E
102
}
330
845E
100
DictionaryVariables
280
     0
  1
STANDARD
  0
DICTIONARYVAR
  5
845F
102
{ACAD_REACTORS
330
845E
102
}
330
845E
100
DictionaryVariables
280
     0
  1
STANDARD
  0
DICTIONARYVAR
  5
8461
102
{ACAD_REACTORS
330
845E
102
}
330
845E
100
DictionaryVariables
280
     0
  1
Imperial24
  0
DICTIONARYVAR
  5
8462
102
{ACAD_REACTORS
330
845E
102
}
330
845E
100
DictionaryVariables
280
     0
  1
Imperial24
  0
DICTIONARYVAR
  5
8466
102
{ACAD_REACTORS
330
845E
102
}
330
845E
100
DictionaryVariables
280
     0
  1
1
  0
DICTIONARYVAR
  5
8465
102
{ACAD_REACTORS
330
845E
102
}
330
845E
100
DictionaryVariables
280
     0
  1
0
  0
DICTIONARYVAR
  5
8464
102
{ACAD_REACTORS
330
845E
102
}
330
845E
100
DictionaryVariables
280
     0
  1
127
  0
DICTIONARYVAR
  5
8467
102
{ACAD_REACTORS
330
845E
102
}
330
845E
100
DictionaryVariables
280
     0
  1
2
  0
DICTIONARY
  5
87EE
330
8407
100
AcDbDictionary
280
     1
281
     1
  3
ACAD_XREC_ROUNDTRIP
360
87EF
  0
DICTIONARY
  5
87F2
330
840F
100
AcDbDictionary
280
     1
281
     1
  3
ACAD_XREC_ROUNDTRIP
360
87F3
  0
DICTIONARY
  5
87F0
330
840B
100
AcDbDictionary
280
     1
281
     1
  3
ACAD_XREC_ROUNDTRIP
360
87F1
  0
DICTIONARY
  5
83B7
330
83B6
100
AcDbDictionary
280
     1
281
     1
  3
ACAD_XREC_ROUNDTRIP
360
87B8
  3
BUMPTILE
360
83B9
  3
DIFFUSETILE
360
83B8
  3
OPACITYTILE
360
83BC
  3
REFLECTIONTILE
360
83BB
  3
REFRACTIONTILE
360
83BD
  3
SPECULARTILE
360
83BA
  0
DICTIONARY
  5
83AF
330
83AE
100
AcDbDictionary
280
     1
281
     1
  3
ACAD_XREC_ROUNDTRIP
360
87B7
  3
BUMPTILE
360
83B1
  3
DIFFUSETILE
360
83B0
  3
OPACITYTILE
360
83B4
  3
REFLECTIONTILE
360
83B3
  3
REFRACTIONTILE
360
83B5
  3
SPECULARTILE
360
83B2
  0
DICTIONARY
  5
83BF
330
83BE
100
AcDbDictionary
280
     1
281
     1
  3
ACAD_XREC_ROUNDTRIP
360
87B9
  3
BUMPTILE
360
83C1
  3
DIFFUSETILE
360
83C0
  3
FBXASSET
360
8507
  3
OPACITYTILE
360
83C4
  3
REFLECTIONTILE
360
83C3
  3
REFRACTIONTILE
360
83C5
  3
SPECULARTILE
360
83C2
  0
DICTIONARY
  5
87EC
330
8405
100
AcDbDictionary
280
     1
281
     1
  3
ACAD_XREC_ROUNDTRIP
360
87ED
  0
DICTIONARY
  5
87B3
330
8401
100
AcDbDictionary
280
     1
281
     1
  3
ACAD_ROUNDTRIP_2008_TABLESTYLE_CELLSTYLEMAP
360
87B4
  3
ACAD_XREC_ROUNDTRIP
360
87EA
  0
DICTIONARY
  5
87C4
330
83CC
100
AcDbDictionary
280
     1
281
     1
  3
ACAD_XREC_ROUNDTRIP
360
87C5
  0
DICTIONARY
  5
87C2
330
83CB
100
AcDbDictionary
280
     1
281
     1
  3
ACAD_XREC_ROUNDTRIP
360
87C3
  0
DICTIONARY
  5
87D0
330
83D2
100
AcDbDictionary
280
     1
281
     1
  3
ACAD_XREC_ROUNDTRIP
360
87D1
  0
DICTIONARY
  5
87D8
330
83D6
100
AcDbDictionary
280
     1
281
     1
  3
ACAD_XREC_ROUNDTRIP
360
87D9
  0
DICTIONARY
  5
87CA
330
83CF
100
AcDbDictionary
280
     1
281
     1
  3
ACAD_XREC_ROUNDTRIP
360
87CB
  0
DICTIONARY
  5
87CE
330
83D1
100
AcDbDictionary
280
     1
281
     1
  3
ACAD_XREC_ROUNDTRIP
360
87CF
  0
DICTIONARY
  5
87E8
330
83DE
100
AcDbDictionary
280
     1
281
     1
  3
ACAD_XREC_ROUNDTRIP
360
87E9
  0
DICTIONARY
  5
87D6
330
83D5
100
AcDbDictionary
280
     1
281
     1
  3
ACAD_XREC_ROUNDTRIP
360
87D7
  0
DICTIONARY
  5
87BA
330
83C7
100
AcDbDictionary
280
     1
281
     1
  3
ACAD_XREC_ROUNDTRIP
360
87BB
  0
DICTIONARY
  5
87BC
330
83C8
100
AcDbDictionary
280
     1
281
     1
  3
ACAD_XREC_ROUNDTRIP
360
87BD
  0
DICTIONARY
  5
87BE
330
83C9
100
AcDbDictionary
280
     1
281
     1
  3
ACAD_XREC_ROUNDTRIP
360
87BF
  0
DICTIONARY
  5
87C0
330
83CA
100
AcDbDictionary
280
     1
281
     1
  3
ACAD_XREC_ROUNDTRIP
360
87C1
  0
DICTIONARY
  5
87C8
330
83CE
100
AcDbDictionary
280
     1
281
     1
  3
ACAD_XREC_ROUNDTRIP
360
87C9
  0
DICTIONARY
  5
87E4
330
83DC
100
AcDbDictionary
280
     1
281
     1
  3
ACAD_XREC_ROUNDTRIP
360
87E5
  0
DICTIONARY
  5
87D4
330
83D4
100
AcDbDictionary
280
     1
281
     1
  3
ACAD_XREC_ROUNDTRIP
360
87D5
  0
DICTIONARY
  5
87E6
330
83DD
100
AcDbDictionary
280
     1
281
     1
  3
ACAD_XREC_ROUNDTRIP
360
87E7
  0
DICTIONARY
  5
87CC
330
83D0
100
AcDbDictionary
280
     1
281
     1
  3
ACAD_XREC_ROUNDTRIP
360
87CD
  0
DICTIONARY
  5
87E2
330
83DB
100
AcDbDictionary
280
     1
281
     1
  3
ACAD_XREC_ROUNDTRIP
360
87E3
  0
DICTIONARY
  5
87E0
330
83DA
100
AcDbDictionary
280
     1
281
     1
  3
ACAD_XREC_ROUNDTRIP
360
87E1
  0
DICTIONARY
  5
87DA
330
83D7
100
AcDbDictionary
280
     1
281
     1
  3
ACAD_XREC_ROUNDTRIP
360
87DB
  0
DICTIONARY
  5
87DC
330
83D8
100
AcDbDictionary
280
     1
281
     1
  3
ACAD_XREC_ROUNDTRIP
360
87DD
  0
DICTIONARY
  5
87D2
330
83D3
100
AcDbDictionary
280
     1
281
     1
  3
ACAD_XREC_ROUNDTRIP
360
87D3
  0
DICTIONARY
  5
87C6
330
83CD
100
AcDbDictionary
280
     1
281
     1
  3
ACAD_XREC_ROUNDTRIP
360
87C7
  0
DICTIONARY
  5
87DE
330
83D9
100
AcDbDictionary
280
     1
281
     1
  3
ACAD_XREC_ROUNDTRIP
360
87DF
  0
XRECORD
  5
87EF
102
{ACAD_REACTORS
330
87EE
102
}
330
87EE
100
AcDbXrecord
280
     1
102
DISPLAYNAME
  1
Imperial24
102
FLAGS
 90
        0
  0
XRECORD
  5
87F3
102
{ACAD_REACTORS
330
87F2
102
}
330
87F2
100
AcDbXrecord
280
     1
102
SHADEPLOT
 70
     0
102
SHADEPLOTRESLEVEL
 70
     2
102
SHADEPLOTCUSTOMDPI
 70
   300
  0
XRECORD
  5
87F1
102
{ACAD_REACTORS
330
87F0
102
}
330
87F0
100
AcDbXrecord
280
     1
102
SHADEPLOT
 70
     0
102
SHADEPLOTRESLEVEL
 70
     2
102
SHADEPLOTCUSTOMDPI
 70
   300
  0
XRECORD
  5
87B8
102
{ACAD_REACTORS
330
83B7
102
}
330
83B7
100
AcDbXrecord
280
     1
102
MATERIAL
148
0.0
149
0.0
149
0.0
 93
        0
 94
      127
282
     0
 72
     0
 77
     0
171
     0
175
     0
179
     0
273
     0
  0
XRECORD
  5
83B9
102
{ACAD_REACTORS
330
83B7
102
}
330
83B7
100
AcDbXrecord
280
     1
270
     1
271
     1
  0
XRECORD
  5
83B8
102
{ACAD_REACTORS
330
83B7
102
}
330
83B7
100
AcDbXrecord
280
     1
270
     1
271
     1
  0
XRECORD
  5
83BC
102
{ACAD_REACTORS
330
83B7
102
}
330
83B7
100
AcDbXrecord
280
     1
270
     1
271
     1
  0
XRECORD
  5
83BB
102
{ACAD_REACTORS
330
83B7
102
}
330
83B7
100
AcDbXrecord
280
     1
270
     1
271
     1
  0
XRECORD
  5
83BD
102
{ACAD_REACTORS
330
83B7
102
}
330
83B7
100
AcDbXrecord
280
     1
270
     1
271
     1
  0
XRECORD
  5
83BA
102
{ACAD_REACTORS
330
83B7
102
}
330
83B7
100
AcDbXrecord
280
     1
270
     1
271
     1
  0
XRECORD
  5
87B7
102
{ACAD_REACTORS
330
83AF
102
}
330
83AF
100
AcDbXrecord
280
     1
102
MATERIAL
148
0.0
149
0.0
149
0.0
 93
        0
 94
      127
282
     0
 72
     0
 77
     0
171
     0
175
     0
179
     0
273
     0
  0
XRECORD
  5
83B1
102
{ACAD_REACTORS
330
83AF
102
}
330
83AF
100
AcDbXrecord
280
     1
270
     1
271
     1
  0
XRECORD
  5
83B0
102
{ACAD_REACTORS
330
83AF
102
}
330
83AF
100
AcDbXrecord
280
     1
270
     1
271
     1
  0
XRECORD
  5
83B4
102
{ACAD_REACTORS
330
83AF
102
}
330
83AF
100
AcDbXrecord
280
     1
270
     1
271
     1
  0
XRECORD
  5
83B3
102
{ACAD_REACTORS
330
83AF
102
}
330
83AF
100
AcDbXrecord
280
     1
270
     1
271
     1
  0
XRECORD
  5
83B5
102
{ACAD_REACTORS
330
83AF
102
}
330
83AF
100
AcDbXrecord
280
     1
270
     1
271
     1
  0
XRECORD
  5
83B2
102
{ACAD_REACTORS
330
83AF
102
}
330
83AF
100
AcDbXrecord
280
     1
270
     1
271
     1
  0
XRECORD
  5
87B9
102
{ACAD_REACTORS
330
83BF
102
}
330
83BF
100
AcDbXrecord
280
     1
102
MATERIAL
148
0.0
149
0.0
149
0.0
 93
        0
 94
      127
282
     0
 72
     0
 77
     0
171
     0
175
     0
179
     0
273
     0
  0
XRECORD
  5
83C1
102
{ACAD_REACTORS
330
83BF
102
}
330
83BF
100
AcDbXrecord
280
     1
270
     1
271
     1
  0
XRECORD
  5
83C0
102
{ACAD_REACTORS
330
83BF
102
}
330
83BF
100
AcDbXrecord
280
     1
270
     1
271
     1
  0
XRECORD
  5
8507
102
{ACAD_REACTORS
330
83BF
102
}
330
83BF
100
AcDbXrecord
280
     1
 70
     1
 90
1959938040
 71
     1
  1
F46F5617-C945-4E65-AD4A-7B49A6D30326
311
504B03041400060808002C928157AE219BEFC0000000200100004F00000037374432414543302D314230442D343138332D424342342D3137373546444545413534342F4173736574446174612F446566696E6974696F6E4974657261746F7250726F706572746965732E62696EEB606060F80F0540260323103700495E20ED
311
9E9A975A94991C9C9C919A9BC8C00612C9C94F4ACC6147C831019920AE4B6A5A62694E0948976F6671726A4E4E625E6A7E69B12042A9426E6209D0B8C41C3D90264E20860914834C48875806B2DF0F88414E02D189290556F689C5C5A925B6FA694915FA064E868E2ECEAE8EBA46A66616BA26CEE696BA8E66CECEBA96A6E6
311
46AE962E962606CE8EFA45A9C5F9A545C9A9C5FA46FA06F15093E30BF2D219183C6E9C9E3D0F6809C80D204C080000504B03041400060808002C928157EB01424DF0000000300200004500000037374432414543302D314230442D343138332D424342342D3137373546444545413534342F4173736574446174612F496E73
311
74616E636550726F706572746965732E62696EEB606060F80F0540260323103700495E20ED9E9A975A94991C9C9C919A9BA802147033317333353334D775B63431D535713533D575743171D4357732B17434733136303632634768046931363471713532B5D435353131D635313332D475727372D13534373670367376B674
311
74B5042A03DBCBA019D37FE8ABC6157B20CD04146B0062181F4C03F940F0C11EA29A8141C08141002C0426541C106CAC2CA046088033B02A030AC2157C6006F21A8018AAF50194E6010A610250382264E08660284CD9E98021862280A91564B406929A0FF62C401E28B6F88038B83CB1243943D7A928312F25350524131B1B
311
FB9F161800504B03041400060808002C92815728BB58AF800100009E0500003D00000037374432414543302D314230442D343138332D424342342D3137373546444545413534342F536368656D61732F436F6D6D6F6E536368656D612E786D6CBD544D4FC23018BEFB2B96DE15493C78601010A34B880709DEDFB52FD0D8B5
311
4BD70DF6EFED3AC0B12E6442E2716BFB3CEFF3D18E26FB440405EA8C2B1992E1C323095052C5B8DC842437EBFB673219DF8DA659866649B798C078B48AE6410122242F2A4994AC7F93815DF85C049C8564CA0A901499DD886B2EB9B1E02448F358701A9235880C49A0119892A20C89D1B9FD768815CAD268CB5E0355B40B1E
311
47F3E37A2020464BED06AA57CE8FCC20C3C3446D46761A2632A8C1283D07031EFF2AE7CCB1BFEEE916E406DFAC8E36FFD99A9D60A6944090EEDC3B670C7DC13DE86B6B2C5C240D6E503BB85ACD579D513F1B9F9A69DC9CC22AFA80C426D40AF0B21EA168559156B6276F0F726A6BFF04DCD513A87A62CAD41FB24FCB2858B3
311
952E3D852084DA25B9303C15687973CC8E8AAE11DF2836C38C6A9E765E8C1BA1BFB1DC29CDFE518C8B5A7655A4ED7E77291ABEB80DBD82EC866ADE1B8D05AF9E35CF09D7A061F38A986D9EC412B8F0F65E5D81534D9B231D1E5A8FE577A241F3A5FD01504B03041400060808002C9281572CCEBD668A040000E01200003E00
311
000037374432414543302D314230442D343138332D424342342D3137373546444545413534342F536368656D61732F47656E65726963536368656D612E786D6CD5586D6FDB380CFE7EBF42F0F7A649B70E1B90744856B4970F450FCD7A5F05459613EDE4174872DADCAF3F522F8ED3B88D2F1D06AC4050DBA2493EE4438AF2
311
F8EB73AEC8466823CB62928C06C384888297A92C5693A4B6D9D9E7E4EBD51FE3A931C22EF85AE4EC6AFC38BF261BA626C9AD288496DC3F4FCEAFC63366845F7A10452AF41DB320C0D44EC26EAB20918735565582695670811A6A49643A49A6E9069FA4604A64B29016DC4B48552F95E4932463CA888468C1D2B250DB496275
311
0DF7CE273069CE8363F1FF4EDB00E0A21999574AE4A2B00C353B93F3BD4777B8A61ED8F604ABFEDD79CE56A2B7BDFBDBC50996E0ADDE16FED26223C5D30956C29BDF4A55EA686E5E58B112DA45CE67F76F4FA27EFA3FB672FD7372FC388FAECDCA5209E693CAD167BADCD272F943701B3812F8A3D852008B1D2E32DB927B2F
311
833C6EA95879925356D254582695095A3CE982924720BE5774A3CB9CDCDB350427D2DF20DA1B5532EBE2D5D6288D75D4F7E4FD9890A0EF8E3D93EBB8F8BA4758158EF6FB90A6F9520281C93DE7AAC6D24607DA296BB96018123F821A7D6A5C5884050C475DA4865442732C8B95684A50165CBB3A32F25F783A4A480ED59AD7
311
F924B968AEA50131F46303223E6A397B0E52976030DC1DCA81D7E7C1EDEEA42C19FF27635C505E2BD5198A599020DF50A2330FCB3AAF28CB0124108429553EF1B228802E2265D8F7CC2401042B155BCC7070F1E5C55F13B4A9577362CCCE46C32174E010C3C378C44841A4BDA00FE3A12006CE11EE6AEC59894D3526DDE1CD
311
59D503ECC324017F8061B7F162162FA62EDD81AE3308617770796DCBDAD2B2625C5AE8A63DE20B2C8AA5E95E76E5730823955956E33E705425A2187C185D36489A1B44D3DCEC2172F6BA2105C3546287A7194B2331768EBBE64F6E70A9930ABE0ADEA89E9E2C38523B810287AD67A54A039C1606EAFE68F8304610BB9093DB
311
DDABC0B2AE4E290DCDA15376D7E39F72B556F0B32EAB5D3D498B4C41ABADEC3A1434C422D87E8025A84BDCB2B1417ED750FAE4DA8976863974C577C7F902D3F156AD354DEA3540DE6BEAE2BEA52F7A2EB4CA43802ECE5BF2CE2EDC9347179FFB023CE412E60BE16DA0BE29B374988A553F561DC04615DD35F7D2C8979F60E5
311
955CE93DF29DED8AFA1EE6642D53418086C03C47C377910F75F7E8F5EF665F70B60FFB22AEDF897D119E8423C773E819A3C1E55E550599EE6EDCA34D0C86FD72057DF2CD46F16A470682471C164E4346D5306BF12D7D12D82CFF673D41636C347443FEB51B50D72EA171A8E4A58623A4A16E0FA2B8B10A0D23268D87C33896
311
EE8FB73305A74BF224EDBADFA0BD674AB354D63DB7BD5D83426761C077DE767728235446A552754EB93B755891C3C4CC6CADE37CF0E912A7BB38DBA010F9DE1282EDF470CA69A9CDA482E334C4A6EA4107987980B17E72F31730EBF88BBD39E7C629F56797A3C0009C2C5AE7951D9A05A02773440F02EEB4DE396A3B6A570C
311
72CCFBCD823B0B8ED3F1D5CEDDFED772FA70236C83FB7D86C385D570B87107535572A60A96035F8F7C6A7192F13007246BBE0521855E6AC46F3E27689CEE7D186A6FD679D98CDCAD13333E04EBE7ED6F55FF01504B03041400060808002C9281576180134D5F0100006B0300004500000037374432414543302D314230442D
311
343138332D424342342D3137373546444545413534342F536368656D61732F52656E6465724D6174657269616C536368656D612E786D6CA5934D6FC2300C86EFFB1551EEE343DBA41D1A103009551ADAD40EAE28A4A68D9426284961FCFBE5A340113B2071746D3F765EBF4DC6BFB5407BD0862B49F0B037C0082453059725
311
C18DDD3EBFE3F1E829991803366715D474942CD30FB4A782E00C64017A412D684E454CE3FE28995203B162A6EA5AC94B66997D225E109CD63B0135484BAD1B3C07E9080CA35DB3119C11BCA5C200461A68A1A438126C75E3E230D40FF81FB3F03C91D1E3A3A0AF79FE28E25BC39EC3E17E4C2A2D94A0833A51AF55BCCA7D88
311
572FCBAC529C4140B020FC3AAFA886621DCED7EAD7664CC86024E806DC297DA1BB393E4156543457A4537DB8817349A70F8ACBF09B3EEE2CB2F33E91B65D60786E4E3B39B77E3FEEEF5650424525DA657FB8B46BE6BF064646F0A0F7327C0BC1BC1B4CBBC1C419FA3CCB23500007872A2580CAAE5461865565294E4EDB4617
311
B62FF579DF9A5B2F54E834076A597573A020912FED777F9B3F504B03041400060808002C928157FAFE1F2E51000000570000004700000037374432414543302D314230442D343138332D424342342D3137373546444545413534342F4173736574446174612F41737365745461626C654F66436F6E74656E74732E62696E53
311
6160607033317333353334D775B63431D535713533D575743171D4357732B174347331363036321302AACB4D2C492DCA4CCC492C28484D2C4ACC4B4E050A82012F90744FCD03CA26072767A4E6260200504B03041400060808002C928157F865834058000000680000004500000037374432414543302D314230442D343138
311
332D424342342D3137373546444545413534342F4173736574446174612F53747265616D56657273696F6E5461626C652E696E66558CBD0A80300C06F73E4B117FB66E451741D041DC5BF98480A492E4FDD18EAEC7DD4555D89EF28DF51A0B1BD8340C4DE7DD848B988C0ACF0649566493F2408C508DDEBB99D5129FF8F1AF
311
8CF5B9503E20FAE5A16B5AF702504B03041400060808002C928157DBED5F5C340100009A0400003600000037374432414543302D314230442D343138332D424342342D3137373546444545413534342F4173736574446174612F636E782E786D6CCD94314FC3301085FF4AE43D761290A82AC71582A51348540C6C57E752AC
311
3A76645F10FC7BEC3403A888A943D7F3BBF3F327BF939BCFC1161F18A2F1AE6535AF58814EFBCEB843CB26EACB152B364A06EFE9878C150E066C592E33250FC14FE352EAB087C9E6AA35EEB814EF6344DAC1DEE253FFE01DA1A3C80A6D21C69645FD8E037098C877188FBC03025EF380D14F41639A4466C065920E08841D53
311
4DD5DC94755356F5AE5EADEBBB7573FB2645562AB9F7DE2E7A932E0B7E2CF4E956A62A29F2B19253308B26BF85A9BF3CF2BD715224A592914262B274D0D7983A601CADD140099DF09A90CA244218A43889951499C12F128FD81B6772CB361903F2E139D9C34006AF8EC87F5E2F4F66EB2281D378BD3CCE1D5E9EC2CBFC835E
311
4F819C13736D393977C88DEB2F901231AF91149ABC55D437504B03041400060808002C9281573ADCC0DB070100004F0300003400000037374432414543302D314230442D343138332D424342342D3137373546444545413534342F536368656D61732F636E782E786D6CCD93314F04211484FF0AA13F5856132F17962B2CAC
311
6CD4CA0EE1DD490E781B608DFE7B61A5B84BECB4B80E862F646678C8FD67F0E403527618272AD840094483D6C5E3449772D86C29D92B9910CB194649D40126DA64AAE431E13277C9C2412FBEA9DEC55317EF31048CCFE61D82A6C4789DF344F3BA657A2968219F98D54533C112645C92817A437101FA0D26812E60A91A87F1
311
6623C6CD205EC47627EE76E3EDABE48D54F20DD177DEC502096762B02E62B53348DE8E955C92EB4CCB40D5B93756DB90BC124AE6926A079D2C5F7325F53C7B6774A955F115FC6194E42DEA45E00788909CB9CEC417E6FE2DF213440BE9B1BE5272DA5F67F2DF3CFEAD00BECE7E1D81F615D437504B03041400060808002C92
311
8157410A3D5871000000A40000002C00000037374432414543302D314230442D343138332D424342342D3137373546444545413534342F636E782E786D6C55CC4D0E82301086E1AB34B31774E7A22D31F1069E60020334B633A63FC6E34B0909B07DDE2F9FEE7EC1AB2FC5E4840DDC9A2B28E25E06C7938192C7CB1D546775
311
14C9871928C640062A83D55394F2D968A0118BAFEA1DBF377CA444F98919176EAB9FEAAB9F2960DA5BBB1E2ED3FA6FFF504B03041400060808002C928157B457A3007E000000A300000007000000636E782E786D6C4D8C410EC2201405AF42FE1E05A5A10BA02905EFD158DA105B30588CC7174C17AE5E327933A2FB6C2B7A
311
BBF4F23148A02702C8857B9C7C5824E47DC62DA04E8914E3FE770314C6CD49A818945852CCCF034D6E1EF35AE9EAC3E3809C9B4B6F0782A9260633DA5EB11E34C394F3E666ACED1BC68A71AE4A995FAF6CCDAB2F504B03041400060808002C92815716E99B5DA600000035010000130000005B436F6E74656E745F54797065
311
735D2E786D6C9590410E82301045AFD2740F4517C6180A0BF5065E60AC53688469D30E066F6F91AD9AB89CF9FFFD3F99BA9DC7413C3026E749CB4D59498164FCCD51A7E5C4B6D84BD136F5E5193089ECA5A465CF1C0E4A25D3E308A9F401292BD6C711388FB15301CC1D3A54DBAADA29E38991B8E0254336F5092D4C038BF3
311
9CD76B6FC6A538AEBEA54A4B08617006389FA516557DE4AE8E7E70DE30729138228C5F021CD93F02D4FB0DCD0B504B03041400060808002C9281573DEE336E64000000790000001B0000006175746F6465736B2D64657369676E2D7061636B6167652E786D6C35CBC10E83200C00D05F21DCA56CA76D41FC96062B120735B6
311
9A7DBE268BB7777961F8D5AF396893C2ADB70FE7ADA196782C2DF776D7A97B5933C430F15651E5469C55D70F80A4992A3ADC954792C525AE70A1E4D6AD9816CC044FEFDF01FE3FDE907802504B03041400060808002C9281576256872FF9000000960100003700000037374432414543302D314230442D343138332D424342
311
342D3137373546444545413534342F4173736574446174612F636F72652E786D6C8550CB6E833010FC15B47703765020917184787C414FBD59C6A156828DFCA8FAF9B50395DA534FBB9A9D99DD1D7AFB5A9FD9A7B44E19DD02CE4BC8A41666567A6921F83B6A20BB316A8DF1BF689069BECA16120C8C2ED684ED8084D15EEA
311
846A33CB03E4CE490F9978C6A605273EE4CA731E7C64B847BE71F1E08BCC71BEF3180D41CD8754CDD14DDD95B4C0FAEA328D63D7A0814C03AA9AAE475D3D7668AACE755F9D2F977A6C6891C48C7AB5FE6C1756722F6760A4242784092AF11B6EAEB8BE92EA9D1689C9A8F336FE7C2C4DDF01EBD2D503F79C16FBF48F6BD8E6
311
FF5D83D2FE440ED75DE180E178E46BC06891528AE51561AC2951F60D504B03041400060808002C92815774A72945F8000000940100003500000037374432414543302D314230442D343138332D424342342D3137373546444545413534342F536368656D61732F636F72652E786D6C8550CB6E833010FC15B47703765080C8
311
3842047EA03DF5668143AC041BF951F5F36B0395DA534FBB9A9D99DD1D7AFD5A5EC9A730566AD5004E7348841AF524D5DC80777754417265D468ED7ED120517C110D4418189D8DF6EB018D5A39A122AAF4240E905B2B1C24E32B340DD8F121169E72EF02C33ED3958F4F3E8B14A73B8F51EFE57448E514DCE45D0A03AC2BEA
311
A1EFDB0ADDC8704345D576A82DFB160DC5B9EC8A735D977D45B32866D4C9E567FB68047762024672724298A01CBFE3EA82CB0B293E6816998C5A67C2CFC7D2F81DB0B7ED4E4BB37DF6C7D3AFD3FF9E5E2A772287E7AEB0C07038711B309AC58C42D9020C35E6C9BE01504B03041400060808002C928157AC755AD601010000
311
D70100002D00000037374432414543302D314230442D343138332D424342342D3137373546444545413534342F636F72652E786D6C9591C16E842010865FC5CC1D15D4B8D9209B75B54FD0536F54665DB22B18C1A68F5FA8366D6FED09F2F3FD33FC33FCF43E3D92375C9CB6A6019AE690A019ACD2666C60F5577280E424F8
311
62ADFF814162E4840D4419041F17BBCEBB3458E3D144D55885BB289D430FC9F0089706DC70C349A672F58170F77496C35D8E98D274E304F77AFAB20E0B4A8F0A04CB59412823397DA68723AD8FAC7CE15924055FB5F105DB9BE1F48A2AB1B30F9140543CDB5E03B56AB5335A853FEAABC605445D77ECDC5F7242DBBC23253D
311
14A4BDB425A1755D3D757D7FAECA32140966C19D5FC264F62271067FB56FC65FC9D659FD33D9E67020E877A82C8E59F0EC7307E18C2B111F504B03041400060808002C9281579752495708010000B201000008000000636F72652E786D6C8D50C18E832014FC15F2EEA850536D8334C6EA17EC696FAC504BAA60049BDDBF5F
311
A86EB27BDBD32333F3DE0CC32E9FD3889E6A71DA9A0A48920152A6B7529BA182D5DF7009E8C2D962ADFF250364C4A42A883070362C769D77A8B7C62B135163A5DA41E19CF280FA313C2A70FD5D4D2211AB0F0AF74866D13FC4A012926C3ACEBC9E7E56FB4509AF24709AD103261467E48D9467529C69FECED2A8E46C5DB5DC
311
ADB40CEEFAA6D502BCC94F5DDBD625BED2EE8AF3B26E705DB435EEF263D1E4C7D3A9684B96C665CE9C5FC29FF72321A7474E3CA32F4B378AB30F6BC75D10424964CDF8053C636924FE845E67F98FD0DAF803DD0F6E1B0E3809815E44308E0D86F1AA37CCD836FF06504B010214001400060808002C928157AE219BEFC00000
311
00200100004F000000000000000000000000000000000037374432414543302D314230442D343138332D424342342D3137373546444545413534342F4173736574446174612F446566696E6974696F6E4974657261746F7250726F706572746965732E62696E504B010214001400060808002C928157EB01424DF000000030
311
02000045000000000000000000000000002D01000037374432414543302D314230442D343138332D424342342D3137373546444545413534342F4173736574446174612F496E7374616E636550726F706572746965732E62696E504B010214001400060808002C92815728BB58AF800100009E0500003D0000000000000000
311
00000000008002000037374432414543302D314230442D343138332D424342342D3137373546444545413534342F536368656D61732F436F6D6D6F6E536368656D612E786D6C504B010214001400060808002C9281572CCEBD668A040000E01200003E000000000000000000000000005B04000037374432414543302D3142
311
30442D343138332D424342342D3137373546444545413534342F536368656D61732F47656E65726963536368656D612E786D6C504B010214001400060808002C9281576180134D5F0100006B03000045000000000000000000000000004109000037374432414543302D314230442D343138332D424342342D313737354644
311
4545413534342F536368656D61732F52656E6465724D6174657269616C536368656D612E786D6C504B010214001400060808002C928157FAFE1F2E51000000570000004700000000000000000000000000030B000037374432414543302D314230442D343138332D424342342D3137373546444545413534342F4173736574
311
446174612F41737365745461626C654F66436F6E74656E74732E62696E504B010214001400060808002C928157F865834058000000680000004500000000000000000000000000B90B000037374432414543302D314230442D343138332D424342342D3137373546444545413534342F4173736574446174612F5374726561
311
6D56657273696F6E5461626C652E696E66504B010214001400060808002C928157DBED5F5C340100009A0400003600000000000000000000000000740C000037374432414543302D314230442D343138332D424342342D3137373546444545413534342F4173736574446174612F636E782E786D6C504B0102140014000608
311
08002C9281573ADCC0DB070100004F0300003400000000000000000000000000FC0D000037374432414543302D314230442D343138332D424342342D3137373546444545413534342F536368656D61732F636E782E786D6C504B010214001400060808002C928157410A3D5871000000A40000002C00000000000000000000
311
000000550F000037374432414543302D314230442D343138332D424342342D3137373546444545413534342F636E782E786D6C504B010214001400060808002C928157B457A3007E000000A3000000070000000000000000000000000010100000636E782E786D6C504B010214001400060808002C92815716E99B5DA60000
311
00350100001300000000000000000000000000B31000005B436F6E74656E745F54797065735D2E786D6C504B010214001400060808002C9281573DEE336E64000000790000001B000000000000000000000000008A1100006175746F6465736B2D64657369676E2D7061636B6167652E786D6C504B01021400140006080800
311
2C9281576256872FF90000009601000037000000000000000000000000002712000037374432414543302D314230442D343138332D424342342D3137373546444545413534342F4173736574446174612F636F72652E786D6C504B010214001400060808002C92815774A72945F80000009401000035000000000000000000
311
000000007513000037374432414543302D314230442D343138332D424342342D3137373546444545413534342F536368656D61732F636F72652E786D6C504B010214001400060808002C928157AC755AD601010000D70100002D00000000000000000000000000C014000037374432414543302D314230442D343138332D42
311
4342342D3137373546444545413534342F636F72652E786D6C504B010214001400060808002C9281579752495708010000B201000008000000000000000000000000000C160000636F72652E786D6C504B050600000000110011005A0600003A1700000000
310
504B03041400060808002C928157000000000000000000000000370000006662782F38444135373646422D414537302D344239412D423536432D3531443630373932324535392F617474726962757465732E62696E504B03041400060808002C928157000000000000000000000000350000006662782F3844413537364642
310
2D414537302D344239412D423536432D3531443630373932324535392F76657274696365732E62696E504B03041400060808002C928157F270F1330600000004000000360000006662782F38444135373646422D414537302D344239412D423536432D3531443630373932324535392F747269616E676C65732E62696E6366
310
60600000504B03041400060808002C92815751464CB48900000043010000360000006662782F38444135373646422D414537302D344239412D423536432D3531443630373932324535392F6469726563746F72792E786D6C9D8F310EC2300C45AF127987122606C71DD918B841D4B851A43646695A717C52A85029031293A5
310
A76FBF6FACEF7DA7264E43906840EF0FA03836E242F406C6DCEE4EA06AC22492573150D1F66C60C640E8938CB705396EEDD86DE9B5042FE27813D640EA63BB001C722AF6E55CB61E4863F58284D5D3F53DD715CE1C3985E63FD7F1B7EBDD617E9F1E504B03041400060808002C928157704A292936070000201C0000340000
310
006662782F38444135373646422D414537302D344239412D423536432D3531443630373932324535392F6F626A656374732E786D6CDD59596FDB3810FE2B84F665F74197AFC485E3C2B193C228D21635BAD837819629851B5D20A5C4D95FBF438A942559B6956E0B149B00B14293C3996FEED1ECFD3E8ED033619CA6C98DE1
310
5A8E8148E2A73B9A8437469107E6B581DECFD18CA5695EDB67A004C7E4C610CBC67C16B2B4C8D4D28E04B888DAABF7B77F21EE938418C88F30E73706F71F498C2D5CE4E98EF0276B87736C85C1DE72AD7263936CC870F6D8BA2AC38C2439B00AEB0950511CB8CD7F41247B3EB3C586C6B641BF6DC333DB6C297893519AF01C
310
27FE11572D3A837E5C0DDDD1EA6E309E9AE3D168688E2603D7BCBDBF5D99EED5D0594E96CBE9E26E6AA0F96C9BA651A5808C243BD0E2AB317767B6F8A6125FA1D0C5B79F2609F1159A5D1B7644D1A584B7316900EB4AD16A0A2965AD2D0C7B0A7F625B2F501A2C35D0D6C2E9CFBAF5A6DBBF0104DEC74A1927C2CA79CE40D7
310
0AFBD21F9C995DAE36F442398A714E18C5118AE89661060A82ADA5821A6484B70852486026B5A8E9D57905C3BEEC4B5D5C06451409FF35E6D2D33CF0479273C919FD87B003F7F5DB802790B6A0497EAD84CD5F3320319DD972B1FC6E38505F9640A220C221580B8829360D072DBC962216AC57C6FCE3FD76BF11F1A1FBF28C
310
A51961B9B03CE9CCCAEFB4066BA605C6D7039412D7A6EE0EA87C05E83F01F2152F68069A63743FDA8FB4EC0C273C48590CDA410E321DF8E320F178F434B3ABC373841AB1F214A6E0B63F08D386188DBB6B90CE67CF60F4291B2AE1363E8EC0A61F6822FC1C0C0545292C41BC0FB67B63BE86600A8B700A47203DFCCE6CF188
310
E0A3A403F1A6A5A1AEF0DB4351DA61DA7E76D0D507B01946FD4A550D194FE13BFE21F82E569B8F9B8205D8270FCAB15724A009CD21997633D400BDE1F2DFD69FA4471EC9D3D8E5C33D612A0247875E364A2F482A06581179B8548D5C79A0E0EE51841392165CAD77052A3F8D52E66D5FBDD2873BEFFA531B417919F8B7B080
310
CE6006D9DD673413A01873255E1509AD034E220E2A030C4BA57A5BEC3F09783D1F22D6F7F001568B599B6811671E8ED32211E1FBD8BCDBA2594347FEB8EE74E04C07D7D38916964BF2DA7B7468A89817F7C4383B71C9B2A12D153534E5D28F46102DBB24F0A1662A722FCDB04FF36E5B6809A13C14C03ECBF28E0641C121A8
310
77C2D2E2D81ABA63E4D4FE56979CE75E5DE2D11887C40BB0C8709DF73500AA886B093A9109A394739A102E2B94A3C8D542C5B120109476ABA9761821E55E4C72FC3DF627535ECBFC1809220F6AA95C54B397AD4F33A8B2E7298AA2724B134FCAFFEA711C675159A55DC2C01DB46EE8C455302DAE78067BF370EE393B228BEE
310
4BD4ABB8A0F1ED457DFADDE44FC0C3F04F87475F41A1F4861C7959B3AE3576A7E2E71A82CA64EC0EAFB4222E61A5AFCA450D12155035F9AFDE0BA1E163BF80D6EB1E4EA2C0A35154C45E990F7212430986F382F5F2D7C9D83952BE8A0B2D87A8DD14D0080AE4DE4153D61EBAFA00A964F1712A68D6AE01A168023D5A2F418E
310
A4E83461A90BD98F8AB6EBB2F6DF4EF53FC7CB7A9FF2445E5F52B6EBE4B45946E80A4C170C225CAA0C57D991A43C9FD59D2F968DCB651C469A888A6F6597A02C8491672A0613B203EAEC1FF80BCE7D08A41BF969DE8247ECC8EE505334C8A9318731874B35355DA7D63B1D0876227D340AAFB508A8314C1BB088B30FE221FA
310
8A41D550F9715B553576B9BE1689CD82C1CA818F33B43E7FD8B4A8C04AEFD35F0446E4A54541AD2E45217786D4B7F5A15E6D5150127D5B9F399E3F16F136C154644661167897BD7B2F7BC91B1B1A05DBB97517ABE5DDC21C8C27D7E6687935351730B230A7E3ABC1DD74351D39CB85CD084F0BE6136E0F6CC7D3B5539684DA
310
304AE8FA74143055B8DCFA697B6E2BF87FDC5144E9169FB2C55FB5A1A8CA3D5190B57CB16F43D119A8B76FABFEDDA340DD9DC4DE543997B3026DE0E7D31604239DEFFB97169AB4AE24BA79AE65C43726DE93DDCA4FCF318D80DE991F1A3BBA427E3316C3ECA9234BE9EE56C6B5FBD1E47E3C71AFCCE5743436477793B1B958
310
8D16E6D5ED68BA98AC86CE70706809552EEC9B577E8918AA99AD8DD1601ACCD388C2509EEC504852E88060EAD023BEB29870D9D94001A0D2B87E23D0E3F4733953CDF136D2A7FD470C83E94865E4C287A128741D37865A47BFC118544C22E570CA7A82C4A3ACDD4005A3370698404E21BF585B1867C9E1A1A4DE1A5782DA70
310
128A9EA93C55FD7F3826D0015B39C855EDE9838B92AC619D301CC8E47B028876BA20F97ED1353B08E7F0B82DF24A98C3C2411A05827E21500A0753BF2705EF1E02CF79B95C4BEE6940D26B327FD60E4AAA668E5928C7EB35BC17AB2FB6988CAF3FA32C2A42A1CE73F9BE41C9147546549443A81918861233C3A20F5FBEB3BF
310
B0145E31C5E89E8211A0DFF7D7933FEC651AC769522ED90BF5A20A6D1EE1B5D3CED6233F285C1C776CCBBA478DF5616EC5898577FC091640B58C8AD9680971C300AAF0543300AD11A10B38D6D8BF5E2195046A256CBD7415F0C8993E024712EF7284DBD437D40690E00BC05539A7AD1EF4C2CC6630049FFF0B504B03041400
310
060808002C928157281C8BDF3D01000046050000300000006662782F38444135373646422D414537302D344239412D423536432D3531443630373932324535392F636E782E786D6CCD94CF4A033110C65F25E4BE7F152C259B82079FC08378CB66A76B6C36599289D8B737A9D9AA48C543A1BD85C937F0FD663E866DDE274D
310
DEC079654D479BB2A6048CB483326347036E8B15251BCE9CB5F84D468911137434952967A3B361CEA501B622E854D5CAEC7251203AD507044F89D4C2FB8E7AF902932845403B80DF9583405136A5036F839310FB514D90FBA503813050DED6ED4DD1B445DD3C36AB7573B76E6F9F5995949CF5D6EAAC5706C1D999481B1F26
310
9AA95995BE390B4E654D22A0FCCB59D92BC3AAF8CF998F6ECD9875B89F936E9EB59202E3982A2B11B088221013AB3EC59C5589F707F5C3FDD3E2800CCA8144EBF6171A40736A004763654CC2FFF80FC2BFB16DFF1A712FB5ED93B0D9D6D95097B4FA18D7DFFB8F291266D4D717FAA3B1F3673E9E1254F2FA90175F6722AE0E
310
272F2E3D5D40FE01504B03041400060808002C9281573A8CFBDE7F000000A30000000B0000006662782F636E782E786D6C4D8CD10E822018465F85FDF794BA00D9008769EFE1121D0BA191B41E3F685E74F56D67DF39A2FB6C0EBD4D7CD9E025D4A70A90F1F7305BBF4A48FB825B409D123184FDEF06C84F9B91503028B1C6
310
909E079ACD322557A8B3FE71C076D084D15B8FF5C82A7CE9B9C63DA1574CEA81568C37CD487836CE45C9F3EBE52D79F505504B03041400060808002C928157A6D797065F0000008200000007000000636E782E786D6C4DCB3B0E80201045D1AD90E9FD7516806B51190811670C8A61F982B1B0BAC9C97B72CA7B1037C6D333
310
2918DA1E04D2CAC69353902EDB8C20262D23F3F59B81A079470595414B17391D1F19B4730A5583A7ED43BBE4025D9592775E5ADFFA01504B03041400060808002C9281574FEB6A7CA0000000F4000000130000005B436F6E74656E745F54797065735D2E786D6C7D8F4B0EC2300C44AF1279DFA6B0400835ED02B8011730C1
310
6D239A8F121795DB93D02D6269CFBC19BBED573B8B17C564BC53B0AB1B10E4B47F18372A5878A88E20FAAEBDBD032591BD2E299898C349CAA427B2986A1FC86565F0D122E7318E32A07EE24872DF3407A9BD63725C71C980AEBDD080CBCCE2BAE6F5D69B7110E7CD57AA146008B3D1C8F92C5954F993BB1BF787F39A89ABC4
310
91D09600F9FDA2FB00504B03041400060808002C9281573DEE336E64000000790000001B0000006175746F6465736B2D64657369676E2D7061636B6167652E786D6C35CBC10E83200C00D05F21DCA56CA76D41FC96062B120735B69A7DBE268BB7777961F8D5AF396893C2ADB70FE7ADA196782C2DF776D7A97B5933C430F1
310
5651E5469C55D70F80A4992A3ADC954792C525AE70A1E4D6AD9816CC044FEFDF01FE3FDE907802504B03041400060808002C928157C65A83C7F8000000960100003B0000006662782F38444135373646422D414537302D344239412D423536432D3531443630373932324535392F7265736F75726365732F636F72652E786D
310
6C8550CB6EC32010FC158B3B76C03471224C5437F217F4D41B828D831283C5A3EAE71762576A4F3D2D9A9D9965869FBFE647F5093E18677B44EA1DAAC02AA78D9D7A94E21577A83A0BEE9D8BBF68A8B272861E1518093E7997960D52CE46B005B54EC306CA1020A24A3DF2A34741DD6096B54C3133C2BD5EA4BACB096A52AF
310
3CC153327A931A9DDDCCD5804782D03D632D6378FFF27AC08C12828FC3A5C36CE82EE31B1DBB7138F2A688058F66FEB9AE3CC8081A09BAA32D2614EFC83BE94EE470A2EC8337852978883E67DE8E96744878082E79058137EBF68F6B5AF4FFAEC9D8D8D2CD7555849C237FF2B910BC292DE5F1AC30CFD2A8F806504B030414
310
00060808002C928157F793D248F3000000B1010000310000006662782F38444135373646422D414537302D344239412D423536432D3531443630373932324535392F636F72652E786D6C8D50CB6EC32010FC156BEFD886C48F4498C86ED22FE8A9378489831283C5A3EAE71762576A6F392D9A9D6166879EBEE747F625AD53
310
467780F31232A98519959E3A08FE8A5AC84E8C5A63FC1F1A649ACFB2830403A3933561D92061B4973AA1DA8C7203B973D243261EF1D181133739F39C071F19EE9E2F5CDCF924739CAF3C46BD9A7FA5C24AEEE5088C946487304125FEC0ED113747B2FFA44562321A821A372B3546777555D2026BCF7DD5D4EF03EA2F4D89F6
310
C3A1474355BFA10A9FEBB2391072A90EB44862469DB7F1E6ED9374DDABF255F82F7358C617322BED7764335C150E188E799E0B468B54601CCF76E34C65B31F504B03041400060808002C9281574E504E2153010000DD0200000C0000006662782F636F72652E786D6C8D52CB6EC32010FC158B3BB6213471234CD434CA17F4
310
D41BC1C445B1C1C260E5F30B7EC8CDA1696509A3D99DD99D11F4706F9B6490B657469700A53948A416A652BA2E8177575880E4C0A835C6FD680389E6AD2C418401A3B535BE9B2161B4933AA2DA54720679DF4B0712D1844B097AF1255B9E72EF42477F4B3B2E6EBC96294AA73E46BD57D54C5555505357252D60086F09D910
310
02B72F6F3B483042F0F5782A203916A7F33B3E17E7E32BCD229951A7DA65BAB0923B59018673BC8108C31C7DA0628F767B4C3E69163B19ED9D0D9EE7A1D11D60D7CB9D6613FEA0E7BBEA6F3DAFB4DBE0596F62F4C141586F2C309AC57CC26F0CEF31C33038E4E7F8A5592CDC023448E18C25A15219BF9606DE7819A4F364FC
310
68365583F228F09B0E7EA2F35C2304C5751D56E32E5C2FDEC5E98F3B75D2C2C1DD136D6CCB9B75B969C5F55C073D585AE8C234C6FE87BD585DC2CCE2C364DF504B03041400060808002C928157B89AD69C07010000B201000008000000636F72652E786D6C8D504B6EC32014BC0A628F6D304D9C0813D58D7282AEBAA386B8
310
2836587CA2F6F685984AEDAEAB8766E6BD19869D3E9719DC95F3DA9A1EE2AA814099D14A6DA61EC670451D0427CE9CB5E1970C022316D5C30C43CE2667E35AA0D19AA04C468D95AA80C27B152018E7F4E8A11F3FD4222A114352F85BB58AF1262655E16AD37116F4F2B33A3A258292909386B40813D4E057DC1DF1FE48E81B
310
ABB392B318B52C565A26777DD5CA418EC98ED29652B47B7ADE234A304687E1DC213A74E7CB0BB97497E1C0EABCCC990F2EFDB91C493903F0E29E7D59BD519CBD5B3B17410A258135F317E40DAB33F127745CE53F426B135A520E6E1B3E654E811E4432CE0DA6F1A837CDDC36FF06504B010214001400060808002C92815700
310
00000000000000000000003700000000000000000000000000000000006662782F38444135373646422D414537302D344239412D423536432D3531443630373932324535392F617474726962757465732E62696E504B010214001400060808002C928157000000000000000000000000350000000000000000000000000055
310
0000006662782F38444135373646422D414537302D344239412D423536432D3531443630373932324535392F76657274696365732E62696E504B010214001400060808002C928157F270F13306000000040000003600000000000000000000000000A80000006662782F38444135373646422D414537302D344239412D4235
310
36432D3531443630373932324535392F747269616E676C65732E62696E504B010214001400060808002C92815751464CB489000000430100003600000000000000000000000000020100006662782F38444135373646422D414537302D344239412D423536432D3531443630373932324535392F6469726563746F72792E78
310
6D6C504B010214001400060808002C928157704A292936070000201C00003400000000000000000000000000DF0100006662782F38444135373646422D414537302D344239412D423536432D3531443630373932324535392F6F626A656374732E786D6C504B010214001400060808002C928157281C8BDF3D010000460500
310
003000000000000000000000000000670900006662782F38444135373646422D414537302D344239412D423536432D3531443630373932324535392F636E782E786D6C504B010214001400060808002C9281573A8CFBDE7F000000A30000000B00000000000000000000000000F20A00006662782F636E782E786D6C504B01
310
0214001400060808002C928157A6D797065F0000008200000007000000000000000000000000009A0B0000636E782E786D6C504B010214001400060808002C9281574FEB6A7CA0000000F400000013000000000000000000000000001E0C00005B436F6E74656E745F54797065735D2E786D6C504B01021400140006080800
310
2C9281573DEE336E64000000790000001B00000000000000000000000000EF0C00006175746F6465736B2D64657369676E2D7061636B6167652E786D6C504B010214001400060808002C928157C65A83C7F8000000960100003B000000000000000000000000008C0D00006662782F38444135373646422D414537302D3442
310
39412D423536432D3531443630373932324535392F7265736F75726365732F636F72652E786D6C504B010214001400060808002C928157F793D248F3000000B10100003100000000000000000000000000DD0E00006662782F38444135373646422D414537302D344239412D423536432D3531443630373932324535392F63
310
6F72652E786D6C504B010214001400060808002C9281574E504E2153010000DD0200000C000000000000000000000000001F1000006662782F636F72652E786D6C504B010214001400060808002C928157B89AD69C07010000B201000008000000000000000000000000009C110000636F72652E786D6C504B050600000000
310
0E000E0080040000C91200000000
  0
XRECORD
  5
83C4
102
{ACAD_REACTORS
330
83BF
102
}
330
83BF
100
AcDbXrecord
280
     1
270
     1
271
     1
  0
XRECORD
  5
83C3
102
{ACAD_REACTORS
330
83BF
102
}
330
83BF
100
AcDbXrecord
280
     1
270
     1
271
     1
  0
XRECORD
  5
83C5
102
{ACAD_REACTORS
330
83BF
102
}
330
83BF
100
AcDbXrecord
280
     1
270
     1
271
     1
  0
XRECORD
  5
83C2
102
{ACAD_REACTORS
330
83BF
102
}
330
83BF
100
AcDbXrecord
280
     1
270
     1
271
     1
  0
XRECORD
  5
87ED
102
{ACAD_REACTORS
330
87EC
102
}
330
87EC
100
AcDbXrecord
280
     1
102
DISPLAYNAME
  1
Imperial24
102
FLAGS
 90
        0
  0
CELLSTYLEMAP
  5
87B4
102
{ACAD_REACTORS
330
87B3
102
}
330
87B3
100
AcDbCellStyleMap
 90
        3
300
CELLSTYLE
  1
TABLEFORMAT_BEGIN
 90
        5
170
     1
 91
        0
 92
    32768
 62
   257
 93
        1
300
CONTENTFORMAT
  1
CONTENTFORMAT_BEGIN
 90
        0
 91
        0
 92
      512
 93
        0
300

 40
0.0
140
1.0
 94
        5
 62
     0
340
83F2
144
0.25
309
CONTENTFORMAT_END
171
     0
 94
        0
309
TABLEFORMAT_END
  1
CELLSTYLE_BEGIN
 90
        1
 91
        1
300
_TITLE
309
CELLSTYLE_END
300
CELLSTYLE
  1
TABLEFORMAT_BEGIN
 90
        5
170
     1
 91
        0
 92
        0
 62
   257
 93
        1
300
CONTENTFORMAT
  1
CONTENTFORMAT_BEGIN
 90
        0
 91
        0
 92
      512
 93
        0
300

 40
0.0
140
1.0
 94
        5
 62
     0
340
83F2
144
0.18
309
CONTENTFORMAT_END
171
     0
 94
        0
309
TABLEFORMAT_END
  1
CELLSTYLE_BEGIN
 90
        2
 91
        1
300
_HEADER
309
CELLSTYLE_END
300
CELLSTYLE
  1
TABLEFORMAT_BEGIN
 90
        5
170
     1
 91
        0
 92
        0
 62
   257
 93
        1
300
CONTENTFORMAT
  1
CONTENTFORMAT_BEGIN
 90
        0
 91
        0
 92
      512
 93
        0
300

 40
0.0
140
1.0
 94
        2
 62
     0
340
83F2
144
0.18
309
CONTENTFORMAT_END
171
     0
 94
        0
309
TABLEFORMAT_END
  1
CELLSTYLE_BEGIN
 90
        3
 91
        2
300
_DATA
309
CELLSTYLE_END
  0
XRECORD
  5
87EA
102
{ACAD_REACTORS
330
87B3
102
}
330
87B3
100
AcDbXrecord
280
     1
102
ACAD_ROUNDTRIP_PRE2007_TABLESTYLE
 90
      512
 91
        0
  1

 92
      512
 93
        0
  2

 94
      512
 95
        0
  3

  0
XRECORD
  5
87C5
102
{ACAD_REACTORS
330
87C4
102
}
330
87C4
100
AcDbXrecord
280
     1
102
RTVSPost2010Prop28
280
     1
102
RTVSPost2010PropOp28
 70
     1
102
RTVSPost2010Prop29
280
     1
102
RTVSPost2010PropOp29
 70
     1
102
RTVSPost2010Prop30
280
     0
102
RTVSPost2010PropOp30
 70
     1
102
RTVSPost2010Prop31
280
     0
102
RTVSPost2010PropOp31
 70
     1
102
RTVSPost2010Prop32
280
     0
102
RTVSPost2010PropOp32
 70
     1
102
RTVSPost2010Prop33
280
     0
102
RTVSPost2010PropOp33
 70
     1
102
RTVSPost2010Prop34
280
     0
102
RTVSPost2010PropOp34
 70
     1
102
RTVSPost2010Prop35
280
     0
102
RTVSPost2010PropOp35
 70
     1
102
RTVSPost2010Prop36
280
     0
102
RTVSPost2010PropOp36
 70
     1
102
RTVSPost2010Prop37
 90
       50
102
RTVSPost2010PropOp37
 70
     1
102
RTVSPost2010Prop38
140
0.0
102
RTVSPost2010PropOp38
 70
     1
102
RTVSPost2010Prop39
140
1.0
102
RTVSPost2010PropOp39
 70
     1
102
RTVSPost2010Prop40
 90
        0
102
RTVSPost2010PropOp40
 70
     1
102
RTVSPost2010Prop41ColorIndex
 90
       18
102
RTVSPost2010Prop41ColorRGB
 90
        0
102
RTVSPost2010PropOp41
 70
     1
102
RTVSPost2010Prop42
 90
       50
102
RTVSPost2010PropOp42
 70
     1
102
RTVSPost2010Prop43
 90
        3
102
RTVSPost2010PropOp43
 70
     1
102
RTVSPost2010Prop44ColorIndex
 90
        5
102
RTVSPost2010Prop44ColorRGB
 90
      255
102
RTVSPost2010PropOp44
 70
     1
102
RTVSPost2010Prop45
280
     0
102
RTVSPost2010PropOp45
 70
     1
102
RTVSPost2010Prop46
 90
       50
102
RTVSPost2010PropOp46
 70
     1
102
RTVSPost2010Prop47
 90
       50
102
RTVSPost2010PropOp47
 70
     1
102
RTVSPost2010Prop48
 90
       50
102
RTVSPost2010PropOp48
 70
     1
102
RTVSPost2010Prop49
280
     0
102
RTVSPost2010PropOp49
 70
     1
102
RTVSPost2010Prop50
 90
       50
102
RTVSPost2010PropOp50
 70
     1
102
RTVSPost2010Prop51ColorIndex
 90
      256
102
RTVSPost2010Prop51ColorRGB
 90
-16777216
102
RTVSPost2010PropOp51
 70
     0
102
RTVSPost2010Prop52
140
1.0
102
RTVSPost2010PropOp52
 70
     0
102
RTVSPost2010Prop53
 90
        2
102
RTVSPost2010PropOp53
 70
     1
102
RTVSPost2010Prop54
  1
strokes_ogs.tif
102
RTVSPost2010PropOp54
 70
     1
102
RTVSPost2010Prop55
280
     0
102
RTVSPost2010PropOp55
 70
     1
102
RTVSPost2010Prop56
140
1.0
102
RTVSPost2010PropOp56
 70
     1
102
RTVSPost2010Prop57
140
1.0
102
RTVSPost2010PropOp57
 70
     1
102
RTVSPropertyOp0
 70
     1
102
RTVSPropertyOp1
 70
     1
102
RTVSPropertyOp2
 70
     1
102
RTVSPropertyOp3
 70
     1
102
RTVSPropertyOp4
 70
     1
102
RTVSPropertyOp5
 70
     1
102
RTVSPropertyOp6
 70
     1
102
RTVSPropertyOp7
 70
     1
102
RTVSPropertyOp8
 70
     1
102
RTVSPropertyOp9
 70
     1
102
RTVSPropertyOp10
 70
     1
102
RTVSPropertyOp11
 70
     1
102
RTVSPropertyOp12
 70
     1
102
RTVSPropertyOp13
 70
     1
102
RTVSPropertyOp14
 70
     1
102
RTVSPropertyOp15
 70
     1
102
RTVSPropertyOp16
 70
     1
102
RTVSPropertyOp17
 70
     1
102
RTVSPropertyOp18
 70
     1
102
RTVSPropertyOp19
 70
     1
102
RTVSPropertyOp20
 70
     1
102
RTVSPropertyOp21
 70
     1
102
RTVSPropertyOp22
 70
     1
102
RTVSPropertyOp23
 70
     1
102
RTVSPropertyOp24
 70
     1
102
RTVSPropertyOp25
 70
     1
102
RTVSPropertyOp26
 70
     1
102
RTVSPropertyOp27
 70
     1
102
RTVSPropertyOp28
 70
     1
102
RTVSPropertyOp29
 70
     1
102
RTVSPropertyOp30
 70
     1
102
RTVSPropertyOp31
 70
     1
102
RTVSPropertyOp32
 70
     1
102
RTVSPropertyOp33
 70
     1
102
RTVSPropertyOp34
 70
     1
102
RTVSPropertyOp35
 70
     1
102
RTVSPropertyOp36
 70
     1
102
RTVSPropertyOp37
 70
     1
102
RTVSPropertyOp38
 70
     1
102
RTVSPropertyOp39
 70
     1
102
RTVSPropertyOp40
 70
     1
102
RTVSPropertyOp41
 70
     1
102
RTVSPropertyOp42
 70
     1
102
RTVSPropertyOp43
 70
     1
102
RTVSPropertyOp44
 70
     1
102
RTVSPropertyOp45
 70
     1
102
RTVSPropertyOp46
 70
     1
102
RTVSPropertyOp47
 70
     1
102
RTVSPropertyOp48
 70
     1
102
RTVSPropertyOp49
 70
     1
102
RTVSPropertyOp50
 70
     1
102
RTVSPropertyOp51
 70
     0
102
RTVSPropertyOp52
 70
     0
102
RTVSPropertyOp53
 70
     1
102
RTVSPropertyOp54
 70
     1
102
RTVSPropertyOp55
 70
     1
102
RTVSPropertyOp56
 70
     1
102
RTVSPropertyOp57
 70
     1
102
RTVSPropertyOp58
 70
     1
102
RTVSPropertyOp59
 70
     1
102
RTVSPropertyOp60
 70
     1
102
RTVSPropertyOp61
 70
     1
102
RTVSPropertyOp62
 70
     1
  0
XRECORD
  5
87C3
102
{ACAD_REACTORS
330
87C2
102
}
330
87C2
100
AcDbXrecord
280
     1
102
RTVSPost2010Prop28
280
     0
102
RTVSPost2010PropOp28
 70
     1
102
RTVSPost2010Prop29
280
     1
102
RTVSPost2010PropOp29
 70
     1
102
RTVSPost2010Prop30
280
     1
102
RTVSPost2010PropOp30
 70
     1
102
RTVSPost2010Prop31
280
     0
102
RTVSPost2010PropOp31
 70
     1
102
RTVSPost2010Prop32
280
     0
102
RTVSPost2010PropOp32
 70
     1
102
RTVSPost2010Prop33
280
     0
102
RTVSPost2010PropOp33
 70
     1
102
RTVSPost2010Prop34
280
     0
102
RTVSPost2010PropOp34
 70
     1
102
RTVSPost2010Prop35
280
     0
102
RTVSPost2010PropOp35
 70
     1
102
RTVSPost2010Prop36
280
     0
102
RTVSPost2010PropOp36
 70
     1
102
RTVSPost2010Prop37
 90
       50
102
RTVSPost2010PropOp37
 70
     1
102
RTVSPost2010Prop38
140
0.0
102
RTVSPost2010PropOp38
 70
     1
102
RTVSPost2010Prop39
140
1.0
102
RTVSPost2010PropOp39
 70
     1
102
RTVSPost2010Prop40
 90
        0
102
RTVSPost2010PropOp40
 70
     1
102
RTVSPost2010Prop41ColorIndex
 90
       18
102
RTVSPost2010Prop41ColorRGB
 90
        0
102
RTVSPost2010PropOp41
 70
     1
102
RTVSPost2010Prop42
 90
       50
102
RTVSPost2010PropOp42
 70
     1
102
RTVSPost2010Prop43
 90
        3
102
RTVSPost2010PropOp43
 70
     1
102
RTVSPost2010Prop44ColorIndex
 90
        5
102
RTVSPost2010Prop44ColorRGB
 90
      255
102
RTVSPost2010PropOp44
 70
     1
102
RTVSPost2010Prop45
280
     0
102
RTVSPost2010PropOp45
 70
     1
102
RTVSPost2010Prop46
 90
       50
102
RTVSPost2010PropOp46
 70
     1
102
RTVSPost2010Prop47
 90
       50
102
RTVSPost2010PropOp47
 70
     1
102
RTVSPost2010Prop48
 90
       50
102
RTVSPost2010PropOp48
 70
     1
102
RTVSPost2010Prop49
280
     0
102
RTVSPost2010PropOp49
 70
     1
102
RTVSPost2010Prop50
 90
       50
102
RTVSPost2010PropOp50
 70
     1
102
RTVSPost2010Prop51ColorIndex
 90
      256
102
RTVSPost2010Prop51ColorRGB
 90
-16777216
102
RTVSPost2010PropOp51
 70
     0
102
RTVSPost2010Prop52
140
1.0
102
RTVSPost2010PropOp52
 70
     0
102
RTVSPost2010Prop53
 90
        2
102
RTVSPost2010PropOp53
 70
     1
102
RTVSPost2010Prop54
  1
strokes_ogs.tif
102
RTVSPost2010PropOp54
 70
     1
102
RTVSPost2010Prop55
280
     0
102
RTVSPost2010PropOp55
 70
     1
102
RTVSPost2010Prop56
140
1.0
102
RTVSPost2010PropOp56
 70
     1
102
RTVSPost2010Prop57
140
1.0
102
RTVSPost2010PropOp57
 70
     1
102
RTVSPropertyOp0
 70
     1
102
RTVSPropertyOp1
 70
     1
102
RTVSPropertyOp2
 70
     1
102
RTVSPropertyOp3
 70
     1
102
RTVSPropertyOp4
 70
     1
102
RTVSPropertyOp5
 70
     1
102
RTVSPropertyOp6
 70
     1
102
RTVSPropertyOp7
 70
     1
102
RTVSPropertyOp8
 70
     1
102
RTVSPropertyOp9
 70
     1
102
RTVSPropertyOp10
 70
     1
102
RTVSPropertyOp11
 70
     1
102
RTVSPropertyOp12
 70
     1
102
RTVSPropertyOp13
 70
     1
102
RTVSPropertyOp14
 70
     1
102
RTVSPropertyOp15
 70
     1
102
RTVSPropertyOp16
 70
     1
102
RTVSPropertyOp17
 70
     1
102
RTVSPropertyOp18
 70
     1
102
RTVSPropertyOp19
 70
     1
102
RTVSPropertyOp20
 70
     1
102
RTVSPropertyOp21
 70
     1
102
RTVSPropertyOp22
 70
     1
102
RTVSPropertyOp23
 70
     1
102
RTVSPropertyOp24
 70
     1
102
RTVSPropertyOp25
 70
     1
102
RTVSPropertyOp26
 70
     1
102
RTVSPropertyOp27
 70
     1
102
RTVSPropertyOp28
 70
     1
102
RTVSPropertyOp29
 70
     1
102
RTVSPropertyOp30
 70
     1
102
RTVSPropertyOp31
 70
     1
102
RTVSPropertyOp32
 70
     1
102
RTVSPropertyOp33
 70
     1
102
RTVSPropertyOp34
 70
     1
102
RTVSPropertyOp35
 70
     1
102
RTVSPropertyOp36
 70
     1
102
RTVSPropertyOp37
 70
     1
102
RTVSPropertyOp38
 70
     1
102
RTVSPropertyOp39
 70
     1
102
RTVSPropertyOp40
 70
     1
102
RTVSPropertyOp41
 70
     1
102
RTVSPropertyOp42
 70
     1
102
RTVSPropertyOp43
 70
     1
102
RTVSPropertyOp44
 70
     1
102
RTVSPropertyOp45
 70
     1
102
RTVSPropertyOp46
 70
     1
102
RTVSPropertyOp47
 70
     1
102
RTVSPropertyOp48
 70
     1
102
RTVSPropertyOp49
 70
     1
102
RTVSPropertyOp50
 70
     1
102
RTVSPropertyOp51
 70
     0
102
RTVSPropertyOp52
 70
     0
102
RTVSPropertyOp53
 70
     1
102
RTVSPropertyOp54
 70
     1
102
RTVSPropertyOp55
 70
     1
102
RTVSPropertyOp56
 70
     1
102
RTVSPropertyOp57
 70
     1
102
RTVSPropertyOp58
 70
     1
102
RTVSPropertyOp59
 70
     1
102
RTVSPropertyOp60
 70
     1
102
RTVSPropertyOp61
 70
     1
102
RTVSPropertyOp62
 70
     1
  0
XRECORD
  5
87D1
102
{ACAD_REACTORS
330
87D0
102
}
330
87D0
100
AcDbXrecord
280
     1
102
RTVSPost2010Prop28
280
     0
102
RTVSPost2010PropOp28
 70
     1
102
RTVSPost2010Prop29
280
     1
102
RTVSPost2010PropOp29
 70
     1
102
RTVSPost2010Prop30
280
     1
102
RTVSPost2010PropOp30
 70
     1
102
RTVSPost2010Prop31
280
     0
102
RTVSPost2010PropOp31
 70
     1
102
RTVSPost2010Prop32
280
     0
102
RTVSPost2010PropOp32
 70
     1
102
RTVSPost2010Prop33
280
     0
102
RTVSPost2010PropOp33
 70
     1
102
RTVSPost2010Prop34
280
     0
102
RTVSPost2010PropOp34
 70
     1
102
RTVSPost2010Prop35
280
     0
102
RTVSPost2010PropOp35
 70
     1
102
RTVSPost2010Prop36
280
     0
102
RTVSPost2010PropOp36
 70
     1
102
RTVSPost2010Prop37
 90
       50
102
RTVSPost2010PropOp37
 70
     1
102
RTVSPost2010Prop38
140
0.0
102
RTVSPost2010PropOp38
 70
     1
102
RTVSPost2010Prop39
140
1.0
102
RTVSPost2010PropOp39
 70
     1
102
RTVSPost2010Prop40
 90
        0
102
RTVSPost2010PropOp40
 70
     1
102
RTVSPost2010Prop41ColorIndex
 90
       18
102
RTVSPost2010Prop41ColorRGB
 90
        0
102
RTVSPost2010PropOp41
 70
     1
102
RTVSPost2010Prop42
 90
       50
102
RTVSPost2010PropOp42
 70
     1
102
RTVSPost2010Prop43
 90
        3
102
RTVSPost2010PropOp43
 70
     1
102
RTVSPost2010Prop44ColorIndex
 90
        5
102
RTVSPost2010Prop44ColorRGB
 90
      255
102
RTVSPost2010PropOp44
 70
     1
102
RTVSPost2010Prop45
280
     0
102
RTVSPost2010PropOp45
 70
     1
102
RTVSPost2010Prop46
 90
       50
102
RTVSPost2010PropOp46
 70
     1
102
RTVSPost2010Prop47
 90
       50
102
RTVSPost2010PropOp47
 70
     1
102
RTVSPost2010Prop48
 90
       50
102
RTVSPost2010PropOp48
 70
     1
102
RTVSPost2010Prop49
280
     0
102
RTVSPost2010PropOp49
 70
     1
102
RTVSPost2010Prop50
 90
       50
102
RTVSPost2010PropOp50
 70
     1
102
RTVSPost2010Prop51ColorIndex
 90
      256
102
RTVSPost2010Prop51ColorRGB
 90
-16777216
102
RTVSPost2010PropOp51
 70
     0
102
RTVSPost2010Prop52
140
1.0
102
RTVSPost2010PropOp52
 70
     0
102
RTVSPost2010Prop53
 90
        2
102
RTVSPost2010PropOp53
 70
     1
102
RTVSPost2010Prop54
  1
strokes_ogs.tif
102
RTVSPost2010PropOp54
 70
     1
102
RTVSPost2010Prop55
280
     0
102
RTVSPost2010PropOp55
 70
     1
102
RTVSPost2010Prop56
140
1.0
102
RTVSPost2010PropOp56
 70
     1
102
RTVSPost2010Prop57
140
1.0
102
RTVSPost2010PropOp57
 70
     1
102
RTVSPropertyOp0
 70
     1
102
RTVSPropertyOp1
 70
     1
102
RTVSPropertyOp2
 70
     1
102
RTVSPropertyOp3
 70
     1
102
RTVSPropertyOp4
 70
     1
102
RTVSPropertyOp5
 70
     1
102
RTVSPropertyOp6
 70
     1
102
RTVSPropertyOp7
 70
     1
102
RTVSPropertyOp8
 70
     1
102
RTVSPropertyOp9
 70
     1
102
RTVSPropertyOp10
 70
     1
102
RTVSPropertyOp11
 70
     1
102
RTVSPropertyOp12
 70
     1
102
RTVSPropertyOp13
 70
     1
102
RTVSPropertyOp14
 70
     1
102
RTVSPropertyOp15
 70
     1
102
RTVSPropertyOp16
 70
     1
102
RTVSPropertyOp17
 70
     1
102
RTVSPropertyOp18
 70
     1
102
RTVSPropertyOp19
 70
     1
102
RTVSPropertyOp20
 70
     1
102
RTVSPropertyOp21
 70
     1
102
RTVSPropertyOp22
 70
     1
102
RTVSPropertyOp23
 70
     1
102
RTVSPropertyOp24
 70
     1
102
RTVSPropertyOp25
 70
     1
102
RTVSPropertyOp26
 70
     1
102
RTVSPropertyOp27
 70
     1
102
RTVSPropertyOp28
 70
     1
102
RTVSPropertyOp29
 70
     1
102
RTVSPropertyOp30
 70
     1
102
RTVSPropertyOp31
 70
     1
102
RTVSPropertyOp32
 70
     1
102
RTVSPropertyOp33
 70
     1
102
RTVSPropertyOp34
 70
     1
102
RTVSPropertyOp35
 70
     1
102
RTVSPropertyOp36
 70
     1
102
RTVSPropertyOp37
 70
     1
102
RTVSPropertyOp38
 70
     1
102
RTVSPropertyOp39
 70
     1
102
RTVSPropertyOp40
 70
     1
102
RTVSPropertyOp41
 70
     1
102
RTVSPropertyOp42
 70
     1
102
RTVSPropertyOp43
 70
     1
102
RTVSPropertyOp44
 70
     1
102
RTVSPropertyOp45
 70
     1
102
RTVSPropertyOp46
 70
     1
102
RTVSPropertyOp47
 70
     1
102
RTVSPropertyOp48
 70
     1
102
RTVSPropertyOp49
 70
     1
102
RTVSPropertyOp50
 70
     1
102
RTVSPropertyOp51
 70
     0
102
RTVSPropertyOp52
 70
     0
102
RTVSPropertyOp53
 70
     1
102
RTVSPropertyOp54
 70
     1
102
RTVSPropertyOp55
 70
     1
102
RTVSPropertyOp56
 70
     1
102
RTVSPropertyOp57
 70
     1
102
RTVSPropertyOp58
 70
     1
102
RTVSPropertyOp59
 70
     1
102
RTVSPropertyOp60
 70
     1
102
RTVSPropertyOp61
 70
     1
102
RTVSPropertyOp62
 70
     1
  0
XRECORD
  5
87D9
102
{ACAD_REACTORS
330
87D8
102
}
330
87D8
100
AcDbXrecord
280
     1
102
RTVSPost2010Prop28
280
     0
102
RTVSPost2010PropOp28
 70
     1
102
RTVSPost2010Prop29
280
     1
102
RTVSPost2010PropOp29
 70
     1
102
RTVSPost2010Prop30
280
     1
102
RTVSPost2010PropOp30
 70
     1
102
RTVSPost2010Prop31
280
     0
102
RTVSPost2010PropOp31
 70
     1
102
RTVSPost2010Prop32
280
     0
102
RTVSPost2010PropOp32
 70
     1
102
RTVSPost2010Prop33
280
     0
102
RTVSPost2010PropOp33
 70
     1
102
RTVSPost2010Prop34
280
     0
102
RTVSPost2010PropOp34
 70
     1
102
RTVSPost2010Prop35
280
     0
102
RTVSPost2010PropOp35
 70
     1
102
RTVSPost2010Prop36
280
     0
102
RTVSPost2010PropOp36
 70
     1
102
RTVSPost2010Prop37
 90
       50
102
RTVSPost2010PropOp37
 70
     1
102
RTVSPost2010Prop38
140
0.0
102
RTVSPost2010PropOp38
 70
     1
102
RTVSPost2010Prop39
140
1.0
102
RTVSPost2010PropOp39
 70
     1
102
RTVSPost2010Prop40
 90
        0
102
RTVSPost2010PropOp40
 70
     1
102
RTVSPost2010Prop41ColorIndex
 90
       18
102
RTVSPost2010Prop41ColorRGB
 90
        0
102
RTVSPost2010PropOp41
 70
     1
102
RTVSPost2010Prop42
 90
       50
102
RTVSPost2010PropOp42
 70
     1
102
RTVSPost2010Prop43
 90
        3
102
RTVSPost2010PropOp43
 70
     1
102
RTVSPost2010Prop44ColorIndex
 90
        5
102
RTVSPost2010Prop44ColorRGB
 90
      255
102
RTVSPost2010PropOp44
 70
     1
102
RTVSPost2010Prop45
280
     0
102
RTVSPost2010PropOp45
 70
     1
102
RTVSPost2010Prop46
 90
       50
102
RTVSPost2010PropOp46
 70
     1
102
RTVSPost2010Prop47
 90
       50
102
RTVSPost2010PropOp47
 70
     1
102
RTVSPost2010Prop48
 90
       50
102
RTVSPost2010PropOp48
 70
     1
102
RTVSPost2010Prop49
280
     0
102
RTVSPost2010PropOp49
 70
     1
102
RTVSPost2010Prop50
 90
       50
102
RTVSPost2010PropOp50
 70
     1
102
RTVSPost2010Prop51ColorIndex
 90
      256
102
RTVSPost2010Prop51ColorRGB
 90
-16777216
102
RTVSPost2010PropOp51
 70
     0
102
RTVSPost2010Prop52
140
1.0
102
RTVSPost2010PropOp52
 70
     0
102
RTVSPost2010Prop53
 90
        2
102
RTVSPost2010PropOp53
 70
     1
102
RTVSPost2010Prop54
  1
strokes_ogs.tif
102
RTVSPost2010PropOp54
 70
     1
102
RTVSPost2010Prop55
280
     0
102
RTVSPost2010PropOp55
 70
     1
102
RTVSPost2010Prop56
140
1.0
102
RTVSPost2010PropOp56
 70
     1
102
RTVSPost2010Prop57
140
1.0
102
RTVSPost2010PropOp57
 70
     1
102
RTVSPropertyOp0
 70
     1
102
RTVSPropertyOp1
 70
     1
102
RTVSPropertyOp2
 70
     1
102
RTVSPropertyOp3
 70
     1
102
RTVSPropertyOp4
 70
     1
102
RTVSPropertyOp5
 70
     1
102
RTVSPropertyOp6
 70
     1
102
RTVSPropertyOp7
 70
     1
102
RTVSPropertyOp8
 70
     1
102
RTVSPropertyOp9
 70
     1
102
RTVSPropertyOp10
 70
     1
102
RTVSPropertyOp11
 70
     1
102
RTVSPropertyOp12
 70
     1
102
RTVSPropertyOp13
 70
     1
102
RTVSPropertyOp14
 70
     1
102
RTVSPropertyOp15
 70
     1
102
RTVSPropertyOp16
 70
     1
102
RTVSPropertyOp17
 70
     1
102
RTVSPropertyOp18
 70
     1
102
RTVSPropertyOp19
 70
     1
102
RTVSPropertyOp20
 70
     1
102
RTVSPropertyOp21
 70
     1
102
RTVSPropertyOp22
 70
     1
102
RTVSPropertyOp23
 70
     1
102
RTVSPropertyOp24
 70
     1
102
RTVSPropertyOp25
 70
     1
102
RTVSPropertyOp26
 70
     1
102
RTVSPropertyOp27
 70
     1
102
RTVSPropertyOp28
 70
     1
102
RTVSPropertyOp29
 70
     1
102
RTVSPropertyOp30
 70
     1
102
RTVSPropertyOp31
 70
     1
102
RTVSPropertyOp32
 70
     1
102
RTVSPropertyOp33
 70
     1
102
RTVSPropertyOp34
 70
     1
102
RTVSPropertyOp35
 70
     1
102
RTVSPropertyOp36
 70
     1
102
RTVSPropertyOp37
 70
     1
102
RTVSPropertyOp38
 70
     1
102
RTVSPropertyOp39
 70
     1
102
RTVSPropertyOp40
 70
     1
102
RTVSPropertyOp41
 70
     1
102
RTVSPropertyOp42
 70
     1
102
RTVSPropertyOp43
 70
     1
102
RTVSPropertyOp44
 70
     1
102
RTVSPropertyOp45
 70
     1
102
RTVSPropertyOp46
 70
     1
102
RTVSPropertyOp47
 70
     1
102
RTVSPropertyOp48
 70
     1
102
RTVSPropertyOp49
 70
     1
102
RTVSPropertyOp50
 70
     1
102
RTVSPropertyOp51
 70
     0
102
RTVSPropertyOp52
 70
     0
102
RTVSPropertyOp53
 70
     1
102
RTVSPropertyOp54
 70
     1
102
RTVSPropertyOp55
 70
     1
102
RTVSPropertyOp56
 70
     1
102
RTVSPropertyOp57
 70
     1
102
RTVSPropertyOp58
 70
     1
102
RTVSPropertyOp59
 70
     1
102
RTVSPropertyOp60
 70
     1
102
RTVSPropertyOp61
 70
     1
102
RTVSPropertyOp62
 70
     1
  0
XRECORD
  5
87CB
102
{ACAD_REACTORS
330
87CA
102
}
330
87CA
100
AcDbXrecord
280
     1
102
RTVSPost2010Prop28
280
     0
102
RTVSPost2010PropOp28
 70
     1
102
RTVSPost2010Prop29
280
     1
102
RTVSPost2010PropOp29
 70
     1
102
RTVSPost2010Prop30
280
     1
102
RTVSPost2010PropOp30
 70
     1
102
RTVSPost2010Prop31
280
     0
102
RTVSPost2010PropOp31
 70
     1
102
RTVSPost2010Prop32
280
     0
102
RTVSPost2010PropOp32
 70
     1
102
RTVSPost2010Prop33
280
     0
102
RTVSPost2010PropOp33
 70
     1
102
RTVSPost2010Prop34
280
     0
102
RTVSPost2010PropOp34
 70
     1
102
RTVSPost2010Prop35
280
     0
102
RTVSPost2010PropOp35
 70
     1
102
RTVSPost2010Prop36
280
     0
102
RTVSPost2010PropOp36
 70
     1
102
RTVSPost2010Prop37
 90
       50
102
RTVSPost2010PropOp37
 70
     1
102
RTVSPost2010Prop38
140
0.0
102
RTVSPost2010PropOp38
 70
     1
102
RTVSPost2010Prop39
140
1.0
102
RTVSPost2010PropOp39
 70
     1
102
RTVSPost2010Prop40
 90
        0
102
RTVSPost2010PropOp40
 70
     1
102
RTVSPost2010Prop41ColorIndex
 90
       18
102
RTVSPost2010Prop41ColorRGB
 90
        0
102
RTVSPost2010PropOp41
 70
     1
102
RTVSPost2010Prop42
 90
       50
102
RTVSPost2010PropOp42
 70
     1
102
RTVSPost2010Prop43
 90
        3
102
RTVSPost2010PropOp43
 70
     1
102
RTVSPost2010Prop44ColorIndex
 90
        5
102
RTVSPost2010Prop44ColorRGB
 90
      255
102
RTVSPost2010PropOp44
 70
     1
102
RTVSPost2010Prop45
280
     0
102
RTVSPost2010PropOp45
 70
     1
102
RTVSPost2010Prop46
 90
       50
102
RTVSPost2010PropOp46
 70
     1
102
RTVSPost2010Prop47
 90
       50
102
RTVSPost2010PropOp47
 70
     1
102
RTVSPost2010Prop48
 90
       50
102
RTVSPost2010PropOp48
 70
     1
102
RTVSPost2010Prop49
280
     0
102
RTVSPost2010PropOp49
 70
     1
102
RTVSPost2010Prop50
 90
       50
102
RTVSPost2010PropOp50
 70
     1
102
RTVSPost2010Prop51ColorIndex
 90
      256
102
RTVSPost2010Prop51ColorRGB
 90
-16777216
102
RTVSPost2010PropOp51
 70
     0
102
RTVSPost2010Prop52
140
1.0
102
RTVSPost2010PropOp52
 70
     0
102
RTVSPost2010Prop53
 90
        2
102
RTVSPost2010PropOp53
 70
     1
102
RTVSPost2010Prop54
  1
strokes_ogs.tif
102
RTVSPost2010PropOp54
 70
     1
102
RTVSPost2010Prop55
280
     0
102
RTVSPost2010PropOp55
 70
     1
102
RTVSPost2010Prop56
140
1.0
102
RTVSPost2010PropOp56
 70
     1
102
RTVSPost2010Prop57
140
1.0
102
RTVSPost2010PropOp57
 70
     1
102
RTVSPropertyOp0
 70
     1
102
RTVSPropertyOp1
 70
     1
102
RTVSPropertyOp2
 70
     1
102
RTVSPropertyOp3
 70
     1
102
RTVSPropertyOp4
 70
     1
102
RTVSPropertyOp5
 70
     1
102
RTVSPropertyOp6
 70
     1
102
RTVSPropertyOp7
 70
     1
102
RTVSPropertyOp8
 70
     1
102
RTVSPropertyOp9
 70
     1
102
RTVSPropertyOp10
 70
     1
102
RTVSPropertyOp11
 70
     1
102
RTVSPropertyOp12
 70
     1
102
RTVSPropertyOp13
 70
     1
102
RTVSPropertyOp14
 70
     1
102
RTVSPropertyOp15
 70
     1
102
RTVSPropertyOp16
 70
     1
102
RTVSPropertyOp17
 70
     1
102
RTVSPropertyOp18
 70
     1
102
RTVSPropertyOp19
 70
     1
102
RTVSPropertyOp20
 70
     1
102
RTVSPropertyOp21
 70
     1
102
RTVSPropertyOp22
 70
     1
102
RTVSPropertyOp23
 70
     1
102
RTVSPropertyOp24
 70
     1
102
RTVSPropertyOp25
 70
     1
102
RTVSPropertyOp26
 70
     1
102
RTVSPropertyOp27
 70
     1
102
RTVSPropertyOp28
 70
     1
102
RTVSPropertyOp29
 70
     1
102
RTVSPropertyOp30
 70
     1
102
RTVSPropertyOp31
 70
     1
102
RTVSPropertyOp32
 70
     1
102
RTVSPropertyOp33
 70
     1
102
RTVSPropertyOp34
 70
     1
102
RTVSPropertyOp35
 70
     1
102
RTVSPropertyOp36
 70
     1
102
RTVSPropertyOp37
 70
     1
102
RTVSPropertyOp38
 70
     1
102
RTVSPropertyOp39
 70
     1
102
RTVSPropertyOp40
 70
     1
102
RTVSPropertyOp41
 70
     1
102
RTVSPropertyOp42
 70
     1
102
RTVSPropertyOp43
 70
     1
102
RTVSPropertyOp44
 70
     1
102
RTVSPropertyOp45
 70
     1
102
RTVSPropertyOp46
 70
     1
102
RTVSPropertyOp47
 70
     1
102
RTVSPropertyOp48
 70
     1
102
RTVSPropertyOp49
 70
     1
102
RTVSPropertyOp50
 70
     1
102
RTVSPropertyOp51
 70
     0
102
RTVSPropertyOp52
 70
     0
102
RTVSPropertyOp53
 70
     1
102
RTVSPropertyOp54
 70
     1
102
RTVSPropertyOp55
 70
     1
102
RTVSPropertyOp56
 70
     1
102
RTVSPropertyOp57
 70
     1
102
RTVSPropertyOp58
 70
     1
102
RTVSPropertyOp59
 70
     1
102
RTVSPropertyOp60
 70
     1
102
RTVSPropertyOp61
 70
     1
102
RTVSPropertyOp62
 70
     1
  0
XRECORD
  5
87CF
102
{ACAD_REACTORS
330
87CE
102
}
330
87CE
100
AcDbXrecord
280
     1
102
RTVSPost2010Prop28
280
     0
102
RTVSPost2010PropOp28
 70
     1
102
RTVSPost2010Prop29
280
     1
102
RTVSPost2010PropOp29
 70
     1
102
RTVSPost2010Prop30
280
     1
102
RTVSPost2010PropOp30
 70
     1
102
RTVSPost2010Prop31
280
     0
102
RTVSPost2010PropOp31
 70
     1
102
RTVSPost2010Prop32
280
     0
102
RTVSPost2010PropOp32
 70
     1
102
RTVSPost2010Prop33
280
     0
102
RTVSPost2010PropOp33
 70
     1
102
RTVSPost2010Prop34
280
     0
102
RTVSPost2010PropOp34
 70
     1
102
RTVSPost2010Prop35
280
     0
102
RTVSPost2010PropOp35
 70
     1
102
RTVSPost2010Prop36
280
     0
102
RTVSPost2010PropOp36
 70
     1
102
RTVSPost2010Prop37
 90
       50
102
RTVSPost2010PropOp37
 70
     1
102
RTVSPost2010Prop38
140
0.0
102
RTVSPost2010PropOp38
 70
     1
102
RTVSPost2010Prop39
140
1.0
102
RTVSPost2010PropOp39
 70
     1
102
RTVSPost2010Prop40
 90
        0
102
RTVSPost2010PropOp40
 70
     1
102
RTVSPost2010Prop41ColorIndex
 90
       18
102
RTVSPost2010Prop41ColorRGB
 90
        0
102
RTVSPost2010PropOp41
 70
     1
102
RTVSPost2010Prop42
 90
       50
102
RTVSPost2010PropOp42
 70
     1
102
RTVSPost2010Prop43
 90
        3
102
RTVSPost2010PropOp43
 70
     1
102
RTVSPost2010Prop44ColorIndex
 90
        5
102
RTVSPost2010Prop44ColorRGB
 90
      255
102
RTVSPost2010PropOp44
 70
     1
102
RTVSPost2010Prop45
280
     0
102
RTVSPost2010PropOp45
 70
     1
102
RTVSPost2010Prop46
 90
       50
102
RTVSPost2010PropOp46
 70
     1
102
RTVSPost2010Prop47
 90
       50
102
RTVSPost2010PropOp47
 70
     1
102
RTVSPost2010Prop48
 90
       50
102
RTVSPost2010PropOp48
 70
     1
102
RTVSPost2010Prop49
280
     0
102
RTVSPost2010PropOp49
 70
     1
102
RTVSPost2010Prop50
 90
       50
102
RTVSPost2010PropOp50
 70
     1
102
RTVSPost2010Prop51ColorIndex
 90
      256
102
RTVSPost2010Prop51ColorRGB
 90
-16777216
102
RTVSPost2010PropOp51
 70
     0
102
RTVSPost2010Prop52
140
1.0
102
RTVSPost2010PropOp52
 70
     0
102
RTVSPost2010Prop53
 90
        2
102
RTVSPost2010PropOp53
 70
     1
102
RTVSPost2010Prop54
  1
strokes_ogs.tif
102
RTVSPost2010PropOp54
 70
     1
102
RTVSPost2010Prop55
280
     0
102
RTVSPost2010PropOp55
 70
     1
102
RTVSPost2010Prop56
140
1.0
102
RTVSPost2010PropOp56
 70
     1
102
RTVSPost2010Prop57
140
1.0
102
RTVSPost2010PropOp57
 70
     1
102
RTVSPropertyOp0
 70
     1
102
RTVSPropertyOp1
 70
     1
102
RTVSPropertyOp2
 70
     1
102
RTVSPropertyOp3
 70
     1
102
RTVSPropertyOp4
 70
     1
102
RTVSPropertyOp5
 70
     1
102
RTVSPropertyOp6
 70
     1
102
RTVSPropertyOp7
 70
     1
102
RTVSPropertyOp8
 70
     1
102
RTVSPropertyOp9
 70
     1
102
RTVSPropertyOp10
 70
     1
102
RTVSPropertyOp11
 70
     1
102
RTVSPropertyOp12
 70
     1
102
RTVSPropertyOp13
 70
     1
102
RTVSPropertyOp14
 70
     1
102
RTVSPropertyOp15
 70
     1
102
RTVSPropertyOp16
 70
     1
102
RTVSPropertyOp17
 70
     1
102
RTVSPropertyOp18
 70
     1
102
RTVSPropertyOp19
 70
     1
102
RTVSPropertyOp20
 70
     1
102
RTVSPropertyOp21
 70
     1
102
RTVSPropertyOp22
 70
     1
102
RTVSPropertyOp23
 70
     1
102
RTVSPropertyOp24
 70
     1
102
RTVSPropertyOp25
 70
     1
102
RTVSPropertyOp26
 70
     1
102
RTVSPropertyOp27
 70
     1
102
RTVSPropertyOp28
 70
     1
102
RTVSPropertyOp29
 70
     1
102
RTVSPropertyOp30
 70
     1
102
RTVSPropertyOp31
 70
     1
102
RTVSPropertyOp32
 70
     1
102
RTVSPropertyOp33
 70
     1
102
RTVSPropertyOp34
 70
     1
102
RTVSPropertyOp35
 70
     1
102
RTVSPropertyOp36
 70
     1
102
RTVSPropertyOp37
 70
     1
102
RTVSPropertyOp38
 70
     1
102
RTVSPropertyOp39
 70
     1
102
RTVSPropertyOp40
 70
     1
102
RTVSPropertyOp41
 70
     1
102
RTVSPropertyOp42
 70
     1
102
RTVSPropertyOp43
 70
     1
102
RTVSPropertyOp44
 70
     1
102
RTVSPropertyOp45
 70
     1
102
RTVSPropertyOp46
 70
     1
102
RTVSPropertyOp47
 70
     1
102
RTVSPropertyOp48
 70
     1
102
RTVSPropertyOp49
 70
     1
102
RTVSPropertyOp50
 70
     1
102
RTVSPropertyOp51
 70
     0
102
RTVSPropertyOp52
 70
     0
102
RTVSPropertyOp53
 70
     1
102
RTVSPropertyOp54
 70
     1
102
RTVSPropertyOp55
 70
     1
102
RTVSPropertyOp56
 70
     1
102
RTVSPropertyOp57
 70
     1
102
RTVSPropertyOp58
 70
     1
102
RTVSPropertyOp59
 70
     1
102
RTVSPropertyOp60
 70
     1
102
RTVSPropertyOp61
 70
     1
102
RTVSPropertyOp62
 70
     1
  0
XRECORD
  5
87E9
102
{ACAD_REACTORS
330
87E8
102
}
330
87E8
100
AcDbXrecord
280
     1
102
RTVSPost2010Prop28
280
     0
102
RTVSPost2010PropOp28
 70
     1
102
RTVSPost2010Prop29
280
     1
102
RTVSPost2010PropOp29
 70
     1
102
RTVSPost2010Prop30
280
     1
102
RTVSPost2010PropOp30
 70
     1
102
RTVSPost2010Prop31
280
     0
102
RTVSPost2010PropOp31
 70
     1
102
RTVSPost2010Prop32
280
     0
102
RTVSPost2010PropOp32
 70
     1
102
RTVSPost2010Prop33
280
     0
102
RTVSPost2010PropOp33
 70
     1
102
RTVSPost2010Prop34
280
     0
102
RTVSPost2010PropOp34
 70
     1
102
RTVSPost2010Prop35
280
     0
102
RTVSPost2010PropOp35
 70
     1
102
RTVSPost2010Prop36
280
     0
102
RTVSPost2010PropOp36
 70
     1
102
RTVSPost2010Prop37
 90
       50
102
RTVSPost2010PropOp37
 70
     0
102
RTVSPost2010Prop38
140
0.0
102
RTVSPost2010PropOp38
 70
     0
102
RTVSPost2010Prop39
140
1.0
102
RTVSPost2010PropOp39
 70
     0
102
RTVSPost2010Prop40
 90
        0
102
RTVSPost2010PropOp40
 70
     0
102
RTVSPost2010Prop41ColorIndex
 90
       18
102
RTVSPost2010Prop41ColorRGB
 90
        0
102
RTVSPost2010PropOp41
 70
     0
102
RTVSPost2010Prop42
 90
       50
102
RTVSPost2010PropOp42
 70
     0
102
RTVSPost2010Prop43
 90
        3
102
RTVSPost2010PropOp43
 70
     0
102
RTVSPost2010Prop44ColorIndex
 90
        5
102
RTVSPost2010Prop44ColorRGB
 90
      255
102
RTVSPost2010PropOp44
 70
     0
102
RTVSPost2010Prop45
280
     0
102
RTVSPost2010PropOp45
 70
     1
102
RTVSPost2010Prop46
 90
       50
102
RTVSPost2010PropOp46
 70
     0
102
RTVSPost2010Prop47
 90
       50
102
RTVSPost2010PropOp47
 70
     0
102
RTVSPost2010Prop48
 90
       50
102
RTVSPost2010PropOp48
 70
     0
102
RTVSPost2010Prop49
280
     0
102
RTVSPost2010PropOp49
 70
     1
102
RTVSPost2010Prop50
 90
       50
102
RTVSPost2010PropOp50
 70
     0
102
RTVSPost2010Prop51ColorIndex
 90
      256
102
RTVSPost2010Prop51ColorRGB
 90
-16777216
102
RTVSPost2010PropOp51
 70
     0
102
RTVSPost2010Prop52
140
1.0
102
RTVSPost2010PropOp52
 70
     0
102
RTVSPost2010Prop53
 90
        2
102
RTVSPost2010PropOp53
 70
     0
102
RTVSPost2010Prop54
  1
strokes_ogs.tif
102
RTVSPost2010PropOp54
 70
     0
102
RTVSPost2010Prop55
280
     0
102
RTVSPost2010PropOp55
 70
     1
102
RTVSPost2010Prop56
140
1.0
102
RTVSPost2010PropOp56
 70
     0
102
RTVSPost2010Prop57
140
1.0
102
RTVSPost2010PropOp57
 70
     0
102
RTVSPropertyOp0
 70
     0
102
RTVSPropertyOp1
 70
     0
102
RTVSPropertyOp2
 70
     0
102
RTVSPropertyOp3
 70
     0
102
RTVSPropertyOp4
 70
     0
102
RTVSPropertyOp5
 70
     0
102
RTVSPropertyOp6
 70
     0
102
RTVSPropertyOp7
 70
     0
102
RTVSPropertyOp8
 70
     0
102
RTVSPropertyOp9
 70
     0
102
RTVSPropertyOp10
 70
     0
102
RTVSPropertyOp11
 70
     0
102
RTVSPropertyOp12
 70
     0
102
RTVSPropertyOp13
 70
     0
102
RTVSPropertyOp14
 70
     2
102
RTVSPropertyOp15
 70
     0
102
RTVSPropertyOp16
 70
     0
102
RTVSPropertyOp17
 70
     0
102
RTVSPropertyOp18
 70
     0
102
RTVSPropertyOp19
 70
     0
102
RTVSPropertyOp20
 70
     0
102
RTVSPropertyOp21
 70
     0
102
RTVSPropertyOp22
 70
     0
102
RTVSPropertyOp23
 70
     0
102
RTVSPropertyOp24
 70
     0
102
RTVSPropertyOp25
 70
     0
102
RTVSPropertyOp26
 70
     0
102
RTVSPropertyOp27
 70
     0
102
RTVSPropertyOp28
 70
     1
102
RTVSPropertyOp29
 70
     1
102
RTVSPropertyOp30
 70
     1
102
RTVSPropertyOp31
 70
     1
102
RTVSPropertyOp32
 70
     1
102
RTVSPropertyOp33
 70
     1
102
RTVSPropertyOp34
 70
     1
102
RTVSPropertyOp35
 70
     1
102
RTVSPropertyOp36
 70
     1
102
RTVSPropertyOp37
 70
     0
102
RTVSPropertyOp38
 70
     0
102
RTVSPropertyOp39
 70
     0
102
RTVSPropertyOp40
 70
     0
102
RTVSPropertyOp41
 70
     0
102
RTVSPropertyOp42
 70
     0
102
RTVSPropertyOp43
 70
     0
102
RTVSPropertyOp44
 70
     0
102
RTVSPropertyOp45
 70
     1
102
RTVSPropertyOp46
 70
     0
102
RTVSPropertyOp47
 70
     0
102
RTVSPropertyOp48
 70
     0
102
RTVSPropertyOp49
 70
     1
102
RTVSPropertyOp50
 70
     0
102
RTVSPropertyOp51
 70
     0
102
RTVSPropertyOp52
 70
     0
102
RTVSPropertyOp53
 70
     0
102
RTVSPropertyOp54
 70
     0
102
RTVSPropertyOp55
 70
     1
102
RTVSPropertyOp56
 70
     0
102
RTVSPropertyOp57
 70
     0
102
RTVSPropertyOp58
 70
     0
102
RTVSPropertyOp59
 70
     0
102
RTVSPropertyOp60
 70
     0
102
RTVSPropertyOp61
 70
     0
102
RTVSPropertyOp62
 70
     0
  0
XRECORD
  5
87D7
102
{ACAD_REACTORS
330
87D6
102
}
330
87D6
100
AcDbXrecord
280
     1
102
RTVSPost2010Prop28
280
     0
102
RTVSPost2010PropOp28
 70
     1
102
RTVSPost2010Prop29
280
     1
102
RTVSPost2010PropOp29
 70
     1
102
RTVSPost2010Prop30
280
     1
102
RTVSPost2010PropOp30
 70
     1
102
RTVSPost2010Prop31
280
     0
102
RTVSPost2010PropOp31
 70
     1
102
RTVSPost2010Prop32
280
     0
102
RTVSPost2010PropOp32
 70
     1
102
RTVSPost2010Prop33
280
     0
102
RTVSPost2010PropOp33
 70
     1
102
RTVSPost2010Prop34
280
     0
102
RTVSPost2010PropOp34
 70
     1
102
RTVSPost2010Prop35
280
     0
102
RTVSPost2010PropOp35
 70
     1
102
RTVSPost2010Prop36
280
     0
102
RTVSPost2010PropOp36
 70
     1
102
RTVSPost2010Prop37
 90
       50
102
RTVSPost2010PropOp37
 70
     1
102
RTVSPost2010Prop38
140
0.0
102
RTVSPost2010PropOp38
 70
     1
102
RTVSPost2010Prop39
140
1.0
102
RTVSPost2010PropOp39
 70
     1
102
RTVSPost2010Prop40
 90
        0
102
RTVSPost2010PropOp40
 70
     1
102
RTVSPost2010Prop41ColorIndex
 90
       18
102
RTVSPost2010Prop41ColorRGB
 90
        0
102
RTVSPost2010PropOp41
 70
     1
102
RTVSPost2010Prop42
 90
       50
102
RTVSPost2010PropOp42
 70
     1
102
RTVSPost2010Prop43
 90
        3
102
RTVSPost2010PropOp43
 70
     1
102
RTVSPost2010Prop44ColorIndex
 90
        5
102
RTVSPost2010Prop44ColorRGB
 90
      255
102
RTVSPost2010PropOp44
 70
     1
102
RTVSPost2010Prop45
280
     0
102
RTVSPost2010PropOp45
 70
     1
102
RTVSPost2010Prop46
 90
       50
102
RTVSPost2010PropOp46
 70
     1
102
RTVSPost2010Prop47
 90
       50
102
RTVSPost2010PropOp47
 70
     1
102
RTVSPost2010Prop48
 90
       50
102
RTVSPost2010PropOp48
 70
     1
102
RTVSPost2010Prop49
280
     0
102
RTVSPost2010PropOp49
 70
     1
102
RTVSPost2010Prop50
 90
       50
102
RTVSPost2010PropOp50
 70
     1
102
RTVSPost2010Prop51ColorIndex
 90
      256
102
RTVSPost2010Prop51ColorRGB
 90
-16777216
102
RTVSPost2010PropOp51
 70
     0
102
RTVSPost2010Prop52
140
1.0
102
RTVSPost2010PropOp52
 70
     0
102
RTVSPost2010Prop53
 90
        2
102
RTVSPost2010PropOp53
 70
     1
102
RTVSPost2010Prop54
  1
strokes_ogs.tif
102
RTVSPost2010PropOp54
 70
     1
102
RTVSPost2010Prop55
280
     0
102
RTVSPost2010PropOp55
 70
     1
102
RTVSPost2010Prop56
140
1.0
102
RTVSPost2010PropOp56
 70
     1
102
RTVSPost2010Prop57
140
1.0
102
RTVSPost2010PropOp57
 70
     1
102
RTVSPropertyOp0
 70
     1
102
RTVSPropertyOp1
 70
     1
102
RTVSPropertyOp2
 70
     1
102
RTVSPropertyOp3
 70
     1
102
RTVSPropertyOp4
 70
     1
102
RTVSPropertyOp5
 70
     1
102
RTVSPropertyOp6
 70
     1
102
RTVSPropertyOp7
 70
     1
102
RTVSPropertyOp8
 70
     1
102
RTVSPropertyOp9
 70
     1
102
RTVSPropertyOp10
 70
     1
102
RTVSPropertyOp11
 70
     1
102
RTVSPropertyOp12
 70
     1
102
RTVSPropertyOp13
 70
     1
102
RTVSPropertyOp14
 70
     1
102
RTVSPropertyOp15
 70
     1
102
RTVSPropertyOp16
 70
     1
102
RTVSPropertyOp17
 70
     1
102
RTVSPropertyOp18
 70
     1
102
RTVSPropertyOp19
 70
     1
102
RTVSPropertyOp20
 70
     1
102
RTVSPropertyOp21
 70
     1
102
RTVSPropertyOp22
 70
     1
102
RTVSPropertyOp23
 70
     1
102
RTVSPropertyOp24
 70
     1
102
RTVSPropertyOp25
 70
     1
102
RTVSPropertyOp26
 70
     1
102
RTVSPropertyOp27
 70
     1
102
RTVSPropertyOp28
 70
     1
102
RTVSPropertyOp29
 70
     1
102
RTVSPropertyOp30
 70
     1
102
RTVSPropertyOp31
 70
     1
102
RTVSPropertyOp32
 70
     1
102
RTVSPropertyOp33
 70
     1
102
RTVSPropertyOp34
 70
     1
102
RTVSPropertyOp35
 70
     1
102
RTVSPropertyOp36
 70
     1
102
RTVSPropertyOp37
 70
     1
102
RTVSPropertyOp38
 70
     1
102
RTVSPropertyOp39
 70
     1
102
RTVSPropertyOp40
 70
     1
102
RTVSPropertyOp41
 70
     1
102
RTVSPropertyOp42
 70
     1
102
RTVSPropertyOp43
 70
     1
102
RTVSPropertyOp44
 70
     1
102
RTVSPropertyOp45
 70
     1
102
RTVSPropertyOp46
 70
     1
102
RTVSPropertyOp47
 70
     1
102
RTVSPropertyOp48
 70
     1
102
RTVSPropertyOp49
 70
     1
102
RTVSPropertyOp50
 70
     1
102
RTVSPropertyOp51
 70
     0
102
RTVSPropertyOp52
 70
     0
102
RTVSPropertyOp53
 70
     1
102
RTVSPropertyOp54
 70
     1
102
RTVSPropertyOp55
 70
     1
102
RTVSPropertyOp56
 70
     1
102
RTVSPropertyOp57
 70
     1
102
RTVSPropertyOp58
 70
     1
102
RTVSPropertyOp59
 70
     1
102
RTVSPropertyOp60
 70
     1
102
RTVSPropertyOp61
 70
     1
102
RTVSPropertyOp62
 70
     1
  0
XRECORD
  5
87BB
102
{ACAD_REACTORS
330
87BA
102
}
330
87BA
100
AcDbXrecord
280
     1
102
RTVSPost2010Prop28
280
     0
102
RTVSPost2010PropOp28
 70
     1
102
RTVSPost2010Prop29
280
     1
102
RTVSPost2010PropOp29
 70
     1
102
RTVSPost2010Prop30
280
     1
102
RTVSPost2010PropOp30
 70
     1
102
RTVSPost2010Prop31
280
     0
102
RTVSPost2010PropOp31
 70
     1
102
RTVSPost2010Prop32
280
     0
102
RTVSPost2010PropOp32
 70
     1
102
RTVSPost2010Prop33
280
     0
102
RTVSPost2010PropOp33
 70
     1
102
RTVSPost2010Prop34
280
     0
102
RTVSPost2010PropOp34
 70
     1
102
RTVSPost2010Prop35
280
     0
102
RTVSPost2010PropOp35
 70
     1
102
RTVSPost2010Prop36
280
     0
102
RTVSPost2010PropOp36
 70
     1
102
RTVSPost2010Prop37
 90
       50
102
RTVSPost2010PropOp37
 70
     1
102
RTVSPost2010Prop38
140
0.0
102
RTVSPost2010PropOp38
 70
     1
102
RTVSPost2010Prop39
140
1.0
102
RTVSPost2010PropOp39
 70
     1
102
RTVSPost2010Prop40
 90
        0
102
RTVSPost2010PropOp40
 70
     1
102
RTVSPost2010Prop41ColorIndex
 90
       18
102
RTVSPost2010Prop41ColorRGB
 90
        0
102
RTVSPost2010PropOp41
 70
     1
102
RTVSPost2010Prop42
 90
       50
102
RTVSPost2010PropOp42
 70
     1
102
RTVSPost2010Prop43
 90
        3
102
RTVSPost2010PropOp43
 70
     1
102
RTVSPost2010Prop44ColorIndex
 90
        5
102
RTVSPost2010Prop44ColorRGB
 90
      255
102
RTVSPost2010PropOp44
 70
     1
102
RTVSPost2010Prop45
280
     0
102
RTVSPost2010PropOp45
 70
     1
102
RTVSPost2010Prop46
 90
       50
102
RTVSPost2010PropOp46
 70
     1
102
RTVSPost2010Prop47
 90
       50
102
RTVSPost2010PropOp47
 70
     1
102
RTVSPost2010Prop48
 90
       50
102
RTVSPost2010PropOp48
 70
     1
102
RTVSPost2010Prop49
280
     0
102
RTVSPost2010PropOp49
 70
     1
102
RTVSPost2010Prop50
 90
       50
102
RTVSPost2010PropOp50
 70
     1
102
RTVSPost2010Prop51ColorIndex
 90
      256
102
RTVSPost2010Prop51ColorRGB
 90
-16777216
102
RTVSPost2010PropOp51
 70
     0
102
RTVSPost2010Prop52
140
1.0
102
RTVSPost2010PropOp52
 70
     0
102
RTVSPost2010Prop53
 90
        2
102
RTVSPost2010PropOp53
 70
     1
102
RTVSPost2010Prop54
  1
strokes_ogs.tif
102
RTVSPost2010PropOp54
 70
     1
102
RTVSPost2010Prop55
280
     0
102
RTVSPost2010PropOp55
 70
     1
102
RTVSPost2010Prop56
140
1.0
102
RTVSPost2010PropOp56
 70
     1
102
RTVSPost2010Prop57
140
1.0
102
RTVSPost2010PropOp57
 70
     1
102
RTVSPropertyOp0
 70
     1
102
RTVSPropertyOp1
 70
     1
102
RTVSPropertyOp2
 70
     1
102
RTVSPropertyOp3
 70
     1
102
RTVSPropertyOp4
 70
     1
102
RTVSPropertyOp5
 70
     1
102
RTVSPropertyOp6
 70
     1
102
RTVSPropertyOp7
 70
     1
102
RTVSPropertyOp8
 70
     1
102
RTVSPropertyOp9
 70
     1
102
RTVSPropertyOp10
 70
     1
102
RTVSPropertyOp11
 70
     1
102
RTVSPropertyOp12
 70
     1
102
RTVSPropertyOp13
 70
     1
102
RTVSPropertyOp14
 70
     1
102
RTVSPropertyOp15
 70
     1
102
RTVSPropertyOp16
 70
     1
102
RTVSPropertyOp17
 70
     1
102
RTVSPropertyOp18
 70
     1
102
RTVSPropertyOp19
 70
     1
102
RTVSPropertyOp20
 70
     1
102
RTVSPropertyOp21
 70
     1
102
RTVSPropertyOp22
 70
     1
102
RTVSPropertyOp23
 70
     1
102
RTVSPropertyOp24
 70
     1
102
RTVSPropertyOp25
 70
     1
102
RTVSPropertyOp26
 70
     1
102
RTVSPropertyOp27
 70
     1
102
RTVSPropertyOp28
 70
     1
102
RTVSPropertyOp29
 70
     1
102
RTVSPropertyOp30
 70
     1
102
RTVSPropertyOp31
 70
     1
102
RTVSPropertyOp32
 70
     1
102
RTVSPropertyOp33
 70
     1
102
RTVSPropertyOp34
 70
     1
102
RTVSPropertyOp35
 70
     1
102
RTVSPropertyOp36
 70
     1
102
RTVSPropertyOp37
 70
     1
102
RTVSPropertyOp38
 70
     1
102
RTVSPropertyOp39
 70
     1
102
RTVSPropertyOp40
 70
     1
102
RTVSPropertyOp41
 70
     1
102
RTVSPropertyOp42
 70
     1
102
RTVSPropertyOp43
 70
     1
102
RTVSPropertyOp44
 70
     1
102
RTVSPropertyOp45
 70
     1
102
RTVSPropertyOp46
 70
     1
102
RTVSPropertyOp47
 70
     1
102
RTVSPropertyOp48
 70
     1
102
RTVSPropertyOp49
 70
     1
102
RTVSPropertyOp50
 70
     1
102
RTVSPropertyOp51
 70
     0
102
RTVSPropertyOp52
 70
     0
102
RTVSPropertyOp53
 70
     1
102
RTVSPropertyOp54
 70
     1
102
RTVSPropertyOp55
 70
     1
102
RTVSPropertyOp56
 70
     1
102
RTVSPropertyOp57
 70
     1
102
RTVSPropertyOp58
 70
     1
102
RTVSPropertyOp59
 70
     1
102
RTVSPropertyOp60
 70
     1
102
RTVSPropertyOp61
 70
     1
102
RTVSPropertyOp62
 70
     1
  0
XRECORD
  5
87BD
102
{ACAD_REACTORS
330
87BC
102
}
330
87BC
100
AcDbXrecord
280
     1
102
RTVSPost2010Prop28
280
     0
102
RTVSPost2010PropOp28
 70
     1
102
RTVSPost2010Prop29
280
     1
102
RTVSPost2010PropOp29
 70
     1
102
RTVSPost2010Prop30
280
     1
102
RTVSPost2010PropOp30
 70
     1
102
RTVSPost2010Prop31
280
     0
102
RTVSPost2010PropOp31
 70
     1
102
RTVSPost2010Prop32
280
     0
102
RTVSPost2010PropOp32
 70
     1
102
RTVSPost2010Prop33
280
     0
102
RTVSPost2010PropOp33
 70
     1
102
RTVSPost2010Prop34
280
     0
102
RTVSPost2010PropOp34
 70
     1
102
RTVSPost2010Prop35
280
     0
102
RTVSPost2010PropOp35
 70
     1
102
RTVSPost2010Prop36
280
     0
102
RTVSPost2010PropOp36
 70
     1
102
RTVSPost2010Prop37
 90
       50
102
RTVSPost2010PropOp37
 70
     1
102
RTVSPost2010Prop38
140
0.0
102
RTVSPost2010PropOp38
 70
     1
102
RTVSPost2010Prop39
140
1.0
102
RTVSPost2010PropOp39
 70
     1
102
RTVSPost2010Prop40
 90
        0
102
RTVSPost2010PropOp40
 70
     1
102
RTVSPost2010Prop41ColorIndex
 90
       18
102
RTVSPost2010Prop41ColorRGB
 90
        0
102
RTVSPost2010PropOp41
 70
     1
102
RTVSPost2010Prop42
 90
       50
102
RTVSPost2010PropOp42
 70
     1
102
RTVSPost2010Prop43
 90
        3
102
RTVSPost2010PropOp43
 70
     1
102
RTVSPost2010Prop44ColorIndex
 90
        5
102
RTVSPost2010Prop44ColorRGB
 90
      255
102
RTVSPost2010PropOp44
 70
     1
102
RTVSPost2010Prop45
280
     0
102
RTVSPost2010PropOp45
 70
     1
102
RTVSPost2010Prop46
 90
       50
102
RTVSPost2010PropOp46
 70
     1
102
RTVSPost2010Prop47
 90
       50
102
RTVSPost2010PropOp47
 70
     1
102
RTVSPost2010Prop48
 90
       50
102
RTVSPost2010PropOp48
 70
     1
102
RTVSPost2010Prop49
280
     0
102
RTVSPost2010PropOp49
 70
     1
102
RTVSPost2010Prop50
 90
       50
102
RTVSPost2010PropOp50
 70
     1
102
RTVSPost2010Prop51ColorIndex
 90
      256
102
RTVSPost2010Prop51ColorRGB
 90
-16777216
102
RTVSPost2010PropOp51
 70
     0
102
RTVSPost2010Prop52
140
1.0
102
RTVSPost2010PropOp52
 70
     0
102
RTVSPost2010Prop53
 90
        2
102
RTVSPost2010PropOp53
 70
     1
102
RTVSPost2010Prop54
  1
strokes_ogs.tif
102
RTVSPost2010PropOp54
 70
     1
102
RTVSPost2010Prop55
280
     0
102
RTVSPost2010PropOp55
 70
     1
102
RTVSPost2010Prop56
140
1.0
102
RTVSPost2010PropOp56
 70
     1
102
RTVSPost2010Prop57
140
1.0
102
RTVSPost2010PropOp57
 70
     1
102
RTVSPropertyOp0
 70
     1
102
RTVSPropertyOp1
 70
     1
102
RTVSPropertyOp2
 70
     1
102
RTVSPropertyOp3
 70
     1
102
RTVSPropertyOp4
 70
     1
102
RTVSPropertyOp5
 70
     1
102
RTVSPropertyOp6
 70
     1
102
RTVSPropertyOp7
 70
     1
102
RTVSPropertyOp8
 70
     1
102
RTVSPropertyOp9
 70
     1
102
RTVSPropertyOp10
 70
     1
102
RTVSPropertyOp11
 70
     1
102
RTVSPropertyOp12
 70
     1
102
RTVSPropertyOp13
 70
     1
102
RTVSPropertyOp14
 70
     1
102
RTVSPropertyOp15
 70
     1
102
RTVSPropertyOp16
 70
     1
102
RTVSPropertyOp17
 70
     1
102
RTVSPropertyOp18
 70
     1
102
RTVSPropertyOp19
 70
     1
102
RTVSPropertyOp20
 70
     1
102
RTVSPropertyOp21
 70
     1
102
RTVSPropertyOp22
 70
     1
102
RTVSPropertyOp23
 70
     1
102
RTVSPropertyOp24
 70
     1
102
RTVSPropertyOp25
 70
     1
102
RTVSPropertyOp26
 70
     1
102
RTVSPropertyOp27
 70
     1
102
RTVSPropertyOp28
 70
     1
102
RTVSPropertyOp29
 70
     1
102
RTVSPropertyOp30
 70
     1
102
RTVSPropertyOp31
 70
     1
102
RTVSPropertyOp32
 70
     1
102
RTVSPropertyOp33
 70
     1
102
RTVSPropertyOp34
 70
     1
102
RTVSPropertyOp35
 70
     1
102
RTVSPropertyOp36
 70
     1
102
RTVSPropertyOp37
 70
     1
102
RTVSPropertyOp38
 70
     1
102
RTVSPropertyOp39
 70
     1
102
RTVSPropertyOp40
 70
     1
102
RTVSPropertyOp41
 70
     1
102
RTVSPropertyOp42
 70
     1
102
RTVSPropertyOp43
 70
     1
102
RTVSPropertyOp44
 70
     1
102
RTVSPropertyOp45
 70
     1
102
RTVSPropertyOp46
 70
     1
102
RTVSPropertyOp47
 70
     1
102
RTVSPropertyOp48
 70
     1
102
RTVSPropertyOp49
 70
     1
102
RTVSPropertyOp50
 70
     1
102
RTVSPropertyOp51
 70
     0
102
RTVSPropertyOp52
 70
     0
102
RTVSPropertyOp53
 70
     1
102
RTVSPropertyOp54
 70
     1
102
RTVSPropertyOp55
 70
     1
102
RTVSPropertyOp56
 70
     1
102
RTVSPropertyOp57
 70
     1
102
RTVSPropertyOp58
 70
     1
102
RTVSPropertyOp59
 70
     1
102
RTVSPropertyOp60
 70
     1
102
RTVSPropertyOp61
 70
     1
102
RTVSPropertyOp62
 70
     1
  0
XRECORD
  5
87BF
102
{ACAD_REACTORS
330
87BE
102
}
330
87BE
100
AcDbXrecord
280
     1
102
RTVSPost2010Prop28
280
     0
102
RTVSPost2010PropOp28
 70
     1
102
RTVSPost2010Prop29
280
     1
102
RTVSPost2010PropOp29
 70
     1
102
RTVSPost2010Prop30
280
     1
102
RTVSPost2010PropOp30
 70
     1
102
RTVSPost2010Prop31
280
     0
102
RTVSPost2010PropOp31
 70
     1
102
RTVSPost2010Prop32
280
     0
102
RTVSPost2010PropOp32
 70
     1
102
RTVSPost2010Prop33
280
     0
102
RTVSPost2010PropOp33
 70
     1
102
RTVSPost2010Prop34
280
     0
102
RTVSPost2010PropOp34
 70
     1
102
RTVSPost2010Prop35
280
     0
102
RTVSPost2010PropOp35
 70
     1
102
RTVSPost2010Prop36
280
     0
102
RTVSPost2010PropOp36
 70
     1
102
RTVSPost2010Prop37
 90
       50
102
RTVSPost2010PropOp37
 70
     1
102
RTVSPost2010Prop38
140
0.0
102
RTVSPost2010PropOp38
 70
     1
102
RTVSPost2010Prop39
140
1.0
102
RTVSPost2010PropOp39
 70
     1
102
RTVSPost2010Prop40
 90
        0
102
RTVSPost2010PropOp40
 70
     1
102
RTVSPost2010Prop41ColorIndex
 90
       18
102
RTVSPost2010Prop41ColorRGB
 90
        0
102
RTVSPost2010PropOp41
 70
     1
102
RTVSPost2010Prop42
 90
       50
102
RTVSPost2010PropOp42
 70
     1
102
RTVSPost2010Prop43
 90
        3
102
RTVSPost2010PropOp43
 70
     1
102
RTVSPost2010Prop44ColorIndex
 90
        5
102
RTVSPost2010Prop44ColorRGB
 90
      255
102
RTVSPost2010PropOp44
 70
     1
102
RTVSPost2010Prop45
280
     0
102
RTVSPost2010PropOp45
 70
     1
102
RTVSPost2010Prop46
 90
       50
102
RTVSPost2010PropOp46
 70
     1
102
RTVSPost2010Prop47
 90
       50
102
RTVSPost2010PropOp47
 70
     1
102
RTVSPost2010Prop48
 90
       50
102
RTVSPost2010PropOp48
 70
     1
102
RTVSPost2010Prop49
280
     0
102
RTVSPost2010PropOp49
 70
     1
102
RTVSPost2010Prop50
 90
       50
102
RTVSPost2010PropOp50
 70
     1
102
RTVSPost2010Prop51ColorIndex
 90
      256
102
RTVSPost2010Prop51ColorRGB
 90
-16777216
102
RTVSPost2010PropOp51
 70
     0
102
RTVSPost2010Prop52
140
1.0
102
RTVSPost2010PropOp52
 70
     0
102
RTVSPost2010Prop53
 90
        2
102
RTVSPost2010PropOp53
 70
     1
102
RTVSPost2010Prop54
  1
strokes_ogs.tif
102
RTVSPost2010PropOp54
 70
     1
102
RTVSPost2010Prop55
280
     0
102
RTVSPost2010PropOp55
 70
     1
102
RTVSPost2010Prop56
140
1.0
102
RTVSPost2010PropOp56
 70
     1
102
RTVSPost2010Prop57
140
1.0
102
RTVSPost2010PropOp57
 70
     1
102
RTVSPropertyOp0
 70
     1
102
RTVSPropertyOp1
 70
     1
102
RTVSPropertyOp2
 70
     1
102
RTVSPropertyOp3
 70
     1
102
RTVSPropertyOp4
 70
     1
102
RTVSPropertyOp5
 70
     1
102
RTVSPropertyOp6
 70
     1
102
RTVSPropertyOp7
 70
     1
102
RTVSPropertyOp8
 70
     1
102
RTVSPropertyOp9
 70
     1
102
RTVSPropertyOp10
 70
     1
102
RTVSPropertyOp11
 70
     1
102
RTVSPropertyOp12
 70
     1
102
RTVSPropertyOp13
 70
     1
102
RTVSPropertyOp14
 70
     1
102
RTVSPropertyOp15
 70
     1
102
RTVSPropertyOp16
 70
     1
102
RTVSPropertyOp17
 70
     1
102
RTVSPropertyOp18
 70
     1
102
RTVSPropertyOp19
 70
     1
102
RTVSPropertyOp20
 70
     1
102
RTVSPropertyOp21
 70
     1
102
RTVSPropertyOp22
 70
     1
102
RTVSPropertyOp23
 70
     1
102
RTVSPropertyOp24
 70
     1
102
RTVSPropertyOp25
 70
     1
102
RTVSPropertyOp26
 70
     1
102
RTVSPropertyOp27
 70
     1
102
RTVSPropertyOp28
 70
     1
102
RTVSPropertyOp29
 70
     1
102
RTVSPropertyOp30
 70
     1
102
RTVSPropertyOp31
 70
     1
102
RTVSPropertyOp32
 70
     1
102
RTVSPropertyOp33
 70
     1
102
RTVSPropertyOp34
 70
     1
102
RTVSPropertyOp35
 70
     1
102
RTVSPropertyOp36
 70
     1
102
RTVSPropertyOp37
 70
     1
102
RTVSPropertyOp38
 70
     1
102
RTVSPropertyOp39
 70
     1
102
RTVSPropertyOp40
 70
     1
102
RTVSPropertyOp41
 70
     1
102
RTVSPropertyOp42
 70
     1
102
RTVSPropertyOp43
 70
     1
102
RTVSPropertyOp44
 70
     1
102
RTVSPropertyOp45
 70
     1
102
RTVSPropertyOp46
 70
     1
102
RTVSPropertyOp47
 70
     1
102
RTVSPropertyOp48
 70
     1
102
RTVSPropertyOp49
 70
     1
102
RTVSPropertyOp50
 70
     1
102
RTVSPropertyOp51
 70
     0
102
RTVSPropertyOp52
 70
     0
102
RTVSPropertyOp53
 70
     1
102
RTVSPropertyOp54
 70
     1
102
RTVSPropertyOp55
 70
     1
102
RTVSPropertyOp56
 70
     1
102
RTVSPropertyOp57
 70
     1
102
RTVSPropertyOp58
 70
     1
102
RTVSPropertyOp59
 70
     1
102
RTVSPropertyOp60
 70
     1
102
RTVSPropertyOp61
 70
     1
102
RTVSPropertyOp62
 70
     1
  0
XRECORD
  5
87C1
102
{ACAD_REACTORS
330
87C0
102
}
330
87C0
100
AcDbXrecord
280
     1
102
RTVSPost2010Prop28
280
     0
102
RTVSPost2010PropOp28
 70
     1
102
RTVSPost2010Prop29
280
     1
102
RTVSPost2010PropOp29
 70
     1
102
RTVSPost2010Prop30
280
     1
102
RTVSPost2010PropOp30
 70
     1
102
RTVSPost2010Prop31
280
     0
102
RTVSPost2010PropOp31
 70
     1
102
RTVSPost2010Prop32
280
     0
102
RTVSPost2010PropOp32
 70
     1
102
RTVSPost2010Prop33
280
     0
102
RTVSPost2010PropOp33
 70
     1
102
RTVSPost2010Prop34
280
     0
102
RTVSPost2010PropOp34
 70
     1
102
RTVSPost2010Prop35
280
     0
102
RTVSPost2010PropOp35
 70
     1
102
RTVSPost2010Prop36
280
     0
102
RTVSPost2010PropOp36
 70
     1
102
RTVSPost2010Prop37
 90
       50
102
RTVSPost2010PropOp37
 70
     1
102
RTVSPost2010Prop38
140
0.0
102
RTVSPost2010PropOp38
 70
     1
102
RTVSPost2010Prop39
140
1.0
102
RTVSPost2010PropOp39
 70
     1
102
RTVSPost2010Prop40
 90
        0
102
RTVSPost2010PropOp40
 70
     1
102
RTVSPost2010Prop41ColorIndex
 90
       18
102
RTVSPost2010Prop41ColorRGB
 90
        0
102
RTVSPost2010PropOp41
 70
     1
102
RTVSPost2010Prop42
 90
       50
102
RTVSPost2010PropOp42
 70
     1
102
RTVSPost2010Prop43
 90
        3
102
RTVSPost2010PropOp43
 70
     1
102
RTVSPost2010Prop44ColorIndex
 90
        5
102
RTVSPost2010Prop44ColorRGB
 90
      255
102
RTVSPost2010PropOp44
 70
     1
102
RTVSPost2010Prop45
280
     0
102
RTVSPost2010PropOp45
 70
     1
102
RTVSPost2010Prop46
 90
       50
102
RTVSPost2010PropOp46
 70
     1
102
RTVSPost2010Prop47
 90
       50
102
RTVSPost2010PropOp47
 70
     1
102
RTVSPost2010Prop48
 90
       50
102
RTVSPost2010PropOp48
 70
     1
102
RTVSPost2010Prop49
280
     0
102
RTVSPost2010PropOp49
 70
     1
102
RTVSPost2010Prop50
 90
       50
102
RTVSPost2010PropOp50
 70
     1
102
RTVSPost2010Prop51ColorIndex
 90
      256
102
RTVSPost2010Prop51ColorRGB
 90
-16777216
102
RTVSPost2010PropOp51
 70
     0
102
RTVSPost2010Prop52
140
1.0
102
RTVSPost2010PropOp52
 70
     0
102
RTVSPost2010Prop53
 90
        2
102
RTVSPost2010PropOp53
 70
     1
102
RTVSPost2010Prop54
  1
strokes_ogs.tif
102
RTVSPost2010PropOp54
 70
     1
102
RTVSPost2010Prop55
280
     0
102
RTVSPost2010PropOp55
 70
     1
102
RTVSPost2010Prop56
140
1.0
102
RTVSPost2010PropOp56
 70
     1
102
RTVSPost2010Prop57
140
1.0
102
RTVSPost2010PropOp57
 70
     1
102
RTVSPropertyOp0
 70
     1
102
RTVSPropertyOp1
 70
     1
102
RTVSPropertyOp2
 70
     1
102
RTVSPropertyOp3
 70
     1
102
RTVSPropertyOp4
 70
     1
102
RTVSPropertyOp5
 70
     1
102
RTVSPropertyOp6
 70
     1
102
RTVSPropertyOp7
 70
     1
102
RTVSPropertyOp8
 70
     1
102
RTVSPropertyOp9
 70
     1
102
RTVSPropertyOp10
 70
     1
102
RTVSPropertyOp11
 70
     1
102
RTVSPropertyOp12
 70
     1
102
RTVSPropertyOp13
 70
     1
102
RTVSPropertyOp14
 70
     1
102
RTVSPropertyOp15
 70
     1
102
RTVSPropertyOp16
 70
     1
102
RTVSPropertyOp17
 70
     1
102
RTVSPropertyOp18
 70
     1
102
RTVSPropertyOp19
 70
     1
102
RTVSPropertyOp20
 70
     1
102
RTVSPropertyOp21
 70
     1
102
RTVSPropertyOp22
 70
     1
102
RTVSPropertyOp23
 70
     1
102
RTVSPropertyOp24
 70
     1
102
RTVSPropertyOp25
 70
     1
102
RTVSPropertyOp26
 70
     1
102
RTVSPropertyOp27
 70
     1
102
RTVSPropertyOp28
 70
     1
102
RTVSPropertyOp29
 70
     1
102
RTVSPropertyOp30
 70
     1
102
RTVSPropertyOp31
 70
     1
102
RTVSPropertyOp32
 70
     1
102
RTVSPropertyOp33
 70
     1
102
RTVSPropertyOp34
 70
     1
102
RTVSPropertyOp35
 70
     1
102
RTVSPropertyOp36
 70
     1
102
RTVSPropertyOp37
 70
     1
102
RTVSPropertyOp38
 70
     1
102
RTVSPropertyOp39
 70
     1
102
RTVSPropertyOp40
 70
     1
102
RTVSPropertyOp41
 70
     1
102
RTVSPropertyOp42
 70
     1
102
RTVSPropertyOp43
 70
     1
102
RTVSPropertyOp44
 70
     1
102
RTVSPropertyOp45
 70
     1
102
RTVSPropertyOp46
 70
     1
102
RTVSPropertyOp47
 70
     1
102
RTVSPropertyOp48
 70
     1
102
RTVSPropertyOp49
 70
     1
102
RTVSPropertyOp50
 70
     1
102
RTVSPropertyOp51
 70
     0
102
RTVSPropertyOp52
 70
     0
102
RTVSPropertyOp53
 70
     1
102
RTVSPropertyOp54
 70
     1
102
RTVSPropertyOp55
 70
     1
102
RTVSPropertyOp56
 70
     1
102
RTVSPropertyOp57
 70
     1
102
RTVSPropertyOp58
 70
     1
102
RTVSPropertyOp59
 70
     1
102
RTVSPropertyOp60
 70
     1
102
RTVSPropertyOp61
 70
     1
102
RTVSPropertyOp62
 70
     1
  0
XRECORD
  5
87C9
102
{ACAD_REACTORS
330
87C8
102
}
330
87C8
100
AcDbXrecord
280
     1
102
RTVSPost2010Prop28
280
     0
102
RTVSPost2010PropOp28
 70
     1
102
RTVSPost2010Prop29
280
     1
102
RTVSPost2010PropOp29
 70
     1
102
RTVSPost2010Prop30
280
     1
102
RTVSPost2010PropOp30
 70
     1
102
RTVSPost2010Prop31
280
     0
102
RTVSPost2010PropOp31
 70
     1
102
RTVSPost2010Prop32
280
     0
102
RTVSPost2010PropOp32
 70
     1
102
RTVSPost2010Prop33
280
     0
102
RTVSPost2010PropOp33
 70
     1
102
RTVSPost2010Prop34
280
     0
102
RTVSPost2010PropOp34
 70
     1
102
RTVSPost2010Prop35
280
     0
102
RTVSPost2010PropOp35
 70
     1
102
RTVSPost2010Prop36
280
     0
102
RTVSPost2010PropOp36
 70
     1
102
RTVSPost2010Prop37
 90
       50
102
RTVSPost2010PropOp37
 70
     1
102
RTVSPost2010Prop38
140
0.0
102
RTVSPost2010PropOp38
 70
     1
102
RTVSPost2010Prop39
140
1.0
102
RTVSPost2010PropOp39
 70
     1
102
RTVSPost2010Prop40
 90
        0
102
RTVSPost2010PropOp40
 70
     1
102
RTVSPost2010Prop41ColorIndex
 90
       18
102
RTVSPost2010Prop41ColorRGB
 90
        0
102
RTVSPost2010PropOp41
 70
     1
102
RTVSPost2010Prop42
 90
       50
102
RTVSPost2010PropOp42
 70
     1
102
RTVSPost2010Prop43
 90
        3
102
RTVSPost2010PropOp43
 70
     1
102
RTVSPost2010Prop44ColorIndex
 90
        5
102
RTVSPost2010Prop44ColorRGB
 90
      255
102
RTVSPost2010PropOp44
 70
     1
102
RTVSPost2010Prop45
280
     0
102
RTVSPost2010PropOp45
 70
     1
102
RTVSPost2010Prop46
 90
       50
102
RTVSPost2010PropOp46
 70
     1
102
RTVSPost2010Prop47
 90
       50
102
RTVSPost2010PropOp47
 70
     1
102
RTVSPost2010Prop48
 90
       50
102
RTVSPost2010PropOp48
 70
     1
102
RTVSPost2010Prop49
280
     0
102
RTVSPost2010PropOp49
 70
     1
102
RTVSPost2010Prop50
 90
       50
102
RTVSPost2010PropOp50
 70
     1
102
RTVSPost2010Prop51ColorIndex
 90
      256
102
RTVSPost2010Prop51ColorRGB
 90
-16777216
102
RTVSPost2010PropOp51
 70
     0
102
RTVSPost2010Prop52
140
1.0
102
RTVSPost2010PropOp52
 70
     0
102
RTVSPost2010Prop53
 90
        2
102
RTVSPost2010PropOp53
 70
     1
102
RTVSPost2010Prop54
  1
strokes_ogs.tif
102
RTVSPost2010PropOp54
 70
     1
102
RTVSPost2010Prop55
280
     0
102
RTVSPost2010PropOp55
 70
     1
102
RTVSPost2010Prop56
140
1.0
102
RTVSPost2010PropOp56
 70
     1
102
RTVSPost2010Prop57
140
1.0
102
RTVSPost2010PropOp57
 70
     1
102
RTVSPropertyOp0
 70
     1
102
RTVSPropertyOp1
 70
     1
102
RTVSPropertyOp2
 70
     1
102
RTVSPropertyOp3
 70
     1
102
RTVSPropertyOp4
 70
     1
102
RTVSPropertyOp5
 70
     1
102
RTVSPropertyOp6
 70
     1
102
RTVSPropertyOp7
 70
     1
102
RTVSPropertyOp8
 70
     1
102
RTVSPropertyOp9
 70
     1
102
RTVSPropertyOp10
 70
     1
102
RTVSPropertyOp11
 70
     1
102
RTVSPropertyOp12
 70
     1
102
RTVSPropertyOp13
 70
     1
102
RTVSPropertyOp14
 70
     1
102
RTVSPropertyOp15
 70
     1
102
RTVSPropertyOp16
 70
     1
102
RTVSPropertyOp17
 70
     1
102
RTVSPropertyOp18
 70
     1
102
RTVSPropertyOp19
 70
     1
102
RTVSPropertyOp20
 70
     1
102
RTVSPropertyOp21
 70
     1
102
RTVSPropertyOp22
 70
     1
102
RTVSPropertyOp23
 70
     1
102
RTVSPropertyOp24
 70
     1
102
RTVSPropertyOp25
 70
     1
102
RTVSPropertyOp26
 70
     1
102
RTVSPropertyOp27
 70
     1
102
RTVSPropertyOp28
 70
     1
102
RTVSPropertyOp29
 70
     1
102
RTVSPropertyOp30
 70
     1
102
RTVSPropertyOp31
 70
     1
102
RTVSPropertyOp32
 70
     1
102
RTVSPropertyOp33
 70
     1
102
RTVSPropertyOp34
 70
     1
102
RTVSPropertyOp35
 70
     1
102
RTVSPropertyOp36
 70
     1
102
RTVSPropertyOp37
 70
     1
102
RTVSPropertyOp38
 70
     1
102
RTVSPropertyOp39
 70
     1
102
RTVSPropertyOp40
 70
     1
102
RTVSPropertyOp41
 70
     1
102
RTVSPropertyOp42
 70
     1
102
RTVSPropertyOp43
 70
     1
102
RTVSPropertyOp44
 70
     1
102
RTVSPropertyOp45
 70
     1
102
RTVSPropertyOp46
 70
     1
102
RTVSPropertyOp47
 70
     1
102
RTVSPropertyOp48
 70
     1
102
RTVSPropertyOp49
 70
     1
102
RTVSPropertyOp50
 70
     1
102
RTVSPropertyOp51
 70
     0
102
RTVSPropertyOp52
 70
     0
102
RTVSPropertyOp53
 70
     1
102
RTVSPropertyOp54
 70
     1
102
RTVSPropertyOp55
 70
     1
102
RTVSPropertyOp56
 70
     1
102
RTVSPropertyOp57
 70
     1
102
RTVSPropertyOp58
 70
     1
102
RTVSPropertyOp59
 70
     1
102
RTVSPropertyOp60
 70
     1
102
RTVSPropertyOp61
 70
     1
102
RTVSPropertyOp62
 70
     1
  0
XRECORD
  5
87E5
102
{ACAD_REACTORS
330
87E4
102
}
330
87E4
100
AcDbXrecord
280
     1
102
RTVSPost2010Prop28
280
     0
102
RTVSPost2010PropOp28
 70
     1
102
RTVSPost2010Prop29
280
     1
102
RTVSPost2010PropOp29
 70
     1
102
RTVSPost2010Prop30
280
     1
102
RTVSPost2010PropOp30
 70
     1
102
RTVSPost2010Prop31
280
     0
102
RTVSPost2010PropOp31
 70
     1
102
RTVSPost2010Prop32
280
     0
102
RTVSPost2010PropOp32
 70
     1
102
RTVSPost2010Prop33
280
     0
102
RTVSPost2010PropOp33
 70
     1
102
RTVSPost2010Prop34
280
     0
102
RTVSPost2010PropOp34
 70
     1
102
RTVSPost2010Prop35
280
     0
102
RTVSPost2010PropOp35
 70
     1
102
RTVSPost2010Prop36
280
     0
102
RTVSPost2010PropOp36
 70
     1
102
RTVSPost2010Prop37
 90
       50
102
RTVSPost2010PropOp37
 70
     0
102
RTVSPost2010Prop38
140
0.0
102
RTVSPost2010PropOp38
 70
     0
102
RTVSPost2010Prop39
140
1.0
102
RTVSPost2010PropOp39
 70
     0
102
RTVSPost2010Prop40
 90
        0
102
RTVSPost2010PropOp40
 70
     0
102
RTVSPost2010Prop41ColorIndex
 90
       18
102
RTVSPost2010Prop41ColorRGB
 90
        0
102
RTVSPost2010PropOp41
 70
     0
102
RTVSPost2010Prop42
 90
       50
102
RTVSPost2010PropOp42
 70
     0
102
RTVSPost2010Prop43
 90
        3
102
RTVSPost2010PropOp43
 70
     0
102
RTVSPost2010Prop44ColorIndex
 90
        5
102
RTVSPost2010Prop44ColorRGB
 90
      255
102
RTVSPost2010PropOp44
 70
     0
102
RTVSPost2010Prop45
280
     0
102
RTVSPost2010PropOp45
 70
     1
102
RTVSPost2010Prop46
 90
       50
102
RTVSPost2010PropOp46
 70
     0
102
RTVSPost2010Prop47
 90
       50
102
RTVSPost2010PropOp47
 70
     0
102
RTVSPost2010Prop48
 90
       50
102
RTVSPost2010PropOp48
 70
     0
102
RTVSPost2010Prop49
280
     0
102
RTVSPost2010PropOp49
 70
     1
102
RTVSPost2010Prop50
 90
       50
102
RTVSPost2010PropOp50
 70
     0
102
RTVSPost2010Prop51ColorIndex
 90
      256
102
RTVSPost2010Prop51ColorRGB
 90
-16777216
102
RTVSPost2010PropOp51
 70
     0
102
RTVSPost2010Prop52
140
1.0
102
RTVSPost2010PropOp52
 70
     0
102
RTVSPost2010Prop53
 90
        2
102
RTVSPost2010PropOp53
 70
     0
102
RTVSPost2010Prop54
  1
strokes_ogs.tif
102
RTVSPost2010PropOp54
 70
     0
102
RTVSPost2010Prop55
280
     0
102
RTVSPost2010PropOp55
 70
     1
102
RTVSPost2010Prop56
140
1.0
102
RTVSPost2010PropOp56
 70
     0
102
RTVSPost2010Prop57
140
1.0
102
RTVSPost2010PropOp57
 70
     0
102
RTVSPropertyOp0
 70
     0
102
RTVSPropertyOp1
 70
     0
102
RTVSPropertyOp2
 70
     0
102
RTVSPropertyOp3
 70
     0
102
RTVSPropertyOp4
 70
     0
102
RTVSPropertyOp5
 70
     0
102
RTVSPropertyOp6
 70
     0
102
RTVSPropertyOp7
 70
     0
102
RTVSPropertyOp8
 70
     0
102
RTVSPropertyOp9
 70
     0
102
RTVSPropertyOp10
 70
     0
102
RTVSPropertyOp11
 70
     0
102
RTVSPropertyOp12
 70
     0
102
RTVSPropertyOp13
 70
     0
102
RTVSPropertyOp14
 70
     2
102
RTVSPropertyOp15
 70
     0
102
RTVSPropertyOp16
 70
     0
102
RTVSPropertyOp17
 70
     0
102
RTVSPropertyOp18
 70
     0
102
RTVSPropertyOp19
 70
     0
102
RTVSPropertyOp20
 70
     0
102
RTVSPropertyOp21
 70
     0
102
RTVSPropertyOp22
 70
     0
102
RTVSPropertyOp23
 70
     0
102
RTVSPropertyOp24
 70
     0
102
RTVSPropertyOp25
 70
     0
102
RTVSPropertyOp26
 70
     0
102
RTVSPropertyOp27
 70
     0
102
RTVSPropertyOp28
 70
     1
102
RTVSPropertyOp29
 70
     1
102
RTVSPropertyOp30
 70
     1
102
RTVSPropertyOp31
 70
     1
102
RTVSPropertyOp32
 70
     1
102
RTVSPropertyOp33
 70
     1
102
RTVSPropertyOp34
 70
     1
102
RTVSPropertyOp35
 70
     1
102
RTVSPropertyOp36
 70
     1
102
RTVSPropertyOp37
 70
     0
102
RTVSPropertyOp38
 70
     0
102
RTVSPropertyOp39
 70
     0
102
RTVSPropertyOp40
 70
     0
102
RTVSPropertyOp41
 70
     0
102
RTVSPropertyOp42
 70
     0
102
RTVSPropertyOp43
 70
     0
102
RTVSPropertyOp44
 70
     0
102
RTVSPropertyOp45
 70
     1
102
RTVSPropertyOp46
 70
     0
102
RTVSPropertyOp47
 70
     0
102
RTVSPropertyOp48
 70
     0
102
RTVSPropertyOp49
 70
     1
102
RTVSPropertyOp50
 70
     0
102
RTVSPropertyOp51
 70
     0
102
RTVSPropertyOp52
 70
     0
102
RTVSPropertyOp53
 70
     0
102
RTVSPropertyOp54
 70
     0
102
RTVSPropertyOp55
 70
     1
102
RTVSPropertyOp56
 70
     0
102
RTVSPropertyOp57
 70
     0
102
RTVSPropertyOp58
 70
     0
102
RTVSPropertyOp59
 70
     0
102
RTVSPropertyOp60
 70
     0
102
RTVSPropertyOp61
 70
     0
102
RTVSPropertyOp62
 70
     0
  0
XRECORD
  5
87D5
102
{ACAD_REACTORS
330
87D4
102
}
330
87D4
100
AcDbXrecord
280
     1
102
RTVSPost2010Prop28
280
     0
102
RTVSPost2010PropOp28
 70
     1
102
RTVSPost2010Prop29
280
     1
102
RTVSPost2010PropOp29
 70
     1
102
RTVSPost2010Prop30
280
     1
102
RTVSPost2010PropOp30
 70
     1
102
RTVSPost2010Prop31
280
     0
102
RTVSPost2010PropOp31
 70
     1
102
RTVSPost2010Prop32
280
     0
102
RTVSPost2010PropOp32
 70
     1
102
RTVSPost2010Prop33
280
     0
102
RTVSPost2010PropOp33
 70
     1
102
RTVSPost2010Prop34
280
     0
102
RTVSPost2010PropOp34
 70
     1
102
RTVSPost2010Prop35
280
     0
102
RTVSPost2010PropOp35
 70
     1
102
RTVSPost2010Prop36
280
     0
102
RTVSPost2010PropOp36
 70
     1
102
RTVSPost2010Prop37
 90
       50
102
RTVSPost2010PropOp37
 70
     1
102
RTVSPost2010Prop38
140
0.0
102
RTVSPost2010PropOp38
 70
     1
102
RTVSPost2010Prop39
140
1.0
102
RTVSPost2010PropOp39
 70
     1
102
RTVSPost2010Prop40
 90
        0
102
RTVSPost2010PropOp40
 70
     1
102
RTVSPost2010Prop41ColorIndex
 90
       18
102
RTVSPost2010Prop41ColorRGB
 90
        0
102
RTVSPost2010PropOp41
 70
     1
102
RTVSPost2010Prop42
 90
       50
102
RTVSPost2010PropOp42
 70
     1
102
RTVSPost2010Prop43
 90
        3
102
RTVSPost2010PropOp43
 70
     1
102
RTVSPost2010Prop44ColorIndex
 90
        5
102
RTVSPost2010Prop44ColorRGB
 90
      255
102
RTVSPost2010PropOp44
 70
     1
102
RTVSPost2010Prop45
280
     0
102
RTVSPost2010PropOp45
 70
     1
102
RTVSPost2010Prop46
 90
       50
102
RTVSPost2010PropOp46
 70
     1
102
RTVSPost2010Prop47
 90
       50
102
RTVSPost2010PropOp47
 70
     1
102
RTVSPost2010Prop48
 90
       50
102
RTVSPost2010PropOp48
 70
     1
102
RTVSPost2010Prop49
280
     0
102
RTVSPost2010PropOp49
 70
     1
102
RTVSPost2010Prop50
 90
       50
102
RTVSPost2010PropOp50
 70
     1
102
RTVSPost2010Prop51ColorIndex
 90
      256
102
RTVSPost2010Prop51ColorRGB
 90
-16777216
102
RTVSPost2010PropOp51
 70
     0
102
RTVSPost2010Prop52
140
1.0
102
RTVSPost2010PropOp52
 70
     0
102
RTVSPost2010Prop53
 90
        2
102
RTVSPost2010PropOp53
 70
     1
102
RTVSPost2010Prop54
  1
strokes_ogs.tif
102
RTVSPost2010PropOp54
 70
     1
102
RTVSPost2010Prop55
280
     0
102
RTVSPost2010PropOp55
 70
     1
102
RTVSPost2010Prop56
140
1.0
102
RTVSPost2010PropOp56
 70
     1
102
RTVSPost2010Prop57
140
1.0
102
RTVSPost2010PropOp57
 70
     1
102
RTVSPropertyOp0
 70
     1
102
RTVSPropertyOp1
 70
     1
102
RTVSPropertyOp2
 70
     1
102
RTVSPropertyOp3
 70
     1
102
RTVSPropertyOp4
 70
     1
102
RTVSPropertyOp5
 70
     1
102
RTVSPropertyOp6
 70
     1
102
RTVSPropertyOp7
 70
     1
102
RTVSPropertyOp8
 70
     1
102
RTVSPropertyOp9
 70
     1
102
RTVSPropertyOp10
 70
     1
102
RTVSPropertyOp11
 70
     1
102
RTVSPropertyOp12
 70
     1
102
RTVSPropertyOp13
 70
     1
102
RTVSPropertyOp14
 70
     1
102
RTVSPropertyOp15
 70
     1
102
RTVSPropertyOp16
 70
     1
102
RTVSPropertyOp17
 70
     1
102
RTVSPropertyOp18
 70
     1
102
RTVSPropertyOp19
 70
     1
102
RTVSPropertyOp20
 70
     1
102
RTVSPropertyOp21
 70
     1
102
RTVSPropertyOp22
 70
     1
102
RTVSPropertyOp23
 70
     1
102
RTVSPropertyOp24
 70
     1
102
RTVSPropertyOp25
 70
     1
102
RTVSPropertyOp26
 70
     1
102
RTVSPropertyOp27
 70
     1
102
RTVSPropertyOp28
 70
     1
102
RTVSPropertyOp29
 70
     1
102
RTVSPropertyOp30
 70
     1
102
RTVSPropertyOp31
 70
     1
102
RTVSPropertyOp32
 70
     1
102
RTVSPropertyOp33
 70
     1
102
RTVSPropertyOp34
 70
     1
102
RTVSPropertyOp35
 70
     1
102
RTVSPropertyOp36
 70
     1
102
RTVSPropertyOp37
 70
     1
102
RTVSPropertyOp38
 70
     1
102
RTVSPropertyOp39
 70
     1
102
RTVSPropertyOp40
 70
     1
102
RTVSPropertyOp41
 70
     1
102
RTVSPropertyOp42
 70
     1
102
RTVSPropertyOp43
 70
     1
102
RTVSPropertyOp44
 70
     1
102
RTVSPropertyOp45
 70
     1
102
RTVSPropertyOp46
 70
     1
102
RTVSPropertyOp47
 70
     1
102
RTVSPropertyOp48
 70
     1
102
RTVSPropertyOp49
 70
     1
102
RTVSPropertyOp50
 70
     1
102
RTVSPropertyOp51
 70
     0
102
RTVSPropertyOp52
 70
     0
102
RTVSPropertyOp53
 70
     1
102
RTVSPropertyOp54
 70
     1
102
RTVSPropertyOp55
 70
     1
102
RTVSPropertyOp56
 70
     1
102
RTVSPropertyOp57
 70
     1
102
RTVSPropertyOp58
 70
     1
102
RTVSPropertyOp59
 70
     1
102
RTVSPropertyOp60
 70
     1
102
RTVSPropertyOp61
 70
     1
102
RTVSPropertyOp62
 70
     1
  0
XRECORD
  5
87E7
102
{ACAD_REACTORS
330
87E6
102
}
330
87E6
100
AcDbXrecord
280
     1
102
RTVSPost2010Prop28
280
     0
102
RTVSPost2010PropOp28
 70
     1
102
RTVSPost2010Prop29
280
     1
102
RTVSPost2010PropOp29
 70
     1
102
RTVSPost2010Prop30
280
     1
102
RTVSPost2010PropOp30
 70
     1
102
RTVSPost2010Prop31
280
     0
102
RTVSPost2010PropOp31
 70
     1
102
RTVSPost2010Prop32
280
     0
102
RTVSPost2010PropOp32
 70
     1
102
RTVSPost2010Prop33
280
     0
102
RTVSPost2010PropOp33
 70
     1
102
RTVSPost2010Prop34
280
     0
102
RTVSPost2010PropOp34
 70
     1
102
RTVSPost2010Prop35
280
     0
102
RTVSPost2010PropOp35
 70
     1
102
RTVSPost2010Prop36
280
     0
102
RTVSPost2010PropOp36
 70
     1
102
RTVSPost2010Prop37
 90
       50
102
RTVSPost2010PropOp37
 70
     0
102
RTVSPost2010Prop38
140
0.0
102
RTVSPost2010PropOp38
 70
     0
102
RTVSPost2010Prop39
140
1.0
102
RTVSPost2010PropOp39
 70
     0
102
RTVSPost2010Prop40
 90
        0
102
RTVSPost2010PropOp40
 70
     0
102
RTVSPost2010Prop41ColorIndex
 90
       18
102
RTVSPost2010Prop41ColorRGB
 90
        0
102
RTVSPost2010PropOp41
 70
     0
102
RTVSPost2010Prop42
 90
       50
102
RTVSPost2010PropOp42
 70
     0
102
RTVSPost2010Prop43
 90
        3
102
RTVSPost2010PropOp43
 70
     0
102
RTVSPost2010Prop44ColorIndex
 90
        5
102
RTVSPost2010Prop44ColorRGB
 90
      255
102
RTVSPost2010PropOp44
 70
     0
102
RTVSPost2010Prop45
280
     0
102
RTVSPost2010PropOp45
 70
     1
102
RTVSPost2010Prop46
 90
       50
102
RTVSPost2010PropOp46
 70
     0
102
RTVSPost2010Prop47
 90
       50
102
RTVSPost2010PropOp47
 70
     0
102
RTVSPost2010Prop48
 90
       50
102
RTVSPost2010PropOp48
 70
     0
102
RTVSPost2010Prop49
280
     0
102
RTVSPost2010PropOp49
 70
     1
102
RTVSPost2010Prop50
 90
       50
102
RTVSPost2010PropOp50
 70
     0
102
RTVSPost2010Prop51ColorIndex
 90
      256
102
RTVSPost2010Prop51ColorRGB
 90
-16777216
102
RTVSPost2010PropOp51
 70
     0
102
RTVSPost2010Prop52
140
1.0
102
RTVSPost2010PropOp52
 70
     0
102
RTVSPost2010Prop53
 90
        2
102
RTVSPost2010PropOp53
 70
     0
102
RTVSPost2010Prop54
  1
strokes_ogs.tif
102
RTVSPost2010PropOp54
 70
     0
102
RTVSPost2010Prop55
280
     0
102
RTVSPost2010PropOp55
 70
     1
102
RTVSPost2010Prop56
140
1.0
102
RTVSPost2010PropOp56
 70
     0
102
RTVSPost2010Prop57
140
1.0
102
RTVSPost2010PropOp57
 70
     0
102
RTVSPropertyOp0
 70
     0
102
RTVSPropertyOp1
 70
     0
102
RTVSPropertyOp2
 70
     0
102
RTVSPropertyOp3
 70
     0
102
RTVSPropertyOp4
 70
     0
102
RTVSPropertyOp5
 70
     0
102
RTVSPropertyOp6
 70
     0
102
RTVSPropertyOp7
 70
     0
102
RTVSPropertyOp8
 70
     0
102
RTVSPropertyOp9
 70
     0
102
RTVSPropertyOp10
 70
     0
102
RTVSPropertyOp11
 70
     0
102
RTVSPropertyOp12
 70
     0
102
RTVSPropertyOp13
 70
     0
102
RTVSPropertyOp14
 70
     2
102
RTVSPropertyOp15
 70
     0
102
RTVSPropertyOp16
 70
     0
102
RTVSPropertyOp17
 70
     0
102
RTVSPropertyOp18
 70
     0
102
RTVSPropertyOp19
 70
     0
102
RTVSPropertyOp20
 70
     0
102
RTVSPropertyOp21
 70
     0
102
RTVSPropertyOp22
 70
     0
102
RTVSPropertyOp23
 70
     0
102
RTVSPropertyOp24
 70
     0
102
RTVSPropertyOp25
 70
     0
102
RTVSPropertyOp26
 70
     0
102
RTVSPropertyOp27
 70
     0
102
RTVSPropertyOp28
 70
     1
102
RTVSPropertyOp29
 70
     1
102
RTVSPropertyOp30
 70
     1
102
RTVSPropertyOp31
 70
     1
102
RTVSPropertyOp32
 70
     1
102
RTVSPropertyOp33
 70
     1
102
RTVSPropertyOp34
 70
     1
102
RTVSPropertyOp35
 70
     1
102
RTVSPropertyOp36
 70
     1
102
RTVSPropertyOp37
 70
     0
102
RTVSPropertyOp38
 70
     0
102
RTVSPropertyOp39
 70
     0
102
RTVSPropertyOp40
 70
     0
102
RTVSPropertyOp41
 70
     0
102
RTVSPropertyOp42
 70
     0
102
RTVSPropertyOp43
 70
     0
102
RTVSPropertyOp44
 70
     0
102
RTVSPropertyOp45
 70
     1
102
RTVSPropertyOp46
 70
     0
102
RTVSPropertyOp47
 70
     0
102
RTVSPropertyOp48
 70
     0
102
RTVSPropertyOp49
 70
     1
102
RTVSPropertyOp50
 70
     0
102
RTVSPropertyOp51
 70
     0
102
RTVSPropertyOp52
 70
     0
102
RTVSPropertyOp53
 70
     0
102
RTVSPropertyOp54
 70
     0
102
RTVSPropertyOp55
 70
     1
102
RTVSPropertyOp56
 70
     0
102
RTVSPropertyOp57
 70
     0
102
RTVSPropertyOp58
 70
     0
102
RTVSPropertyOp59
 70
     0
102
RTVSPropertyOp60
 70
     0
102
RTVSPropertyOp61
 70
     0
102
RTVSPropertyOp62
 70
     0
  0
XRECORD
  5
87CD
102
{ACAD_REACTORS
330
87CC
102
}
330
87CC
100
AcDbXrecord
280
     1
102
RTVSPost2010Prop28
280
     0
102
RTVSPost2010PropOp28
 70
     1
102
RTVSPost2010Prop29
280
     1
102
RTVSPost2010PropOp29
 70
     1
102
RTVSPost2010Prop30
280
     1
102
RTVSPost2010PropOp30
 70
     1
102
RTVSPost2010Prop31
280
     0
102
RTVSPost2010PropOp31
 70
     1
102
RTVSPost2010Prop32
280
     0
102
RTVSPost2010PropOp32
 70
     1
102
RTVSPost2010Prop33
280
     0
102
RTVSPost2010PropOp33
 70
     1
102
RTVSPost2010Prop34
280
     0
102
RTVSPost2010PropOp34
 70
     1
102
RTVSPost2010Prop35
280
     0
102
RTVSPost2010PropOp35
 70
     1
102
RTVSPost2010Prop36
280
     0
102
RTVSPost2010PropOp36
 70
     1
102
RTVSPost2010Prop37
 90
       50
102
RTVSPost2010PropOp37
 70
     1
102
RTVSPost2010Prop38
140
0.0
102
RTVSPost2010PropOp38
 70
     1
102
RTVSPost2010Prop39
140
1.0
102
RTVSPost2010PropOp39
 70
     1
102
RTVSPost2010Prop40
 90
        0
102
RTVSPost2010PropOp40
 70
     1
102
RTVSPost2010Prop41ColorIndex
 90
       18
102
RTVSPost2010Prop41ColorRGB
 90
        0
102
RTVSPost2010PropOp41
 70
     1
102
RTVSPost2010Prop42
 90
       50
102
RTVSPost2010PropOp42
 70
     1
102
RTVSPost2010Prop43
 90
        3
102
RTVSPost2010PropOp43
 70
     1
102
RTVSPost2010Prop44ColorIndex
 90
        5
102
RTVSPost2010Prop44ColorRGB
 90
      255
102
RTVSPost2010PropOp44
 70
     1
102
RTVSPost2010Prop45
280
     0
102
RTVSPost2010PropOp45
 70
     1
102
RTVSPost2010Prop46
 90
       50
102
RTVSPost2010PropOp46
 70
     1
102
RTVSPost2010Prop47
 90
       50
102
RTVSPost2010PropOp47
 70
     1
102
RTVSPost2010Prop48
 90
       50
102
RTVSPost2010PropOp48
 70
     1
102
RTVSPost2010Prop49
280
     0
102
RTVSPost2010PropOp49
 70
     1
102
RTVSPost2010Prop50
 90
       50
102
RTVSPost2010PropOp50
 70
     1
102
RTVSPost2010Prop51ColorIndex
 90
      256
102
RTVSPost2010Prop51ColorRGB
 90
-16777216
102
RTVSPost2010PropOp51
 70
     0
102
RTVSPost2010Prop52
140
1.0
102
RTVSPost2010PropOp52
 70
     0
102
RTVSPost2010Prop53
 90
        2
102
RTVSPost2010PropOp53
 70
     1
102
RTVSPost2010Prop54
  1
strokes_ogs.tif
102
RTVSPost2010PropOp54
 70
     1
102
RTVSPost2010Prop55
280
     0
102
RTVSPost2010PropOp55
 70
     1
102
RTVSPost2010Prop56
140
1.0
102
RTVSPost2010PropOp56
 70
     1
102
RTVSPost2010Prop57
140
1.0
102
RTVSPost2010PropOp57
 70
     1
102
RTVSPropertyOp0
 70
     1
102
RTVSPropertyOp1
 70
     1
102
RTVSPropertyOp2
 70
     1
102
RTVSPropertyOp3
 70
     1
102
RTVSPropertyOp4
 70
     1
102
RTVSPropertyOp5
 70
     1
102
RTVSPropertyOp6
 70
     1
102
RTVSPropertyOp7
 70
     1
102
RTVSPropertyOp8
 70
     1
102
RTVSPropertyOp9
 70
     1
102
RTVSPropertyOp10
 70
     1
102
RTVSPropertyOp11
 70
     1
102
RTVSPropertyOp12
 70
     1
102
RTVSPropertyOp13
 70
     1
102
RTVSPropertyOp14
 70
     1
102
RTVSPropertyOp15
 70
     1
102
RTVSPropertyOp16
 70
     1
102
RTVSPropertyOp17
 70
     1
102
RTVSPropertyOp18
 70
     1
102
RTVSPropertyOp19
 70
     1
102
RTVSPropertyOp20
 70
     1
102
RTVSPropertyOp21
 70
     1
102
RTVSPropertyOp22
 70
     1
102
RTVSPropertyOp23
 70
     1
102
RTVSPropertyOp24
 70
     1
102
RTVSPropertyOp25
 70
     1
102
RTVSPropertyOp26
 70
     1
102
RTVSPropertyOp27
 70
     1
102
RTVSPropertyOp28
 70
     1
102
RTVSPropertyOp29
 70
     1
102
RTVSPropertyOp30
 70
     1
102
RTVSPropertyOp31
 70
     1
102
RTVSPropertyOp32
 70
     1
102
RTVSPropertyOp33
 70
     1
102
RTVSPropertyOp34
 70
     1
102
RTVSPropertyOp35
 70
     1
102
RTVSPropertyOp36
 70
     1
102
RTVSPropertyOp37
 70
     1
102
RTVSPropertyOp38
 70
     1
102
RTVSPropertyOp39
 70
     1
102
RTVSPropertyOp40
 70
     1
102
RTVSPropertyOp41
 70
     1
102
RTVSPropertyOp42
 70
     1
102
RTVSPropertyOp43
 70
     1
102
RTVSPropertyOp44
 70
     1
102
RTVSPropertyOp45
 70
     1
102
RTVSPropertyOp46
 70
     1
102
RTVSPropertyOp47
 70
     1
102
RTVSPropertyOp48
 70
     1
102
RTVSPropertyOp49
 70
     1
102
RTVSPropertyOp50
 70
     1
102
RTVSPropertyOp51
 70
     0
102
RTVSPropertyOp52
 70
     0
102
RTVSPropertyOp53
 70
     1
102
RTVSPropertyOp54
 70
     1
102
RTVSPropertyOp55
 70
     1
102
RTVSPropertyOp56
 70
     1
102
RTVSPropertyOp57
 70
     1
102
RTVSPropertyOp58
 70
     1
102
RTVSPropertyOp59
 70
     1
102
RTVSPropertyOp60
 70
     1
102
RTVSPropertyOp61
 70
     1
102
RTVSPropertyOp62
 70
     1
  0
XRECORD
  5
87E3
102
{ACAD_REACTORS
330
87E2
102
}
330
87E2
100
AcDbXrecord
280
     1
102
RTVSPost2010Prop28
280
     0
102
RTVSPost2010PropOp28
 70
     1
102
RTVSPost2010Prop29
280
     1
102
RTVSPost2010PropOp29
 70
     1
102
RTVSPost2010Prop30
280
     1
102
RTVSPost2010PropOp30
 70
     1
102
RTVSPost2010Prop31
280
     0
102
RTVSPost2010PropOp31
 70
     1
102
RTVSPost2010Prop32
280
     0
102
RTVSPost2010PropOp32
 70
     1
102
RTVSPost2010Prop33
280
     0
102
RTVSPost2010PropOp33
 70
     1
102
RTVSPost2010Prop34
280
     0
102
RTVSPost2010PropOp34
 70
     1
102
RTVSPost2010Prop35
280
     0
102
RTVSPost2010PropOp35
 70
     1
102
RTVSPost2010Prop36
280
     0
102
RTVSPost2010PropOp36
 70
     1
102
RTVSPost2010Prop37
 90
       50
102
RTVSPost2010PropOp37
 70
     1
102
RTVSPost2010Prop38
140
0.0
102
RTVSPost2010PropOp38
 70
     1
102
RTVSPost2010Prop39
140
1.0
102
RTVSPost2010PropOp39
 70
     1
102
RTVSPost2010Prop40
 90
        0
102
RTVSPost2010PropOp40
 70
     1
102
RTVSPost2010Prop41ColorIndex
 90
       18
102
RTVSPost2010Prop41ColorRGB
 90
        0
102
RTVSPost2010PropOp41
 70
     1
102
RTVSPost2010Prop42
 90
       50
102
RTVSPost2010PropOp42
 70
     1
102
RTVSPost2010Prop43
 90
        3
102
RTVSPost2010PropOp43
 70
     1
102
RTVSPost2010Prop44ColorIndex
 90
        5
102
RTVSPost2010Prop44ColorRGB
 90
      255
102
RTVSPost2010PropOp44
 70
     1
102
RTVSPost2010Prop45
280
     0
102
RTVSPost2010PropOp45
 70
     1
102
RTVSPost2010Prop46
 90
       50
102
RTVSPost2010PropOp46
 70
     1
102
RTVSPost2010Prop47
 90
       50
102
RTVSPost2010PropOp47
 70
     1
102
RTVSPost2010Prop48
 90
       50
102
RTVSPost2010PropOp48
 70
     1
102
RTVSPost2010Prop49
280
     0
102
RTVSPost2010PropOp49
 70
     1
102
RTVSPost2010Prop50
 90
       50
102
RTVSPost2010PropOp50
 70
     1
102
RTVSPost2010Prop51ColorIndex
 90
      256
102
RTVSPost2010Prop51ColorRGB
 90
-16777216
102
RTVSPost2010PropOp51
 70
     0
102
RTVSPost2010Prop52
140
1.0
102
RTVSPost2010PropOp52
 70
     0
102
RTVSPost2010Prop53
 90
        2
102
RTVSPost2010PropOp53
 70
     1
102
RTVSPost2010Prop54
  1
strokes_ogs.tif
102
RTVSPost2010PropOp54
 70
     1
102
RTVSPost2010Prop55
280
     0
102
RTVSPost2010PropOp55
 70
     1
102
RTVSPost2010Prop56
140
1.0
102
RTVSPost2010PropOp56
 70
     1
102
RTVSPost2010Prop57
140
1.0
102
RTVSPost2010PropOp57
 70
     1
102
RTVSPropertyOp0
 70
     1
102
RTVSPropertyOp1
 70
     1
102
RTVSPropertyOp2
 70
     1
102
RTVSPropertyOp3
 70
     1
102
RTVSPropertyOp4
 70
     1
102
RTVSPropertyOp5
 70
     1
102
RTVSPropertyOp6
 70
     1
102
RTVSPropertyOp7
 70
     1
102
RTVSPropertyOp8
 70
     1
102
RTVSPropertyOp9
 70
     1
102
RTVSPropertyOp10
 70
     1
102
RTVSPropertyOp11
 70
     1
102
RTVSPropertyOp12
 70
     1
102
RTVSPropertyOp13
 70
     1
102
RTVSPropertyOp14
 70
     1
102
RTVSPropertyOp15
 70
     1
102
RTVSPropertyOp16
 70
     1
102
RTVSPropertyOp17
 70
     1
102
RTVSPropertyOp18
 70
     1
102
RTVSPropertyOp19
 70
     1
102
RTVSPropertyOp20
 70
     1
102
RTVSPropertyOp21
 70
     1
102
RTVSPropertyOp22
 70
     1
102
RTVSPropertyOp23
 70
     1
102
RTVSPropertyOp24
 70
     1
102
RTVSPropertyOp25
 70
     1
102
RTVSPropertyOp26
 70
     1
102
RTVSPropertyOp27
 70
     1
102
RTVSPropertyOp28
 70
     1
102
RTVSPropertyOp29
 70
     1
102
RTVSPropertyOp30
 70
     1
102
RTVSPropertyOp31
 70
     1
102
RTVSPropertyOp32
 70
     1
102
RTVSPropertyOp33
 70
     1
102
RTVSPropertyOp34
 70
     1
102
RTVSPropertyOp35
 70
     1
102
RTVSPropertyOp36
 70
     1
102
RTVSPropertyOp37
 70
     1
102
RTVSPropertyOp38
 70
     1
102
RTVSPropertyOp39
 70
     1
102
RTVSPropertyOp40
 70
     1
102
RTVSPropertyOp41
 70
     1
102
RTVSPropertyOp42
 70
     1
102
RTVSPropertyOp43
 70
     1
102
RTVSPropertyOp44
 70
     1
102
RTVSPropertyOp45
 70
     1
102
RTVSPropertyOp46
 70
     1
102
RTVSPropertyOp47
 70
     1
102
RTVSPropertyOp48
 70
     1
102
RTVSPropertyOp49
 70
     1
102
RTVSPropertyOp50
 70
     1
102
RTVSPropertyOp51
 70
     0
102
RTVSPropertyOp52
 70
     0
102
RTVSPropertyOp53
 70
     1
102
RTVSPropertyOp54
 70
     1
102
RTVSPropertyOp55
 70
     1
102
RTVSPropertyOp56
 70
     1
102
RTVSPropertyOp57
 70
     1
102
RTVSPropertyOp58
 70
     1
102
RTVSPropertyOp59
 70
     1
102
RTVSPropertyOp60
 70
     1
102
RTVSPropertyOp61
 70
     1
102
RTVSPropertyOp62
 70
     1
  0
XRECORD
  5
87E1
102
{ACAD_REACTORS
330
87E0
102
}
330
87E0
100
AcDbXrecord
280
     1
102
RTVSPost2010Prop28
280
     0
102
RTVSPost2010PropOp28
 70
     1
102
RTVSPost2010Prop29
280
     1
102
RTVSPost2010PropOp29
 70
     1
102
RTVSPost2010Prop30
280
     1
102
RTVSPost2010PropOp30
 70
     1
102
RTVSPost2010Prop31
280
     0
102
RTVSPost2010PropOp31
 70
     1
102
RTVSPost2010Prop32
280
     0
102
RTVSPost2010PropOp32
 70
     1
102
RTVSPost2010Prop33
280
     0
102
RTVSPost2010PropOp33
 70
     1
102
RTVSPost2010Prop34
280
     0
102
RTVSPost2010PropOp34
 70
     1
102
RTVSPost2010Prop35
280
     0
102
RTVSPost2010PropOp35
 70
     1
102
RTVSPost2010Prop36
280
     0
102
RTVSPost2010PropOp36
 70
     1
102
RTVSPost2010Prop37
 90
       50
102
RTVSPost2010PropOp37
 70
     1
102
RTVSPost2010Prop38
140
0.0
102
RTVSPost2010PropOp38
 70
     1
102
RTVSPost2010Prop39
140
1.0
102
RTVSPost2010PropOp39
 70
     1
102
RTVSPost2010Prop40
 90
        0
102
RTVSPost2010PropOp40
 70
     1
102
RTVSPost2010Prop41ColorIndex
 90
       18
102
RTVSPost2010Prop41ColorRGB
 90
        0
102
RTVSPost2010PropOp41
 70
     1
102
RTVSPost2010Prop42
 90
       50
102
RTVSPost2010PropOp42
 70
     1
102
RTVSPost2010Prop43
 90
        3
102
RTVSPost2010PropOp43
 70
     1
102
RTVSPost2010Prop44ColorIndex
 90
        5
102
RTVSPost2010Prop44ColorRGB
 90
      255
102
RTVSPost2010PropOp44
 70
     1
102
RTVSPost2010Prop45
280
     0
102
RTVSPost2010PropOp45
 70
     1
102
RTVSPost2010Prop46
 90
       50
102
RTVSPost2010PropOp46
 70
     1
102
RTVSPost2010Prop47
 90
       50
102
RTVSPost2010PropOp47
 70
     1
102
RTVSPost2010Prop48
 90
       50
102
RTVSPost2010PropOp48
 70
     1
102
RTVSPost2010Prop49
280
     0
102
RTVSPost2010PropOp49
 70
     1
102
RTVSPost2010Prop50
 90
       50
102
RTVSPost2010PropOp50
 70
     1
102
RTVSPost2010Prop51ColorIndex
 90
      256
102
RTVSPost2010Prop51ColorRGB
 90
-16777216
102
RTVSPost2010PropOp51
 70
     0
102
RTVSPost2010Prop52
140
1.0
102
RTVSPost2010PropOp52
 70
     0
102
RTVSPost2010Prop53
 90
        2
102
RTVSPost2010PropOp53
 70
     1
102
RTVSPost2010Prop54
  1
strokes_ogs.tif
102
RTVSPost2010PropOp54
 70
     1
102
RTVSPost2010Prop55
280
     0
102
RTVSPost2010PropOp55
 70
     1
102
RTVSPost2010Prop56
140
1.0
102
RTVSPost2010PropOp56
 70
     1
102
RTVSPost2010Prop57
140
1.0
102
RTVSPost2010PropOp57
 70
     1
102
RTVSPropertyOp0
 70
     1
102
RTVSPropertyOp1
 70
     1
102
RTVSPropertyOp2
 70
     1
102
RTVSPropertyOp3
 70
     1
102
RTVSPropertyOp4
 70
     1
102
RTVSPropertyOp5
 70
     1
102
RTVSPropertyOp6
 70
     1
102
RTVSPropertyOp7
 70
     1
102
RTVSPropertyOp8
 70
     1
102
RTVSPropertyOp9
 70
     1
102
RTVSPropertyOp10
 70
     1
102
RTVSPropertyOp11
 70
     1
102
RTVSPropertyOp12
 70
     1
102
RTVSPropertyOp13
 70
     1
102
RTVSPropertyOp14
 70
     1
102
RTVSPropertyOp15
 70
     1
102
RTVSPropertyOp16
 70
     1
102
RTVSPropertyOp17
 70
     1
102
RTVSPropertyOp18
 70
     1
102
RTVSPropertyOp19
 70
     1
102
RTVSPropertyOp20
 70
     1
102
RTVSPropertyOp21
 70
     1
102
RTVSPropertyOp22
 70
     1
102
RTVSPropertyOp23
 70
     1
102
RTVSPropertyOp24
 70
     1
102
RTVSPropertyOp25
 70
     1
102
RTVSPropertyOp26
 70
     1
102
RTVSPropertyOp27
 70
     1
102
RTVSPropertyOp28
 70
     1
102
RTVSPropertyOp29
 70
     1
102
RTVSPropertyOp30
 70
     1
102
RTVSPropertyOp31
 70
     1
102
RTVSPropertyOp32
 70
     1
102
RTVSPropertyOp33
 70
     1
102
RTVSPropertyOp34
 70
     1
102
RTVSPropertyOp35
 70
     1
102
RTVSPropertyOp36
 70
     1
102
RTVSPropertyOp37
 70
     1
102
RTVSPropertyOp38
 70
     1
102
RTVSPropertyOp39
 70
     1
102
RTVSPropertyOp40
 70
     1
102
RTVSPropertyOp41
 70
     1
102
RTVSPropertyOp42
 70
     1
102
RTVSPropertyOp43
 70
     1
102
RTVSPropertyOp44
 70
     1
102
RTVSPropertyOp45
 70
     1
102
RTVSPropertyOp46
 70
     1
102
RTVSPropertyOp47
 70
     1
102
RTVSPropertyOp48
 70
     1
102
RTVSPropertyOp49
 70
     1
102
RTVSPropertyOp50
 70
     1
102
RTVSPropertyOp51
 70
     0
102
RTVSPropertyOp52
 70
     0
102
RTVSPropertyOp53
 70
     1
102
RTVSPropertyOp54
 70
     1
102
RTVSPropertyOp55
 70
     1
102
RTVSPropertyOp56
 70
     1
102
RTVSPropertyOp57
 70
     1
102
RTVSPropertyOp58
 70
     1
102
RTVSPropertyOp59
 70
     1
102
RTVSPropertyOp60
 70
     1
102
RTVSPropertyOp61
 70
     1
102
RTVSPropertyOp62
 70
     1
  0
XRECORD
  5
87DB
102
{ACAD_REACTORS
330
87DA
102
}
330
87DA
100
AcDbXrecord
280
     1
102
RTVSPost2010Prop28
280
     0
102
RTVSPost2010PropOp28
 70
     1
102
RTVSPost2010Prop29
280
     1
102
RTVSPost2010PropOp29
 70
     1
102
RTVSPost2010Prop30
280
     1
102
RTVSPost2010PropOp30
 70
     1
102
RTVSPost2010Prop31
280
     0
102
RTVSPost2010PropOp31
 70
     1
102
RTVSPost2010Prop32
280
     0
102
RTVSPost2010PropOp32
 70
     1
102
RTVSPost2010Prop33
280
     0
102
RTVSPost2010PropOp33
 70
     1
102
RTVSPost2010Prop34
280
     0
102
RTVSPost2010PropOp34
 70
     1
102
RTVSPost2010Prop35
280
     0
102
RTVSPost2010PropOp35
 70
     1
102
RTVSPost2010Prop36
280
     0
102
RTVSPost2010PropOp36
 70
     1
102
RTVSPost2010Prop37
 90
       50
102
RTVSPost2010PropOp37
 70
     1
102
RTVSPost2010Prop38
140
0.0
102
RTVSPost2010PropOp38
 70
     1
102
RTVSPost2010Prop39
140
1.0
102
RTVSPost2010PropOp39
 70
     1
102
RTVSPost2010Prop40
 90
        0
102
RTVSPost2010PropOp40
 70
     1
102
RTVSPost2010Prop41ColorIndex
 90
       18
102
RTVSPost2010Prop41ColorRGB
 90
        0
102
RTVSPost2010PropOp41
 70
     1
102
RTVSPost2010Prop42
 90
       50
102
RTVSPost2010PropOp42
 70
     1
102
RTVSPost2010Prop43
 90
        3
102
RTVSPost2010PropOp43
 70
     1
102
RTVSPost2010Prop44ColorIndex
 90
        5
102
RTVSPost2010Prop44ColorRGB
 90
      255
102
RTVSPost2010PropOp44
 70
     1
102
RTVSPost2010Prop45
280
     0
102
RTVSPost2010PropOp45
 70
     1
102
RTVSPost2010Prop46
 90
       50
102
RTVSPost2010PropOp46
 70
     1
102
RTVSPost2010Prop47
 90
       50
102
RTVSPost2010PropOp47
 70
     1
102
RTVSPost2010Prop48
 90
       50
102
RTVSPost2010PropOp48
 70
     1
102
RTVSPost2010Prop49
280
     0
102
RTVSPost2010PropOp49
 70
     1
102
RTVSPost2010Prop50
 90
       50
102
RTVSPost2010PropOp50
 70
     1
102
RTVSPost2010Prop51ColorIndex
 90
      256
102
RTVSPost2010Prop51ColorRGB
 90
-16777216
102
RTVSPost2010PropOp51
 70
     0
102
RTVSPost2010Prop52
140
1.0
102
RTVSPost2010PropOp52
 70
     0
102
RTVSPost2010Prop53
 90
        2
102
RTVSPost2010PropOp53
 70
     1
102
RTVSPost2010Prop54
  1
strokes_ogs.tif
102
RTVSPost2010PropOp54
 70
     1
102
RTVSPost2010Prop55
280
     0
102
RTVSPost2010PropOp55
 70
     1
102
RTVSPost2010Prop56
140
1.0
102
RTVSPost2010PropOp56
 70
     1
102
RTVSPost2010Prop57
140
1.0
102
RTVSPost2010PropOp57
 70
     1
102
RTVSPropertyOp0
 70
     1
102
RTVSPropertyOp1
 70
     1
102
RTVSPropertyOp2
 70
     1
102
RTVSPropertyOp3
 70
     1
102
RTVSPropertyOp4
 70
     1
102
RTVSPropertyOp5
 70
     1
102
RTVSPropertyOp6
 70
     1
102
RTVSPropertyOp7
 70
     1
102
RTVSPropertyOp8
 70
     1
102
RTVSPropertyOp9
 70
     1
102
RTVSPropertyOp10
 70
     1
102
RTVSPropertyOp11
 70
     1
102
RTVSPropertyOp12
 70
     1
102
RTVSPropertyOp13
 70
     1
102
RTVSPropertyOp14
 70
     1
102
RTVSPropertyOp15
 70
     1
102
RTVSPropertyOp16
 70
     1
102
RTVSPropertyOp17
 70
     1
102
RTVSPropertyOp18
 70
     1
102
RTVSPropertyOp19
 70
     1
102
RTVSPropertyOp20
 70
     1
102
RTVSPropertyOp21
 70
     1
102
RTVSPropertyOp22
 70
     1
102
RTVSPropertyOp23
 70
     1
102
RTVSPropertyOp24
 70
     1
102
RTVSPropertyOp25
 70
     1
102
RTVSPropertyOp26
 70
     1
102
RTVSPropertyOp27
 70
     1
102
RTVSPropertyOp28
 70
     1
102
RTVSPropertyOp29
 70
     1
102
RTVSPropertyOp30
 70
     1
102
RTVSPropertyOp31
 70
     1
102
RTVSPropertyOp32
 70
     1
102
RTVSPropertyOp33
 70
     1
102
RTVSPropertyOp34
 70
     1
102
RTVSPropertyOp35
 70
     1
102
RTVSPropertyOp36
 70
     1
102
RTVSPropertyOp37
 70
     1
102
RTVSPropertyOp38
 70
     1
102
RTVSPropertyOp39
 70
     1
102
RTVSPropertyOp40
 70
     1
102
RTVSPropertyOp41
 70
     1
102
RTVSPropertyOp42
 70
     1
102
RTVSPropertyOp43
 70
     1
102
RTVSPropertyOp44
 70
     1
102
RTVSPropertyOp45
 70
     1
102
RTVSPropertyOp46
 70
     1
102
RTVSPropertyOp47
 70
     1
102
RTVSPropertyOp48
 70
     1
102
RTVSPropertyOp49
 70
     1
102
RTVSPropertyOp50
 70
     1
102
RTVSPropertyOp51
 70
     0
102
RTVSPropertyOp52
 70
     0
102
RTVSPropertyOp53
 70
     1
102
RTVSPropertyOp54
 70
     1
102
RTVSPropertyOp55
 70
     1
102
RTVSPropertyOp56
 70
     1
102
RTVSPropertyOp57
 70
     1
102
RTVSPropertyOp58
 70
     1
102
RTVSPropertyOp59
 70
     1
102
RTVSPropertyOp60
 70
     1
102
RTVSPropertyOp61
 70
     1
102
RTVSPropertyOp62
 70
     1
  0
XRECORD
  5
87DD
102
{ACAD_REACTORS
330
87DC
102
}
330
87DC
100
AcDbXrecord
280
     1
102
RTVSPost2010Prop28
280
     0
102
RTVSPost2010PropOp28
 70
     1
102
RTVSPost2010Prop29
280
     1
102
RTVSPost2010PropOp29
 70
     1
102
RTVSPost2010Prop30
280
     1
102
RTVSPost2010PropOp30
 70
     1
102
RTVSPost2010Prop31
280
     0
102
RTVSPost2010PropOp31
 70
     1
102
RTVSPost2010Prop32
280
     0
102
RTVSPost2010PropOp32
 70
     1
102
RTVSPost2010Prop33
280
     0
102
RTVSPost2010PropOp33
 70
     1
102
RTVSPost2010Prop34
280
     0
102
RTVSPost2010PropOp34
 70
     1
102
RTVSPost2010Prop35
280
     0
102
RTVSPost2010PropOp35
 70
     1
102
RTVSPost2010Prop36
280
     0
102
RTVSPost2010PropOp36
 70
     1
102
RTVSPost2010Prop37
 90
       50
102
RTVSPost2010PropOp37
 70
     1
102
RTVSPost2010Prop38
140
0.0
102
RTVSPost2010PropOp38
 70
     1
102
RTVSPost2010Prop39
140
1.0
102
RTVSPost2010PropOp39
 70
     1
102
RTVSPost2010Prop40
 90
        0
102
RTVSPost2010PropOp40
 70
     1
102
RTVSPost2010Prop41ColorIndex
 90
       18
102
RTVSPost2010Prop41ColorRGB
 90
        0
102
RTVSPost2010PropOp41
 70
     1
102
RTVSPost2010Prop42
 90
       50
102
RTVSPost2010PropOp42
 70
     1
102
RTVSPost2010Prop43
 90
        3
102
RTVSPost2010PropOp43
 70
     1
102
RTVSPost2010Prop44ColorIndex
 90
        5
102
RTVSPost2010Prop44ColorRGB
 90
      255
102
RTVSPost2010PropOp44
 70
     1
102
RTVSPost2010Prop45
280
     0
102
RTVSPost2010PropOp45
 70
     1
102
RTVSPost2010Prop46
 90
       50
102
RTVSPost2010PropOp46
 70
     1
102
RTVSPost2010Prop47
 90
       50
102
RTVSPost2010PropOp47
 70
     1
102
RTVSPost2010Prop48
 90
       50
102
RTVSPost2010PropOp48
 70
     1
102
RTVSPost2010Prop49
280
     0
102
RTVSPost2010PropOp49
 70
     1
102
RTVSPost2010Prop50
 90
       50
102
RTVSPost2010PropOp50
 70
     1
102
RTVSPost2010Prop51ColorIndex
 90
      256
102
RTVSPost2010Prop51ColorRGB
 90
-16777216
102
RTVSPost2010PropOp51
 70
     0
102
RTVSPost2010Prop52
140
1.0
102
RTVSPost2010PropOp52
 70
     0
102
RTVSPost2010Prop53
 90
        2
102
RTVSPost2010PropOp53
 70
     1
102
RTVSPost2010Prop54
  1
strokes_ogs.tif
102
RTVSPost2010PropOp54
 70
     1
102
RTVSPost2010Prop55
280
     0
102
RTVSPost2010PropOp55
 70
     1
102
RTVSPost2010Prop56
140
1.0
102
RTVSPost2010PropOp56
 70
     1
102
RTVSPost2010Prop57
140
1.0
102
RTVSPost2010PropOp57
 70
     1
102
RTVSPropertyOp0
 70
     1
102
RTVSPropertyOp1
 70
     1
102
RTVSPropertyOp2
 70
     1
102
RTVSPropertyOp3
 70
     1
102
RTVSPropertyOp4
 70
     1
102
RTVSPropertyOp5
 70
     1
102
RTVSPropertyOp6
 70
     1
102
RTVSPropertyOp7
 70
     1
102
RTVSPropertyOp8
 70
     1
102
RTVSPropertyOp9
 70
     1
102
RTVSPropertyOp10
 70
     1
102
RTVSPropertyOp11
 70
     1
102
RTVSPropertyOp12
 70
     1
102
RTVSPropertyOp13
 70
     1
102
RTVSPropertyOp14
 70
     1
102
RTVSPropertyOp15
 70
     1
102
RTVSPropertyOp16
 70
     1
102
RTVSPropertyOp17
 70
     1
102
RTVSPropertyOp18
 70
     1
102
RTVSPropertyOp19
 70
     1
102
RTVSPropertyOp20
 70
     1
102
RTVSPropertyOp21
 70
     1
102
RTVSPropertyOp22
 70
     1
102
RTVSPropertyOp23
 70
     1
102
RTVSPropertyOp24
 70
     1
102
RTVSPropertyOp25
 70
     1
102
RTVSPropertyOp26
 70
     1
102
RTVSPropertyOp27
 70
     1
102
RTVSPropertyOp28
 70
     1
102
RTVSPropertyOp29
 70
     1
102
RTVSPropertyOp30
 70
     1
102
RTVSPropertyOp31
 70
     1
102
RTVSPropertyOp32
 70
     1
102
RTVSPropertyOp33
 70
     1
102
RTVSPropertyOp34
 70
     1
102
RTVSPropertyOp35
 70
     1
102
RTVSPropertyOp36
 70
     1
102
RTVSPropertyOp37
 70
     1
102
RTVSPropertyOp38
 70
     1
102
RTVSPropertyOp39
 70
     1
102
RTVSPropertyOp40
 70
     1
102
RTVSPropertyOp41
 70
     1
102
RTVSPropertyOp42
 70
     1
102
RTVSPropertyOp43
 70
     1
102
RTVSPropertyOp44
 70
     1
102
RTVSPropertyOp45
 70
     1
102
RTVSPropertyOp46
 70
     1
102
RTVSPropertyOp47
 70
     1
102
RTVSPropertyOp48
 70
     1
102
RTVSPropertyOp49
 70
     1
102
RTVSPropertyOp50
 70
     1
102
RTVSPropertyOp51
 70
     0
102
RTVSPropertyOp52
 70
     0
102
RTVSPropertyOp53
 70
     1
102
RTVSPropertyOp54
 70
     1
102
RTVSPropertyOp55
 70
     1
102
RTVSPropertyOp56
 70
     1
102
RTVSPropertyOp57
 70
     1
102
RTVSPropertyOp58
 70
     1
102
RTVSPropertyOp59
 70
     1
102
RTVSPropertyOp60
 70
     1
102
RTVSPropertyOp61
 70
     1
102
RTVSPropertyOp62
 70
     1
  0
XRECORD
  5
87D3
102
{ACAD_REACTORS
330
87D2
102
}
330
87D2
100
AcDbXrecord
280
     1
102
RTVSPost2010Prop28
280
     0
102
RTVSPost2010PropOp28
 70
     1
102
RTVSPost2010Prop29
280
     1
102
RTVSPost2010PropOp29
 70
     1
102
RTVSPost2010Prop30
280
     1
102
RTVSPost2010PropOp30
 70
     1
102
RTVSPost2010Prop31
280
     0
102
RTVSPost2010PropOp31
 70
     1
102
RTVSPost2010Prop32
280
     0
102
RTVSPost2010PropOp32
 70
     1
102
RTVSPost2010Prop33
280
     0
102
RTVSPost2010PropOp33
 70
     1
102
RTVSPost2010Prop34
280
     0
102
RTVSPost2010PropOp34
 70
     1
102
RTVSPost2010Prop35
280
     0
102
RTVSPost2010PropOp35
 70
     1
102
RTVSPost2010Prop36
280
     0
102
RTVSPost2010PropOp36
 70
     1
102
RTVSPost2010Prop37
 90
       50
102
RTVSPost2010PropOp37
 70
     1
102
RTVSPost2010Prop38
140
0.0
102
RTVSPost2010PropOp38
 70
     1
102
RTVSPost2010Prop39
140
1.0
102
RTVSPost2010PropOp39
 70
     1
102
RTVSPost2010Prop40
 90
        0
102
RTVSPost2010PropOp40
 70
     1
102
RTVSPost2010Prop41ColorIndex
 90
       18
102
RTVSPost2010Prop41ColorRGB
 90
        0
102
RTVSPost2010PropOp41
 70
     1
102
RTVSPost2010Prop42
 90
       50
102
RTVSPost2010PropOp42
 70
     1
102
RTVSPost2010Prop43
 90
        3
102
RTVSPost2010PropOp43
 70
     1
102
RTVSPost2010Prop44ColorIndex
 90
        5
102
RTVSPost2010Prop44ColorRGB
 90
      255
102
RTVSPost2010PropOp44
 70
     1
102
RTVSPost2010Prop45
280
     0
102
RTVSPost2010PropOp45
 70
     1
102
RTVSPost2010Prop46
 90
       50
102
RTVSPost2010PropOp46
 70
     1
102
RTVSPost2010Prop47
 90
       50
102
RTVSPost2010PropOp47
 70
     1
102
RTVSPost2010Prop48
 90
       50
102
RTVSPost2010PropOp48
 70
     1
102
RTVSPost2010Prop49
280
     0
102
RTVSPost2010PropOp49
 70
     1
102
RTVSPost2010Prop50
 90
       50
102
RTVSPost2010PropOp50
 70
     1
102
RTVSPost2010Prop51ColorIndex
 90
      256
102
RTVSPost2010Prop51ColorRGB
 90
-16777216
102
RTVSPost2010PropOp51
 70
     0
102
RTVSPost2010Prop52
140
1.0
102
RTVSPost2010PropOp52
 70
     0
102
RTVSPost2010Prop53
 90
        2
102
RTVSPost2010PropOp53
 70
     1
102
RTVSPost2010Prop54
  1
strokes_ogs.tif
102
RTVSPost2010PropOp54
 70
     1
102
RTVSPost2010Prop55
280
     0
102
RTVSPost2010PropOp55
 70
     1
102
RTVSPost2010Prop56
140
1.0
102
RTVSPost2010PropOp56
 70
     1
102
RTVSPost2010Prop57
140
1.0
102
RTVSPost2010PropOp57
 70
     1
102
RTVSPropertyOp0
 70
     1
102
RTVSPropertyOp1
 70
     1
102
RTVSPropertyOp2
 70
     1
102
RTVSPropertyOp3
 70
     1
102
RTVSPropertyOp4
 70
     1
102
RTVSPropertyOp5
 70
     1
102
RTVSPropertyOp6
 70
     1
102
RTVSPropertyOp7
 70
     1
102
RTVSPropertyOp8
 70
     1
102
RTVSPropertyOp9
 70
     1
102
RTVSPropertyOp10
 70
     1
102
RTVSPropertyOp11
 70
     1
102
RTVSPropertyOp12
 70
     1
102
RTVSPropertyOp13
 70
     1
102
RTVSPropertyOp14
 70
     1
102
RTVSPropertyOp15
 70
     1
102
RTVSPropertyOp16
 70
     1
102
RTVSPropertyOp17
 70
     1
102
RTVSPropertyOp18
 70
     1
102
RTVSPropertyOp19
 70
     1
102
RTVSPropertyOp20
 70
     1
102
RTVSPropertyOp21
 70
     1
102
RTVSPropertyOp22
 70
     1
102
RTVSPropertyOp23
 70
     1
102
RTVSPropertyOp24
 70
     1
102
RTVSPropertyOp25
 70
     1
102
RTVSPropertyOp26
 70
     1
102
RTVSPropertyOp27
 70
     1
102
RTVSPropertyOp28
 70
     1
102
RTVSPropertyOp29
 70
     1
102
RTVSPropertyOp30
 70
     1
102
RTVSPropertyOp31
 70
     1
102
RTVSPropertyOp32
 70
     1
102
RTVSPropertyOp33
 70
     1
102
RTVSPropertyOp34
 70
     1
102
RTVSPropertyOp35
 70
     1
102
RTVSPropertyOp36
 70
     1
102
RTVSPropertyOp37
 70
     1
102
RTVSPropertyOp38
 70
     1
102
RTVSPropertyOp39
 70
     1
102
RTVSPropertyOp40
 70
     1
102
RTVSPropertyOp41
 70
     1
102
RTVSPropertyOp42
 70
     1
102
RTVSPropertyOp43
 70
     1
102
RTVSPropertyOp44
 70
     1
102
RTVSPropertyOp45
 70
     1
102
RTVSPropertyOp46
 70
     1
102
RTVSPropertyOp47
 70
     1
102
RTVSPropertyOp48
 70
     1
102
RTVSPropertyOp49
 70
     1
102
RTVSPropertyOp50
 70
     1
102
RTVSPropertyOp51
 70
     0
102
RTVSPropertyOp52
 70
     0
102
RTVSPropertyOp53
 70
     1
102
RTVSPropertyOp54
 70
     1
102
RTVSPropertyOp55
 70
     1
102
RTVSPropertyOp56
 70
     1
102
RTVSPropertyOp57
 70
     1
102
RTVSPropertyOp58
 70
     1
102
RTVSPropertyOp59
 70
     1
102
RTVSPropertyOp60
 70
     1
102
RTVSPropertyOp61
 70
     1
102
RTVSPropertyOp62
 70
     1
  0
XRECORD
  5
87C7
102
{ACAD_REACTORS
330
87C6
102
}
330
87C6
100
AcDbXrecord
280
     1
102
RTVSPost2010Prop28
280
     0
102
RTVSPost2010PropOp28
 70
     1
102
RTVSPost2010Prop29
280
     1
102
RTVSPost2010PropOp29
 70
     1
102
RTVSPost2010Prop30
280
     1
102
RTVSPost2010PropOp30
 70
     1
102
RTVSPost2010Prop31
280
     0
102
RTVSPost2010PropOp31
 70
     1
102
RTVSPost2010Prop32
280
     0
102
RTVSPost2010PropOp32
 70
     1
102
RTVSPost2010Prop33
280
     0
102
RTVSPost2010PropOp33
 70
     1
102
RTVSPost2010Prop34
280
     0
102
RTVSPost2010PropOp34
 70
     1
102
RTVSPost2010Prop35
280
     0
102
RTVSPost2010PropOp35
 70
     1
102
RTVSPost2010Prop36
280
     0
102
RTVSPost2010PropOp36
 70
     1
102
RTVSPost2010Prop37
 90
       50
102
RTVSPost2010PropOp37
 70
     1
102
RTVSPost2010Prop38
140
0.0
102
RTVSPost2010PropOp38
 70
     1
102
RTVSPost2010Prop39
140
1.0
102
RTVSPost2010PropOp39
 70
     1
102
RTVSPost2010Prop40
 90
        0
102
RTVSPost2010PropOp40
 70
     1
102
RTVSPost2010Prop41ColorIndex
 90
       18
102
RTVSPost2010Prop41ColorRGB
 90
        0
102
RTVSPost2010PropOp41
 70
     1
102
RTVSPost2010Prop42
 90
       50
102
RTVSPost2010PropOp42
 70
     1
102
RTVSPost2010Prop43
 90
        3
102
RTVSPost2010PropOp43
 70
     1
102
RTVSPost2010Prop44ColorIndex
 90
        5
102
RTVSPost2010Prop44ColorRGB
 90
      255
102
RTVSPost2010PropOp44
 70
     1
102
RTVSPost2010Prop45
280
     0
102
RTVSPost2010PropOp45
 70
     1
102
RTVSPost2010Prop46
 90
       50
102
RTVSPost2010PropOp46
 70
     1
102
RTVSPost2010Prop47
 90
       50
102
RTVSPost2010PropOp47
 70
     1
102
RTVSPost2010Prop48
 90
       50
102
RTVSPost2010PropOp48
 70
     1
102
RTVSPost2010Prop49
280
     0
102
RTVSPost2010PropOp49
 70
     1
102
RTVSPost2010Prop50
 90
       50
102
RTVSPost2010PropOp50
 70
     1
102
RTVSPost2010Prop51ColorIndex
 90
      256
102
RTVSPost2010Prop51ColorRGB
 90
-16777216
102
RTVSPost2010PropOp51
 70
     0
102
RTVSPost2010Prop52
140
1.0
102
RTVSPost2010PropOp52
 70
     0
102
RTVSPost2010Prop53
 90
        2
102
RTVSPost2010PropOp53
 70
     1
102
RTVSPost2010Prop54
  1
strokes_ogs.tif
102
RTVSPost2010PropOp54
 70
     1
102
RTVSPost2010Prop55
280
     0
102
RTVSPost2010PropOp55
 70
     1
102
RTVSPost2010Prop56
140
1.0
102
RTVSPost2010PropOp56
 70
     1
102
RTVSPost2010Prop57
140
1.0
102
RTVSPost2010PropOp57
 70
     1
102
RTVSPropertyOp0
 70
     1
102
RTVSPropertyOp1
 70
     1
102
RTVSPropertyOp2
 70
     1
102
RTVSPropertyOp3
 70
     1
102
RTVSPropertyOp4
 70
     1
102
RTVSPropertyOp5
 70
     1
102
RTVSPropertyOp6
 70
     1
102
RTVSPropertyOp7
 70
     1
102
RTVSPropertyOp8
 70
     1
102
RTVSPropertyOp9
 70
     1
102
RTVSPropertyOp10
 70
     1
102
RTVSPropertyOp11
 70
     1
102
RTVSPropertyOp12
 70
     1
102
RTVSPropertyOp13
 70
     1
102
RTVSPropertyOp14
 70
     1
102
RTVSPropertyOp15
 70
     1
102
RTVSPropertyOp16
 70
     1
102
RTVSPropertyOp17
 70
     1
102
RTVSPropertyOp18
 70
     1
102
RTVSPropertyOp19
 70
     1
102
RTVSPropertyOp20
 70
     1
102
RTVSPropertyOp21
 70
     1
102
RTVSPropertyOp22
 70
     1
102
RTVSPropertyOp23
 70
     1
102
RTVSPropertyOp24
 70
     1
102
RTVSPropertyOp25
 70
     1
102
RTVSPropertyOp26
 70
     1
102
RTVSPropertyOp27
 70
     1
102
RTVSPropertyOp28
 70
     1
102
RTVSPropertyOp29
 70
     1
102
RTVSPropertyOp30
 70
     1
102
RTVSPropertyOp31
 70
     1
102
RTVSPropertyOp32
 70
     1
102
RTVSPropertyOp33
 70
     1
102
RTVSPropertyOp34
 70
     1
102
RTVSPropertyOp35
 70
     1
102
RTVSPropertyOp36
 70
     1
102
RTVSPropertyOp37
 70
     1
102
RTVSPropertyOp38
 70
     1
102
RTVSPropertyOp39
 70
     1
102
RTVSPropertyOp40
 70
     1
102
RTVSPropertyOp41
 70
     1
102
RTVSPropertyOp42
 70
     1
102
RTVSPropertyOp43
 70
     1
102
RTVSPropertyOp44
 70
     1
102
RTVSPropertyOp45
 70
     1
102
RTVSPropertyOp46
 70
     1
102
RTVSPropertyOp47
 70
     1
102
RTVSPropertyOp48
 70
     1
102
RTVSPropertyOp49
 70
     1
102
RTVSPropertyOp50
 70
     1
102
RTVSPropertyOp51
 70
     0
102
RTVSPropertyOp52
 70
     0
102
RTVSPropertyOp53
 70
     1
102
RTVSPropertyOp54
 70
     1
102
RTVSPropertyOp55
 70
     1
102
RTVSPropertyOp56
 70
     1
102
RTVSPropertyOp57
 70
     1
102
RTVSPropertyOp58
 70
     1
102
RTVSPropertyOp59
 70
     1
102
RTVSPropertyOp60
 70
     1
102
RTVSPropertyOp61
 70
     1
102
RTVSPropertyOp62
 70
     1
  0
XRECORD
  5
87DF
102
{ACAD_REACTORS
330
87DE
102
}
330
87DE
100
AcDbXrecord
280
     1
102
RTVSPost2010Prop28
280
     0
102
RTVSPost2010PropOp28
 70
     1
102
RTVSPost2010Prop29
280
     1
102
RTVSPost2010PropOp29
 70
     1
102
RTVSPost2010Prop30
280
     1
102
RTVSPost2010PropOp30
 70
     1
102
RTVSPost2010Prop31
280
     0
102
RTVSPost2010PropOp31
 70
     1
102
RTVSPost2010Prop32
280
     0
102
RTVSPost2010PropOp32
 70
     1
102
RTVSPost2010Prop33
280
     0
102
RTVSPost2010PropOp33
 70
     1
102
RTVSPost2010Prop34
280
     0
102
RTVSPost2010PropOp34
 70
     1
102
RTVSPost2010Prop35
280
     0
102
RTVSPost2010PropOp35
 70
     1
102
RTVSPost2010Prop36
280
     0
102
RTVSPost2010PropOp36
 70
     1
102
RTVSPost2010Prop37
 90
       50
102
RTVSPost2010PropOp37
 70
     1
102
RTVSPost2010Prop38
140
0.0
102
RTVSPost2010PropOp38
 70
     1
102
RTVSPost2010Prop39
140
1.0
102
RTVSPost2010PropOp39
 70
     1
102
RTVSPost2010Prop40
 90
        0
102
RTVSPost2010PropOp40
 70
     1
102
RTVSPost2010Prop41ColorIndex
 90
       18
102
RTVSPost2010Prop41ColorRGB
 90
        0
102
RTVSPost2010PropOp41
 70
     1
102
RTVSPost2010Prop42
 90
       50
102
RTVSPost2010PropOp42
 70
     1
102
RTVSPost2010Prop43
 90
        3
102
RTVSPost2010PropOp43
 70
     1
102
RTVSPost2010Prop44ColorIndex
 90
        5
102
RTVSPost2010Prop44ColorRGB
 90
      255
102
RTVSPost2010PropOp44
 70
     1
102
RTVSPost2010Prop45
280
     0
102
RTVSPost2010PropOp45
 70
     1
102
RTVSPost2010Prop46
 90
       50
102
RTVSPost2010PropOp46
 70
     1
102
RTVSPost2010Prop47
 90
       50
102
RTVSPost2010PropOp47
 70
     1
102
RTVSPost2010Prop48
 90
       50
102
RTVSPost2010PropOp48
 70
     1
102
RTVSPost2010Prop49
280
     0
102
RTVSPost2010PropOp49
 70
     1
102
RTVSPost2010Prop50
 90
       50
102
RTVSPost2010PropOp50
 70
     1
102
RTVSPost2010Prop51ColorIndex
 90
      256
102
RTVSPost2010Prop51ColorRGB
 90
-16777216
102
RTVSPost2010PropOp51
 70
     0
102
RTVSPost2010Prop52
140
1.0
102
RTVSPost2010PropOp52
 70
     0
102
RTVSPost2010Prop53
 90
        2
102
RTVSPost2010PropOp53
 70
     1
102
RTVSPost2010Prop54
  1
strokes_ogs.tif
102
RTVSPost2010PropOp54
 70
     1
102
RTVSPost2010Prop55
280
     0
102
RTVSPost2010PropOp55
 70
     1
102
RTVSPost2010Prop56
140
1.0
102
RTVSPost2010PropOp56
 70
     1
102
RTVSPost2010Prop57
140
1.0
102
RTVSPost2010PropOp57
 70
     1
102
RTVSPropertyOp0
 70
     1
102
RTVSPropertyOp1
 70
     1
102
RTVSPropertyOp2
 70
     1
102
RTVSPropertyOp3
 70
     1
102
RTVSPropertyOp4
 70
     1
102
RTVSPropertyOp5
 70
     1
102
RTVSPropertyOp6
 70
     1
102
RTVSPropertyOp7
 70
     1
102
RTVSPropertyOp8
 70
     1
102
RTVSPropertyOp9
 70
     1
102
RTVSPropertyOp10
 70
     1
102
RTVSPropertyOp11
 70
     1
102
RTVSPropertyOp12
 70
     1
102
RTVSPropertyOp13
 70
     1
102
RTVSPropertyOp14
 70
     1
102
RTVSPropertyOp15
 70
     1
102
RTVSPropertyOp16
 70
     1
102
RTVSPropertyOp17
 70
     1
102
RTVSPropertyOp18
 70
     1
102
RTVSPropertyOp19
 70
     1
102
RTVSPropertyOp20
 70
     1
102
RTVSPropertyOp21
 70
     1
102
RTVSPropertyOp22
 70
     1
102
RTVSPropertyOp23
 70
     1
102
RTVSPropertyOp24
 70
     1
102
RTVSPropertyOp25
 70
     1
102
RTVSPropertyOp26
 70
     1
102
RTVSPropertyOp27
 70
     1
102
RTVSPropertyOp28
 70
     1
102
RTVSPropertyOp29
 70
     1
102
RTVSPropertyOp30
 70
     1
102
RTVSPropertyOp31
 70
     1
102
RTVSPropertyOp32
 70
     1
102
RTVSPropertyOp33
 70
     1
102
RTVSPropertyOp34
 70
     1
102
RTVSPropertyOp35
 70
     1
102
RTVSPropertyOp36
 70
     1
102
RTVSPropertyOp37
 70
     1
102
RTVSPropertyOp38
 70
     1
102
RTVSPropertyOp39
 70
     1
102
RTVSPropertyOp40
 70
     1
102
RTVSPropertyOp41
 70
     1
102
RTVSPropertyOp42
 70
     1
102
RTVSPropertyOp43
 70
     1
102
RTVSPropertyOp44
 70
     1
102
RTVSPropertyOp45
 70
     1
102
RTVSPropertyOp46
 70
     1
102
RTVSPropertyOp47
 70
     1
102
RTVSPropertyOp48
 70
     1
102
RTVSPropertyOp49
 70
     1
102
RTVSPropertyOp50
 70
     1
102
RTVSPropertyOp51
 70
     0
102
RTVSPropertyOp52
 70
     0
102
RTVSPropertyOp53
 70
     1
102
RTVSPropertyOp54
 70
     1
102
RTVSPropertyOp55
 70
     1
102
RTVSPropertyOp56
 70
     1
102
RTVSPropertyOp57
 70
     1
102
RTVSPropertyOp58
 70
     1
102
RTVSPropertyOp59
 70
     1
102
RTVSPropertyOp60
 70
     1
102
RTVSPropertyOp61
 70
     1
102
RTVSPropertyOp62
 70
     1
  0
ENDSEC
  0
EOF
