  0
SECTION
  2
HEADER
  9
$ACADVER
  1
AC1015
  9
$ACADMAINTVER
 70
    20
  9
$DWGCODEPAGE
  3
ANSI_932
  9
$INSBASE
 10
0.0
 20
0.0
 30
0.0
  9
$EXTMIN
 10
-0.2563280987742473
 20
-0.3600799482810544
 30
-0.0015258207003583
  9
$EXTMAX
 10
8400.256367214323
 20
11800.3601348963
 30
0.0000000349246037
  9
$LIMMIN
 10
0.0
 20
0.0
  9
$LIMMAX
 10
297.0
 20
210.0
  9
$ORTHOMODE
 70
     1
  9
$REGENMODE
 70
     1
  9
$FILLMODE
 70
     0
  9
$QTEXTMODE
 70
     0
  9
$MIRRTEXT
 70
     1
  9
$LTSCALE
 40
100.0
  9
$ATTMODE
 70
     1
  9
$TEXTSIZE
 40
180.0
  9
$TRACEWID
 40
0.05
  9
$TEXTSTYLE
  7
STANDARD
  9
$CLAYER
  8
3
  9
$CELTYPE
  6
ByLayer
  9
$CECOLOR
 62
   256
  9
$CELTSCALE
 40
1.0
  9
$DISPSILH
 70
     0
  9
$DIMSCALE
 40
40.0
  9
$DIMASZ
 40
2.0
  9
$DIMEXO
 40
0.5
  9
$DIMDLI
 40
10.0
  9
$DIMRND
 40
0.0
  9
$DIMDLE
 40
0.0
  9
$DIMEXE
 40
1.0
  9
$DIMTP
 40
1.0
  9
$DIMTM
 40
1.0
  9
$DIMTXT
 40
3.0
  9
$DIMCEN
 40
0.0
  9
$DIMTSZ
 40
0.0
  9
$DIMTOL
 70
     0
  9
$DIMLIM
 70
     0
  9
$DIMTIH
 70
     0
  9
$DIMTOH
 70
     0
  9
$DIMSE1
 70
     0
  9
$DIMSE2
 70
     0
  9
$DIMTAD
 70
     1
  9
$DIMZIN
 70
     8
  9
$DIMBLK
  1

  9
$DIMASO
 70
     1
  9
$DIMSHO
 70
     1
  9
$DIMPOST
  1

  9
$DIMAPOST
  1

  9
$DIMALT
 70
     0
  9
$DIMALTD
 70
     2
  9
$DIMALTF
 40
0.039
  9
$DIMLFAC
 40
1.0
  9
$DIMTOFL
 70
     1
  9
$DIMTVP
 40
0.0
  9
$DIMTIX
 70
     0
  9
$DIMSOXD
 70
     0
  9
$DIMSAH
 70
     1
  9
$DIMBLK1
  1
OPEN
  9
$DIMBLK2
  1
OPEN
  9
$DIMSTYLE
  2
IGA
  9
$DIMCLRD
 70
     0
  9
$DIMCLRE
 70
     0
  9
$DIMCLRT
 70
     0
  9
$DIMTFAC
 40
10.0
  9
$DIMGAP
 40
1.0
  9
$DIMJUST
 70
     0
  9
$DIMSD1
 70
     0
  9
$DIMSD2
 70
     0
  9
$DIMTOLJ
 70
     1
  9
$DIMTZIN
 70
     0
  9
$DIMALTZ
 70
     0
  9
$DIMALTTZ
 70
     0
  9
$DIMUPT
 70
     0
  9
$DIMDEC
 70
     4
  9
$DIMTDEC
 70
     4
  9
$DIMALTU
 70
     2
  9
$DIMALTTD
 70
     2
  9
$DIMTXSTY
  7
STANDARD
  9
$DIMAUNIT
 70
     0
  9
$DIMADEC
 70
     0
  9
$DIMALTRND
 40
0.0
  9
$DIMAZIN
 70
     0
  9
$DIMDSEP
 70
    46
  9
$DIMATFIT
 70
     3
  9
$DIMFRAC
 70
     0
  9
$DIMLDRBLK
  1
OPEN
  9
$DIMLUNIT
 70
     2
  9
$DIMLWD
 70
    -2
  9
$DIMLWE
 70
    -2
  9
$DIMTMOVE
 70
     0
  9
$LUNITS
 70
     2
  9
$LUPREC
 70
     3
  9
$SKETCHINC
 40
0.1
  9
$FILLETRAD
 40
50.0
  9
$AUNITS
 70
     0
  9
$AUPREC
 70
     0
  9
$MENU
  1
acad
  9
$ELEVATION
 40
0.0
  9
$PELEVATION
 40
0.0
  9
$THICKNESS
 40
0.0
  9
$LIMCHECK
 70
     0
  9
$CHAMFERA
 40
0.5
  9
$CHAMFERB
 40
0.5
  9
$CHAMFERC
 40
0.0
  9
$CHAMFERD
 40
0.0
  9
$SKPOLY
 70
     0
  9
$TDCREATE
 40
2451898.488112731
  9
$TDUCREATE
 40
2451898.113112731
  9
$TDUPDATE
 40
2460280.760360891
  9
$TDUUPDATE
 40
2460280.385360891
  9
$TDINDWG
 40
0.0166166088
  9
$TDUSRTIMER
 40
0.0166161458
  9
$USRTIMER
 70
     1
  9
$ANGBASE
 50
0.0
  9
$ANGDIR
 70
     0
  9
$PDMODE
 70
     0
  9
$PDSIZE
 40
0.0
  9
$PLINEWID
 40
0.0
  9
$SPLFRAME
 70
     0
  9
$SPLINETYPE
 70
     6
  9
$SPLINESEGS
 70
     8
  9
$HANDSEED
  5
87EC
  9
$SURFTAB1
 70
     6
  9
$SURFTAB2
 70
     6
  9
$SURFTYPE
 70
     6
  9
$SURFU
 70
     6
  9
$SURFV
 70
     6
  9
$UCSBASE
  2

  9
$UCSNAME
  2

  9
$UCSORG
 10
0.0
 20
0.0
 30
0.0
  9
$UCSXDIR
 10
1.0
 20
0.0
 30
0.0
  9
$UCSYDIR
 10
0.0
 20
1.0
 30
0.0
  9
$UCSORTHOREF
  2

  9
$UCSORTHOVIEW
 70
     0
  9
$UCSORGTOP
 10
0.0
 20
0.0
 30
0.0
  9
$UCSORGBOTTOM
 10
0.0
 20
0.0
 30
0.0
  9
$UCSORGLEFT
 10
0.0
 20
0.0
 30
0.0
  9
$UCSORGRIGHT
 10
0.0
 20
0.0
 30
0.0
  9
$UCSORGFRONT
 10
0.0
 20
0.0
 30
0.0
  9
$UCSORGBACK
 10
0.0
 20
0.0
 30
0.0
  9
$PUCSBASE
  2

  9
$PUCSNAME
  2

  9
$PUCSORG
 10
0.0
 20
0.0
 30
0.0
  9
$PUCSXDIR
 10
1.0
 20
0.0
 30
0.0
  9
$PUCSYDIR
 10
0.0
 20
1.0
 30
0.0
  9
$PUCSORTHOREF
  2

  9
$PUCSORTHOVIEW
 70
     0
  9
$PUCSORGTOP
 10
0.0
 20
0.0
 30
0.0
  9
$PUCSORGBOTTOM
 10
0.0
 20
0.0
 30
0.0
  9
$PUCSORGLEFT
 10
0.0
 20
0.0
 30
0.0
  9
$PUCSORGRIGHT
 10
0.0
 20
0.0
 30
0.0
  9
$PUCSORGFRONT
 10
0.0
 20
0.0
 30
0.0
  9
$PUCSORGBACK
 10
0.0
 20
0.0
 30
0.0
  9
$USERI1
 70
     0
  9
$USERI2
 70
     0
  9
$USERI3
 70
     0
  9
$USERI4
 70
     0
  9
$USERI5
 70
     0
  9
$USERR1
 40
0.0
  9
$USERR2
 40
0.0
  9
$USERR3
 40
0.0
  9
$USERR4
 40
0.0
  9
$USERR5
 40
0.0
  9
$WORLDVIEW
 70
     1
  9
$SHADEDGE
 70
     3
  9
$SHADEDIF
 70
    70
  9
$TILEMODE
 70
     1
  9
$MAXACTVP
 70
    16
  9
$PINSBASE
 10
0.0
 20
0.0
 30
0.0
  9
$PLIMCHECK
 70
     0
  9
$PEXTMIN
 10
1.000000000000000E+20
 20
1.000000000000000E+20
 30
1.000000000000000E+20
  9
$PEXTMAX
 10
-1.000000000000000E+20
 20
-1.000000000000000E+20
 30
-1.000000000000000E+20
  9
$PLIMMIN
 10
0.0
 20
0.0
  9
$PLIMMAX
 10
12.0
 20
9.0
  9
$UNITMODE
 70
     0
  9
$VISRETAIN
 70
     0
  9
$PLINEGEN
 70
     0
  9
$PSLTSCALE
 70
     1
  9
$TREEDEPTH
 70
  3020
  9
$CMLSTYLE
  2
Standard
  9
$CMLJUST
 70
     0
  9
$CMLSCALE
 40
1.0
  9
$PROXYGRAPHICS
 70
     1
  9
$MEASUREMENT
 70
     0
  9
$CELWEIGHT
370
    -1
  9
$ENDCAPS
280
     0
  9
$JOINSTYLE
280
     0
  9
$LWDISPLAY
290
     0
  9
$INSUNITS
 70
     0
  9
$HYPERLINKBASE
  1

  9
$STYLESHEET
  1

  9
$XEDIT
290
     1
  9
$CEPSNTYPE
380
     0
  9
$PSTYLEMODE
290
     1
  9
$FINGERPRINTGUID
  2
{00EB6A95-3AF1-4C05-9960-37828FEE56DE}
  9
$VERSIONGUID
  2
{A548B31E-8447-4376-9872-9B23DB7605B0}
  9
$EXTNAMES
290
     1
  9
$PSVPSCALE
 40
0.0
  9
$OLESTARTUP
290
     0
  0
ENDSEC
  0
SECTION
  2
CLASSES
  0
CLASS
  1
ACDBDICTIONARYWDFLT
  2
AcDbDictionaryWithDefault
  3
ObjectDBX Classes
 90
        0
280
     0
281
     0
  0
CLASS
  1
MATERIAL
  2
AcDbMaterial
  3
ObjectDBX Classes
 90
     1153
280
     0
281
     0
  0
CLASS
  1
VISUALSTYLE
  2
AcDbVisualStyle
  3
ObjectDBX Classes
 90
     4095
280
     0
281
     0
  0
CLASS
  1
SCALE
  2
AcDbScale
  3
ObjectDBX Classes
 90
     1153
280
     0
281
     0
  0
CLASS
  1
TABLESTYLE
  2
AcDbTableStyle
  3
ObjectDBX Classes
 90
     4095
280
     0
281
     0
  0
CLASS
  1
MLEADERSTYLE
  2
AcDbMLeaderStyle
  3
ACDB_MLEADERSTYLE_CLASS
 90
     4095
280
     0
281
     0
  0
CLASS
  1
ACDBSECTIONVIEWSTYLE
  2
AcDbSectionViewStyle
  3
ObjectDBX Classes
 90
     1025
280
     0
281
     0
  0
CLASS
  1
ACDBDETAILVIEWSTYLE
  2
AcDbDetailViewStyle
  3
ObjectDBX Classes
 90
     1025
280
     0
281
     0
  0
CLASS
  1
DICTIONARYVAR
  2
AcDbDictionaryVar
  3
ObjectDBX Classes
 90
        0
280
     0
281
     0
  0
CLASS
  1
CELLSTYLEMAP
  2
AcDbCellStyleMap
  3
ObjectDBX Classes
 90
     1152
280
     0
281
     0
  0
CLASS
  1
SORTENTSTABLE
  2
AcDbSortentsTable
  3
ObjectDBX Classes
 90
        0
280
     0
281
     0
  0
CLASS
  1
ACDBPLACEHOLDER
  2
AcDbPlaceHolder
  3
ObjectDBX Classes
 90
        0
280
     0
281
     0
  0
CLASS
  1
LAYOUT
  2
AcDbLayout
  3
ObjectDBX Classes
 90
        0
280
     0
281
     0
  0
ENDSEC
  0
SECTION
  2
TABLES
  0
TABLE
  2
VPORT
  5
837F
330
0
100
AcDbSymbolTable
 70
     1
  0
VPORT
  5
83EB
330
837F
100
AcDbSymbolTableRecord
100
AcDbViewportTableRecord
  2
*ACTIVE
 70
     0
 10
0.0
 20
0.0
 11
1.0
 21
1.0
 12
4200.000019557773
 22
5900.000027474012
 13
0.0
 23
0.0
 14
10.0
 24
10.0
 15
10.0
 25
10.0
 16
0.0
 26
0.0
 36
1.0
 17
0.0
 27
0.0
 37
0.0
 40
11876.28512550527
 41
2.050213675213675
 42
50.0
 43
0.0
 44
0.0
 50
0.0
 51
0.0
 71
     0
 72
   100
 73
     1
 74
     0
 75
     0
 76
     0
 77
     0
 78
     0
281
     0
 65
     1
110
0.0
120
0.0
130
0.0
111
1.0
121
0.0
131
0.0
112
0.0
122
1.0
132
0.0
 79
     0
146
0.0
1001
ACAD_NAV_VCDISPLAY
1070
     3
  0
ENDTAB
  0
TABLE
  2
LTYPE
  5
837C
330
0
100
AcDbSymbolTable
 70
     3
  0
LTYPE
  5
83D1
330
837C
100
AcDbSymbolTableRecord
100
AcDbLinetypeTableRecord
  2
ByBlock
 70
     0
  3

 72
    65
 73
     0
 40
0.0
  0
LTYPE
  5
83D2
330
837C
100
AcDbSymbolTableRecord
100
AcDbLinetypeTableRecord
  2
ByLayer
 70
     0
  3

 72
    65
 73
     0
 40
0.0
  0
LTYPE
  5
83D3
330
837C
100
AcDbSymbolTableRecord
100
AcDbLinetypeTableRecord
  2
CONTINUOUS
 70
     0
  3
Solid line
 72
    65
 73
     0
 40
0.0
  0
LTYPE
  5
83EC
330
837C
100
AcDbSymbolTableRecord
100
AcDbLinetypeTableRecord
  2
CENTER
 70
     0
  3
____ _ ____ _ ____ _ ____ _ ____ _ ____ _ ____ 
 72
    65
 73
     4
 40
2.0
 49
1.25
 74
     0
 49
-0.25
 74
     0
 49
0.25
 74
     0
 49
-0.25
 74
     0
  0
ENDTAB
  0
TABLE
  2
LAYER
  5
8379
330
0
100
AcDbSymbolTable
 70
     6
  0
LAYER
  5
83CB
102
{ACAD_XDICTIONARY
360
842E
102
}
330
8379
100
AcDbSymbolTableRecord
100
AcDbLayerTableRecord
  2
0
 70
     0
 62
     7
  6
CONTINUOUS
370
    -3
390
8386
  0
LAYER
  5
83EA
102
{ACAD_XDICTIONARY
360
8430
102
}
330
8379
100
AcDbSymbolTableRecord
100
AcDbLayerTableRecord
  2
3
 70
     0
 62
     2
  6
CONTINUOUS
370
    -3
390
8386
  0
LAYER
  5
83ED
102
{ACAD_XDICTIONARY
360
8432
102
}
330
8379
100
AcDbSymbolTableRecord
100
AcDbLayerTableRecord
  2
2
 70
     0
 62
     3
  6
CENTER
370
    -3
390
8386
  0
LAYER
  5
83EE
102
{ACAD_XDICTIONARY
360
8434
102
}
330
8379
100
AcDbSymbolTableRecord
100
AcDbLayerTableRecord
  2
1
 70
     0
 62
     4
  6
CONTINUOUS
370
    -3
390
8386
  0
LAYER
  5
83EF
102
{ACAD_XDICTIONARY
360
8436
102
}
330
8379
100
AcDbSymbolTableRecord
100
AcDbLayerTableRecord
  2
4
 70
     0
 62
     7
  6
CONTINUOUS
370
    -3
390
8386
  0
LAYER
  5
83F0
330
8379
100
AcDbSymbolTableRecord
100
AcDbLayerTableRecord
  2
DEFPOINTS
 70
     0
 62
     7
  6
CONTINUOUS
290
     0
370
    -3
390
8386
  0
ENDTAB
  0
TABLE
  2
STYLE
  5
837A
330
0
100
AcDbSymbolTable
 70
     2
  0
STYLE
  5
83CC
330
837A
100
AcDbSymbolTableRecord
100
AcDbTextStyleTableRecord
  2
STANDARD
 70
     0
 40
0.0
 41
1.0
 50
0.0
 71
     0
 42
180.0
  3
simplex.shx
  4
extfont.shx
  0
STYLE
  5
83D0
330
837A
100
AcDbSymbolTableRecord
100
AcDbTextStyleTableRecord
  2
Annotative
 70
     0
 40
0.0
 41
1.0
 50
0.0
 71
     0
 42
0.2
  3
txt
  4

1001
AcadAnnotative
1000
AnnotativeData
1002
{
1070
     1
1070
     1
1002
}
  0
ENDTAB
  0
TABLE
  2
VIEW
  5
837D
330
0
100
AcDbSymbolTable
 70
     0
  0
ENDTAB
  0
TABLE
  2
UCS
  5
837E
330
0
100
AcDbSymbolTable
 70
     0
  0
ENDTAB
  0
TABLE
  2
APPID
  5
8380
330
0
100
AcDbSymbolTable
 70
     8
  0
APPID
  5
83CD
330
8380
100
AcDbSymbolTableRecord
100
AcDbRegAppTableRecord
  2
ACAD
 70
     0
  0
APPID
  5
83D4
330
8380
100
AcDbSymbolTableRecord
100
AcDbRegAppTableRecord
  2
AcadAnnotative
 70
     0
  0
APPID
  5
8442
330
8380
100
AcDbSymbolTableRecord
100
AcDbRegAppTableRecord
  2
ACAD_NAV_VCDISPLAY
 70
     0
  0
APPID
  5
8489
330
8380
100
AcDbSymbolTableRecord
100
AcDbRegAppTableRecord
  2
ACAD_DSTYLE_DIMJAG
 70
     0
  0
APPID
  5
848A
330
8380
100
AcDbSymbolTableRecord
100
AcDbRegAppTableRecord
  2
ACAD_DSTYLE_DIMTALN
 70
     0
  0
APPID
  5
8498
330
8380
100
AcDbSymbolTableRecord
100
AcDbRegAppTableRecord
  2
AcadAnnoMonitorAlertIconDisabled
 70
     0
  0
APPID
  5
8499
330
8380
100
AcDbSymbolTableRecord
100
AcDbRegAppTableRecord
  2
ACAD_EXEMPT_FROM_CAD_STANDARDS
 70
     0
  0
APPID
  5
87E3
330
8380
100
AcDbSymbolTableRecord
100
AcDbRegAppTableRecord
  2
ACAD_MLEADERVER
 70
     0
  0
ENDTAB
  0
TABLE
  2
DIMSTYLE
  5
8381
330
0
100
AcDbSymbolTable
 70
     3
100
AcDbDimStyleTable
 71
     1
340
83F1
  0
DIMSTYLE
105
83CE
330
8381
100
AcDbSymbolTableRecord
100
AcDbDimStyleTableRecord
  2
Standard
 70
     0
340
83CC
  0
DIMSTYLE
105
83CF
330
8381
100
AcDbSymbolTableRecord
100
AcDbDimStyleTableRecord
  2
Annotative
 70
     0
340
83CC
1001
AcadAnnotative
1000
AnnotativeData
1002
{
1070
     1
1070
     1
1002
}
  0
DIMSTYLE
105
83F1
102
{ACAD_REACTORS
330
848B
330
84AD
330
84BA
330
84C7
330
8529
330
8536
330
8543
330
8550
330
855D
330
85CC
330
85D9
330
85E6
330
85F3
330
8600
330
860D
330
861A
330
8627
330
8634
330
8646
330
86A6
330
8791
330
879E
102
}
330
8381
100
AcDbSymbolTableRecord
100
AcDbDimStyleTableRecord
  2
IGA
 70
     0
 40
2.0
 41
2.0
 42
0.5
 43
10.0
 44
1.0
 47
1.0
 48
1.0
 73
     0
 74
     0
 77
     1
 78
     8
140
3.0
141
0.0
143
0.03937
146
10.0
147
1.0
173
     1
271
     3
272
     3
279
     2
284
     8
285
     8
286
     8
340
83CC
  0
ENDTAB
  0
TABLE
  2
BLOCK_RECORD
  5
8378
330
0
100
AcDbSymbolTable
 70
    59
  0
BLOCK_RECORD
  5
83E6
102
{ACAD_XDICTIONARY
360
8485
102
}
330
8378
100
AcDbSymbolTableRecord
100
AcDbBlockTableRecord
  2
*Model_Space
340
83E9
  0
BLOCK_RECORD
  5
83E2
330
8378
100
AcDbSymbolTableRecord
100
AcDbBlockTableRecord
  2
*Paper_Space
340
83E5
  0
BLOCK_RECORD
  5
83F5
330
8378
100
AcDbSymbolTableRecord
100
AcDbBlockTableRecord
  2
$MODEL_SPACE
340
0
  0
BLOCK_RECORD
  5
83F7
330
8378
100
AcDbSymbolTableRecord
100
AcDbBlockTableRecord
  2
$PAPER_SPACE
340
0
  0
BLOCK_RECORD
  5
83F9
330
8378
100
AcDbSymbolTableRecord
100
AcDbBlockTableRecord
  2
YA_N
340
0
102
{BLKREFS
331
7C26
331
7C53
331
7C7A
331
7CD1
102
}
  0
BLOCK_RECORD
  5
83FB
330
8378
100
AcDbSymbolTableRecord
100
AcDbBlockTableRecord
  2
*D3
340
0
  0
BLOCK_RECORD
  5
83FD
330
8378
100
AcDbSymbolTableRecord
100
AcDbBlockTableRecord
  2
_OPEN
340
0
102
{BLKREFS
331
82D5
331
82D6
331
82DE
331
82DF
331
82E7
331
82E8
331
82F0
331
82F1
331
82F9
331
82FA
331
8302
331
8303
331
830B
331
830C
331
8314
331
8315
331
831D
331
831E
331
878D
331
8798
331
8799
331
87A5
331
87A6
331
8326
331
8327
331
8733
331
832F
331
86C0
331
8330
331
86BF
331
8338
331
8339
331
85FA
331
85FB
331
8607
331
8608
331
8614
331
8615
331
8621
331
8622
331
862E
331
862F
331
8341
331
8342
331
85D3
331
85D4
331
85E0
331
85E1
331
85ED
331
85EE
331
834A
331
834B
331
8530
331
8531
331
853D
331
853E
331
854A
331
854B
331
8557
331
8558
331
8564
331
8565
331
856D
331
856E
331
8353
331
8354
331
835F
331
850D
331
850E
331
8516
331
8517
331
84A7
331
84A8
331
84B4
331
84B5
331
8162
331
8163
331
816F
331
8170
331
817C
331
817D
331
8189
331
818A
331
81ED
331
81EE
102
}
  0
BLOCK_RECORD
  5
83FE
330
8378
100
AcDbSymbolTableRecord
100
AcDbBlockTableRecord
  2
*D5
340
0
  0
BLOCK_RECORD
  5
8400
330
8378
100
AcDbSymbolTableRecord
100
AcDbBlockTableRecord
  2
*D6
340
0
  0
BLOCK_RECORD
  5
8402
330
8378
100
AcDbSymbolTableRecord
100
AcDbBlockTableRecord
  2
*D7
340
0
  0
BLOCK_RECORD
  5
8404
330
8378
100
AcDbSymbolTableRecord
100
AcDbBlockTableRecord
  2
*D8
340
0
  0
BLOCK_RECORD
  5
8406
330
8378
100
AcDbSymbolTableRecord
100
AcDbBlockTableRecord
  2
*D9
340
0
  0
BLOCK_RECORD
  5
8408
330
8378
100
AcDbSymbolTableRecord
100
AcDbBlockTableRecord
  2
*D10
340
0
  0
BLOCK_RECORD
  5
840A
330
8378
100
AcDbSymbolTableRecord
100
AcDbBlockTableRecord
  2
*D11
340
0
  0
BLOCK_RECORD
  5
840C
330
8378
100
AcDbSymbolTableRecord
100
AcDbBlockTableRecord
  2
*D12
340
0
  0
BLOCK_RECORD
  5
840E
330
8378
100
AcDbSymbolTableRecord
100
AcDbBlockTableRecord
  2
*D13
340
0
  0
BLOCK_RECORD
  5
8410
330
8378
100
AcDbSymbolTableRecord
100
AcDbBlockTableRecord
  2
*D14
340
0
  0
BLOCK_RECORD
  5
8412
330
8378
100
AcDbSymbolTableRecord
100
AcDbBlockTableRecord
  2
*D15
340
0
  0
BLOCK_RECORD
  5
8414
330
8378
100
AcDbSymbolTableRecord
100
AcDbBlockTableRecord
  2
*D16
340
0
  0
BLOCK_RECORD
  5
8416
330
8378
100
AcDbSymbolTableRecord
100
AcDbBlockTableRecord
  2
*D17
340
0
  0
BLOCK_RECORD
  5
8418
330
8378
100
AcDbSymbolTableRecord
100
AcDbBlockTableRecord
  2
*D18
340
0
  0
BLOCK_RECORD
  5
841B
330
8378
100
AcDbSymbolTableRecord
100
AcDbBlockTableRecord
  2
*D19
340
0
  0
BLOCK_RECORD
  5
841D
330
8378
100
AcDbSymbolTableRecord
100
AcDbBlockTableRecord
  2
_DOT
340
0
102
{BLKREFS
331
835E
102
}
  0
BLOCK_RECORD
  5
841F
330
8378
100
AcDbSymbolTableRecord
100
AcDbBlockTableRecord
  2
*D21
340
0
  0
BLOCK_RECORD
  5
8421
330
8378
100
AcDbSymbolTableRecord
100
AcDbBlockTableRecord
  2
*D22
340
0
  0
BLOCK_RECORD
  5
8423
330
8378
100
AcDbSymbolTableRecord
100
AcDbBlockTableRecord
  2
*D23
340
0
  0
BLOCK_RECORD
  5
8425
330
8378
100
AcDbSymbolTableRecord
100
AcDbBlockTableRecord
  2
*D24
340
0
  0
BLOCK_RECORD
  5
8427
330
8378
100
AcDbSymbolTableRecord
100
AcDbBlockTableRecord
  2
_NONE
340
0
  0
BLOCK_RECORD
  5
8429
330
8378
100
AcDbSymbolTableRecord
100
AcDbBlockTableRecord
  2
*D26
340
0
  0
BLOCK_RECORD
  5
842B
330
8378
100
AcDbSymbolTableRecord
100
AcDbBlockTableRecord
  2
*D27
340
0
  0
BLOCK_RECORD
  5
848C
330
8378
100
AcDbSymbolTableRecord
100
AcDbBlockTableRecord
  2
*D28
340
0
  0
BLOCK_RECORD
  5
84AE
330
8378
100
AcDbSymbolTableRecord
100
AcDbBlockTableRecord
  2
*D29
340
0
  0
BLOCK_RECORD
  5
84BB
330
8378
100
AcDbSymbolTableRecord
100
AcDbBlockTableRecord
  2
*D30
340
0
  0
BLOCK_RECORD
  5
84C8
330
8378
100
AcDbSymbolTableRecord
100
AcDbBlockTableRecord
  2
*D31
340
0
  0
BLOCK_RECORD
  5
851D
330
8378
100
AcDbSymbolTableRecord
100
AcDbBlockTableRecord
  2
*D32
340
0
  0
BLOCK_RECORD
  5
852A
330
8378
100
AcDbSymbolTableRecord
100
AcDbBlockTableRecord
  2
*D33
340
0
  0
BLOCK_RECORD
  5
8537
330
8378
100
AcDbSymbolTableRecord
100
AcDbBlockTableRecord
  2
*D34
340
0
  0
BLOCK_RECORD
  5
8544
330
8378
100
AcDbSymbolTableRecord
100
AcDbBlockTableRecord
  2
*D35
340
0
  0
BLOCK_RECORD
  5
8551
330
8378
100
AcDbSymbolTableRecord
100
AcDbBlockTableRecord
  2
*D36
340
0
  0
BLOCK_RECORD
  5
855E
330
8378
100
AcDbSymbolTableRecord
100
AcDbBlockTableRecord
  2
*D37
340
0
  0
BLOCK_RECORD
  5
8573
330
8378
100
AcDbSymbolTableRecord
100
AcDbBlockTableRecord
  2
*D38
340
0
  0
BLOCK_RECORD
  5
8580
330
8378
100
AcDbSymbolTableRecord
100
AcDbBlockTableRecord
  2
*D39
340
0
  0
BLOCK_RECORD
  5
858D
330
8378
100
AcDbSymbolTableRecord
100
AcDbBlockTableRecord
  2
*D40
340
0
  0
BLOCK_RECORD
  5
859A
330
8378
100
AcDbSymbolTableRecord
100
AcDbBlockTableRecord
  2
*D41
340
0
  0
BLOCK_RECORD
  5
85A7
330
8378
100
AcDbSymbolTableRecord
100
AcDbBlockTableRecord
  2
*D42
340
0
  0
BLOCK_RECORD
  5
85B4
330
8378
100
AcDbSymbolTableRecord
100
AcDbBlockTableRecord
  2
*D43
340
0
  0
BLOCK_RECORD
  5
85C1
330
8378
100
AcDbSymbolTableRecord
100
AcDbBlockTableRecord
  2
*D44
340
0
  0
BLOCK_RECORD
  5
85CD
330
8378
100
AcDbSymbolTableRecord
100
AcDbBlockTableRecord
  2
*D45
340
0
  0
BLOCK_RECORD
  5
85DA
330
8378
100
AcDbSymbolTableRecord
100
AcDbBlockTableRecord
  2
*D46
340
0
  0
BLOCK_RECORD
  5
85E7
330
8378
100
AcDbSymbolTableRecord
100
AcDbBlockTableRecord
  2
*D47
340
0
  0
BLOCK_RECORD
  5
85F4
330
8378
100
AcDbSymbolTableRecord
100
AcDbBlockTableRecord
  2
*D48
340
0
  0
BLOCK_RECORD
  5
8601
330
8378
100
AcDbSymbolTableRecord
100
AcDbBlockTableRecord
  2
*D49
340
0
  0
BLOCK_RECORD
  5
860E
330
8378
100
AcDbSymbolTableRecord
100
AcDbBlockTableRecord
  2
*D50
340
0
  0
BLOCK_RECORD
  5
861B
330
8378
100
AcDbSymbolTableRecord
100
AcDbBlockTableRecord
  2
*D51
340
0
  0
BLOCK_RECORD
  5
8628
330
8378
100
AcDbSymbolTableRecord
100
AcDbBlockTableRecord
  2
*D52
340
0
  0
BLOCK_RECORD
  5
8635
330
8378
100
AcDbSymbolTableRecord
100
AcDbBlockTableRecord
  2
*D53
340
0
  0
BLOCK_RECORD
  5
8647
330
8378
100
AcDbSymbolTableRecord
100
AcDbBlockTableRecord
  2
*D54
340
0
  0
BLOCK_RECORD
  5
86A7
330
8378
100
AcDbSymbolTableRecord
100
AcDbBlockTableRecord
  2
*D55
340
0
  0
BLOCK_RECORD
  5
8726
330
8378
100
AcDbSymbolTableRecord
100
AcDbBlockTableRecord
  2
_DotSmall
340
0
102
{BLKREFS
331
878C
331
8734
102
}
  0
BLOCK_RECORD
  5
8792
330
8378
100
AcDbSymbolTableRecord
100
AcDbBlockTableRecord
  2
*D57
340
0
  0
BLOCK_RECORD
  5
879F
330
8378
100
AcDbSymbolTableRecord
100
AcDbBlockTableRecord
  2
*D58
340
0
  0
ENDTAB
  0
ENDSEC
  0
SECTION
  2
BLOCKS
  0
BLOCK
  5
83E7
330
83E6
100
AcDbEntity
  8
0
100
AcDbBlockBegin
  2
*Model_Space
 70
     0
 10
0.0
 20
0.0
 30
0.0
  3
*Model_Space
  1

  0
ENDBLK
  5
83E8
330
83E6
100
AcDbEntity
  8
0
100
AcDbBlockEnd
  0
BLOCK
  5
83E3
330
83E2
100
AcDbEntity
 67
     1
  8
0
100
AcDbBlockBegin
  2
*Paper_Space
 70
     0
 10
0.0
 20
0.0
 30
0.0
  3
*Paper_Space
  1

  0
ENDBLK
  5
83E4
330
83E2
100
AcDbEntity
 67
     1
  8
0
100
AcDbBlockEnd
  0
BLOCK
  5
83F6
330
83F5
100
AcDbEntity
  8
0
100
AcDbBlockBegin
  2
$MODEL_SPACE
 70
     0
 10
0.0
 20
0.0
 30
0.0
  3
$MODEL_SPACE
  1

  0
ENDBLK
  5
1B
330
83F5
100
AcDbEntity
  8
0
100
AcDbBlockEnd
  0
BLOCK
  5
83F8
330
83F7
100
AcDbEntity
  8
0
100
AcDbBlockBegin
  2
$PAPER_SPACE
 70
     0
 10
0.0
 20
0.0
 30
0.0
  3
$PAPER_SPACE
  1

  0
ENDBLK
  5
18
330
83F7
100
AcDbEntity
  8
0
100
AcDbBlockEnd
  0
BLOCK
  5
83FA
330
83F9
100
AcDbEntity
  8
0
100
AcDbBlockBegin
  2
YA_N
 70
     0
 10
0.0
 20
0.0
 30
0.0
  3
YA_N
  1

  0
ENDBLK
  5
79FE
330
83F9
100
AcDbEntity
  8
0
100
AcDbBlockEnd
  0
BLOCK
  5
83FC
330
83FB
100
AcDbEntity
  8
0
100
AcDbBlockBegin
  2
*D3
 70
     1
 10
0.0
 20
0.0
 30
0.0
  3
*D3
  1

  0
LINE
  5
82D2
330
83FB
100
AcDbEntity
  8
3
 62
     0
100
AcDbLine
 10
1884.690038106199
 20
5134.395935314897
 30
0.0
 11
1611.679005416241
 21
5134.395935314897
 31
0.0
  0
LINE
  5
82D3
330
83FB
100
AcDbEntity
  8
3
 62
     0
100
AcDbLine
 10
1884.690038106199
 20
3854.395935314897
 30
0.0
 11
1611.679005416241
 21
3854.395935314897
 31
0.0
  0
LINE
  5
82D4
330
83FB
100
AcDbEntity
  8
3
 62
     0
100
AcDbLine
 10
1651.679005416241
 20
5054.395935314897
 30
0.0
 11
1651.679005416241
 21
3934.395935314896
 31
0.0
  0
INSERT
  5
82D5
330
83FB
100
AcDbEntity
  8
3
 62
     0
100
AcDbBlockReference
  2
_OPEN
 10
1651.679005416241
 20
5134.395935314897
 30
0.0
 41
80.0
 42
80.0
 43
80.0
 50
90.0
  0
INSERT
  5
82D6
330
83FB
100
AcDbEntity
  8
3
 62
     0
100
AcDbBlockReference
  2
_OPEN
 10
1651.679005416241
 20
3854.395935314897
 30
0.0
 41
80.0
 42
80.0
 43
80.0
 50
270.0
  0
TEXT
  5
8367
330
83FB
100
AcDbEntity
  8
3
 62
     0
100
AcDbText
 10
1311.68
 20
4282.0
 30
0.0
 40
120.0
  1
1280
100
AcDbText
  0
POINT
  5
82D8
330
83FB
100
AcDbEntity
  8
DEFPOINTS
 62
     0
100
AcDbPoint
 10
1904.690038106198
 20
5134.395935314897
 30
0.0
  0
POINT
  5
82D9
330
83FB
100
AcDbEntity
  8
DEFPOINTS
 62
     0
100
AcDbPoint
 10
1904.690038106198
 20
3854.395935314897
 30
0.0
  0
POINT
  5
82DA
330
83FB
100
AcDbEntity
  8
DEFPOINTS
 62
     0
100
AcDbPoint
 10
1651.679005416241
 20
3854.395935314897
 30
0.0
  0
ENDBLK
  5
806A
330
83FB
100
AcDbEntity
  8
0
100
AcDbBlockEnd
  0
BLOCK
  5
841A
330
83FD
100
AcDbEntity
  8
0
100
AcDbBlockBegin
  2
_OPEN
 70
     0
 10
0.0
 20
0.0
 30
0.0
  3
_OPEN
  1

  0
LINE
  5
7F39
330
83FD
100
AcDbEntity
  8
0
  6
ByBlock
 62
     0
100
AcDbLine
 10
-1.0
 20
0.1666666666666666
 30
0.0
 11
0.0
 21
0.0
 31
0.0
  0
LINE
  5
7F3A
330
83FD
100
AcDbEntity
  8
0
  6
ByBlock
 62
     0
100
AcDbLine
 10
0.0
 20
0.0
 30
0.0
 11
-1.0
 21
-0.1666666666666666
 31
0.0
  0
LINE
  5
7F3B
330
83FD
100
AcDbEntity
  8
0
  6
ByBlock
 62
     0
100
AcDbLine
 10
0.0
 20
0.0
 30
0.0
 11
-1.0
 21
0.0
 31
0.0
  0
ENDBLK
  5
7F3C
330
83FD
100
AcDbEntity
  8
0
100
AcDbBlockEnd
  0
BLOCK
  5
83FF
330
83FE
100
AcDbEntity
  8
0
100
AcDbBlockBegin
  2
*D5
 70
     1
 10
0.0
 20
0.0
 30
0.0
  3
*D5
  1

  0
LINE
  5
82DB
330
83FE
100
AcDbEntity
  8
3
 62
     0
100
AcDbLine
 10
1884.690038106199
 20
5134.395935314897
 30
0.0
 11
1364.616162959712
 21
5134.395935314897
 31
0.0
  0
LINE
  5
82DC
330
83FE
100
AcDbEntity
  8
3
 62
     0
100
AcDbLine
 10
1806.253499857346
 20
3800.395935314897
 30
0.0
 11
1364.61616295971
 21
3800.395935314897
 31
0.0
  0
LINE
  5
82DD
330
83FE
100
AcDbEntity
  8
3
 62
     0
100
AcDbLine
 10
1404.616162959712
 20
5054.395935314897
 30
0.0
 11
1404.616162959712
 21
3880.395935314897
 31
0.0
  0
INSERT
  5
82DE
330
83FE
100
AcDbEntity
  8
3
 62
     0
100
AcDbBlockReference
  2
_OPEN
 10
1404.616162959712
 20
5134.395935314897
 30
0.0
 41
80.0
 42
80.0
 43
80.0
 50
90.0
  0
INSERT
  5
82DF
330
83FE
100
AcDbEntity
  8
3
 62
     0
100
AcDbBlockReference
  2
_OPEN
 10
1404.616162959712
 20
3800.395935314897
 30
0.0
 41
80.0
 42
80.0
 43
80.0
 50
270.0
  0
TEXT
  5
8368
330
83FE
100
AcDbEntity
  8
3
 62
     0
100
AcDbText
 10
1064.62
 20
4255.0
 30
0.0
 40
120.0
  1
1334
100
AcDbText
  0
POINT
  5
82E1
330
83FE
100
AcDbEntity
  8
DEFPOINTS
 62
     0
100
AcDbPoint
 10
1904.690038106198
 20
5134.395935314897
 30
0.0
  0
POINT
  5
82E2
330
83FE
100
AcDbEntity
  8
DEFPOINTS
 62
     0
100
AcDbPoint
 10
1826.253499857346
 20
3800.395935314897
 30
0.0
  0
POINT
  5
82E3
330
83FE
100
AcDbEntity
  8
DEFPOINTS
 62
     0
100
AcDbPoint
 10
1404.616162959712
 20
3800.395935314897
 30
0.0
  0
ENDBLK
  5
805F
330
83FE
100
AcDbEntity
  8
0
100
AcDbBlockEnd
  0
BLOCK
  5
8401
330
8400
100
AcDbEntity
  8
0
100
AcDbBlockBegin
  2
*D6
 70
     1
 10
0.0
 20
0.0
 30
0.0
  3
*D6
  1

  0
LINE
  5
82E4
330
8400
100
AcDbEntity
  8
3
 62
     0
100
AcDbLine
 10
1904.690038106198
 20
5207.395935314896
 30
0.0
 11
1904.690038106198
 21
5476.91888063242
 31
0.0
  0
LINE
  5
82E5
330
8400
100
AcDbEntity
  8
3
 62
     0
100
AcDbLine
 10
2729.690038106197
 20
5175.68165442021
 30
0.0
 11
2729.690038106197
 21
5476.91888063242
 31
0.0
  0
LINE
  5
82E6
330
8400
100
AcDbEntity
  8
3
 62
     0
100
AcDbLine
 10
1984.690038106198
 20
5436.91888063242
 30
0.0
 11
2649.690038106197
 21
5436.91888063242
 31
0.0
  0
INSERT
  5
82E7
330
8400
100
AcDbEntity
  8
3
 62
     0
100
AcDbBlockReference
  2
_OPEN
 10
1904.690038106198
 20
5436.91888063242
 30
0.0
 41
80.0
 42
80.0
 43
80.0
 50
180.0
  0
INSERT
  5
82E8
330
8400
100
AcDbEntity
  8
3
 62
     0
100
AcDbBlockReference
  2
_OPEN
 10
2729.690038106197
 20
5436.91888063242
 30
0.0
 41
80.0
 42
80.0
 43
80.0
  0
TEXT
  5
8369
330
8400
100
AcDbEntity
  8
3
 62
     0
100
AcDbText
 10
2077.19
 20
5324.52
 30
0.0
 40
120.0
  1
825
100
AcDbText
  0
POINT
  5
82EA
330
8400
100
AcDbEntity
  8
DEFPOINTS
 62
     0
100
AcDbPoint
 10
1904.690038106198
 20
5187.395935314897
 30
0.0
  0
POINT
  5
82EB
330
8400
100
AcDbEntity
  8
DEFPOINTS
 62
     0
100
AcDbPoint
 10
2729.690038106197
 20
5155.681654420209
 30
0.0
  0
POINT
  5
82EC
330
8400
100
AcDbEntity
  8
DEFPOINTS
 62
     0
100
AcDbPoint
 10
2729.690038106197
 20
5436.91888063242
 30
0.0
  0
ENDBLK
  5
8054
330
8400
100
AcDbEntity
  8
0
100
AcDbBlockEnd
  0
BLOCK
  5
8403
330
8402
100
AcDbEntity
  8
0
100
AcDbBlockBegin
  2
*D7
 70
     1
 10
0.0
 20
0.0
 30
0.0
  3
*D7
  1

  0
LINE
  5
82ED
330
8402
100
AcDbEntity
  8
3
 62
     0
100
AcDbLine
 10
2729.690038106197
 20
5175.68165442021
 30
0.0
 11
2729.690038106197
 21
5476.91888063242
 31
0.0
  0
LINE
  5
82EE
330
8402
100
AcDbEntity
  8
3
 62
     0
100
AcDbLine
 10
3804.49032271685
 20
3820.395935314897
 30
0.0
 11
3804.49032271685
 21
5476.91888063242
 31
0.0
  0
LINE
  5
82EF
330
8402
100
AcDbEntity
  8
3
 62
     0
100
AcDbLine
 10
2809.690038106197
 20
5436.91888063242
 30
0.0
 11
3724.490322716849
 21
5436.91888063242
 31
0.0
  0
INSERT
  5
82F0
330
8402
100
AcDbEntity
  8
3
 62
     0
100
AcDbBlockReference
  2
_OPEN
 10
2729.690038106197
 20
5436.91888063242
 30
0.0
 41
80.0
 42
80.0
 43
80.0
 50
180.0
  0
INSERT
  5
82F1
330
8402
100
AcDbEntity
  8
3
 62
     0
100
AcDbBlockReference
  2
_OPEN
 10
3804.49032271685
 20
5436.91888063242
 30
0.0
 41
80.0
 42
80.0
 43
80.0
  0
TEXT
  5
836A
330
8402
100
AcDbEntity
  8
3
 62
     0
100
AcDbText
 10
3027.09
 20
5324.52
 30
0.0
 40
120.0
  1
1079
100
AcDbText
  0
POINT
  5
82F3
330
8402
100
AcDbEntity
  8
DEFPOINTS
 62
     0
100
AcDbPoint
 10
2729.690038106197
 20
5155.681654420209
 30
0.0
  0
POINT
  5
82F4
330
8402
100
AcDbEntity
  8
DEFPOINTS
 62
     0
100
AcDbPoint
 10
3804.49032271685
 20
3800.395935314897
 30
0.0
  0
POINT
  5
82F5
330
8402
100
AcDbEntity
  8
DEFPOINTS
 62
     0
100
AcDbPoint
 10
3804.49032271685
 20
5436.91888063242
 30
0.0
  0
ENDBLK
  5
8049
330
8402
100
AcDbEntity
  8
0
100
AcDbBlockEnd
  0
BLOCK
  5
8405
330
8404
100
AcDbEntity
  8
0
100
AcDbBlockBegin
  2
*D8
 70
     1
 10
0.0
 20
0.0
 30
0.0
  3
*D8
  1

  0
LINE
  5
82F6
330
8404
100
AcDbEntity
  8
3
 62
     0
100
AcDbLine
 10
5460.972951952932
 20
5207.395935314896
 30
0.0
 11
5460.972951952932
 21
5475.795721781462
 31
0.0
  0
LINE
  5
82F7
330
8404
100
AcDbEntity
  8
3
 62
     0
100
AcDbLine
 10
7160.972951952932
 20
5207.395935314896
 30
0.0
 11
7160.972951952932
 21
5475.795721781462
 31
0.0
  0
LINE
  5
82F8
330
8404
100
AcDbEntity
  8
3
 62
     0
100
AcDbLine
 10
5540.972951952932
 20
5435.795721781462
 30
0.0
 11
7080.972951952934
 21
5435.795721781462
 31
0.0
  0
INSERT
  5
82F9
330
8404
100
AcDbEntity
  8
3
 62
     0
100
AcDbBlockReference
  2
_OPEN
 10
5460.972951952932
 20
5435.795721781462
 30
0.0
 41
80.0
 42
80.0
 43
80.0
 50
180.0
  0
INSERT
  5
82FA
330
8404
100
AcDbEntity
  8
3
 62
     0
100
AcDbBlockReference
  2
_OPEN
 10
7160.972951952932
 20
5435.795721781462
 30
0.0
 41
80.0
 42
80.0
 43
80.0
  0
TEXT
  5
836B
330
8404
100
AcDbEntity
  8
3
 62
     0
100
AcDbText
 10
6070.97
 20
5323.399999999999
 30
0.0
 40
120.0
  1
1700
100
AcDbText
  0
POINT
  5
82FC
330
8404
100
AcDbEntity
  8
DEFPOINTS
 62
     0
100
AcDbPoint
 10
5460.972951952932
 20
5187.395935314897
 30
0.0
  0
POINT
  5
82FD
330
8404
100
AcDbEntity
  8
DEFPOINTS
 62
     0
100
AcDbPoint
 10
7160.972951952932
 20
5187.395935314897
 30
0.0
  0
POINT
  5
82FE
330
8404
100
AcDbEntity
  8
DEFPOINTS
 62
     0
100
AcDbPoint
 10
7160.972951952932
 20
5435.795721781462
 30
0.0
  0
ENDBLK
  5
803E
330
8404
100
AcDbEntity
  8
0
100
AcDbBlockEnd
  0
BLOCK
  5
8407
330
8406
100
AcDbEntity
  8
0
100
AcDbBlockBegin
  2
*D9
 70
     1
 10
0.0
 20
0.0
 30
0.0
  3
*D9
  1

  0
LINE
  5
82FF
330
8406
100
AcDbEntity
  8
3
 62
     0
100
AcDbLine
 10
5075.972951952933
 20
4100.395935314896
 30
0.0
 11
5075.972951952933
 21
5729.146613745551
 31
0.0
  0
LINE
  5
8300
330
8406
100
AcDbEntity
  8
3
 62
     0
100
AcDbLine
 10
6310.972951952932
 20
5644.422705656015
 30
0.0
 11
6310.972951952932
 21
5729.146613745551
 31
0.0
  0
LINE
  5
8301
330
8406
100
AcDbEntity
  8
3
 62
     0
100
AcDbLine
 10
5155.972951952932
 20
5689.146613745551
 30
0.0
 11
6230.972951952931
 21
5689.146613745551
 31
0.0
  0
INSERT
  5
8302
330
8406
100
AcDbEntity
  8
3
 62
     0
100
AcDbBlockReference
  2
_OPEN
 10
5075.972951952933
 20
5689.146613745551
 30
0.0
 41
80.0
 42
80.0
 43
80.0
 50
180.0
  0
INSERT
  5
8303
330
8406
100
AcDbEntity
  8
3
 62
     0
100
AcDbBlockReference
  2
_OPEN
 10
6310.972951952932
 20
5689.146613745551
 30
0.0
 41
80.0
 42
80.0
 43
80.0
  0
TEXT
  5
836C
330
8406
100
AcDbEntity
  8
3
 62
     0
100
AcDbText
 10
5453.47
 20
5676.75
 30
0.0
 40
120.0
  1
MAX
100
AcDbText
  0
TEXT
  5
836D
330
8406
100
AcDbEntity
  8
3
 62
     0
100
AcDbText
 10
5453.47
 20
5520.75
 30
0.0
 40
120.0
  1
1280
100
AcDbText
  0
POINT
  5
8305
330
8406
100
AcDbEntity
  8
DEFPOINTS
 62
     0
100
AcDbPoint
 10
5075.972951952933
 20
4080.395935314895
 30
0.0
  0
POINT
  5
8306
330
8406
100
AcDbEntity
  8
DEFPOINTS
 62
     0
100
AcDbPoint
 10
6310.972951952932
 20
5624.422705656016
 30
0.0
  0
POINT
  5
8307
330
8406
100
AcDbEntity
  8
DEFPOINTS
 62
     0
100
AcDbPoint
 10
6310.972951952932
 20
5689.146613745551
 30
0.0
  0
ENDBLK
  5
814F
330
8406
100
AcDbEntity
  8
0
100
AcDbBlockEnd
  0
BLOCK
  5
8409
330
8408
100
AcDbEntity
  8
0
100
AcDbBlockBegin
  2
*D10
 70
     1
 10
0.0
 20
0.0
 30
0.0
  3
*D10
  1

  0
LINE
  5
8308
330
8408
100
AcDbEntity
  8
3
 62
     0
100
AcDbLine
 10
6310.972951952932
 20
5644.422705656015
 30
0.0
 11
6310.972951952932
 21
5728.759026640364
 31
0.0
  0
LINE
  5
8309
330
8408
100
AcDbEntity
  8
3
 62
     0
100
AcDbLine
 10
7320.972951952931
 20
3715.733866417163
 30
0.0
 11
7320.972951952931
 21
5728.759026640364
 31
0.0
  0
LINE
  5
830A
330
8408
100
AcDbEntity
  8
3
 62
     0
100
AcDbLine
 10
6390.972951952932
 20
5688.759026640364
 30
0.0
 11
7240.972951952933
 21
5688.759026640364
 31
0.0
  0
INSERT
  5
830B
330
8408
100
AcDbEntity
  8
3
 62
     0
100
AcDbBlockReference
  2
_OPEN
 10
6310.972951952932
 20
5688.759026640364
 30
0.0
 41
80.0
 42
80.0
 43
80.0
 50
180.0
  0
INSERT
  5
830C
330
8408
100
AcDbEntity
  8
3
 62
     0
100
AcDbBlockReference
  2
_OPEN
 10
7320.972951952931
 20
5688.759026640364
 30
0.0
 41
80.0
 42
80.0
 43
80.0
  0
TEXT
  5
836E
330
8408
100
AcDbEntity
  8
3
 62
     0
100
AcDbText
 10
6575.970000000001
 20
5607.79
 30
0.0
 40
120.0
  1
(1020)
100
AcDbText
  0
POINT
  5
830E
330
8408
100
AcDbEntity
  8
DEFPOINTS
 62
     0
100
AcDbPoint
 10
6310.972951952932
 20
5624.422705656016
 30
0.0
  0
POINT
  5
830F
330
8408
100
AcDbEntity
  8
DEFPOINTS
 62
     0
100
AcDbPoint
 10
7320.972951952931
 20
3695.733866417163
 30
0.0
  0
POINT
  5
8310
330
8408
100
AcDbEntity
  8
DEFPOINTS
 62
     0
100
AcDbPoint
 10
7320.972951952931
 20
5688.759026640364
 30
0.0
  0
ENDBLK
  5
8144
330
8408
100
AcDbEntity
  8
0
100
AcDbBlockEnd
  0
BLOCK
  5
840B
330
840A
100
AcDbEntity
  8
0
100
AcDbBlockBegin
  2
*D11
 70
     1
 10
0.0
 20
0.0
 30
0.0
  3
*D11
  1

  0
LINE
  5
8311
330
840A
100
AcDbEntity
  8
3
 62
     0
100
AcDbLine
 10
7183.272951952933
 20
4425.395935314896
 30
0.0
 11
7612.242576865435
 21
4425.395935314896
 31
0.0
  0
LINE
  5
8312
330
840A
100
AcDbEntity
  8
3
 62
     0
100
AcDbLine
 10
7183.272951952933
 20
3175.395935314895
 30
0.0
 11
7612.242576865435
 21
3175.395935314895
 31
0.0
  0
LINE
  5
8313
330
840A
100
AcDbEntity
  8
3
 62
     0
100
AcDbLine
 10
7572.242576865434
 20
4345.395935314896
 30
0.0
 11
7572.242576865434
 21
3255.395935314895
 31
0.0
  0
INSERT
  5
8314
330
840A
100
AcDbEntity
  8
3
 62
     0
100
AcDbBlockReference
  2
_OPEN
 10
7572.242576865434
 20
4425.395935314896
 30
0.0
 41
80.0
 42
80.0
 43
80.0
 50
90.0
  0
INSERT
  5
8315
330
840A
100
AcDbEntity
  8
3
 62
     0
100
AcDbBlockReference
  2
_OPEN
 10
7572.242576865434
 20
3175.395935314895
 30
0.0
 41
80.0
 42
80.0
 43
80.0
 50
270.0
  0
TEXT
  5
836F
330
840A
100
AcDbEntity
  8
3
 62
     0
100
AcDbText
 10
7232.24
 20
3588.0
 30
0.0
 40
120.0
  1
\U+03C61250
100
AcDbText
  0
POINT
  5
8317
330
840A
100
AcDbEntity
  8
DEFPOINTS
 62
     0
100
AcDbPoint
 10
7163.272951952933
 20
4425.395935314896
 30
0.0
  0
POINT
  5
8318
330
840A
100
AcDbEntity
  8
DEFPOINTS
 62
     0
100
AcDbPoint
 10
7163.272951952933
 20
3175.395935314895
 30
0.0
  0
POINT
  5
8319
330
840A
100
AcDbEntity
  8
DEFPOINTS
 62
     0
100
AcDbPoint
 10
7572.242576865434
 20
3175.395935314895
 30
0.0
  0
ENDBLK
  5
801D
330
840A
100
AcDbEntity
  8
0
100
AcDbBlockEnd
  0
BLOCK
  5
840D
330
840C
100
AcDbEntity
  8
0
100
AcDbBlockBegin
  2
*D12
 70
     1
 10
0.0
 20
0.0
 30
0.0
  3
*D12
  1

  0
LINE
  5
831A
330
840C
100
AcDbEntity
  8
3
 62
     0
100
AcDbLine
 10
1806.253499857346
 20
3800.395935314897
 30
0.0
 11
1365.268771363862
 21
3800.395935314897
 31
0.0
  0
LINE
  5
831B
330
840C
100
AcDbEntity
  8
3
 62
     0
100
AcDbLine
 10
1959.690038106199
 20
2875.395935314896
 30
0.0
 11
1365.268771363862
 21
2875.395935314896
 31
0.0
  0
LINE
  5
831C
330
840C
100
AcDbEntity
  8
3
 62
     0
100
AcDbLine
 10
1405.268771363862
 20
3720.395935314896
 30
0.0
 11
1405.268771363862
 21
2955.395935314896
 31
0.0
  0
INSERT
  5
831D
330
840C
100
AcDbEntity
  8
3
 62
     0
100
AcDbBlockReference
  2
_OPEN
 10
1405.268771363862
 20
3800.395935314897
 30
0.0
 41
80.0
 42
80.0
 43
80.0
 50
90.0
  0
INSERT
  5
831E
330
840C
100
AcDbEntity
  8
3
 62
     0
100
AcDbBlockReference
  2
_OPEN
 10
1405.268771363862
 20
2875.395935314896
 30
0.0
 41
80.0
 42
80.0
 43
80.0
 50
270.0
  0
TEXT
  5
8370
330
840C
100
AcDbEntity
  8
3
 62
     0
100
AcDbText
 10
1065.27
 20
3125.5
 30
0.0
 40
120.0
  1
925
100
AcDbText
  0
POINT
  5
8320
330
840C
100
AcDbEntity
  8
DEFPOINTS
 62
     0
100
AcDbPoint
 10
1826.253499857346
 20
3800.395935314897
 30
0.0
  0
POINT
  5
8321
330
840C
100
AcDbEntity
  8
DEFPOINTS
 62
     0
100
AcDbPoint
 10
1979.690038106198
 20
2875.395935314896
 30
0.0
  0
POINT
  5
8322
330
840C
100
AcDbEntity
  8
DEFPOINTS
 62
     0
100
AcDbPoint
 10
1405.268771363862
 20
2875.395935314896
 30
0.0
  0
ENDBLK
  5
7FFC
330
840C
100
AcDbEntity
  8
0
100
AcDbBlockEnd
  0
BLOCK
  5
840F
330
840E
100
AcDbEntity
  8
0
100
AcDbBlockBegin
  2
*D13
 70
     1
 10
0.0
 20
0.0
 30
0.0
  3
*D13
  1

  0
LINE
  5
8323
330
840E
100
AcDbEntity
  8
3
 62
     0
100
AcDbLine
 10
1959.690038106199
 20
8644.822268021341
 30
0.0
 11
1490.673896870365
 21
8644.822268021341
 31
0.0
  0
LINE
  5
8324
330
840E
100
AcDbEntity
  8
3
 62
     0
100
AcDbLine
 10
1959.690038106199
 20
6524.822268021342
 30
0.0
 11
1490.673896870364
 21
6524.822268021342
 31
0.0
  0
LINE
  5
8325
330
840E
100
AcDbEntity
  8
3
 62
     0
100
AcDbLine
 10
1530.673896870365
 20
8564.822268021343
 30
0.0
 11
1530.673896870364
 21
6604.822268021341
 31
0.0
  0
INSERT
  5
8326
330
840E
100
AcDbEntity
  8
3
 62
     0
100
AcDbBlockReference
  2
_OPEN
 10
1530.673896870365
 20
8644.822268021341
 30
0.0
 41
80.0
 42
80.0
 43
80.0
 50
90.0
  0
INSERT
  5
8327
330
840E
100
AcDbEntity
  8
3
 62
     0
100
AcDbBlockReference
  2
_OPEN
 10
1530.673896870364
 20
6524.822268021342
 30
0.0
 41
80.0
 42
80.0
 43
80.0
 50
270.0
  0
TEXT
  5
8371
330
840E
100
AcDbEntity
  8
3
 62
     0
100
AcDbText
 10
1190.67
 20
7372.419999999999
 30
0.0
 40
120.0
  1
2120
100
AcDbText
  0
POINT
  5
8329
330
840E
100
AcDbEntity
  8
DEFPOINTS
 62
     0
100
AcDbPoint
 10
1979.690038106198
 20
8644.822268021341
 30
0.0
  0
POINT
  5
832A
330
840E
100
AcDbEntity
  8
DEFPOINTS
 62
     0
100
AcDbPoint
 10
1979.690038106198
 20
6524.822268021342
 30
0.0
  0
POINT
  5
832B
330
840E
100
AcDbEntity
  8
DEFPOINTS
 62
     0
100
AcDbPoint
 10
1530.673896870364
 20
6524.822268021342
 30
0.0
  0
ENDBLK
  5
7FD0
330
840E
100
AcDbEntity
  8
0
100
AcDbBlockEnd
  0
BLOCK
  5
8411
330
8410
100
AcDbEntity
  8
0
100
AcDbBlockBegin
  2
*D14
 70
     1
 10
0.0
 20
0.0
 30
0.0
  3
*D14
  1

  0
LINE
  5
832C
330
8410
100
AcDbEntity
  8
3
 62
     0
100
AcDbLine
 10
1979.690038106198
 20
8664.822268021342
 30
0.0
 11
1979.690038106198
 21
8889.458406526527
 31
0.0
  0
LINE
  5
832D
330
8410
100
AcDbEntity
  8
3
 62
     0
100
AcDbLine
 10
3479.690038106197
 20
8664.822268021342
 30
0.0
 11
3479.690038106197
 21
8889.458406526527
 31
0.0
  0
LINE
  5
832E
330
8410
100
AcDbEntity
  8
3
 62
     0
100
AcDbLine
 10
2059.690038106197
 20
8849.458406526526
 30
0.0
 11
3399.690038106199
 21
8849.458406526526
 31
0.0
  0
INSERT
  5
832F
330
8410
100
AcDbEntity
  8
3
 62
     0
100
AcDbBlockReference
  2
_OPEN
 10
1979.690038106198
 20
8849.458406526526
 30
0.0
 41
80.0
 42
80.0
 43
80.0
 50
180.0
  0
INSERT
  5
8330
330
8410
100
AcDbEntity
  8
3
 62
     0
100
AcDbBlockReference
  2
_OPEN
 10
3479.690038106197
 20
8849.458406526526
 30
0.0
 41
80.0
 42
80.0
 43
80.0
  0
TEXT
  5
8372
330
8410
100
AcDbEntity
  8
3
 62
     0
100
AcDbText
 10
2489.69
 20
8737.059999999999
 30
0.0
 40
120.0
  1
1500
100
AcDbText
  0
POINT
  5
8332
330
8410
100
AcDbEntity
  8
DEFPOINTS
 62
     0
100
AcDbPoint
 10
1979.690038106198
 20
8644.822268021341
 30
0.0
  0
POINT
  5
8333
330
8410
100
AcDbEntity
  8
DEFPOINTS
 62
     0
100
AcDbPoint
 10
3479.690038106197
 20
8644.822268021341
 30
0.0
  0
POINT
  5
8334
330
8410
100
AcDbEntity
  8
DEFPOINTS
 62
     0
100
AcDbPoint
 10
3479.690038106197
 20
8849.458406526526
 30
0.0
  0
ENDBLK
  5
7FC5
330
8410
100
AcDbEntity
  8
0
100
AcDbBlockEnd
  0
BLOCK
  5
8413
330
8412
100
AcDbEntity
  8
0
100
AcDbBlockBegin
  2
*D15
 70
     1
 10
0.0
 20
0.0
 30
0.0
  3
*D15
  1

  0
LINE
  5
8335
330
8412
100
AcDbEntity
  8
3
 62
     0
100
AcDbLine
 10
3479.690038106197
 20
8664.822268021342
 30
0.0
 11
3479.690038106197
 21
8889.458406526527
 31
0.0
  0
LINE
  5
8336
330
8412
100
AcDbEntity
  8
3
 62
     0
100
AcDbLine
 10
4429.690038106198
 20
7544.822268021341
 30
0.0
 11
4429.690038106198
 21
8889.458406526527
 31
0.0
  0
LINE
  5
8337
330
8412
100
AcDbEntity
  8
3
 62
     0
100
AcDbLine
 10
3559.690038106197
 20
8849.458406526526
 30
0.0
 11
4349.690038106198
 21
8849.458406526526
 31
0.0
  0
INSERT
  5
8338
330
8412
100
AcDbEntity
  8
3
 62
     0
100
AcDbBlockReference
  2
_OPEN
 10
3479.690038106197
 20
8849.458406526526
 30
0.0
 41
80.0
 42
80.0
 43
80.0
 50
180.0
  0
INSERT
  5
8339
330
8412
100
AcDbEntity
  8
3
 62
     0
100
AcDbBlockReference
  2
_OPEN
 10
4429.690038106198
 20
8849.458406526526
 30
0.0
 41
80.0
 42
80.0
 43
80.0
  0
TEXT
  5
8373
330
8412
100
AcDbEntity
  8
3
 62
     0
100
AcDbText
 10
3714.69
 20
8737.059999999999
 30
0.0
 40
120.0
  1
950
100
AcDbText
  0
POINT
  5
833B
330
8412
100
AcDbEntity
  8
DEFPOINTS
 62
     0
100
AcDbPoint
 10
3479.690038106197
 20
8644.822268021341
 30
0.0
  0
POINT
  5
833C
330
8412
100
AcDbEntity
  8
DEFPOINTS
 62
     0
100
AcDbPoint
 10
4429.690038106198
 20
7524.822268021342
 30
0.0
  0
POINT
  5
833D
330
8412
100
AcDbEntity
  8
DEFPOINTS
 62
     0
100
AcDbPoint
 10
4429.690038106198
 20
8849.458406526526
 30
0.0
  0
ENDBLK
  5
7FBA
330
8412
100
AcDbEntity
  8
0
100
AcDbBlockEnd
  0
BLOCK
  5
8415
330
8414
100
AcDbEntity
  8
0
100
AcDbBlockBegin
  2
*D16
 70
     1
 10
0.0
 20
0.0
 30
0.0
  3
*D16
  1

  0
LINE
  5
833E
330
8414
100
AcDbEntity
  8
3
 62
     0
100
AcDbLine
 10
4449.690038106199
 20
7524.822268021342
 30
0.0
 11
4736.016439213776
 21
7524.822268021342
 31
0.0
  0
LINE
  5
833F
330
8414
100
AcDbEntity
  8
3
 62
     0
100
AcDbLine
 10
4449.690038106199
 20
6524.822268021342
 30
0.0
 11
4736.016439213776
 21
6524.822268021342
 31
0.0
  0
LINE
  5
8340
330
8414
100
AcDbEntity
  8
3
 62
     0
100
AcDbLine
 10
4696.016439213777
 20
7444.822268021342
 30
0.0
 11
4696.016439213777
 21
6604.822268021343
 31
0.0
  0
INSERT
  5
8341
330
8414
100
AcDbEntity
  8
3
 62
     0
100
AcDbBlockReference
  2
_OPEN
 10
4696.016439213777
 20
7524.822268021342
 30
0.0
 41
80.0
 42
80.0
 43
80.0
 50
90.0
  0
INSERT
  5
8342
330
8414
100
AcDbEntity
  8
3
 62
     0
100
AcDbBlockReference
  2
_OPEN
 10
4696.016439213777
 20
6524.822268021342
 30
0.0
 41
80.0
 42
80.0
 43
80.0
 50
270.0
  0
TEXT
  5
8374
330
8414
100
AcDbEntity
  8
3
 62
     0
100
AcDbText
 10
4356.02
 20
6812.42
 30
0.0
 40
120.0
  1
1000
100
AcDbText
  0
POINT
  5
8344
330
8414
100
AcDbEntity
  8
DEFPOINTS
 62
     0
100
AcDbPoint
 10
4429.690038106198
 20
7524.822268021342
 30
0.0
  0
POINT
  5
8345
330
8414
100
AcDbEntity
  8
DEFPOINTS
 62
     0
100
AcDbPoint
 10
4429.690038106198
 20
6524.822268021342
 30
0.0
  0
POINT
  5
8346
330
8414
100
AcDbEntity
  8
DEFPOINTS
 62
     0
100
AcDbPoint
 10
4696.016439213777
 20
6524.822268021342
 30
0.0
  0
ENDBLK
  5
7FAF
330
8414
100
AcDbEntity
  8
0
100
AcDbBlockEnd
  0
BLOCK
  5
8417
330
8416
100
AcDbEntity
  8
0
100
AcDbBlockBegin
  2
*D17
 70
     1
 10
0.0
 20
0.0
 30
0.0
  3
*D17
  1

  0
LINE
  5
8347
330
8416
100
AcDbEntity
  8
3
 62
     0
100
AcDbLine
 10
4429.690038106198
 20
6504.822268021341
 30
0.0
 11
4429.690038106198
 21
6120.06838983169
 31
0.0
  0
LINE
  5
8348
330
8416
100
AcDbEntity
  8
3
 62
     0
100
AcDbLine
 10
1979.690038106198
 20
6504.822268021341
 30
0.0
 11
1979.690038106198
 21
6120.06838983169
 31
0.0
  0
LINE
  5
8349
330
8416
100
AcDbEntity
  8
3
 62
     0
100
AcDbLine
 10
4349.690038106198
 20
6160.068389831689
 30
0.0
 11
2059.690038106197
 21
6160.068389831689
 31
0.0
  0
INSERT
  5
834A
330
8416
100
AcDbEntity
  8
3
 62
     0
100
AcDbBlockReference
  2
_OPEN
 10
4429.690038106198
 20
6160.068389831689
 30
0.0
 41
80.0
 42
80.0
 43
80.0
  0
INSERT
  5
834B
330
8416
100
AcDbEntity
  8
3
 62
     0
100
AcDbBlockReference
  2
_OPEN
 10
1979.690038106198
 20
6160.068389831689
 30
0.0
 41
80.0
 42
80.0
 43
80.0
 50
180.0
  0
TEXT
  5
8375
330
8416
100
AcDbEntity
  8
3
 62
     0
100
AcDbText
 10
2964.69
 20
6047.67
 30
0.0
 40
120.0
  1
2450
100
AcDbText
  0
POINT
  5
834D
330
8416
100
AcDbEntity
  8
DEFPOINTS
 62
     0
100
AcDbPoint
 10
4429.690038106198
 20
6524.822268021342
 30
0.0
  0
POINT
  5
834E
330
8416
100
AcDbEntity
  8
DEFPOINTS
 62
     0
100
AcDbPoint
 10
1979.690038106198
 20
6524.822268021342
 30
0.0
  0
POINT
  5
834F
330
8416
100
AcDbEntity
  8
DEFPOINTS
 62
     0
100
AcDbPoint
 10
1979.690038106198
 20
6160.068389831689
 30
0.0
  0
ENDBLK
  5
7FA4
330
8416
100
AcDbEntity
  8
0
100
AcDbBlockEnd
  0
BLOCK
  5
8419
330
8418
100
AcDbEntity
  8
0
100
AcDbBlockBegin
  2
*D18
 70
     1
 10
0.0
 20
0.0
 30
0.0
  3
*D18
  1

  0
LINE
  5
8350
330
8418
100
AcDbEntity
  8
3
 62
     0
100
AcDbLine
 10
1904.690038106198
 20
5207.395935314896
 30
0.0
 11
1904.690038106198
 21
5701.37209794053
 31
0.0
  0
LINE
  5
8351
330
8418
100
AcDbEntity
  8
3
 62
     0
100
AcDbLine
 10
4429.690038106198
 20
3020.395935314896
 30
0.0
 11
4429.690038106198
 21
5701.37209794053
 31
0.0
  0
LINE
  5
8352
330
8418
100
AcDbEntity
  8
3
 62
     0
100
AcDbLine
 10
1984.690038106198
 20
5661.37209794053
 30
0.0
 11
4349.690038106198
 21
5661.37209794053
 31
0.0
  0
INSERT
  5
8353
330
8418
100
AcDbEntity
  8
3
 62
     0
100
AcDbBlockReference
  2
_OPEN
 10
1904.690038106198
 20
5661.37209794053
 30
0.0
 41
80.0
 42
80.0
 43
80.0
 50
180.0
  0
INSERT
  5
8354
330
8418
100
AcDbEntity
  8
3
 62
     0
100
AcDbBlockReference
  2
_OPEN
 10
4429.690038106198
 20
5661.37209794053
 30
0.0
 41
80.0
 42
80.0
 43
80.0
  0
TEXT
  5
8376
330
8418
100
AcDbEntity
  8
3
 62
     0
100
AcDbText
 10
2927.19
 20
5548.97
 30
0.0
 40
120.0
  1
2525
100
AcDbText
  0
POINT
  5
8356
330
8418
100
AcDbEntity
  8
DEFPOINTS
 62
     0
100
AcDbPoint
 10
1904.690038106198
 20
5187.395935314897
 30
0.0
  0
POINT
  5
8357
330
8418
100
AcDbEntity
  8
DEFPOINTS
 62
     0
100
AcDbPoint
 10
4429.690038106198
 20
3000.395935314896
 30
0.0
  0
POINT
  5
8358
330
8418
100
AcDbEntity
  8
DEFPOINTS
 62
     0
100
AcDbPoint
 10
4429.690038106198
 20
5661.37209794053
 30
0.0
  0
ENDBLK
  5
7F99
330
8418
100
AcDbEntity
  8
0
100
AcDbBlockEnd
  0
BLOCK
  5
841C
330
841B
100
AcDbEntity
  8
0
100
AcDbBlockBegin
  2
*D19
 70
     1
 10
0.0
 20
0.0
 30
0.0
  3
*D19
  1

  0
LINE
  5
8359
330
841B
100
AcDbEntity
  8
3
 62
     0
100
AcDbLine
 10
1959.690038106199
 20
2760.395935314897
 30
0.0
 11
1365.268771363862
 21
2760.395935314897
 31
0.0
  0
LINE
  5
835A
330
841B
100
AcDbEntity
  8
3
 62
     0
100
AcDbLine
 10
1959.690038106198
 20
2695.395935314897
 30
0.0
 11
1365.268771363862
 21
2695.395935314897
 31
0.0
  0
LINE
  5
835B
330
841B
100
AcDbEntity
  8
3
 62
     0
100
AcDbLine
 10
1405.268771363862
 20
2840.395935314897
 30
0.0
 11
1405.268771363862
 21
2920.395935314897
 31
0.0
  0
LINE
  5
835C
330
841B
100
AcDbEntity
  8
3
 62
     0
100
AcDbLine
 10
1405.268771363862
 20
2615.395935314897
 30
0.0
 11
1405.268771363862
 21
2261.110221029182
 31
0.0
  0
LINE
  5
835D
330
841B
100
AcDbEntity
  8
3
 62
     0
100
AcDbLine
 10
1405.268771363862
 20
2760.395935314897
 30
0.0
 11
1405.268771363862
 21
2695.395935314897
 31
0.0
  0
INSERT
  5
835E
330
841B
100
AcDbEntity
  8
3
 62
     0
100
AcDbBlockReference
  2
_DOT
 10
1405.268771363862
 20
2760.395935314897
 30
0.0
 41
80.0
 42
80.0
 43
80.0
 50
270.0
  0
INSERT
  5
835F
330
841B
100
AcDbEntity
  8
3
 62
     0
100
AcDbBlockReference
  2
_OPEN
 10
1405.268771363862
 20
2695.395935314897
 30
0.0
 41
80.0
 42
80.0
 43
80.0
 50
90.0
  0
TEXT
  5
8377
330
841B
100
AcDbEntity
  8
3
 62
     0
100
AcDbText
 10
1065.27
 20
2185.85
 30
0.0
 40
120.0
  1
65
100
AcDbText
  0
POINT
  5
8361
330
841B
100
AcDbEntity
  8
DEFPOINTS
 62
     0
100
AcDbPoint
 10
1979.690038106198
 20
2760.395935314897
 30
0.0
  0
POINT
  5
8362
330
841B
100
AcDbEntity
  8
DEFPOINTS
 62
     0
100
AcDbPoint
 10
1979.690038106198
 20
2695.395935314897
 30
0.0
  0
POINT
  5
8363
330
841B
100
AcDbEntity
  8
DEFPOINTS
 62
     0
100
AcDbPoint
 10
1405.268771363862
 20
2695.395935314897
 30
0.0
  0
ENDBLK
  5
80E9
330
841B
100
AcDbEntity
  8
0
100
AcDbBlockEnd
  0
BLOCK
  5
841E
330
841D
100
AcDbEntity
  8
0
100
AcDbBlockBegin
  2
_DOT
 70
     0
 10
0.0
 20
0.0
 30
0.0
  3
_DOT
  1

  0
LINE
  5
80EA
330
841D
100
AcDbEntity
  8
0
  6
ByBlock
 62
     0
100
AcDbLine
 10
0.0
 20
0.0
 30
0.0
 11
-1.0
 21
-0.0000000000000284
 31
0.0
  0
LWPOLYLINE
  5
80EB
330
841D
100
AcDbEntity
  8
0
  6
ByBlock
 62
     0
100
AcDbPolyline
 90
        2
 70
     1
 43
0.1666666666666666
 10
-0.0833333333333286
 20
-0.0000000000000284
 42
1.0
 10
0.0833333333333286
 20
-0.0000000000000284
 42
1.0
  0
ENDBLK
  5
80CF
330
841D
100
AcDbEntity
  8
0
100
AcDbBlockEnd
  0
BLOCK
  5
8420
330
841F
100
AcDbEntity
  8
0
100
AcDbBlockBegin
  2
*D21
 70
     1
 10
0.0
 20
0.0
 30
0.0
  3
*D21
  1

  0
LINE
  5
815F
330
841F
100
AcDbEntity
  8
0
  6
ByBlock
 62
     0
100
AcDbLine
 10
1979.690038106198
 20
2770.395935314896
 30
0.0
 11
1979.690038106198
 21
2488.855336810313
 31
0.0
  0
LINE
  5
8160
330
841F
100
AcDbEntity
  8
0
  6
ByBlock
 62
     0
100
AcDbLine
 10
2729.690038106197
 20
2770.395935314896
 30
0.0
 11
2729.690038106197
 21
2488.855336810313
 31
0.0
  0
LINE
  5
8161
330
841F
100
AcDbEntity
  8
0
  6
ByBlock
 62
     0
100
AcDbLine
 10
2059.690038106197
 20
2528.855336810313
 30
0.0
 11
2649.690038106197
 21
2528.855336810313
 31
0.0
  0
INSERT
  5
8162
330
841F
100
AcDbEntity
  8
0
  6
ByBlock
 62
     0
100
AcDbBlockReference
  2
_OPEN
 10
1979.690038106198
 20
2528.855336810313
 30
0.0
 41
80.0
 42
80.0
 43
80.0
 50
180.0
  0
INSERT
  5
8163
330
841F
100
AcDbEntity
  8
0
  6
ByBlock
 62
     0
100
AcDbBlockReference
  2
_OPEN
 10
2729.690038106197
 20
2528.855336810313
 30
0.0
 41
80.0
 42
80.0
 43
80.0
  0
TEXT
  5
8164
330
841F
100
AcDbEntity
  8
3
 62
     0
100
AcDbText
 10
2200.404323820484
 20
2568.855336810313
 30
0.0
 40
120.0
  1
750
100
AcDbText
  0
POINT
  5
8165
330
841F
100
AcDbEntity
  8
DEFPOINTS
  6
ByBlock
 62
     0
100
AcDbPoint
 10
1979.690038106198
 20
2790.395935314896
 30
0.0
  0
POINT
  5
8166
330
841F
100
AcDbEntity
  8
DEFPOINTS
  6
ByBlock
 62
     0
100
AcDbPoint
 10
2729.690038106197
 20
2790.395935314896
 30
0.0
  0
POINT
  5
8167
330
841F
100
AcDbEntity
  8
DEFPOINTS
  6
ByBlock
 62
     0
100
AcDbPoint
 10
2729.690038106197
 20
2528.855336810313
 30
0.0
  0
ENDBLK
  5
8168
330
841F
100
AcDbEntity
  8
0
100
AcDbBlockEnd
  0
BLOCK
  5
8422
330
8421
100
AcDbEntity
  8
0
100
AcDbBlockBegin
  2
*D22
 70
     1
 10
0.0
 20
0.0
 30
0.0
  3
*D22
  1

  0
LINE
  5
816C
330
8421
100
AcDbEntity
  8
0
  6
ByBlock
 62
     0
100
AcDbLine
 10
2729.690038106197
 20
2770.395935314896
 30
0.0
 11
2729.690038106197
 21
2488.855336810313
 31
0.0
  0
LINE
  5
816D
330
8421
100
AcDbEntity
  8
0
  6
ByBlock
 62
     0
100
AcDbLine
 10
4429.690038106198
 20
2770.395935314896
 30
0.0
 11
4429.690038106198
 21
2488.855336810313
 31
0.0
  0
LINE
  5
816E
330
8421
100
AcDbEntity
  8
0
  6
ByBlock
 62
     0
100
AcDbLine
 10
2809.690038106197
 20
2528.855336810313
 30
0.0
 11
4349.690038106198
 21
2528.855336810313
 31
0.0
  0
INSERT
  5
816F
330
8421
100
AcDbEntity
  8
0
  6
ByBlock
 62
     0
100
AcDbBlockReference
  2
_OPEN
 10
2729.690038106197
 20
2528.855336810313
 30
0.0
 41
80.0
 42
80.0
 43
80.0
 50
180.0
  0
INSERT
  5
8170
330
8421
100
AcDbEntity
  8
0
  6
ByBlock
 62
     0
100
AcDbBlockReference
  2
_OPEN
 10
4429.690038106198
 20
2528.855336810313
 30
0.0
 41
80.0
 42
80.0
 43
80.0
  0
TEXT
  5
8171
330
8421
100
AcDbEntity
  8
3
 62
     0
100
AcDbText
 10
3379.690038106199
 20
2568.855336810313
 30
0.0
 40
120.0
  1
1700
100
AcDbText
  0
POINT
  5
8172
330
8421
100
AcDbEntity
  8
DEFPOINTS
  6
ByBlock
 62
     0
100
AcDbPoint
 10
2729.690038106197
 20
2790.395935314896
 30
0.0
  0
POINT
  5
8173
330
8421
100
AcDbEntity
  8
DEFPOINTS
  6
ByBlock
 62
     0
100
AcDbPoint
 10
4429.690038106198
 20
2790.395935314896
 30
0.0
  0
POINT
  5
8174
330
8421
100
AcDbEntity
  8
DEFPOINTS
  6
ByBlock
 62
     0
100
AcDbPoint
 10
4429.690038106198
 20
2528.855336810313
 30
0.0
  0
ENDBLK
  5
8175
330
8421
100
AcDbEntity
  8
0
100
AcDbBlockEnd
  0
BLOCK
  5
8424
330
8423
100
AcDbEntity
  8
0
100
AcDbBlockBegin
  2
*D23
 70
     1
 10
0.0
 20
0.0
 30
0.0
  3
*D23
  1

  0
LINE
  5
8179
330
8423
100
AcDbEntity
  8
0
  6
ByBlock
 62
     0
100
AcDbLine
 10
5108.972951952932
 20
2770.395935314896
 30
0.0
 11
5108.972951952932
 21
2488.855336810313
 31
0.0
  0
LINE
  5
817A
330
8423
100
AcDbEntity
  8
0
  6
ByBlock
 62
     0
100
AcDbLine
 10
6310.972951952931
 20
2770.395935314896
 30
0.0
 11
6310.972951952931
 21
2488.855336810313
 31
0.0
  0
LINE
  5
817B
330
8423
100
AcDbEntity
  8
0
  6
ByBlock
 62
     0
100
AcDbLine
 10
5188.972951952931
 20
2528.855336810313
 30
0.0
 11
6230.972951952931
 21
2528.855336810313
 31
0.0
  0
INSERT
  5
817C
330
8423
100
AcDbEntity
  8
0
  6
ByBlock
 62
     0
100
AcDbBlockReference
  2
_OPEN
 10
5108.972951952932
 20
2528.855336810313
 30
0.0
 41
80.0
 42
80.0
 43
80.0
 50
180.0
  0
INSERT
  5
817D
330
8423
100
AcDbEntity
  8
0
  6
ByBlock
 62
     0
100
AcDbBlockReference
  2
_OPEN
 10
6310.972951952931
 20
2528.855336810313
 30
0.0
 41
80.0
 42
80.0
 43
80.0
  0
TEXT
  5
817E
330
8423
100
AcDbEntity
  8
3
 62
     0
100
AcDbText
 10
5509.972951952931
 20
2568.855336810313
 30
0.0
 40
120.0
  1
1202
100
AcDbText
  0
POINT
  5
817F
330
8423
100
AcDbEntity
  8
DEFPOINTS
  6
ByBlock
 62
     0
100
AcDbPoint
 10
5108.972951952932
 20
2790.395935314896
 30
0.0
  0
POINT
  5
8180
330
8423
100
AcDbEntity
  8
DEFPOINTS
  6
ByBlock
 62
     0
100
AcDbPoint
 10
6310.972951952931
 20
2790.395935314896
 30
0.0
  0
POINT
  5
8181
330
8423
100
AcDbEntity
  8
DEFPOINTS
  6
ByBlock
 62
     0
100
AcDbPoint
 10
6310.972951952931
 20
2528.855336810313
 30
0.0
  0
ENDBLK
  5
8182
330
8423
100
AcDbEntity
  8
0
100
AcDbBlockEnd
  0
BLOCK
  5
8426
330
8425
100
AcDbEntity
  8
0
100
AcDbBlockBegin
  2
*D24
 70
     1
 10
0.0
 20
0.0
 30
0.0
  3
*D24
  1

  0
LINE
  5
8186
330
8425
100
AcDbEntity
  8
0
  6
ByBlock
 62
     0
100
AcDbLine
 10
6310.972951952931
 20
2770.395935314896
 30
0.0
 11
6310.972951952931
 21
2488.855336810313
 31
0.0
  0
LINE
  5
8187
330
8425
100
AcDbEntity
  8
0
  6
ByBlock
 62
     0
100
AcDbLine
 10
7228.972951952934
 20
2770.395935314896
 30
0.0
 11
7228.972951952934
 21
2488.855336810313
 31
0.0
  0
LINE
  5
8188
330
8425
100
AcDbEntity
  8
0
  6
ByBlock
 62
     0
100
AcDbLine
 10
6390.972951952932
 20
2528.855336810313
 30
0.0
 11
7148.972951952932
 21
2528.855336810313
 31
0.0
  0
INSERT
  5
8189
330
8425
100
AcDbEntity
  8
0
  6
ByBlock
 62
     0
100
AcDbBlockReference
  2
_OPEN
 10
6310.972951952931
 20
2528.855336810313
 30
0.0
 41
80.0
 42
80.0
 43
80.0
 50
180.0
  0
INSERT
  5
818A
330
8425
100
AcDbEntity
  8
0
  6
ByBlock
 62
     0
100
AcDbBlockReference
  2
_OPEN
 10
7228.972951952934
 20
2528.855336810313
 30
0.0
 41
80.0
 42
80.0
 43
80.0
  0
TEXT
  5
818B
330
8425
100
AcDbEntity
  8
3
 62
     0
100
AcDbText
 10
6627.115809095788
 20
2568.855336810313
 30
0.0
 40
120.0
  1
918
100
AcDbText
  0
POINT
  5
818C
330
8425
100
AcDbEntity
  8
DEFPOINTS
  6
ByBlock
 62
     0
100
AcDbPoint
 10
6310.972951952931
 20
2790.395935314896
 30
0.0
  0
POINT
  5
818D
330
8425
100
AcDbEntity
  8
DEFPOINTS
  6
ByBlock
 62
     0
100
AcDbPoint
 10
7228.972951952934
 20
2790.395935314896
 30
0.0
  0
POINT
  5
818E
330
8425
100
AcDbEntity
  8
DEFPOINTS
  6
ByBlock
 62
     0
100
AcDbPoint
 10
7228.972951952934
 20
2528.855336810313
 30
0.0
  0
ENDBLK
  5
818F
330
8425
100
AcDbEntity
  8
0
100
AcDbBlockEnd
  0
BLOCK
  5
8428
330
8427
100
AcDbEntity
  8
0
100
AcDbBlockBegin
  2
_NONE
 70
     0
 10
0.0
 20
0.0
 30
0.0
  3
_NONE
  1

  0
CIRCLE
  5
8193
330
8427
100
AcDbEntity
  8
0
  6
ByBlock
 62
     0
100
AcDbCircle
 10
0.0
 20
0.0
 30
0.0
 40
0.25
  0
ENDBLK
  5
8194
330
8427
100
AcDbEntity
  8
0
100
AcDbBlockEnd
  0
BLOCK
  5
842A
330
8429
100
AcDbEntity
  8
0
100
AcDbBlockBegin
  2
*D26
 70
     1
 10
0.0
 20
0.0
 30
0.0
  3
*D26
  1

  0
LINE
  5
81E2
330
8429
100
AcDbEntity
  8
0
  6
ByBlock
 62
     0
100
AcDbLine
 10
1401.702381964372
 20
2760.395935314897
 30
0.0
 11
1401.702381964372
 21
2875.395935314896
 31
0.0
  0
TEXT
  5
81E3
330
8429
100
AcDbEntity
  8
3
 62
     0
100
AcDbText
 10
1250.273810535801
 20
2501.324506743468
 30
0.0
 40
120.0
  1
   (115)
 50
90.0
100
AcDbText
  0
POINT
  5
81E4
330
8429
100
AcDbEntity
  8
DEFPOINTS
  6
ByBlock
 62
     0
100
AcDbPoint
 10
1979.690038106198
 20
2760.395935314897
 30
0.0
  0
POINT
  5
81E5
330
8429
100
AcDbEntity
  8
DEFPOINTS
  6
ByBlock
 62
     0
100
AcDbPoint
 10
1979.690038106198
 20
2875.395935314896
 30
0.0
  0
POINT
  5
81E6
330
8429
100
AcDbEntity
  8
DEFPOINTS
  6
ByBlock
 62
     0
100
AcDbPoint
 10
1401.702381964372
 20
2875.395935314896
 30
0.0
  0
ENDBLK
  5
81E7
330
8429
100
AcDbEntity
  8
0
100
AcDbBlockEnd
  0
BLOCK
  5
842C
330
842B
100
AcDbEntity
  8
0
100
AcDbBlockBegin
  2
*D27
 70
     1
 10
0.0
 20
0.0
 30
0.0
  3
*D27
  1

  0
LINE
  5
81EA
330
842B
100
AcDbEntity
  8
0
  6
ByBlock
 62
     0
100
AcDbLine
 10
1959.690038106199
 20
2695.395935314897
 30
0.0
 11
1021.150612361823
 21
2695.395935314897
 31
0.0
  0
LINE
  5
81EB
330
842B
100
AcDbEntity
  8
0
  6
ByBlock
 62
     0
100
AcDbLine
 10
1864.690038106198
 20
5134.395935314897
 30
0.0
 11
1021.150612361823
 21
5134.395935314897
 31
0.0
  0
LINE
  5
81EC
330
842B
100
AcDbEntity
  8
0
  6
ByBlock
 62
     0
100
AcDbLine
 10
1061.150612361823
 20
2775.395935314897
 30
0.0
 11
1061.150612361823
 21
5054.395935314897
 31
0.0
  0
INSERT
  5
81ED
330
842B
100
AcDbEntity
  8
0
  6
ByBlock
 62
     0
100
AcDbBlockReference
  2
_OPEN
 10
1061.150612361823
 20
2695.395935314897
 30
0.0
 41
80.0
 42
80.0
 43
80.0
 50
270.0
  0
INSERT
  5
81EE
330
842B
100
AcDbEntity
  8
0
  6
ByBlock
 62
     0
100
AcDbBlockReference
  2
_OPEN
 10
1061.150612361823
 20
5134.395935314897
 30
0.0
 41
80.0
 42
80.0
 43
80.0
 50
90.0
  0
TEXT
  5
81EF
330
842B
100
AcDbEntity
  8
3
 62
     0
100
AcDbText
 10
969.7220409332524
 20
3626.324506743468
 30
0.0
 40
120.0
  1
(2439)
 50
90.0
100
AcDbText
  0
POINT
  5
81F0
330
842B
100
AcDbEntity
  8
DEFPOINTS
  6
ByBlock
 62
     0
100
AcDbPoint
 10
1979.690038106198
 20
2695.395935314897
 30
0.0
  0
POINT
  5
81F1
330
842B
100
AcDbEntity
  8
DEFPOINTS
  6
ByBlock
 62
     0
100
AcDbPoint
 10
1884.690038106199
 20
5134.395935314897
 30
0.0
  0
POINT
  5
81F2
330
842B
100
AcDbEntity
  8
DEFPOINTS
  6
ByBlock
 62
     0
100
AcDbPoint
 10
1061.150612361823
 20
5134.395935314897
 30
0.0
  0
ENDBLK
  5
81F3
330
842B
100
AcDbEntity
  8
0
100
AcDbBlockEnd
  0
BLOCK
  5
848D
330
848C
100
AcDbEntity
  8
0
100
AcDbBlockBegin
  2
*D28
 70
     1
 10
0.0
 20
0.0
 30
0.0
  3
*D28
  1

  0
LINE
  5
84A4
330
848C
100
AcDbEntity
  8
3
 62
     0
370
    -2
100
AcDbLine
 10
7180.972951952933
 20
4425.395935314896
 30
0.0
 11
7612.242576865435
 21
4425.395935314896
 31
0.0
  0
LINE
  5
84A5
330
848C
100
AcDbEntity
  8
3
 62
     0
370
    -2
100
AcDbLine
 10
7180.972951952933
 20
3175.395935314896
 30
0.0
 11
7612.242576865435
 21
3175.395935314896
 31
0.0
  0
LINE
  5
84A6
330
848C
100
AcDbEntity
  8
3
 62
     0
370
    -2
100
AcDbLine
 10
7572.242576865434
 20
4345.395935314896
 30
0.0
 11
7572.242576865434
 21
3255.395935314896
 31
0.0
  0
INSERT
  5
84A7
330
848C
100
AcDbEntity
  8
3
 62
     0
370
    -2
100
AcDbBlockReference
  2
_OPEN
 10
7572.242576865434
 20
4425.395935314896
 30
0.0
 41
80.0
 42
80.0
 43
80.0
 50
90.0
  0
INSERT
  5
84A8
330
848C
100
AcDbEntity
  8
3
 62
     0
370
    -2
100
AcDbBlockReference
  2
_OPEN
 10
7572.242576865434
 20
3175.395935314896
 30
0.0
 41
80.0
 42
80.0
 43
80.0
 50
270.0
  0
MTEXT
  5
84A9
330
848C
100
AcDbEntity
  8
3
 62
     0
100
AcDbMText
 10
7472.242576865435
 20
3800.395935314898
 30
0.0
 40
120.0
 41
0.0
 71
     5
 72
     1
  1
\A1;\U+03C61250
 11
0.0000000000000001
 21
1.0
 31
0.0
 73
     1
 44
1.0
1001
ACAD
1000
MTEXTBEGIN
1070
    73
1070
     1
1070
    44
1040
1.0
1070
    74
1070
     0
1000
MTEXTEND
  0
POINT
  5
84AA
330
848C
100
AcDbEntity
  8
DEFPOINTS
 62
     0
100
AcDbPoint
 10
7160.972951952932
 20
4425.395935314896
 30
0.0
  0
POINT
  5
84AB
330
848C
100
AcDbEntity
  8
DEFPOINTS
 62
     0
100
AcDbPoint
 10
7160.972951952932
 20
3175.395935314896
 30
0.0
  0
POINT
  5
84AC
330
848C
100
AcDbEntity
  8
DEFPOINTS
 62
     0
100
AcDbPoint
 10
7572.242576865434
 20
3175.395935314896
 30
0.0
  0
ENDBLK
  5
848E
330
848C
100
AcDbEntity
  8
0
100
AcDbBlockEnd
  0
BLOCK
  5
84AF
330
84AE
100
AcDbEntity
  8
0
100
AcDbBlockBegin
  2
*D29
 70
     1
 10
0.0
 20
0.0
 30
0.0
  3
*D29
  1

  0
LINE
  5
84B1
330
84AE
100
AcDbEntity
  8
3
 62
     0
370
    -2
100
AcDbLine
 10
5460.972951952932
 20
5154.395935314897
 30
0.0
 11
5460.972951952932
 21
5475.795721781462
 31
0.0
  0
LINE
  5
84B2
330
84AE
100
AcDbEntity
  8
3
 62
     0
370
    -2
100
AcDbLine
 10
7160.972951952932
 20
5154.395935314897
 30
0.0
 11
7160.972951952932
 21
5475.795721781462
 31
0.0
  0
LINE
  5
84B3
330
84AE
100
AcDbEntity
  8
3
 62
     0
370
    -2
100
AcDbLine
 10
5540.972951952932
 20
5435.795721781462
 30
0.0
 11
7080.972951952933
 21
5435.795721781462
 31
0.0
  0
INSERT
  5
84B4
330
84AE
100
AcDbEntity
  8
3
 62
     0
370
    -2
100
AcDbBlockReference
  2
_OPEN
 10
5460.972951952932
 20
5435.795721781462
 30
0.0
 41
80.0
 42
80.0
 43
80.0
 50
180.0
  0
INSERT
  5
84B5
330
84AE
100
AcDbEntity
  8
3
 62
     0
370
    -2
100
AcDbBlockReference
  2
_OPEN
 10
7160.972951952932
 20
5435.795721781462
 30
0.0
 41
80.0
 42
80.0
 43
80.0
  0
MTEXT
  5
84B6
330
84AE
100
AcDbEntity
  8
3
 62
     0
100
AcDbMText
 10
6310.972951952932
 20
5535.795721781462
 30
0.0
 40
120.0
 41
0.0
 71
     5
 72
     1
  1
\A1;1700
 73
     1
 44
1.0
1001
ACAD
1000
MTEXTBEGIN
1070
    73
1070
     1
1070
    44
1040
1.0
1070
    74
1070
     0
1000
MTEXTEND
  0
POINT
  5
84B7
330
84AE
100
AcDbEntity
  8
DEFPOINTS
 62
     0
100
AcDbPoint
 10
5460.972951952932
 20
5134.395935314897
 30
0.0
  0
POINT
  5
84B8
330
84AE
100
AcDbEntity
  8
DEFPOINTS
 62
     0
100
AcDbPoint
 10
7160.972951952932
 20
5134.395935314897
 30
0.0
  0
POINT
  5
84B9
330
84AE
100
AcDbEntity
  8
DEFPOINTS
 62
     0
100
AcDbPoint
 10
7160.972951952932
 20
5435.795721781462
 30
0.0
  0
ENDBLK
  5
84B0
330
84AE
100
AcDbEntity
  8
0
100
AcDbBlockEnd
  0
BLOCK
  5
84BC
330
84BB
100
AcDbEntity
  8
0
100
AcDbBlockBegin
  2
*D30
 70
     1
 10
0.0
 20
0.0
 30
0.0
  3
*D30
  1

  0
LINE
  5
8513
330
84BB
100
AcDbEntity
  8
3
 62
     0
370
    -2
100
AcDbLine
 10
5030.972951952932
 20
4200.395935314896
 30
0.0
 11
5030.972951952932
 21
5728.759026640364
 31
0.0
  0
LINE
  5
8514
330
84BB
100
AcDbEntity
  8
3
 62
     0
370
    -2
100
AcDbLine
 10
6310.972951952932
 20
5615.795721781462
 30
0.0
 11
6310.972951952932
 21
5728.759026640364
 31
0.0
  0
LINE
  5
8515
330
84BB
100
AcDbEntity
  8
3
 62
     0
370
    -2
100
AcDbLine
 10
5110.972951952931
 20
5688.759026640364
 30
0.0
 11
6230.972951952931
 21
5688.759026640364
 31
0.0
  0
INSERT
  5
8516
330
84BB
100
AcDbEntity
  8
3
 62
     0
370
    -2
100
AcDbBlockReference
  2
_OPEN
 10
5030.972951952932
 20
5688.759026640364
 30
0.0
 41
80.0
 42
80.0
 43
80.0
 50
180.0
  0
INSERT
  5
8517
330
84BB
100
AcDbEntity
  8
3
 62
     0
370
    -2
100
AcDbBlockReference
  2
_OPEN
 10
6310.972951952932
 20
5688.759026640364
 30
0.0
 41
80.0
 42
80.0
 43
80.0
  0
MTEXT
  5
8518
330
84BB
100
AcDbEntity
  8
3
 62
     0
100
AcDbMText
 10
5670.972951952932
 20
5820.187598068936
 30
0.0
 40
120.0
 41
0.0
 71
     5
 72
     1
  1
\A1;(1280)
 73
     1
 44
1.0
1001
ACAD
1000
MTEXTBEGIN
1070
    73
1070
     1
1070
    44
1040
1.0
1070
    74
1070
     0
1000
MTEXTEND
  0
POINT
  5
8519
330
84BB
100
AcDbEntity
  8
DEFPOINTS
 62
     0
100
AcDbPoint
 10
5030.972951952932
 20
4180.395935314897
 30
0.0
  0
POINT
  5
851A
330
84BB
100
AcDbEntity
  8
DEFPOINTS
 62
     0
100
AcDbPoint
 10
6310.972951952932
 20
5595.795721781462
 30
0.0
  0
POINT
  5
851B
330
84BB
100
AcDbEntity
  8
DEFPOINTS
 62
     0
100
AcDbPoint
 10
6310.972951952932
 20
5688.759026640364
 30
0.0
  0
ENDBLK
  5
84BD
330
84BB
100
AcDbEntity
  8
0
100
AcDbBlockEnd
  0
BLOCK
  5
84C9
330
84C8
100
AcDbEntity
  8
0
100
AcDbBlockBegin
  2
*D31
 70
     1
 10
0.0
 20
0.0
 30
0.0
  3
*D31
  1

  0
LINE
  5
850A
330
84C8
100
AcDbEntity
  8
3
 62
     0
370
    -2
100
AcDbLine
 10
6310.972951952932
 20
5615.795721781462
 30
0.0
 11
6310.972951952932
 21
5728.759026640364
 31
0.0
  0
LINE
  5
850B
330
84C8
100
AcDbEntity
  8
3
 62
     0
370
    -2
100
AcDbLine
 10
7330.972951952934
 20
3744.395935314897
 30
0.0
 11
7330.972951952934
 21
5728.759026640364
 31
0.0
  0
LINE
  5
850C
330
84C8
100
AcDbEntity
  8
3
 62
     0
370
    -2
100
AcDbLine
 10
6390.972951952932
 20
5688.759026640364
 30
0.0
 11
7250.972951952935
 21
5688.759026640364
 31
0.0
  0
INSERT
  5
850D
330
84C8
100
AcDbEntity
  8
3
 62
     0
370
    -2
100
AcDbBlockReference
  2
_OPEN
 10
6310.972951952932
 20
5688.759026640364
 30
0.0
 41
80.0
 42
80.0
 43
80.0
 50
180.0
  0
INSERT
  5
850E
330
84C8
100
AcDbEntity
  8
3
 62
     0
370
    -2
100
AcDbBlockReference
  2
_OPEN
 10
7330.972951952934
 20
5688.759026640364
 30
0.0
 41
80.0
 42
80.0
 43
80.0
  0
MTEXT
  5
850F
330
84C8
100
AcDbEntity
  8
3
 62
     0
100
AcDbMText
 10
6820.972951952933
 20
5820.187598068936
 30
0.0
 40
120.0
 41
0.0
 71
     5
 72
     1
  1
\A1;(1020)
 73
     1
 44
1.0
1001
ACAD
1000
MTEXTBEGIN
1070
    73
1070
     1
1070
    44
1040
1.0
1070
    74
1070
     0
1000
MTEXTEND
  0
POINT
  5
8510
330
84C8
100
AcDbEntity
  8
DEFPOINTS
 62
     0
100
AcDbPoint
 10
6310.972951952932
 20
5595.795721781462
 30
0.0
  0
POINT
  5
8511
330
84C8
100
AcDbEntity
  8
DEFPOINTS
 62
     0
100
AcDbPoint
 10
7330.972951952934
 20
3724.395935314896
 30
0.0
  0
POINT
  5
8512
330
84C8
100
AcDbEntity
  8
DEFPOINTS
 62
     0
100
AcDbPoint
 10
7330.972951952934
 20
5688.759026640364
 30
0.0
  0
ENDBLK
  5
84CA
330
84C8
100
AcDbEntity
  8
0
100
AcDbBlockEnd
  0
BLOCK
  5
851E
330
851D
100
AcDbEntity
  8
0
100
AcDbBlockBegin
  2
*D32
 70
     1
 10
0.0
 20
0.0
 30
0.0
  3
*D32
  1

  0
LINE
  5
856A
330
851D
100
AcDbEntity
  8
3
 62
     0
370
    -2
100
AcDbLine
 10
1733.862917384478
 20
7726.822268021344
 30
0.0
 11
411.5446579371492
 21
7726.822268021344
 31
0.0
  0
LINE
  5
856B
330
851D
100
AcDbEntity
  8
3
 62
     0
370
    -2
100
AcDbLine
 10
2329.690038106198
 20
6446.822268021342
 30
0.0
 11
411.5446579371489
 21
6446.822268021344
 31
0.0
  0
LINE
  5
856C
330
851D
100
AcDbEntity
  8
3
 62
     0
370
    -2
100
AcDbLine
 10
451.5446579371493
 20
7646.822268021344
 30
0.0
 11
451.5446579371491
 21
6526.822268021344
 31
0.0
  0
INSERT
  5
856D
330
851D
100
AcDbEntity
  8
3
 62
     0
370
    -2
100
AcDbBlockReference
  2
_OPEN
 10
451.5446579371493
 20
7726.822268021344
 30
0.0
 41
80.0
 42
80.0
 43
80.0
 50
90.0
  0
INSERT
  5
856E
330
851D
100
AcDbEntity
  8
3
 62
     0
370
    -2
100
AcDbBlockReference
  2
_OPEN
 10
451.5446579371491
 20
6446.822268021344
 30
0.0
 41
80.0
 42
80.0
 43
80.0
 50
270.0
  0
MTEXT
  5
856F
330
851D
100
AcDbEntity
  8
3
 62
     0
100
AcDbMText
 10
351.5446579371481
 20
7086.822268021343
 30
0.0
 40
120.0
 41
0.0
 71
     5
 72
     1
  1
\A1;1280
 11
0.0000000000000001
 21
1.0
 31
0.0
 73
     1
 44
1.0
1001
ACAD
1000
MTEXTBEGIN
1070
    73
1070
     1
1070
    44
1040
1.0
1070
    74
1070
     0
1000
MTEXTEND
  0
POINT
  5
8570
330
851D
100
AcDbEntity
  8
DEFPOINTS
 62
     0
100
AcDbPoint
 10
1753.862917384478
 20
7726.822268021344
 30
0.0
  0
POINT
  5
8571
330
851D
100
AcDbEntity
  8
DEFPOINTS
 62
     0
100
AcDbPoint
 10
2349.690038106198
 20
6446.822268021342
 30
0.0
  0
POINT
  5
8572
330
851D
100
AcDbEntity
  8
DEFPOINTS
 62
     0
100
AcDbPoint
 10
451.5446579371491
 20
6446.822268021344
 30
0.0
  0
ENDBLK
  5
851F
330
851D
100
AcDbEntity
  8
0
100
AcDbBlockEnd
  0
BLOCK
  5
852B
330
852A
100
AcDbEntity
  8
0
100
AcDbBlockBegin
  2
*D33
 70
     1
 10
0.0
 20
0.0
 30
0.0
  3
*D33
  1

  0
LINE
  5
852D
330
852A
100
AcDbEntity
  8
3
 62
     0
370
    -2
100
AcDbLine
 10
1979.690038106198
 20
8664.822268021342
 30
0.0
 11
1979.690038106198
 21
8889.458406526527
 31
0.0
  0
LINE
  5
852E
330
852A
100
AcDbEntity
  8
3
 62
     0
370
    -2
100
AcDbLine
 10
3479.690038106197
 20
8664.822268021342
 30
0.0
 11
3479.690038106197
 21
8889.458406526527
 31
0.0
  0
LINE
  5
852F
330
852A
100
AcDbEntity
  8
3
 62
     0
370
    -2
100
AcDbLine
 10
2059.690038106198
 20
8849.458406526526
 30
0.0
 11
3399.690038106198
 21
8849.458406526526
 31
0.0
  0
INSERT
  5
8530
330
852A
100
AcDbEntity
  8
3
 62
     0
370
    -2
100
AcDbBlockReference
  2
_OPEN
 10
1979.690038106198
 20
8849.458406526526
 30
0.0
 41
80.0
 42
80.0
 43
80.0
 50
180.0
  0
INSERT
  5
8531
330
852A
100
AcDbEntity
  8
3
 62
     0
370
    -2
100
AcDbBlockReference
  2
_OPEN
 10
3479.690038106197
 20
8849.458406526526
 30
0.0
 41
80.0
 42
80.0
 43
80.0
  0
MTEXT
  5
8532
330
852A
100
AcDbEntity
  8
3
 62
     0
100
AcDbMText
 10
2729.690038106198
 20
8949.458406526526
 30
0.0
 40
120.0
 41
0.0
 71
     5
 72
     1
  1
\A1;1500
 73
     1
 44
1.0
1001
ACAD
1000
MTEXTBEGIN
1070
    73
1070
     1
1070
    44
1040
1.0
1070
    74
1070
     0
1000
MTEXTEND
  0
POINT
  5
8533
330
852A
100
AcDbEntity
  8
DEFPOINTS
 62
     0
100
AcDbPoint
 10
1979.690038106198
 20
8644.822268021341
 30
0.0
  0
POINT
  5
8534
330
852A
100
AcDbEntity
  8
DEFPOINTS
 62
     0
100
AcDbPoint
 10
3479.690038106197
 20
8644.822268021341
 30
0.0
  0
POINT
  5
8535
330
852A
100
AcDbEntity
  8
DEFPOINTS
 62
     0
100
AcDbPoint
 10
3479.690038106197
 20
8849.458406526526
 30
0.0
  0
ENDBLK
  5
852C
330
852A
100
AcDbEntity
  8
0
100
AcDbBlockEnd
  0
BLOCK
  5
8538
330
8537
100
AcDbEntity
  8
0
100
AcDbBlockBegin
  2
*D34
 70
     1
 10
0.0
 20
0.0
 30
0.0
  3
*D34
  1

  0
LINE
  5
853A
330
8537
100
AcDbEntity
  8
3
 62
     0
370
    -2
100
AcDbLine
 10
3479.690038106197
 20
8664.822268021342
 30
0.0
 11
3479.690038106197
 21
8889.458406526527
 31
0.0
  0
LINE
  5
853B
330
8537
100
AcDbEntity
  8
3
 62
     0
370
    -2
100
AcDbLine
 10
4429.690038106198
 20
7544.822268021341
 30
0.0
 11
4429.690038106198
 21
8889.458406526527
 31
0.0
  0
LINE
  5
853C
330
8537
100
AcDbEntity
  8
3
 62
     0
370
    -2
100
AcDbLine
 10
3559.690038106197
 20
8849.458406526526
 30
0.0
 11
4349.690038106198
 21
8849.458406526526
 31
0.0
  0
INSERT
  5
853D
330
8537
100
AcDbEntity
  8
3
 62
     0
370
    -2
100
AcDbBlockReference
  2
_OPEN
 10
3479.690038106197
 20
8849.458406526526
 30
0.0
 41
80.0
 42
80.0
 43
80.0
 50
180.0
  0
INSERT
  5
853E
330
8537
100
AcDbEntity
  8
3
 62
     0
370
    -2
100
AcDbBlockReference
  2
_OPEN
 10
4429.690038106198
 20
8849.458406526526
 30
0.0
 41
80.0
 42
80.0
 43
80.0
  0
MTEXT
  5
853F
330
8537
100
AcDbEntity
  8
3
 62
     0
100
AcDbMText
 10
3954.690038106198
 20
8949.458406526526
 30
0.0
 40
120.0
 41
0.0
 71
     5
 72
     1
  1
\A1;950
 73
     1
 44
1.0
1001
ACAD
1000
MTEXTBEGIN
1070
    73
1070
     1
1070
    44
1040
1.0
1070
    74
1070
     0
1000
MTEXTEND
  0
POINT
  5
8540
330
8537
100
AcDbEntity
  8
DEFPOINTS
 62
     0
100
AcDbPoint
 10
3479.690038106197
 20
8644.822268021341
 30
0.0
  0
POINT
  5
8541
330
8537
100
AcDbEntity
  8
DEFPOINTS
 62
     0
100
AcDbPoint
 10
4429.690038106198
 20
7524.822268021342
 30
0.0
  0
POINT
  5
8542
330
8537
100
AcDbEntity
  8
DEFPOINTS
 62
     0
100
AcDbPoint
 10
4429.690038106198
 20
8849.458406526526
 30
0.0
  0
ENDBLK
  5
8539
330
8537
100
AcDbEntity
  8
0
100
AcDbBlockEnd
  0
BLOCK
  5
8545
330
8544
100
AcDbEntity
  8
0
100
AcDbBlockBegin
  2
*D35
 70
     1
 10
0.0
 20
0.0
 30
0.0
  3
*D35
  1

  0
LINE
  5
8547
330
8544
100
AcDbEntity
  8
3
 62
     0
370
    -2
100
AcDbLine
 10
4449.690038106197
 20
7524.822268021342
 30
0.0
 11
4736.016439213776
 21
7524.822268021342
 31
0.0
  0
LINE
  5
8548
330
8544
100
AcDbEntity
  8
3
 62
     0
370
    -2
100
AcDbLine
 10
4449.690038106197
 20
6524.822268021342
 30
0.0
 11
4736.016439213776
 21
6524.822268021342
 31
0.0
  0
LINE
  5
8549
330
8544
100
AcDbEntity
  8
3
 62
     0
370
    -2
100
AcDbLine
 10
4696.016439213777
 20
7444.822268021342
 30
0.0
 11
4696.016439213777
 21
6604.822268021341
 31
0.0
  0
INSERT
  5
854A
330
8544
100
AcDbEntity
  8
3
 62
     0
370
    -2
100
AcDbBlockReference
  2
_OPEN
 10
4696.016439213777
 20
7524.822268021342
 30
0.0
 41
80.0
 42
80.0
 43
80.0
 50
90.0
  0
INSERT
  5
854B
330
8544
100
AcDbEntity
  8
3
 62
     0
370
    -2
100
AcDbBlockReference
  2
_OPEN
 10
4696.016439213777
 20
6524.822268021342
 30
0.0
 41
80.0
 42
80.0
 43
80.0
 50
270.0
  0
MTEXT
  5
854C
330
8544
100
AcDbEntity
  8
3
 62
     0
100
AcDbMText
 10
4596.016439213775
 20
7024.822268021342
 30
0.0
 40
120.0
 41
0.0
 71
     5
 72
     1
  1
\A1;1000
 11
0.0000000000000001
 21
1.0
 31
0.0
 73
     1
 44
1.0
1001
ACAD
1000
MTEXTBEGIN
1070
    73
1070
     1
1070
    44
1040
1.0
1070
    74
1070
     0
1000
MTEXTEND
  0
POINT
  5
854D
330
8544
100
AcDbEntity
  8
DEFPOINTS
 62
     0
100
AcDbPoint
 10
4429.690038106198
 20
7524.822268021342
 30
0.0
  0
POINT
  5
854E
330
8544
100
AcDbEntity
  8
DEFPOINTS
 62
     0
100
AcDbPoint
 10
4429.690038106198
 20
6524.822268021342
 30
0.0
  0
POINT
  5
854F
330
8544
100
AcDbEntity
  8
DEFPOINTS
 62
     0
100
AcDbPoint
 10
4696.016439213777
 20
6524.822268021342
 30
0.0
  0
ENDBLK
  5
8546
330
8544
100
AcDbEntity
  8
0
100
AcDbBlockEnd
  0
BLOCK
  5
8552
330
8551
100
AcDbEntity
  8
0
100
AcDbBlockBegin
  2
*D36
 70
     1
 10
0.0
 20
0.0
 30
0.0
  3
*D36
  1

  0
LINE
  5
8554
330
8551
100
AcDbEntity
  8
3
 62
     0
370
    -2
100
AcDbLine
 10
4429.690038106198
 20
6504.822268021341
 30
0.0
 11
4429.690038106198
 21
6120.06838983169
 31
0.0
  0
LINE
  5
8555
330
8551
100
AcDbEntity
  8
3
 62
     0
370
    -2
100
AcDbLine
 10
1979.690038106198
 20
6504.822268021341
 30
0.0
 11
1979.690038106198
 21
6120.06838983169
 31
0.0
  0
LINE
  5
8556
330
8551
100
AcDbEntity
  8
3
 62
     0
370
    -2
100
AcDbLine
 10
4349.690038106198
 20
6160.068389831689
 30
0.0
 11
2059.690038106198
 21
6160.068389831689
 31
0.0
  0
INSERT
  5
8557
330
8551
100
AcDbEntity
  8
3
 62
     0
370
    -2
100
AcDbBlockReference
  2
_OPEN
 10
4429.690038106198
 20
6160.068389831689
 30
0.0
 41
80.0
 42
80.0
 43
80.0
  0
INSERT
  5
8558
330
8551
100
AcDbEntity
  8
3
 62
     0
370
    -2
100
AcDbBlockReference
  2
_OPEN
 10
1979.690038106198
 20
6160.068389831689
 30
0.0
 41
80.0
 42
80.0
 43
80.0
 50
180.0
  0
MTEXT
  5
8559
330
8551
100
AcDbEntity
  8
3
 62
     0
100
AcDbMText
 10
3204.690038106198
 20
6260.06838983169
 30
0.0
 40
120.0
 41
0.0
 71
     5
 72
     1
  1
\A1;2450
 73
     1
 44
1.0
1001
ACAD
1000
MTEXTBEGIN
1070
    73
1070
     1
1070
    44
1040
1.0
1070
    74
1070
     0
1000
MTEXTEND
  0
POINT
  5
855A
330
8551
100
AcDbEntity
  8
DEFPOINTS
 62
     0
100
AcDbPoint
 10
4429.690038106198
 20
6524.822268021342
 30
0.0
  0
POINT
  5
855B
330
8551
100
AcDbEntity
  8
DEFPOINTS
 62
     0
100
AcDbPoint
 10
1979.690038106198
 20
6524.822268021342
 30
0.0
  0
POINT
  5
855C
330
8551
100
AcDbEntity
  8
DEFPOINTS
 62
     0
100
AcDbPoint
 10
1979.690038106198
 20
6160.068389831689
 30
0.0
  0
ENDBLK
  5
8553
330
8551
100
AcDbEntity
  8
0
100
AcDbBlockEnd
  0
BLOCK
  5
855F
330
855E
100
AcDbEntity
  8
0
100
AcDbBlockBegin
  2
*D37
 70
     1
 10
0.0
 20
0.0
 30
0.0
  3
*D37
  1

  0
LINE
  5
8561
330
855E
100
AcDbEntity
  8
3
 62
     0
370
    -2
100
AcDbLine
 10
1959.690038106198
 20
6524.822268021342
 30
0.0
 11
1490.673896870365
 21
6524.822268021342
 31
0.0
  0
LINE
  5
8562
330
855E
100
AcDbEntity
  8
3
 62
     0
370
    -2
100
AcDbLine
 10
1959.690038106198
 20
8644.822268021341
 30
0.0
 11
1490.673896870365
 21
8644.822268021341
 31
0.0
  0
LINE
  5
8563
330
855E
100
AcDbEntity
  8
3
 62
     0
370
    -2
100
AcDbLine
 10
1530.673896870364
 20
6604.822268021341
 30
0.0
 11
1530.673896870365
 21
8564.822268021343
 31
0.0
  0
INSERT
  5
8564
330
855E
100
AcDbEntity
  8
3
 62
     0
370
    -2
100
AcDbBlockReference
  2
_OPEN
 10
1530.673896870364
 20
6524.822268021342
 30
0.0
 41
80.0
 42
80.0
 43
80.0
 50
270.0
  0
INSERT
  5
8565
330
855E
100
AcDbEntity
  8
3
 62
     0
370
    -2
100
AcDbBlockReference
  2
_OPEN
 10
1530.673896870365
 20
8644.822268021341
 30
0.0
 41
80.0
 42
80.0
 43
80.0
 50
90.0
  0
MTEXT
  5
8566
330
855E
100
AcDbEntity
  8
3
 62
     0
100
AcDbMText
 10
1430.673896870364
 20
7584.822268021342
 30
0.0
 40
120.0
 41
0.0
 71
     5
 72
     1
  1
\A1;2120
 11
0.0000000000000001
 21
1.0
 31
0.0
 73
     1
 44
1.0
1001
ACAD
1000
MTEXTBEGIN
1070
    73
1070
     1
1070
    44
1040
1.0
1070
    74
1070
     0
1000
MTEXTEND
  0
POINT
  5
8567
330
855E
100
AcDbEntity
  8
DEFPOINTS
 62
     0
100
AcDbPoint
 10
1979.690038106198
 20
6524.822268021342
 30
0.0
  0
POINT
  5
8568
330
855E
100
AcDbEntity
  8
DEFPOINTS
 62
     0
100
AcDbPoint
 10
1979.690038106198
 20
8644.822268021341
 30
0.0
  0
POINT
  5
8569
330
855E
100
AcDbEntity
  8
DEFPOINTS
 62
     0
100
AcDbPoint
 10
1530.673896870365
 20
8644.822268021341
 30
0.0
  0
ENDBLK
  5
8560
330
855E
100
AcDbEntity
  8
0
100
AcDbBlockEnd
  0
BLOCK
  5
8574
330
8573
100
AcDbEntity
  8
0
100
AcDbBlockBegin
  2
*D38
 70
     1
 10
0.0
 20
0.0
 30
0.0
  3
*D38
  1

  0
LINE
  5
8576
330
8573
100
AcDbEntity
  8
3
 62
     0
370
    -2
100
AcDbLine
 10
1977.190038106198
 20
2705.395935314897
 30
0.0
 11
1053.950612361822
 21
2705.395935314897
 31
0.0
  0
LINE
  5
8577
330
8573
100
AcDbEntity
  8
3
 62
     0
370
    -2
100
AcDbLine
 10
1882.190038106198
 20
5134.395935314897
 30
0.0
 11
1053.950612361823
 21
5134.395935314897
 31
0.0
  0
LINE
  5
8578
330
8573
100
AcDbEntity
  8
3
 62
     0
370
    -2
100
AcDbLine
 10
1061.150612361823
 20
2712.595935314896
 30
0.0
 11
1061.150612361823
 21
3910.810221029182
 31
0.0
  0
LINE
  5
8579
330
8573
100
AcDbEntity
  8
3
 62
     0
370
    -2
100
AcDbLine
 10
1061.150612361823
 20
5127.195935314897
 30
0.0
 11
1061.150612361823
 21
3928.98164960061
 31
0.0
  0
SOLID
  5
857A
330
8573
100
AcDbEntity
  8
3
 62
     0
100
AcDbTrace
 10
1059.950612361823
 20
2712.595935314896
 30
0.0
 11
1062.350612361823
 21
2712.595935314896
 31
0.0
 12
1061.150612361823
 22
2705.395935314897
 32
0.0
 13
1061.150612361823
 23
2705.395935314897
 33
0.0
  0
SOLID
  5
857B
330
8573
100
AcDbEntity
  8
3
 62
     0
100
AcDbTrace
 10
1059.950612361823
 20
5127.195935314897
 30
0.0
 11
1062.350612361823
 21
5127.195935314897
 31
0.0
 12
1061.150612361823
 22
5134.395935314897
 32
0.0
 13
1061.150612361823
 23
5134.395935314897
 33
0.0
  0
MTEXT
  5
857C
330
8573
100
AcDbEntity
  8
3
 62
     0
100
AcDbMText
 10
1061.150612361822
 20
3919.895935314896
 30
0.0
 40
7.199999999999999
 41
0.0
 71
     5
 72
     1
  1
\A1;(2429)
 73
     1
 44
1.0
1001
ACAD
1000
MTEXTBEGIN
1070
    73
1070
     1
1070
    44
1040
1.0
1070
    74
1070
     0
1000
MTEXTEND
  0
POINT
  5
857D
330
8573
100
AcDbEntity
  8
DEFPOINTS
 62
     0
100
AcDbPoint
 10
1979.690038106198
 20
2705.395935314897
 30
0.0
  0
POINT
  5
857E
330
8573
100
AcDbEntity
  8
DEFPOINTS
 62
     0
100
AcDbPoint
 10
1884.690038106199
 20
5134.395935314897
 30
0.0
  0
POINT
  5
857F
330
8573
100
AcDbEntity
  8
DEFPOINTS
 62
     0
100
AcDbPoint
 10
1061.150612361823
 20
5134.395935314897
 30
0.0
  0
ENDBLK
  5
8575
330
8573
100
AcDbEntity
  8
0
100
AcDbBlockEnd
  0
BLOCK
  5
8581
330
8580
100
AcDbEntity
  8
0
100
AcDbBlockBegin
  2
*D39
 70
     1
 10
0.0
 20
0.0
 30
0.0
  3
*D39
  1

  0
LINE
  5
8583
330
8580
100
AcDbEntity
  8
3
 62
     0
370
    -2
100
AcDbLine
 10
1979.690038106198
 20
2702.895935314897
 30
0.0
 11
1979.690038106198
 21
2436.655336810313
 31
0.0
  0
LINE
  5
8584
330
8580
100
AcDbEntity
  8
3
 62
     0
370
    -2
100
AcDbLine
 10
2729.690038106197
 20
2702.895935314897
 30
0.0
 11
2729.690038106197
 21
2436.655336810313
 31
0.0
  0
LINE
  5
8585
330
8580
100
AcDbEntity
  8
3
 62
     0
370
    -2
100
AcDbLine
 10
1986.890038106198
 20
2443.855336810313
 30
0.0
 11
2341.832895249055
 21
2443.855336810313
 31
0.0
  0
LINE
  5
8586
330
8580
100
AcDbEntity
  8
3
 62
     0
370
    -2
100
AcDbLine
 10
2722.490038106198
 20
2443.855336810313
 30
0.0
 11
2367.54718096334
 21
2443.855336810313
 31
0.0
  0
SOLID
  5
8587
330
8580
100
AcDbEntity
  8
3
 62
     0
100
AcDbTrace
 10
1986.890038106198
 20
2445.055336810313
 30
0.0
 11
1986.890038106198
 21
2442.655336810313
 31
0.0
 12
1979.690038106198
 22
2443.855336810313
 32
0.0
 13
1979.690038106198
 23
2443.855336810313
 33
0.0
  0
SOLID
  5
8588
330
8580
100
AcDbEntity
  8
3
 62
     0
100
AcDbTrace
 10
2722.490038106198
 20
2445.055336810313
 30
0.0
 11
2722.490038106198
 21
2442.655336810313
 31
0.0
 12
2729.690038106197
 22
2443.855336810313
 32
0.0
 13
2729.690038106197
 23
2443.855336810313
 33
0.0
  0
MTEXT
  5
8589
330
8580
100
AcDbEntity
  8
3
 62
     0
100
AcDbMText
 10
2354.690038106198
 20
2443.855336810313
 30
0.0
 40
7.199999999999999
 41
0.0
 71
     5
 72
     1
  1
\A1;750
 73
     1
 44
1.0
1001
ACAD
1000
MTEXTBEGIN
1070
    73
1070
     1
1070
    44
1040
1.0
1070
    74
1070
     0
1000
MTEXTEND
  0
POINT
  5
858A
330
8580
100
AcDbEntity
  8
DEFPOINTS
 62
     0
100
AcDbPoint
 10
1979.690038106198
 20
2705.395935314897
 30
0.0
  0
POINT
  5
858B
330
8580
100
AcDbEntity
  8
DEFPOINTS
 62
     0
100
AcDbPoint
 10
2729.690038106197
 20
2705.395935314897
 30
0.0
  0
POINT
  5
858C
330
8580
100
AcDbEntity
  8
DEFPOINTS
 62
     0
100
AcDbPoint
 10
2729.690038106197
 20
2443.855336810313
 30
0.0
  0
ENDBLK
  5
8582
330
8580
100
AcDbEntity
  8
0
100
AcDbBlockEnd
  0
BLOCK
  5
858E
330
858D
100
AcDbEntity
  8
0
100
AcDbBlockBegin
  2
*D40
 70
     1
 10
0.0
 20
0.0
 30
0.0
  3
*D40
  1

  0
LINE
  5
8590
330
858D
100
AcDbEntity
  8
3
 62
     0
370
    -2
100
AcDbLine
 10
2729.690038106197
 20
2702.895935314897
 30
0.0
 11
2729.690038106197
 21
2436.655336810313
 31
0.0
  0
LINE
  5
8591
330
858D
100
AcDbEntity
  8
3
 62
     0
370
    -2
100
AcDbLine
 10
4429.690038106198
 20
2702.895935314897
 30
0.0
 11
4429.690038106198
 21
2436.655336810313
 31
0.0
  0
LINE
  5
8592
330
858D
100
AcDbEntity
  8
3
 62
     0
370
    -2
100
AcDbLine
 10
2736.890038106198
 20
2443.855336810313
 30
0.0
 11
3564.090038106198
 21
2443.855336810313
 31
0.0
  0
LINE
  5
8593
330
858D
100
AcDbEntity
  8
3
 62
     0
370
    -2
100
AcDbLine
 10
4422.490038106198
 20
2443.855336810313
 30
0.0
 11
3595.290038106198
 21
2443.855336810313
 31
0.0
  0
SOLID
  5
8594
330
858D
100
AcDbEntity
  8
3
 62
     0
100
AcDbTrace
 10
2736.890038106198
 20
2445.055336810313
 30
0.0
 11
2736.890038106198
 21
2442.655336810313
 31
0.0
 12
2729.690038106197
 22
2443.855336810313
 32
0.0
 13
2729.690038106197
 23
2443.855336810313
 33
0.0
  0
SOLID
  5
8595
330
858D
100
AcDbEntity
  8
3
 62
     0
100
AcDbTrace
 10
4422.490038106198
 20
2445.055336810313
 30
0.0
 11
4422.490038106198
 21
2442.655336810313
 31
0.0
 12
4429.690038106198
 22
2443.855336810313
 32
0.0
 13
4429.690038106198
 23
2443.855336810313
 33
0.0
  0
MTEXT
  5
8596
330
858D
100
AcDbEntity
  8
3
 62
     0
100
AcDbMText
 10
3579.690038106198
 20
2443.855336810313
 30
0.0
 40
7.199999999999999
 41
0.0
 71
     5
 72
     1
  1
\A1;1700
 73
     1
 44
1.0
1001
ACAD
1000
MTEXTBEGIN
1070
    73
1070
     1
1070
    44
1040
1.0
1070
    74
1070
     0
1000
MTEXTEND
  0
POINT
  5
8597
330
858D
100
AcDbEntity
  8
DEFPOINTS
 62
     0
100
AcDbPoint
 10
2729.690038106197
 20
2705.395935314897
 30
0.0
  0
POINT
  5
8598
330
858D
100
AcDbEntity
  8
DEFPOINTS
 62
     0
100
AcDbPoint
 10
4429.690038106198
 20
2705.395935314897
 30
0.0
  0
POINT
  5
8599
330
858D
100
AcDbEntity
  8
DEFPOINTS
 62
     0
100
AcDbPoint
 10
4429.690038106198
 20
2443.855336810313
 30
0.0
  0
ENDBLK
  5
858F
330
858D
100
AcDbEntity
  8
0
100
AcDbBlockEnd
  0
BLOCK
  5
859B
330
859A
100
AcDbEntity
  8
0
100
AcDbBlockBegin
  2
*D41
 70
     1
 10
0.0
 20
0.0
 30
0.0
  3
*D41
  1

  0
LINE
  5
859D
330
859A
100
AcDbEntity
  8
3
 62
     0
370
    -2
100
AcDbLine
 10
5108.972951952932
 20
2702.895935314897
 30
0.0
 11
5108.972951952932
 21
2436.655336810313
 31
0.0
  0
LINE
  5
859E
330
859A
100
AcDbEntity
  8
3
 62
     0
370
    -2
100
AcDbLine
 10
6310.972951952931
 20
2702.895935314897
 30
0.0
 11
6310.972951952931
 21
2436.655336810313
 31
0.0
  0
LINE
  5
859F
330
859A
100
AcDbEntity
  8
3
 62
     0
370
    -2
100
AcDbLine
 10
5116.172951952932
 20
2443.855336810313
 30
0.0
 11
5694.372951952932
 21
2443.855336810313
 31
0.0
  0
LINE
  5
85A0
330
859A
100
AcDbEntity
  8
3
 62
     0
370
    -2
100
AcDbLine
 10
6303.772951952931
 20
2443.855336810313
 30
0.0
 11
5725.572951952933
 21
2443.855336810313
 31
0.0
  0
SOLID
  5
85A1
330
859A
100
AcDbEntity
  8
3
 62
     0
100
AcDbTrace
 10
5116.172951952932
 20
2445.055336810313
 30
0.0
 11
5116.172951952932
 21
2442.655336810313
 31
0.0
 12
5108.972951952932
 22
2443.855336810313
 32
0.0
 13
5108.972951952932
 23
2443.855336810313
 33
0.0
  0
SOLID
  5
85A2
330
859A
100
AcDbEntity
  8
3
 62
     0
100
AcDbTrace
 10
6303.772951952931
 20
2445.055336810313
 30
0.0
 11
6303.772951952931
 21
2442.655336810313
 31
0.0
 12
6310.972951952931
 22
2443.855336810313
 32
0.0
 13
6310.972951952931
 23
2443.855336810313
 33
0.0
  0
MTEXT
  5
85A3
330
859A
100
AcDbEntity
  8
3
 62
     0
100
AcDbMText
 10
5709.972951952932
 20
2443.855336810313
 30
0.0
 40
7.199999999999999
 41
0.0
 71
     5
 72
     1
  1
\A1;1202
 73
     1
 44
1.0
1001
ACAD
1000
MTEXTBEGIN
1070
    73
1070
     1
1070
    44
1040
1.0
1070
    74
1070
     0
1000
MTEXTEND
  0
POINT
  5
85A4
330
859A
100
AcDbEntity
  8
DEFPOINTS
 62
     0
100
AcDbPoint
 10
5108.972951952932
 20
2705.395935314897
 30
0.0
  0
POINT
  5
85A5
330
859A
100
AcDbEntity
  8
DEFPOINTS
 62
     0
100
AcDbPoint
 10
6310.972951952931
 20
2705.395935314897
 30
0.0
  0
POINT
  5
85A6
330
859A
100
AcDbEntity
  8
DEFPOINTS
 62
     0
100
AcDbPoint
 10
6310.972951952931
 20
2443.855336810313
 30
0.0
  0
ENDBLK
  5
859C
330
859A
100
AcDbEntity
  8
0
100
AcDbBlockEnd
  0
BLOCK
  5
85A8
330
85A7
100
AcDbEntity
  8
0
100
AcDbBlockBegin
  2
*D42
 70
     1
 10
0.0
 20
0.0
 30
0.0
  3
*D42
  1

  0
LINE
  5
85AA
330
85A7
100
AcDbEntity
  8
3
 62
     0
370
    -2
100
AcDbLine
 10
6310.972951952931
 20
2702.895935314897
 30
0.0
 11
6310.972951952931
 21
2436.655336810313
 31
0.0
  0
LINE
  5
85AB
330
85A7
100
AcDbEntity
  8
3
 62
     0
370
    -2
100
AcDbLine
 10
7228.972951952934
 20
2702.895935314897
 30
0.0
 11
7228.972951952934
 21
2436.655336810313
 31
0.0
  0
LINE
  5
85AC
330
85A7
100
AcDbEntity
  8
3
 62
     0
370
    -2
100
AcDbLine
 10
6318.172951952931
 20
2443.855336810313
 30
0.0
 11
6757.801523381504
 21
2443.855336810313
 31
0.0
  0
LINE
  5
85AD
330
85A7
100
AcDbEntity
  8
3
 62
     0
370
    -2
100
AcDbLine
 10
7221.772951952934
 20
2443.855336810313
 30
0.0
 11
6782.144380524361
 21
2443.855336810313
 31
0.0
  0
SOLID
  5
85AE
330
85A7
100
AcDbEntity
  8
3
 62
     0
100
AcDbTrace
 10
6318.172951952931
 20
2445.055336810313
 30
0.0
 11
6318.172951952931
 21
2442.655336810313
 31
0.0
 12
6310.972951952931
 22
2443.855336810313
 32
0.0
 13
6310.972951952931
 23
2443.855336810313
 33
0.0
  0
SOLID
  5
85AF
330
85A7
100
AcDbEntity
  8
3
 62
     0
100
AcDbTrace
 10
7221.772951952934
 20
2445.055336810313
 30
0.0
 11
7221.772951952934
 21
2442.655336810313
 31
0.0
 12
7228.972951952934
 22
2443.855336810313
 32
0.0
 13
7228.972951952934
 23
2443.855336810313
 33
0.0
  0
MTEXT
  5
85B0
330
85A7
100
AcDbEntity
  8
3
 62
     0
100
AcDbMText
 10
6769.972951952931
 20
2443.855336810313
 30
0.0
 40
7.199999999999999
 41
0.0
 71
     5
 72
     1
  1
\A1;918
 73
     1
 44
1.0
1001
ACAD
1000
MTEXTBEGIN
1070
    73
1070
     1
1070
    44
1040
1.0
1070
    74
1070
     0
1000
MTEXTEND
  0
POINT
  5
85B1
330
85A7
100
AcDbEntity
  8
DEFPOINTS
 62
     0
100
AcDbPoint
 10
6310.972951952931
 20
2705.395935314897
 30
0.0
  0
POINT
  5
85B2
330
85A7
100
AcDbEntity
  8
DEFPOINTS
 62
     0
100
AcDbPoint
 10
7228.972951952934
 20
2705.395935314897
 30
0.0
  0
POINT
  5
85B3
330
85A7
100
AcDbEntity
  8
DEFPOINTS
 62
     0
100
AcDbPoint
 10
7228.972951952934
 20
2443.855336810313
 30
0.0
  0
ENDBLK
  5
85A9
330
85A7
100
AcDbEntity
  8
0
100
AcDbBlockEnd
  0
BLOCK
  5
85B5
330
85B4
100
AcDbEntity
  8
0
100
AcDbBlockBegin
  2
*D43
 70
     1
 10
0.0
 20
0.0
 30
0.0
  3
*D43
  1

  0
LINE
  5
85B7
330
85B4
100
AcDbEntity
  8
3
 62
     0
370
    -2
100
AcDbLine
 10
1977.190038106198
 20
2770.395935314896
 30
0.0
 11
1398.068771363862
 21
2770.395935314896
 31
0.0
  0
LINE
  5
85B8
330
85B4
100
AcDbEntity
  8
3
 62
     0
370
    -2
100
AcDbLine
 10
1977.190038106198
 20
2705.395935314897
 30
0.0
 11
1398.068771363862
 21
2705.395935314897
 31
0.0
  0
LINE
  5
85B9
330
85B4
100
AcDbEntity
  8
3
 62
     0
370
    -2
100
AcDbLine
 10
1405.268771363862
 20
2763.195935314897
 30
0.0
 11
1405.268771363862
 21
2745.095935314896
 31
0.0
  0
LINE
  5
85BA
330
85B4
100
AcDbEntity
  8
3
 62
     0
370
    -2
100
AcDbLine
 10
1405.268771363862
 20
2712.595935314896
 30
0.0
 11
1405.268771363862
 21
2730.695935314896
 31
0.0
  0
SOLID
  5
85BB
330
85B4
100
AcDbEntity
  8
3
 62
     0
100
AcDbTrace
 10
1404.068771363862
 20
2763.195935314897
 30
0.0
 11
1406.468771363862
 21
2763.195935314897
 31
0.0
 12
1405.268771363862
 22
2770.395935314896
 32
0.0
 13
1405.268771363862
 23
2770.395935314896
 33
0.0
  0
SOLID
  5
85BC
330
85B4
100
AcDbEntity
  8
3
 62
     0
100
AcDbTrace
 10
1404.068771363862
 20
2712.595935314896
 30
0.0
 11
1406.468771363862
 21
2712.595935314896
 31
0.0
 12
1405.268771363862
 22
2705.395935314897
 32
0.0
 13
1405.268771363862
 23
2705.395935314897
 33
0.0
  0
MTEXT
  5
85BD
330
85B4
100
AcDbEntity
  8
3
 62
     0
100
AcDbMText
 10
1405.268771363861
 20
2737.895935314897
 30
0.0
 40
7.199999999999999
 41
0.0
 71
     5
 72
     1
  1
\A1;65
 73
     1
 44
1.0
1001
ACAD
1000
MTEXTBEGIN
1070
    73
1070
     1
1070
    44
1040
1.0
1070
    74
1070
     0
1000
MTEXTEND
  0
POINT
  5
85BE
330
85B4
100
AcDbEntity
  8
DEFPOINTS
 62
     0
100
AcDbPoint
 10
1979.690038106198
 20
2770.395935314896
 30
0.0
  0
POINT
  5
85BF
330
85B4
100
AcDbEntity
  8
DEFPOINTS
 62
     0
100
AcDbPoint
 10
1979.690038106198
 20
2705.395935314897
 30
0.0
  0
POINT
  5
85C0
330
85B4
100
AcDbEntity
  8
DEFPOINTS
 62
     0
100
AcDbPoint
 10
1405.268771363862
 20
2705.395935314897
 30
0.0
  0
ENDBLK
  5
85B6
330
85B4
100
AcDbEntity
  8
0
100
AcDbBlockEnd
  0
BLOCK
  5
85C2
330
85C1
100
AcDbEntity
  8
0
100
AcDbBlockBegin
  2
*D44
 70
     1
 10
0.0
 20
0.0
 30
0.0
  3
*D44
  1

  0
LINE
  5
85C4
330
85C1
100
AcDbEntity
  8
3
 62
     0
370
    -2
100
AcDbLine
 10
1401.702381964372
 20
2777.595935314896
 30
0.0
 11
1401.702381964372
 21
2813.810221029182
 31
0.0
  0
LINE
  5
85C5
330
85C1
100
AcDbEntity
  8
3
 62
     0
370
    -2
100
AcDbLine
 10
1401.702381964372
 20
2868.195935314897
 30
0.0
 11
1401.702381964372
 21
2831.98164960061
 31
0.0
  0
SOLID
  5
85C6
330
85C1
100
AcDbEntity
  8
3
 62
     0
100
AcDbTrace
 10
1400.502381964372
 20
2777.595935314896
 30
0.0
 11
1402.902381964372
 21
2777.595935314896
 31
0.0
 12
1401.702381964372
 22
2770.395935314896
 32
0.0
 13
1401.702381964372
 23
2770.395935314896
 33
0.0
  0
SOLID
  5
85C7
330
85C1
100
AcDbEntity
  8
3
 62
     0
100
AcDbTrace
 10
1400.502381964372
 20
2868.195935314897
 30
0.0
 11
1402.902381964372
 21
2868.195935314897
 31
0.0
 12
1401.702381964372
 22
2875.395935314896
 32
0.0
 13
1401.702381964372
 23
2875.395935314896
 33
0.0
  0
MTEXT
  5
85C8
330
85C1
100
AcDbEntity
  8
3
 62
     0
100
AcDbMText
 10
1401.702381964371
 20
2822.895935314896
 30
0.0
 40
7.199999999999999
 41
0.0
 71
     5
 72
     1
  1
\A1;   (105)
 73
     1
 44
1.0
1001
ACAD
1000
MTEXTBEGIN
1070
    73
1070
     1
1070
    44
1040
1.0
1070
    74
1070
     0
1000
MTEXTEND
  0
POINT
  5
85C9
330
85C1
100
AcDbEntity
  8
DEFPOINTS
 62
     0
100
AcDbPoint
 10
1979.690038106198
 20
2770.395935314896
 30
0.0
  0
POINT
  5
85CA
330
85C1
100
AcDbEntity
  8
DEFPOINTS
 62
     0
100
AcDbPoint
 10
1979.690038106198
 20
2875.395935314896
 30
0.0
  0
POINT
  5
85CB
330
85C1
100
AcDbEntity
  8
DEFPOINTS
 62
     0
100
AcDbPoint
 10
1401.702381964372
 20
2875.395935314896
 30
0.0
  0
ENDBLK
  5
85C3
330
85C1
100
AcDbEntity
  8
0
100
AcDbBlockEnd
  0
BLOCK
  5
85CE
330
85CD
100
AcDbEntity
  8
0
100
AcDbBlockBegin
  2
*D45
 70
     1
 10
0.0
 20
0.0
 30
0.0
  3
*D45
  1

  0
LINE
  5
85D0
330
85CD
100
AcDbEntity
  8
3
 62
     0
370
    -2
100
AcDbLine
 10
5108.972951952932
 20
2685.395935314897
 30
0.0
 11
5108.972951952932
 21
2403.855336810313
 31
0.0
  0
LINE
  5
85D1
330
85CD
100
AcDbEntity
  8
3
 62
     0
370
    -2
100
AcDbLine
 10
6310.972951952931
 20
2685.395935314897
 30
0.0
 11
6310.972951952931
 21
2403.855336810313
 31
0.0
  0
LINE
  5
85D2
330
85CD
100
AcDbEntity
  8
3
 62
     0
370
    -2
100
AcDbLine
 10
5188.972951952932
 20
2443.855336810313
 30
0.0
 11
6230.972951952931
 21
2443.855336810313
 31
0.0
  0
INSERT
  5
85D3
330
85CD
100
AcDbEntity
  8
3
 62
     0
370
    -2
100
AcDbBlockReference
  2
_OPEN
 10
5108.972951952932
 20
2443.855336810313
 30
0.0
 41
80.0
 42
80.0
 43
80.0
 50
180.0
  0
INSERT
  5
85D4
330
85CD
100
AcDbEntity
  8
3
 62
     0
370
    -2
100
AcDbBlockReference
  2
_OPEN
 10
6310.972951952931
 20
2443.855336810313
 30
0.0
 41
80.0
 42
80.0
 43
80.0
  0
MTEXT
  5
85D5
330
85CD
100
AcDbEntity
  8
3
 62
     0
100
AcDbMText
 10
5709.972951952932
 20
2543.855336810313
 30
0.0
 40
120.0
 41
0.0
 71
     5
 72
     1
  1
\A1;1202
 73
     1
 44
1.0
1001
ACAD
1000
MTEXTBEGIN
1070
    73
1070
     1
1070
    44
1040
1.0
1070
    74
1070
     0
1000
MTEXTEND
  0
POINT
  5
85D6
330
85CD
100
AcDbEntity
  8
DEFPOINTS
 62
     0
100
AcDbPoint
 10
5108.972951952932
 20
2705.395935314897
 30
0.0
  0
POINT
  5
85D7
330
85CD
100
AcDbEntity
  8
DEFPOINTS
 62
     0
100
AcDbPoint
 10
6310.972951952931
 20
2705.395935314897
 30
0.0
  0
POINT
  5
85D8
330
85CD
100
AcDbEntity
  8
DEFPOINTS
 62
     0
100
AcDbPoint
 10
6310.972951952931
 20
2443.855336810313
 30
0.0
  0
ENDBLK
  5
85CF
330
85CD
100
AcDbEntity
  8
0
100
AcDbBlockEnd
  0
BLOCK
  5
85DB
330
85DA
100
AcDbEntity
  8
0
100
AcDbBlockBegin
  2
*D46
 70
     1
 10
0.0
 20
0.0
 30
0.0
  3
*D46
  1

  0
LINE
  5
85DD
330
85DA
100
AcDbEntity
  8
3
 62
     0
370
    -2
100
AcDbLine
 10
6310.972951952931
 20
2685.395935314897
 30
0.0
 11
6310.972951952931
 21
2403.855336810313
 31
0.0
  0
LINE
  5
85DE
330
85DA
100
AcDbEntity
  8
3
 62
     0
370
    -2
100
AcDbLine
 10
7228.972951952934
 20
2685.395935314897
 30
0.0
 11
7228.972951952934
 21
2403.855336810313
 31
0.0
  0
LINE
  5
85DF
330
85DA
100
AcDbEntity
  8
3
 62
     0
370
    -2
100
AcDbLine
 10
6390.972951952932
 20
2443.855336810313
 30
0.0
 11
7148.972951952933
 21
2443.855336810313
 31
0.0
  0
INSERT
  5
85E0
330
85DA
100
AcDbEntity
  8
3
 62
     0
370
    -2
100
AcDbBlockReference
  2
_OPEN
 10
6310.972951952931
 20
2443.855336810313
 30
0.0
 41
80.0
 42
80.0
 43
80.0
 50
180.0
  0
INSERT
  5
85E1
330
85DA
100
AcDbEntity
  8
3
 62
     0
370
    -2
100
AcDbBlockReference
  2
_OPEN
 10
7228.972951952934
 20
2443.855336810313
 30
0.0
 41
80.0
 42
80.0
 43
80.0
  0
MTEXT
  5
85E2
330
85DA
100
AcDbEntity
  8
3
 62
     0
100
AcDbMText
 10
6769.972951952931
 20
2543.855336810313
 30
0.0
 40
120.0
 41
0.0
 71
     5
 72
     1
  1
\A1;918
 73
     1
 44
1.0
1001
ACAD
1000
MTEXTBEGIN
1070
    73
1070
     1
1070
    44
1040
1.0
1070
    74
1070
     0
1000
MTEXTEND
  0
POINT
  5
85E3
330
85DA
100
AcDbEntity
  8
DEFPOINTS
 62
     0
100
AcDbPoint
 10
6310.972951952931
 20
2705.395935314897
 30
0.0
  0
POINT
  5
85E4
330
85DA
100
AcDbEntity
  8
DEFPOINTS
 62
     0
100
AcDbPoint
 10
7228.972951952934
 20
2705.395935314897
 30
0.0
  0
POINT
  5
85E5
330
85DA
100
AcDbEntity
  8
DEFPOINTS
 62
     0
100
AcDbPoint
 10
7228.972951952934
 20
2443.855336810313
 30
0.0
  0
ENDBLK
  5
85DC
330
85DA
100
AcDbEntity
  8
0
100
AcDbBlockEnd
  0
BLOCK
  5
85E8
330
85E7
100
AcDbEntity
  8
0
100
AcDbBlockBegin
  2
*D47
 70
     1
 10
0.0
 20
0.0
 30
0.0
  3
*D47
  1

  0
LINE
  5
85EA
330
85E7
100
AcDbEntity
  8
3
 62
     0
370
    -2
100
AcDbLine
 10
1904.690038106198
 20
5207.395935314896
 30
0.0
 11
1904.690038106198
 21
5476.91888063242
 31
0.0
  0
LINE
  5
85EB
330
85E7
100
AcDbEntity
  8
3
 62
     0
370
    -2
100
AcDbLine
 10
2729.690038106197
 20
5175.681654420208
 30
0.0
 11
2729.690038106197
 21
5476.91888063242
 31
0.0
  0
LINE
  5
85EC
330
85E7
100
AcDbEntity
  8
3
 62
     0
370
    -2
100
AcDbLine
 10
1984.690038106198
 20
5436.91888063242
 30
0.0
 11
2649.690038106197
 21
5436.91888063242
 31
0.0
  0
INSERT
  5
85ED
330
85E7
100
AcDbEntity
  8
3
 62
     0
370
    -2
100
AcDbBlockReference
  2
_OPEN
 10
1904.690038106198
 20
5436.91888063242
 30
0.0
 41
80.0
 42
80.0
 43
80.0
 50
180.0
  0
INSERT
  5
85EE
330
85E7
100
AcDbEntity
  8
3
 62
     0
370
    -2
100
AcDbBlockReference
  2
_OPEN
 10
2729.690038106197
 20
5436.91888063242
 30
0.0
 41
80.0
 42
80.0
 43
80.0
  0
MTEXT
  5
85EF
330
85E7
100
AcDbEntity
  8
3
 62
     0
100
AcDbMText
 10
2317.190038106198
 20
5536.91888063242
 30
0.0
 40
120.0
 41
0.0
 71
     5
 72
     1
  1
\A1;825
 73
     1
 44
1.0
1001
ACAD
1000
MTEXTBEGIN
1070
    73
1070
     1
1070
    44
1040
1.0
1070
    74
1070
     0
1000
MTEXTEND
  0
POINT
  5
85F0
330
85E7
100
AcDbEntity
  8
DEFPOINTS
 62
     0
100
AcDbPoint
 10
1904.690038106198
 20
5187.395935314897
 30
0.0
  0
POINT
  5
85F1
330
85E7
100
AcDbEntity
  8
DEFPOINTS
 62
     0
100
AcDbPoint
 10
2729.690038106197
 20
5155.681654420209
 30
0.0
  0
POINT
  5
85F2
330
85E7
100
AcDbEntity
  8
DEFPOINTS
 62
     0
100
AcDbPoint
 10
2729.690038106197
 20
5436.91888063242
 30
0.0
  0
ENDBLK
  5
85E9
330
85E7
100
AcDbEntity
  8
0
100
AcDbBlockEnd
  0
BLOCK
  5
85F5
330
85F4
100
AcDbEntity
  8
0
100
AcDbBlockBegin
  2
*D48
 70
     1
 10
0.0
 20
0.0
 30
0.0
  3
*D48
  1

  0
LINE
  5
85F7
330
85F4
100
AcDbEntity
  8
3
 62
     0
370
    -2
100
AcDbLine
 10
2729.690038106197
 20
5175.681654420208
 30
0.0
 11
2729.690038106197
 21
5476.91888063242
 31
0.0
  0
LINE
  5
85F8
330
85F4
100
AcDbEntity
  8
3
 62
     0
370
    -2
100
AcDbLine
 10
3808.690038106199
 20
3911.395935314896
 30
0.0
 11
3808.690038106199
 21
5476.91888063242
 31
0.0
  0
LINE
  5
85F9
330
85F4
100
AcDbEntity
  8
3
 62
     0
370
    -2
100
AcDbLine
 10
2809.690038106197
 20
5436.91888063242
 30
0.0
 11
3728.690038106199
 21
5436.91888063242
 31
0.0
  0
INSERT
  5
85FA
330
85F4
100
AcDbEntity
  8
3
 62
     0
370
    -2
100
AcDbBlockReference
  2
_OPEN
 10
2729.690038106197
 20
5436.91888063242
 30
0.0
 41
80.0
 42
80.0
 43
80.0
 50
180.0
  0
INSERT
  5
85FB
330
85F4
100
AcDbEntity
  8
3
 62
     0
370
    -2
100
AcDbBlockReference
  2
_OPEN
 10
3808.690038106199
 20
5436.91888063242
 30
0.0
 41
80.0
 42
80.0
 43
80.0
  0
MTEXT
  5
85FC
330
85F4
100
AcDbEntity
  8
3
 62
     0
100
AcDbMText
 10
3269.190038106199
 20
5536.91888063242
 30
0.0
 40
120.0
 41
0.0
 71
     5
 72
     1
  1
\A1;1079
 73
     1
 44
1.0
1001
ACAD
1000
MTEXTBEGIN
1070
    73
1070
     1
1070
    44
1040
1.0
1070
    74
1070
     0
1000
MTEXTEND
  0
POINT
  5
85FD
330
85F4
100
AcDbEntity
  8
DEFPOINTS
 62
     0
100
AcDbPoint
 10
2729.690038106197
 20
5155.681654420209
 30
0.0
  0
POINT
  5
85FE
330
85F4
100
AcDbEntity
  8
DEFPOINTS
 62
     0
100
AcDbPoint
 10
3808.690038106199
 20
3891.395935314896
 30
0.0
  0
POINT
  5
85FF
330
85F4
100
AcDbEntity
  8
DEFPOINTS
 62
     0
100
AcDbPoint
 10
3808.690038106199
 20
5436.91888063242
 30
0.0
  0
ENDBLK
  5
85F6
330
85F4
100
AcDbEntity
  8
0
100
AcDbBlockEnd
  0
BLOCK
  5
8602
330
8601
100
AcDbEntity
  8
0
100
AcDbBlockBegin
  2
*D49
 70
     1
 10
0.0
 20
0.0
 30
0.0
  3
*D49
  1

  0
LINE
  5
8604
330
8601
100
AcDbEntity
  8
3
 62
     0
370
    -2
100
AcDbLine
 10
1904.690038106198
 20
5207.395935314896
 30
0.0
 11
1904.690038106198
 21
5701.37209794053
 31
0.0
  0
LINE
  5
8605
330
8601
100
AcDbEntity
  8
3
 62
     0
370
    -2
100
AcDbLine
 10
4429.690038106198
 20
3020.395935314896
 30
0.0
 11
4429.690038106198
 21
5701.37209794053
 31
0.0
  0
LINE
  5
8606
330
8601
100
AcDbEntity
  8
3
 62
     0
370
    -2
100
AcDbLine
 10
1984.690038106198
 20
5661.37209794053
 30
0.0
 11
4349.690038106198
 21
5661.37209794053
 31
0.0
  0
INSERT
  5
8607
330
8601
100
AcDbEntity
  8
3
 62
     0
370
    -2
100
AcDbBlockReference
  2
_OPEN
 10
1904.690038106198
 20
5661.37209794053
 30
0.0
 41
80.0
 42
80.0
 43
80.0
 50
180.0
  0
INSERT
  5
8608
330
8601
100
AcDbEntity
  8
3
 62
     0
370
    -2
100
AcDbBlockReference
  2
_OPEN
 10
4429.690038106198
 20
5661.37209794053
 30
0.0
 41
80.0
 42
80.0
 43
80.0
  0
MTEXT
  5
8609
330
8601
100
AcDbEntity
  8
3
 62
     0
100
AcDbMText
 10
3167.190038106198
 20
5761.37209794053
 30
0.0
 40
120.0
 41
0.0
 71
     5
 72
     1
  1
\A1;2525
 73
     1
 44
1.0
1001
ACAD
1000
MTEXTBEGIN
1070
    73
1070
     1
1070
    44
1040
1.0
1070
    74
1070
     0
1000
MTEXTEND
  0
POINT
  5
860A
330
8601
100
AcDbEntity
  8
DEFPOINTS
 62
     0
100
AcDbPoint
 10
1904.690038106198
 20
5187.395935314897
 30
0.0
  0
POINT
  5
860B
330
8601
100
AcDbEntity
  8
DEFPOINTS
 62
     0
100
AcDbPoint
 10
4429.690038106198
 20
3000.395935314896
 30
0.0
  0
POINT
  5
860C
330
8601
100
AcDbEntity
  8
DEFPOINTS
 62
     0
100
AcDbPoint
 10
4429.690038106198
 20
5661.37209794053
 30
0.0
  0
ENDBLK
  5
8603
330
8601
100
AcDbEntity
  8
0
100
AcDbBlockEnd
  0
BLOCK
  5
860F
330
860E
100
AcDbEntity
  8
0
100
AcDbBlockBegin
  2
*D50
 70
     1
 10
0.0
 20
0.0
 30
0.0
  3
*D50
  1

  0
LINE
  5
8611
330
860E
100
AcDbEntity
  8
3
 62
     0
370
    -2
100
AcDbLine
 10
1884.690038106198
 20
5134.395935314897
 30
0.0
 11
1611.679005416241
 21
5134.395935314897
 31
0.0
  0
LINE
  5
8612
330
860E
100
AcDbEntity
  8
3
 62
     0
370
    -2
100
AcDbLine
 10
1884.690038106198
 20
3854.395935314897
 30
0.0
 11
1611.679005416241
 21
3854.395935314897
 31
0.0
  0
LINE
  5
8613
330
860E
100
AcDbEntity
  8
3
 62
     0
370
    -2
100
AcDbLine
 10
1651.679005416241
 20
5054.395935314897
 30
0.0
 11
1651.679005416241
 21
3934.395935314897
 31
0.0
  0
INSERT
  5
8614
330
860E
100
AcDbEntity
  8
3
 62
     0
370
    -2
100
AcDbBlockReference
  2
_OPEN
 10
1651.679005416241
 20
5134.395935314897
 30
0.0
 41
80.0
 42
80.0
 43
80.0
 50
90.0
  0
INSERT
  5
8615
330
860E
100
AcDbEntity
  8
3
 62
     0
370
    -2
100
AcDbBlockReference
  2
_OPEN
 10
1651.679005416241
 20
3854.395935314897
 30
0.0
 41
80.0
 42
80.0
 43
80.0
 50
270.0
  0
MTEXT
  5
8616
330
860E
100
AcDbEntity
  8
3
 62
     0
100
AcDbMText
 10
1551.67900541624
 20
4494.395935314897
 30
0.0
 40
120.0
 41
0.0
 71
     5
 72
     1
  1
\A1;1280
 11
0.0000000000000001
 21
1.0
 31
0.0
 73
     1
 44
1.0
1001
ACAD
1000
MTEXTBEGIN
1070
    73
1070
     1
1070
    44
1040
1.0
1070
    74
1070
     0
1000
MTEXTEND
  0
POINT
  5
8617
330
860E
100
AcDbEntity
  8
DEFPOINTS
 62
     0
100
AcDbPoint
 10
1904.690038106198
 20
5134.395935314897
 30
0.0
  0
POINT
  5
8618
330
860E
100
AcDbEntity
  8
DEFPOINTS
 62
     0
100
AcDbPoint
 10
1904.690038106198
 20
3854.395935314897
 30
0.0
  0
POINT
  5
8619
330
860E
100
AcDbEntity
  8
DEFPOINTS
 62
     0
100
AcDbPoint
 10
1651.679005416241
 20
3854.395935314897
 30
0.0
  0
ENDBLK
  5
8610
330
860E
100
AcDbEntity
  8
0
100
AcDbBlockEnd
  0
BLOCK
  5
861C
330
861B
100
AcDbEntity
  8
0
100
AcDbBlockBegin
  2
*D51
 70
     1
 10
0.0
 20
0.0
 30
0.0
  3
*D51
  1

  0
LINE
  5
861E
330
861B
100
AcDbEntity
  8
3
 62
     0
370
    -2
100
AcDbLine
 10
1884.690038106198
 20
5134.395935314897
 30
0.0
 11
1365.268771363862
 21
5134.395935314897
 31
0.0
  0
LINE
  5
861F
330
861B
100
AcDbEntity
  8
3
 62
     0
370
    -2
100
AcDbLine
 10
1806.253499857346
 20
3800.395935314897
 30
0.0
 11
1365.268771363862
 21
3800.395935314897
 31
0.0
  0
LINE
  5
8620
330
861B
100
AcDbEntity
  8
3
 62
     0
370
    -2
100
AcDbLine
 10
1405.268771363862
 20
5054.395935314897
 30
0.0
 11
1405.268771363862
 21
3880.395935314896
 31
0.0
  0
INSERT
  5
8621
330
861B
100
AcDbEntity
  8
3
 62
     0
370
    -2
100
AcDbBlockReference
  2
_OPEN
 10
1405.268771363862
 20
5134.395935314897
 30
0.0
 41
80.0
 42
80.0
 43
80.0
 50
90.0
  0
INSERT
  5
8622
330
861B
100
AcDbEntity
  8
3
 62
     0
370
    -2
100
AcDbBlockReference
  2
_OPEN
 10
1405.268771363862
 20
3800.395935314897
 30
0.0
 41
80.0
 42
80.0
 43
80.0
 50
270.0
  0
MTEXT
  5
8623
330
861B
100
AcDbEntity
  8
3
 62
     0
100
AcDbMText
 10
1305.268771363861
 20
4467.395935314896
 30
0.0
 40
120.0
 41
0.0
 71
     5
 72
     1
  1
\A1;1334
 11
0.0000000000000001
 21
1.0
 31
0.0
 73
     1
 44
1.0
1001
ACAD
1000
MTEXTBEGIN
1070
    73
1070
     1
1070
    44
1040
1.0
1070
    74
1070
     0
1000
MTEXTEND
  0
POINT
  5
8624
330
861B
100
AcDbEntity
  8
DEFPOINTS
 62
     0
100
AcDbPoint
 10
1904.690038106198
 20
5134.395935314897
 30
0.0
  0
POINT
  5
8625
330
861B
100
AcDbEntity
  8
DEFPOINTS
 62
     0
100
AcDbPoint
 10
1826.253499857346
 20
3800.395935314897
 30
0.0
  0
POINT
  5
8626
330
861B
100
AcDbEntity
  8
DEFPOINTS
 62
     0
100
AcDbPoint
 10
1405.268771363862
 20
3800.395935314897
 30
0.0
  0
ENDBLK
  5
861D
330
861B
100
AcDbEntity
  8
0
100
AcDbBlockEnd
  0
BLOCK
  5
8629
330
8628
100
AcDbEntity
  8
0
100
AcDbBlockBegin
  2
*D52
 70
     1
 10
0.0
 20
0.0
 30
0.0
  3
*D52
  1

  0
LINE
  5
862B
330
8628
100
AcDbEntity
  8
3
 62
     0
370
    -2
100
AcDbLine
 10
1806.253499857346
 20
3800.395935314897
 30
0.0
 11
1365.268771363862
 21
3800.395935314897
 31
0.0
  0
LINE
  5
862C
330
8628
100
AcDbEntity
  8
3
 62
     0
370
    -2
100
AcDbLine
 10
1959.690038106198
 20
2875.395935314896
 30
0.0
 11
1365.268771363862
 21
2875.395935314896
 31
0.0
  0
LINE
  5
862D
330
8628
100
AcDbEntity
  8
3
 62
     0
370
    -2
100
AcDbLine
 10
1405.268771363862
 20
3720.395935314896
 30
0.0
 11
1405.268771363862
 21
2955.395935314896
 31
0.0
  0
INSERT
  5
862E
330
8628
100
AcDbEntity
  8
3
 62
     0
370
    -2
100
AcDbBlockReference
  2
_OPEN
 10
1405.268771363862
 20
3800.395935314897
 30
0.0
 41
80.0
 42
80.0
 43
80.0
 50
90.0
  0
INSERT
  5
862F
330
8628
100
AcDbEntity
  8
3
 62
     0
370
    -2
100
AcDbBlockReference
  2
_OPEN
 10
1405.268771363862
 20
2875.395935314896
 30
0.0
 41
80.0
 42
80.0
 43
80.0
 50
270.0
  0
MTEXT
  5
8630
330
8628
100
AcDbEntity
  8
3
 62
     0
100
AcDbMText
 10
1305.268771363861
 20
3337.895935314897
 30
0.0
 40
120.0
 41
0.0
 71
     5
 72
     1
  1
\A1;925
 11
0.0000000000000001
 21
1.0
 31
0.0
 73
     1
 44
1.0
1001
ACAD
1000
MTEXTBEGIN
1070
    73
1070
     1
1070
    44
1040
1.0
1070
    74
1070
     0
1000
MTEXTEND
  0
POINT
  5
8631
330
8628
100
AcDbEntity
  8
DEFPOINTS
 62
     0
100
AcDbPoint
 10
1826.253499857346
 20
3800.395935314897
 30
0.0
  0
POINT
  5
8632
330
8628
100
AcDbEntity
  8
DEFPOINTS
 62
     0
100
AcDbPoint
 10
1979.690038106198
 20
2875.395935314896
 30
0.0
  0
POINT
  5
8633
330
8628
100
AcDbEntity
  8
DEFPOINTS
 62
     0
100
AcDbPoint
 10
1405.268771363862
 20
2875.395935314896
 30
0.0
  0
ENDBLK
  5
862A
330
8628
100
AcDbEntity
  8
0
100
AcDbBlockEnd
  0
BLOCK
  5
8636
330
8635
100
AcDbEntity
  8
0
100
AcDbBlockBegin
  2
*D53
 70
     1
 10
0.0
 20
0.0
 30
0.0
  3
*D53
  1

  0
LINE
  5
872A
330
8635
100
AcDbEntity
  8
3
 62
     0
370
    -2
100
AcDbLine
 10
1959.690038106198
 20
2875.395935314896
 30
0.0
 11
1365.268771363862
 21
2875.395935314896
 31
0.0
  0
LINE
  5
872B
330
8635
100
AcDbEntity
  8
3
 62
     0
370
    -2
100
AcDbLine
 10
1959.690038106198
 20
2770.395935314896
 30
0.0
 11
1365.268771363862
 21
2770.395935314896
 31
0.0
  0
LINE
  5
872C
330
8635
100
AcDbEntity
  8
3
 62
     0
370
    -2
100
AcDbLine
 10
1405.268771363862
 20
2955.395935314896
 30
0.0
 11
1405.268771363862
 21
3035.395935314896
 31
0.0
  0
LINE
  5
872D
330
8635
100
AcDbEntity
  8
3
 62
     0
370
    -2
100
AcDbLine
 10
1405.268771363862
 20
2770.395935314896
 30
0.0
 11
1405.268771363862
 21
2690.395935314896
 31
0.0
  0
LINE
  5
872E
330
8635
100
AcDbEntity
  8
3
 62
     0
370
    -2
100
AcDbLine
 10
1405.268771363862
 20
2822.895935314896
 30
0.0
 11
1213.84019993529
 21
2880.324506743468
 31
0.0
  0
LINE
  5
872F
330
8635
100
AcDbEntity
  8
3
 62
     0
370
    -2
100
AcDbLine
 10
1213.84019993529
 20
2880.324506743468
 30
0.0
 11
1213.84019993529
 21
3400.324506743468
 31
0.0
  0
MTEXT
  5
8730
330
8635
100
AcDbEntity
  8
3
 62
     0
100
AcDbMText
 10
1082.411628506719
 20
3140.324506743468
 30
0.0
 40
120.0
 41
0.0
 71
     5
 72
     1
  1
\A1;(105)
 11
0.0000000000000001
 21
1.0
 31
0.0
 73
     1
 44
1.0
1001
ACAD
1000
MTEXTBEGIN
1070
    73
1070
     1
1070
    44
1040
1.0
1070
    74
1070
     0
1000
MTEXTEND
  0
LINE
  5
8731
330
8635
100
AcDbEntity
  8
3
 62
     0
370
    -2
100
AcDbLine
 10
1405.268771363862
 20
2875.395935314896
 30
0.0
 11
1405.268771363862
 21
2770.395935314896
 31
0.0
  0
LINE
  5
8732
330
8635
100
AcDbEntity
  8
3
 62
     0
370
    -2
100
AcDbLine
 10
1405.268771363862
 20
2875.395935314896
 30
0.0
 11
1405.268771363862
 21
2770.395935314896
 31
0.0
  0
INSERT
  5
8733
330
8635
100
AcDbEntity
  8
3
 62
     0
370
    -2
100
AcDbBlockReference
  2
_OPEN
 10
1405.268771363862
 20
2875.395935314896
 30
0.0
 41
80.0
 42
80.0
 43
80.0
 50
270.0
  0
INSERT
  5
8734
330
8635
100
AcDbEntity
  8
3
 62
     0
370
    -2
100
AcDbBlockReference
  2
_DotSmall
 10
1405.268771363862
 20
2770.395935314896
 30
0.0
 41
80.0
 42
80.0
 43
80.0
 50
90.0
  0
POINT
  5
8735
330
8635
100
AcDbEntity
  8
DEFPOINTS
 62
     0
100
AcDbPoint
 10
1979.690038106198
 20
2875.395935314896
 30
0.0
  0
POINT
  5
8736
330
8635
100
AcDbEntity
  8
DEFPOINTS
 62
     0
100
AcDbPoint
 10
1979.690038106198
 20
2770.395935314896
 30
0.0
  0
POINT
  5
8737
330
8635
100
AcDbEntity
  8
DEFPOINTS
 62
     0
100
AcDbPoint
 10
1405.268771363862
 20
2770.395935314896
 30
0.0
  0
ENDBLK
  5
8637
330
8635
100
AcDbEntity
  8
0
100
AcDbBlockEnd
  0
BLOCK
  5
8648
330
8647
100
AcDbEntity
  8
0
100
AcDbBlockBegin
  2
*D54
 70
     1
 10
0.0
 20
0.0
 30
0.0
  3
*D54
  1

  0
LINE
  5
8786
330
8647
100
AcDbEntity
  8
3
 62
     0
370
    -2
100
AcDbLine
 10
1959.690038106198
 20
2770.395935314896
 30
0.0
 11
1365.268771363862
 21
2770.395935314896
 31
0.0
  0
LINE
  5
8787
330
8647
100
AcDbEntity
  8
3
 62
     0
370
    -2
100
AcDbLine
 10
1959.690038106198
 20
2705.395935314897
 30
0.0
 11
1365.268771363862
 21
2705.395935314897
 31
0.0
  0
LINE
  5
8788
330
8647
100
AcDbEntity
  8
3
 62
     0
370
    -2
100
AcDbLine
 10
1405.268771363862
 20
2770.395935314896
 30
0.0
 11
1405.268771363862
 21
2850.395935314896
 31
0.0
  0
LINE
  5
8789
330
8647
100
AcDbEntity
  8
3
 62
     0
370
    -2
100
AcDbLine
 10
1405.268771363862
 20
2625.395935314897
 30
0.0
 11
1405.268771363861
 21
2545.395935314897
 31
0.0
  0
MTEXT
  5
878A
330
8647
100
AcDbEntity
  8
3
 62
     0
100
AcDbMText
 10
1276.403808991934
 20
2544.647625478432
 30
0.0
 40
120.0
 41
0.0
 71
     5
 72
     1
  1
\A1;65
 11
0.0000000000000001
 21
1.0
 31
0.0
 73
     1
 44
1.0
1001
ACAD
1000
MTEXTBEGIN
1070
    73
1070
     1
1070
    44
1040
1.0
1070
    74
1070
     0
1000
MTEXTEND
  0
LINE
  5
878B
330
8647
100
AcDbEntity
  8
3
 62
     0
370
    -2
100
AcDbLine
 10
1405.268771363862
 20
2770.395935314896
 30
0.0
 11
1405.268771363862
 21
2705.395935314897
 31
0.0
  0
INSERT
  5
878C
330
8647
100
AcDbEntity
  8
3
 62
     0
370
    -2
100
AcDbBlockReference
  2
_DotSmall
 10
1405.268771363862
 20
2770.395935314896
 30
0.0
 41
80.0
 42
80.0
 43
80.0
 50
270.0
  0
INSERT
  5
878D
330
8647
100
AcDbEntity
  8
3
 62
     0
370
    -2
100
AcDbBlockReference
  2
_OPEN
 10
1405.268771363862
 20
2705.395935314897
 30
0.0
 41
80.0
 42
80.0
 43
80.0
 50
90.0
  0
POINT
  5
878E
330
8647
100
AcDbEntity
  8
DEFPOINTS
 62
     0
100
AcDbPoint
 10
1979.690038106198
 20
2770.395935314896
 30
0.0
  0
POINT
  5
878F
330
8647
100
AcDbEntity
  8
DEFPOINTS
 62
     0
100
AcDbPoint
 10
1979.690038106198
 20
2705.395935314897
 30
0.0
  0
POINT
  5
8790
330
8647
100
AcDbEntity
  8
DEFPOINTS
 62
     0
100
AcDbPoint
 10
1405.268771363862
 20
2705.395935314897
 30
0.0
  0
ENDBLK
  5
8649
330
8647
100
AcDbEntity
  8
0
100
AcDbBlockEnd
  0
BLOCK
  5
86A8
330
86A7
100
AcDbEntity
  8
0
100
AcDbBlockBegin
  2
*D55
 70
     1
 10
0.0
 20
0.0
 30
0.0
  3
*D55
  1

  0
LINE
  5
86BC
330
86A7
100
AcDbEntity
  8
3
 62
     0
370
    -2
100
AcDbLine
 10
1959.690038106198
 20
2705.395935314897
 30
0.0
 11
834.3680910223625
 21
2705.395935314897
 31
0.0
  0
LINE
  5
86BD
330
86A7
100
AcDbEntity
  8
3
 62
     0
370
    -2
100
AcDbLine
 10
1884.690038106198
 20
5134.395935314897
 30
0.0
 11
834.3680910223632
 21
5134.395935314897
 31
0.0
  0
LINE
  5
86BE
330
86A7
100
AcDbEntity
  8
3
 62
     0
370
    -2
100
AcDbLine
 10
874.3680910223625
 20
2785.395935314897
 30
0.0
 11
874.3680910223631
 21
5054.395935314897
 31
0.0
  0
INSERT
  5
86BF
330
86A7
100
AcDbEntity
  8
3
 62
     0
370
    -2
100
AcDbBlockReference
  2
_OPEN
 10
874.3680910223625
 20
2705.395935314897
 30
0.0
 41
80.0
 42
80.0
 43
80.0
 50
270.0
  0
INSERT
  5
86C0
330
86A7
100
AcDbEntity
  8
3
 62
     0
370
    -2
100
AcDbBlockReference
  2
_OPEN
 10
874.3680910223631
 20
5134.395935314897
 30
0.0
 41
80.0
 42
80.0
 43
80.0
 50
90.0
  0
MTEXT
  5
86C1
330
86A7
100
AcDbEntity
  8
3
 62
     0
100
AcDbMText
 10
742.9395195937908
 20
3919.895935314896
 30
0.0
 40
120.0
 41
0.0
 71
     5
 72
     1
  1
\A1;(2429)
 11
0.0000000000000001
 21
1.0
 31
0.0
 73
     1
 44
1.0
1001
ACAD
1000
MTEXTBEGIN
1070
    73
1070
     1
1070
    44
1040
1.0
1070
    74
1070
     0
1000
MTEXTEND
  0
POINT
  5
86C2
330
86A7
100
AcDbEntity
  8
DEFPOINTS
 62
     0
100
AcDbPoint
 10
1979.690038106198
 20
2705.395935314897
 30
0.0
  0
POINT
  5
86C3
330
86A7
100
AcDbEntity
  8
DEFPOINTS
 62
     0
100
AcDbPoint
 10
1904.690038106198
 20
5134.395935314897
 30
0.0
  0
POINT
  5
86C4
330
86A7
100
AcDbEntity
  8
DEFPOINTS
 62
     0
100
AcDbPoint
 10
874.3680910223631
 20
5134.395935314897
 30
0.0
  0
ENDBLK
  5
86A9
330
86A7
100
AcDbEntity
  8
0
100
AcDbBlockEnd
  0
BLOCK
  5
8728
330
8726
100
AcDbEntity
  8
0
100
AcDbBlockBegin
  2
_DotSmall
 70
     0
 10
0.0
 20
0.0
 30
0.0
  3
_DotSmall
  1

  0
LWPOLYLINE
  5
8727
330
8726
100
AcDbEntity
  8
0
  6
ByBlock
 62
     0
100
AcDbPolyline
 90
        2
 70
     1
 43
0.5
 10
-0.0625
 20
0.0
 42
1.0
 10
0.0625
 20
0.0
 42
1.0
  0
ENDBLK
  5
8729
330
8726
100
AcDbEntity
  8
0
100
AcDbBlockEnd
  0
BLOCK
  5
8793
330
8792
100
AcDbEntity
  8
0
100
AcDbBlockBegin
  2
*D57
 70
     1
 10
0.0
 20
0.0
 30
0.0
  3
*D57
  1

  0
LINE
  5
8795
330
8792
100
AcDbEntity
  8
3
 62
     0
370
    -2
100
AcDbLine
 10
1979.690038106198
 20
2685.395935314897
 30
0.0
 11
1979.690038106198
 21
2403.855336810313
 31
0.0
  0
LINE
  5
8796
330
8792
100
AcDbEntity
  8
3
 62
     0
370
    -2
100
AcDbLine
 10
2729.690038106197
 20
2685.395935314897
 30
0.0
 11
2729.690038106197
 21
2403.855336810313
 31
0.0
  0
LINE
  5
8797
330
8792
100
AcDbEntity
  8
3
 62
     0
370
    -2
100
AcDbLine
 10
2059.690038106198
 20
2443.855336810313
 30
0.0
 11
2649.690038106197
 21
2443.855336810313
 31
0.0
  0
INSERT
  5
8798
330
8792
100
AcDbEntity
  8
3
 62
     0
370
    -2
100
AcDbBlockReference
  2
_OPEN
 10
1979.690038106198
 20
2443.855336810313
 30
0.0
 41
80.0
 42
80.0
 43
80.0
 50
180.0
  0
INSERT
  5
8799
330
8792
100
AcDbEntity
  8
3
 62
     0
370
    -2
100
AcDbBlockReference
  2
_OPEN
 10
2729.690038106197
 20
2443.855336810313
 30
0.0
 41
80.0
 42
80.0
 43
80.0
  0
MTEXT
  5
879A
330
8792
100
AcDbEntity
  8
3
 62
     0
100
AcDbMText
 10
2354.690038106198
 20
2543.855336810313
 30
0.0
 40
120.0
 41
0.0
 71
     5
 72
     1
  1
\A1;750
 73
     1
 44
1.0
1001
ACAD
1000
MTEXTBEGIN
1070
    73
1070
     1
1070
    44
1040
1.0
1070
    74
1070
     0
1000
MTEXTEND
  0
POINT
  5
879B
330
8792
100
AcDbEntity
  8
DEFPOINTS
 62
     0
100
AcDbPoint
 10
1979.690038106198
 20
2705.395935314897
 30
0.0
  0
POINT
  5
879C
330
8792
100
AcDbEntity
  8
DEFPOINTS
 62
     0
100
AcDbPoint
 10
2729.690038106197
 20
2705.395935314897
 30
0.0
  0
POINT
  5
879D
330
8792
100
AcDbEntity
  8
DEFPOINTS
 62
     0
100
AcDbPoint
 10
2729.690038106197
 20
2443.855336810313
 30
0.0
  0
ENDBLK
  5
8794
330
8792
100
AcDbEntity
  8
0
100
AcDbBlockEnd
  0
BLOCK
  5
87A0
330
879F
100
AcDbEntity
  8
0
100
AcDbBlockBegin
  2
*D58
 70
     1
 10
0.0
 20
0.0
 30
0.0
  3
*D58
  1

  0
LINE
  5
87A2
330
879F
100
AcDbEntity
  8
3
 62
     0
370
    -2
100
AcDbLine
 10
2729.690038106197
 20
2685.395935314897
 30
0.0
 11
2729.690038106197
 21
2403.855336810313
 31
0.0
  0
LINE
  5
87A3
330
879F
100
AcDbEntity
  8
3
 62
     0
370
    -2
100
AcDbLine
 10
4429.690038106198
 20
2685.395935314897
 30
0.0
 11
4429.690038106198
 21
2403.855336810313
 31
0.0
  0
LINE
  5
87A4
330
879F
100
AcDbEntity
  8
3
 62
     0
370
    -2
100
AcDbLine
 10
2809.690038106197
 20
2443.855336810313
 30
0.0
 11
4349.690038106198
 21
2443.855336810313
 31
0.0
  0
INSERT
  5
87A5
330
879F
100
AcDbEntity
  8
3
 62
     0
370
    -2
100
AcDbBlockReference
  2
_OPEN
 10
2729.690038106197
 20
2443.855336810313
 30
0.0
 41
80.0
 42
80.0
 43
80.0
 50
180.0
  0
INSERT
  5
87A6
330
879F
100
AcDbEntity
  8
3
 62
     0
370
    -2
100
AcDbBlockReference
  2
_OPEN
 10
4429.690038106198
 20
2443.855336810313
 30
0.0
 41
80.0
 42
80.0
 43
80.0
  0
MTEXT
  5
87A7
330
879F
100
AcDbEntity
  8
3
 62
     0
100
AcDbMText
 10
3579.690038106198
 20
2543.855336810313
 30
0.0
 40
120.0
 41
0.0
 71
     5
 72
     1
  1
\A1;1700
 73
     1
 44
1.0
1001
ACAD
1000
MTEXTBEGIN
1070
    73
1070
     1
1070
    44
1040
1.0
1070
    74
1070
     0
1000
MTEXTEND
  0
POINT
  5
87A8
330
879F
100
AcDbEntity
  8
DEFPOINTS
 62
     0
100
AcDbPoint
 10
2729.690038106197
 20
2705.395935314897
 30
0.0
  0
POINT
  5
87A9
330
879F
100
AcDbEntity
  8
DEFPOINTS
 62
     0
100
AcDbPoint
 10
4429.690038106198
 20
2705.395935314897
 30
0.0
  0
POINT
  5
87AA
330
879F
100
AcDbEntity
  8
DEFPOINTS
 62
     0
100
AcDbPoint
 10
4429.690038106198
 20
2443.855336810313
 30
0.0
  0
ENDBLK
  5
87A1
330
879F
100
AcDbEntity
  8
0
100
AcDbBlockEnd
  0
ENDSEC
  0
SECTION
  2
ENTITIES
  0
INSERT
  5
7C26
330
83E6
100
AcDbEntity
  8
1
100
AcDbBlockReference
  2
YA_N
 10
6.0
 20
5.0
 30
0.0
  0
LINE
  5
7C27
330
83E6
100
AcDbEntity
  8
2
100
AcDbLine
 10
2729.690038106197
 20
5155.681654420209
 30
0.0
 11
2729.690038106197
 21
2705.395935314897
 31
0.0
  0
ARC
  5
7C28
330
83E6
100
AcDbEntity
  8
1
100
AcDbCircle
 10
2638.690038106199
 20
3891.395935314896
 30
0.0
 40
1170.0
100
AcDbArc
 50
355.539156302126
 51
85.53915630212602
  0
ARC
  5
7C29
330
83E6
100
AcDbEntity
  8
1
100
AcDbCircle
 10
2820.690038106199
 20
3891.395935314896
 30
0.0
 40
988.0
100
AcDbArc
 50
295.6014140473746
 51
354.7152670454654
  0
ARC
  5
7C2A
330
83E6
100
AcDbEntity
  8
1
100
AcDbCircle
 10
2806.690038106197
 20
3723.395935314897
 30
0.0
 40
820.0
100
AcDbArc
 50
177.2424852442078
 51
241.8490068704817
  0
LINE
  5
7C2B
330
83E6
100
AcDbEntity
  8
1
100
AcDbLine
 10
2729.690038106197
 20
5057.851678153003
 30
0.0
 11
1904.690038106198
 21
5134.395935314897
 31
0.0
  0
LINE
  5
7C2C
330
83E6
100
AcDbEntity
  8
1
100
AcDbLine
 10
1979.690038106198
 20
2875.395935314896
 30
0.0
 11
4429.690038106198
 21
2875.395935314896
 31
0.0
1001
ACAD
1000
ASC_BOUNDS
1002
{
1070
    19
1002
}
  0
LINE
  5
7C2D
330
83E6
100
AcDbEntity
  8
1
100
AcDbLine
 10
1979.690038106198
 20
3000.395935314896
 30
0.0
 11
4429.690038106198
 21
3000.395935314896
 31
0.0
  0
LINE
  5
7C2E
330
83E6
100
AcDbEntity
  8
1
100
AcDbLine
 10
1979.690038106198
 20
3000.395935314896
 30
0.0
 11
1979.690038106198
 21
2875.395935314896
 31
0.0
  0
LINE
  5
7C2F
330
83E6
100
AcDbEntity
  8
1
100
AcDbLine
 10
4429.690038106198
 20
3000.395935314896
 30
0.0
 11
4429.690038106198
 21
2875.395935314896
 31
0.0
  0
LINE
  5
7C30
330
83E6
100
AcDbEntity
  8
2
100
AcDbLine
 10
4149.690038106199
 20
3551.250451920608
 30
0.0
 11
4149.690038106199
 21
2705.395935314897
 31
0.0
  0
LINE
  5
7C31
330
83E6
100
AcDbEntity
  8
2
100
AcDbLine
 10
3869.375821348047
 20
3260.395935314897
 30
0.0
 11
4556.854516400913
 21
3260.395935314897
 31
0.0
  0
LINE
  5
7C32
330
83E6
100
AcDbEntity
  8
1
100
AcDbLine
 10
1904.690038106198
 20
3854.395935314897
 30
0.0
 11
1988.654951217595
 21
3854.395935314897
 31
0.0
  0
LINE
  5
7C33
330
83E6
100
AcDbEntity
  8
1
100
AcDbLine
 10
1954.690038106199
 20
5129.756889426296
 30
0.0
 11
1954.690038106199
 21
3854.395935314897
 31
0.0
  0
LINE
  5
7C34
330
83E6
100
AcDbEntity
  8
1
100
AcDbLine
 10
1904.690038106198
 20
5187.395935314897
 30
0.0
 11
1904.690038106198
 21
3801.395935314896
 31
0.0
  0
LINE
  5
7C35
330
83E6
100
AcDbEntity
  8
1
100
AcDbLine
 10
5108.972951952932
 20
2875.395935314896
 30
0.0
 11
7228.972951952934
 21
2875.395935314896
 31
0.0
1001
ACAD
1000
ASC_BOUNDS
1002
{
1070
    19
1005
0
1005
0
1002
}
  0
LINE
  5
7C36
330
83E6
100
AcDbEntity
  8
1
100
AcDbLine
 10
5108.972951952932
 20
3000.395935314896
 30
0.0
 11
7228.972951952932
 21
3000.395935314896
 31
0.0
  0
LINE
  5
7C37
330
83E6
100
AcDbEntity
  8
1
100
AcDbLine
 10
7160.972951952931
 20
5134.395935314897
 30
0.0
 11
7160.972951952935
 21
3854.395935314897
 31
0.0
  0
LINE
  5
7C38
330
83E6
100
AcDbEntity
  8
1
100
AcDbLine
 10
5460.972951952932
 20
5134.395935314897
 30
0.0
 11
5460.972951952932
 21
3854.395935314897
 31
0.0
  0
LINE
  5
7C3C
330
83E6
100
AcDbEntity
  8
2
100
AcDbLine
 10
1826.253499857346
 20
3800.395935314897
 30
0.0
 11
3889.845276024247
 21
3800.395935314897
 31
0.0
  0
LINE
  5
7C3D
330
83E6
100
AcDbEntity
  8
2
100
AcDbLine
 10
5095.672951952932
 20
3800.395935314897
 30
0.0
 11
7344.483438192168
 21
3800.395935314897
 31
0.0
  0
LINE
  5
7C3E
330
83E6
100
AcDbEntity
  8
2
100
AcDbLine
 10
5039.470225356556
 20
3260.395935314897
 30
0.0
 11
6063.214786424338
 21
3260.395935314897
 31
0.0
  0
LINE
  5
7C3F
330
83E6
100
AcDbEntity
  8
1
100
AcDbLine
 10
5115.972951952933
 20
3366.395935314896
 30
0.0
 11
5193.872951952933
 21
3366.395935314896
 31
0.0
  0
LINE
  5
7C40
330
83E6
100
AcDbEntity
  8
1
100
AcDbLine
 10
5115.972951952933
 20
3154.395935314897
 30
0.0
 11
5193.872951952933
 21
3154.395935314897
 31
0.0
  0
LINE
  5
7C41
330
83E6
100
AcDbEntity
  8
1
100
AcDbLine
 10
5213.972951952933
 20
3870.395935314896
 30
0.0
 11
5213.972951952933
 21
3730.395935314897
 31
0.0
  0
LINE
  5
7C42
330
83E6
100
AcDbEntity
  8
1
100
AcDbLine
 10
5193.872951952933
 20
4054.395935314897
 30
0.0
 11
5193.872951952933
 21
3870.395935314896
 31
0.0
  0
LINE
  5
7C43
330
83E6
100
AcDbEntity
  8
1
100
AcDbLine
 10
5193.872951952933
 20
3870.395935314896
 30
0.0
 11
5213.972951952933
 21
3870.395935314896
 31
0.0
  0
LINE
  5
7C44
330
83E6
100
AcDbEntity
  8
1
100
AcDbLine
 10
5193.872951952933
 20
3730.395935314897
 30
0.0
 11
5213.972951952933
 21
3730.395935314897
 31
0.0
  0
LINE
  5
7C45
330
83E6
100
AcDbEntity
  8
1
100
AcDbLine
 10
5193.872951952933
 20
3730.395935314897
 30
0.0
 11
5193.872951952933
 21
3320.395935314897
 31
0.0
  0
LINE
  5
7C46
330
83E6
100
AcDbEntity
  8
1
100
AcDbLine
 10
5115.972951952933
 20
4054.395935314897
 30
0.0
 11
5115.972951952933
 21
3154.395935314897
 31
0.0
  0
LINE
  5
7C47
330
83E6
100
AcDbEntity
  8
1
100
AcDbLine
 10
5208.972951952933
 20
3320.395935314897
 30
0.0
 11
5208.972951952933
 21
3200.395935314896
 31
0.0
  0
LINE
  5
7C48
330
83E6
100
AcDbEntity
  8
1
100
AcDbLine
 10
5193.872951952933
 20
3320.395935314897
 30
0.0
 11
5208.972951952933
 21
3320.395935314897
 31
0.0
  0
LINE
  5
7C49
330
83E6
100
AcDbEntity
  8
1
100
AcDbLine
 10
5193.872951952933
 20
3200.395935314896
 30
0.0
 11
5208.972951952933
 21
3200.395935314896
 31
0.0
  0
LINE
  5
7C4A
330
83E6
100
AcDbEntity
  8
1
100
AcDbLine
 10
5193.872951952933
 20
3200.395935314896
 30
0.0
 11
5193.872951952933
 21
3154.395935314897
 31
0.0
  0
LINE
  5
7C4B
330
83E6
100
AcDbEntity
  8
1
100
AcDbLine
 10
5030.972951952932
 20
3040.395935314896
 30
0.0
 11
5275.972951952933
 21
3040.395935314896
 31
0.0
  0
LINE
  5
7C4C
330
83E6
100
AcDbEntity
  8
1
100
AcDbLine
 10
5030.972951952932
 20
4180.395935314897
 30
0.0
 11
5030.972951952932
 21
3040.395935314896
 31
0.0
  0
LINE
  5
7C4D
330
83E6
100
AcDbEntity
  8
1
100
AcDbLine
 10
5275.972951952932
 20
4180.395935314897
 30
0.0
 11
5275.972951952933
 21
4160.395935314896
 31
0.0
  0
LINE
  5
7C4E
330
83E6
100
AcDbEntity
  8
2
100
AcDbLine
 10
2729.690038106197
 20
8744.506610747107
 30
0.0
 11
2729.690038106197
 21
6364.328933478802
 31
0.0
  0
LINE
  5
7C4F
330
83E6
100
AcDbEntity
  8
2
100
AcDbLine
 10
4149.690038106199
 20
7399.639487144667
 30
0.0
 11
4149.690038106199
 21
6351.209954910519
 31
0.0
  0
LINE
  5
7C50
330
83E6
100
AcDbEntity
  8
2
100
AcDbLine
 10
6310.972951952932
 20
5370.752349861481
 30
0.0
 11
6310.972951952931
 21
2705.395935314897
 31
0.0
  0
POINT
  5
7C51
330
83E6
100
AcDbEntity
  8
1
100
AcDbPoint
 10
2729.690038106197
 20
5155.681654420209
 30
0.0
  0
POINT
  5
7C52
330
83E6
100
AcDbEntity
  8
1
100
AcDbPoint
 10
3804.49032271685
 20
3800.395935314897
 30
0.0
  0
INSERT
  5
7C53
330
83E6
100
AcDbEntity
  8
1
100
AcDbBlockReference
  2
YA_N
 10
-1757.227407310314
 20
-1218.78641745778
 30
0.0
 41
30.0
 42
30.0
 43
30.0
  0
LINE
  5
7C54
330
83E6
100
AcDbEntity
  8
1
100
AcDbLine
 10
1979.690038106198
 20
2770.395935314896
 30
0.0
 11
4429.690038106198
 21
2770.395935314896
 31
0.0
1001
ACAD
1000
ASC_BOUNDS
1002
{
1070
    19
1002
}
  0
LINE
  5
7C55
330
83E6
100
AcDbEntity
  8
1
100
AcDbLine
 10
1979.690038106198
 20
2705.395935314897
 30
0.0
 11
4429.690038106198
 21
2705.395935314897
 31
0.0
  0
LINE
  5
7C56
330
83E6
100
AcDbEntity
  8
1
100
AcDbLine
 10
1979.690038106198
 20
2770.395935314896
 30
0.0
 11
1979.690038106198
 21
2705.395935314897
 31
0.0
  0
LINE
  5
7C57
330
83E6
100
AcDbEntity
  8
1
100
AcDbLine
 10
4429.690038106198
 20
2770.395935314896
 30
0.0
 11
4429.690038106198
 21
2705.395935314897
 31
0.0
  0
ARC
  5
7C58
330
83E6
100
AcDbEntity
  8
1
100
AcDbCircle
 10
4149.690038106199
 20
3260.395935314897
 30
0.0
 40
203.5
100
AcDbArc
 50
285.60376
 51
254.396301
  0
LINE
  5
7C59
330
83E6
100
AcDbEntity
  8
1
100
AcDbLine
 10
4204.428075106199
 20
3064.395935314896
 30
0.0
 11
4094.952001106198
 21
3064.395935314896
 31
0.0
  0
ARC
  5
7C5A
330
83E6
100
AcDbEntity
  8
1
100
AcDbCircle
 10
3963.690038106198
 20
3077.395935314897
 30
0.0
 40
3.0
100
AcDbArc
 50
90.0
 51
180.0
  0
ARC
  5
7C5B
330
83E6
100
AcDbEntity
  8
1
100
AcDbCircle
 10
3965.690038106199
 20
3134.722596314897
 30
0.0
 40
5.000066999999999
100
AcDbArc
 50
124.943665
 51
180.0
  0
LINE
  5
7C5C
330
83E6
100
AcDbEntity
  8
1
100
AcDbLine
 10
3960.690038106199
 20
3134.722596314897
 30
0.0
 11
3960.690038106199
 21
3060.395935314896
 31
0.0
  0
LINE
  5
7C60
330
83E6
100
AcDbEntity
  8
1
100
AcDbLine
 10
4045.587468106197
 20
3085.539124314897
 30
0.0
 11
4040.190038106199
 21
3065.395935314896
 31
0.0
  0
LINE
  5
7C61
330
83E6
100
AcDbEntity
  8
1
100
AcDbLine
 10
4040.190038106199
 20
3077.395935314897
 30
0.0
 11
4040.190038106199
 21
3060.395935314896
 31
0.0
  0
LINE
  5
7C62
330
83E6
100
AcDbEntity
  8
1
100
AcDbLine
 10
4037.190038106198
 20
3080.395935314896
 30
0.0
 11
3963.690038106198
 21
3080.395935314896
 31
0.0
  0
ARC
  5
7C63
330
83E6
100
AcDbEntity
  8
1
100
AcDbCircle
 10
4037.190038106198
 20
3077.395935314897
 30
0.0
 40
3.0
100
AcDbArc
 50
0.0
 51
90.0
  0
LINE
  5
7C64
330
83E6
100
AcDbEntity
  8
1
100
AcDbLine
 10
3962.826268106199
 20
3138.821228314897
 30
0.0
 11
3978.764134106199
 21
3149.957703314897
 31
0.0
  0
LINE
  5
7C65
330
83E6
100
AcDbEntity
  8
1
100
AcDbLine
 10
4338.690038106197
 20
3134.722596314897
 30
0.0
 11
4338.690038106197
 21
3060.395935314896
 31
0.0
  0
LINE
  5
7C69
330
83E6
100
AcDbEntity
  8
1
100
AcDbLine
 10
4253.792821106198
 20
3085.539246314897
 30
0.0
 11
4259.190038106199
 21
3065.395935314896
 31
0.0
  0
LINE
  5
7C6A
330
83E6
100
AcDbEntity
  8
1
100
AcDbLine
 10
4259.190038106199
 20
3077.395935314897
 30
0.0
 11
4259.190038106199
 21
3060.395935314896
 31
0.0
  0
LINE
  5
7C6B
330
83E6
100
AcDbEntity
  8
1
100
AcDbLine
 10
4262.190038106199
 20
3080.395935314896
 30
0.0
 11
4335.690038106199
 21
3080.395935314896
 31
0.0
  0
ARC
  5
7C6C
330
83E6
100
AcDbEntity
  8
1
100
AcDbCircle
 10
4262.190038106199
 20
3077.395935314897
 30
0.0
 40
3.0
100
AcDbArc
 50
90.0
 51
180.0
  0
ARC
  5
7C6D
330
83E6
100
AcDbEntity
  8
1
100
AcDbCircle
 10
4335.690038106199
 20
3077.395935314897
 30
0.0
 40
3.0
100
AcDbArc
 50
0.0
 51
90.0
  0
LINE
  5
7C6E
330
83E6
100
AcDbEntity
  8
1
100
AcDbLine
 10
4336.553929106197
 20
3138.821228314897
 30
0.0
 11
4320.616063106198
 21
3149.957703314897
 31
0.0
  0
ARC
  5
7C6F
330
83E6
100
AcDbEntity
  8
1
100
AcDbCircle
 10
4333.690038106198
 20
3134.722596314897
 30
0.0
 40
5.0
100
AcDbArc
 50
0.0
 51
55.05633899999998
  0
LINE
  5
7C70
330
83E6
100
AcDbEntity
  8
1
100
AcDbLine
 10
3906.267013063589
 20
3060.395935314896
 30
0.0
 11
4079.690038106199
 21
3060.395935314896
 31
0.0
  0
LINE
  5
7C71
330
83E6
100
AcDbEntity
  8
1
100
AcDbLine
 10
3889.690038106198
 20
3000.395935314896
 30
0.0
 11
3906.267013063589
 21
3060.395935314896
 31
0.0
  0
LINE
  5
7C72
330
83E6
100
AcDbEntity
  8
1
100
AcDbLine
 10
4409.690038106197
 20
3000.395935314896
 30
0.0
 11
4393.50908156108
 21
3060.395935314896
 31
0.0
  0
LINE
  5
7C73
330
83E6
100
AcDbEntity
  8
1
100
AcDbLine
 10
4079.690038106199
 20
3050.395935314897
 30
0.0
 11
4219.690038106199
 21
3050.395935314897
 31
0.0
  0
LINE
  5
7C75
330
83E6
100
AcDbEntity
  8
1
100
AcDbLine
 10
4219.690038106199
 20
3060.395935314896
 30
0.0
 11
4219.690038106199
 21
3050.395935314897
 31
0.0
  0
LINE
  5
7C76
330
83E6
100
AcDbEntity
  8
1
100
AcDbLine
 10
4079.690038106199
 20
3060.395935314896
 30
0.0
 11
4079.690038106199
 21
3050.395935314897
 31
0.0
  0
LINE
  5
7C79
330
83E6
100
AcDbEntity
  8
1
100
AcDbLine
 10
4219.690038106199
 20
3060.395935314896
 30
0.0
 11
4393.50908156108
 21
3060.395935314896
 31
0.0
  0
INSERT
  5
7C7A
330
83E6
100
AcDbEntity
  8
1
100
AcDbBlockReference
  2
YA_N
 10
-755.2436758818473
 20
-538.554984833856
 30
0.0
 41
30.0
 42
30.0
 43
30.0
  0
LINE
  5
7C7B
330
83E6
100
AcDbEntity
  8
1
100
AcDbLine
 10
5108.97295195293
 20
2770.395935314896
 30
0.0
 11
7228.972951952932
 21
2770.395935314896
 31
0.0
1001
ACAD
1000
ASC_BOUNDS
1002
{
1070
    19
1005
0
1005
0
1002
}
  0
LINE
  5
7C7C
330
83E6
100
AcDbEntity
  8
1
100
AcDbLine
 10
5108.972951952932
 20
2705.395935314897
 30
0.0
 11
7228.972951952934
 21
2705.395935314897
 31
0.0
  0
LINE
  5
7C7D
330
83E6
100
AcDbEntity
  8
1
100
AcDbLine
 10
7228.972951952934
 20
2770.395935314896
 30
0.0
 11
7228.972951952934
 21
2705.395935314897
 31
0.0
  0
CIRCLE
  5
7C84
330
83E6
100
AcDbEntity
  8
1
100
AcDbCircle
 10
4149.690038106199
 20
3260.395935314897
 30
0.0
 40
107.0
  0
POINT
  5
7C85
330
83E6
100
AcDbEntity
  8
1
100
AcDbPoint
 10
1979.690038106198
 20
2770.395935314896
 30
0.0
  0
POINT
  5
7C86
330
83E6
100
AcDbEntity
  8
1
100
AcDbPoint
 10
1979.690038106198
 20
2875.395935314896
 30
0.0
  0
POINT
  5
7C87
330
83E6
100
AcDbEntity
  8
1
100
AcDbPoint
 10
1979.690038106198
 20
2770.395935314896
 30
0.0
  0
LINE
  5
7C8A
330
83E6
100
AcDbEntity
  8
1
100
AcDbLine
 10
5460.972951952932
 20
5134.395935314897
 30
0.0
 11
7160.972951952932
 21
5134.395935314897
 31
0.0
  0
LINE
  5
7C8B
330
83E6
100
AcDbEntity
  8
1
100
AcDbLine
 10
7160.972951952931
 20
3854.395935314897
 30
0.0
 11
7160.972951952932
 21
3000.395935314896
 31
0.0
  0
LINE
  5
7C8C
330
83E6
100
AcDbEntity
  8
1
100
AcDbLine
 10
5460.972951952932
 20
3854.395935314897
 30
0.0
 11
5460.972951952932
 21
3470.3959353149
 31
0.0
  0
ARC
  5
7C8D
330
83E6
100
AcDbEntity
  8
1
100
AcDbCircle
 10
2729.690038106197
 20
3800.395935314897
 30
0.0
 40
625.0
100
AcDbArc
 50
0.0
 51
180.0
  0
ARC
  5
7C8E
330
83E6
100
AcDbEntity
  8
1
100
AcDbCircle
 10
2729.690038106197
 20
3800.395935314897
 30
0.0
 40
675.0
100
AcDbArc
 50
0.0
 51
180.0
  0
LINE
  5
7C8F
330
83E6
100
AcDbEntity
  8
1
100
AcDbLine
 10
3064.690038106198
 20
3002.395935314897
 30
0.0
 11
3064.690038106198
 21
3000.395935314896
 31
0.0
  0
ARC
  5
7C90
330
83E6
100
AcDbEntity
  8
1
100
AcDbCircle
 10
2729.690038106197
 20
3800.395935314897
 30
0.0
 40
625.0
100
AcDbArc
 50
270.0
 51
0.0
  0
ARC
  5
7C91
330
83E6
100
AcDbEntity
  8
1
100
AcDbCircle
 10
2729.690038106197
 20
3800.395935314897
 30
0.0
 40
675.0
100
AcDbArc
 50
270.0
 51
0.0
  0
LINE
  5
7C92
330
83E6
100
AcDbEntity
  8
1
100
AcDbLine
 10
1979.690038106198
 20
8644.822268021341
 30
0.0
 11
3479.690038106197
 21
8644.822268021341
 31
0.0
  0
LINE
  5
7C93
330
83E6
100
AcDbEntity
  8
1
100
AcDbLine
 10
1979.690038106198
 20
6524.822268021342
 30
0.0
 11
4429.690038106198
 21
6524.822268021342
 31
0.0
  0
LINE
  5
7C94
330
83E6
100
AcDbEntity
  8
1
100
AcDbLine
 10
1979.690038106198
 20
8644.822268021341
 30
0.0
 11
1979.690038106198
 21
8576.822268021343
 31
0.0
  0
LINE
  5
7C95
330
83E6
100
AcDbEntity
  8
1
100
AcDbLine
 10
4429.690038106198
 20
7524.822268021342
 30
0.0
 11
4429.690038106198
 21
6524.822268021342
 31
0.0
  0
LINE
  5
7C96
330
83E6
100
AcDbEntity
  8
1
100
AcDbLine
 10
3479.690038106197
 20
8644.822268021341
 30
0.0
 11
3479.690038106197
 21
8576.822268021343
 31
0.0
  0
LINE
  5
7C97
330
83E6
100
AcDbEntity
  8
1
100
AcDbLine
 10
3808.690038106199
 20
7524.822268021342
 30
0.0
 11
4429.690038106198
 21
7524.822268021342
 31
0.0
  0
LINE
  5
7C99
330
83E6
100
AcDbEntity
  8
1
100
AcDbLine
 10
5303.472951952932
 20
3724.395935314896
 30
0.0
 11
5303.472951952932
 21
3594.395935314897
 31
0.0
  0
LINE
  5
7C9A
330
83E6
100
AcDbEntity
  8
1
100
AcDbLine
 10
5443.472951952932
 20
3734.395935314896
 30
0.0
 11
5443.472951952932
 21
3584.395935314896
 31
0.0
  0
LINE
  5
7C9B
330
83E6
100
AcDbEntity
  8
1
100
AcDbLine
 10
5313.472951952933
 20
3734.395935314896
 30
0.0
 11
5383.672951952935
 21
3734.395935314896
 31
0.0
  0
LINE
  5
7C9C
330
83E6
100
AcDbEntity
  8
1
100
AcDbLine
 10
5313.472951952933
 20
3584.395935314896
 30
0.0
 11
5383.672951952935
 21
3584.395935314896
 31
0.0
  0
ARC
  5
7C9D
330
83E6
100
AcDbEntity
  8
1
100
AcDbCircle
 10
5313.472951952933
 20
3724.395935314896
 30
0.0
 40
10.0
100
AcDbArc
 50
90.0
 51
180.0
  0
ARC
  5
7C9E
330
83E6
100
AcDbEntity
  8
1
100
AcDbCircle
 10
5313.472951952933
 20
3594.395935314897
 30
0.0
 40
10.0
100
AcDbArc
 50
180.0
 51
270.0
  0
LINE
  5
7C9F
330
83E6
100
AcDbEntity
  8
1
100
AcDbLine
 10
5383.672951952933
 20
3584.395935314896
 30
0.0
 11
5443.472951952932
 21
3584.395935314896
 31
0.0
  0
LINE
  5
7CA0
330
83E6
100
AcDbEntity
  8
1
100
AcDbLine
 10
5383.672951952933
 20
3734.395935314896
 30
0.0
 11
5443.472951952932
 21
3734.395935314896
 31
0.0
  0
LINE
  5
7CA1
330
83E6
100
AcDbEntity
  8
1
100
AcDbLine
 10
7330.972951952931
 20
3724.395935314896
 30
0.0
 11
7330.972951952931
 21
3594.395935314897
 31
0.0
  0
LINE
  5
7CA2
330
83E6
100
AcDbEntity
  8
1
100
AcDbLine
 10
7178.472951952932
 20
3734.395935314896
 30
0.0
 11
7178.472951952932
 21
3584.395935314896
 31
0.0
  0
LINE
  5
7CA3
330
83E6
100
AcDbEntity
  8
1
100
AcDbLine
 10
7320.972951952933
 20
3584.395935314896
 30
0.0
 11
7238.272951952932
 21
3584.395935314896
 31
0.0
  0
ARC
  5
7CA4
330
83E6
100
AcDbEntity
  8
1
100
AcDbCircle
 10
7320.972951952933
 20
3594.395935314897
 30
0.0
 40
10.0
100
AcDbArc
 50
270.0
 51
0.0
  0
LINE
  5
7CA5
330
83E6
100
AcDbEntity
  8
1
100
AcDbLine
 10
7238.272951952932
 20
3584.395935314896
 30
0.0
 11
7178.472951952932
 21
3584.395935314896
 31
0.0
  0
LINE
  5
7CA6
330
83E6
100
AcDbEntity
  8
1
100
AcDbLine
 10
7320.972951952933
 20
3734.395935314896
 30
0.0
 11
7238.272951952932
 21
3734.395935314896
 31
0.0
  0
ARC
  5
7CA7
330
83E6
100
AcDbEntity
  8
1
100
AcDbCircle
 10
7320.972951952933
 20
3724.395935314896
 30
0.0
 40
10.0
100
AcDbArc
 50
0.0
 51
90.0
  0
LINE
  5
7CA8
330
83E6
100
AcDbEntity
  8
1
100
AcDbLine
 10
7238.272951952932
 20
3734.395935314896
 30
0.0
 11
7178.472951952932
 21
3734.395935314896
 31
0.0
  0
ARC
  5
7CAC
330
83E6
100
AcDbEntity
  8
1
100
AcDbCircle
 10
2729.690038106197
 20
3800.395935314897
 30
0.0
 40
675.0
100
AcDbArc
 50
180.0
 51
270.0
  0
ARC
  5
7CAD
330
83E6
100
AcDbEntity
  8
1
100
AcDbCircle
 10
2729.690038106197
 20
3800.395935314897
 30
0.0
 40
625.0
100
AcDbArc
 50
180.0
 51
270.0
  0
CIRCLE
  5
7CB1
330
83E6
100
AcDbEntity
  8
1
100
AcDbCircle
 10
2729.690038106197
 20
3800.395935314897
 30
0.0
 40
254.0
  0
ARC
  5
7CB2
330
83E6
100
AcDbEntity
  8
1
100
AcDbCircle
 10
2729.690038106197
 20
3800.395935314897
 30
0.0
 40
380.0
100
AcDbArc
 50
63.13362624742479
 51
255.2245880459536
  0
ARC
  5
7CB3
330
83E6
100
AcDbEntity
  8
1
100
AcDbCircle
 10
4149.690038106199
 20
3260.395935314897
 30
0.0
 40
220.0
100
AcDbArc
 50
255.2245880459536
 51
63.13362624742479
  0
LINE
  5
7CB4
330
83E6
100
AcDbEntity
  8
1
100
AcDbLine
 10
2901.416311396942
 20
4139.379839153519
 30
0.0
 11
4249.110512116629
 21
3456.649774379362
 31
0.0
  0
LINE
  5
7CB5
330
83E6
100
AcDbEntity
  8
1
100
AcDbLine
 10
2842.52239638683
 20
4027.958803386186
 30
0.0
 11
4197.221779586622
 21
3356.259033281936
 31
0.0
  0
LINE
  5
7CB6
330
83E6
100
AcDbEntity
  8
1
100
AcDbLine
 10
2662.802185891425
 20
3555.361212824197
 30
0.0
 11
4121.512872015722
 21
3157.172646706609
 31
0.0
  0
LINE
  5
7CB7
330
83E6
100
AcDbEntity
  8
1
100
AcDbLine
 10
2632.778322874381
 20
3432.961424890486
 30
0.0
 11
4093.583255603568
 21
3047.670692437606
 31
0.0
  0
POINT
  5
7CBF
330
83E6
100
AcDbEntity
  8
1
100
AcDbPoint
 10
1979.690038106198
 20
2770.395935314896
 30
0.0
  0
POINT
  5
7CC7
330
83E6
100
AcDbEntity
  8
1
100
AcDbPoint
 10
1979.690038106198
 20
2770.395935314896
 30
0.0
  0
POINT
  5
7CC8
330
83E6
100
AcDbEntity
  8
1
100
AcDbPoint
 10
1979.690038106198
 20
2875.395935314896
 30
0.0
  0
ARC
  5
7CCC
330
83E6
100
AcDbEntity
  8
1
100
AcDbCircle
 10
2729.690038106197
 20
3800.395935314897
 30
0.0
 40
743.0
100
AcDbArc
 50
175.8321636778381
 51
182.8969080410259
  0
LINE
  5
7CCD
330
83E6
100
AcDbEntity
  8
1
100
AcDbLine
 10
5115.972951952933
 20
4054.395935314897
 30
0.0
 11
5193.872951952933
 21
4054.395935314897
 31
0.0
  0
LINE
  5
7CCE
330
83E6
100
AcDbEntity
  8
1
100
AcDbLine
 10
5115.972951952933
 20
3546.395935314897
 30
0.0
 11
5193.872951952933
 21
3546.395935314897
 31
0.0
  0
LINE
  5
7CCF
330
83E6
100
AcDbEntity
  8
1
100
AcDbLine
 10
5030.972951952932
 20
4180.395935314897
 30
0.0
 11
5275.972951952931
 21
4180.395935314897
 31
0.0
  0
LINE
  5
7CD0
330
83E6
100
AcDbEntity
  8
1
100
AcDbLine
 10
5275.972951952933
 20
3060.395935314896
 30
0.0
 11
5275.972951952933
 21
3040.395935314896
 31
0.0
  0
INSERT
  5
7CD1
330
83E6
100
AcDbEntity
  8
1
100
AcDbBlockReference
  2
YA_N
 10
4767.943419715615
 20
-1494.695868425496
 30
0.0
  0
LINE
  5
7CD2
330
83E6
100
AcDbEntity
  8
1
100
AcDbLine
 10
7228.972951952934
 20
3000.395935314896
 30
0.0
 11
7228.972951952934
 21
2875.395935314896
 31
0.0
  0
LINE
  5
7CD3
330
83E6
100
AcDbEntity
  8
1
100
AcDbLine
 10
5108.972951952932
 20
2770.395935314896
 30
0.0
 11
5108.972951952932
 21
2705.395935314897
 31
0.0
  0
LINE
  5
7CD4
330
83E6
100
AcDbEntity
  8
1
100
AcDbLine
 10
5108.972951952932
 20
3000.395935314896
 30
0.0
 11
5108.972951952932
 21
2875.395935314896
 31
0.0
  0
LINE
  5
7CD8
330
83E6
100
AcDbEntity
  8
1
100
AcDbLine
 10
5213.972951952933
 20
3837.895935314897
 30
0.0
 11
5460.972951952932
 21
3837.895935314897
 31
0.0
  0
LINE
  5
7CD9
330
83E6
100
AcDbEntity
  8
1
100
AcDbLine
 10
5213.972951952933
 20
3762.895935314896
 30
0.0
 11
5460.972951952931
 21
3762.895935314896
 31
0.0
  0
LINE
  5
7CDC
330
83E6
100
AcDbEntity
  8
1
100
AcDbLine
 10
5304.922951952932
 20
3060.395935314896
 30
0.0
 11
5304.922951952931
 21
3260.395935314897
 31
0.0
  0
LINE
  5
7CDD
330
83E6
100
AcDbEntity
  8
1
100
AcDbLine
 10
5304.922951952935
 20
3060.395935314897
 30
0.0
 11
5954.422951952931
 21
3060.3959353149
 31
0.0
  0
LINE
  5
7CDE
330
83E6
100
AcDbEntity
  8
1
100
AcDbLine
 10
5954.422951952935
 20
3470.395935314901
 30
0.0
 11
5304.92295195293
 21
3470.395935314897
 31
0.0
  0
LINE
  5
7CDF
330
83E6
100
AcDbEntity
  8
1
100
AcDbLine
 10
5294.922951952933
 20
3230.395935314897
 30
0.0
 11
5208.972951952933
 21
3230.395935314897
 31
0.0
  0
LINE
  5
7CE0
330
83E6
100
AcDbEntity
  8
1
100
AcDbLine
 10
5294.922951952933
 20
3290.395935314897
 30
0.0
 11
5208.972951952933
 21
3290.395935314897
 31
0.0
  0
LINE
  5
7CE1
330
83E6
100
AcDbEntity
  8
1
100
AcDbLine
 10
5304.922951952931
 20
3470.395935314897
 30
0.0
 11
5304.922951952931
 21
3260.395935314897
 31
0.0
  0
LINE
  5
7CE2
330
83E6
100
AcDbEntity
  8
1
100
AcDbLine
 10
5294.922951952933
 20
3227.895935314897
 30
0.0
 11
5294.922951952933
 21
3292.895935314897
 31
0.0
  0
LINE
  5
7CE3
330
83E6
100
AcDbEntity
  8
1
100
AcDbLine
 10
5294.922951952933
 20
3227.895935314897
 30
0.0
 11
5304.922951952931
 21
3227.895935314897
 31
0.0
  0
LINE
  5
7CE4
330
83E6
100
AcDbEntity
  8
1
100
AcDbLine
 10
5294.922951952933
 20
3292.895935314897
 30
0.0
 11
5304.922951952931
 21
3292.895935314897
 31
0.0
  0
LINE
  5
7CF3
330
83E6
100
AcDbEntity
  8
2
100
AcDbLine
 10
1753.862917384478
 20
7726.822268021344
 30
0.0
 11
3738.690038106198
 21
7726.822268021343
 31
0.0
  0
LINE
  5
7CF4
330
83E6
100
AcDbEntity
  8
1
100
AcDbLine
 10
2349.690038106198
 20
6446.822268021344
 30
0.0
 11
4369.690038106198
 21
6446.822268021344
 31
0.0
  0
LINE
  5
7CF5
330
83E6
100
AcDbEntity
  8
1
100
AcDbLine
 10
2475.690038106199
 20
6531.822268021343
 30
0.0
 11
2983.690038106198
 21
6531.822268021343
 31
0.0
  0
LINE
  5
7CF6
330
83E6
100
AcDbEntity
  8
1
100
AcDbLine
 10
2799.690038106199
 20
6609.722268021343
 30
0.0
 11
2983.690038106198
 21
6609.722268021343
 31
0.0
  0
LINE
  5
7CF7
330
83E6
100
AcDbEntity
  8
1
100
AcDbLine
 10
4179.690038106198
 20
6710.772268021344
 30
0.0
 11
4179.690038106198
 21
6624.822268021344
 31
0.0
  0
LINE
  5
7CF8
330
83E6
100
AcDbEntity
  8
1
100
AcDbLine
 10
4119.690038106198
 20
6710.772268021344
 30
0.0
 11
4119.690038106198
 21
6624.822268021344
 31
0.0
  0
LINE
  5
7CF9
330
83E6
100
AcDbEntity
  8
1
100
AcDbLine
 10
4369.690038106198
 20
6446.822268021344
 30
0.0
 11
4369.690038106198
 21
6691.822268021344
 31
0.0
  0
LINE
  5
7CFA
330
83E6
100
AcDbEntity
  8
1
100
AcDbLine
 10
3529.690038106199
 20
6524.822268021343
 30
0.0
 11
3654.690038106199
 21
6524.822268021343
 31
0.0
  0
LINE
  5
7CFB
330
83E6
100
AcDbEntity
  8
1
100
AcDbLine
 10
3673.690038106197
 20
6524.822268021342
 30
0.0
 11
3738.690038106198
 21
6524.822268021345
 31
0.0
  0
LINE
  5
7CFC
330
83E6
100
AcDbEntity
  8
1
100
AcDbLine
 10
4089.690038106199
 20
6624.822268021344
 30
0.0
 11
4209.690038106198
 21
6624.822268021344
 31
0.0
  0
LINE
  5
7CFD
330
83E6
100
AcDbEntity
  8
1
100
AcDbLine
 10
4209.690038106198
 20
6609.722268021343
 30
0.0
 11
4255.690038106197
 21
6609.722268021343
 31
0.0
  0
LINE
  5
7CFE
330
83E6
100
AcDbEntity
  8
1
100
AcDbLine
 10
4255.690038106197
 20
6531.822268021343
 30
0.0
 11
4255.690038106197
 21
6609.722268021343
 31
0.0
  0
LINE
  5
7CFF
330
83E6
100
AcDbEntity
  8
1
100
AcDbLine
 10
4209.690038106198
 20
6609.722268021343
 30
0.0
 11
4209.690038106198
 21
6624.822268021344
 31
0.0
  0
LINE
  5
7D00
330
83E6
100
AcDbEntity
  8
1
100
AcDbLine
 10
4043.690038106197
 20
6531.822268021343
 30
0.0
 11
4043.690038106197
 21
6609.722268021343
 31
0.0
  0
LINE
  5
7D01
330
83E6
100
AcDbEntity
  8
1
100
AcDbLine
 10
4089.690038106199
 20
6609.722268021343
 30
0.0
 11
4089.690038106199
 21
6624.822268021344
 31
0.0
  0
LINE
  5
7D02
330
83E6
100
AcDbEntity
  8
1
100
AcDbLine
 10
2983.690038106198
 20
6531.822268021343
 30
0.0
 11
2983.690038106198
 21
6609.722268021343
 31
0.0
  0
LINE
  5
7D03
330
83E6
100
AcDbEntity
  8
1
100
AcDbLine
 10
3939.690038106199
 20
6720.772268021343
 30
0.0
 11
4149.690038106199
 21
6720.772268021343
 31
0.0
  0
LINE
  5
7D04
330
83E6
100
AcDbEntity
  8
1
100
AcDbLine
 10
4182.190038106198
 20
6710.772268021344
 30
0.0
 11
4117.190038106198
 21
6710.772268021344
 31
0.0
  0
LINE
  5
7D05
330
83E6
100
AcDbEntity
  8
1
100
AcDbLine
 10
4349.690038106198
 20
6720.772268021345
 30
0.0
 11
4349.690038106192
 21
7370.272268021344
 31
0.0
  0
LINE
  5
7D06
330
83E6
100
AcDbEntity
  8
1
100
AcDbLine
 10
4349.690038106198
 20
6720.772268021345
 30
0.0
 11
4149.690038106199
 21
6720.772268021343
 31
0.0
  0
LINE
  5
7D07
330
83E6
100
AcDbEntity
  8
1
100
AcDbLine
 10
4182.190038106198
 20
6710.772268021344
 30
0.0
 11
4182.190038106198
 21
6720.772268021343
 31
0.0
  0
LINE
  5
7D08
330
83E6
100
AcDbEntity
  8
1
100
AcDbLine
 10
4349.690038106197
 20
6896.272268021346
 30
0.0
 11
4348.690038106197
 21
6896.272268021346
 31
0.0
  0
LINE
  5
7D09
330
83E6
100
AcDbEntity
  8
1
100
AcDbLine
 10
3939.690038106192
 20
7370.272268021342
 30
0.0
 11
3939.690038106199
 21
6720.772268021343
 31
0.0
  0
LINE
  5
7D0A
330
83E6
100
AcDbEntity
  8
1
100
AcDbLine
 10
4117.190038106198
 20
6710.772268021344
 30
0.0
 11
4117.190038106198
 21
6720.772268021343
 31
0.0
  0
LINE
  5
7D0B
330
83E6
100
AcDbEntity
  8
1
100
AcDbLine
 10
2767.190038106198
 20
6629.822268021344
 30
0.0
 11
2767.190038106198
 21
6876.822268021341
 31
0.0
  0
LINE
  5
7D0C
330
83E6
100
AcDbEntity
  8
1
100
AcDbLine
 10
2692.190038106199
 20
6629.822268021344
 30
0.0
 11
2692.190038106199
 21
6876.822268021341
 31
0.0
  0
LINE
  5
7D0D
330
83E6
100
AcDbEntity
  8
1
100
AcDbLine
 10
2349.690038106198
 20
6446.822268021342
 30
0.0
 11
2349.690038106198
 21
6691.822268021342
 31
0.0
  0
LINE
  5
7D0E
330
83E6
100
AcDbEntity
  8
1
100
AcDbLine
 10
2659.690038106198
 20
6629.822268021344
 30
0.0
 11
2799.690038106199
 21
6629.822268021344
 31
0.0
  0
LINE
  5
7D0F
330
83E6
100
AcDbEntity
  8
1
100
AcDbLine
 10
2799.690038106199
 20
6609.722268021343
 30
0.0
 11
2799.690038106199
 21
6629.822268021344
 31
0.0
  0
LINE
  5
7D10
330
83E6
100
AcDbEntity
  8
1
100
AcDbLine
 10
2475.690038106199
 20
6609.722268021343
 30
0.0
 11
2659.690038106198
 21
6609.722268021343
 31
0.0
  0
LINE
  5
7D11
330
83E6
100
AcDbEntity
  8
1
100
AcDbLine
 10
2659.690038106198
 20
6609.722268021343
 30
0.0
 11
2659.690038106198
 21
6629.822268021344
 31
0.0
  0
LINE
  5
7D12
330
83E6
100
AcDbEntity
  8
1
100
AcDbLine
 10
2475.690038106199
 20
6531.822268021343
 30
0.0
 11
2475.690038106199
 21
6609.722268021343
 31
0.0
  0
LINE
  5
7D13
330
83E6
100
AcDbEntity
  8
1
100
AcDbLine
 10
2349.690038106198
 20
6691.822268021343
 30
0.0
 11
4369.690038106198
 21
6691.822268021436
 31
0.0
  0
LINE
  5
7D15
330
83E6
100
AcDbEntity
  8
1
100
AcDbLine
 10
4349.690038106196
 20
7370.272268021344
 30
0.0
 11
3939.690038106192
 21
7370.272268021342
 31
0.0
  0
LINE
  5
7D16
330
83E6
100
AcDbEntity
  8
1
100
AcDbLine
 10
1904.690038106198
 20
8576.822268021343
 30
0.0
 11
3808.690038106198
 21
8576.822268021343
 31
0.0
  0
LINE
  5
7D17
330
83E6
100
AcDbEntity
  8
1
100
AcDbLine
 10
1904.690038106198
 20
6876.822268021341
 30
0.0
 11
3808.690038106199
 21
6876.822268021341
 31
0.0
  0
LINE
  5
7D18
330
83E6
100
AcDbEntity
  8
1
100
AcDbLine
 10
1904.690038106198
 20
8626.822268021344
 30
0.0
 11
1904.690038106198
 21
6826.822268021341
 31
0.0
  0
LINE
  5
7D19
330
83E6
100
AcDbEntity
  8
1
100
AcDbLine
 10
3808.690038106199
 20
8576.822268021343
 30
0.0
 11
3808.690038106199
 21
6876.822268021341
 31
0.0
  0
LINE
  5
7D1A
330
83E6
100
AcDbEntity
  8
1
100
AcDbLine
 10
1979.690038106198
 20
6876.822268021341
 30
0.0
 11
1979.690038106198
 21
6524.82226802134
 31
0.0
  0
LINE
  5
7D1B
330
83E6
100
AcDbEntity
  8
1
100
AcDbLine
 10
4043.690038106197
 20
6609.722268021343
 30
0.0
 11
4089.690038106199
 21
6609.722268021343
 31
0.0
  0
LINE
  5
7D1C
330
83E6
100
AcDbEntity
  8
1
100
AcDbLine
 10
4043.690038106197
 20
6531.822268021343
 30
0.0
 11
4255.690038106197
 21
6531.822268021343
 31
0.0
  0
LINE
  5
7D25
330
83E6
100
AcDbEntity
  8
1
100
AcDbLine
 10
5954.422951952931
 20
3470.395935314897
 30
0.0
 11
5954.422951952935
 21
3060.3959353149
 31
0.0
  0
LINE
  5
7D26
330
83E6
100
AcDbEntity
  8
1
100
AcDbLine
 10
5460.972951952932
 20
3060.395935314898
 30
0.0
 11
5460.972951952932
 21
3000.395935314896
 31
0.0
  0
LINE
  5
7D27
330
83E6
100
AcDbEntity
  8
1
100
AcDbLine
 10
5858.981987928985
 20
3060.395935314899
 30
0.0
 11
5858.981987928985
 21
3000.395935314896
 31
0.0
  0
LINE
  5
80A8
330
83E6
100
AcDbEntity
  8
4
100
AcDbLine
 10
7400.0
 20
2000.0
 30
0.0
 11
7400.0
 21
1200.0
 31
0.0
  0
LINE
  5
80A9
330
83E6
100
AcDbEntity
  8
4
100
AcDbLine
 10
4600.0
 20
2000.0
 30
0.0
 11
4600.0
 21
1200.0
 31
0.0
  0
LINE
  5
80AA
330
83E6
100
AcDbEntity
  8
4
100
AcDbLine
 10
2600.0
 20
2000.0
 30
0.0
 11
2600.0
 21
1200.0
 31
0.0
  0
LINE
  5
80AD
330
83E6
100
AcDbEntity
  8
4
100
AcDbLine
 10
2600.0
 20
1200.0
 30
0.0
 11
7400.0
 21
1200.0
 31
0.0
  0
LINE
  5
80AE
330
83E6
100
AcDbEntity
  8
4
100
AcDbLine
 10
2600.0
 20
1600.0
 30
0.0
 11
7400.0
 21
1600.0
 31
0.0
  0
TEXT
  5
80AF
330
83E6
100
AcDbEntity
  8
4
100
AcDbText
 10
2754.008323387607
 20
1726.172103466451
 30
0.0
 40
200.0
  1
機器名称
100
AcDbText
  0
TEXT
  5
80B0
330
83E6
100
AcDbEntity
  8
4
100
AcDbText
 10
2745.03242409919
 20
1286.580626928043
 30
0.0
 40
200.0
  1
機器型番
100
AcDbText
  0
TEXT
  5
80B1
330
83E6
100
AcDbEntity
  8
4
100
AcDbText
 10
4710.714981950659
 20
1690.287075830274
 30
0.0
 40
200.0
  1
ミツヤ多翼送風機
100
AcDbText
  0
TEXT
  5
80B2
330
83E6
100
AcDbEntity
  8
4
100
AcDbText
 10
4746.617982341923
 20
1268.638337119773
 30
0.0
 40
200.0
  1
MF#8-5
100
AcDbText
  0
TEXT
  5
80B4
330
83E6
100
AcDbEntity
  8
4
100
AcDbText
 10
3239.654031888807
 20
9533.715365330063
 30
0.0
 40
215.9999999999999
  1
床置防振ベット
100
AcDbText
  0
TEXT
  5
80B5
330
83E6
100
AcDbEntity
  8
4
100
AcDbText
 10
1264.670373317785
 20
10135.52390479719
 30
0.0
 40
288.0
  1
遠心式両吸込両持多翼ファン
100
AcDbText
  0
LINE
  5
80B6
330
83E6
100
AcDbEntity
  8
4
100
AcDbLine
 10
1000.0
 20
9877.635017059219
 30
0.0
 11
7400.0
 21
9877.635017059219
 31
0.0
  0
LINE
  5
80B7
330
83E6
100
AcDbEntity
  8
4
100
AcDbLine
 10
1000.0
 20
10677.63501705921
 30
0.0
 11
7400.0
 21
10677.63501705921
 31
0.0
  0
LINE
  5
80B8
330
83E6
100
AcDbEntity
  8
4
100
AcDbLine
 10
2600.0
 20
2000.0
 30
0.0
 11
7400.0
 21
2000.0
 31
0.0
  0
LINE
  5
80B9
330
83E6
100
AcDbEntity
  8
4
100
AcDbLine
 10
1000.0
 20
10677.63501705921
 30
0.0
 11
1000.0
 21
9877.635017059219
 31
0.0
  0
TEXT
  5
80BA
330
83E6
100
AcDbEntity
  8
4
100
AcDbText
 10
1496.218702917998
 20
9529.277910185374
 30
0.0
 40
215.9999999999999
  1
左回転左横向
100
AcDbText
  0
TEXT
  5
80BB
330
83E6
100
AcDbEntity
  8
4
100
AcDbText
 10
5875.878236997159
 20
10824.24432598123
 30
0.0
 40
224.0
  1
No.
100
AcDbText
  0
TEXT
  5
80BC
330
83E6
100
AcDbEntity
  8
4
100
AcDbText
 10
5245.184250400053
 20
9533.715365330063
 30
0.0
 40
215.9999999999999
  1
縮尺：1/40
100
AcDbText
  0
LINE
  5
80BD
330
83E6
100
AcDbEntity
  8
4
100
AcDbLine
 10
7400.0
 20
10677.63501705921
 30
0.0
 11
7400.0
 21
9877.635017059219
 31
0.0
  0
LINE
  5
80BE
330
83E6
100
AcDbEntity
  8
4
100
AcDbLine
 10
8400.0
 20
11800.0
 30
0.0
 11
8400.0
 21
11800.0
 31
0.0
  0
LINE
  5
80BF
330
83E6
100
AcDbEntity
  8
4
100
AcDbLine
 10
5762.469689439458
 20
10725.0543325016
 30
0.0
 11
5762.469689439458
 21
11146.609046199
 31
0.0
  0
LINE
  5
80C0
330
83E6
100
AcDbEntity
  8
4
100
AcDbLine
 10
5762.469689439458
 20
11146.609046199
 30
0.0
 11
7400.0
 21
11146.609046199
 31
0.0
  0
LINE
  5
80C1
330
83E6
100
AcDbEntity
  8
4
100
AcDbLine
 10
7400.0
 20
11146.609046199
 30
0.0
 11
7400.0
 21
10725.0543325016
 31
0.0
  0
LINE
  5
80C2
330
83E6
100
AcDbEntity
  8
4
100
AcDbLine
 10
7400.0
 20
10725.0543325016
 30
0.0
 11
5762.469689439458
 21
10725.0543325016
 31
0.0
  0
LINE
  5
80C3
330
83E6
100
AcDbEntity
  8
4
100
AcDbLine
 10
0.0
 20
0.0
 30
0.0
 11
0.0
 21
11800.0
 31
0.0
  0
LINE
  5
80C4
330
83E6
100
AcDbEntity
  8
4
100
AcDbLine
 10
0.0
 20
11800.0
 30
0.0
 11
8400.0
 21
11800.0
 31
0.0
  0
LINE
  5
80C5
330
83E6
100
AcDbEntity
  8
4
100
AcDbLine
 10
8400.0
 20
11800.0
 30
0.0
 11
8400.0
 21
0.0
 31
0.0
  0
LINE
  5
80C6
330
83E6
100
AcDbEntity
  8
4
100
AcDbLine
 10
8400.0
 20
0.0
 30
0.0
 11
0.0
 21
0.0
 31
0.0
  0
DIMENSION
  5
848B
330
83E6
100
AcDbEntity
  8
3
100
AcDbDimension
  2
*D28
 10
7572.242576865434
 20
3175.395935314896
 30
0.0
 11
7472.242576865435
 21
3800.395935314898
 31
0.0
 70
    32
  1
\U+03C6<>
 71
     5
 42
1250.000000000001
  3
IGA
100
AcDbAlignedDimension
 13
7160.972951952932
 23
4425.395935314896
 33
0.0
 14
7160.972951952932
 24
3175.395935314896
 34
0.0
 50
90.0
100
AcDbRotatedDimension
1001
ACAD
1000
DSTYLE
1002
{
1070
    40
1040
40.0
1070
   143
1040
0.039
1070
   172
1070
     1
1070
   271
1070
     4
1070
   272
1070
     4
1070
   279
1070
     0
1070
   284
1070
     0
1070
   285
1070
     0
1070
   286
1070
     0
1070
   341
1005
83FD
1070
   343
1005
83FD
1070
   344
1005
83FD
1002
}
  0
DIMENSION
  5
84AD
330
83E6
100
AcDbEntity
  8
3
100
AcDbDimension
  2
*D29
 10
7160.972951952932
 20
5435.795721781462
 30
0.0
 11
6310.972951952932
 21
5535.795721781462
 31
0.0
 70
    32
 71
     5
 42
1700.0
  3
IGA
100
AcDbAlignedDimension
 13
5460.972951952932
 23
5134.395935314897
 33
0.0
 14
7160.972951952932
 24
5134.395935314897
 34
0.0
100
AcDbRotatedDimension
1001
ACAD
1000
DSTYLE
1002
{
1070
    40
1040
40.0
1070
   143
1040
0.039
1070
   172
1070
     1
1070
   271
1070
     4
1070
   272
1070
     4
1070
   279
1070
     0
1070
   284
1070
     0
1070
   285
1070
     0
1070
   286
1070
     0
1070
   341
1005
83FD
1070
   343
1005
83FD
1070
   344
1005
83FD
1002
}
  0
DIMENSION
  5
84BA
330
83E6
100
AcDbEntity
  8
3
100
AcDbDimension
  2
*D30
 10
6310.972951952932
 20
5688.759026640364
 30
0.0
 11
5670.972951952932
 21
5820.187598068936
 31
0.0
 70
    32
  1
(<>)
 71
     5
 42
1280.0
  3
IGA
100
AcDbAlignedDimension
 13
5030.972951952932
 23
4180.395935314897
 33
0.0
 14
6310.972951952932
 24
5595.795721781462
 34
0.0
100
AcDbRotatedDimension
1001
ACAD
1000
DSTYLE
1002
{
1070
    40
1040
40.0
1070
   143
1040
0.039
1070
   172
1070
     1
1070
   271
1070
     4
1070
   272
1070
     4
1070
   279
1070
     0
1070
   284
1070
     0
1070
   285
1070
     0
1070
   286
1070
     0
1070
   341
1005
83FD
1070
   343
1005
83FD
1070
   344
1005
83FD
1002
}
  0
DIMENSION
  5
84C7
330
83E6
100
AcDbEntity
  8
3
100
AcDbDimension
  2
*D31
 10
7330.972951952934
 20
5688.759026640364
 30
0.0
 11
6820.972951952933
 21
5820.187598068936
 31
0.0
 70
    32
  1
(<>)
 71
     5
 42
1020.000000000002
  3
IGA
100
AcDbAlignedDimension
 13
6310.972951952932
 23
5595.795721781462
 33
0.0
 14
7330.972951952934
 24
3724.395935314896
 34
0.0
100
AcDbRotatedDimension
1001
ACAD
1000
DSTYLE
1002
{
1070
    40
1040
40.0
1070
   143
1040
0.039
1070
   172
1070
     1
1070
   271
1070
     4
1070
   272
1070
     4
1070
   279
1070
     1
1070
   284
1070
     0
1070
   285
1070
     0
1070
   286
1070
     0
1070
   341
1005
83FD
1070
   343
1005
83FD
1070
   344
1005
83FD
1002
}
  0
DIMENSION
  5
8529
330
83E6
100
AcDbEntity
  8
3
100
AcDbDimension
  2
*D33
 10
3479.690038106197
 20
8849.458406526526
 30
0.0
 11
2729.690038106198
 21
8949.458406526526
 31
0.0
 70
    32
 71
     5
 42
1499.999999999999
  3
IGA
100
AcDbAlignedDimension
 13
1979.690038106198
 23
8644.822268021341
 33
0.0
 14
3479.690038106197
 24
8644.822268021341
 34
0.0
100
AcDbRotatedDimension
1001
ACAD
1000
DSTYLE
1002
{
1070
    40
1040
40.0
1070
   143
1040
0.039
1070
   172
1070
     1
1070
   271
1070
     4
1070
   272
1070
     4
1070
   279
1070
     0
1070
   284
1070
     0
1070
   285
1070
     0
1070
   286
1070
     0
1070
   341
1005
83FD
1070
   343
1005
83FD
1070
   344
1005
83FD
1002
}
  0
DIMENSION
  5
8536
330
83E6
100
AcDbEntity
  8
3
100
AcDbDimension
  2
*D34
 10
4429.690038106198
 20
8849.458406526526
 30
0.0
 11
3954.690038106198
 21
8949.458406526526
 31
0.0
 70
    32
 71
     5
 42
950.0000000000005
  3
IGA
100
AcDbAlignedDimension
 13
3479.690038106197
 23
8644.822268021341
 33
0.0
 14
4429.690038106198
 24
7524.822268021342
 34
0.0
100
AcDbRotatedDimension
1001
ACAD
1000
DSTYLE
1002
{
1070
    40
1040
40.0
1070
   143
1040
0.039
1070
   172
1070
     1
1070
   271
1070
     4
1070
   272
1070
     4
1070
   279
1070
     1
1070
   284
1070
     0
1070
   285
1070
     0
1070
   286
1070
     0
1070
   341
1005
83FD
1070
   343
1005
83FD
1070
   344
1005
83FD
1002
}
  0
DIMENSION
  5
8543
330
83E6
100
AcDbEntity
  8
3
100
AcDbDimension
  2
*D35
 10
4696.016439213777
 20
6524.822268021342
 30
0.0
 11
4596.016439213775
 21
7024.822268021342
 31
0.0
 70
    32
 71
     5
 42
1000.0
  3
IGA
100
AcDbAlignedDimension
 13
4429.690038106198
 23
7524.822268021342
 33
0.0
 14
4429.690038106198
 24
6524.822268021342
 34
0.0
 50
90.0
100
AcDbRotatedDimension
1001
ACAD
1000
DSTYLE
1002
{
1070
    40
1040
40.0
1070
   143
1040
0.039
1070
   172
1070
     1
1070
   271
1070
     4
1070
   272
1070
     4
1070
   279
1070
     0
1070
   284
1070
     0
1070
   285
1070
     0
1070
   286
1070
     0
1070
   341
1005
83FD
1070
   343
1005
83FD
1070
   344
1005
83FD
1002
}
  0
DIMENSION
  5
8550
330
83E6
100
AcDbEntity
  8
3
100
AcDbDimension
  2
*D36
 10
1979.690038106198
 20
6160.068389831689
 30
0.0
 11
3204.690038106198
 21
6260.06838983169
 31
0.0
 70
    32
 71
     5
 42
2450.0
  3
IGA
100
AcDbAlignedDimension
 13
4429.690038106198
 23
6524.822268021342
 33
0.0
 14
1979.690038106198
 24
6524.822268021342
 34
0.0
100
AcDbRotatedDimension
1001
ACAD
1000
DSTYLE
1002
{
1070
    40
1040
40.0
1070
   143
1040
0.039
1070
   172
1070
     1
1070
   271
1070
     4
1070
   272
1070
     4
1070
   279
1070
     0
1070
   284
1070
     0
1070
   285
1070
     0
1070
   286
1070
     0
1070
   341
1005
83FD
1070
   343
1005
83FD
1070
   344
1005
83FD
1002
}
  0
DIMENSION
  5
855D
330
83E6
100
AcDbEntity
  8
3
100
AcDbDimension
  2
*D37
 10
1530.673896870365
 20
8644.822268021341
 30
0.0
 11
1430.673896870364
 21
7584.822268021342
 31
0.0
 70
    32
 71
     5
 42
2120.000000000001
  3
IGA
100
AcDbAlignedDimension
 13
1979.690038106198
 23
6524.822268021342
 33
0.0
 14
1979.690038106198
 24
8644.822268021341
 34
0.0
 50
90.0
100
AcDbRotatedDimension
1001
ACAD
1000
DSTYLE
1002
{
1070
    40
1040
40.0
1070
   143
1040
0.039
1070
   172
1070
     1
1070
   271
1070
     4
1070
   272
1070
     4
1070
   279
1070
     0
1070
   284
1070
     0
1070
   285
1070
     0
1070
   286
1070
     0
1070
   341
1005
83FD
1070
   343
1005
83FD
1070
   344
1005
83FD
1002
}
  0
DIMENSION
  5
85CC
330
83E6
100
AcDbEntity
  8
3
100
AcDbDimension
  2
*D45
 10
6310.972951952931
 20
2443.855336810313
 30
0.0
 11
5709.972951952932
 21
2543.855336810313
 31
0.0
 70
    32
 71
     5
 42
1201.999999999999
  3
IGA
100
AcDbAlignedDimension
 13
5108.972951952932
 23
2705.395935314897
 33
0.0
 14
6310.972951952931
 24
2705.395935314897
 34
0.0
100
AcDbRotatedDimension
1001
ACAD
1000
DSTYLE
1002
{
1070
    40
1040
40.0
1070
   143
1040
0.039
1070
   172
1070
     1
1070
   271
1070
     4
1070
   272
1070
     4
1070
   279
1070
     0
1070
   284
1070
     0
1070
   285
1070
     0
1070
   286
1070
     0
1070
   341
1005
83FD
1070
   343
1005
83FD
1070
   344
1005
83FD
1002
}
  0
DIMENSION
  5
85D9
330
83E6
100
AcDbEntity
  8
3
100
AcDbDimension
  2
*D46
 10
7228.972951952934
 20
2443.855336810313
 30
0.0
 11
6769.972951952931
 21
2543.855336810313
 31
0.0
 70
    32
 71
     5
 42
918.0000000000028
  3
IGA
100
AcDbAlignedDimension
 13
6310.972951952931
 23
2705.395935314897
 33
0.0
 14
7228.972951952934
 24
2705.395935314897
 34
0.0
100
AcDbRotatedDimension
1001
ACAD
1000
DSTYLE
1002
{
1070
    40
1040
40.0
1070
   143
1040
0.039
1070
   172
1070
     1
1070
   271
1070
     4
1070
   272
1070
     4
1070
   279
1070
     1
1070
   284
1070
     0
1070
   285
1070
     0
1070
   286
1070
     0
1070
   341
1005
83FD
1070
   343
1005
83FD
1070
   344
1005
83FD
1002
}
  0
DIMENSION
  5
85E6
330
83E6
100
AcDbEntity
  8
3
100
AcDbDimension
  2
*D47
 10
2729.690038106197
 20
5436.91888063242
 30
0.0
 11
2317.190038106198
 21
5536.91888063242
 31
0.0
 70
    32
 71
     5
 42
824.9999999999992
  3
IGA
100
AcDbAlignedDimension
 13
1904.690038106198
 23
5187.395935314897
 33
0.0
 14
2729.690038106197
 24
5155.681654420209
 34
0.0
100
AcDbRotatedDimension
1001
ACAD
1000
DSTYLE
1002
{
1070
    40
1040
40.0
1070
   143
1040
0.039
1070
   172
1070
     1
1070
   271
1070
     4
1070
   272
1070
     4
1070
   279
1070
     0
1070
   284
1070
     0
1070
   285
1070
     0
1070
   286
1070
     0
1070
   341
1005
83FD
1070
   343
1005
83FD
1070
   344
1005
83FD
1002
}
  0
DIMENSION
  5
85F3
330
83E6
100
AcDbEntity
  8
3
100
AcDbDimension
  2
*D48
 10
3808.690038106199
 20
5436.91888063242
 30
0.0
 11
3269.190038106199
 21
5536.91888063242
 31
0.0
 70
    32
 71
     5
 42
1079.000000000002
  3
IGA
100
AcDbAlignedDimension
 13
2729.690038106197
 23
5155.681654420209
 33
0.0
 14
3808.690038106199
 24
3891.395935314896
 34
0.0
100
AcDbRotatedDimension
1001
ACAD
1000
DSTYLE
1002
{
1070
    40
1040
40.0
1070
   143
1040
0.039
1070
   172
1070
     1
1070
   271
1070
     4
1070
   272
1070
     4
1070
   279
1070
     1
1070
   284
1070
     0
1070
   285
1070
     0
1070
   286
1070
     0
1070
   341
1005
83FD
1070
   343
1005
83FD
1070
   344
1005
83FD
1002
}
  0
DIMENSION
  5
8600
330
83E6
100
AcDbEntity
  8
3
100
AcDbDimension
  2
*D49
 10
4429.690038106198
 20
5661.37209794053
 30
0.0
 11
3167.190038106198
 21
5761.37209794053
 31
0.0
 70
    32
 71
     5
 42
2525.0
  3
IGA
100
AcDbAlignedDimension
 13
1904.690038106198
 23
5187.395935314897
 33
0.0
 14
4429.690038106198
 24
3000.395935314896
 34
0.0
100
AcDbRotatedDimension
1001
ACAD
1000
DSTYLE
1002
{
1070
    40
1040
40.0
1070
   143
1040
0.039
1070
   172
1070
     1
1070
   271
1070
     4
1070
   272
1070
     4
1070
   279
1070
     0
1070
   284
1070
     0
1070
   285
1070
     0
1070
   286
1070
     0
1070
   341
1005
83FD
1070
   343
1005
83FD
1070
   344
1005
83FD
1002
}
  0
DIMENSION
  5
860D
330
83E6
100
AcDbEntity
  8
3
100
AcDbDimension
  2
*D50
 10
1651.679005416241
 20
3854.395935314897
 30
0.0
 11
1551.67900541624
 21
4494.395935314897
 31
0.0
 70
    32
 71
     5
 42
1279.999999999999
  3
IGA
100
AcDbAlignedDimension
 13
1904.690038106198
 23
5134.395935314897
 33
0.0
 14
1904.690038106198
 24
3854.395935314897
 34
0.0
 50
90.0
100
AcDbRotatedDimension
1001
ACAD
1000
DSTYLE
1002
{
1070
    40
1040
40.0
1070
   143
1040
0.039
1070
   172
1070
     1
1070
   271
1070
     4
1070
   272
1070
     4
1070
   279
1070
     0
1070
   284
1070
     0
1070
   285
1070
     0
1070
   286
1070
     0
1070
   341
1005
83FD
1070
   343
1005
83FD
1070
   344
1005
83FD
1002
}
  0
DIMENSION
  5
861A
330
83E6
100
AcDbEntity
  8
3
100
AcDbDimension
  2
*D51
 10
1405.268771363862
 20
3800.395935314897
 30
0.0
 11
1305.268771363861
 21
4467.395935314896
 31
0.0
 70
    32
 71
     5
 42
1334.0
  3
IGA
100
AcDbAlignedDimension
 13
1904.690038106198
 23
5134.395935314897
 33
0.0
 14
1826.253499857346
 24
3800.395935314897
 34
0.0
 50
90.0
100
AcDbRotatedDimension
1001
ACAD
1000
DSTYLE
1002
{
1070
    40
1040
40.0
1070
   143
1040
0.039
1070
   172
1070
     1
1070
   271
1070
     4
1070
   272
1070
     4
1070
   279
1070
     0
1070
   284
1070
     0
1070
   285
1070
     0
1070
   286
1070
     0
1070
   341
1005
83FD
1070
   343
1005
83FD
1070
   344
1005
83FD
1002
}
  0
DIMENSION
  5
8627
330
83E6
100
AcDbEntity
  8
3
100
AcDbDimension
  2
*D52
 10
1405.268771363862
 20
2875.395935314896
 30
0.0
 11
1305.268771363861
 21
3337.895935314897
 31
0.0
 70
    32
 71
     5
 42
925.0
  3
IGA
100
AcDbAlignedDimension
 13
1826.253499857346
 23
3800.395935314897
 33
0.0
 14
1979.690038106198
 24
2875.395935314896
 34
0.0
 50
90.0
100
AcDbRotatedDimension
1001
ACAD
1000
DSTYLE
1002
{
1070
    40
1040
40.0
1070
   143
1040
0.039
1070
   172
1070
     1
1070
   271
1070
     4
1070
   272
1070
     4
1070
   279
1070
     1
1070
   284
1070
     0
1070
   285
1070
     0
1070
   286
1070
     0
1070
   341
1005
83FD
1070
   343
1005
83FD
1070
   344
1005
83FD
1002
}
  0
DIMENSION
  5
8634
330
83E6
100
AcDbEntity
  8
3
100
AcDbDimension
  2
*D53
 10
1405.268771363862
 20
2770.395935314896
 30
0.0
 11
1082.411628506719
 21
2920.324506743468
 31
0.0
 70
    32
  1
(<>)
 71
     5
 42
105.0
  3
IGA
100
AcDbAlignedDimension
 13
1979.690038106198
 23
2875.395935314896
 33
0.0
 14
1979.690038106198
 24
2770.395935314896
 34
0.0
 50
90.0
100
AcDbRotatedDimension
1001
ACAD
1000
DSTYLE
1002
{
1070
    40
1040
40.0
1070
   143
1040
0.039
1070
   172
1070
     1
1070
   271
1070
     4
1070
   272
1070
     4
1070
   279
1070
     1
1070
   284
1070
     0
1070
   285
1070
     0
1070
   286
1070
     0
1070
   341
1005
83FD
1070
   343
1005
83FD
1070
   344
1005
8726
1002
}
  0
DIMENSION
  5
8646
330
83E6
100
AcDbEntity
  8
3
100
AcDbDimension
  2
*D54
 10
1405.268771363862
 20
2705.395935314897
 30
0.0
 11
1376.403808991934
 21
2544.647625478432
 31
0.0
 70
   160
 71
     5
 42
64.99999999999954
  3
IGA
100
AcDbAlignedDimension
 13
1979.690038106198
 23
2770.395935314896
 33
0.0
 14
1979.690038106198
 24
2705.395935314897
 34
0.0
 50
90.0
100
AcDbRotatedDimension
1001
ACAD
1000
DSTYLE
1002
{
1070
    40
1040
40.0
1070
   143
1040
0.039
1070
   172
1070
     1
1070
   271
1070
     4
1070
   272
1070
     4
1070
   279
1070
     1
1070
   284
1070
     0
1070
   285
1070
     0
1070
   286
1070
     0
1070
   341
1005
83FD
1070
   343
1005
8726
1070
   344
1005
83FD
1002
}
  0
DIMENSION
  5
86A6
330
83E6
100
AcDbEntity
  8
3
100
AcDbDimension
  2
*D55
 10
874.3680910223631
 20
5134.395935314897
 30
0.0
 11
742.9395195937908
 21
3919.895935314896
 31
0.0
 70
    32
  1
(<>)
 71
     5
 42
2429.0
  3
IGA
100
AcDbAlignedDimension
 13
1979.690038106198
 23
2705.395935314897
 33
0.0
 14
1904.690038106198
 24
5134.395935314897
 34
0.0
 50
90.0
100
AcDbRotatedDimension
1001
ACAD
1000
DSTYLE
1002
{
1070
    40
1040
40.0
1070
   143
1040
0.039
1070
   172
1070
     1
1070
   271
1070
     4
1070
   272
1070
     4
1070
   279
1070
     0
1070
   284
1070
     0
1070
   285
1070
     0
1070
   286
1070
     0
1070
   341
1005
83FD
1070
   343
1005
83FD
1070
   344
1005
83FD
1002
}
  0
DIMENSION
  5
8791
330
83E6
100
AcDbEntity
  8
3
100
AcDbDimension
  2
*D57
 10
2729.690038106197
 20
2443.855336810313
 30
0.0
 11
2354.690038106198
 21
2543.855336810313
 31
0.0
 70
    32
 71
     5
 42
749.9999999999992
  3
IGA
100
AcDbAlignedDimension
 13
1979.690038106198
 23
2705.395935314897
 33
0.0
 14
2729.690038106197
 24
2705.395935314897
 34
0.0
100
AcDbRotatedDimension
1001
ACAD
1000
DSTYLE
1002
{
1070
    40
1040
40.0
1070
   143
1040
0.039
1070
   172
1070
     1
1070
   271
1070
     4
1070
   272
1070
     4
1070
   279
1070
     0
1070
   284
1070
     0
1070
   285
1070
     0
1070
   286
1070
     0
1070
   341
1005
83FD
1070
   343
1005
83FD
1070
   344
1005
83FD
1002
}
  0
DIMENSION
  5
879E
330
83E6
100
AcDbEntity
  8
3
100
AcDbDimension
  2
*D58
 10
4429.690038106198
 20
2443.855336810313
 30
0.0
 11
3579.690038106198
 21
2543.855336810313
 31
0.0
 70
    32
 71
     5
 42
1700.0
  3
IGA
100
AcDbAlignedDimension
 13
2729.690038106197
 23
2705.395935314897
 33
0.0
 14
4429.690038106198
 24
2705.395935314897
 34
0.0
100
AcDbRotatedDimension
1001
ACAD
1000
DSTYLE
1002
{
1070
    40
1040
40.0
1070
   143
1040
0.039
1070
   172
1070
     1
1070
   271
1070
     4
1070
   272
1070
     4
1070
   279
1070
     1
1070
   284
1070
     0
1070
   285
1070
     0
1070
   286
1070
     0
1070
   341
1005
83FD
1070
   343
1005
83FD
1070
   344
1005
83FD
1002
}
  0
ENDSEC
  0
SECTION
  2
OBJECTS
  0
DICTIONARY
  5
8383
330
0
100
AcDbDictionary
281
     1
  3
ACAD_CIP_PREVIOUS_PRODUCT_INFO
350
842D
  3
ACAD_COLOR
350
83D9
  3
ACAD_DETAILVIEWSTYLE
350
83E0
  3
ACAD_GROUP
350
8384
  3
ACAD_LAYOUT
350
83D8
  3
ACAD_MATERIAL
350
8387
  3
ACAD_MLEADERSTYLE
350
83DC
  3
ACAD_MLINESTYLE
350
83D5
  3
ACAD_PLOTSETTINGS
350
83D7
  3
ACAD_PLOTSTYLENAME
350
8385
  3
ACAD_SCALELIST
350
83B9
  3
ACAD_SECTIONVIEWSTYLE
350
83DE
  3
ACAD_TABLESTYLE
350
83DA
  3
ACAD_VISUALSTYLE
350
83A0
  3
ACDB_RECOMPOSE_DATA
350
87AD
  3
AcDbVariableDictionary
350
8438
  3
DWGPROPS
350
87AE
  0
DICTIONARY
  5
842E
330
83CB
100
AcDbDictionary
280
     1
281
     1
  3
ADSK_XREC_LAYER_RECONCILED
360
842F
  0
DICTIONARY
  5
8430
330
83EA
100
AcDbDictionary
280
     1
281
     1
  3
ADSK_XREC_LAYER_RECONCILED
360
8431
  0
DICTIONARY
  5
8432
330
83ED
100
AcDbDictionary
280
     1
281
     1
  3
ADSK_XREC_LAYER_RECONCILED
360
8433
  0
DICTIONARY
  5
8434
330
83EE
100
AcDbDictionary
280
     1
281
     1
  3
ADSK_XREC_LAYER_RECONCILED
360
8435
  0
DICTIONARY
  5
8436
330
83EF
100
AcDbDictionary
280
     1
281
     1
  3
ADSK_XREC_LAYER_RECONCILED
360
8437
  0
DICTIONARY
  5
8485
330
83E6
100
AcDbDictionary
280
     1
281
     1
  3
ACAD_SORTENTS
360
8486
  0
XRECORD
  5
842D
102
{ACAD_REACTORS
330
8383
102
}
330
8383
100
AcDbXrecord
280
     1
300
ACDLT
300
2015
300
INVLTS_F_S
  0
DICTIONARY
  5
83D9
102
{ACAD_REACTORS
330
8383
102
}
330
8383
100
AcDbDictionary
281
     1
  0
DICTIONARY
  5
83E0
102
{ACAD_REACTORS
330
8383
102
}
330
8383
100
AcDbDictionary
281
     1
  3
Imperial24
350
83E1
  0
DICTIONARY
  5
8384
102
{ACAD_REACTORS
330
8383
102
}
330
8383
100
AcDbDictionary
281
     1
  0
DICTIONARY
  5
83D8
102
{ACAD_REACTORS
330
8383
102
}
330
8383
100
AcDbDictionary
281
     1
  3
Model
350
83E9
  3
レイアウト1
350
83E5
  0
DICTIONARY
  5
8387
102
{ACAD_REACTORS
330
8383
102
}
330
8383
100
AcDbDictionary
281
     1
  3
ByBlock
350
8390
  3
ByLayer
350
8388
  3
Global
350
8398
  0
DICTIONARY
  5
83DC
102
{ACAD_REACTORS
330
8383
102
}
330
8383
100
AcDbDictionary
281
     1
  3
Standard
350
83DD
  0
DICTIONARY
  5
83D5
102
{ACAD_REACTORS
330
8383
102
}
330
8383
100
AcDbDictionary
281
     1
  3
Standard
350
83D6
  0
DICTIONARY
  5
83D7
102
{ACAD_REACTORS
330
8383
102
}
330
8383
100
AcDbDictionary
281
     1
  0
ACDBDICTIONARYWDFLT
  5
8385
102
{ACAD_REACTORS
330
8383
102
}
330
8383
100
AcDbDictionary
281
     1
  3
Normal
350
8386
100
AcDbDictionaryWithDefault
340
8386
  0
DICTIONARY
  5
83B9
102
{ACAD_REACTORS
330
8383
102
}
330
8383
100
AcDbDictionary
281
     1
  3
A0
350
83BA
  3
A1
350
83BB
  3
A2
350
83BC
  3
A3
350
83BD
  3
A4
350
83BE
  3
A5
350
83BF
  3
A6
350
83C0
  3
A7
350
83C1
  3
A8
350
83C2
  3
A9
350
83C3
  3
B0
350
83C4
  3
B1
350
83C5
  3
B2
350
83C6
  3
B3
350
83C7
  3
B4
350
83C8
  3
B5
350
83C9
  3
B6
350
83CA
  0
DICTIONARY
  5
83DE
102
{ACAD_REACTORS
330
8383
102
}
330
8383
100
AcDbDictionary
281
     1
  3
Imperial24
350
83DF
  0
DICTIONARY
  5
83DA
102
{ACAD_REACTORS
330
8383
102
}
330
8383
100
AcDbDictionary
281
     1
  3
Standard
350
83DB
  0
DICTIONARY
  5
83A0
102
{ACAD_REACTORS
330
8383
102
}
330
8383
100
AcDbDictionary
281
     1
  3
2dWireframe
350
83A6
  3
Basic
350
83A5
  3
Brighten
350
83AC
  3
ColorChange
350
83B0
  3
Conceptual
350
83A9
  3
Dim
350
83AB
  3
EdgeColorOff
350
83B8
  3
Facepattern
350
83AF
  3
Flat
350
83A1
  3
FlatWithEdges
350
83A2
  3
Gouraud
350
83A3
  3
GouraudWithEdges
350
83A4
  3
Hidden
350
83A8
  3
JitterOff
350
83B6
  3
Linepattern
350
83AE
  3
OverhangOff
350
83B7
  3
Realistic
350
83AA
  3
Shaded
350
83B5
  3
Shaded with edges
350
83B4
  3
Shades of Gray
350
83B1
  3
Sketchy
350
83B2
  3
Thicken
350
83AD
  3
Wireframe
350
83A7
  3
X-Ray
350
83B3
  0
XRECORD
  5
87AD
102
{ACAD_REACTORS
330
8383
102
}
330
8383
100
AcDbXrecord
280
     1
 90
        1
330
83DB
  0
DICTIONARY
  5
8438
102
{ACAD_REACTORS
330
8383
102
}
330
8383
100
AcDbDictionary
281
     1
  3
CANNOSCALE
350
843D
  3
CMLEADERSTYLE
350
843A
  3
CTABLESTYLE
350
8439
  3
CVIEWDETAILSTYLE
350
843B
  3
CVIEWSECTIONSTYLE
350
843C
  3
DIMASSOC
350
8440
  3
INDEXCTL
350
843F
  3
SORTENTS
350
843E
  3
XCLIPFRAME
350
8441
  0
XRECORD
  5
87AE
102
{ACAD_REACTORS
330
8383
102
}
330
8383
100
AcDbXrecord
280
     1
  1
DWGPROPS COOKIE
  2

  3

  4

  6

  7

  8
yasukiyo.ogawa
  9

300
=
301
=
302
=
303
=
304
=
305
=
306
=
307
=
308
=
309
=
 40
0.0166157060185185
 41
2451898.488112731
 42
2460280.760360891
  1

 90
        0
  0
XRECORD
  5
842F
102
{ACAD_REACTORS
330
842E
102
}
330
842E
100
AcDbXrecord
280
     1
290
     1
  0
XRECORD
  5
8431
102
{ACAD_REACTORS
330
8430
102
}
330
8430
100
AcDbXrecord
280
     1
290
     1
  0
XRECORD
  5
8433
102
{ACAD_REACTORS
330
8432
102
}
330
8432
100
AcDbXrecord
280
     1
290
     1
  0
XRECORD
  5
8435
102
{ACAD_REACTORS
330
8434
102
}
330
8434
100
AcDbXrecord
280
     1
290
     1
  0
XRECORD
  5
8437
102
{ACAD_REACTORS
330
8436
102
}
330
8436
100
AcDbXrecord
280
     1
290
     1
  0
SORTENTSTABLE
  5
8486
102
{ACAD_REACTORS
330
8485
102
}
330
8485
100
AcDbSortentsTable
330
83E6
331
7CF3
  5
7CF5
331
7C72
  5
7C75
331
7C61
  5
7C63
331
7C50
  5
7C52
331
7D04
  5
7D06
331
80B8
  5
80BA
331
7D15
  5
7D17
331
7C94
  5
7C96
331
7CA7
  5
7CAA
331
7C3F
  5
7C41
331
7C2E
  5
7C2E
331
7CA8
  5
7CAB
331
7CF4
  5
7CF6
331
7C73
  5
7C76
331
7C62
  5
7C64
331
7C51
  5
7C53
331
7C40
  5
7C42
331
7D05
  5
7D07
331
7C84
  5
7C86
331
80B9
  5
80BB
331
80A8
  5
80AA
331
7D16
  5
7D18
331
7C95
  5
7C97
331
7C2F
  5
7C2F
331
7CF5
  5
7CF7
331
7CDC
  5
7CDE
331
7C63
  5
7C65
331
7C52
  5
7C54
331
7C41
  5
7C43
331
7D06
  5
7D08
331
7C85
  5
7C87
331
80BA
  5
80BC
331
80A9
  5
80AD
331
7D17
  5
7D19
331
7C96
  5
7C98
331
7C30
  5
7C30
331
7C99
  5
7C9B
331
7CCC
  5
7CCE
331
7C53
  5
7C55
331
7C42
  5
7C44
331
7CDD
  5
7CDF
331
7C64
  5
7C69
331
7CF6
  5
7CF8
331
7D07
  5
7D09
331
7C86
  5
7C8A
331
80BB
  5
80BD
331
80AA
  5
80AE
331
7C97
  5
7C99
331
7C75
  5
7C79
331
7C31
  5
7C31
331
7C9A
  5
7C9C
331
7CCD
  5
7CCF
331
7C54
  5
7C56
331
7C43
  5
7C45
331
7CDE
  5
7CE0
331
7C65
  5
7C6A
331
7CF7
  5
7CF9
331
80BC
  5
80BE
331
7D08
  5
7D0A
331
7C87
  5
7C8B
331
7C76
  5
7C7A
331
7C32
  5
7C32
331
7C9B
  5
7C9D
331
7CAC
  5
7CAE
331
80BD
  5
80BF
331
7D09
  5
7D0B
331
7CF8
  5
7CFA
331
7CDF
  5
7CE1
331
7CCE
  5
7CD0
331
7C55
  5
7C57
331
7C44
  5
7C46
331
7C33
  5
7C33
331
7C9C
  5
7C9E
331
7CAD
  5
7CB1
331
80BE
  5
80C0
331
80AD
  5
80AF
331
7D0A
  5
7D0C
331
7CF9
  5
7CFB
331
7CE0
  5
7CE2
331
7CCF
  5
7CD1
331
7C56
  5
7C58
331
7C45
  5
7C47
331
7C34
  5
7C34
331
7C9D
  5
7C9F
331
7CBF
  5
7CC8
331
7C46
  5
7C48
331
7CE1
  5
7CE3
331
7CD0
  5
7CD2
331
7C57
  5
7C59
331
7CFA
  5
7CFC
331
80BF
  5
80C1
331
80AE
  5
80B0
331
7D25
  5
7D27
331
7D0B
  5
7D0D
331
7C8A
  5
7C8C
331
7C79
  5
7C7B
331
7C35
  5
7C35
331
80C0
  5
80C2
331
7C9E
  5
7CA0
331
7CD1
  5
7CD3
331
7C58
  5
7C5A
331
7C47
  5
7C49
331
7CE2
  5
7CE4
331
7C69
  5
7C6B
331
7CFB
  5
7CFD
331
80AF
  5
80B1
331
7D26
  5
7F5C
331
7D0C
  5
7D0E
331
7C8B
  5
7C8D
331
7C7A
  5
7C7C
331
7C36
  5
7C36
331
80C1
  5
80C3
331
80B0
  5
80B2
331
7C9F
  5
7CA1
331
7CD2
  5
7CD4
331
7C59
  5
7C5B
331
7C48
  5
7C4A
331
7CE3
  5
7CF3
331
7C6A
  5
7C6C
331
7CFC
  5
7CFE
331
7D27
  5
80A8
331
7D0D
  5
7D0F
331
7C8C
  5
7C8E
331
7C7B
  5
7C7D
331
7C37
  5
7C37
331
7C26
  5
7C26
331
80C2
  5
80C4
331
80B1
  5
80B4
331
7CA0
  5
7CA2
331
7CB1
  5
7CB3
331
7CD3
  5
7CD8
331
7C5A
  5
7C5C
331
7C49
  5
7C4B
331
7CE4
  5
7CF4
331
7C6B
  5
7C6D
331
7CFD
  5
7CFF
331
7D0E
  5
7D10
331
7C8D
  5
7C8F
331
7C7C
  5
7C7F
331
7C38
  5
7C38
331
7C27
  5
7C27
331
80C3
  5
80C5
331
80B2
  5
80B5
331
7D18
  5
7D1A
331
7CB2
  5
7CB4
331
7CA1
  5
7CA3
331
7CD4
  5
7CD9
331
7C5B
  5
7C60
331
7C4A
  5
7C4C
331
7CFE
  5
7D00
331
7C7D
  5
7C80
331
7C6C
  5
7C6E
331
7D0F
  5
7D11
331
7C8E
  5
7C90
331
7C28
  5
7C28
331
80C4
  5
80C6
331
7D19
  5
7D1B
331
7D10
  5
7D12
331
7CB3
  5
7CB5
331
7CA2
  5
7CA4
331
7CFF
  5
7D01
331
7C6D
  5
7C6F
331
7C5C
  5
7C61
331
7C4B
  5
7C4D
331
7C8F
  5
7C91
331
7C29
  5
7C29
331
7D00
  5
7D02
331
80C5
  5
8169
331
80B4
  5
80B6
331
7D1A
  5
7D1C
331
7D11
  5
7D13
331
7C90
  5
7C92
331
7CB4
  5
7CB6
331
7CA3
  5
7CA5
331
7C6E
  5
7C70
331
7C4C
  5
7C4E
331
7C2A
  5
7C2A
331
7D01
  5
7D03
331
80C6
  5
8176
331
80B5
  5
80B7
331
7D1B
  5
7D1D
331
7D12
  5
7D15
331
7C91
  5
7C93
331
7CA4
  5
7CA6
331
7CB5
  5
7CB7
331
7C4D
  5
7C4F
331
7C6F
  5
7C71
331
7C3C
  5
7C3C
331
7C2B
  5
7C2B
331
7CD8
  5
7CDC
331
7D02
  5
7D04
331
7C70
  5
7C72
331
80B6
  5
80B8
331
7D1C
  5
7D1E
331
7D13
  5
7D16
331
7C92
  5
7C94
331
7CA5
  5
7CA7
331
7CB6
  5
7CB8
331
7CC7
  5
7CCC
331
7C4E
  5
7C50
331
7C3D
  5
7C3D
331
7C2C
  5
7C2C
331
7CC8
  5
7CCD
331
7CD9
  5
7CDD
331
7C60
  5
7C62
331
7D03
  5
7D05
331
7C71
  5
7C73
331
80B7
  5
80B9
331
7C93
  5
7C95
331
7CA6
  5
7CA8
331
7CB7
  5
7CBF
331
7C3E
  5
7C40
331
7C4F
  5
7C51
331
7C2D
  5
7C2D
  0
ACDBDETAILVIEWSTYLE
  5
83E1
102
{ACAD_XDICTIONARY
360
87E6
102
}
102
{ACAD_REACTORS
330
83E0
102
}
330
83E0
100
AcDbModelDocViewStyle
 70
     0
  3
Imperial24
290
     0
100
AcDbDetailViewStyle
 70
     0
 71
     0
 90
        3
 71
     1
340
83CC
 40
0.24
340
0
 40
0.24
300

 40
0.36
280
     3
 71
     2
340
83D3
 90
       25
 71
     3
340
83CC
 40
0.24
 90
        1
 40
0.75
 90
        1
300
%<\AcVar ViewType \f "%tc1">% %<\AcVar ViewDetailId>%\PSCALE %<\AcVar ViewScale \f "%sn">%
 71
     4
340
83D3
 90
       25
340
83D3
 90
       25
280
     0
  0
LAYOUT
  5
83E9
102
{ACAD_XDICTIONARY
360
87EA
102
}
102
{ACAD_REACTORS
330
83D8
102
}
330
83D8
100
AcDbPlotSettings
  1

  2
RICOH imagio MP W3600 RPCS
  4

  6

 40
0.0
 41
0.0
 42
0.0
 43
0.0
 44
0.0
 45
0.0
 46
0.0
 47
0.0
 48
0.0
 49
0.0
140
0.0
141
0.0
142
1.0
143
1.0
 70
  1712
 72
     0
 73
     0
 74
     0
  7

 75
     0
147
1.0
148
0.0
149
0.0
100
AcDbLayout
  1
Model
 70
     1
 71
     0
 10
0.0
 20
0.0
 11
12.0
 21
9.0
 12
0.0
 22
0.0
 32
0.0
 14
0.0
 24
0.0
 34
0.0
 15
0.0
 25
0.0
 35
0.0
146
0.0
 13
0.0
 23
0.0
 33
0.0
 16
1.0
 26
0.0
 36
0.0
 17
0.0
 27
1.0
 37
0.0
 76
     0
330
83E6
331
83EB
  0
LAYOUT
  5
83E5
102
{ACAD_XDICTIONARY
360
87E8
102
}
102
{ACAD_REACTORS
330
83D8
102
}
330
83D8
100
AcDbPlotSettings
  1

  2
RICOH imagio MP W3600 RPCS
  4

  6

 40
0.0
 41
0.0
 42
0.0
 43
0.0
 44
0.0
 45
0.0
 46
0.0
 47
0.0
 48
0.0
 49
0.0
140
0.0
141
0.0
142
1.0
143
1.0
 70
   688
 72
     0
 73
     0
 74
     5
  7

 75
    16
147
1.0
148
0.0
149
0.0
100
AcDbLayout
  1
レイアウト1
 70
     1
 71
     1
 10
0.0
 20
0.0
 11
12.0
 21
9.0
 12
0.0
 22
0.0
 32
0.0
 14
1.000000000000000E+20
 24
1.000000000000000E+20
 34
1.000000000000000E+20
 15
-1.000000000000000E+20
 25
-1.000000000000000E+20
 35
-1.000000000000000E+20
146
0.0
 13
0.0
 23
0.0
 33
0.0
 16
1.0
 26
0.0
 36
0.0
 17
0.0
 27
1.0
 37
0.0
 76
     0
330
83E2
  0
MATERIAL
  5
8390
102
{ACAD_XDICTIONARY
360
8391
102
}
102
{ACAD_REACTORS
330
8387
102
}
330
8387
100
AcDbMaterial
  1
ByBlock
 72
     0
 43
0.0208333333333333
 43
0.0
 43
0.0
 43
0.0
 43
0.0
 43
0.0208333333333333
 43
0.0
 43
0.0
 43
0.0
 43
0.0
 43
1.0
 43
0.0
 43
0.0
 43
0.0
 43
0.0
 43
1.0
 77
     0
 47
0.0208333333333333
 47
0.0
 47
0.0
 47
0.0
 47
0.0
 47
0.0208333333333333
 47
0.0
 47
0.0
 47
0.0
 47
0.0
 47
1.0
 47
0.0
 47
0.0
 47
0.0
 47
0.0
 47
1.0
171
     0
 49
0.0208333333333333
 49
0.0
 49
0.0
 49
0.0
 49
0.0
 49
0.0208333333333333
 49
0.0
 49
0.0
 49
0.0
 49
0.0
 49
1.0
 49
0.0
 49
0.0
 49
0.0
 49
0.0
 49
1.0
175
     0
142
0.0208333333333333
142
0.0
142
0.0
142
0.0
142
0.0
142
0.0208333333333333
142
0.0
142
0.0
142
0.0
142
0.0
142
1.0
142
0.0
142
0.0
142
0.0
142
0.0
142
1.0
179
     0
144
0.0208333333333333
144
0.0
144
0.0
144
0.0
144
0.0
144
0.0208333333333333
144
0.0
144
0.0
144
0.0
144
0.0
144
1.0
144
0.0
144
0.0
144
0.0
144
0.0
144
1.0
147
0.0208333333333333
147
0.0
147
0.0
147
0.0
147
0.0
147
0.0208333333333333
147
0.0
147
0.0
147
0.0
147
0.0
147
1.0
147
0.0
147
0.0
147
0.0
147
0.0
147
1.0
  0
MATERIAL
  5
8388
102
{ACAD_XDICTIONARY
360
8389
102
}
102
{ACAD_REACTORS
330
8387
102
}
330
8387
100
AcDbMaterial
  1
ByLayer
 72
     0
 43
0.0208333333333333
 43
0.0
 43
0.0
 43
0.0
 43
0.0
 43
0.0208333333333333
 43
0.0
 43
0.0
 43
0.0
 43
0.0
 43
1.0
 43
0.0
 43
0.0
 43
0.0
 43
0.0
 43
1.0
 77
     0
 47
0.0208333333333333
 47
0.0
 47
0.0
 47
0.0
 47
0.0
 47
0.0208333333333333
 47
0.0
 47
0.0
 47
0.0
 47
0.0
 47
1.0
 47
0.0
 47
0.0
 47
0.0
 47
0.0
 47
1.0
171
     0
 49
0.0208333333333333
 49
0.0
 49
0.0
 49
0.0
 49
0.0
 49
0.0208333333333333
 49
0.0
 49
0.0
 49
0.0
 49
0.0
 49
1.0
 49
0.0
 49
0.0
 49
0.0
 49
0.0
 49
1.0
175
     0
142
0.0208333333333333
142
0.0
142
0.0
142
0.0
142
0.0
142
0.0208333333333333
142
0.0
142
0.0
142
0.0
142
0.0
142
1.0
142
0.0
142
0.0
142
0.0
142
0.0
142
1.0
179
     0
144
0.0208333333333333
144
0.0
144
0.0
144
0.0
144
0.0
144
0.0208333333333333
144
0.0
144
0.0
144
0.0
144
0.0
144
1.0
144
0.0
144
0.0
144
0.0
144
0.0
144
1.0
147
0.0208333333333333
147
0.0
147
0.0
147
0.0
147
0.0
147
0.0208333333333333
147
0.0
147
0.0
147
0.0
147
0.0
147
1.0
147
0.0
147
0.0
147
0.0
147
0.0
147
1.0
  0
MATERIAL
  5
8398
102
{ACAD_XDICTIONARY
360
8399
102
}
102
{ACAD_REACTORS
330
8387
102
}
330
8387
100
AcDbMaterial
  1
Global
 72
     0
 43
0.0208333333333333
 43
0.0
 43
0.0
 43
0.0
 43
0.0
 43
0.0208333333333333
 43
0.0
 43
0.0
 43
0.0
 43
0.0
 43
1.0
 43
0.0
 43
0.0
 43
0.0
 43
0.0
 43
1.0
 77
     0
 47
0.0208333333333333
 47
0.0
 47
0.0
 47
0.0
 47
0.0
 47
0.0208333333333333
 47
0.0
 47
0.0
 47
0.0
 47
0.0
 47
1.0
 47
0.0
 47
0.0
 47
0.0
 47
0.0
 47
1.0
171
     0
 49
0.0208333333333333
 49
0.0
 49
0.0
 49
0.0
 49
0.0
 49
0.0208333333333333
 49
0.0
 49
0.0
 49
0.0
 49
0.0
 49
1.0
 49
0.0
 49
0.0
 49
0.0
 49
0.0
 49
1.0
175
     0
142
0.0208333333333333
142
0.0
142
0.0
142
0.0
142
0.0
142
0.0208333333333333
142
0.0
142
0.0
142
0.0
142
0.0
142
1.0
142
0.0
142
0.0
142
0.0
142
0.0
142
1.0
179
     0
144
0.0208333333333333
144
0.0
144
0.0
144
0.0
144
0.0
144
0.0208333333333333
144
0.0
144
0.0
144
0.0
144
0.0
144
1.0
144
0.0
144
0.0
144
0.0
144
0.0
144
1.0
147
0.0208333333333333
147
0.0
147
0.0
147
0.0
147
0.0
147
0.0208333333333333
147
0.0
147
0.0
147
0.0
147
0.0
147
1.0
147
0.0
147
0.0
147
0.0
147
0.0
147
1.0
  0
MLEADERSTYLE
  5
83DD
102
{ACAD_REACTORS
330
83DC
102
}
330
83DC
100
AcDbMLeaderStyle
170
     2
171
     1
172
     0
 90
        2
 40
0.0
 41
0.0
173
     1
 91
-1056964608
340
83D1
 92
       -2
290
     1
 42
0.09
291
     1
 43
0.36
  3
Standard
 44
0.18
300

342
83CC
174
     1
178
     6
175
     1
176
     0
 93
-1056964608
 45
0.18
292
     0
297
     0
 46
0.18
 94
-1056964608
 47
1.0
 49
1.0
140
1.0
293
     1
141
0.0
294
     1
177
     0
142
1.0
295
     0
296
     0
143
0.125
1001
ACAD_MLEADERVER
1070
     2
  0
MLINESTYLE
  5
83D6
102
{ACAD_REACTORS
330
83D5
102
}
330
83D5
100
AcDbMlineStyle
  2
STANDARD
 70
     0
  3

 62
   256
 51
90.0
 52
90.0
 71
     2
 49
0.5
 62
   256
  6
BYLAYER
 49
-0.5
 62
   256
  6
BYLAYER
  0
ACDBPLACEHOLDER
  5
8386
102
{ACAD_REACTORS
330
8385
102
}
330
8385
  0
SCALE
  5
83BA
102
{ACAD_REACTORS
330
83B9
102
}
330
83B9
100
AcDbScale
 70
     0
300
1:1
140
1.0
141
1.0
290
     1
  0
SCALE
  5
83BB
102
{ACAD_REACTORS
330
83B9
102
}
330
83B9
100
AcDbScale
 70
     0
300
1/128" = 1'-0"
140
0.0078125
141
12.0
290
     0
  0
SCALE
  5
83BC
102
{ACAD_REACTORS
330
83B9
102
}
330
83B9
100
AcDbScale
 70
     0
300
1/64" = 1'-0"
140
0.015625
141
12.0
290
     0
  0
SCALE
  5
83BD
102
{ACAD_REACTORS
330
83B9
102
}
330
83B9
100
AcDbScale
 70
     0
300
1/32" = 1'-0"
140
0.03125
141
12.0
290
     0
  0
SCALE
  5
83BE
102
{ACAD_REACTORS
330
83B9
102
}
330
83B9
100
AcDbScale
 70
     0
300
1/16" = 1'-0"
140
0.0625
141
12.0
290
     0
  0
SCALE
  5
83BF
102
{ACAD_REACTORS
330
83B9
102
}
330
83B9
100
AcDbScale
 70
     0
300
3/32" = 1'-0"
140
0.09375
141
12.0
290
     0
  0
SCALE
  5
83C0
102
{ACAD_REACTORS
330
83B9
102
}
330
83B9
100
AcDbScale
 70
     0
300
1/8" = 1'-0"
140
0.125
141
12.0
290
     0
  0
SCALE
  5
83C1
102
{ACAD_REACTORS
330
83B9
102
}
330
83B9
100
AcDbScale
 70
     0
300
3/16" = 1'-0"
140
0.1875
141
12.0
290
     0
  0
SCALE
  5
83C2
102
{ACAD_REACTORS
330
83B9
102
}
330
83B9
100
AcDbScale
 70
     0
300
1/4" = 1'-0"
140
0.25
141
12.0
290
     0
  0
SCALE
  5
83C3
102
{ACAD_REACTORS
330
83B9
102
}
330
83B9
100
AcDbScale
 70
     0
300
3/8" = 1'-0"
140
0.375
141
12.0
290
     0
  0
SCALE
  5
83C4
102
{ACAD_REACTORS
330
83B9
102
}
330
83B9
100
AcDbScale
 70
     0
300
1/2" = 1'-0"
140
0.5
141
12.0
290
     0
  0
SCALE
  5
83C5
102
{ACAD_REACTORS
330
83B9
102
}
330
83B9
100
AcDbScale
 70
     0
300
3/4" = 1'-0"
140
0.75
141
12.0
290
     0
  0
SCALE
  5
83C6
102
{ACAD_REACTORS
330
83B9
102
}
330
83B9
100
AcDbScale
 70
     0
300
1" = 1'-0"
140
1.0
141
12.0
290
     0
  0
SCALE
  5
83C7
102
{ACAD_REACTORS
330
83B9
102
}
330
83B9
100
AcDbScale
 70
     0
300
1-1/2" = 1'-0"
140
1.5
141
12.0
290
     0
  0
SCALE
  5
83C8
102
{ACAD_REACTORS
330
83B9
102
}
330
83B9
100
AcDbScale
 70
     0
300
3" = 1'-0"
140
3.0
141
12.0
290
     0
  0
SCALE
  5
83C9
102
{ACAD_REACTORS
330
83B9
102
}
330
83B9
100
AcDbScale
 70
     0
300
6" = 1'-0"
140
6.0
141
12.0
290
     0
  0
SCALE
  5
83CA
102
{ACAD_REACTORS
330
83B9
102
}
330
83B9
100
AcDbScale
 70
     0
300
1'-0" = 1'-0"
140
12.0
141
12.0
290
     0
  0
ACDBSECTIONVIEWSTYLE
  5
83DF
102
{ACAD_XDICTIONARY
360
87E4
102
}
102
{ACAD_REACTORS
330
83DE
102
}
330
83DE
100
AcDbModelDocViewStyle
 70
     0
  3
Imperial24
290
     0
100
AcDbSectionViewStyle
 70
     0
 71
     0
 90
       78
 71
     1
340
83CC
 40
0.24
340
0
340
0
 40
0.24
300
I, O, Q, S, X, Z
 40
0.48
 90
        3
 40
0.18
 90
        1
 71
     2
340
83D3
 90
       25
340
83D3
 90
       50
 40
0.24
 40
0.0
 40
0.24
 71
     3
340
83CC
 40
0.24
 90
        1
 40
0.75
 90
        1
300
%<\AcVar ViewType \f "%tc1">% %<\AcVar ViewSectionStartId>%-%<\AcVar ViewSectionEndId>%\PSCALE %<\AcVar ViewScale \f "%sn">%
 71
     4
300
ANSI31
 40
1.0
 90
        0
290
     0
290
     0
 90
        6
 40
0.0
 40
1.570796326794896
 40
0.2617993877991494
 40
1.308996938995747
 40
-0.2617993877991494
 40
1.832595714594046
  0
TABLESTYLE
  5
83DB
102
{ACAD_XDICTIONARY
360
87AB
102
}
102
{ACAD_REACTORS
330
83DA
102
}
330
83DA
100
AcDbTableStyle
  3
Standard
 70
     0
 71
     0
 40
0.06
 41
0.06
280
     0
281
     0
  7
STANDARD
140
0.18
170
     2
 62
     0
 63
     7
283
     0
274
    -2
284
     1
 64
     0
275
    -2
285
     1
 65
     0
276
    -2
286
     1
 66
     0
277
    -2
287
     1
 67
     0
278
    -2
288
     1
 68
     0
279
    -2
289
     1
 69
     0
  7
STANDARD
140
0.25
170
     5
 62
     0
 63
     7
283
     0
274
    -2
284
     1
 64
     0
275
    -2
285
     1
 65
     0
276
    -2
286
     1
 66
     0
277
    -2
287
     1
 67
     0
278
    -2
288
     1
 68
     0
279
    -2
289
     1
 69
     0
  7
STANDARD
140
0.18
170
     5
 62
     0
 63
     7
283
     0
274
    -2
284
     1
 64
     0
275
    -2
285
     1
 65
     0
276
    -2
286
     1
 66
     0
277
    -2
287
     1
 67
     0
278
    -2
288
     1
 68
     0
279
    -2
289
     1
 69
     0
  0
VISUALSTYLE
  5
83A6
102
{ACAD_XDICTIONARY
360
87BC
102
}
102
{ACAD_REACTORS
330
83A0
102
}
330
83A0
100
AcDbVisualStyle
  2
2dWireframe
 70
     4
 71
     0
 72
     2
 73
     0
 90
        0
 40
-0.6
 41
-30.0
 62
     5
 63
     7
 74
     1
 91
        4
 64
     7
 65
   257
 75
     1
175
     1
 42
1.0
 92
        0
 66
   257
 43
1.0
 76
     1
 77
     6
 78
     2
 67
     7
 79
     5
170
     0
171
     0
290
     0
174
     0
 93
        1
 44
0.0
173
     0
291
     0
 45
0.0
1001
ACAD
1000
AcDbSavedByObjectVersion
1070
     0
  0
VISUALSTYLE
  5
83A5
102
{ACAD_XDICTIONARY
360
87BA
102
}
102
{ACAD_REACTORS
330
83A0
102
}
330
83A0
100
AcDbVisualStyle
  2
Basic
 70
     7
 71
     1
 72
     0
 73
     1
 90
        0
 40
-0.6
 41
-30.0
 62
     5
 63
     7
 74
     0
 91
        4
 64
     7
 65
   257
 75
     1
175
     1
 42
1.0
 92
        8
 66
     7
 43
1.0
 76
     1
 77
     6
 78
     2
 67
     7
 79
     5
170
     0
171
     0
290
     0
174
     0
 93
        1
 44
0.0
173
     0
291
     1
 45
0.0
1001
ACAD
1000
AcDbSavedByObjectVersion
1070
     0
  0
VISUALSTYLE
  5
83AC
102
{ACAD_XDICTIONARY
360
87C8
102
}
102
{ACAD_REACTORS
330
83A0
102
}
330
83A0
100
AcDbVisualStyle
  2
Brighten
 70
    12
 71
     2
 72
     2
 73
     0
 90
        0
 40
-0.6
 41
-30.0
 62
     5
 63
     7
 74
     1
 91
        4
 64
     7
 65
   257
 75
     1
175
     1
 42
1.0
 92
        8
 66
     7
 43
1.0
 76
     1
 77
     6
 78
     2
 67
     7
 79
     5
170
     0
171
     0
290
     0
174
     0
 93
        1
 44
50.0
173
     0
291
     1
 45
0.0
1001
ACAD
1000
AcDbSavedByObjectVersion
1070
     0
  0
VISUALSTYLE
  5
83B0
102
{ACAD_XDICTIONARY
360
87D0
102
}
102
{ACAD_REACTORS
330
83A0
102
}
330
83A0
100
AcDbVisualStyle
  2
ColorChange
 70
    16
 71
     2
 72
     2
 73
     3
 90
        0
 40
-0.6
 41
-30.0
 62
     5
 63
     8
 74
     1
 91
        4
 64
     7
 65
   257
 75
     1
175
     1
 42
1.0
 92
        8
 66
     8
 43
1.0
 76
     1
 77
     6
 78
     2
 67
     7
 79
     5
170
     0
171
     0
290
     0
174
     0
 93
        1
 44
0.0
173
     0
291
     1
 45
0.0
1001
ACAD
1000
AcDbSavedByObjectVersion
1070
     0
  0
VISUALSTYLE
  5
83A9
102
{ACAD_XDICTIONARY
360
87C2
102
}
102
{ACAD_REACTORS
330
83A0
102
}
330
83A0
100
AcDbVisualStyle
  2
Conceptual
 70
     9
 71
     3
 72
     2
 73
     0
 90
        0
 40
-0.6
 41
-30.0
 62
     5
 63
     7
 74
     2
 91
        2
 64
     7
 65
   257
 75
     1
175
     1
 42
179.0
 92
        8
 66
     7
 43
1.0
 76
     1
 77
     6
 78
     2
 67
     7
 79
     3
170
     0
171
     0
290
     0
174
     0
 93
        1
 44
0.0
173
     0
291
     0
 45
0.0
1001
ACAD
1000
AcDbSavedByObjectVersion
1070
     0
  0
VISUALSTYLE
  5
83AB
102
{ACAD_XDICTIONARY
360
87C6
102
}
102
{ACAD_REACTORS
330
83A0
102
}
330
83A0
100
AcDbVisualStyle
  2
Dim
 70
    11
 71
     2
 72
     2
 73
     0
 90
        0
 40
-0.6
 41
-30.0
 62
     5
 63
     7
 74
     1
 91
        4
 64
     7
 65
   257
 75
     1
175
     1
 42
1.0
 92
        8
 66
     7
 43
1.0
 76
     1
 77
     6
 78
     2
 67
     7
 79
     5
170
     0
171
     0
290
     0
174
     0
 93
        1
 44
-50.0
173
     0
291
     1
 45
0.0
1001
ACAD
1000
AcDbSavedByObjectVersion
1070
     0
  0
VISUALSTYLE
  5
83B8
102
{ACAD_XDICTIONARY
360
87E0
102
}
102
{ACAD_REACTORS
330
83A0
102
}
330
83A0
100
AcDbVisualStyle
  2
EdgeColorOff
 70
    22
 71
     2
 72
     2
 73
     0
 90
        0
 40
-0.6
 41
-30.0
 62
     5
 63
     7
 74
     1
 91
        4
 64
     7
 65
   257
 75
     1
175
     1
 42
1.0
 92
        8
 66
     7
 43
1.0
 76
     1
 77
     6
 78
     2
 67
     7
 79
     5
170
     0
171
     0
290
     0
174
     0
 93
        1
 44
0.0
173
     0
291
     1
 45
0.0
1001
ACAD
1000
AcDbSavedByObjectVersion
1070
     0
  0
VISUALSTYLE
  5
83AF
102
{ACAD_XDICTIONARY
360
87CE
102
}
102
{ACAD_REACTORS
330
83A0
102
}
330
83A0
100
AcDbVisualStyle
  2
Facepattern
 70
    15
 71
     2
 72
     2
 73
     0
 90
        0
 40
-0.6
 41
-30.0
 62
     5
 63
     7
 74
     1
 91
        4
 64
     7
 65
   257
 75
     1
175
     1
 42
1.0
 92
        8
 66
     7
 43
1.0
 76
     1
 77
     6
 78
     2
 67
     7
 79
     5
170
     0
171
     0
290
     0
174
     0
 93
        1
 44
0.0
173
     0
291
     1
 45
0.0
1001
ACAD
1000
AcDbSavedByObjectVersion
1070
     0
  0
VISUALSTYLE
  5
83A1
102
{ACAD_XDICTIONARY
360
87B2
102
}
102
{ACAD_REACTORS
330
83A0
102
}
330
83A0
100
AcDbVisualStyle
  2
Flat
 70
     0
 71
     2
 72
     1
 73
     1
 90
        2
 40
-0.6
 41
30.0
 62
     5
 63
     7
 74
     0
 91
        0
 64
     7
 65
   257
 75
     1
175
     1
 42
1.0
 92
        8
 66
     7
 43
1.0
 76
     1
 77
     6
 78
     2
 67
     7
 79
     5
170
     0
171
     0
290
     0
174
     0
 93
       13
 44
0.0
173
     0
291
     1
 45
0.0
1001
ACAD
1000
AcDbSavedByObjectVersion
1070
     0
  0
VISUALSTYLE
  5
83A2
102
{ACAD_XDICTIONARY
360
87B4
102
}
102
{ACAD_REACTORS
330
83A0
102
}
330
83A0
100
AcDbVisualStyle
  2
FlatWithEdges
 70
     1
 71
     2
 72
     1
 73
     1
 90
        2
 40
-0.6
 41
30.0
 62
     5
 63
     7
 74
     1
 91
        0
 64
     7
 65
   257
 75
     1
175
     1
 42
1.0
 92
        0
 66
   257
 43
1.0
 76
     1
 77
     6
 78
     2
 67
     7
 79
     5
170
     0
171
     0
290
     0
174
     0
 93
       13
 44
0.0
173
     0
291
     1
 45
0.0
1001
ACAD
1000
AcDbSavedByObjectVersion
1070
     0
  0
VISUALSTYLE
  5
83A3
102
{ACAD_XDICTIONARY
360
87B6
102
}
102
{ACAD_REACTORS
330
83A0
102
}
330
83A0
100
AcDbVisualStyle
  2
Gouraud
 70
     2
 71
     2
 72
     2
 73
     1
 90
        2
 40
-0.6
 41
30.0
 62
     5
 63
     7
 74
     0
 91
        0
 64
     7
 65
   257
 75
     1
175
     1
 42
1.0
 92
        0
 66
     7
 43
1.0
 76
     1
 77
     6
 78
     2
 67
     7
 79
     5
170
     0
171
     0
290
     0
174
     0
 93
       13
 44
0.0
173
     0
291
     1
 45
0.0
1001
ACAD
1000
AcDbSavedByObjectVersion
1070
     0
  0
VISUALSTYLE
  5
83A4
102
{ACAD_XDICTIONARY
360
87B8
102
}
102
{ACAD_REACTORS
330
83A0
102
}
330
83A0
100
AcDbVisualStyle
  2
GouraudWithEdges
 70
     3
 71
     2
 72
     2
 73
     1
 90
        2
 40
-0.6
 41
30.0
 62
     5
 63
     7
 74
     1
 91
        0
 64
     7
 65
   257
 75
     1
175
     1
 42
1.0
 92
        0
 66
   257
 43
1.0
 76
     1
 77
     6
 78
     2
 67
     7
 79
     5
170
     0
171
     0
290
     0
174
     0
 93
       13
 44
0.0
173
     0
291
     1
 45
0.0
1001
ACAD
1000
AcDbSavedByObjectVersion
1070
     0
  0
VISUALSTYLE
  5
83A8
102
{ACAD_XDICTIONARY
360
87C0
102
}
102
{ACAD_REACTORS
330
83A0
102
}
330
83A0
100
AcDbVisualStyle
  2
Hidden
 70
     6
 71
     1
 72
     2
 73
     2
 90
        0
 40
-0.6
 41
-30.0
 62
     5
 63
     7
 74
     2
 91
        2
 64
     7
 65
   257
 75
     2
175
     1
 42
40.0
 92
        0
 66
   257
 43
1.0
 76
     1
 77
     6
 78
     2
 67
     7
 79
     3
170
     0
171
     0
290
     0
174
     0
 93
        1
 44
0.0
173
     0
291
     0
 45
0.0
1001
ACAD
1000
AcDbSavedByObjectVersion
1070
     0
  0
VISUALSTYLE
  5
83B6
102
{ACAD_XDICTIONARY
360
87DC
102
}
102
{ACAD_REACTORS
330
83A0
102
}
330
83A0
100
AcDbVisualStyle
  2
JitterOff
 70
    20
 71
     2
 72
     2
 73
     0
 90
        0
 40
-0.6
 41
-30.0
 62
     5
 63
     7
 74
     1
 91
        4
 64
     7
 65
   257
 75
     1
175
     1
 42
1.0
 92
       10
 66
     7
 43
1.0
 76
     1
 77
     6
 78
     2
 67
     7
 79
     5
170
     0
171
     0
290
     0
174
     0
 93
        1
 44
0.0
173
     0
291
     1
 45
0.0
1001
ACAD
1000
AcDbSavedByObjectVersion
1070
     0
  0
VISUALSTYLE
  5
83AE
102
{ACAD_XDICTIONARY
360
87CC
102
}
102
{ACAD_REACTORS
330
83A0
102
}
330
83A0
100
AcDbVisualStyle
  2
Linepattern
 70
    14
 71
     2
 72
     2
 73
     0
 90
        0
 40
-0.6
 41
-30.0
 62
     5
 63
     7
 74
     1
 91
        4
 64
     7
 65
   257
 75
     7
175
     7
 42
1.0
 92
        8
 66
     7
 43
1.0
 76
     1
 77
     6
 78
     2
 67
     7
 79
     5
170
     0
171
     0
290
     0
174
     0
 93
        1
 44
0.0
173
     0
291
     1
 45
0.0
1001
ACAD
1000
AcDbSavedByObjectVersion
1070
     0
  0
VISUALSTYLE
  5
83B7
102
{ACAD_XDICTIONARY
360
87DE
102
}
102
{ACAD_REACTORS
330
83A0
102
}
330
83A0
100
AcDbVisualStyle
  2
OverhangOff
 70
    21
 71
     2
 72
     2
 73
     0
 90
        0
 40
-0.6
 41
-30.0
 62
     5
 63
     7
 74
     1
 91
        4
 64
     7
 65
   257
 75
     1
175
     1
 42
1.0
 92
        9
 66
     7
 43
1.0
 76
     1
 77
     6
 78
     2
 67
     7
 79
     5
170
     0
171
     0
290
     0
174
     0
 93
        1
 44
0.0
173
     0
291
     1
 45
0.0
1001
ACAD
1000
AcDbSavedByObjectVersion
1070
     0
  0
VISUALSTYLE
  5
83AA
102
{ACAD_XDICTIONARY
360
87C4
102
}
102
{ACAD_REACTORS
330
83A0
102
}
330
83A0
100
AcDbVisualStyle
  2
Realistic
 70
     8
 71
     2
 72
     3
 73
     0
 90
        2
 40
-0.6
 41
30.0
 62
     5
 63
     7
 74
     0
 91
        0
 64
     7
 65
   257
 75
     1
175
     1
 42
1.0
 92
        8
 66
   257
 43
1.0
 76
     1
 77
     6
 78
     2
 67
     7
 79
     3
170
     0
171
     0
290
     0
174
     0
 93
       13
 44
0.0
173
     0
291
     0
 45
0.0
1001
ACAD
1000
AcDbSavedByObjectVersion
1070
     0
  0
VISUALSTYLE
  5
83B5
102
{ACAD_XDICTIONARY
360
87DA
102
}
102
{ACAD_REACTORS
330
83A0
102
}
330
83A0
100
AcDbVisualStyle
  2
Shaded
 70
    27
 71
     2
 72
     2
 73
     1
 90
        2
 40
-0.6
 41
30.0
 62
     5
 63
     7
 74
     0
 91
        4
 64
     7
 65
   257
 75
     1
175
     1
 42
1.0
 92
        8
 66
   257
 43
1.0
 76
     1
 77
     6
 78
     2
 67
     8
 79
     3
170
     0
171
     0
290
     0
174
     0
 93
        5
 44
0.0
173
     0
291
     0
 45
0.0
1001
ACAD
1000
AcDbSavedByObjectVersion
1070
     0
  0
VISUALSTYLE
  5
83B4
102
{ACAD_XDICTIONARY
360
87D8
102
}
102
{ACAD_REACTORS
330
83A0
102
}
330
83A0
100
AcDbVisualStyle
  2
Shaded with edges
 70
    26
 71
     2
 72
     2
 73
     1
 90
        2
 40
-0.6
 41
30.0
 62
     5
 63
     7
 74
     1
 91
       10
 64
     7
 65
   257
 75
     2
175
     1
 42
1.0
 92
        8
 66
   257
 43
1.0
 76
     1
 77
     6
 78
     2
 67
     7
 79
     3
170
     0
171
     0
290
     0
174
     0
 93
        5
 44
0.0
173
     0
291
     0
 45
0.0
1001
ACAD
1000
AcDbSavedByObjectVersion
1070
     0
  0
VISUALSTYLE
  5
83B1
102
{ACAD_XDICTIONARY
360
87D2
102
}
102
{ACAD_REACTORS
330
83A0
102
}
330
83A0
100
AcDbVisualStyle
  2
Shades of Gray
 70
    23
 71
     2
 72
     2
 73
     3
 90
        0
 40
-0.6
 41
-30.0
 62
     5
 63
     7
 74
     2
 91
        2
 64
     7
 65
     7
 75
     1
175
     1
 42
40.0
 92
        8
 66
     7
 43
1.0
 76
     1
 77
     6
 78
     2
 67
     7
 79
     3
170
     0
171
     0
290
     0
174
     0
 93
        1
 44
0.0
173
     0
291
     0
 45
0.0
1001
ACAD
1000
AcDbSavedByObjectVersion
1070
     0
  0
VISUALSTYLE
  5
83B2
102
{ACAD_XDICTIONARY
360
87D4
102
}
102
{ACAD_REACTORS
330
83A0
102
}
330
83A0
100
AcDbVisualStyle
  2
Sketchy
 70
    24
 71
     1
 72
     2
 73
     2
 90
        0
 40
-0.6
 41
-30.0
 62
     5
 63
     7
 74
     2
 91
        2
 64
     7
 65
     7
 75
     1
175
     1
 42
40.0
 92
       11
 66
     7
 43
1.0
 76
     1
 77
     6
 78
     2
 67
     7
 79
     6
170
     0
171
     0
290
     0
174
     0
 93
        1
 44
0.0
173
     0
291
     0
 45
0.0
1001
ACAD
1000
AcDbSavedByObjectVersion
1070
     0
  0
VISUALSTYLE
  5
83AD
102
{ACAD_XDICTIONARY
360
87CA
102
}
102
{ACAD_REACTORS
330
83A0
102
}
330
83A0
100
AcDbVisualStyle
  2
Thicken
 70
    13
 71
     2
 72
     2
 73
     0
 90
        0
 40
-0.6
 41
-30.0
 62
     5
 63
     7
 74
     1
 91
        4
 64
     7
 65
   257
 75
     1
175
     1
 42
1.0
 92
       12
 66
     7
 43
1.0
 76
     1
 77
     6
 78
     2
 67
     7
 79
     5
170
     0
171
     0
290
     0
174
     0
 93
        1
 44
0.0
173
     0
291
     1
 45
0.0
1001
ACAD
1000
AcDbSavedByObjectVersion
1070
     0
  0
VISUALSTYLE
  5
83A7
102
{ACAD_XDICTIONARY
360
87BE
102
}
102
{ACAD_REACTORS
330
83A0
102
}
330
83A0
100
AcDbVisualStyle
  2
Wireframe
 70
     5
 71
     0
 72
     2
 73
     0
 90
        0
 40
-0.6
 41
-30.0
 62
     5
 63
     7
 74
     1
 91
        4
 64
     7
 65
   257
 75
     1
175
     1
 42
1.0
 92
        0
 66
   257
 43
1.0
 76
     1
 77
     6
 78
     2
 67
     7
 79
     3
170
     0
171
     0
290
     0
174
     0
 93
        1
 44
0.0
173
     0
291
     0
 45
0.0
1001
ACAD
1000
AcDbSavedByObjectVersion
1070
     0
  0
VISUALSTYLE
  5
83B3
102
{ACAD_XDICTIONARY
360
87D6
102
}
102
{ACAD_REACTORS
330
83A0
102
}
330
83A0
100
AcDbVisualStyle
  2
X-Ray
 70
    25
 71
     2
 72
     2
 73
     1
 90
        1
 40
0.5
 41
-30.0
 62
     5
 63
     7
 74
     1
 91
        0
 64
     7
 65
   257
 75
     1
175
     1
 42
1.0
 92
        8
 66
     7
 43
1.0
 76
     1
 77
     6
 78
     2
 67
     7
 79
     3
170
     0
171
     0
290
     0
174
     0
 93
       13
 44
0.0
173
     0
291
     0
 45
0.0
1001
ACAD
1000
AcDbSavedByObjectVersion
1070
     0
  0
DICTIONARYVAR
  5
843D
102
{ACAD_REACTORS
330
8438
102
}
330
8438
100
DictionaryVariables
280
     0
  1
1:1
  0
DICTIONARYVAR
  5
843A
102
{ACAD_REACTORS
330
8438
102
}
330
8438
100
DictionaryVariables
280
     0
  1
STANDARD
  0
DICTIONARYVAR
  5
8439
102
{ACAD_REACTORS
330
8438
102
}
330
8438
100
DictionaryVariables
280
     0
  1
STANDARD
  0
DICTIONARYVAR
  5
843B
102
{ACAD_REACTORS
330
8438
102
}
330
8438
100
DictionaryVariables
280
     0
  1
Imperial24
  0
DICTIONARYVAR
  5
843C
102
{ACAD_REACTORS
330
8438
102
}
330
8438
100
DictionaryVariables
280
     0
  1
Imperial24
  0
DICTIONARYVAR
  5
8440
102
{ACAD_REACTORS
330
8438
102
}
330
8438
100
DictionaryVariables
280
     0
  1
1
  0
DICTIONARYVAR
  5
843F
102
{ACAD_REACTORS
330
8438
102
}
330
8438
100
DictionaryVariables
280
     0
  1
0
  0
DICTIONARYVAR
  5
843E
102
{ACAD_REACTORS
330
8438
102
}
330
8438
100
DictionaryVariables
280
     0
  1
127
  0
DICTIONARYVAR
  5
8441
102
{ACAD_REACTORS
330
8438
102
}
330
8438
100
DictionaryVariables
280
     0
  1
2
  0
DICTIONARY
  5
87E6
330
83E1
100
AcDbDictionary
280
     1
281
     1
  3
ACAD_XREC_ROUNDTRIP
360
87E7
  0
DICTIONARY
  5
87EA
330
83E9
100
AcDbDictionary
280
     1
281
     1
  3
ACAD_XREC_ROUNDTRIP
360
87EB
  0
DICTIONARY
  5
87E8
330
83E5
100
AcDbDictionary
280
     1
281
     1
  3
ACAD_XREC_ROUNDTRIP
360
87E9
  0
DICTIONARY
  5
8391
330
8390
100
AcDbDictionary
280
     1
281
     1
  3
ACAD_XREC_ROUNDTRIP
360
87B0
  3
BUMPTILE
360
8393
  3
DIFFUSETILE
360
8392
  3
OPACITYTILE
360
8396
  3
REFLECTIONTILE
360
8395
  3
REFRACTIONTILE
360
8397
  3
SPECULARTILE
360
8394
  0
DICTIONARY
  5
8389
330
8388
100
AcDbDictionary
280
     1
281
     1
  3
ACAD_XREC_ROUNDTRIP
360
87AF
  3
BUMPTILE
360
838B
  3
DIFFUSETILE
360
838A
  3
OPACITYTILE
360
838E
  3
REFLECTIONTILE
360
838D
  3
REFRACTIONTILE
360
838F
  3
SPECULARTILE
360
838C
  0
DICTIONARY
  5
8399
330
8398
100
AcDbDictionary
280
     1
281
     1
  3
ACAD_XREC_ROUNDTRIP
360
87B1
  3
BUMPTILE
360
839B
  3
DIFFUSETILE
360
839A
  3
FBXASSET
360
8488
  3
OPACITYTILE
360
839E
  3
REFLECTIONTILE
360
839D
  3
REFRACTIONTILE
360
839F
  3
SPECULARTILE
360
839C
  0
DICTIONARY
  5
87E4
330
83DF
100
AcDbDictionary
280
     1
281
     1
  3
ACAD_XREC_ROUNDTRIP
360
87E5
  0
DICTIONARY
  5
87AB
330
83DB
100
AcDbDictionary
280
     1
281
     1
  3
ACAD_ROUNDTRIP_2008_TABLESTYLE_CELLSTYLEMAP
360
87AC
  3
ACAD_XREC_ROUNDTRIP
360
87E2
  0
DICTIONARY
  5
87BC
330
83A6
100
AcDbDictionary
280
     1
281
     1
  3
ACAD_XREC_ROUNDTRIP
360
87BD
  0
DICTIONARY
  5
87BA
330
83A5
100
AcDbDictionary
280
     1
281
     1
  3
ACAD_XREC_ROUNDTRIP
360
87BB
  0
DICTIONARY
  5
87C8
330
83AC
100
AcDbDictionary
280
     1
281
     1
  3
ACAD_XREC_ROUNDTRIP
360
87C9
  0
DICTIONARY
  5
87D0
330
83B0
100
AcDbDictionary
280
     1
281
     1
  3
ACAD_XREC_ROUNDTRIP
360
87D1
  0
DICTIONARY
  5
87C2
330
83A9
100
AcDbDictionary
280
     1
281
     1
  3
ACAD_XREC_ROUNDTRIP
360
87C3
  0
DICTIONARY
  5
87C6
330
83AB
100
AcDbDictionary
280
     1
281
     1
  3
ACAD_XREC_ROUNDTRIP
360
87C7
  0
DICTIONARY
  5
87E0
330
83B8
100
AcDbDictionary
280
     1
281
     1
  3
ACAD_XREC_ROUNDTRIP
360
87E1
  0
DICTIONARY
  5
87CE
330
83AF
100
AcDbDictionary
280
     1
281
     1
  3
ACAD_XREC_ROUNDTRIP
360
87CF
  0
DICTIONARY
  5
87B2
330
83A1
100
AcDbDictionary
280
     1
281
     1
  3
ACAD_XREC_ROUNDTRIP
360
87B3
  0
DICTIONARY
  5
87B4
330
83A2
100
AcDbDictionary
280
     1
281
     1
  3
ACAD_XREC_ROUNDTRIP
360
87B5
  0
DICTIONARY
  5
87B6
330
83A3
100
AcDbDictionary
280
     1
281
     1
  3
ACAD_XREC_ROUNDTRIP
360
87B7
  0
DICTIONARY
  5
87B8
330
83A4
100
AcDbDictionary
280
     1
281
     1
  3
ACAD_XREC_ROUNDTRIP
360
87B9
  0
DICTIONARY
  5
87C0
330
83A8
100
AcDbDictionary
280
     1
281
     1
  3
ACAD_XREC_ROUNDTRIP
360
87C1
  0
DICTIONARY
  5
87DC
330
83B6
100
AcDbDictionary
280
     1
281
     1
  3
ACAD_XREC_ROUNDTRIP
360
87DD
  0
DICTIONARY
  5
87CC
330
83AE
100
AcDbDictionary
280
     1
281
     1
  3
ACAD_XREC_ROUNDTRIP
360
87CD
  0
DICTIONARY
  5
87DE
330
83B7
100
AcDbDictionary
280
     1
281
     1
  3
ACAD_XREC_ROUNDTRIP
360
87DF
  0
DICTIONARY
  5
87C4
330
83AA
100
AcDbDictionary
280
     1
281
     1
  3
ACAD_XREC_ROUNDTRIP
360
87C5
  0
DICTIONARY
  5
87DA
330
83B5
100
AcDbDictionary
280
     1
281
     1
  3
ACAD_XREC_ROUNDTRIP
360
87DB
  0
DICTIONARY
  5
87D8
330
83B4
100
AcDbDictionary
280
     1
281
     1
  3
ACAD_XREC_ROUNDTRIP
360
87D9
  0
DICTIONARY
  5
87D2
330
83B1
100
AcDbDictionary
280
     1
281
     1
  3
ACAD_XREC_ROUNDTRIP
360
87D3
  0
DICTIONARY
  5
87D4
330
83B2
100
AcDbDictionary
280
     1
281
     1
  3
ACAD_XREC_ROUNDTRIP
360
87D5
  0
DICTIONARY
  5
87CA
330
83AD
100
AcDbDictionary
280
     1
281
     1
  3
ACAD_XREC_ROUNDTRIP
360
87CB
  0
DICTIONARY
  5
87BE
330
83A7
100
AcDbDictionary
280
     1
281
     1
  3
ACAD_XREC_ROUNDTRIP
360
87BF
  0
DICTIONARY
  5
87D6
330
83B3
100
AcDbDictionary
280
     1
281
     1
  3
ACAD_XREC_ROUNDTRIP
360
87D7
  0
XRECORD
  5
87E7
102
{ACAD_REACTORS
330
87E6
102
}
330
87E6
100
AcDbXrecord
280
     1
102
DISPLAYNAME
  1
Imperial24
102
FLAGS
 90
        0
  0
XRECORD
  5
87EB
102
{ACAD_REACTORS
330
87EA
102
}
330
87EA
100
AcDbXrecord
280
     1
102
SHADEPLOT
 70
     0
102
SHADEPLOTRESLEVEL
 70
     2
102
SHADEPLOTCUSTOMDPI
 70
   300
  0
XRECORD
  5
87E9
102
{ACAD_REACTORS
330
87E8
102
}
330
87E8
100
AcDbXrecord
280
     1
102
SHADEPLOT
 70
     0
102
SHADEPLOTRESLEVEL
 70
     2
102
SHADEPLOTCUSTOMDPI
 70
   300
  0
XRECORD
  5
87B0
102
{ACAD_REACTORS
330
8391
102
}
330
8391
100
AcDbXrecord
280
     1
102
MATERIAL
148
0.0
149
0.0
149
0.0
 93
        0
 94
      127
282
     0
 72
     0
 77
     0
171
     0
175
     0
179
     0
273
     0
  0
XRECORD
  5
8393
102
{ACAD_REACTORS
330
8391
102
}
330
8391
100
AcDbXrecord
280
     1
270
     1
271
     1
  0
XRECORD
  5
8392
102
{ACAD_REACTORS
330
8391
102
}
330
8391
100
AcDbXrecord
280
     1
270
     1
271
     1
  0
XRECORD
  5
8396
102
{ACAD_REACTORS
330
8391
102
}
330
8391
100
AcDbXrecord
280
     1
270
     1
271
     1
  0
XRECORD
  5
8395
102
{ACAD_REACTORS
330
8391
102
}
330
8391
100
AcDbXrecord
280
     1
270
     1
271
     1
  0
XRECORD
  5
8397
102
{ACAD_REACTORS
330
8391
102
}
330
8391
100
AcDbXrecord
280
     1
270
     1
271
     1
  0
XRECORD
  5
8394
102
{ACAD_REACTORS
330
8391
102
}
330
8391
100
AcDbXrecord
280
     1
270
     1
271
     1
  0
XRECORD
  5
87AF
102
{ACAD_REACTORS
330
8389
102
}
330
8389
100
AcDbXrecord
280
     1
102
MATERIAL
148
0.0
149
0.0
149
0.0
 93
        0
 94
      127
282
     0
 72
     0
 77
     0
171
     0
175
     0
179
     0
273
     0
  0
XRECORD
  5
838B
102
{ACAD_REACTORS
330
8389
102
}
330
8389
100
AcDbXrecord
280
     1
270
     1
271
     1
  0
XRECORD
  5
838A
102
{ACAD_REACTORS
330
8389
102
}
330
8389
100
AcDbXrecord
280
     1
270
     1
271
     1
  0
XRECORD
  5
838E
102
{ACAD_REACTORS
330
8389
102
}
330
8389
100
AcDbXrecord
280
     1
270
     1
271
     1
  0
XRECORD
  5
838D
102
{ACAD_REACTORS
330
8389
102
}
330
8389
100
AcDbXrecord
280
     1
270
     1
271
     1
  0
XRECORD
  5
838F
102
{ACAD_REACTORS
330
8389
102
}
330
8389
100
AcDbXrecord
280
     1
270
     1
271
     1
  0
XRECORD
  5
838C
102
{ACAD_REACTORS
330
8389
102
}
330
8389
100
AcDbXrecord
280
     1
270
     1
271
     1
  0
XRECORD
  5
87B1
102
{ACAD_REACTORS
330
8399
102
}
330
8399
100
AcDbXrecord
280
     1
102
MATERIAL
148
0.0
149
0.0
149
0.0
 93
        0
 94
      127
282
     0
 72
     0
 77
     0
171
     0
175
     0
179
     0
273
     0
  0
XRECORD
  5
839B
102
{ACAD_REACTORS
330
8399
102
}
330
8399
100
AcDbXrecord
280
     1
270
     1
271
     1
  0
XRECORD
  5
839A
102
{ACAD_REACTORS
330
8399
102
}
330
8399
100
AcDbXrecord
280
     1
270
     1
271
     1
  0
XRECORD
  5
8488
102
{ACAD_REACTORS
330
8399
102
}
330
8399
100
AcDbXrecord
280
     1
 70
     1
 90
1959938040
 71
     1
  1
4589DAAF-3A8F-492E-9905-46494DE8241B
311
504B030414000608080009918157047EDD80BF000000200100004F00000045423441383537462D334336312D344434422D394530412D3444393630313238433643322F4173736574446174612F446566696E6974696F6E4974657261746F7250726F706572746965732E62696EEB606060F80F0540260323103700495E20ED
311
9E9A975A94991C9C9C919A9BC8C00612C9C94F4ACC6147C831019920AE4B6A5A62694E0948976F6671726A4E4E625E6A7E69B12042A9426E6209D0B8C41C3D90264E20860914834C48875806B2DF0F88414E02D189290556F689C5C5A925B6FA694915FA064E868E2ECEAE8EBA46A66616BA26CEE696BA8E66CECEBA96A6E6
311
46AE962E962606CE8EFA45A9C5F9A545C9A9C5FA46FA06F15093E30BF2D2191832B2FE64CD035A02720308130200504B030414000608080009918157951EFEC3EA000000300200004500000045423441383537462D334336312D344434422D394530412D3444393630313238433643322F4173736574446174612F496E7374
311
616E636550726F706572746965732E62696EEB606060F80F0540260323103700495E20ED9E9A975A94991C9C9C919A9BA802143031B5B074717474D33576B470D335B13472D5B5B43430D5353133B1347171B53032317462476804693136044A18995AEA9A9A981803151A19EA3AB939B9E81A9A1B1B389B393B5B3ABA5A02
311
9581ED65D08CE93FF455E38A3D9066028A3500318C0FA6817C20F8600F51CDC020E0C020001602132A0E08365616502304C01958950105E10A3E3003790D400CD5FA004AF300853001281C113270433014A6EC74C0104311C0D40A325A0349CD077B16200F145B7C401C5C9E58929CA1EB54949897929A0292A1150000504B
311
03041400060808000991815728BB58AF800100009E0500003D00000045423441383537462D334336312D344434422D394530412D3444393630313238433643322F536368656D61732F436F6D6D6F6E536368656D612E786D6CBD544D4FC23018BEFB2B96DE15493C78601010A34B880709DEDFB52FD0D8B54BD70DF6EFED3A
311
C0B12E6442E2716BFB3CEFF3D18E26FB440405EA8C2B1992E1C323095052C5B8DC842437EBFB673219DF8DA659866649B798C078B48AE6410122242F2A4994AC7F93815DF85C049C8564CA0A901499DD886B2EB9B1E02448F358701A9235880C49A0119892A20C89D1B9FD768815CAD268CB5E0355B40B1E47F3E37A202046
311
4BED06AA57CE8FCC20C3C3446D46761A2632A8C1283D07031EFF2AE7CCB1BFEEE916E406DFAC8E36FFD99A9D60A6944090EEDC3B670C7DC13DE86B6B2C5C240D6E503BB85ACD579D513F1B9F9A69DC9CC22AFA80C426D40AF0B21EA168559156B6276F0F726A6BFF04DCD513A87A62CAD41FB24FCB2858B3952E3D852084DA
311
25B9303C15687973CC8E8AAE11DF2836C38C6A9E765E8C1BA1BFB1DC29CDFE518C8B5A7655A4ED7E77291ABEB80DBD82EC866ADE1B8D05AF9E35CF09D7A061F38A986D9EC412B8F0F65E5D81534D9B231D1E5A8FE577A241F3A5FD01504B0304140006080800099181572CCEBD668A040000E01200003E0000004542344138
311
3537462D334336312D344434422D394530412D3444393630313238433643322F536368656D61732F47656E65726963536368656D612E786D6CD5586D6FDB380CFE7EBF42F0F7A649B70E1B90744856B4970F450FCD7A5F05459613EDE4174872DADCAF3F522F8ED3B88D2F1D06AC4050DBA2493EE4438AF2F8EB73AEC84668
311
23CB62928C06C384888297A92C5693A4B6D9D9E7E4EBD51FE3A931C22EF85AE4EC6AFC38BF261BA626C9AD288496DC3F4FCEAFC63366845F7A10452AF41DB320C0D44EC26EAB20918735565582695670811A6A49643A49A6E9069FA4604A64B29016DC4B48552F95E4932463CA888468C1D2B250DB4962750DF7CE273069CE
311
8363F1FF4EDB00E0A21999574AE4A2B00C353B93F3BD4777B8A61ED8F604ABFEDD79CE56A2B7BDFBDBC50996E0ADDE16FED26223C5D30956C29BDF4A55EA686E5E58B112DA45CE67F76F4FA27EFA3FB672FD7372FC388FAECDCA5209E693CAD167BADCD272F943701B3812F8A3D852008B1D2E32DB927B2F833C6EA9587992
311
5356D254582695095A3CE982924720BE5774A3CB9CDCDB350427D2DF20DA1B5532EBE2D5D6288D75D4F7E4FD9890A0EF8E3D93EBB8F8BA4758158EF6FB90A6F9520281C93DE7AAC6D24607DA296BB96018123F821A7D6A5C5884050C475DA4865442732C8B95684A50165CBB3A32F25F783A4A480ED59AD7F924B968AEA501
311
31F46303223E6A397B0E52976030DC1DCA81D7E7C1EDEEA42C19FF27635C505E2BD5198A599020DF50A2330FCB3AAF28CB0124108429553EF1B228802E2265D8F7CC2401042B155BCC7070F1E5C55F13B4A9577362CCCE46C32174E010C3C378C44841A4BDA00FE3A12006CE11EE6AEC59894D3526DDE1CD59D503ECC32401
311
7F8061B7F162162FA62EDD81AE3308617770796DCBDAD2B2625C5AE8A63DE20B2C8AA5E95E76E5730823955956E33E705425A2187C185D36489A1B44D3DCEC2172F6BA2105C3546287A7194B2331768EBBE64F6E70A9930ABE0ADEA89E9E2C38523B810287AD67A54A039C1606EAFE68F8304610BB9093DBDDABC0B2AE4E29
311
0DCDA15376D7E39F72B556F0B32EAB5D3D498B4C41ABADEC3A1434C422D87E8025A84BDCB2B1417ED750FAE4DA8976863974C577C7F902D3F156AD354DEA3540DE6BEAE2BEA52F7A2EB4CA43802ECE5BF2CE2EDC9347179FFB023CE412E60BE16DA0BE29B374988A553F561DC04615DD35F7D2C8979F60E5955CE93DF29DED
311
8AFA1EE6642D53418086C03C47C377910F75F7E8F5EF665F70B60FFB22AEDF897D119E8423C773E819A3C1E55E550599EE6EDCA34D0C86FD72057DF2CD46F16A470682471C164E4346D5306BF12D7D12D82CFF673D41636C347443FEB51B50D72EA171A8E4A58623A4A16E0FA2B8B10A0D23268D87C33896EE8FB73305A74B
311
F224EDBADFA0BD674AB354D63DB7BD5D83426761C077DE767728235446A552754EB93B755891C3C4CC6CADE37CF0E912A7BB38DBA010F9DE1282EDF470CA69A9CDA482E334C4A6EA4107987980B17E72F31730EBF88BBD39E7C629F56797A3C0009C2C5AE7951D9A05A02773440F02EEB4DE396A3B6A570C72CCFBCD823B0B
311
8ED3F1D5CEDDFED772FA70236C83FB7D86C385D570B87107535572A60A96035F8F7C6A7192F13007246BBE0521855E6AC46F3E27689CEE7D186A6FD679D98CDCAD13333E04EBE7ED6F55FF01504B0304140006080800099181576180134D5F0100006B0300004500000045423441383537462D334336312D344434422D3945
311
30412D3444393630313238433643322F536368656D61732F52656E6465724D6174657269616C536368656D612E786D6CA5934D6FC2300C86EFFB1551EEE343DBA41D1A103009551ADAD40EAE28A4A68D9426284961FCFBE5A340113B2071746D3F765EBF4DC6BFB5407BD0862B49F0B037C0082453059725C18DDD3EBFE3F1
311
E829991803366715D474942CD30FB4A782E00C64017A412D684E454CE3FE28995203B162A6EA5AC94B66997D225E109CD63B0135484BAD1B3C07E9080CA35DB3119C11BCA5C200461A68A1A438126C75E3E230D40FF81FB3F03C91D1E3A3A0AF79FE28E25BC39EC3E17E4C2A2D94A0833A51AF55BCCA7D88572FCBAC529C41
311
40B020FC3AAFA886621DCED7EAD7664CC86024E806DC297DA1BB393E4156543457A4537DB8817349A70F8ACBF09B3EEE2CB2F33E91B65D60786E4E3B39B77E3FEEEF5650424525DA657FB8B46BE6BF064646F0A0F7327C0BC1BC1B4CBBC1C419FA3CCB23500007872A2580CAAE5461865565294E4EDB4617B62FF579DF9A5B
311
2F54E834076A597573A020912FED777F9B3F504B0304140006080800099181576E0A5CB551000000570000004700000045423441383537462D334336312D344434422D394530412D3444393630313238433643322F4173736574446174612F41737365745461626C654F66436F6E74656E74732E62696E536160603031B5B0
311
74717474D33576B470D335B13472D5B5B43430D5353133B1347171B5303231741202AACB4D2C492DCA4CCC492C28484D2C4ACC4B4E050A82012F90744FCD03CA26072767A4E6260200504B030414000608080009918157F865834058000000680000004500000045423441383537462D334336312D344434422D394530412D
311
3444393630313238433643322F4173736574446174612F53747265616D56657273696F6E5461626C652E696E66558CBD0A80300C06F73E4B117FB66E451741D041DC5BF98480A492E4FDD18EAEC7DD4555D89EF28DF51A0B1BD8340C4DE7DD848B988C0ACF0649566493F2408C508DDEBB99D5129FF8F1AF8CF5B9503E20FA
311
E5A16B5AF702504B03041400060808000991815703828A57330100009A0400003600000045423441383537462D334336312D344434422D394530412D3444393630313238433643322F4173736574446174612F636E782E786D6CCD94314FC3301085FF4AE43D7652965239AE102C9D40A26260BB3A97D6AA6347F605C1BFC7
311
4E32808A983A743DBF3B3F7FF23BB9FDEC6DF181211AEF1A56F38A15E8B46F8D3B366CA4AE5CB362AB64F09E7EC858E1A0C786E53253F218FC382CA5163B186DAE5AE3CE4BF12146A43D1C2C3E778FDE113A8AACD016626C58D427EC81C348BEC578E62D10F09A078C7E0C1AD324323D2E937440206C995A55ABBBB25E9555
311
BDAFD79B6ABDA9EFDFA5C84A250FDEDB456FD265C10F859E6F65AA92221F2B3906B368F25B98FACB233F182745522A192924264B077D0DA90386C11A0D94D009AF09A94C22845E8A59ACA4C80C7E9178C2CE38935B76C918900F2FC91E0632787344FEF37A7D323B17099CC6DBE571E9F0FA145EA71FF43607724ACCADE5E4
311
D22137AEBB424AC4B4465268F25651DF504B0304140006080800099181578E1C3240070100004F0300003400000045423441383537462D334336312D344434422D394530412D3444393630313238433643322F536368656D61732F636E782E786D6CCD93BD4E042114855F65423FCC8FCDB861D8620B2B1BB5B243E6EE4A16
311
B8930B187D7B61A4D84DECB4D80E0E5FC839878BD87F3ADB7C0005837E6603EF59035EE362FC6966291EDB89357B2908315E60ACF1CAC1CC8ACCA43811A6B54A0B1C55B245B5C69FAB7840E7D03FEB77708A35DAAA106616B62D5729E202E1CC1715151F3841C0441AF20DD138A837680215616172ECC7BB7618DB7E7819A6
311
5D3FED86FB57D115528A37445B79E32310AE8DC6BCF0D94E2FBA722C452253999281C94B6F3CB721BA4C481122E50E2A19BFD64CAA75B546AB98ABEA36F08791A22B51AF023F800732FA36135F99FBB7C84FE017A0C7FC4A6494BDCDE4BF79FC5B01DD36FB7904CA5790DF504B030414000608080009918157410A3D587100
311
0000A40000002C00000045423441383537462D334336312D344434422D394530412D3444393630313238433643322F636E782E786D6C55CC4D0E82301086E1AB34B31774E7A22D31F1069E60020334B633A63FC6E34B0909B07DDE2F9FEE7EC1AB2FC5E4840DDC9A2B28E25E06C7938192C7CB1D54677514C9871928C64006
311
2A83D55394F2D968A0118BAFEA1DBF377CA444F98919176EAB9FEAAB9F2960DA5BBB1E2ED3FA6FFF504B030414000608080009918157CF55060B7F000000A300000007000000636E782E786D6C4D8CD10E822018855F85FDF71418116E8053B2F77089CE85D0485A8F1F342FBAFACEBE9D7364F3591D7ADBF85A8257400F04
311
90F5F7302E7E5690B6090B408D963184EDAF06C80FAB5550346839C7909EBB1AED342457AC5BFC63977DC75A71BEDCF0C9708AD99575B8EE499B53CD09AD84E1A6CA8B639964FCFE32CBBDFE02504B03041400060808000991815716E99B5DA600000035010000130000005B436F6E74656E745F54797065735D2E786D6C95
311
90410E82301045AFD2740F4517C6180A0BF5065E60AC53688469D30E066F6F91AD9AB89CF9FFFD3F99BA9DC7413C3026E749CB4D59498164FCCD51A7E5C4B6D84BD136F5E5193089ECA5A465CF1C0E4A25D3E308A9F401292BD6C711388FB15301CC1D3A54DBAADA29E38991B8E0254336F5092D4C038BF39CD76B6FC6A538
311
AEBEA54A4B08617006389FA516557DE4AE8E7E70DE30729138228C5F021CD93F02D4FB0DCD0B504B0304140006080800099181573DEE336E64000000790000001B0000006175746F6465736B2D64657369676E2D7061636B6167652E786D6C35CBC10E83200C00D05F21DCA56CA76D41FC96062B120735B69A7DBE268BB777
311
7961F8D5AF396893C2ADB70FE7ADA196782C2DF776D7A97B5933C430F15651E5469C55D70F80A4992A3ADC954792C525AE70A1E4D6AD9816CC044FEFDF01FE3FDE907802504B0304140006080800099181572A3D1634F8000000960100003700000045423441383537462D334336312D344434422D394530412D3444393630
311
313238433643322F4173736574446174612F636F72652E786D6C8550CB6EC32010FC156BEFD86027AD1361A2B4B85FD0536F0888831283C5A3EAE71762576A4F3DED6A76667677E8E96BBE579FDA07E3EC00A4C650692B9D32761A20C50BEAA13A31EA9D8BBF68505931EB010A0C8C4EDEA56583A4B351DB825AA7F4068A10
311
74844ADE73334090573D8B5AA49819E1562F42DEC4A46B52AF3C4653326A931A95DDCCC5680F0CBFBD921D7E1A11DF1F30DA91178ECE981FD073CB493FF28EECC79E3645CC6834F3CF76E9B5885A016B71DB21D2224CDE497FC4FD911C3E6853988C86E8F3CFDBD2F21DB073B99A8B2868B34EFFB8A645FDEF9A8C8D5DBBB9
311
AE8A008CE4231F03469B92522E8F08732D89B26F504B0304140006080800099181579B3FD431F7000000940100003500000045423441383537462D334336312D344434422D394530412D3444393630313238433643322F536368656D61732F636F72652E786D6C8550CB4EC33010FC9568EF4EECA485A4725C01093F00276E
311
96EDA6561B3BF203F1F9D84990E0C46957B333B3BB43CF5FF3BDF854CE6B6B7A202586421961A536530F315C500BC59951676DF84583C2F059F59061607472362E3B24AC09CA64D458A976907BAF0214E29E9A1EBCB8AA99973C86C4F0B772E1E2C627559272E3311AA396BB54CBE4A62F5A3960F8F5851CF0C388866387D1
311
813C0FE8090F1D7AAC07D28E43438E634BAB2C6634E8F967BB708A072581D5B86E10A91126EFA43DE1F644BA0F5A6526A33EB8F4F3BE347F07EC6DBDD3D36A9BFDF18C8BFCDF336A139A7AF7DC141E184927AE0346AB9C512A6B80A9E63CD937504B03041400060808000991815739D0DFB401010000D70100002D00000045
311
423441383537462D334336312D344434422D394530412D3444393630313238433643322F636F72652E786D6C9591C172832010865FC5D93B0A68AC66904C62D327E8A9372A1BC3248223D8E9E317AB9DB6B7F6C4CECFF72FFCBBE2F03EDC93379CBC71B601965248D0764E1BDB3730870BA92039483139177E609058356003
311
8B0C52F4939BC74DEA9C0D6817D53A8D9BA8BCC70049778F4503BEBBE2A052358748F85B3AAAEEA67A4C59BA725204337C59BB0955400D92539E13C60965CFACDAD36ACFEA17912DA414B3B121E7DB6338BCA24EDC186224903B91ADB7919A8DDE18A3E31FCDC5E004F27C2A8ED5EEE189E46DC948F1589C487DA6C758D525
311
65BC6ACB96C726D12C850F539CCCD66499C15FEDABF157B279D4FF4CB63A3C48F61D2A5BC62C45F6B983782E2B911F504B0304140006080800099181577C3F502407010000B201000008000000636F72652E786D6C8D504B6EC32014BC0A628F0D76D23A11266A6BF7045D754781382836587CA2F6F685984AEDAEAB8766E6
311
BD19869E3E9719DC94F3DA9A1E920A43A08CB0529BA987319C5107C18951676DF82583C0F045F530C390D1C9D9B81648581394C9A8B15215907BAF0204624E8F1E7A71510BAF780C49E1AFD5CAC5954FAA22D5A66334E8E5675538C583929035B869116910266FA43BE2EE480EEFB4CE4A4663D4B2586999DCF5592B07197E
311
7D213BFC30A2617FC068479E07F48487037A6C06D28D434BF66347EBBCCCA80F2EFDB91C493903F0FC967D69BD518C7E583B17410A258135F35732A17526FE848EABFC47686D42DB9483DB86878CA440772219E706D3B8D79B666E9B7D03504B0102140014000608080009918157047EDD80BF000000200100004F00000000
311
0000000000000000000000000045423441383537462D334336312D344434422D394530412D3444393630313238433643322F4173736574446174612F446566696E6974696F6E4974657261746F7250726F706572746965732E62696E504B0102140014000608080009918157951EFEC3EA0000003002000045000000000000
311
000000000000002C01000045423441383537462D334336312D344434422D394530412D3444393630313238433643322F4173736574446174612F496E7374616E636550726F706572746965732E62696E504B010214001400060808000991815728BB58AF800100009E0500003D000000000000000000000000007902000045
311
423441383537462D334336312D344434422D394530412D3444393630313238433643322F536368656D61732F436F6D6D6F6E536368656D612E786D6C504B01021400140006080800099181572CCEBD668A040000E01200003E000000000000000000000000005404000045423441383537462D334336312D344434422D3945
311
30412D3444393630313238433643322F536368656D61732F47656E65726963536368656D612E786D6C504B01021400140006080800099181576180134D5F0100006B03000045000000000000000000000000003A09000045423441383537462D334336312D344434422D394530412D3444393630313238433643322F536368
311
656D61732F52656E6465724D6174657269616C536368656D612E786D6C504B01021400140006080800099181576E0A5CB551000000570000004700000000000000000000000000FC0A000045423441383537462D334336312D344434422D394530412D3444393630313238433643322F4173736574446174612F4173736574
311
5461626C654F66436F6E74656E74732E62696E504B0102140014000608080009918157F865834058000000680000004500000000000000000000000000B20B000045423441383537462D334336312D344434422D394530412D3444393630313238433643322F4173736574446174612F53747265616D56657273696F6E5461
311
626C652E696E66504B010214001400060808000991815703828A57330100009A04000036000000000000000000000000006D0C000045423441383537462D334336312D344434422D394530412D3444393630313238433643322F4173736574446174612F636E782E786D6C504B01021400140006080800099181578E1C3240
311
070100004F0300003400000000000000000000000000F40D000045423441383537462D334336312D344434422D394530412D3444393630313238433643322F536368656D61732F636E782E786D6C504B0102140014000608080009918157410A3D5871000000A40000002C000000000000000000000000004D0F0000454234
311
41383537462D334336312D344434422D394530412D3444393630313238433643322F636E782E786D6C504B0102140014000608080009918157CF55060B7F000000A3000000070000000000000000000000000008100000636E782E786D6C504B010214001400060808000991815716E99B5DA6000000350100001300000000
311
000000000000000000AC1000005B436F6E74656E745F54797065735D2E786D6C504B01021400140006080800099181573DEE336E64000000790000001B00000000000000000000000000831100006175746F6465736B2D64657369676E2D7061636B6167652E786D6C504B01021400140006080800099181572A3D1634F800
311
00009601000037000000000000000000000000002012000045423441383537462D334336312D344434422D394530412D3444393630313238433643322F4173736574446174612F636F72652E786D6C504B01021400140006080800099181579B3FD431F70000009401000035000000000000000000000000006D1300004542
311
3441383537462D334336312D344434422D394530412D3444393630313238433643322F536368656D61732F636F72652E786D6C504B010214001400060808000991815739D0DFB401010000D70100002D00000000000000000000000000B714000045423441383537462D334336312D344434422D394530412D344439363031
311
3238433643322F636F72652E786D6C504B01021400140006080800099181577C3F502407010000B2010000080000000000000000000000000003160000636F72652E786D6C504B050600000000110011005A060000301700000000
310
504B030414000608080009918157000000000000000000000000370000006662782F32343232373244392D443838432D343732302D413734462D3835453045303933343343352F617474726962757465732E62696E504B030414000608080009918157000000000000000000000000350000006662782F3234323237324439
310
2D443838432D343732302D413734462D3835453045303933343343352F76657274696365732E62696E504B030414000608080009918157F270F1330600000004000000360000006662782F32343232373244392D443838432D343732302D413734462D3835453045303933343343352F747269616E676C65732E62696E6366
310
60600000504B03041400060808000991815751464CB48900000043010000360000006662782F32343232373244392D443838432D343732302D413734462D3835453045303933343343352F6469726563746F72792E786D6C9D8F310EC2300C45AF127987122606C71DD918B841D4B851A43646695A717C52A85029031293A5
310
A76FBF6FACEF7DA7264E43906840EF0FA03836E242F406C6DCEE4EA06AC22492573150D1F66C60C640E8938CB705396EEDD86DE9B5042FE27813D640EA63BB001C722AF6E55CB61E4863F58284D5D3F53DD715CE1C3985E63FD7F1B7EBDD617E9F1E504B0304140006080800099181577383D45738070000201C0000340000
310
006662782F32343232373244392D443838432D343732302D413734462D3835453045303933343343352F6F626A656374732E786D6CDD59DB6EDB3810FD1542FBB2FBA09B2F8955282E1C3B298C226D51A38B7D13689976B8D10DA49438FBF53BA4485992655BE9B640B10990380C359C3933736638F2DFEFE3083D13C6699A
310
DC18AEE518882461BAA1C9EEC628F2AD3931D0FB29F2599AE6B57D064A704C6E0CB16C4CFD1D4B8B4C2D6DC81617517BF5FEF62FC4439210038511E6FCC6E0E12389B1858B3CDD10FE646D708EADDD766FB956B9B12976C770F6D83A2AC38C2439A80AEB0948511AB8CD3FC1247BEADB624363DBA0DFB6E1996DB634BCA928
310
4D788E93F048AB969C413FAD86EE687137187BE678341A9AA3AB816BDEDEDF2E4CF77AE8CCAFE6736F76E71968EAAFD334AA1C909164035E7C35A6AE6F8BFF54E62B14BAF40ED32421A142B36BC38628B994F036260D605D695ACD21A5ADB585614FE34F6CEB054A43A506DADA38FDBB1EBDE9FA6F0081F78952C68988729E
310
33F0B5C2BECC07C7B7CBD5865F284731CE09A33842115D33CCC041B0B57450438CC816210A09CCA417B5BCBAAE10D89773A94BCB6D1145227F8DA9CCB400F291E45C6A46FF21ECA07DFD34D009AC2D68924F94B1F96B06223CDF968BE5FF8603F5CF1248B48DF00EA205CC149B8683165E73C105CB8531FD78BFDEAF043F74
310
1F9EB134232C1791279359E59DF6602DB420F87A8052E2DAF4DD0195AF00FD2740BED205F9E03946F7A3FD48DBCE70C2B7298BC13BC841A6033F1C243E1E7DF2EDEAE129420DAE3C8529A4ED0FC2B46146E3EC1AA453FF19823E654365DC2AC411C4F4034D449E43A0A0288525E0FBED7A6F4C9740A6B0084FE108AC876FDF
310
161F11FC2AE500DFB43CD445BF3D1CA513A69D67075F7D80986134AC5CD5B0F114BEE31F82EF6CB1FAB82AD81687E44125F6826C69427328A6DD0A35406FA4FCB7E527999147F634768570CE2E15C4D1E19795F20B928E0155441D2E5D23571E28A47B14E184A40557EB5D4415A651CA82F56B50E670E7597FEA20280F83FC
310
1611D0496650DD434633018A3155E6554C681D70123CA80270573A3558E3F049C01B84C058DFA307442D666DA1459C05384E8B44D0F77178B74DB3868EFC725D6FE078838977A58DE552BCCE1E4D0D95F2E29C1867270E9937BCA558434B2EF368046CD96541083D5391076986439A77C742CB0895A100F659953774BB2D38
310
907A272C2D8DADA13B464EED6775C879EDD521018DF18E045B2C2A5CE7790D802AE1DA824E647651CA394D08971DCA1173B550712C2082326EB5D48E20A43C88498EBF27FE64C96B851F23DB28805E2A17DDECE5E8D30AAAEA794AA2E8DCD22490F6BF061CC75954766997307007AD133A71154A8B239E21DE029C07CE86C8
310
A6FB92F48A1734BEBDA47BDF2DFE043C0CFF7478F411145A6FA891973DEB5A63D7135F132095ABB13BBCD68EB884953E2A173D485440D714BE062F84EE1EFB115AAF733889B6018DA2220ECA7A9093185A309C17AC57BE5E8D9D23E72B5E682544EDA42D8DA041EE4D9AB2F7D0DD0758259B8F53A4593B068CA209DCD17A19
310
72644567084B5FC8FBA8B8765DF6FEDBA5FE67BEACDF539EC8EB4BCA369D9A36DB08DD81E98641D0A5AA70551C49C953BF9E7CB1BCB85CC661A485287E2B6F092A421879A66230216F409DF707FE82F3108874257F9BB790111BB239F4140D716ACC614CE1502D4DF7A9F59B0E909D281F8DC66B290835866903163CFB203E
310
445F31B81A3A3F6EABAEC62ED797A2B059305839E87146D6E70FAB961458E9FDF417811179694950AB73D1C89D11F56D79E8575B129445DF96671ECF1F8B789D602A2AA3080BBCC9DEBD9777C91B1B2E0AB673EBCE16F3BB9939185F4DCCD1FCDA336730B230BDF1F5E0CE5B7823673EB319E169C142C2ED81ED04BA77CA92
310
9D0E8C12BA3E370A982A5CBEFAE9786E3BF87F7CA388D2353E158BBFEA85A26AF74443D6CAC5BE178A4EA25EBFADFB778F88BABB88BDA9732E67053AC0CF972D20235DEFFBB7165AB4EE24BA75AE55C43716DE93B7959F5E631A84DE591F1A3BBA28BFC9C5307BEAA852FA762B796D349E788BD9ECDE1CCE26F7E6C81BDC99
310
9EE78C611A3BF2603A3B198CDCDB0A71550BFBD6955F8243B5B2B5311A4C83791A5118CA930DDA91146E403075E8C1AF2C265CDE6CA00150655CBF11E8F1F4733953CDF13AD24F878F1806D391AAC845084351B875DC186A1DFD066350318994C329EB090A8F8A7603158CDE1810023985FA62AD619C258787527A6B5C096E
310
C3C94EDC99CAA7AABF0F8F097420560E76557BFAE0A22C6B44270C0732F99E00D84E3724DF6FBA5607E11C3EAE8BBC32E6B070B04681A05F0894C6C1D4EF49C1BB07E2396F976BC93D0D487A4DE6CFC64129D5CC31DBC9F17A0DEFD9E28B2D26E3CBCF288B8A9D70E7B97ADF90648A3E232ACA21940F81A1CCCCB0B887CFDF
310
D95F580AAF9862744F2108D0EFFBC9D51FF63C8DE3342997EC997A5185568FF0DA6963EB911F342E8E3BB665DFA3C6FA30B7E2C4C21BFE040BE05A46C56CB484B81100153DD502407B44F8021E6BEC5F2E902A02B516B6DEBA0A78E44C1F4122897739226DEA1B6A0348C805D0AA9CD3561FF4826F3318824FFF05504B0304
310
14000608080009918157903CFCF43D01000046050000300000006662782F32343232373244392D443838432D343732302D413734462D3835453045303933343343352F636E782E786D6CCD94C14E032110865F8570DF65A997DAB034E9C127F060BCB1EC74C5B2B0815963DF5EA8B46A4C8D8726ED8D0CFF24FF37F367C4FA
310
7DB4E40D4234DEB594D70D25E0B4EF8D1B5A3AE3B65A52B29622788FDF64943835424B73994A31043F4FA5D4C356CD3657AD71BB525488C1743342A4445B15634BA37E8151D56A46DF43DCD5BD4255F33A40F473D090FAD18C50FA750085D053B9681677155F540D7FE4CB55B35CF1FB67C1B2528ACE7B5BF4C621043F11ED
310
D3C325338D60F95B8A3998A2C904547E39AB3BE3044BFF52C4E4D60D4587FB29EBA6C91AAD308D89798D805512811A05FB144BC132EF0FEA87CDD3D101E94D008D3EECAF34007E6E002763754AC2FFF80FC2BFB17DF79A70AFB5EDB3B0C5D6C5508F698D29AEBFF79F52A4DC606F2FF4276397CF7C3A2568F4ED211F7D5D88
310
981D4E5E5A7ABE80F203504B030414000608080009918157AFA8176C7E000000A30000000B0000006662782F636E782E786D6C4D8CD10A832018465F45FE7B376786066A8C6AEF11CB42663A5C468F3F1D5DECEA83C3778E6C8FD5A1DDC48F0D5EC1ED420019FF0C93F58B82B4CD58006AB58C216C7F37407E5C8D828241CB
310
2586F43ED164E631B9429DF5AF13524629A77D837B213ACC3825F8CED9038B7A2003692A56757536AE45C9F3EBE52D79FD05504B030414000608080009918157A6D797065F0000008200000007000000636E782E786D6C4DCB3B0E80201045D1AD90E9FD7516806B51190811670C8A61F982B1B0BAC9C97B72CA7B1037C6D3
310
332918DA1E04D2CAC69353902EDB8C20262D23F3F59B81A079470595414B17391D1F19B4730A5583A7ED43BBE4025D9592775E5ADFFA01504B0304140006080800099181574FEB6A7CA0000000F4000000130000005B436F6E74656E745F54797065735D2E786D6C7D8F4B0EC2300C44AF1279DFA6B0400835ED02B8011730
310
C16D239A8F121795DB93D02D6269CFBC19BBED573B8B17C564BC53B0AB1B10E4B47F18372A5878A88E20FAAEBDBD032591BD2E299898C349CAA427B2986A1FC86565F0D122E7318E32A07EE24872DF3407A9BD63725C71C980AEBDD080CBCCE2BAE6F5D69B7110E7CD57AA146008B3D1C8F92C5954F993BB1BF787F39A89AB
310
C491D09600F9FDA2FB00504B0304140006080800099181573DEE336E64000000790000001B0000006175746F6465736B2D64657369676E2D7061636B6167652E786D6C35CBC10E83200C00D05F21DCA56CA76D41FC96062B120735B69A7DBE268BB7777961F8D5AF396893C2ADB70FE7ADA196782C2DF776D7A97B5933C430
310
F15651E5469C55D70F80A4992A3ADC954792C525AE70A1E4D6AD9816CC044FEFDF01FE3FDE907802504B0304140006080800099181572C296A99F8000000960100003B0000006662782F32343232373244392D443838432D343732302D413734462D3835453045303933343343352F7265736F75726365732F636F72652E78
310
6D6C8550CB6E833010FC15B47703361491C8386A68FB053DF566990DB1126CE447D5CFAF1DA8D49E7ADAD5ECCCECEEF0D3D7722F3ED1796DCD00B4ACA140A3ECA4CD3C400C17D2437112DC591B7ED1A03072C101320C82CFCEC675879435014D468D9D7007A5F718A050F7D40CE0D5151759CA1812C3DFCA55AA9B9CB1A4E5
310
C6133C463DED523D25377DD1E84074FDF3B96F5E3BC268DD92B66B1B7238334ADE683F32FAD4BD8C6CE455160B1EF4F2B35D3994012710AC660DA18CD4F49DF6C7BA3FD2C307AF3253701F5CFA795F9ABF03E1D0DBE8147A5E6DD33FAE719DFE778DDA8486EDAE9BC283A0E9C8C740F02AA794CA23C25473A2E21B504B0304
310
1400060808000991815795B15EF9F1000000B1010000310000006662782F32343232373244392D443838432D343732302D413734462D3835453045303933343343352F636F72652E786D6C8D504B6EC32014BC8AC51E1BB023E3081345497A82AEBA43401C94182C3E518F5F885DA9DD65F5D0BC1966DEB0C3F7FCA89EDA07
310
E3EC08708D40A5AD74CAD86904295E2105D58133EF5CFC43039515B31E41810167937769D920E96CD4B6A0D629BD8122041D41251FF93182206F7A16B5483133C2BD5E84BC8B49D7B85E799C4533FF4AA5D7226A053841A4859840843F31DD23BAC7C3176B0A93B3948CDAAC8CCAEEE66AB4CF928E909E9C0778A6F404BB9E
310
2078ECBB0F487717744143DBB5A71D6B8A98B3107DBE79FBA45CF7AE7C15FECB9C16F5466663634B36C3551100C739CF6BC159530ACCE3D56E9EA56CFE03504B03041400060808000991815713304D7C53010000DD0200000C0000006662782F636F72652E786D6C8D52DB6E842014FC15C33B2A688DDB209BEEB6FD823EF5
310
8D45D692553008663FBFE025D6876E1B132473CE993933811CEF5D1B8DC20C52AB0AA0380591505CD752351570F60A4B101D29315ADB1F6D2052AC13150830A0A431DAF50BC4B5B2420554E95A2C201B066141C45B7FA9C0C0BF44C762E6ACEF186E71CFF88D352246F1DC478973B25E4665EDD9E4550A036851BE9CCAECAD
310
8018A539CC8B3C83871346F01D95678C9E8AD7333E93240C536265B7AA7323981535A038C5194418A6E80395CF69F98C0E9F24099D940CD678CF8B687007E8F57227C98CEFF85C5FFFCDE7A4B2195EF8E6890150E4D79B0A9424211FFF9BC2DB67E8857D7E965DDAD5C2CD43A3E0569BDC576AEDB6D2C85A273C751A4D1F49
310
E6AA679E087EE3C10F781E73F8A0986AFC6ACCFAEBC5D9A0BEDFA917068EF61E296D3AD66ECBCD2B6EE726B4B3B48E73DD6AF39FE9D5EA1A66121E26FD06504B0304140006080800099181579EE11B8606010000B201000008000000636F72652E786D6C8D50C16E842014FC15F2EE28A035EE06D9746DFB053DF54685B564
310
158CC0A6FDFBC26A93F6D6D32333F3DE0CC34F9FF3846E7AF5C6D90E684100693B3865ECD8410C17DC023A09BE3A177EC9005939EB0E320C828FAB8BCB0E0DCE066D336A9DD23B28BDD701D030A547077EF8D0B32C640C49E1AFC52287AB1C75418B4D277830F3CFEAB06A19B402C108AB306598D057DA1E497BA487375E66
310
A5E0311AB55B1995DCCDC5E81544D33E9EDBEAB9C18C921AD74D5DE1C39951FC42DB9ED187E6A9673D2FF3B2E03EACE9CFFB919433202F6FD997971B25F8BB73D32E48A1147276FA02417899893FA1E3A2FE11DAD850B1FDE0B6E141D014E84E24E3DC601AF77AD3CC6D8B6F504B0102140014000608080009918157000000
310
0000000000000000003700000000000000000000000000000000006662782F32343232373244392D443838432D343732302D413734462D3835453045303933343343352F617474726962757465732E62696E504B01021400140006080800099181570000000000000000000000003500000000000000000000000000550000
310
006662782F32343232373244392D443838432D343732302D413734462D3835453045303933343343352F76657274696365732E62696E504B0102140014000608080009918157F270F13306000000040000003600000000000000000000000000A80000006662782F32343232373244392D443838432D343732302D41373446
310
2D3835453045303933343343352F747269616E676C65732E62696E504B010214001400060808000991815751464CB489000000430100003600000000000000000000000000020100006662782F32343232373244392D443838432D343732302D413734462D3835453045303933343343352F6469726563746F72792E786D6C
310
504B01021400140006080800099181577383D45738070000201C00003400000000000000000000000000DF0100006662782F32343232373244392D443838432D343732302D413734462D3835453045303933343343352F6F626A656374732E786D6C504B0102140014000608080009918157903CFCF43D0100004605000030
310
00000000000000000000000000690900006662782F32343232373244392D443838432D343732302D413734462D3835453045303933343343352F636E782E786D6C504B0102140014000608080009918157AFA8176C7E000000A30000000B00000000000000000000000000F40A00006662782F636E782E786D6C504B010214
310
0014000608080009918157A6D797065F0000008200000007000000000000000000000000009B0B0000636E782E786D6C504B01021400140006080800099181574FEB6A7CA0000000F400000013000000000000000000000000001F0C00005B436F6E74656E745F54797065735D2E786D6C504B010214001400060808000991
310
81573DEE336E64000000790000001B00000000000000000000000000F00C00006175746F6465736B2D64657369676E2D7061636B6167652E786D6C504B01021400140006080800099181572C296A99F8000000960100003B000000000000000000000000008D0D00006662782F32343232373244392D443838432D34373230
310
2D413734462D3835453045303933343343352F7265736F75726365732F636F72652E786D6C504B010214001400060808000991815795B15EF9F1000000B10100003100000000000000000000000000DE0E00006662782F32343232373244392D443838432D343732302D413734462D3835453045303933343343352F636F72
310
652E786D6C504B010214001400060808000991815713304D7C53010000DD0200000C000000000000000000000000001E1000006662782F636F72652E786D6C504B01021400140006080800099181579EE11B8606010000B201000008000000000000000000000000009B110000636F72652E786D6C504B0506000000000E00
310
0E0080040000C71200000000
  0
XRECORD
  5
839E
102
{ACAD_REACTORS
330
8399
102
}
330
8399
100
AcDbXrecord
280
     1
270
     1
271
     1
  0
XRECORD
  5
839D
102
{ACAD_REACTORS
330
8399
102
}
330
8399
100
AcDbXrecord
280
     1
270
     1
271
     1
  0
XRECORD
  5
839F
102
{ACAD_REACTORS
330
8399
102
}
330
8399
100
AcDbXrecord
280
     1
270
     1
271
     1
  0
XRECORD
  5
839C
102
{ACAD_REACTORS
330
8399
102
}
330
8399
100
AcDbXrecord
280
     1
270
     1
271
     1
  0
XRECORD
  5
87E5
102
{ACAD_REACTORS
330
87E4
102
}
330
87E4
100
AcDbXrecord
280
     1
102
DISPLAYNAME
  1
Imperial24
102
FLAGS
 90
        0
  0
CELLSTYLEMAP
  5
87AC
102
{ACAD_REACTORS
330
87AB
102
}
330
87AB
100
AcDbCellStyleMap
 90
        3
300
CELLSTYLE
  1
TABLEFORMAT_BEGIN
 90
        5
170
     1
 91
        0
 92
    32768
 62
   257
 93
        1
300
CONTENTFORMAT
  1
CONTENTFORMAT_BEGIN
 90
        0
 91
        0
 92
      512
 93
        0
300

 40
0.0
140
1.0
 94
        5
 62
     0
340
83CC
144
0.25
309
CONTENTFORMAT_END
171
     0
 94
        0
309
TABLEFORMAT_END
  1
CELLSTYLE_BEGIN
 90
        1
 91
        1
300
_TITLE
309
CELLSTYLE_END
300
CELLSTYLE
  1
TABLEFORMAT_BEGIN
 90
        5
170
     1
 91
        0
 92
        0
 62
   257
 93
        1
300
CONTENTFORMAT
  1
CONTENTFORMAT_BEGIN
 90
        0
 91
        0
 92
      512
 93
        0
300

 40
0.0
140
1.0
 94
        5
 62
     0
340
83CC
144
0.18
309
CONTENTFORMAT_END
171
     0
 94
        0
309
TABLEFORMAT_END
  1
CELLSTYLE_BEGIN
 90
        2
 91
        1
300
_HEADER
309
CELLSTYLE_END
300
CELLSTYLE
  1
TABLEFORMAT_BEGIN
 90
        5
170
     1
 91
        0
 92
        0
 62
   257
 93
        1
300
CONTENTFORMAT
  1
CONTENTFORMAT_BEGIN
 90
        0
 91
        0
 92
      512
 93
        0
300

 40
0.0
140
1.0
 94
        2
 62
     0
340
83CC
144
0.18
309
CONTENTFORMAT_END
171
     0
 94
        0
309
TABLEFORMAT_END
  1
CELLSTYLE_BEGIN
 90
        3
 91
        2
300
_DATA
309
CELLSTYLE_END
  0
XRECORD
  5
87E2
102
{ACAD_REACTORS
330
87AB
102
}
330
87AB
100
AcDbXrecord
280
     1
102
ACAD_ROUNDTRIP_PRE2007_TABLESTYLE
 90
      512
 91
        0
  1

 92
      512
 93
        0
  2

 94
      512
 95
        0
  3

  0
XRECORD
  5
87BD
102
{ACAD_REACTORS
330
87BC
102
}
330
87BC
100
AcDbXrecord
280
     1
102
RTVSPost2010Prop28
280
     1
102
RTVSPost2010PropOp28
 70
     1
102
RTVSPost2010Prop29
280
     1
102
RTVSPost2010PropOp29
 70
     1
102
RTVSPost2010Prop30
280
     0
102
RTVSPost2010PropOp30
 70
     1
102
RTVSPost2010Prop31
280
     0
102
RTVSPost2010PropOp31
 70
     1
102
RTVSPost2010Prop32
280
     0
102
RTVSPost2010PropOp32
 70
     1
102
RTVSPost2010Prop33
280
     0
102
RTVSPost2010PropOp33
 70
     1
102
RTVSPost2010Prop34
280
     0
102
RTVSPost2010PropOp34
 70
     1
102
RTVSPost2010Prop35
280
     0
102
RTVSPost2010PropOp35
 70
     1
102
RTVSPost2010Prop36
280
     0
102
RTVSPost2010PropOp36
 70
     1
102
RTVSPost2010Prop37
 90
       50
102
RTVSPost2010PropOp37
 70
     1
102
RTVSPost2010Prop38
140
0.0
102
RTVSPost2010PropOp38
 70
     1
102
RTVSPost2010Prop39
140
1.0
102
RTVSPost2010PropOp39
 70
     1
102
RTVSPost2010Prop40
 90
        0
102
RTVSPost2010PropOp40
 70
     1
102
RTVSPost2010Prop41ColorIndex
 90
       18
102
RTVSPost2010Prop41ColorRGB
 90
        0
102
RTVSPost2010PropOp41
 70
     1
102
RTVSPost2010Prop42
 90
       50
102
RTVSPost2010PropOp42
 70
     1
102
RTVSPost2010Prop43
 90
        3
102
RTVSPost2010PropOp43
 70
     1
102
RTVSPost2010Prop44ColorIndex
 90
        5
102
RTVSPost2010Prop44ColorRGB
 90
      255
102
RTVSPost2010PropOp44
 70
     1
102
RTVSPost2010Prop45
280
     0
102
RTVSPost2010PropOp45
 70
     1
102
RTVSPost2010Prop46
 90
       50
102
RTVSPost2010PropOp46
 70
     1
102
RTVSPost2010Prop47
 90
       50
102
RTVSPost2010PropOp47
 70
     1
102
RTVSPost2010Prop48
 90
       50
102
RTVSPost2010PropOp48
 70
     1
102
RTVSPost2010Prop49
280
     0
102
RTVSPost2010PropOp49
 70
     1
102
RTVSPost2010Prop50
 90
       50
102
RTVSPost2010PropOp50
 70
     1
102
RTVSPost2010Prop51ColorIndex
 90
      256
102
RTVSPost2010Prop51ColorRGB
 90
-16777216
102
RTVSPost2010PropOp51
 70
     0
102
RTVSPost2010Prop52
140
1.0
102
RTVSPost2010PropOp52
 70
     0
102
RTVSPost2010Prop53
 90
        2
102
RTVSPost2010PropOp53
 70
     1
102
RTVSPost2010Prop54
  1
strokes_ogs.tif
102
RTVSPost2010PropOp54
 70
     1
102
RTVSPost2010Prop55
280
     0
102
RTVSPost2010PropOp55
 70
     1
102
RTVSPost2010Prop56
140
1.0
102
RTVSPost2010PropOp56
 70
     1
102
RTVSPost2010Prop57
140
1.0
102
RTVSPost2010PropOp57
 70
     1
102
RTVSPropertyOp0
 70
     1
102
RTVSPropertyOp1
 70
     1
102
RTVSPropertyOp2
 70
     1
102
RTVSPropertyOp3
 70
     1
102
RTVSPropertyOp4
 70
     1
102
RTVSPropertyOp5
 70
     1
102
RTVSPropertyOp6
 70
     1
102
RTVSPropertyOp7
 70
     1
102
RTVSPropertyOp8
 70
     1
102
RTVSPropertyOp9
 70
     1
102
RTVSPropertyOp10
 70
     1
102
RTVSPropertyOp11
 70
     1
102
RTVSPropertyOp12
 70
     1
102
RTVSPropertyOp13
 70
     1
102
RTVSPropertyOp14
 70
     1
102
RTVSPropertyOp15
 70
     1
102
RTVSPropertyOp16
 70
     1
102
RTVSPropertyOp17
 70
     1
102
RTVSPropertyOp18
 70
     1
102
RTVSPropertyOp19
 70
     1
102
RTVSPropertyOp20
 70
     1
102
RTVSPropertyOp21
 70
     1
102
RTVSPropertyOp22
 70
     1
102
RTVSPropertyOp23
 70
     1
102
RTVSPropertyOp24
 70
     1
102
RTVSPropertyOp25
 70
     1
102
RTVSPropertyOp26
 70
     1
102
RTVSPropertyOp27
 70
     1
102
RTVSPropertyOp28
 70
     1
102
RTVSPropertyOp29
 70
     1
102
RTVSPropertyOp30
 70
     1
102
RTVSPropertyOp31
 70
     1
102
RTVSPropertyOp32
 70
     1
102
RTVSPropertyOp33
 70
     1
102
RTVSPropertyOp34
 70
     1
102
RTVSPropertyOp35
 70
     1
102
RTVSPropertyOp36
 70
     1
102
RTVSPropertyOp37
 70
     1
102
RTVSPropertyOp38
 70
     1
102
RTVSPropertyOp39
 70
     1
102
RTVSPropertyOp40
 70
     1
102
RTVSPropertyOp41
 70
     1
102
RTVSPropertyOp42
 70
     1
102
RTVSPropertyOp43
 70
     1
102
RTVSPropertyOp44
 70
     1
102
RTVSPropertyOp45
 70
     1
102
RTVSPropertyOp46
 70
     1
102
RTVSPropertyOp47
 70
     1
102
RTVSPropertyOp48
 70
     1
102
RTVSPropertyOp49
 70
     1
102
RTVSPropertyOp50
 70
     1
102
RTVSPropertyOp51
 70
     0
102
RTVSPropertyOp52
 70
     0
102
RTVSPropertyOp53
 70
     1
102
RTVSPropertyOp54
 70
     1
102
RTVSPropertyOp55
 70
     1
102
RTVSPropertyOp56
 70
     1
102
RTVSPropertyOp57
 70
     1
102
RTVSPropertyOp58
 70
     1
102
RTVSPropertyOp59
 70
     1
102
RTVSPropertyOp60
 70
     1
102
RTVSPropertyOp61
 70
     1
102
RTVSPropertyOp62
 70
     1
  0
XRECORD
  5
87BB
102
{ACAD_REACTORS
330
87BA
102
}
330
87BA
100
AcDbXrecord
280
     1
102
RTVSPost2010Prop28
280
     0
102
RTVSPost2010PropOp28
 70
     1
102
RTVSPost2010Prop29
280
     1
102
RTVSPost2010PropOp29
 70
     1
102
RTVSPost2010Prop30
280
     1
102
RTVSPost2010PropOp30
 70
     1
102
RTVSPost2010Prop31
280
     0
102
RTVSPost2010PropOp31
 70
     1
102
RTVSPost2010Prop32
280
     0
102
RTVSPost2010PropOp32
 70
     1
102
RTVSPost2010Prop33
280
     0
102
RTVSPost2010PropOp33
 70
     1
102
RTVSPost2010Prop34
280
     0
102
RTVSPost2010PropOp34
 70
     1
102
RTVSPost2010Prop35
280
     0
102
RTVSPost2010PropOp35
 70
     1
102
RTVSPost2010Prop36
280
     0
102
RTVSPost2010PropOp36
 70
     1
102
RTVSPost2010Prop37
 90
       50
102
RTVSPost2010PropOp37
 70
     1
102
RTVSPost2010Prop38
140
0.0
102
RTVSPost2010PropOp38
 70
     1
102
RTVSPost2010Prop39
140
1.0
102
RTVSPost2010PropOp39
 70
     1
102
RTVSPost2010Prop40
 90
        0
102
RTVSPost2010PropOp40
 70
     1
102
RTVSPost2010Prop41ColorIndex
 90
       18
102
RTVSPost2010Prop41ColorRGB
 90
        0
102
RTVSPost2010PropOp41
 70
     1
102
RTVSPost2010Prop42
 90
       50
102
RTVSPost2010PropOp42
 70
     1
102
RTVSPost2010Prop43
 90
        3
102
RTVSPost2010PropOp43
 70
     1
102
RTVSPost2010Prop44ColorIndex
 90
        5
102
RTVSPost2010Prop44ColorRGB
 90
      255
102
RTVSPost2010PropOp44
 70
     1
102
RTVSPost2010Prop45
280
     0
102
RTVSPost2010PropOp45
 70
     1
102
RTVSPost2010Prop46
 90
       50
102
RTVSPost2010PropOp46
 70
     1
102
RTVSPost2010Prop47
 90
       50
102
RTVSPost2010PropOp47
 70
     1
102
RTVSPost2010Prop48
 90
       50
102
RTVSPost2010PropOp48
 70
     1
102
RTVSPost2010Prop49
280
     0
102
RTVSPost2010PropOp49
 70
     1
102
RTVSPost2010Prop50
 90
       50
102
RTVSPost2010PropOp50
 70
     1
102
RTVSPost2010Prop51ColorIndex
 90
      256
102
RTVSPost2010Prop51ColorRGB
 90
-16777216
102
RTVSPost2010PropOp51
 70
     0
102
RTVSPost2010Prop52
140
1.0
102
RTVSPost2010PropOp52
 70
     0
102
RTVSPost2010Prop53
 90
        2
102
RTVSPost2010PropOp53
 70
     1
102
RTVSPost2010Prop54
  1
strokes_ogs.tif
102
RTVSPost2010PropOp54
 70
     1
102
RTVSPost2010Prop55
280
     0
102
RTVSPost2010PropOp55
 70
     1
102
RTVSPost2010Prop56
140
1.0
102
RTVSPost2010PropOp56
 70
     1
102
RTVSPost2010Prop57
140
1.0
102
RTVSPost2010PropOp57
 70
     1
102
RTVSPropertyOp0
 70
     1
102
RTVSPropertyOp1
 70
     1
102
RTVSPropertyOp2
 70
     1
102
RTVSPropertyOp3
 70
     1
102
RTVSPropertyOp4
 70
     1
102
RTVSPropertyOp5
 70
     1
102
RTVSPropertyOp6
 70
     1
102
RTVSPropertyOp7
 70
     1
102
RTVSPropertyOp8
 70
     1
102
RTVSPropertyOp9
 70
     1
102
RTVSPropertyOp10
 70
     1
102
RTVSPropertyOp11
 70
     1
102
RTVSPropertyOp12
 70
     1
102
RTVSPropertyOp13
 70
     1
102
RTVSPropertyOp14
 70
     1
102
RTVSPropertyOp15
 70
     1
102
RTVSPropertyOp16
 70
     1
102
RTVSPropertyOp17
 70
     1
102
RTVSPropertyOp18
 70
     1
102
RTVSPropertyOp19
 70
     1
102
RTVSPropertyOp20
 70
     1
102
RTVSPropertyOp21
 70
     1
102
RTVSPropertyOp22
 70
     1
102
RTVSPropertyOp23
 70
     1
102
RTVSPropertyOp24
 70
     1
102
RTVSPropertyOp25
 70
     1
102
RTVSPropertyOp26
 70
     1
102
RTVSPropertyOp27
 70
     1
102
RTVSPropertyOp28
 70
     1
102
RTVSPropertyOp29
 70
     1
102
RTVSPropertyOp30
 70
     1
102
RTVSPropertyOp31
 70
     1
102
RTVSPropertyOp32
 70
     1
102
RTVSPropertyOp33
 70
     1
102
RTVSPropertyOp34
 70
     1
102
RTVSPropertyOp35
 70
     1
102
RTVSPropertyOp36
 70
     1
102
RTVSPropertyOp37
 70
     1
102
RTVSPropertyOp38
 70
     1
102
RTVSPropertyOp39
 70
     1
102
RTVSPropertyOp40
 70
     1
102
RTVSPropertyOp41
 70
     1
102
RTVSPropertyOp42
 70
     1
102
RTVSPropertyOp43
 70
     1
102
RTVSPropertyOp44
 70
     1
102
RTVSPropertyOp45
 70
     1
102
RTVSPropertyOp46
 70
     1
102
RTVSPropertyOp47
 70
     1
102
RTVSPropertyOp48
 70
     1
102
RTVSPropertyOp49
 70
     1
102
RTVSPropertyOp50
 70
     1
102
RTVSPropertyOp51
 70
     0
102
RTVSPropertyOp52
 70
     0
102
RTVSPropertyOp53
 70
     1
102
RTVSPropertyOp54
 70
     1
102
RTVSPropertyOp55
 70
     1
102
RTVSPropertyOp56
 70
     1
102
RTVSPropertyOp57
 70
     1
102
RTVSPropertyOp58
 70
     1
102
RTVSPropertyOp59
 70
     1
102
RTVSPropertyOp60
 70
     1
102
RTVSPropertyOp61
 70
     1
102
RTVSPropertyOp62
 70
     1
  0
XRECORD
  5
87C9
102
{ACAD_REACTORS
330
87C8
102
}
330
87C8
100
AcDbXrecord
280
     1
102
RTVSPost2010Prop28
280
     0
102
RTVSPost2010PropOp28
 70
     1
102
RTVSPost2010Prop29
280
     1
102
RTVSPost2010PropOp29
 70
     1
102
RTVSPost2010Prop30
280
     1
102
RTVSPost2010PropOp30
 70
     1
102
RTVSPost2010Prop31
280
     0
102
RTVSPost2010PropOp31
 70
     1
102
RTVSPost2010Prop32
280
     0
102
RTVSPost2010PropOp32
 70
     1
102
RTVSPost2010Prop33
280
     0
102
RTVSPost2010PropOp33
 70
     1
102
RTVSPost2010Prop34
280
     0
102
RTVSPost2010PropOp34
 70
     1
102
RTVSPost2010Prop35
280
     0
102
RTVSPost2010PropOp35
 70
     1
102
RTVSPost2010Prop36
280
     0
102
RTVSPost2010PropOp36
 70
     1
102
RTVSPost2010Prop37
 90
       50
102
RTVSPost2010PropOp37
 70
     1
102
RTVSPost2010Prop38
140
0.0
102
RTVSPost2010PropOp38
 70
     1
102
RTVSPost2010Prop39
140
1.0
102
RTVSPost2010PropOp39
 70
     1
102
RTVSPost2010Prop40
 90
        0
102
RTVSPost2010PropOp40
 70
     1
102
RTVSPost2010Prop41ColorIndex
 90
       18
102
RTVSPost2010Prop41ColorRGB
 90
        0
102
RTVSPost2010PropOp41
 70
     1
102
RTVSPost2010Prop42
 90
       50
102
RTVSPost2010PropOp42
 70
     1
102
RTVSPost2010Prop43
 90
        3
102
RTVSPost2010PropOp43
 70
     1
102
RTVSPost2010Prop44ColorIndex
 90
        5
102
RTVSPost2010Prop44ColorRGB
 90
      255
102
RTVSPost2010PropOp44
 70
     1
102
RTVSPost2010Prop45
280
     0
102
RTVSPost2010PropOp45
 70
     1
102
RTVSPost2010Prop46
 90
       50
102
RTVSPost2010PropOp46
 70
     1
102
RTVSPost2010Prop47
 90
       50
102
RTVSPost2010PropOp47
 70
     1
102
RTVSPost2010Prop48
 90
       50
102
RTVSPost2010PropOp48
 70
     1
102
RTVSPost2010Prop49
280
     0
102
RTVSPost2010PropOp49
 70
     1
102
RTVSPost2010Prop50
 90
       50
102
RTVSPost2010PropOp50
 70
     1
102
RTVSPost2010Prop51ColorIndex
 90
      256
102
RTVSPost2010Prop51ColorRGB
 90
-16777216
102
RTVSPost2010PropOp51
 70
     0
102
RTVSPost2010Prop52
140
1.0
102
RTVSPost2010PropOp52
 70
     0
102
RTVSPost2010Prop53
 90
        2
102
RTVSPost2010PropOp53
 70
     1
102
RTVSPost2010Prop54
  1
strokes_ogs.tif
102
RTVSPost2010PropOp54
 70
     1
102
RTVSPost2010Prop55
280
     0
102
RTVSPost2010PropOp55
 70
     1
102
RTVSPost2010Prop56
140
1.0
102
RTVSPost2010PropOp56
 70
     1
102
RTVSPost2010Prop57
140
1.0
102
RTVSPost2010PropOp57
 70
     1
102
RTVSPropertyOp0
 70
     1
102
RTVSPropertyOp1
 70
     1
102
RTVSPropertyOp2
 70
     1
102
RTVSPropertyOp3
 70
     1
102
RTVSPropertyOp4
 70
     1
102
RTVSPropertyOp5
 70
     1
102
RTVSPropertyOp6
 70
     1
102
RTVSPropertyOp7
 70
     1
102
RTVSPropertyOp8
 70
     1
102
RTVSPropertyOp9
 70
     1
102
RTVSPropertyOp10
 70
     1
102
RTVSPropertyOp11
 70
     1
102
RTVSPropertyOp12
 70
     1
102
RTVSPropertyOp13
 70
     1
102
RTVSPropertyOp14
 70
     1
102
RTVSPropertyOp15
 70
     1
102
RTVSPropertyOp16
 70
     1
102
RTVSPropertyOp17
 70
     1
102
RTVSPropertyOp18
 70
     1
102
RTVSPropertyOp19
 70
     1
102
RTVSPropertyOp20
 70
     1
102
RTVSPropertyOp21
 70
     1
102
RTVSPropertyOp22
 70
     1
102
RTVSPropertyOp23
 70
     1
102
RTVSPropertyOp24
 70
     1
102
RTVSPropertyOp25
 70
     1
102
RTVSPropertyOp26
 70
     1
102
RTVSPropertyOp27
 70
     1
102
RTVSPropertyOp28
 70
     1
102
RTVSPropertyOp29
 70
     1
102
RTVSPropertyOp30
 70
     1
102
RTVSPropertyOp31
 70
     1
102
RTVSPropertyOp32
 70
     1
102
RTVSPropertyOp33
 70
     1
102
RTVSPropertyOp34
 70
     1
102
RTVSPropertyOp35
 70
     1
102
RTVSPropertyOp36
 70
     1
102
RTVSPropertyOp37
 70
     1
102
RTVSPropertyOp38
 70
     1
102
RTVSPropertyOp39
 70
     1
102
RTVSPropertyOp40
 70
     1
102
RTVSPropertyOp41
 70
     1
102
RTVSPropertyOp42
 70
     1
102
RTVSPropertyOp43
 70
     1
102
RTVSPropertyOp44
 70
     1
102
RTVSPropertyOp45
 70
     1
102
RTVSPropertyOp46
 70
     1
102
RTVSPropertyOp47
 70
     1
102
RTVSPropertyOp48
 70
     1
102
RTVSPropertyOp49
 70
     1
102
RTVSPropertyOp50
 70
     1
102
RTVSPropertyOp51
 70
     0
102
RTVSPropertyOp52
 70
     0
102
RTVSPropertyOp53
 70
     1
102
RTVSPropertyOp54
 70
     1
102
RTVSPropertyOp55
 70
     1
102
RTVSPropertyOp56
 70
     1
102
RTVSPropertyOp57
 70
     1
102
RTVSPropertyOp58
 70
     1
102
RTVSPropertyOp59
 70
     1
102
RTVSPropertyOp60
 70
     1
102
RTVSPropertyOp61
 70
     1
102
RTVSPropertyOp62
 70
     1
  0
XRECORD
  5
87D1
102
{ACAD_REACTORS
330
87D0
102
}
330
87D0
100
AcDbXrecord
280
     1
102
RTVSPost2010Prop28
280
     0
102
RTVSPost2010PropOp28
 70
     1
102
RTVSPost2010Prop29
280
     1
102
RTVSPost2010PropOp29
 70
     1
102
RTVSPost2010Prop30
280
     1
102
RTVSPost2010PropOp30
 70
     1
102
RTVSPost2010Prop31
280
     0
102
RTVSPost2010PropOp31
 70
     1
102
RTVSPost2010Prop32
280
     0
102
RTVSPost2010PropOp32
 70
     1
102
RTVSPost2010Prop33
280
     0
102
RTVSPost2010PropOp33
 70
     1
102
RTVSPost2010Prop34
280
     0
102
RTVSPost2010PropOp34
 70
     1
102
RTVSPost2010Prop35
280
     0
102
RTVSPost2010PropOp35
 70
     1
102
RTVSPost2010Prop36
280
     0
102
RTVSPost2010PropOp36
 70
     1
102
RTVSPost2010Prop37
 90
       50
102
RTVSPost2010PropOp37
 70
     1
102
RTVSPost2010Prop38
140
0.0
102
RTVSPost2010PropOp38
 70
     1
102
RTVSPost2010Prop39
140
1.0
102
RTVSPost2010PropOp39
 70
     1
102
RTVSPost2010Prop40
 90
        0
102
RTVSPost2010PropOp40
 70
     1
102
RTVSPost2010Prop41ColorIndex
 90
       18
102
RTVSPost2010Prop41ColorRGB
 90
        0
102
RTVSPost2010PropOp41
 70
     1
102
RTVSPost2010Prop42
 90
       50
102
RTVSPost2010PropOp42
 70
     1
102
RTVSPost2010Prop43
 90
        3
102
RTVSPost2010PropOp43
 70
     1
102
RTVSPost2010Prop44ColorIndex
 90
        5
102
RTVSPost2010Prop44ColorRGB
 90
      255
102
RTVSPost2010PropOp44
 70
     1
102
RTVSPost2010Prop45
280
     0
102
RTVSPost2010PropOp45
 70
     1
102
RTVSPost2010Prop46
 90
       50
102
RTVSPost2010PropOp46
 70
     1
102
RTVSPost2010Prop47
 90
       50
102
RTVSPost2010PropOp47
 70
     1
102
RTVSPost2010Prop48
 90
       50
102
RTVSPost2010PropOp48
 70
     1
102
RTVSPost2010Prop49
280
     0
102
RTVSPost2010PropOp49
 70
     1
102
RTVSPost2010Prop50
 90
       50
102
RTVSPost2010PropOp50
 70
     1
102
RTVSPost2010Prop51ColorIndex
 90
      256
102
RTVSPost2010Prop51ColorRGB
 90
-16777216
102
RTVSPost2010PropOp51
 70
     0
102
RTVSPost2010Prop52
140
1.0
102
RTVSPost2010PropOp52
 70
     0
102
RTVSPost2010Prop53
 90
        2
102
RTVSPost2010PropOp53
 70
     1
102
RTVSPost2010Prop54
  1
strokes_ogs.tif
102
RTVSPost2010PropOp54
 70
     1
102
RTVSPost2010Prop55
280
     0
102
RTVSPost2010PropOp55
 70
     1
102
RTVSPost2010Prop56
140
1.0
102
RTVSPost2010PropOp56
 70
     1
102
RTVSPost2010Prop57
140
1.0
102
RTVSPost2010PropOp57
 70
     1
102
RTVSPropertyOp0
 70
     1
102
RTVSPropertyOp1
 70
     1
102
RTVSPropertyOp2
 70
     1
102
RTVSPropertyOp3
 70
     1
102
RTVSPropertyOp4
 70
     1
102
RTVSPropertyOp5
 70
     1
102
RTVSPropertyOp6
 70
     1
102
RTVSPropertyOp7
 70
     1
102
RTVSPropertyOp8
 70
     1
102
RTVSPropertyOp9
 70
     1
102
RTVSPropertyOp10
 70
     1
102
RTVSPropertyOp11
 70
     1
102
RTVSPropertyOp12
 70
     1
102
RTVSPropertyOp13
 70
     1
102
RTVSPropertyOp14
 70
     1
102
RTVSPropertyOp15
 70
     1
102
RTVSPropertyOp16
 70
     1
102
RTVSPropertyOp17
 70
     1
102
RTVSPropertyOp18
 70
     1
102
RTVSPropertyOp19
 70
     1
102
RTVSPropertyOp20
 70
     1
102
RTVSPropertyOp21
 70
     1
102
RTVSPropertyOp22
 70
     1
102
RTVSPropertyOp23
 70
     1
102
RTVSPropertyOp24
 70
     1
102
RTVSPropertyOp25
 70
     1
102
RTVSPropertyOp26
 70
     1
102
RTVSPropertyOp27
 70
     1
102
RTVSPropertyOp28
 70
     1
102
RTVSPropertyOp29
 70
     1
102
RTVSPropertyOp30
 70
     1
102
RTVSPropertyOp31
 70
     1
102
RTVSPropertyOp32
 70
     1
102
RTVSPropertyOp33
 70
     1
102
RTVSPropertyOp34
 70
     1
102
RTVSPropertyOp35
 70
     1
102
RTVSPropertyOp36
 70
     1
102
RTVSPropertyOp37
 70
     1
102
RTVSPropertyOp38
 70
     1
102
RTVSPropertyOp39
 70
     1
102
RTVSPropertyOp40
 70
     1
102
RTVSPropertyOp41
 70
     1
102
RTVSPropertyOp42
 70
     1
102
RTVSPropertyOp43
 70
     1
102
RTVSPropertyOp44
 70
     1
102
RTVSPropertyOp45
 70
     1
102
RTVSPropertyOp46
 70
     1
102
RTVSPropertyOp47
 70
     1
102
RTVSPropertyOp48
 70
     1
102
RTVSPropertyOp49
 70
     1
102
RTVSPropertyOp50
 70
     1
102
RTVSPropertyOp51
 70
     0
102
RTVSPropertyOp52
 70
     0
102
RTVSPropertyOp53
 70
     1
102
RTVSPropertyOp54
 70
     1
102
RTVSPropertyOp55
 70
     1
102
RTVSPropertyOp56
 70
     1
102
RTVSPropertyOp57
 70
     1
102
RTVSPropertyOp58
 70
     1
102
RTVSPropertyOp59
 70
     1
102
RTVSPropertyOp60
 70
     1
102
RTVSPropertyOp61
 70
     1
102
RTVSPropertyOp62
 70
     1
  0
XRECORD
  5
87C3
102
{ACAD_REACTORS
330
87C2
102
}
330
87C2
100
AcDbXrecord
280
     1
102
RTVSPost2010Prop28
280
     0
102
RTVSPost2010PropOp28
 70
     1
102
RTVSPost2010Prop29
280
     1
102
RTVSPost2010PropOp29
 70
     1
102
RTVSPost2010Prop30
280
     1
102
RTVSPost2010PropOp30
 70
     1
102
RTVSPost2010Prop31
280
     0
102
RTVSPost2010PropOp31
 70
     1
102
RTVSPost2010Prop32
280
     0
102
RTVSPost2010PropOp32
 70
     1
102
RTVSPost2010Prop33
280
     0
102
RTVSPost2010PropOp33
 70
     1
102
RTVSPost2010Prop34
280
     0
102
RTVSPost2010PropOp34
 70
     1
102
RTVSPost2010Prop35
280
     0
102
RTVSPost2010PropOp35
 70
     1
102
RTVSPost2010Prop36
280
     0
102
RTVSPost2010PropOp36
 70
     1
102
RTVSPost2010Prop37
 90
       50
102
RTVSPost2010PropOp37
 70
     1
102
RTVSPost2010Prop38
140
0.0
102
RTVSPost2010PropOp38
 70
     1
102
RTVSPost2010Prop39
140
1.0
102
RTVSPost2010PropOp39
 70
     1
102
RTVSPost2010Prop40
 90
        0
102
RTVSPost2010PropOp40
 70
     1
102
RTVSPost2010Prop41ColorIndex
 90
       18
102
RTVSPost2010Prop41ColorRGB
 90
        0
102
RTVSPost2010PropOp41
 70
     1
102
RTVSPost2010Prop42
 90
       50
102
RTVSPost2010PropOp42
 70
     1
102
RTVSPost2010Prop43
 90
        3
102
RTVSPost2010PropOp43
 70
     1
102
RTVSPost2010Prop44ColorIndex
 90
        5
102
RTVSPost2010Prop44ColorRGB
 90
      255
102
RTVSPost2010PropOp44
 70
     1
102
RTVSPost2010Prop45
280
     0
102
RTVSPost2010PropOp45
 70
     1
102
RTVSPost2010Prop46
 90
       50
102
RTVSPost2010PropOp46
 70
     1
102
RTVSPost2010Prop47
 90
       50
102
RTVSPost2010PropOp47
 70
     1
102
RTVSPost2010Prop48
 90
       50
102
RTVSPost2010PropOp48
 70
     1
102
RTVSPost2010Prop49
280
     0
102
RTVSPost2010PropOp49
 70
     1
102
RTVSPost2010Prop50
 90
       50
102
RTVSPost2010PropOp50
 70
     1
102
RTVSPost2010Prop51ColorIndex
 90
      256
102
RTVSPost2010Prop51ColorRGB
 90
-16777216
102
RTVSPost2010PropOp51
 70
     0
102
RTVSPost2010Prop52
140
1.0
102
RTVSPost2010PropOp52
 70
     0
102
RTVSPost2010Prop53
 90
        2
102
RTVSPost2010PropOp53
 70
     1
102
RTVSPost2010Prop54
  1
strokes_ogs.tif
102
RTVSPost2010PropOp54
 70
     1
102
RTVSPost2010Prop55
280
     0
102
RTVSPost2010PropOp55
 70
     1
102
RTVSPost2010Prop56
140
1.0
102
RTVSPost2010PropOp56
 70
     1
102
RTVSPost2010Prop57
140
1.0
102
RTVSPost2010PropOp57
 70
     1
102
RTVSPropertyOp0
 70
     1
102
RTVSPropertyOp1
 70
     1
102
RTVSPropertyOp2
 70
     1
102
RTVSPropertyOp3
 70
     1
102
RTVSPropertyOp4
 70
     1
102
RTVSPropertyOp5
 70
     1
102
RTVSPropertyOp6
 70
     1
102
RTVSPropertyOp7
 70
     1
102
RTVSPropertyOp8
 70
     1
102
RTVSPropertyOp9
 70
     1
102
RTVSPropertyOp10
 70
     1
102
RTVSPropertyOp11
 70
     1
102
RTVSPropertyOp12
 70
     1
102
RTVSPropertyOp13
 70
     1
102
RTVSPropertyOp14
 70
     1
102
RTVSPropertyOp15
 70
     1
102
RTVSPropertyOp16
 70
     1
102
RTVSPropertyOp17
 70
     1
102
RTVSPropertyOp18
 70
     1
102
RTVSPropertyOp19
 70
     1
102
RTVSPropertyOp20
 70
     1
102
RTVSPropertyOp21
 70
     1
102
RTVSPropertyOp22
 70
     1
102
RTVSPropertyOp23
 70
     1
102
RTVSPropertyOp24
 70
     1
102
RTVSPropertyOp25
 70
     1
102
RTVSPropertyOp26
 70
     1
102
RTVSPropertyOp27
 70
     1
102
RTVSPropertyOp28
 70
     1
102
RTVSPropertyOp29
 70
     1
102
RTVSPropertyOp30
 70
     1
102
RTVSPropertyOp31
 70
     1
102
RTVSPropertyOp32
 70
     1
102
RTVSPropertyOp33
 70
     1
102
RTVSPropertyOp34
 70
     1
102
RTVSPropertyOp35
 70
     1
102
RTVSPropertyOp36
 70
     1
102
RTVSPropertyOp37
 70
     1
102
RTVSPropertyOp38
 70
     1
102
RTVSPropertyOp39
 70
     1
102
RTVSPropertyOp40
 70
     1
102
RTVSPropertyOp41
 70
     1
102
RTVSPropertyOp42
 70
     1
102
RTVSPropertyOp43
 70
     1
102
RTVSPropertyOp44
 70
     1
102
RTVSPropertyOp45
 70
     1
102
RTVSPropertyOp46
 70
     1
102
RTVSPropertyOp47
 70
     1
102
RTVSPropertyOp48
 70
     1
102
RTVSPropertyOp49
 70
     1
102
RTVSPropertyOp50
 70
     1
102
RTVSPropertyOp51
 70
     0
102
RTVSPropertyOp52
 70
     0
102
RTVSPropertyOp53
 70
     1
102
RTVSPropertyOp54
 70
     1
102
RTVSPropertyOp55
 70
     1
102
RTVSPropertyOp56
 70
     1
102
RTVSPropertyOp57
 70
     1
102
RTVSPropertyOp58
 70
     1
102
RTVSPropertyOp59
 70
     1
102
RTVSPropertyOp60
 70
     1
102
RTVSPropertyOp61
 70
     1
102
RTVSPropertyOp62
 70
     1
  0
XRECORD
  5
87C7
102
{ACAD_REACTORS
330
87C6
102
}
330
87C6
100
AcDbXrecord
280
     1
102
RTVSPost2010Prop28
280
     0
102
RTVSPost2010PropOp28
 70
     1
102
RTVSPost2010Prop29
280
     1
102
RTVSPost2010PropOp29
 70
     1
102
RTVSPost2010Prop30
280
     1
102
RTVSPost2010PropOp30
 70
     1
102
RTVSPost2010Prop31
280
     0
102
RTVSPost2010PropOp31
 70
     1
102
RTVSPost2010Prop32
280
     0
102
RTVSPost2010PropOp32
 70
     1
102
RTVSPost2010Prop33
280
     0
102
RTVSPost2010PropOp33
 70
     1
102
RTVSPost2010Prop34
280
     0
102
RTVSPost2010PropOp34
 70
     1
102
RTVSPost2010Prop35
280
     0
102
RTVSPost2010PropOp35
 70
     1
102
RTVSPost2010Prop36
280
     0
102
RTVSPost2010PropOp36
 70
     1
102
RTVSPost2010Prop37
 90
       50
102
RTVSPost2010PropOp37
 70
     1
102
RTVSPost2010Prop38
140
0.0
102
RTVSPost2010PropOp38
 70
     1
102
RTVSPost2010Prop39
140
1.0
102
RTVSPost2010PropOp39
 70
     1
102
RTVSPost2010Prop40
 90
        0
102
RTVSPost2010PropOp40
 70
     1
102
RTVSPost2010Prop41ColorIndex
 90
       18
102
RTVSPost2010Prop41ColorRGB
 90
        0
102
RTVSPost2010PropOp41
 70
     1
102
RTVSPost2010Prop42
 90
       50
102
RTVSPost2010PropOp42
 70
     1
102
RTVSPost2010Prop43
 90
        3
102
RTVSPost2010PropOp43
 70
     1
102
RTVSPost2010Prop44ColorIndex
 90
        5
102
RTVSPost2010Prop44ColorRGB
 90
      255
102
RTVSPost2010PropOp44
 70
     1
102
RTVSPost2010Prop45
280
     0
102
RTVSPost2010PropOp45
 70
     1
102
RTVSPost2010Prop46
 90
       50
102
RTVSPost2010PropOp46
 70
     1
102
RTVSPost2010Prop47
 90
       50
102
RTVSPost2010PropOp47
 70
     1
102
RTVSPost2010Prop48
 90
       50
102
RTVSPost2010PropOp48
 70
     1
102
RTVSPost2010Prop49
280
     0
102
RTVSPost2010PropOp49
 70
     1
102
RTVSPost2010Prop50
 90
       50
102
RTVSPost2010PropOp50
 70
     1
102
RTVSPost2010Prop51ColorIndex
 90
      256
102
RTVSPost2010Prop51ColorRGB
 90
-16777216
102
RTVSPost2010PropOp51
 70
     0
102
RTVSPost2010Prop52
140
1.0
102
RTVSPost2010PropOp52
 70
     0
102
RTVSPost2010Prop53
 90
        2
102
RTVSPost2010PropOp53
 70
     1
102
RTVSPost2010Prop54
  1
strokes_ogs.tif
102
RTVSPost2010PropOp54
 70
     1
102
RTVSPost2010Prop55
280
     0
102
RTVSPost2010PropOp55
 70
     1
102
RTVSPost2010Prop56
140
1.0
102
RTVSPost2010PropOp56
 70
     1
102
RTVSPost2010Prop57
140
1.0
102
RTVSPost2010PropOp57
 70
     1
102
RTVSPropertyOp0
 70
     1
102
RTVSPropertyOp1
 70
     1
102
RTVSPropertyOp2
 70
     1
102
RTVSPropertyOp3
 70
     1
102
RTVSPropertyOp4
 70
     1
102
RTVSPropertyOp5
 70
     1
102
RTVSPropertyOp6
 70
     1
102
RTVSPropertyOp7
 70
     1
102
RTVSPropertyOp8
 70
     1
102
RTVSPropertyOp9
 70
     1
102
RTVSPropertyOp10
 70
     1
102
RTVSPropertyOp11
 70
     1
102
RTVSPropertyOp12
 70
     1
102
RTVSPropertyOp13
 70
     1
102
RTVSPropertyOp14
 70
     1
102
RTVSPropertyOp15
 70
     1
102
RTVSPropertyOp16
 70
     1
102
RTVSPropertyOp17
 70
     1
102
RTVSPropertyOp18
 70
     1
102
RTVSPropertyOp19
 70
     1
102
RTVSPropertyOp20
 70
     1
102
RTVSPropertyOp21
 70
     1
102
RTVSPropertyOp22
 70
     1
102
RTVSPropertyOp23
 70
     1
102
RTVSPropertyOp24
 70
     1
102
RTVSPropertyOp25
 70
     1
102
RTVSPropertyOp26
 70
     1
102
RTVSPropertyOp27
 70
     1
102
RTVSPropertyOp28
 70
     1
102
RTVSPropertyOp29
 70
     1
102
RTVSPropertyOp30
 70
     1
102
RTVSPropertyOp31
 70
     1
102
RTVSPropertyOp32
 70
     1
102
RTVSPropertyOp33
 70
     1
102
RTVSPropertyOp34
 70
     1
102
RTVSPropertyOp35
 70
     1
102
RTVSPropertyOp36
 70
     1
102
RTVSPropertyOp37
 70
     1
102
RTVSPropertyOp38
 70
     1
102
RTVSPropertyOp39
 70
     1
102
RTVSPropertyOp40
 70
     1
102
RTVSPropertyOp41
 70
     1
102
RTVSPropertyOp42
 70
     1
102
RTVSPropertyOp43
 70
     1
102
RTVSPropertyOp44
 70
     1
102
RTVSPropertyOp45
 70
     1
102
RTVSPropertyOp46
 70
     1
102
RTVSPropertyOp47
 70
     1
102
RTVSPropertyOp48
 70
     1
102
RTVSPropertyOp49
 70
     1
102
RTVSPropertyOp50
 70
     1
102
RTVSPropertyOp51
 70
     0
102
RTVSPropertyOp52
 70
     0
102
RTVSPropertyOp53
 70
     1
102
RTVSPropertyOp54
 70
     1
102
RTVSPropertyOp55
 70
     1
102
RTVSPropertyOp56
 70
     1
102
RTVSPropertyOp57
 70
     1
102
RTVSPropertyOp58
 70
     1
102
RTVSPropertyOp59
 70
     1
102
RTVSPropertyOp60
 70
     1
102
RTVSPropertyOp61
 70
     1
102
RTVSPropertyOp62
 70
     1
  0
XRECORD
  5
87E1
102
{ACAD_REACTORS
330
87E0
102
}
330
87E0
100
AcDbXrecord
280
     1
102
RTVSPost2010Prop28
280
     0
102
RTVSPost2010PropOp28
 70
     1
102
RTVSPost2010Prop29
280
     1
102
RTVSPost2010PropOp29
 70
     1
102
RTVSPost2010Prop30
280
     1
102
RTVSPost2010PropOp30
 70
     1
102
RTVSPost2010Prop31
280
     0
102
RTVSPost2010PropOp31
 70
     1
102
RTVSPost2010Prop32
280
     0
102
RTVSPost2010PropOp32
 70
     1
102
RTVSPost2010Prop33
280
     0
102
RTVSPost2010PropOp33
 70
     1
102
RTVSPost2010Prop34
280
     0
102
RTVSPost2010PropOp34
 70
     1
102
RTVSPost2010Prop35
280
     0
102
RTVSPost2010PropOp35
 70
     1
102
RTVSPost2010Prop36
280
     0
102
RTVSPost2010PropOp36
 70
     1
102
RTVSPost2010Prop37
 90
       50
102
RTVSPost2010PropOp37
 70
     0
102
RTVSPost2010Prop38
140
0.0
102
RTVSPost2010PropOp38
 70
     0
102
RTVSPost2010Prop39
140
1.0
102
RTVSPost2010PropOp39
 70
     0
102
RTVSPost2010Prop40
 90
        0
102
RTVSPost2010PropOp40
 70
     0
102
RTVSPost2010Prop41ColorIndex
 90
       18
102
RTVSPost2010Prop41ColorRGB
 90
        0
102
RTVSPost2010PropOp41
 70
     0
102
RTVSPost2010Prop42
 90
       50
102
RTVSPost2010PropOp42
 70
     0
102
RTVSPost2010Prop43
 90
        3
102
RTVSPost2010PropOp43
 70
     0
102
RTVSPost2010Prop44ColorIndex
 90
        5
102
RTVSPost2010Prop44ColorRGB
 90
      255
102
RTVSPost2010PropOp44
 70
     0
102
RTVSPost2010Prop45
280
     0
102
RTVSPost2010PropOp45
 70
     1
102
RTVSPost2010Prop46
 90
       50
102
RTVSPost2010PropOp46
 70
     0
102
RTVSPost2010Prop47
 90
       50
102
RTVSPost2010PropOp47
 70
     0
102
RTVSPost2010Prop48
 90
       50
102
RTVSPost2010PropOp48
 70
     0
102
RTVSPost2010Prop49
280
     0
102
RTVSPost2010PropOp49
 70
     1
102
RTVSPost2010Prop50
 90
       50
102
RTVSPost2010PropOp50
 70
     0
102
RTVSPost2010Prop51ColorIndex
 90
      256
102
RTVSPost2010Prop51ColorRGB
 90
-16777216
102
RTVSPost2010PropOp51
 70
     0
102
RTVSPost2010Prop52
140
1.0
102
RTVSPost2010PropOp52
 70
     0
102
RTVSPost2010Prop53
 90
        2
102
RTVSPost2010PropOp53
 70
     0
102
RTVSPost2010Prop54
  1
strokes_ogs.tif
102
RTVSPost2010PropOp54
 70
     0
102
RTVSPost2010Prop55
280
     0
102
RTVSPost2010PropOp55
 70
     1
102
RTVSPost2010Prop56
140
1.0
102
RTVSPost2010PropOp56
 70
     0
102
RTVSPost2010Prop57
140
1.0
102
RTVSPost2010PropOp57
 70
     0
102
RTVSPropertyOp0
 70
     0
102
RTVSPropertyOp1
 70
     0
102
RTVSPropertyOp2
 70
     0
102
RTVSPropertyOp3
 70
     0
102
RTVSPropertyOp4
 70
     0
102
RTVSPropertyOp5
 70
     0
102
RTVSPropertyOp6
 70
     0
102
RTVSPropertyOp7
 70
     0
102
RTVSPropertyOp8
 70
     0
102
RTVSPropertyOp9
 70
     0
102
RTVSPropertyOp10
 70
     0
102
RTVSPropertyOp11
 70
     0
102
RTVSPropertyOp12
 70
     0
102
RTVSPropertyOp13
 70
     0
102
RTVSPropertyOp14
 70
     2
102
RTVSPropertyOp15
 70
     0
102
RTVSPropertyOp16
 70
     0
102
RTVSPropertyOp17
 70
     0
102
RTVSPropertyOp18
 70
     0
102
RTVSPropertyOp19
 70
     0
102
RTVSPropertyOp20
 70
     0
102
RTVSPropertyOp21
 70
     0
102
RTVSPropertyOp22
 70
     0
102
RTVSPropertyOp23
 70
     0
102
RTVSPropertyOp24
 70
     0
102
RTVSPropertyOp25
 70
     0
102
RTVSPropertyOp26
 70
     0
102
RTVSPropertyOp27
 70
     0
102
RTVSPropertyOp28
 70
     1
102
RTVSPropertyOp29
 70
     1
102
RTVSPropertyOp30
 70
     1
102
RTVSPropertyOp31
 70
     1
102
RTVSPropertyOp32
 70
     1
102
RTVSPropertyOp33
 70
     1
102
RTVSPropertyOp34
 70
     1
102
RTVSPropertyOp35
 70
     1
102
RTVSPropertyOp36
 70
     1
102
RTVSPropertyOp37
 70
     0
102
RTVSPropertyOp38
 70
     0
102
RTVSPropertyOp39
 70
     0
102
RTVSPropertyOp40
 70
     0
102
RTVSPropertyOp41
 70
     0
102
RTVSPropertyOp42
 70
     0
102
RTVSPropertyOp43
 70
     0
102
RTVSPropertyOp44
 70
     0
102
RTVSPropertyOp45
 70
     1
102
RTVSPropertyOp46
 70
     0
102
RTVSPropertyOp47
 70
     0
102
RTVSPropertyOp48
 70
     0
102
RTVSPropertyOp49
 70
     1
102
RTVSPropertyOp50
 70
     0
102
RTVSPropertyOp51
 70
     0
102
RTVSPropertyOp52
 70
     0
102
RTVSPropertyOp53
 70
     0
102
RTVSPropertyOp54
 70
     0
102
RTVSPropertyOp55
 70
     1
102
RTVSPropertyOp56
 70
     0
102
RTVSPropertyOp57
 70
     0
102
RTVSPropertyOp58
 70
     0
102
RTVSPropertyOp59
 70
     0
102
RTVSPropertyOp60
 70
     0
102
RTVSPropertyOp61
 70
     0
102
RTVSPropertyOp62
 70
     0
  0
XRECORD
  5
87CF
102
{ACAD_REACTORS
330
87CE
102
}
330
87CE
100
AcDbXrecord
280
     1
102
RTVSPost2010Prop28
280
     0
102
RTVSPost2010PropOp28
 70
     1
102
RTVSPost2010Prop29
280
     1
102
RTVSPost2010PropOp29
 70
     1
102
RTVSPost2010Prop30
280
     1
102
RTVSPost2010PropOp30
 70
     1
102
RTVSPost2010Prop31
280
     0
102
RTVSPost2010PropOp31
 70
     1
102
RTVSPost2010Prop32
280
     0
102
RTVSPost2010PropOp32
 70
     1
102
RTVSPost2010Prop33
280
     0
102
RTVSPost2010PropOp33
 70
     1
102
RTVSPost2010Prop34
280
     0
102
RTVSPost2010PropOp34
 70
     1
102
RTVSPost2010Prop35
280
     0
102
RTVSPost2010PropOp35
 70
     1
102
RTVSPost2010Prop36
280
     0
102
RTVSPost2010PropOp36
 70
     1
102
RTVSPost2010Prop37
 90
       50
102
RTVSPost2010PropOp37
 70
     1
102
RTVSPost2010Prop38
140
0.0
102
RTVSPost2010PropOp38
 70
     1
102
RTVSPost2010Prop39
140
1.0
102
RTVSPost2010PropOp39
 70
     1
102
RTVSPost2010Prop40
 90
        0
102
RTVSPost2010PropOp40
 70
     1
102
RTVSPost2010Prop41ColorIndex
 90
       18
102
RTVSPost2010Prop41ColorRGB
 90
        0
102
RTVSPost2010PropOp41
 70
     1
102
RTVSPost2010Prop42
 90
       50
102
RTVSPost2010PropOp42
 70
     1
102
RTVSPost2010Prop43
 90
        3
102
RTVSPost2010PropOp43
 70
     1
102
RTVSPost2010Prop44ColorIndex
 90
        5
102
RTVSPost2010Prop44ColorRGB
 90
      255
102
RTVSPost2010PropOp44
 70
     1
102
RTVSPost2010Prop45
280
     0
102
RTVSPost2010PropOp45
 70
     1
102
RTVSPost2010Prop46
 90
       50
102
RTVSPost2010PropOp46
 70
     1
102
RTVSPost2010Prop47
 90
       50
102
RTVSPost2010PropOp47
 70
     1
102
RTVSPost2010Prop48
 90
       50
102
RTVSPost2010PropOp48
 70
     1
102
RTVSPost2010Prop49
280
     0
102
RTVSPost2010PropOp49
 70
     1
102
RTVSPost2010Prop50
 90
       50
102
RTVSPost2010PropOp50
 70
     1
102
RTVSPost2010Prop51ColorIndex
 90
      256
102
RTVSPost2010Prop51ColorRGB
 90
-16777216
102
RTVSPost2010PropOp51
 70
     0
102
RTVSPost2010Prop52
140
1.0
102
RTVSPost2010PropOp52
 70
     0
102
RTVSPost2010Prop53
 90
        2
102
RTVSPost2010PropOp53
 70
     1
102
RTVSPost2010Prop54
  1
strokes_ogs.tif
102
RTVSPost2010PropOp54
 70
     1
102
RTVSPost2010Prop55
280
     0
102
RTVSPost2010PropOp55
 70
     1
102
RTVSPost2010Prop56
140
1.0
102
RTVSPost2010PropOp56
 70
     1
102
RTVSPost2010Prop57
140
1.0
102
RTVSPost2010PropOp57
 70
     1
102
RTVSPropertyOp0
 70
     1
102
RTVSPropertyOp1
 70
     1
102
RTVSPropertyOp2
 70
     1
102
RTVSPropertyOp3
 70
     1
102
RTVSPropertyOp4
 70
     1
102
RTVSPropertyOp5
 70
     1
102
RTVSPropertyOp6
 70
     1
102
RTVSPropertyOp7
 70
     1
102
RTVSPropertyOp8
 70
     1
102
RTVSPropertyOp9
 70
     1
102
RTVSPropertyOp10
 70
     1
102
RTVSPropertyOp11
 70
     1
102
RTVSPropertyOp12
 70
     1
102
RTVSPropertyOp13
 70
     1
102
RTVSPropertyOp14
 70
     1
102
RTVSPropertyOp15
 70
     1
102
RTVSPropertyOp16
 70
     1
102
RTVSPropertyOp17
 70
     1
102
RTVSPropertyOp18
 70
     1
102
RTVSPropertyOp19
 70
     1
102
RTVSPropertyOp20
 70
     1
102
RTVSPropertyOp21
 70
     1
102
RTVSPropertyOp22
 70
     1
102
RTVSPropertyOp23
 70
     1
102
RTVSPropertyOp24
 70
     1
102
RTVSPropertyOp25
 70
     1
102
RTVSPropertyOp26
 70
     1
102
RTVSPropertyOp27
 70
     1
102
RTVSPropertyOp28
 70
     1
102
RTVSPropertyOp29
 70
     1
102
RTVSPropertyOp30
 70
     1
102
RTVSPropertyOp31
 70
     1
102
RTVSPropertyOp32
 70
     1
102
RTVSPropertyOp33
 70
     1
102
RTVSPropertyOp34
 70
     1
102
RTVSPropertyOp35
 70
     1
102
RTVSPropertyOp36
 70
     1
102
RTVSPropertyOp37
 70
     1
102
RTVSPropertyOp38
 70
     1
102
RTVSPropertyOp39
 70
     1
102
RTVSPropertyOp40
 70
     1
102
RTVSPropertyOp41
 70
     1
102
RTVSPropertyOp42
 70
     1
102
RTVSPropertyOp43
 70
     1
102
RTVSPropertyOp44
 70
     1
102
RTVSPropertyOp45
 70
     1
102
RTVSPropertyOp46
 70
     1
102
RTVSPropertyOp47
 70
     1
102
RTVSPropertyOp48
 70
     1
102
RTVSPropertyOp49
 70
     1
102
RTVSPropertyOp50
 70
     1
102
RTVSPropertyOp51
 70
     0
102
RTVSPropertyOp52
 70
     0
102
RTVSPropertyOp53
 70
     1
102
RTVSPropertyOp54
 70
     1
102
RTVSPropertyOp55
 70
     1
102
RTVSPropertyOp56
 70
     1
102
RTVSPropertyOp57
 70
     1
102
RTVSPropertyOp58
 70
     1
102
RTVSPropertyOp59
 70
     1
102
RTVSPropertyOp60
 70
     1
102
RTVSPropertyOp61
 70
     1
102
RTVSPropertyOp62
 70
     1
  0
XRECORD
  5
87B3
102
{ACAD_REACTORS
330
87B2
102
}
330
87B2
100
AcDbXrecord
280
     1
102
RTVSPost2010Prop28
280
     0
102
RTVSPost2010PropOp28
 70
     1
102
RTVSPost2010Prop29
280
     1
102
RTVSPost2010PropOp29
 70
     1
102
RTVSPost2010Prop30
280
     1
102
RTVSPost2010PropOp30
 70
     1
102
RTVSPost2010Prop31
280
     0
102
RTVSPost2010PropOp31
 70
     1
102
RTVSPost2010Prop32
280
     0
102
RTVSPost2010PropOp32
 70
     1
102
RTVSPost2010Prop33
280
     0
102
RTVSPost2010PropOp33
 70
     1
102
RTVSPost2010Prop34
280
     0
102
RTVSPost2010PropOp34
 70
     1
102
RTVSPost2010Prop35
280
     0
102
RTVSPost2010PropOp35
 70
     1
102
RTVSPost2010Prop36
280
     0
102
RTVSPost2010PropOp36
 70
     1
102
RTVSPost2010Prop37
 90
       50
102
RTVSPost2010PropOp37
 70
     1
102
RTVSPost2010Prop38
140
0.0
102
RTVSPost2010PropOp38
 70
     1
102
RTVSPost2010Prop39
140
1.0
102
RTVSPost2010PropOp39
 70
     1
102
RTVSPost2010Prop40
 90
        0
102
RTVSPost2010PropOp40
 70
     1
102
RTVSPost2010Prop41ColorIndex
 90
       18
102
RTVSPost2010Prop41ColorRGB
 90
        0
102
RTVSPost2010PropOp41
 70
     1
102
RTVSPost2010Prop42
 90
       50
102
RTVSPost2010PropOp42
 70
     1
102
RTVSPost2010Prop43
 90
        3
102
RTVSPost2010PropOp43
 70
     1
102
RTVSPost2010Prop44ColorIndex
 90
        5
102
RTVSPost2010Prop44ColorRGB
 90
      255
102
RTVSPost2010PropOp44
 70
     1
102
RTVSPost2010Prop45
280
     0
102
RTVSPost2010PropOp45
 70
     1
102
RTVSPost2010Prop46
 90
       50
102
RTVSPost2010PropOp46
 70
     1
102
RTVSPost2010Prop47
 90
       50
102
RTVSPost2010PropOp47
 70
     1
102
RTVSPost2010Prop48
 90
       50
102
RTVSPost2010PropOp48
 70
     1
102
RTVSPost2010Prop49
280
     0
102
RTVSPost2010PropOp49
 70
     1
102
RTVSPost2010Prop50
 90
       50
102
RTVSPost2010PropOp50
 70
     1
102
RTVSPost2010Prop51ColorIndex
 90
      256
102
RTVSPost2010Prop51ColorRGB
 90
-16777216
102
RTVSPost2010PropOp51
 70
     0
102
RTVSPost2010Prop52
140
1.0
102
RTVSPost2010PropOp52
 70
     0
102
RTVSPost2010Prop53
 90
        2
102
RTVSPost2010PropOp53
 70
     1
102
RTVSPost2010Prop54
  1
strokes_ogs.tif
102
RTVSPost2010PropOp54
 70
     1
102
RTVSPost2010Prop55
280
     0
102
RTVSPost2010PropOp55
 70
     1
102
RTVSPost2010Prop56
140
1.0
102
RTVSPost2010PropOp56
 70
     1
102
RTVSPost2010Prop57
140
1.0
102
RTVSPost2010PropOp57
 70
     1
102
RTVSPropertyOp0
 70
     1
102
RTVSPropertyOp1
 70
     1
102
RTVSPropertyOp2
 70
     1
102
RTVSPropertyOp3
 70
     1
102
RTVSPropertyOp4
 70
     1
102
RTVSPropertyOp5
 70
     1
102
RTVSPropertyOp6
 70
     1
102
RTVSPropertyOp7
 70
     1
102
RTVSPropertyOp8
 70
     1
102
RTVSPropertyOp9
 70
     1
102
RTVSPropertyOp10
 70
     1
102
RTVSPropertyOp11
 70
     1
102
RTVSPropertyOp12
 70
     1
102
RTVSPropertyOp13
 70
     1
102
RTVSPropertyOp14
 70
     1
102
RTVSPropertyOp15
 70
     1
102
RTVSPropertyOp16
 70
     1
102
RTVSPropertyOp17
 70
     1
102
RTVSPropertyOp18
 70
     1
102
RTVSPropertyOp19
 70
     1
102
RTVSPropertyOp20
 70
     1
102
RTVSPropertyOp21
 70
     1
102
RTVSPropertyOp22
 70
     1
102
RTVSPropertyOp23
 70
     1
102
RTVSPropertyOp24
 70
     1
102
RTVSPropertyOp25
 70
     1
102
RTVSPropertyOp26
 70
     1
102
RTVSPropertyOp27
 70
     1
102
RTVSPropertyOp28
 70
     1
102
RTVSPropertyOp29
 70
     1
102
RTVSPropertyOp30
 70
     1
102
RTVSPropertyOp31
 70
     1
102
RTVSPropertyOp32
 70
     1
102
RTVSPropertyOp33
 70
     1
102
RTVSPropertyOp34
 70
     1
102
RTVSPropertyOp35
 70
     1
102
RTVSPropertyOp36
 70
     1
102
RTVSPropertyOp37
 70
     1
102
RTVSPropertyOp38
 70
     1
102
RTVSPropertyOp39
 70
     1
102
RTVSPropertyOp40
 70
     1
102
RTVSPropertyOp41
 70
     1
102
RTVSPropertyOp42
 70
     1
102
RTVSPropertyOp43
 70
     1
102
RTVSPropertyOp44
 70
     1
102
RTVSPropertyOp45
 70
     1
102
RTVSPropertyOp46
 70
     1
102
RTVSPropertyOp47
 70
     1
102
RTVSPropertyOp48
 70
     1
102
RTVSPropertyOp49
 70
     1
102
RTVSPropertyOp50
 70
     1
102
RTVSPropertyOp51
 70
     0
102
RTVSPropertyOp52
 70
     0
102
RTVSPropertyOp53
 70
     1
102
RTVSPropertyOp54
 70
     1
102
RTVSPropertyOp55
 70
     1
102
RTVSPropertyOp56
 70
     1
102
RTVSPropertyOp57
 70
     1
102
RTVSPropertyOp58
 70
     1
102
RTVSPropertyOp59
 70
     1
102
RTVSPropertyOp60
 70
     1
102
RTVSPropertyOp61
 70
     1
102
RTVSPropertyOp62
 70
     1
  0
XRECORD
  5
87B5
102
{ACAD_REACTORS
330
87B4
102
}
330
87B4
100
AcDbXrecord
280
     1
102
RTVSPost2010Prop28
280
     0
102
RTVSPost2010PropOp28
 70
     1
102
RTVSPost2010Prop29
280
     1
102
RTVSPost2010PropOp29
 70
     1
102
RTVSPost2010Prop30
280
     1
102
RTVSPost2010PropOp30
 70
     1
102
RTVSPost2010Prop31
280
     0
102
RTVSPost2010PropOp31
 70
     1
102
RTVSPost2010Prop32
280
     0
102
RTVSPost2010PropOp32
 70
     1
102
RTVSPost2010Prop33
280
     0
102
RTVSPost2010PropOp33
 70
     1
102
RTVSPost2010Prop34
280
     0
102
RTVSPost2010PropOp34
 70
     1
102
RTVSPost2010Prop35
280
     0
102
RTVSPost2010PropOp35
 70
     1
102
RTVSPost2010Prop36
280
     0
102
RTVSPost2010PropOp36
 70
     1
102
RTVSPost2010Prop37
 90
       50
102
RTVSPost2010PropOp37
 70
     1
102
RTVSPost2010Prop38
140
0.0
102
RTVSPost2010PropOp38
 70
     1
102
RTVSPost2010Prop39
140
1.0
102
RTVSPost2010PropOp39
 70
     1
102
RTVSPost2010Prop40
 90
        0
102
RTVSPost2010PropOp40
 70
     1
102
RTVSPost2010Prop41ColorIndex
 90
       18
102
RTVSPost2010Prop41ColorRGB
 90
        0
102
RTVSPost2010PropOp41
 70
     1
102
RTVSPost2010Prop42
 90
       50
102
RTVSPost2010PropOp42
 70
     1
102
RTVSPost2010Prop43
 90
        3
102
RTVSPost2010PropOp43
 70
     1
102
RTVSPost2010Prop44ColorIndex
 90
        5
102
RTVSPost2010Prop44ColorRGB
 90
      255
102
RTVSPost2010PropOp44
 70
     1
102
RTVSPost2010Prop45
280
     0
102
RTVSPost2010PropOp45
 70
     1
102
RTVSPost2010Prop46
 90
       50
102
RTVSPost2010PropOp46
 70
     1
102
RTVSPost2010Prop47
 90
       50
102
RTVSPost2010PropOp47
 70
     1
102
RTVSPost2010Prop48
 90
       50
102
RTVSPost2010PropOp48
 70
     1
102
RTVSPost2010Prop49
280
     0
102
RTVSPost2010PropOp49
 70
     1
102
RTVSPost2010Prop50
 90
       50
102
RTVSPost2010PropOp50
 70
     1
102
RTVSPost2010Prop51ColorIndex
 90
      256
102
RTVSPost2010Prop51ColorRGB
 90
-16777216
102
RTVSPost2010PropOp51
 70
     0
102
RTVSPost2010Prop52
140
1.0
102
RTVSPost2010PropOp52
 70
     0
102
RTVSPost2010Prop53
 90
        2
102
RTVSPost2010PropOp53
 70
     1
102
RTVSPost2010Prop54
  1
strokes_ogs.tif
102
RTVSPost2010PropOp54
 70
     1
102
RTVSPost2010Prop55
280
     0
102
RTVSPost2010PropOp55
 70
     1
102
RTVSPost2010Prop56
140
1.0
102
RTVSPost2010PropOp56
 70
     1
102
RTVSPost2010Prop57
140
1.0
102
RTVSPost2010PropOp57
 70
     1
102
RTVSPropertyOp0
 70
     1
102
RTVSPropertyOp1
 70
     1
102
RTVSPropertyOp2
 70
     1
102
RTVSPropertyOp3
 70
     1
102
RTVSPropertyOp4
 70
     1
102
RTVSPropertyOp5
 70
     1
102
RTVSPropertyOp6
 70
     1
102
RTVSPropertyOp7
 70
     1
102
RTVSPropertyOp8
 70
     1
102
RTVSPropertyOp9
 70
     1
102
RTVSPropertyOp10
 70
     1
102
RTVSPropertyOp11
 70
     1
102
RTVSPropertyOp12
 70
     1
102
RTVSPropertyOp13
 70
     1
102
RTVSPropertyOp14
 70
     1
102
RTVSPropertyOp15
 70
     1
102
RTVSPropertyOp16
 70
     1
102
RTVSPropertyOp17
 70
     1
102
RTVSPropertyOp18
 70
     1
102
RTVSPropertyOp19
 70
     1
102
RTVSPropertyOp20
 70
     1
102
RTVSPropertyOp21
 70
     1
102
RTVSPropertyOp22
 70
     1
102
RTVSPropertyOp23
 70
     1
102
RTVSPropertyOp24
 70
     1
102
RTVSPropertyOp25
 70
     1
102
RTVSPropertyOp26
 70
     1
102
RTVSPropertyOp27
 70
     1
102
RTVSPropertyOp28
 70
     1
102
RTVSPropertyOp29
 70
     1
102
RTVSPropertyOp30
 70
     1
102
RTVSPropertyOp31
 70
     1
102
RTVSPropertyOp32
 70
     1
102
RTVSPropertyOp33
 70
     1
102
RTVSPropertyOp34
 70
     1
102
RTVSPropertyOp35
 70
     1
102
RTVSPropertyOp36
 70
     1
102
RTVSPropertyOp37
 70
     1
102
RTVSPropertyOp38
 70
     1
102
RTVSPropertyOp39
 70
     1
102
RTVSPropertyOp40
 70
     1
102
RTVSPropertyOp41
 70
     1
102
RTVSPropertyOp42
 70
     1
102
RTVSPropertyOp43
 70
     1
102
RTVSPropertyOp44
 70
     1
102
RTVSPropertyOp45
 70
     1
102
RTVSPropertyOp46
 70
     1
102
RTVSPropertyOp47
 70
     1
102
RTVSPropertyOp48
 70
     1
102
RTVSPropertyOp49
 70
     1
102
RTVSPropertyOp50
 70
     1
102
RTVSPropertyOp51
 70
     0
102
RTVSPropertyOp52
 70
     0
102
RTVSPropertyOp53
 70
     1
102
RTVSPropertyOp54
 70
     1
102
RTVSPropertyOp55
 70
     1
102
RTVSPropertyOp56
 70
     1
102
RTVSPropertyOp57
 70
     1
102
RTVSPropertyOp58
 70
     1
102
RTVSPropertyOp59
 70
     1
102
RTVSPropertyOp60
 70
     1
102
RTVSPropertyOp61
 70
     1
102
RTVSPropertyOp62
 70
     1
  0
XRECORD
  5
87B7
102
{ACAD_REACTORS
330
87B6
102
}
330
87B6
100
AcDbXrecord
280
     1
102
RTVSPost2010Prop28
280
     0
102
RTVSPost2010PropOp28
 70
     1
102
RTVSPost2010Prop29
280
     1
102
RTVSPost2010PropOp29
 70
     1
102
RTVSPost2010Prop30
280
     1
102
RTVSPost2010PropOp30
 70
     1
102
RTVSPost2010Prop31
280
     0
102
RTVSPost2010PropOp31
 70
     1
102
RTVSPost2010Prop32
280
     0
102
RTVSPost2010PropOp32
 70
     1
102
RTVSPost2010Prop33
280
     0
102
RTVSPost2010PropOp33
 70
     1
102
RTVSPost2010Prop34
280
     0
102
RTVSPost2010PropOp34
 70
     1
102
RTVSPost2010Prop35
280
     0
102
RTVSPost2010PropOp35
 70
     1
102
RTVSPost2010Prop36
280
     0
102
RTVSPost2010PropOp36
 70
     1
102
RTVSPost2010Prop37
 90
       50
102
RTVSPost2010PropOp37
 70
     1
102
RTVSPost2010Prop38
140
0.0
102
RTVSPost2010PropOp38
 70
     1
102
RTVSPost2010Prop39
140
1.0
102
RTVSPost2010PropOp39
 70
     1
102
RTVSPost2010Prop40
 90
        0
102
RTVSPost2010PropOp40
 70
     1
102
RTVSPost2010Prop41ColorIndex
 90
       18
102
RTVSPost2010Prop41ColorRGB
 90
        0
102
RTVSPost2010PropOp41
 70
     1
102
RTVSPost2010Prop42
 90
       50
102
RTVSPost2010PropOp42
 70
     1
102
RTVSPost2010Prop43
 90
        3
102
RTVSPost2010PropOp43
 70
     1
102
RTVSPost2010Prop44ColorIndex
 90
        5
102
RTVSPost2010Prop44ColorRGB
 90
      255
102
RTVSPost2010PropOp44
 70
     1
102
RTVSPost2010Prop45
280
     0
102
RTVSPost2010PropOp45
 70
     1
102
RTVSPost2010Prop46
 90
       50
102
RTVSPost2010PropOp46
 70
     1
102
RTVSPost2010Prop47
 90
       50
102
RTVSPost2010PropOp47
 70
     1
102
RTVSPost2010Prop48
 90
       50
102
RTVSPost2010PropOp48
 70
     1
102
RTVSPost2010Prop49
280
     0
102
RTVSPost2010PropOp49
 70
     1
102
RTVSPost2010Prop50
 90
       50
102
RTVSPost2010PropOp50
 70
     1
102
RTVSPost2010Prop51ColorIndex
 90
      256
102
RTVSPost2010Prop51ColorRGB
 90
-16777216
102
RTVSPost2010PropOp51
 70
     0
102
RTVSPost2010Prop52
140
1.0
102
RTVSPost2010PropOp52
 70
     0
102
RTVSPost2010Prop53
 90
        2
102
RTVSPost2010PropOp53
 70
     1
102
RTVSPost2010Prop54
  1
strokes_ogs.tif
102
RTVSPost2010PropOp54
 70
     1
102
RTVSPost2010Prop55
280
     0
102
RTVSPost2010PropOp55
 70
     1
102
RTVSPost2010Prop56
140
1.0
102
RTVSPost2010PropOp56
 70
     1
102
RTVSPost2010Prop57
140
1.0
102
RTVSPost2010PropOp57
 70
     1
102
RTVSPropertyOp0
 70
     1
102
RTVSPropertyOp1
 70
     1
102
RTVSPropertyOp2
 70
     1
102
RTVSPropertyOp3
 70
     1
102
RTVSPropertyOp4
 70
     1
102
RTVSPropertyOp5
 70
     1
102
RTVSPropertyOp6
 70
     1
102
RTVSPropertyOp7
 70
     1
102
RTVSPropertyOp8
 70
     1
102
RTVSPropertyOp9
 70
     1
102
RTVSPropertyOp10
 70
     1
102
RTVSPropertyOp11
 70
     1
102
RTVSPropertyOp12
 70
     1
102
RTVSPropertyOp13
 70
     1
102
RTVSPropertyOp14
 70
     1
102
RTVSPropertyOp15
 70
     1
102
RTVSPropertyOp16
 70
     1
102
RTVSPropertyOp17
 70
     1
102
RTVSPropertyOp18
 70
     1
102
RTVSPropertyOp19
 70
     1
102
RTVSPropertyOp20
 70
     1
102
RTVSPropertyOp21
 70
     1
102
RTVSPropertyOp22
 70
     1
102
RTVSPropertyOp23
 70
     1
102
RTVSPropertyOp24
 70
     1
102
RTVSPropertyOp25
 70
     1
102
RTVSPropertyOp26
 70
     1
102
RTVSPropertyOp27
 70
     1
102
RTVSPropertyOp28
 70
     1
102
RTVSPropertyOp29
 70
     1
102
RTVSPropertyOp30
 70
     1
102
RTVSPropertyOp31
 70
     1
102
RTVSPropertyOp32
 70
     1
102
RTVSPropertyOp33
 70
     1
102
RTVSPropertyOp34
 70
     1
102
RTVSPropertyOp35
 70
     1
102
RTVSPropertyOp36
 70
     1
102
RTVSPropertyOp37
 70
     1
102
RTVSPropertyOp38
 70
     1
102
RTVSPropertyOp39
 70
     1
102
RTVSPropertyOp40
 70
     1
102
RTVSPropertyOp41
 70
     1
102
RTVSPropertyOp42
 70
     1
102
RTVSPropertyOp43
 70
     1
102
RTVSPropertyOp44
 70
     1
102
RTVSPropertyOp45
 70
     1
102
RTVSPropertyOp46
 70
     1
102
RTVSPropertyOp47
 70
     1
102
RTVSPropertyOp48
 70
     1
102
RTVSPropertyOp49
 70
     1
102
RTVSPropertyOp50
 70
     1
102
RTVSPropertyOp51
 70
     0
102
RTVSPropertyOp52
 70
     0
102
RTVSPropertyOp53
 70
     1
102
RTVSPropertyOp54
 70
     1
102
RTVSPropertyOp55
 70
     1
102
RTVSPropertyOp56
 70
     1
102
RTVSPropertyOp57
 70
     1
102
RTVSPropertyOp58
 70
     1
102
RTVSPropertyOp59
 70
     1
102
RTVSPropertyOp60
 70
     1
102
RTVSPropertyOp61
 70
     1
102
RTVSPropertyOp62
 70
     1
  0
XRECORD
  5
87B9
102
{ACAD_REACTORS
330
87B8
102
}
330
87B8
100
AcDbXrecord
280
     1
102
RTVSPost2010Prop28
280
     0
102
RTVSPost2010PropOp28
 70
     1
102
RTVSPost2010Prop29
280
     1
102
RTVSPost2010PropOp29
 70
     1
102
RTVSPost2010Prop30
280
     1
102
RTVSPost2010PropOp30
 70
     1
102
RTVSPost2010Prop31
280
     0
102
RTVSPost2010PropOp31
 70
     1
102
RTVSPost2010Prop32
280
     0
102
RTVSPost2010PropOp32
 70
     1
102
RTVSPost2010Prop33
280
     0
102
RTVSPost2010PropOp33
 70
     1
102
RTVSPost2010Prop34
280
     0
102
RTVSPost2010PropOp34
 70
     1
102
RTVSPost2010Prop35
280
     0
102
RTVSPost2010PropOp35
 70
     1
102
RTVSPost2010Prop36
280
     0
102
RTVSPost2010PropOp36
 70
     1
102
RTVSPost2010Prop37
 90
       50
102
RTVSPost2010PropOp37
 70
     1
102
RTVSPost2010Prop38
140
0.0
102
RTVSPost2010PropOp38
 70
     1
102
RTVSPost2010Prop39
140
1.0
102
RTVSPost2010PropOp39
 70
     1
102
RTVSPost2010Prop40
 90
        0
102
RTVSPost2010PropOp40
 70
     1
102
RTVSPost2010Prop41ColorIndex
 90
       18
102
RTVSPost2010Prop41ColorRGB
 90
        0
102
RTVSPost2010PropOp41
 70
     1
102
RTVSPost2010Prop42
 90
       50
102
RTVSPost2010PropOp42
 70
     1
102
RTVSPost2010Prop43
 90
        3
102
RTVSPost2010PropOp43
 70
     1
102
RTVSPost2010Prop44ColorIndex
 90
        5
102
RTVSPost2010Prop44ColorRGB
 90
      255
102
RTVSPost2010PropOp44
 70
     1
102
RTVSPost2010Prop45
280
     0
102
RTVSPost2010PropOp45
 70
     1
102
RTVSPost2010Prop46
 90
       50
102
RTVSPost2010PropOp46
 70
     1
102
RTVSPost2010Prop47
 90
       50
102
RTVSPost2010PropOp47
 70
     1
102
RTVSPost2010Prop48
 90
       50
102
RTVSPost2010PropOp48
 70
     1
102
RTVSPost2010Prop49
280
     0
102
RTVSPost2010PropOp49
 70
     1
102
RTVSPost2010Prop50
 90
       50
102
RTVSPost2010PropOp50
 70
     1
102
RTVSPost2010Prop51ColorIndex
 90
      256
102
RTVSPost2010Prop51ColorRGB
 90
-16777216
102
RTVSPost2010PropOp51
 70
     0
102
RTVSPost2010Prop52
140
1.0
102
RTVSPost2010PropOp52
 70
     0
102
RTVSPost2010Prop53
 90
        2
102
RTVSPost2010PropOp53
 70
     1
102
RTVSPost2010Prop54
  1
strokes_ogs.tif
102
RTVSPost2010PropOp54
 70
     1
102
RTVSPost2010Prop55
280
     0
102
RTVSPost2010PropOp55
 70
     1
102
RTVSPost2010Prop56
140
1.0
102
RTVSPost2010PropOp56
 70
     1
102
RTVSPost2010Prop57
140
1.0
102
RTVSPost2010PropOp57
 70
     1
102
RTVSPropertyOp0
 70
     1
102
RTVSPropertyOp1
 70
     1
102
RTVSPropertyOp2
 70
     1
102
RTVSPropertyOp3
 70
     1
102
RTVSPropertyOp4
 70
     1
102
RTVSPropertyOp5
 70
     1
102
RTVSPropertyOp6
 70
     1
102
RTVSPropertyOp7
 70
     1
102
RTVSPropertyOp8
 70
     1
102
RTVSPropertyOp9
 70
     1
102
RTVSPropertyOp10
 70
     1
102
RTVSPropertyOp11
 70
     1
102
RTVSPropertyOp12
 70
     1
102
RTVSPropertyOp13
 70
     1
102
RTVSPropertyOp14
 70
     1
102
RTVSPropertyOp15
 70
     1
102
RTVSPropertyOp16
 70
     1
102
RTVSPropertyOp17
 70
     1
102
RTVSPropertyOp18
 70
     1
102
RTVSPropertyOp19
 70
     1
102
RTVSPropertyOp20
 70
     1
102
RTVSPropertyOp21
 70
     1
102
RTVSPropertyOp22
 70
     1
102
RTVSPropertyOp23
 70
     1
102
RTVSPropertyOp24
 70
     1
102
RTVSPropertyOp25
 70
     1
102
RTVSPropertyOp26
 70
     1
102
RTVSPropertyOp27
 70
     1
102
RTVSPropertyOp28
 70
     1
102
RTVSPropertyOp29
 70
     1
102
RTVSPropertyOp30
 70
     1
102
RTVSPropertyOp31
 70
     1
102
RTVSPropertyOp32
 70
     1
102
RTVSPropertyOp33
 70
     1
102
RTVSPropertyOp34
 70
     1
102
RTVSPropertyOp35
 70
     1
102
RTVSPropertyOp36
 70
     1
102
RTVSPropertyOp37
 70
     1
102
RTVSPropertyOp38
 70
     1
102
RTVSPropertyOp39
 70
     1
102
RTVSPropertyOp40
 70
     1
102
RTVSPropertyOp41
 70
     1
102
RTVSPropertyOp42
 70
     1
102
RTVSPropertyOp43
 70
     1
102
RTVSPropertyOp44
 70
     1
102
RTVSPropertyOp45
 70
     1
102
RTVSPropertyOp46
 70
     1
102
RTVSPropertyOp47
 70
     1
102
RTVSPropertyOp48
 70
     1
102
RTVSPropertyOp49
 70
     1
102
RTVSPropertyOp50
 70
     1
102
RTVSPropertyOp51
 70
     0
102
RTVSPropertyOp52
 70
     0
102
RTVSPropertyOp53
 70
     1
102
RTVSPropertyOp54
 70
     1
102
RTVSPropertyOp55
 70
     1
102
RTVSPropertyOp56
 70
     1
102
RTVSPropertyOp57
 70
     1
102
RTVSPropertyOp58
 70
     1
102
RTVSPropertyOp59
 70
     1
102
RTVSPropertyOp60
 70
     1
102
RTVSPropertyOp61
 70
     1
102
RTVSPropertyOp62
 70
     1
  0
XRECORD
  5
87C1
102
{ACAD_REACTORS
330
87C0
102
}
330
87C0
100
AcDbXrecord
280
     1
102
RTVSPost2010Prop28
280
     0
102
RTVSPost2010PropOp28
 70
     1
102
RTVSPost2010Prop29
280
     1
102
RTVSPost2010PropOp29
 70
     1
102
RTVSPost2010Prop30
280
     1
102
RTVSPost2010PropOp30
 70
     1
102
RTVSPost2010Prop31
280
     0
102
RTVSPost2010PropOp31
 70
     1
102
RTVSPost2010Prop32
280
     0
102
RTVSPost2010PropOp32
 70
     1
102
RTVSPost2010Prop33
280
     0
102
RTVSPost2010PropOp33
 70
     1
102
RTVSPost2010Prop34
280
     0
102
RTVSPost2010PropOp34
 70
     1
102
RTVSPost2010Prop35
280
     0
102
RTVSPost2010PropOp35
 70
     1
102
RTVSPost2010Prop36
280
     0
102
RTVSPost2010PropOp36
 70
     1
102
RTVSPost2010Prop37
 90
       50
102
RTVSPost2010PropOp37
 70
     1
102
RTVSPost2010Prop38
140
0.0
102
RTVSPost2010PropOp38
 70
     1
102
RTVSPost2010Prop39
140
1.0
102
RTVSPost2010PropOp39
 70
     1
102
RTVSPost2010Prop40
 90
        0
102
RTVSPost2010PropOp40
 70
     1
102
RTVSPost2010Prop41ColorIndex
 90
       18
102
RTVSPost2010Prop41ColorRGB
 90
        0
102
RTVSPost2010PropOp41
 70
     1
102
RTVSPost2010Prop42
 90
       50
102
RTVSPost2010PropOp42
 70
     1
102
RTVSPost2010Prop43
 90
        3
102
RTVSPost2010PropOp43
 70
     1
102
RTVSPost2010Prop44ColorIndex
 90
        5
102
RTVSPost2010Prop44ColorRGB
 90
      255
102
RTVSPost2010PropOp44
 70
     1
102
RTVSPost2010Prop45
280
     0
102
RTVSPost2010PropOp45
 70
     1
102
RTVSPost2010Prop46
 90
       50
102
RTVSPost2010PropOp46
 70
     1
102
RTVSPost2010Prop47
 90
       50
102
RTVSPost2010PropOp47
 70
     1
102
RTVSPost2010Prop48
 90
       50
102
RTVSPost2010PropOp48
 70
     1
102
RTVSPost2010Prop49
280
     0
102
RTVSPost2010PropOp49
 70
     1
102
RTVSPost2010Prop50
 90
       50
102
RTVSPost2010PropOp50
 70
     1
102
RTVSPost2010Prop51ColorIndex
 90
      256
102
RTVSPost2010Prop51ColorRGB
 90
-16777216
102
RTVSPost2010PropOp51
 70
     0
102
RTVSPost2010Prop52
140
1.0
102
RTVSPost2010PropOp52
 70
     0
102
RTVSPost2010Prop53
 90
        2
102
RTVSPost2010PropOp53
 70
     1
102
RTVSPost2010Prop54
  1
strokes_ogs.tif
102
RTVSPost2010PropOp54
 70
     1
102
RTVSPost2010Prop55
280
     0
102
RTVSPost2010PropOp55
 70
     1
102
RTVSPost2010Prop56
140
1.0
102
RTVSPost2010PropOp56
 70
     1
102
RTVSPost2010Prop57
140
1.0
102
RTVSPost2010PropOp57
 70
     1
102
RTVSPropertyOp0
 70
     1
102
RTVSPropertyOp1
 70
     1
102
RTVSPropertyOp2
 70
     1
102
RTVSPropertyOp3
 70
     1
102
RTVSPropertyOp4
 70
     1
102
RTVSPropertyOp5
 70
     1
102
RTVSPropertyOp6
 70
     1
102
RTVSPropertyOp7
 70
     1
102
RTVSPropertyOp8
 70
     1
102
RTVSPropertyOp9
 70
     1
102
RTVSPropertyOp10
 70
     1
102
RTVSPropertyOp11
 70
     1
102
RTVSPropertyOp12
 70
     1
102
RTVSPropertyOp13
 70
     1
102
RTVSPropertyOp14
 70
     1
102
RTVSPropertyOp15
 70
     1
102
RTVSPropertyOp16
 70
     1
102
RTVSPropertyOp17
 70
     1
102
RTVSPropertyOp18
 70
     1
102
RTVSPropertyOp19
 70
     1
102
RTVSPropertyOp20
 70
     1
102
RTVSPropertyOp21
 70
     1
102
RTVSPropertyOp22
 70
     1
102
RTVSPropertyOp23
 70
     1
102
RTVSPropertyOp24
 70
     1
102
RTVSPropertyOp25
 70
     1
102
RTVSPropertyOp26
 70
     1
102
RTVSPropertyOp27
 70
     1
102
RTVSPropertyOp28
 70
     1
102
RTVSPropertyOp29
 70
     1
102
RTVSPropertyOp30
 70
     1
102
RTVSPropertyOp31
 70
     1
102
RTVSPropertyOp32
 70
     1
102
RTVSPropertyOp33
 70
     1
102
RTVSPropertyOp34
 70
     1
102
RTVSPropertyOp35
 70
     1
102
RTVSPropertyOp36
 70
     1
102
RTVSPropertyOp37
 70
     1
102
RTVSPropertyOp38
 70
     1
102
RTVSPropertyOp39
 70
     1
102
RTVSPropertyOp40
 70
     1
102
RTVSPropertyOp41
 70
     1
102
RTVSPropertyOp42
 70
     1
102
RTVSPropertyOp43
 70
     1
102
RTVSPropertyOp44
 70
     1
102
RTVSPropertyOp45
 70
     1
102
RTVSPropertyOp46
 70
     1
102
RTVSPropertyOp47
 70
     1
102
RTVSPropertyOp48
 70
     1
102
RTVSPropertyOp49
 70
     1
102
RTVSPropertyOp50
 70
     1
102
RTVSPropertyOp51
 70
     0
102
RTVSPropertyOp52
 70
     0
102
RTVSPropertyOp53
 70
     1
102
RTVSPropertyOp54
 70
     1
102
RTVSPropertyOp55
 70
     1
102
RTVSPropertyOp56
 70
     1
102
RTVSPropertyOp57
 70
     1
102
RTVSPropertyOp58
 70
     1
102
RTVSPropertyOp59
 70
     1
102
RTVSPropertyOp60
 70
     1
102
RTVSPropertyOp61
 70
     1
102
RTVSPropertyOp62
 70
     1
  0
XRECORD
  5
87DD
102
{ACAD_REACTORS
330
87DC
102
}
330
87DC
100
AcDbXrecord
280
     1
102
RTVSPost2010Prop28
280
     0
102
RTVSPost2010PropOp28
 70
     1
102
RTVSPost2010Prop29
280
     1
102
RTVSPost2010PropOp29
 70
     1
102
RTVSPost2010Prop30
280
     1
102
RTVSPost2010PropOp30
 70
     1
102
RTVSPost2010Prop31
280
     0
102
RTVSPost2010PropOp31
 70
     1
102
RTVSPost2010Prop32
280
     0
102
RTVSPost2010PropOp32
 70
     1
102
RTVSPost2010Prop33
280
     0
102
RTVSPost2010PropOp33
 70
     1
102
RTVSPost2010Prop34
280
     0
102
RTVSPost2010PropOp34
 70
     1
102
RTVSPost2010Prop35
280
     0
102
RTVSPost2010PropOp35
 70
     1
102
RTVSPost2010Prop36
280
     0
102
RTVSPost2010PropOp36
 70
     1
102
RTVSPost2010Prop37
 90
       50
102
RTVSPost2010PropOp37
 70
     0
102
RTVSPost2010Prop38
140
0.0
102
RTVSPost2010PropOp38
 70
     0
102
RTVSPost2010Prop39
140
1.0
102
RTVSPost2010PropOp39
 70
     0
102
RTVSPost2010Prop40
 90
        0
102
RTVSPost2010PropOp40
 70
     0
102
RTVSPost2010Prop41ColorIndex
 90
       18
102
RTVSPost2010Prop41ColorRGB
 90
        0
102
RTVSPost2010PropOp41
 70
     0
102
RTVSPost2010Prop42
 90
       50
102
RTVSPost2010PropOp42
 70
     0
102
RTVSPost2010Prop43
 90
        3
102
RTVSPost2010PropOp43
 70
     0
102
RTVSPost2010Prop44ColorIndex
 90
        5
102
RTVSPost2010Prop44ColorRGB
 90
      255
102
RTVSPost2010PropOp44
 70
     0
102
RTVSPost2010Prop45
280
     0
102
RTVSPost2010PropOp45
 70
     1
102
RTVSPost2010Prop46
 90
       50
102
RTVSPost2010PropOp46
 70
     0
102
RTVSPost2010Prop47
 90
       50
102
RTVSPost2010PropOp47
 70
     0
102
RTVSPost2010Prop48
 90
       50
102
RTVSPost2010PropOp48
 70
     0
102
RTVSPost2010Prop49
280
     0
102
RTVSPost2010PropOp49
 70
     1
102
RTVSPost2010Prop50
 90
       50
102
RTVSPost2010PropOp50
 70
     0
102
RTVSPost2010Prop51ColorIndex
 90
      256
102
RTVSPost2010Prop51ColorRGB
 90
-16777216
102
RTVSPost2010PropOp51
 70
     0
102
RTVSPost2010Prop52
140
1.0
102
RTVSPost2010PropOp52
 70
     0
102
RTVSPost2010Prop53
 90
        2
102
RTVSPost2010PropOp53
 70
     0
102
RTVSPost2010Prop54
  1
strokes_ogs.tif
102
RTVSPost2010PropOp54
 70
     0
102
RTVSPost2010Prop55
280
     0
102
RTVSPost2010PropOp55
 70
     1
102
RTVSPost2010Prop56
140
1.0
102
RTVSPost2010PropOp56
 70
     0
102
RTVSPost2010Prop57
140
1.0
102
RTVSPost2010PropOp57
 70
     0
102
RTVSPropertyOp0
 70
     0
102
RTVSPropertyOp1
 70
     0
102
RTVSPropertyOp2
 70
     0
102
RTVSPropertyOp3
 70
     0
102
RTVSPropertyOp4
 70
     0
102
RTVSPropertyOp5
 70
     0
102
RTVSPropertyOp6
 70
     0
102
RTVSPropertyOp7
 70
     0
102
RTVSPropertyOp8
 70
     0
102
RTVSPropertyOp9
 70
     0
102
RTVSPropertyOp10
 70
     0
102
RTVSPropertyOp11
 70
     0
102
RTVSPropertyOp12
 70
     0
102
RTVSPropertyOp13
 70
     0
102
RTVSPropertyOp14
 70
     2
102
RTVSPropertyOp15
 70
     0
102
RTVSPropertyOp16
 70
     0
102
RTVSPropertyOp17
 70
     0
102
RTVSPropertyOp18
 70
     0
102
RTVSPropertyOp19
 70
     0
102
RTVSPropertyOp20
 70
     0
102
RTVSPropertyOp21
 70
     0
102
RTVSPropertyOp22
 70
     0
102
RTVSPropertyOp23
 70
     0
102
RTVSPropertyOp24
 70
     0
102
RTVSPropertyOp25
 70
     0
102
RTVSPropertyOp26
 70
     0
102
RTVSPropertyOp27
 70
     0
102
RTVSPropertyOp28
 70
     1
102
RTVSPropertyOp29
 70
     1
102
RTVSPropertyOp30
 70
     1
102
RTVSPropertyOp31
 70
     1
102
RTVSPropertyOp32
 70
     1
102
RTVSPropertyOp33
 70
     1
102
RTVSPropertyOp34
 70
     1
102
RTVSPropertyOp35
 70
     1
102
RTVSPropertyOp36
 70
     1
102
RTVSPropertyOp37
 70
     0
102
RTVSPropertyOp38
 70
     0
102
RTVSPropertyOp39
 70
     0
102
RTVSPropertyOp40
 70
     0
102
RTVSPropertyOp41
 70
     0
102
RTVSPropertyOp42
 70
     0
102
RTVSPropertyOp43
 70
     0
102
RTVSPropertyOp44
 70
     0
102
RTVSPropertyOp45
 70
     1
102
RTVSPropertyOp46
 70
     0
102
RTVSPropertyOp47
 70
     0
102
RTVSPropertyOp48
 70
     0
102
RTVSPropertyOp49
 70
     1
102
RTVSPropertyOp50
 70
     0
102
RTVSPropertyOp51
 70
     0
102
RTVSPropertyOp52
 70
     0
102
RTVSPropertyOp53
 70
     0
102
RTVSPropertyOp54
 70
     0
102
RTVSPropertyOp55
 70
     1
102
RTVSPropertyOp56
 70
     0
102
RTVSPropertyOp57
 70
     0
102
RTVSPropertyOp58
 70
     0
102
RTVSPropertyOp59
 70
     0
102
RTVSPropertyOp60
 70
     0
102
RTVSPropertyOp61
 70
     0
102
RTVSPropertyOp62
 70
     0
  0
XRECORD
  5
87CD
102
{ACAD_REACTORS
330
87CC
102
}
330
87CC
100
AcDbXrecord
280
     1
102
RTVSPost2010Prop28
280
     0
102
RTVSPost2010PropOp28
 70
     1
102
RTVSPost2010Prop29
280
     1
102
RTVSPost2010PropOp29
 70
     1
102
RTVSPost2010Prop30
280
     1
102
RTVSPost2010PropOp30
 70
     1
102
RTVSPost2010Prop31
280
     0
102
RTVSPost2010PropOp31
 70
     1
102
RTVSPost2010Prop32
280
     0
102
RTVSPost2010PropOp32
 70
     1
102
RTVSPost2010Prop33
280
     0
102
RTVSPost2010PropOp33
 70
     1
102
RTVSPost2010Prop34
280
     0
102
RTVSPost2010PropOp34
 70
     1
102
RTVSPost2010Prop35
280
     0
102
RTVSPost2010PropOp35
 70
     1
102
RTVSPost2010Prop36
280
     0
102
RTVSPost2010PropOp36
 70
     1
102
RTVSPost2010Prop37
 90
       50
102
RTVSPost2010PropOp37
 70
     1
102
RTVSPost2010Prop38
140
0.0
102
RTVSPost2010PropOp38
 70
     1
102
RTVSPost2010Prop39
140
1.0
102
RTVSPost2010PropOp39
 70
     1
102
RTVSPost2010Prop40
 90
        0
102
RTVSPost2010PropOp40
 70
     1
102
RTVSPost2010Prop41ColorIndex
 90
       18
102
RTVSPost2010Prop41ColorRGB
 90
        0
102
RTVSPost2010PropOp41
 70
     1
102
RTVSPost2010Prop42
 90
       50
102
RTVSPost2010PropOp42
 70
     1
102
RTVSPost2010Prop43
 90
        3
102
RTVSPost2010PropOp43
 70
     1
102
RTVSPost2010Prop44ColorIndex
 90
        5
102
RTVSPost2010Prop44ColorRGB
 90
      255
102
RTVSPost2010PropOp44
 70
     1
102
RTVSPost2010Prop45
280
     0
102
RTVSPost2010PropOp45
 70
     1
102
RTVSPost2010Prop46
 90
       50
102
RTVSPost2010PropOp46
 70
     1
102
RTVSPost2010Prop47
 90
       50
102
RTVSPost2010PropOp47
 70
     1
102
RTVSPost2010Prop48
 90
       50
102
RTVSPost2010PropOp48
 70
     1
102
RTVSPost2010Prop49
280
     0
102
RTVSPost2010PropOp49
 70
     1
102
RTVSPost2010Prop50
 90
       50
102
RTVSPost2010PropOp50
 70
     1
102
RTVSPost2010Prop51ColorIndex
 90
      256
102
RTVSPost2010Prop51ColorRGB
 90
-16777216
102
RTVSPost2010PropOp51
 70
     0
102
RTVSPost2010Prop52
140
1.0
102
RTVSPost2010PropOp52
 70
     0
102
RTVSPost2010Prop53
 90
        2
102
RTVSPost2010PropOp53
 70
     1
102
RTVSPost2010Prop54
  1
strokes_ogs.tif
102
RTVSPost2010PropOp54
 70
     1
102
RTVSPost2010Prop55
280
     0
102
RTVSPost2010PropOp55
 70
     1
102
RTVSPost2010Prop56
140
1.0
102
RTVSPost2010PropOp56
 70
     1
102
RTVSPost2010Prop57
140
1.0
102
RTVSPost2010PropOp57
 70
     1
102
RTVSPropertyOp0
 70
     1
102
RTVSPropertyOp1
 70
     1
102
RTVSPropertyOp2
 70
     1
102
RTVSPropertyOp3
 70
     1
102
RTVSPropertyOp4
 70
     1
102
RTVSPropertyOp5
 70
     1
102
RTVSPropertyOp6
 70
     1
102
RTVSPropertyOp7
 70
     1
102
RTVSPropertyOp8
 70
     1
102
RTVSPropertyOp9
 70
     1
102
RTVSPropertyOp10
 70
     1
102
RTVSPropertyOp11
 70
     1
102
RTVSPropertyOp12
 70
     1
102
RTVSPropertyOp13
 70
     1
102
RTVSPropertyOp14
 70
     1
102
RTVSPropertyOp15
 70
     1
102
RTVSPropertyOp16
 70
     1
102
RTVSPropertyOp17
 70
     1
102
RTVSPropertyOp18
 70
     1
102
RTVSPropertyOp19
 70
     1
102
RTVSPropertyOp20
 70
     1
102
RTVSPropertyOp21
 70
     1
102
RTVSPropertyOp22
 70
     1
102
RTVSPropertyOp23
 70
     1
102
RTVSPropertyOp24
 70
     1
102
RTVSPropertyOp25
 70
     1
102
RTVSPropertyOp26
 70
     1
102
RTVSPropertyOp27
 70
     1
102
RTVSPropertyOp28
 70
     1
102
RTVSPropertyOp29
 70
     1
102
RTVSPropertyOp30
 70
     1
102
RTVSPropertyOp31
 70
     1
102
RTVSPropertyOp32
 70
     1
102
RTVSPropertyOp33
 70
     1
102
RTVSPropertyOp34
 70
     1
102
RTVSPropertyOp35
 70
     1
102
RTVSPropertyOp36
 70
     1
102
RTVSPropertyOp37
 70
     1
102
RTVSPropertyOp38
 70
     1
102
RTVSPropertyOp39
 70
     1
102
RTVSPropertyOp40
 70
     1
102
RTVSPropertyOp41
 70
     1
102
RTVSPropertyOp42
 70
     1
102
RTVSPropertyOp43
 70
     1
102
RTVSPropertyOp44
 70
     1
102
RTVSPropertyOp45
 70
     1
102
RTVSPropertyOp46
 70
     1
102
RTVSPropertyOp47
 70
     1
102
RTVSPropertyOp48
 70
     1
102
RTVSPropertyOp49
 70
     1
102
RTVSPropertyOp50
 70
     1
102
RTVSPropertyOp51
 70
     0
102
RTVSPropertyOp52
 70
     0
102
RTVSPropertyOp53
 70
     1
102
RTVSPropertyOp54
 70
     1
102
RTVSPropertyOp55
 70
     1
102
RTVSPropertyOp56
 70
     1
102
RTVSPropertyOp57
 70
     1
102
RTVSPropertyOp58
 70
     1
102
RTVSPropertyOp59
 70
     1
102
RTVSPropertyOp60
 70
     1
102
RTVSPropertyOp61
 70
     1
102
RTVSPropertyOp62
 70
     1
  0
XRECORD
  5
87DF
102
{ACAD_REACTORS
330
87DE
102
}
330
87DE
100
AcDbXrecord
280
     1
102
RTVSPost2010Prop28
280
     0
102
RTVSPost2010PropOp28
 70
     1
102
RTVSPost2010Prop29
280
     1
102
RTVSPost2010PropOp29
 70
     1
102
RTVSPost2010Prop30
280
     1
102
RTVSPost2010PropOp30
 70
     1
102
RTVSPost2010Prop31
280
     0
102
RTVSPost2010PropOp31
 70
     1
102
RTVSPost2010Prop32
280
     0
102
RTVSPost2010PropOp32
 70
     1
102
RTVSPost2010Prop33
280
     0
102
RTVSPost2010PropOp33
 70
     1
102
RTVSPost2010Prop34
280
     0
102
RTVSPost2010PropOp34
 70
     1
102
RTVSPost2010Prop35
280
     0
102
RTVSPost2010PropOp35
 70
     1
102
RTVSPost2010Prop36
280
     0
102
RTVSPost2010PropOp36
 70
     1
102
RTVSPost2010Prop37
 90
       50
102
RTVSPost2010PropOp37
 70
     0
102
RTVSPost2010Prop38
140
0.0
102
RTVSPost2010PropOp38
 70
     0
102
RTVSPost2010Prop39
140
1.0
102
RTVSPost2010PropOp39
 70
     0
102
RTVSPost2010Prop40
 90
        0
102
RTVSPost2010PropOp40
 70
     0
102
RTVSPost2010Prop41ColorIndex
 90
       18
102
RTVSPost2010Prop41ColorRGB
 90
        0
102
RTVSPost2010PropOp41
 70
     0
102
RTVSPost2010Prop42
 90
       50
102
RTVSPost2010PropOp42
 70
     0
102
RTVSPost2010Prop43
 90
        3
102
RTVSPost2010PropOp43
 70
     0
102
RTVSPost2010Prop44ColorIndex
 90
        5
102
RTVSPost2010Prop44ColorRGB
 90
      255
102
RTVSPost2010PropOp44
 70
     0
102
RTVSPost2010Prop45
280
     0
102
RTVSPost2010PropOp45
 70
     1
102
RTVSPost2010Prop46
 90
       50
102
RTVSPost2010PropOp46
 70
     0
102
RTVSPost2010Prop47
 90
       50
102
RTVSPost2010PropOp47
 70
     0
102
RTVSPost2010Prop48
 90
       50
102
RTVSPost2010PropOp48
 70
     0
102
RTVSPost2010Prop49
280
     0
102
RTVSPost2010PropOp49
 70
     1
102
RTVSPost2010Prop50
 90
       50
102
RTVSPost2010PropOp50
 70
     0
102
RTVSPost2010Prop51ColorIndex
 90
      256
102
RTVSPost2010Prop51ColorRGB
 90
-16777216
102
RTVSPost2010PropOp51
 70
     0
102
RTVSPost2010Prop52
140
1.0
102
RTVSPost2010PropOp52
 70
     0
102
RTVSPost2010Prop53
 90
        2
102
RTVSPost2010PropOp53
 70
     0
102
RTVSPost2010Prop54
  1
strokes_ogs.tif
102
RTVSPost2010PropOp54
 70
     0
102
RTVSPost2010Prop55
280
     0
102
RTVSPost2010PropOp55
 70
     1
102
RTVSPost2010Prop56
140
1.0
102
RTVSPost2010PropOp56
 70
     0
102
RTVSPost2010Prop57
140
1.0
102
RTVSPost2010PropOp57
 70
     0
102
RTVSPropertyOp0
 70
     0
102
RTVSPropertyOp1
 70
     0
102
RTVSPropertyOp2
 70
     0
102
RTVSPropertyOp3
 70
     0
102
RTVSPropertyOp4
 70
     0
102
RTVSPropertyOp5
 70
     0
102
RTVSPropertyOp6
 70
     0
102
RTVSPropertyOp7
 70
     0
102
RTVSPropertyOp8
 70
     0
102
RTVSPropertyOp9
 70
     0
102
RTVSPropertyOp10
 70
     0
102
RTVSPropertyOp11
 70
     0
102
RTVSPropertyOp12
 70
     0
102
RTVSPropertyOp13
 70
     0
102
RTVSPropertyOp14
 70
     2
102
RTVSPropertyOp15
 70
     0
102
RTVSPropertyOp16
 70
     0
102
RTVSPropertyOp17
 70
     0
102
RTVSPropertyOp18
 70
     0
102
RTVSPropertyOp19
 70
     0
102
RTVSPropertyOp20
 70
     0
102
RTVSPropertyOp21
 70
     0
102
RTVSPropertyOp22
 70
     0
102
RTVSPropertyOp23
 70
     0
102
RTVSPropertyOp24
 70
     0
102
RTVSPropertyOp25
 70
     0
102
RTVSPropertyOp26
 70
     0
102
RTVSPropertyOp27
 70
     0
102
RTVSPropertyOp28
 70
     1
102
RTVSPropertyOp29
 70
     1
102
RTVSPropertyOp30
 70
     1
102
RTVSPropertyOp31
 70
     1
102
RTVSPropertyOp32
 70
     1
102
RTVSPropertyOp33
 70
     1
102
RTVSPropertyOp34
 70
     1
102
RTVSPropertyOp35
 70
     1
102
RTVSPropertyOp36
 70
     1
102
RTVSPropertyOp37
 70
     0
102
RTVSPropertyOp38
 70
     0
102
RTVSPropertyOp39
 70
     0
102
RTVSPropertyOp40
 70
     0
102
RTVSPropertyOp41
 70
     0
102
RTVSPropertyOp42
 70
     0
102
RTVSPropertyOp43
 70
     0
102
RTVSPropertyOp44
 70
     0
102
RTVSPropertyOp45
 70
     1
102
RTVSPropertyOp46
 70
     0
102
RTVSPropertyOp47
 70
     0
102
RTVSPropertyOp48
 70
     0
102
RTVSPropertyOp49
 70
     1
102
RTVSPropertyOp50
 70
     0
102
RTVSPropertyOp51
 70
     0
102
RTVSPropertyOp52
 70
     0
102
RTVSPropertyOp53
 70
     0
102
RTVSPropertyOp54
 70
     0
102
RTVSPropertyOp55
 70
     1
102
RTVSPropertyOp56
 70
     0
102
RTVSPropertyOp57
 70
     0
102
RTVSPropertyOp58
 70
     0
102
RTVSPropertyOp59
 70
     0
102
RTVSPropertyOp60
 70
     0
102
RTVSPropertyOp61
 70
     0
102
RTVSPropertyOp62
 70
     0
  0
XRECORD
  5
87C5
102
{ACAD_REACTORS
330
87C4
102
}
330
87C4
100
AcDbXrecord
280
     1
102
RTVSPost2010Prop28
280
     0
102
RTVSPost2010PropOp28
 70
     1
102
RTVSPost2010Prop29
280
     1
102
RTVSPost2010PropOp29
 70
     1
102
RTVSPost2010Prop30
280
     1
102
RTVSPost2010PropOp30
 70
     1
102
RTVSPost2010Prop31
280
     0
102
RTVSPost2010PropOp31
 70
     1
102
RTVSPost2010Prop32
280
     0
102
RTVSPost2010PropOp32
 70
     1
102
RTVSPost2010Prop33
280
     0
102
RTVSPost2010PropOp33
 70
     1
102
RTVSPost2010Prop34
280
     0
102
RTVSPost2010PropOp34
 70
     1
102
RTVSPost2010Prop35
280
     0
102
RTVSPost2010PropOp35
 70
     1
102
RTVSPost2010Prop36
280
     0
102
RTVSPost2010PropOp36
 70
     1
102
RTVSPost2010Prop37
 90
       50
102
RTVSPost2010PropOp37
 70
     1
102
RTVSPost2010Prop38
140
0.0
102
RTVSPost2010PropOp38
 70
     1
102
RTVSPost2010Prop39
140
1.0
102
RTVSPost2010PropOp39
 70
     1
102
RTVSPost2010Prop40
 90
        0
102
RTVSPost2010PropOp40
 70
     1
102
RTVSPost2010Prop41ColorIndex
 90
       18
102
RTVSPost2010Prop41ColorRGB
 90
        0
102
RTVSPost2010PropOp41
 70
     1
102
RTVSPost2010Prop42
 90
       50
102
RTVSPost2010PropOp42
 70
     1
102
RTVSPost2010Prop43
 90
        3
102
RTVSPost2010PropOp43
 70
     1
102
RTVSPost2010Prop44ColorIndex
 90
        5
102
RTVSPost2010Prop44ColorRGB
 90
      255
102
RTVSPost2010PropOp44
 70
     1
102
RTVSPost2010Prop45
280
     0
102
RTVSPost2010PropOp45
 70
     1
102
RTVSPost2010Prop46
 90
       50
102
RTVSPost2010PropOp46
 70
     1
102
RTVSPost2010Prop47
 90
       50
102
RTVSPost2010PropOp47
 70
     1
102
RTVSPost2010Prop48
 90
       50
102
RTVSPost2010PropOp48
 70
     1
102
RTVSPost2010Prop49
280
     0
102
RTVSPost2010PropOp49
 70
     1
102
RTVSPost2010Prop50
 90
       50
102
RTVSPost2010PropOp50
 70
     1
102
RTVSPost2010Prop51ColorIndex
 90
      256
102
RTVSPost2010Prop51ColorRGB
 90
-16777216
102
RTVSPost2010PropOp51
 70
     0
102
RTVSPost2010Prop52
140
1.0
102
RTVSPost2010PropOp52
 70
     0
102
RTVSPost2010Prop53
 90
        2
102
RTVSPost2010PropOp53
 70
     1
102
RTVSPost2010Prop54
  1
strokes_ogs.tif
102
RTVSPost2010PropOp54
 70
     1
102
RTVSPost2010Prop55
280
     0
102
RTVSPost2010PropOp55
 70
     1
102
RTVSPost2010Prop56
140
1.0
102
RTVSPost2010PropOp56
 70
     1
102
RTVSPost2010Prop57
140
1.0
102
RTVSPost2010PropOp57
 70
     1
102
RTVSPropertyOp0
 70
     1
102
RTVSPropertyOp1
 70
     1
102
RTVSPropertyOp2
 70
     1
102
RTVSPropertyOp3
 70
     1
102
RTVSPropertyOp4
 70
     1
102
RTVSPropertyOp5
 70
     1
102
RTVSPropertyOp6
 70
     1
102
RTVSPropertyOp7
 70
     1
102
RTVSPropertyOp8
 70
     1
102
RTVSPropertyOp9
 70
     1
102
RTVSPropertyOp10
 70
     1
102
RTVSPropertyOp11
 70
     1
102
RTVSPropertyOp12
 70
     1
102
RTVSPropertyOp13
 70
     1
102
RTVSPropertyOp14
 70
     1
102
RTVSPropertyOp15
 70
     1
102
RTVSPropertyOp16
 70
     1
102
RTVSPropertyOp17
 70
     1
102
RTVSPropertyOp18
 70
     1
102
RTVSPropertyOp19
 70
     1
102
RTVSPropertyOp20
 70
     1
102
RTVSPropertyOp21
 70
     1
102
RTVSPropertyOp22
 70
     1
102
RTVSPropertyOp23
 70
     1
102
RTVSPropertyOp24
 70
     1
102
RTVSPropertyOp25
 70
     1
102
RTVSPropertyOp26
 70
     1
102
RTVSPropertyOp27
 70
     1
102
RTVSPropertyOp28
 70
     1
102
RTVSPropertyOp29
 70
     1
102
RTVSPropertyOp30
 70
     1
102
RTVSPropertyOp31
 70
     1
102
RTVSPropertyOp32
 70
     1
102
RTVSPropertyOp33
 70
     1
102
RTVSPropertyOp34
 70
     1
102
RTVSPropertyOp35
 70
     1
102
RTVSPropertyOp36
 70
     1
102
RTVSPropertyOp37
 70
     1
102
RTVSPropertyOp38
 70
     1
102
RTVSPropertyOp39
 70
     1
102
RTVSPropertyOp40
 70
     1
102
RTVSPropertyOp41
 70
     1
102
RTVSPropertyOp42
 70
     1
102
RTVSPropertyOp43
 70
     1
102
RTVSPropertyOp44
 70
     1
102
RTVSPropertyOp45
 70
     1
102
RTVSPropertyOp46
 70
     1
102
RTVSPropertyOp47
 70
     1
102
RTVSPropertyOp48
 70
     1
102
RTVSPropertyOp49
 70
     1
102
RTVSPropertyOp50
 70
     1
102
RTVSPropertyOp51
 70
     0
102
RTVSPropertyOp52
 70
     0
102
RTVSPropertyOp53
 70
     1
102
RTVSPropertyOp54
 70
     1
102
RTVSPropertyOp55
 70
     1
102
RTVSPropertyOp56
 70
     1
102
RTVSPropertyOp57
 70
     1
102
RTVSPropertyOp58
 70
     1
102
RTVSPropertyOp59
 70
     1
102
RTVSPropertyOp60
 70
     1
102
RTVSPropertyOp61
 70
     1
102
RTVSPropertyOp62
 70
     1
  0
XRECORD
  5
87DB
102
{ACAD_REACTORS
330
87DA
102
}
330
87DA
100
AcDbXrecord
280
     1
102
RTVSPost2010Prop28
280
     0
102
RTVSPost2010PropOp28
 70
     1
102
RTVSPost2010Prop29
280
     1
102
RTVSPost2010PropOp29
 70
     1
102
RTVSPost2010Prop30
280
     1
102
RTVSPost2010PropOp30
 70
     1
102
RTVSPost2010Prop31
280
     0
102
RTVSPost2010PropOp31
 70
     1
102
RTVSPost2010Prop32
280
     0
102
RTVSPost2010PropOp32
 70
     1
102
RTVSPost2010Prop33
280
     0
102
RTVSPost2010PropOp33
 70
     1
102
RTVSPost2010Prop34
280
     0
102
RTVSPost2010PropOp34
 70
     1
102
RTVSPost2010Prop35
280
     0
102
RTVSPost2010PropOp35
 70
     1
102
RTVSPost2010Prop36
280
     0
102
RTVSPost2010PropOp36
 70
     1
102
RTVSPost2010Prop37
 90
       50
102
RTVSPost2010PropOp37
 70
     1
102
RTVSPost2010Prop38
140
0.0
102
RTVSPost2010PropOp38
 70
     1
102
RTVSPost2010Prop39
140
1.0
102
RTVSPost2010PropOp39
 70
     1
102
RTVSPost2010Prop40
 90
        0
102
RTVSPost2010PropOp40
 70
     1
102
RTVSPost2010Prop41ColorIndex
 90
       18
102
RTVSPost2010Prop41ColorRGB
 90
        0
102
RTVSPost2010PropOp41
 70
     1
102
RTVSPost2010Prop42
 90
       50
102
RTVSPost2010PropOp42
 70
     1
102
RTVSPost2010Prop43
 90
        3
102
RTVSPost2010PropOp43
 70
     1
102
RTVSPost2010Prop44ColorIndex
 90
        5
102
RTVSPost2010Prop44ColorRGB
 90
      255
102
RTVSPost2010PropOp44
 70
     1
102
RTVSPost2010Prop45
280
     0
102
RTVSPost2010PropOp45
 70
     1
102
RTVSPost2010Prop46
 90
       50
102
RTVSPost2010PropOp46
 70
     1
102
RTVSPost2010Prop47
 90
       50
102
RTVSPost2010PropOp47
 70
     1
102
RTVSPost2010Prop48
 90
       50
102
RTVSPost2010PropOp48
 70
     1
102
RTVSPost2010Prop49
280
     0
102
RTVSPost2010PropOp49
 70
     1
102
RTVSPost2010Prop50
 90
       50
102
RTVSPost2010PropOp50
 70
     1
102
RTVSPost2010Prop51ColorIndex
 90
      256
102
RTVSPost2010Prop51ColorRGB
 90
-16777216
102
RTVSPost2010PropOp51
 70
     0
102
RTVSPost2010Prop52
140
1.0
102
RTVSPost2010PropOp52
 70
     0
102
RTVSPost2010Prop53
 90
        2
102
RTVSPost2010PropOp53
 70
     1
102
RTVSPost2010Prop54
  1
strokes_ogs.tif
102
RTVSPost2010PropOp54
 70
     1
102
RTVSPost2010Prop55
280
     0
102
RTVSPost2010PropOp55
 70
     1
102
RTVSPost2010Prop56
140
1.0
102
RTVSPost2010PropOp56
 70
     1
102
RTVSPost2010Prop57
140
1.0
102
RTVSPost2010PropOp57
 70
     1
102
RTVSPropertyOp0
 70
     1
102
RTVSPropertyOp1
 70
     1
102
RTVSPropertyOp2
 70
     1
102
RTVSPropertyOp3
 70
     1
102
RTVSPropertyOp4
 70
     1
102
RTVSPropertyOp5
 70
     1
102
RTVSPropertyOp6
 70
     1
102
RTVSPropertyOp7
 70
     1
102
RTVSPropertyOp8
 70
     1
102
RTVSPropertyOp9
 70
     1
102
RTVSPropertyOp10
 70
     1
102
RTVSPropertyOp11
 70
     1
102
RTVSPropertyOp12
 70
     1
102
RTVSPropertyOp13
 70
     1
102
RTVSPropertyOp14
 70
     1
102
RTVSPropertyOp15
 70
     1
102
RTVSPropertyOp16
 70
     1
102
RTVSPropertyOp17
 70
     1
102
RTVSPropertyOp18
 70
     1
102
RTVSPropertyOp19
 70
     1
102
RTVSPropertyOp20
 70
     1
102
RTVSPropertyOp21
 70
     1
102
RTVSPropertyOp22
 70
     1
102
RTVSPropertyOp23
 70
     1
102
RTVSPropertyOp24
 70
     1
102
RTVSPropertyOp25
 70
     1
102
RTVSPropertyOp26
 70
     1
102
RTVSPropertyOp27
 70
     1
102
RTVSPropertyOp28
 70
     1
102
RTVSPropertyOp29
 70
     1
102
RTVSPropertyOp30
 70
     1
102
RTVSPropertyOp31
 70
     1
102
RTVSPropertyOp32
 70
     1
102
RTVSPropertyOp33
 70
     1
102
RTVSPropertyOp34
 70
     1
102
RTVSPropertyOp35
 70
     1
102
RTVSPropertyOp36
 70
     1
102
RTVSPropertyOp37
 70
     1
102
RTVSPropertyOp38
 70
     1
102
RTVSPropertyOp39
 70
     1
102
RTVSPropertyOp40
 70
     1
102
RTVSPropertyOp41
 70
     1
102
RTVSPropertyOp42
 70
     1
102
RTVSPropertyOp43
 70
     1
102
RTVSPropertyOp44
 70
     1
102
RTVSPropertyOp45
 70
     1
102
RTVSPropertyOp46
 70
     1
102
RTVSPropertyOp47
 70
     1
102
RTVSPropertyOp48
 70
     1
102
RTVSPropertyOp49
 70
     1
102
RTVSPropertyOp50
 70
     1
102
RTVSPropertyOp51
 70
     0
102
RTVSPropertyOp52
 70
     0
102
RTVSPropertyOp53
 70
     1
102
RTVSPropertyOp54
 70
     1
102
RTVSPropertyOp55
 70
     1
102
RTVSPropertyOp56
 70
     1
102
RTVSPropertyOp57
 70
     1
102
RTVSPropertyOp58
 70
     1
102
RTVSPropertyOp59
 70
     1
102
RTVSPropertyOp60
 70
     1
102
RTVSPropertyOp61
 70
     1
102
RTVSPropertyOp62
 70
     1
  0
XRECORD
  5
87D9
102
{ACAD_REACTORS
330
87D8
102
}
330
87D8
100
AcDbXrecord
280
     1
102
RTVSPost2010Prop28
280
     0
102
RTVSPost2010PropOp28
 70
     1
102
RTVSPost2010Prop29
280
     1
102
RTVSPost2010PropOp29
 70
     1
102
RTVSPost2010Prop30
280
     1
102
RTVSPost2010PropOp30
 70
     1
102
RTVSPost2010Prop31
280
     0
102
RTVSPost2010PropOp31
 70
     1
102
RTVSPost2010Prop32
280
     0
102
RTVSPost2010PropOp32
 70
     1
102
RTVSPost2010Prop33
280
     0
102
RTVSPost2010PropOp33
 70
     1
102
RTVSPost2010Prop34
280
     0
102
RTVSPost2010PropOp34
 70
     1
102
RTVSPost2010Prop35
280
     0
102
RTVSPost2010PropOp35
 70
     1
102
RTVSPost2010Prop36
280
     0
102
RTVSPost2010PropOp36
 70
     1
102
RTVSPost2010Prop37
 90
       50
102
RTVSPost2010PropOp37
 70
     1
102
RTVSPost2010Prop38
140
0.0
102
RTVSPost2010PropOp38
 70
     1
102
RTVSPost2010Prop39
140
1.0
102
RTVSPost2010PropOp39
 70
     1
102
RTVSPost2010Prop40
 90
        0
102
RTVSPost2010PropOp40
 70
     1
102
RTVSPost2010Prop41ColorIndex
 90
       18
102
RTVSPost2010Prop41ColorRGB
 90
        0
102
RTVSPost2010PropOp41
 70
     1
102
RTVSPost2010Prop42
 90
       50
102
RTVSPost2010PropOp42
 70
     1
102
RTVSPost2010Prop43
 90
        3
102
RTVSPost2010PropOp43
 70
     1
102
RTVSPost2010Prop44ColorIndex
 90
        5
102
RTVSPost2010Prop44ColorRGB
 90
      255
102
RTVSPost2010PropOp44
 70
     1
102
RTVSPost2010Prop45
280
     0
102
RTVSPost2010PropOp45
 70
     1
102
RTVSPost2010Prop46
 90
       50
102
RTVSPost2010PropOp46
 70
     1
102
RTVSPost2010Prop47
 90
       50
102
RTVSPost2010PropOp47
 70
     1
102
RTVSPost2010Prop48
 90
       50
102
RTVSPost2010PropOp48
 70
     1
102
RTVSPost2010Prop49
280
     0
102
RTVSPost2010PropOp49
 70
     1
102
RTVSPost2010Prop50
 90
       50
102
RTVSPost2010PropOp50
 70
     1
102
RTVSPost2010Prop51ColorIndex
 90
      256
102
RTVSPost2010Prop51ColorRGB
 90
-16777216
102
RTVSPost2010PropOp51
 70
     0
102
RTVSPost2010Prop52
140
1.0
102
RTVSPost2010PropOp52
 70
     0
102
RTVSPost2010Prop53
 90
        2
102
RTVSPost2010PropOp53
 70
     1
102
RTVSPost2010Prop54
  1
strokes_ogs.tif
102
RTVSPost2010PropOp54
 70
     1
102
RTVSPost2010Prop55
280
     0
102
RTVSPost2010PropOp55
 70
     1
102
RTVSPost2010Prop56
140
1.0
102
RTVSPost2010PropOp56
 70
     1
102
RTVSPost2010Prop57
140
1.0
102
RTVSPost2010PropOp57
 70
     1
102
RTVSPropertyOp0
 70
     1
102
RTVSPropertyOp1
 70
     1
102
RTVSPropertyOp2
 70
     1
102
RTVSPropertyOp3
 70
     1
102
RTVSPropertyOp4
 70
     1
102
RTVSPropertyOp5
 70
     1
102
RTVSPropertyOp6
 70
     1
102
RTVSPropertyOp7
 70
     1
102
RTVSPropertyOp8
 70
     1
102
RTVSPropertyOp9
 70
     1
102
RTVSPropertyOp10
 70
     1
102
RTVSPropertyOp11
 70
     1
102
RTVSPropertyOp12
 70
     1
102
RTVSPropertyOp13
 70
     1
102
RTVSPropertyOp14
 70
     1
102
RTVSPropertyOp15
 70
     1
102
RTVSPropertyOp16
 70
     1
102
RTVSPropertyOp17
 70
     1
102
RTVSPropertyOp18
 70
     1
102
RTVSPropertyOp19
 70
     1
102
RTVSPropertyOp20
 70
     1
102
RTVSPropertyOp21
 70
     1
102
RTVSPropertyOp22
 70
     1
102
RTVSPropertyOp23
 70
     1
102
RTVSPropertyOp24
 70
     1
102
RTVSPropertyOp25
 70
     1
102
RTVSPropertyOp26
 70
     1
102
RTVSPropertyOp27
 70
     1
102
RTVSPropertyOp28
 70
     1
102
RTVSPropertyOp29
 70
     1
102
RTVSPropertyOp30
 70
     1
102
RTVSPropertyOp31
 70
     1
102
RTVSPropertyOp32
 70
     1
102
RTVSPropertyOp33
 70
     1
102
RTVSPropertyOp34
 70
     1
102
RTVSPropertyOp35
 70
     1
102
RTVSPropertyOp36
 70
     1
102
RTVSPropertyOp37
 70
     1
102
RTVSPropertyOp38
 70
     1
102
RTVSPropertyOp39
 70
     1
102
RTVSPropertyOp40
 70
     1
102
RTVSPropertyOp41
 70
     1
102
RTVSPropertyOp42
 70
     1
102
RTVSPropertyOp43
 70
     1
102
RTVSPropertyOp44
 70
     1
102
RTVSPropertyOp45
 70
     1
102
RTVSPropertyOp46
 70
     1
102
RTVSPropertyOp47
 70
     1
102
RTVSPropertyOp48
 70
     1
102
RTVSPropertyOp49
 70
     1
102
RTVSPropertyOp50
 70
     1
102
RTVSPropertyOp51
 70
     0
102
RTVSPropertyOp52
 70
     0
102
RTVSPropertyOp53
 70
     1
102
RTVSPropertyOp54
 70
     1
102
RTVSPropertyOp55
 70
     1
102
RTVSPropertyOp56
 70
     1
102
RTVSPropertyOp57
 70
     1
102
RTVSPropertyOp58
 70
     1
102
RTVSPropertyOp59
 70
     1
102
RTVSPropertyOp60
 70
     1
102
RTVSPropertyOp61
 70
     1
102
RTVSPropertyOp62
 70
     1
  0
XRECORD
  5
87D3
102
{ACAD_REACTORS
330
87D2
102
}
330
87D2
100
AcDbXrecord
280
     1
102
RTVSPost2010Prop28
280
     0
102
RTVSPost2010PropOp28
 70
     1
102
RTVSPost2010Prop29
280
     1
102
RTVSPost2010PropOp29
 70
     1
102
RTVSPost2010Prop30
280
     1
102
RTVSPost2010PropOp30
 70
     1
102
RTVSPost2010Prop31
280
     0
102
RTVSPost2010PropOp31
 70
     1
102
RTVSPost2010Prop32
280
     0
102
RTVSPost2010PropOp32
 70
     1
102
RTVSPost2010Prop33
280
     0
102
RTVSPost2010PropOp33
 70
     1
102
RTVSPost2010Prop34
280
     0
102
RTVSPost2010PropOp34
 70
     1
102
RTVSPost2010Prop35
280
     0
102
RTVSPost2010PropOp35
 70
     1
102
RTVSPost2010Prop36
280
     0
102
RTVSPost2010PropOp36
 70
     1
102
RTVSPost2010Prop37
 90
       50
102
RTVSPost2010PropOp37
 70
     1
102
RTVSPost2010Prop38
140
0.0
102
RTVSPost2010PropOp38
 70
     1
102
RTVSPost2010Prop39
140
1.0
102
RTVSPost2010PropOp39
 70
     1
102
RTVSPost2010Prop40
 90
        0
102
RTVSPost2010PropOp40
 70
     1
102
RTVSPost2010Prop41ColorIndex
 90
       18
102
RTVSPost2010Prop41ColorRGB
 90
        0
102
RTVSPost2010PropOp41
 70
     1
102
RTVSPost2010Prop42
 90
       50
102
RTVSPost2010PropOp42
 70
     1
102
RTVSPost2010Prop43
 90
        3
102
RTVSPost2010PropOp43
 70
     1
102
RTVSPost2010Prop44ColorIndex
 90
        5
102
RTVSPost2010Prop44ColorRGB
 90
      255
102
RTVSPost2010PropOp44
 70
     1
102
RTVSPost2010Prop45
280
     0
102
RTVSPost2010PropOp45
 70
     1
102
RTVSPost2010Prop46
 90
       50
102
RTVSPost2010PropOp46
 70
     1
102
RTVSPost2010Prop47
 90
       50
102
RTVSPost2010PropOp47
 70
     1
102
RTVSPost2010Prop48
 90
       50
102
RTVSPost2010PropOp48
 70
     1
102
RTVSPost2010Prop49
280
     0
102
RTVSPost2010PropOp49
 70
     1
102
RTVSPost2010Prop50
 90
       50
102
RTVSPost2010PropOp50
 70
     1
102
RTVSPost2010Prop51ColorIndex
 90
      256
102
RTVSPost2010Prop51ColorRGB
 90
-16777216
102
RTVSPost2010PropOp51
 70
     0
102
RTVSPost2010Prop52
140
1.0
102
RTVSPost2010PropOp52
 70
     0
102
RTVSPost2010Prop53
 90
        2
102
RTVSPost2010PropOp53
 70
     1
102
RTVSPost2010Prop54
  1
strokes_ogs.tif
102
RTVSPost2010PropOp54
 70
     1
102
RTVSPost2010Prop55
280
     0
102
RTVSPost2010PropOp55
 70
     1
102
RTVSPost2010Prop56
140
1.0
102
RTVSPost2010PropOp56
 70
     1
102
RTVSPost2010Prop57
140
1.0
102
RTVSPost2010PropOp57
 70
     1
102
RTVSPropertyOp0
 70
     1
102
RTVSPropertyOp1
 70
     1
102
RTVSPropertyOp2
 70
     1
102
RTVSPropertyOp3
 70
     1
102
RTVSPropertyOp4
 70
     1
102
RTVSPropertyOp5
 70
     1
102
RTVSPropertyOp6
 70
     1
102
RTVSPropertyOp7
 70
     1
102
RTVSPropertyOp8
 70
     1
102
RTVSPropertyOp9
 70
     1
102
RTVSPropertyOp10
 70
     1
102
RTVSPropertyOp11
 70
     1
102
RTVSPropertyOp12
 70
     1
102
RTVSPropertyOp13
 70
     1
102
RTVSPropertyOp14
 70
     1
102
RTVSPropertyOp15
 70
     1
102
RTVSPropertyOp16
 70
     1
102
RTVSPropertyOp17
 70
     1
102
RTVSPropertyOp18
 70
     1
102
RTVSPropertyOp19
 70
     1
102
RTVSPropertyOp20
 70
     1
102
RTVSPropertyOp21
 70
     1
102
RTVSPropertyOp22
 70
     1
102
RTVSPropertyOp23
 70
     1
102
RTVSPropertyOp24
 70
     1
102
RTVSPropertyOp25
 70
     1
102
RTVSPropertyOp26
 70
     1
102
RTVSPropertyOp27
 70
     1
102
RTVSPropertyOp28
 70
     1
102
RTVSPropertyOp29
 70
     1
102
RTVSPropertyOp30
 70
     1
102
RTVSPropertyOp31
 70
     1
102
RTVSPropertyOp32
 70
     1
102
RTVSPropertyOp33
 70
     1
102
RTVSPropertyOp34
 70
     1
102
RTVSPropertyOp35
 70
     1
102
RTVSPropertyOp36
 70
     1
102
RTVSPropertyOp37
 70
     1
102
RTVSPropertyOp38
 70
     1
102
RTVSPropertyOp39
 70
     1
102
RTVSPropertyOp40
 70
     1
102
RTVSPropertyOp41
 70
     1
102
RTVSPropertyOp42
 70
     1
102
RTVSPropertyOp43
 70
     1
102
RTVSPropertyOp44
 70
     1
102
RTVSPropertyOp45
 70
     1
102
RTVSPropertyOp46
 70
     1
102
RTVSPropertyOp47
 70
     1
102
RTVSPropertyOp48
 70
     1
102
RTVSPropertyOp49
 70
     1
102
RTVSPropertyOp50
 70
     1
102
RTVSPropertyOp51
 70
     0
102
RTVSPropertyOp52
 70
     0
102
RTVSPropertyOp53
 70
     1
102
RTVSPropertyOp54
 70
     1
102
RTVSPropertyOp55
 70
     1
102
RTVSPropertyOp56
 70
     1
102
RTVSPropertyOp57
 70
     1
102
RTVSPropertyOp58
 70
     1
102
RTVSPropertyOp59
 70
     1
102
RTVSPropertyOp60
 70
     1
102
RTVSPropertyOp61
 70
     1
102
RTVSPropertyOp62
 70
     1
  0
XRECORD
  5
87D5
102
{ACAD_REACTORS
330
87D4
102
}
330
87D4
100
AcDbXrecord
280
     1
102
RTVSPost2010Prop28
280
     0
102
RTVSPost2010PropOp28
 70
     1
102
RTVSPost2010Prop29
280
     1
102
RTVSPost2010PropOp29
 70
     1
102
RTVSPost2010Prop30
280
     1
102
RTVSPost2010PropOp30
 70
     1
102
RTVSPost2010Prop31
280
     0
102
RTVSPost2010PropOp31
 70
     1
102
RTVSPost2010Prop32
280
     0
102
RTVSPost2010PropOp32
 70
     1
102
RTVSPost2010Prop33
280
     0
102
RTVSPost2010PropOp33
 70
     1
102
RTVSPost2010Prop34
280
     0
102
RTVSPost2010PropOp34
 70
     1
102
RTVSPost2010Prop35
280
     0
102
RTVSPost2010PropOp35
 70
     1
102
RTVSPost2010Prop36
280
     0
102
RTVSPost2010PropOp36
 70
     1
102
RTVSPost2010Prop37
 90
       50
102
RTVSPost2010PropOp37
 70
     1
102
RTVSPost2010Prop38
140
0.0
102
RTVSPost2010PropOp38
 70
     1
102
RTVSPost2010Prop39
140
1.0
102
RTVSPost2010PropOp39
 70
     1
102
RTVSPost2010Prop40
 90
        0
102
RTVSPost2010PropOp40
 70
     1
102
RTVSPost2010Prop41ColorIndex
 90
       18
102
RTVSPost2010Prop41ColorRGB
 90
        0
102
RTVSPost2010PropOp41
 70
     1
102
RTVSPost2010Prop42
 90
       50
102
RTVSPost2010PropOp42
 70
     1
102
RTVSPost2010Prop43
 90
        3
102
RTVSPost2010PropOp43
 70
     1
102
RTVSPost2010Prop44ColorIndex
 90
        5
102
RTVSPost2010Prop44ColorRGB
 90
      255
102
RTVSPost2010PropOp44
 70
     1
102
RTVSPost2010Prop45
280
     0
102
RTVSPost2010PropOp45
 70
     1
102
RTVSPost2010Prop46
 90
       50
102
RTVSPost2010PropOp46
 70
     1
102
RTVSPost2010Prop47
 90
       50
102
RTVSPost2010PropOp47
 70
     1
102
RTVSPost2010Prop48
 90
       50
102
RTVSPost2010PropOp48
 70
     1
102
RTVSPost2010Prop49
280
     0
102
RTVSPost2010PropOp49
 70
     1
102
RTVSPost2010Prop50
 90
       50
102
RTVSPost2010PropOp50
 70
     1
102
RTVSPost2010Prop51ColorIndex
 90
      256
102
RTVSPost2010Prop51ColorRGB
 90
-16777216
102
RTVSPost2010PropOp51
 70
     0
102
RTVSPost2010Prop52
140
1.0
102
RTVSPost2010PropOp52
 70
     0
102
RTVSPost2010Prop53
 90
        2
102
RTVSPost2010PropOp53
 70
     1
102
RTVSPost2010Prop54
  1
strokes_ogs.tif
102
RTVSPost2010PropOp54
 70
     1
102
RTVSPost2010Prop55
280
     0
102
RTVSPost2010PropOp55
 70
     1
102
RTVSPost2010Prop56
140
1.0
102
RTVSPost2010PropOp56
 70
     1
102
RTVSPost2010Prop57
140
1.0
102
RTVSPost2010PropOp57
 70
     1
102
RTVSPropertyOp0
 70
     1
102
RTVSPropertyOp1
 70
     1
102
RTVSPropertyOp2
 70
     1
102
RTVSPropertyOp3
 70
     1
102
RTVSPropertyOp4
 70
     1
102
RTVSPropertyOp5
 70
     1
102
RTVSPropertyOp6
 70
     1
102
RTVSPropertyOp7
 70
     1
102
RTVSPropertyOp8
 70
     1
102
RTVSPropertyOp9
 70
     1
102
RTVSPropertyOp10
 70
     1
102
RTVSPropertyOp11
 70
     1
102
RTVSPropertyOp12
 70
     1
102
RTVSPropertyOp13
 70
     1
102
RTVSPropertyOp14
 70
     1
102
RTVSPropertyOp15
 70
     1
102
RTVSPropertyOp16
 70
     1
102
RTVSPropertyOp17
 70
     1
102
RTVSPropertyOp18
 70
     1
102
RTVSPropertyOp19
 70
     1
102
RTVSPropertyOp20
 70
     1
102
RTVSPropertyOp21
 70
     1
102
RTVSPropertyOp22
 70
     1
102
RTVSPropertyOp23
 70
     1
102
RTVSPropertyOp24
 70
     1
102
RTVSPropertyOp25
 70
     1
102
RTVSPropertyOp26
 70
     1
102
RTVSPropertyOp27
 70
     1
102
RTVSPropertyOp28
 70
     1
102
RTVSPropertyOp29
 70
     1
102
RTVSPropertyOp30
 70
     1
102
RTVSPropertyOp31
 70
     1
102
RTVSPropertyOp32
 70
     1
102
RTVSPropertyOp33
 70
     1
102
RTVSPropertyOp34
 70
     1
102
RTVSPropertyOp35
 70
     1
102
RTVSPropertyOp36
 70
     1
102
RTVSPropertyOp37
 70
     1
102
RTVSPropertyOp38
 70
     1
102
RTVSPropertyOp39
 70
     1
102
RTVSPropertyOp40
 70
     1
102
RTVSPropertyOp41
 70
     1
102
RTVSPropertyOp42
 70
     1
102
RTVSPropertyOp43
 70
     1
102
RTVSPropertyOp44
 70
     1
102
RTVSPropertyOp45
 70
     1
102
RTVSPropertyOp46
 70
     1
102
RTVSPropertyOp47
 70
     1
102
RTVSPropertyOp48
 70
     1
102
RTVSPropertyOp49
 70
     1
102
RTVSPropertyOp50
 70
     1
102
RTVSPropertyOp51
 70
     0
102
RTVSPropertyOp52
 70
     0
102
RTVSPropertyOp53
 70
     1
102
RTVSPropertyOp54
 70
     1
102
RTVSPropertyOp55
 70
     1
102
RTVSPropertyOp56
 70
     1
102
RTVSPropertyOp57
 70
     1
102
RTVSPropertyOp58
 70
     1
102
RTVSPropertyOp59
 70
     1
102
RTVSPropertyOp60
 70
     1
102
RTVSPropertyOp61
 70
     1
102
RTVSPropertyOp62
 70
     1
  0
XRECORD
  5
87CB
102
{ACAD_REACTORS
330
87CA
102
}
330
87CA
100
AcDbXrecord
280
     1
102
RTVSPost2010Prop28
280
     0
102
RTVSPost2010PropOp28
 70
     1
102
RTVSPost2010Prop29
280
     1
102
RTVSPost2010PropOp29
 70
     1
102
RTVSPost2010Prop30
280
     1
102
RTVSPost2010PropOp30
 70
     1
102
RTVSPost2010Prop31
280
     0
102
RTVSPost2010PropOp31
 70
     1
102
RTVSPost2010Prop32
280
     0
102
RTVSPost2010PropOp32
 70
     1
102
RTVSPost2010Prop33
280
     0
102
RTVSPost2010PropOp33
 70
     1
102
RTVSPost2010Prop34
280
     0
102
RTVSPost2010PropOp34
 70
     1
102
RTVSPost2010Prop35
280
     0
102
RTVSPost2010PropOp35
 70
     1
102
RTVSPost2010Prop36
280
     0
102
RTVSPost2010PropOp36
 70
     1
102
RTVSPost2010Prop37
 90
       50
102
RTVSPost2010PropOp37
 70
     1
102
RTVSPost2010Prop38
140
0.0
102
RTVSPost2010PropOp38
 70
     1
102
RTVSPost2010Prop39
140
1.0
102
RTVSPost2010PropOp39
 70
     1
102
RTVSPost2010Prop40
 90
        0
102
RTVSPost2010PropOp40
 70
     1
102
RTVSPost2010Prop41ColorIndex
 90
       18
102
RTVSPost2010Prop41ColorRGB
 90
        0
102
RTVSPost2010PropOp41
 70
     1
102
RTVSPost2010Prop42
 90
       50
102
RTVSPost2010PropOp42
 70
     1
102
RTVSPost2010Prop43
 90
        3
102
RTVSPost2010PropOp43
 70
     1
102
RTVSPost2010Prop44ColorIndex
 90
        5
102
RTVSPost2010Prop44ColorRGB
 90
      255
102
RTVSPost2010PropOp44
 70
     1
102
RTVSPost2010Prop45
280
     0
102
RTVSPost2010PropOp45
 70
     1
102
RTVSPost2010Prop46
 90
       50
102
RTVSPost2010PropOp46
 70
     1
102
RTVSPost2010Prop47
 90
       50
102
RTVSPost2010PropOp47
 70
     1
102
RTVSPost2010Prop48
 90
       50
102
RTVSPost2010PropOp48
 70
     1
102
RTVSPost2010Prop49
280
     0
102
RTVSPost2010PropOp49
 70
     1
102
RTVSPost2010Prop50
 90
       50
102
RTVSPost2010PropOp50
 70
     1
102
RTVSPost2010Prop51ColorIndex
 90
      256
102
RTVSPost2010Prop51ColorRGB
 90
-16777216
102
RTVSPost2010PropOp51
 70
     0
102
RTVSPost2010Prop52
140
1.0
102
RTVSPost2010PropOp52
 70
     0
102
RTVSPost2010Prop53
 90
        2
102
RTVSPost2010PropOp53
 70
     1
102
RTVSPost2010Prop54
  1
strokes_ogs.tif
102
RTVSPost2010PropOp54
 70
     1
102
RTVSPost2010Prop55
280
     0
102
RTVSPost2010PropOp55
 70
     1
102
RTVSPost2010Prop56
140
1.0
102
RTVSPost2010PropOp56
 70
     1
102
RTVSPost2010Prop57
140
1.0
102
RTVSPost2010PropOp57
 70
     1
102
RTVSPropertyOp0
 70
     1
102
RTVSPropertyOp1
 70
     1
102
RTVSPropertyOp2
 70
     1
102
RTVSPropertyOp3
 70
     1
102
RTVSPropertyOp4
 70
     1
102
RTVSPropertyOp5
 70
     1
102
RTVSPropertyOp6
 70
     1
102
RTVSPropertyOp7
 70
     1
102
RTVSPropertyOp8
 70
     1
102
RTVSPropertyOp9
 70
     1
102
RTVSPropertyOp10
 70
     1
102
RTVSPropertyOp11
 70
     1
102
RTVSPropertyOp12
 70
     1
102
RTVSPropertyOp13
 70
     1
102
RTVSPropertyOp14
 70
     1
102
RTVSPropertyOp15
 70
     1
102
RTVSPropertyOp16
 70
     1
102
RTVSPropertyOp17
 70
     1
102
RTVSPropertyOp18
 70
     1
102
RTVSPropertyOp19
 70
     1
102
RTVSPropertyOp20
 70
     1
102
RTVSPropertyOp21
 70
     1
102
RTVSPropertyOp22
 70
     1
102
RTVSPropertyOp23
 70
     1
102
RTVSPropertyOp24
 70
     1
102
RTVSPropertyOp25
 70
     1
102
RTVSPropertyOp26
 70
     1
102
RTVSPropertyOp27
 70
     1
102
RTVSPropertyOp28
 70
     1
102
RTVSPropertyOp29
 70
     1
102
RTVSPropertyOp30
 70
     1
102
RTVSPropertyOp31
 70
     1
102
RTVSPropertyOp32
 70
     1
102
RTVSPropertyOp33
 70
     1
102
RTVSPropertyOp34
 70
     1
102
RTVSPropertyOp35
 70
     1
102
RTVSPropertyOp36
 70
     1
102
RTVSPropertyOp37
 70
     1
102
RTVSPropertyOp38
 70
     1
102
RTVSPropertyOp39
 70
     1
102
RTVSPropertyOp40
 70
     1
102
RTVSPropertyOp41
 70
     1
102
RTVSPropertyOp42
 70
     1
102
RTVSPropertyOp43
 70
     1
102
RTVSPropertyOp44
 70
     1
102
RTVSPropertyOp45
 70
     1
102
RTVSPropertyOp46
 70
     1
102
RTVSPropertyOp47
 70
     1
102
RTVSPropertyOp48
 70
     1
102
RTVSPropertyOp49
 70
     1
102
RTVSPropertyOp50
 70
     1
102
RTVSPropertyOp51
 70
     0
102
RTVSPropertyOp52
 70
     0
102
RTVSPropertyOp53
 70
     1
102
RTVSPropertyOp54
 70
     1
102
RTVSPropertyOp55
 70
     1
102
RTVSPropertyOp56
 70
     1
102
RTVSPropertyOp57
 70
     1
102
RTVSPropertyOp58
 70
     1
102
RTVSPropertyOp59
 70
     1
102
RTVSPropertyOp60
 70
     1
102
RTVSPropertyOp61
 70
     1
102
RTVSPropertyOp62
 70
     1
  0
XRECORD
  5
87BF
102
{ACAD_REACTORS
330
87BE
102
}
330
87BE
100
AcDbXrecord
280
     1
102
RTVSPost2010Prop28
280
     0
102
RTVSPost2010PropOp28
 70
     1
102
RTVSPost2010Prop29
280
     1
102
RTVSPost2010PropOp29
 70
     1
102
RTVSPost2010Prop30
280
     1
102
RTVSPost2010PropOp30
 70
     1
102
RTVSPost2010Prop31
280
     0
102
RTVSPost2010PropOp31
 70
     1
102
RTVSPost2010Prop32
280
     0
102
RTVSPost2010PropOp32
 70
     1
102
RTVSPost2010Prop33
280
     0
102
RTVSPost2010PropOp33
 70
     1
102
RTVSPost2010Prop34
280
     0
102
RTVSPost2010PropOp34
 70
     1
102
RTVSPost2010Prop35
280
     0
102
RTVSPost2010PropOp35
 70
     1
102
RTVSPost2010Prop36
280
     0
102
RTVSPost2010PropOp36
 70
     1
102
RTVSPost2010Prop37
 90
       50
102
RTVSPost2010PropOp37
 70
     1
102
RTVSPost2010Prop38
140
0.0
102
RTVSPost2010PropOp38
 70
     1
102
RTVSPost2010Prop39
140
1.0
102
RTVSPost2010PropOp39
 70
     1
102
RTVSPost2010Prop40
 90
        0
102
RTVSPost2010PropOp40
 70
     1
102
RTVSPost2010Prop41ColorIndex
 90
       18
102
RTVSPost2010Prop41ColorRGB
 90
        0
102
RTVSPost2010PropOp41
 70
     1
102
RTVSPost2010Prop42
 90
       50
102
RTVSPost2010PropOp42
 70
     1
102
RTVSPost2010Prop43
 90
        3
102
RTVSPost2010PropOp43
 70
     1
102
RTVSPost2010Prop44ColorIndex
 90
        5
102
RTVSPost2010Prop44ColorRGB
 90
      255
102
RTVSPost2010PropOp44
 70
     1
102
RTVSPost2010Prop45
280
     0
102
RTVSPost2010PropOp45
 70
     1
102
RTVSPost2010Prop46
 90
       50
102
RTVSPost2010PropOp46
 70
     1
102
RTVSPost2010Prop47
 90
       50
102
RTVSPost2010PropOp47
 70
     1
102
RTVSPost2010Prop48
 90
       50
102
RTVSPost2010PropOp48
 70
     1
102
RTVSPost2010Prop49
280
     0
102
RTVSPost2010PropOp49
 70
     1
102
RTVSPost2010Prop50
 90
       50
102
RTVSPost2010PropOp50
 70
     1
102
RTVSPost2010Prop51ColorIndex
 90
      256
102
RTVSPost2010Prop51ColorRGB
 90
-16777216
102
RTVSPost2010PropOp51
 70
     0
102
RTVSPost2010Prop52
140
1.0
102
RTVSPost2010PropOp52
 70
     0
102
RTVSPost2010Prop53
 90
        2
102
RTVSPost2010PropOp53
 70
     1
102
RTVSPost2010Prop54
  1
strokes_ogs.tif
102
RTVSPost2010PropOp54
 70
     1
102
RTVSPost2010Prop55
280
     0
102
RTVSPost2010PropOp55
 70
     1
102
RTVSPost2010Prop56
140
1.0
102
RTVSPost2010PropOp56
 70
     1
102
RTVSPost2010Prop57
140
1.0
102
RTVSPost2010PropOp57
 70
     1
102
RTVSPropertyOp0
 70
     1
102
RTVSPropertyOp1
 70
     1
102
RTVSPropertyOp2
 70
     1
102
RTVSPropertyOp3
 70
     1
102
RTVSPropertyOp4
 70
     1
102
RTVSPropertyOp5
 70
     1
102
RTVSPropertyOp6
 70
     1
102
RTVSPropertyOp7
 70
     1
102
RTVSPropertyOp8
 70
     1
102
RTVSPropertyOp9
 70
     1
102
RTVSPropertyOp10
 70
     1
102
RTVSPropertyOp11
 70
     1
102
RTVSPropertyOp12
 70
     1
102
RTVSPropertyOp13
 70
     1
102
RTVSPropertyOp14
 70
     1
102
RTVSPropertyOp15
 70
     1
102
RTVSPropertyOp16
 70
     1
102
RTVSPropertyOp17
 70
     1
102
RTVSPropertyOp18
 70
     1
102
RTVSPropertyOp19
 70
     1
102
RTVSPropertyOp20
 70
     1
102
RTVSPropertyOp21
 70
     1
102
RTVSPropertyOp22
 70
     1
102
RTVSPropertyOp23
 70
     1
102
RTVSPropertyOp24
 70
     1
102
RTVSPropertyOp25
 70
     1
102
RTVSPropertyOp26
 70
     1
102
RTVSPropertyOp27
 70
     1
102
RTVSPropertyOp28
 70
     1
102
RTVSPropertyOp29
 70
     1
102
RTVSPropertyOp30
 70
     1
102
RTVSPropertyOp31
 70
     1
102
RTVSPropertyOp32
 70
     1
102
RTVSPropertyOp33
 70
     1
102
RTVSPropertyOp34
 70
     1
102
RTVSPropertyOp35
 70
     1
102
RTVSPropertyOp36
 70
     1
102
RTVSPropertyOp37
 70
     1
102
RTVSPropertyOp38
 70
     1
102
RTVSPropertyOp39
 70
     1
102
RTVSPropertyOp40
 70
     1
102
RTVSPropertyOp41
 70
     1
102
RTVSPropertyOp42
 70
     1
102
RTVSPropertyOp43
 70
     1
102
RTVSPropertyOp44
 70
     1
102
RTVSPropertyOp45
 70
     1
102
RTVSPropertyOp46
 70
     1
102
RTVSPropertyOp47
 70
     1
102
RTVSPropertyOp48
 70
     1
102
RTVSPropertyOp49
 70
     1
102
RTVSPropertyOp50
 70
     1
102
RTVSPropertyOp51
 70
     0
102
RTVSPropertyOp52
 70
     0
102
RTVSPropertyOp53
 70
     1
102
RTVSPropertyOp54
 70
     1
102
RTVSPropertyOp55
 70
     1
102
RTVSPropertyOp56
 70
     1
102
RTVSPropertyOp57
 70
     1
102
RTVSPropertyOp58
 70
     1
102
RTVSPropertyOp59
 70
     1
102
RTVSPropertyOp60
 70
     1
102
RTVSPropertyOp61
 70
     1
102
RTVSPropertyOp62
 70
     1
  0
XRECORD
  5
87D7
102
{ACAD_REACTORS
330
87D6
102
}
330
87D6
100
AcDbXrecord
280
     1
102
RTVSPost2010Prop28
280
     0
102
RTVSPost2010PropOp28
 70
     1
102
RTVSPost2010Prop29
280
     1
102
RTVSPost2010PropOp29
 70
     1
102
RTVSPost2010Prop30
280
     1
102
RTVSPost2010PropOp30
 70
     1
102
RTVSPost2010Prop31
280
     0
102
RTVSPost2010PropOp31
 70
     1
102
RTVSPost2010Prop32
280
     0
102
RTVSPost2010PropOp32
 70
     1
102
RTVSPost2010Prop33
280
     0
102
RTVSPost2010PropOp33
 70
     1
102
RTVSPost2010Prop34
280
     0
102
RTVSPost2010PropOp34
 70
     1
102
RTVSPost2010Prop35
280
     0
102
RTVSPost2010PropOp35
 70
     1
102
RTVSPost2010Prop36
280
     0
102
RTVSPost2010PropOp36
 70
     1
102
RTVSPost2010Prop37
 90
       50
102
RTVSPost2010PropOp37
 70
     1
102
RTVSPost2010Prop38
140
0.0
102
RTVSPost2010PropOp38
 70
     1
102
RTVSPost2010Prop39
140
1.0
102
RTVSPost2010PropOp39
 70
     1
102
RTVSPost2010Prop40
 90
        0
102
RTVSPost2010PropOp40
 70
     1
102
RTVSPost2010Prop41ColorIndex
 90
       18
102
RTVSPost2010Prop41ColorRGB
 90
        0
102
RTVSPost2010PropOp41
 70
     1
102
RTVSPost2010Prop42
 90
       50
102
RTVSPost2010PropOp42
 70
     1
102
RTVSPost2010Prop43
 90
        3
102
RTVSPost2010PropOp43
 70
     1
102
RTVSPost2010Prop44ColorIndex
 90
        5
102
RTVSPost2010Prop44ColorRGB
 90
      255
102
RTVSPost2010PropOp44
 70
     1
102
RTVSPost2010Prop45
280
     0
102
RTVSPost2010PropOp45
 70
     1
102
RTVSPost2010Prop46
 90
       50
102
RTVSPost2010PropOp46
 70
     1
102
RTVSPost2010Prop47
 90
       50
102
RTVSPost2010PropOp47
 70
     1
102
RTVSPost2010Prop48
 90
       50
102
RTVSPost2010PropOp48
 70
     1
102
RTVSPost2010Prop49
280
     0
102
RTVSPost2010PropOp49
 70
     1
102
RTVSPost2010Prop50
 90
       50
102
RTVSPost2010PropOp50
 70
     1
102
RTVSPost2010Prop51ColorIndex
 90
      256
102
RTVSPost2010Prop51ColorRGB
 90
-16777216
102
RTVSPost2010PropOp51
 70
     0
102
RTVSPost2010Prop52
140
1.0
102
RTVSPost2010PropOp52
 70
     0
102
RTVSPost2010Prop53
 90
        2
102
RTVSPost2010PropOp53
 70
     1
102
RTVSPost2010Prop54
  1
strokes_ogs.tif
102
RTVSPost2010PropOp54
 70
     1
102
RTVSPost2010Prop55
280
     0
102
RTVSPost2010PropOp55
 70
     1
102
RTVSPost2010Prop56
140
1.0
102
RTVSPost2010PropOp56
 70
     1
102
RTVSPost2010Prop57
140
1.0
102
RTVSPost2010PropOp57
 70
     1
102
RTVSPropertyOp0
 70
     1
102
RTVSPropertyOp1
 70
     1
102
RTVSPropertyOp2
 70
     1
102
RTVSPropertyOp3
 70
     1
102
RTVSPropertyOp4
 70
     1
102
RTVSPropertyOp5
 70
     1
102
RTVSPropertyOp6
 70
     1
102
RTVSPropertyOp7
 70
     1
102
RTVSPropertyOp8
 70
     1
102
RTVSPropertyOp9
 70
     1
102
RTVSPropertyOp10
 70
     1
102
RTVSPropertyOp11
 70
     1
102
RTVSPropertyOp12
 70
     1
102
RTVSPropertyOp13
 70
     1
102
RTVSPropertyOp14
 70
     1
102
RTVSPropertyOp15
 70
     1
102
RTVSPropertyOp16
 70
     1
102
RTVSPropertyOp17
 70
     1
102
RTVSPropertyOp18
 70
     1
102
RTVSPropertyOp19
 70
     1
102
RTVSPropertyOp20
 70
     1
102
RTVSPropertyOp21
 70
     1
102
RTVSPropertyOp22
 70
     1
102
RTVSPropertyOp23
 70
     1
102
RTVSPropertyOp24
 70
     1
102
RTVSPropertyOp25
 70
     1
102
RTVSPropertyOp26
 70
     1
102
RTVSPropertyOp27
 70
     1
102
RTVSPropertyOp28
 70
     1
102
RTVSPropertyOp29
 70
     1
102
RTVSPropertyOp30
 70
     1
102
RTVSPropertyOp31
 70
     1
102
RTVSPropertyOp32
 70
     1
102
RTVSPropertyOp33
 70
     1
102
RTVSPropertyOp34
 70
     1
102
RTVSPropertyOp35
 70
     1
102
RTVSPropertyOp36
 70
     1
102
RTVSPropertyOp37
 70
     1
102
RTVSPropertyOp38
 70
     1
102
RTVSPropertyOp39
 70
     1
102
RTVSPropertyOp40
 70
     1
102
RTVSPropertyOp41
 70
     1
102
RTVSPropertyOp42
 70
     1
102
RTVSPropertyOp43
 70
     1
102
RTVSPropertyOp44
 70
     1
102
RTVSPropertyOp45
 70
     1
102
RTVSPropertyOp46
 70
     1
102
RTVSPropertyOp47
 70
     1
102
RTVSPropertyOp48
 70
     1
102
RTVSPropertyOp49
 70
     1
102
RTVSPropertyOp50
 70
     1
102
RTVSPropertyOp51
 70
     0
102
RTVSPropertyOp52
 70
     0
102
RTVSPropertyOp53
 70
     1
102
RTVSPropertyOp54
 70
     1
102
RTVSPropertyOp55
 70
     1
102
RTVSPropertyOp56
 70
     1
102
RTVSPropertyOp57
 70
     1
102
RTVSPropertyOp58
 70
     1
102
RTVSPropertyOp59
 70
     1
102
RTVSPropertyOp60
 70
     1
102
RTVSPropertyOp61
 70
     1
102
RTVSPropertyOp62
 70
     1
  0
ENDSEC
  0
EOF
