  0
SECTION
  2
HEADER
  9
$ACADVER
  1
AC1015
  9
$ACADMAINTVER
 70
    20
  9
$DWGCODEPAGE
  3
ANSI_932
  9
$INSBASE
 10
0.0
 20
0.0
 30
0.0
  9
$EXTMIN
 10
-0.2563280987742473
 20
-0.3600799482810544
 30
-0.0015258207003583
  9
$EXTMAX
 10
8400.256367214323
 20
11800.3601348963
 30
0.0000000349246037
  9
$LIMMIN
 10
0.0
 20
0.0
  9
$LIMMAX
 10
297.0
 20
210.0
  9
$ORTHOMODE
 70
     1
  9
$REGENMODE
 70
     1
  9
$FILLMODE
 70
     0
  9
$QTEXTMODE
 70
     0
  9
$MIRRTEXT
 70
     1
  9
$LTSCALE
 40
100.0
  9
$ATTMODE
 70
     1
  9
$TEXTSIZE
 40
180.0
  9
$TRACEWID
 40
0.05
  9
$TEXTSTYLE
  7
STANDARD
  9
$CLAYER
  8
3
  9
$CELTYPE
  6
ByLayer
  9
$CECOLOR
 62
   256
  9
$CELTSCALE
 40
1.0
  9
$DISPSILH
 70
     0
  9
$DIMSCALE
 40
40.0
  9
$DIMASZ
 40
2.0
  9
$DIMEXO
 40
0.5
  9
$DIMDLI
 40
10.0
  9
$DIMRND
 40
0.0
  9
$DIMDLE
 40
0.0
  9
$DIMEXE
 40
1.0
  9
$DIMTP
 40
1.0
  9
$DIMTM
 40
1.0
  9
$DIMTXT
 40
3.0
  9
$DIMCEN
 40
0.0
  9
$DIMTSZ
 40
0.0
  9
$DIMTOL
 70
     0
  9
$DIMLIM
 70
     0
  9
$DIMTIH
 70
     0
  9
$DIMTOH
 70
     0
  9
$DIMSE1
 70
     0
  9
$DIMSE2
 70
     0
  9
$DIMTAD
 70
     1
  9
$DIMZIN
 70
     8
  9
$DIMBLK
  1

  9
$DIMASO
 70
     1
  9
$DIMSHO
 70
     1
  9
$DIMPOST
  1

  9
$DIMAPOST
  1

  9
$DIMALT
 70
     0
  9
$DIMALTD
 70
     2
  9
$DIMALTF
 40
0.039
  9
$DIMLFAC
 40
1.0
  9
$DIMTOFL
 70
     1
  9
$DIMTVP
 40
0.0
  9
$DIMTIX
 70
     0
  9
$DIMSOXD
 70
     0
  9
$DIMSAH
 70
     1
  9
$DIMBLK1
  1
OPEN
  9
$DIMBLK2
  1
OPEN
  9
$DIMSTYLE
  2
IGA
  9
$DIMCLRD
 70
     0
  9
$DIMCLRE
 70
     0
  9
$DIMCLRT
 70
     0
  9
$DIMTFAC
 40
10.0
  9
$DIMGAP
 40
1.0
  9
$DIMJUST
 70
     0
  9
$DIMSD1
 70
     0
  9
$DIMSD2
 70
     0
  9
$DIMTOLJ
 70
     1
  9
$DIMTZIN
 70
     0
  9
$DIMALTZ
 70
     0
  9
$DIMALTTZ
 70
     0
  9
$DIMUPT
 70
     0
  9
$DIMDEC
 70
     4
  9
$DIMTDEC
 70
     4
  9
$DIMALTU
 70
     2
  9
$DIMALTTD
 70
     2
  9
$DIMTXSTY
  7
STANDARD
  9
$DIMAUNIT
 70
     0
  9
$DIMADEC
 70
     0
  9
$DIMALTRND
 40
0.0
  9
$DIMAZIN
 70
     0
  9
$DIMDSEP
 70
    46
  9
$DIMATFIT
 70
     3
  9
$DIMFRAC
 70
     0
  9
$DIMLDRBLK
  1
OPEN
  9
$DIMLUNIT
 70
     2
  9
$DIMLWD
 70
    -2
  9
$DIMLWE
 70
    -2
  9
$DIMTMOVE
 70
     0
  9
$LUNITS
 70
     2
  9
$LUPREC
 70
     3
  9
$SKETCHINC
 40
0.1
  9
$FILLETRAD
 40
50.0
  9
$AUNITS
 70
     0
  9
$AUPREC
 70
     0
  9
$MENU
  1
acad
  9
$ELEVATION
 40
0.0
  9
$PELEVATION
 40
0.0
  9
$THICKNESS
 40
0.0
  9
$LIMCHECK
 70
     0
  9
$CHAMFERA
 40
0.5
  9
$CHAMFERB
 40
0.5
  9
$CHAMFERC
 40
0.0
  9
$CHAMFERD
 40
0.0
  9
$SKPOLY
 70
     0
  9
$TDCREATE
 40
2451898.461951968
  9
$TDUCREATE
 40
2451898.086951968
  9
$TDUPDATE
 40
2460280.754184653
  9
$TDUUPDATE
 40
2460280.379184653
  9
$TDINDWG
 40
0.0217278241
  9
$TDUSRTIMER
 40
0.0217272106
  9
$USRTIMER
 70
     1
  9
$ANGBASE
 50
0.0
  9
$ANGDIR
 70
     0
  9
$PDMODE
 70
     0
  9
$PDSIZE
 40
0.0
  9
$PLINEWID
 40
0.0
  9
$SPLFRAME
 70
     0
  9
$SPLINETYPE
 70
     6
  9
$SPLINESEGS
 70
     8
  9
$HANDSEED
  5
877D
  9
$SURFTAB1
 70
     6
  9
$SURFTAB2
 70
     6
  9
$SURFTYPE
 70
     6
  9
$SURFU
 70
     6
  9
$SURFV
 70
     6
  9
$UCSBASE
  2

  9
$UCSNAME
  2

  9
$UCSORG
 10
0.0
 20
0.0
 30
0.0
  9
$UCSXDIR
 10
1.0
 20
0.0
 30
0.0
  9
$UCSYDIR
 10
0.0
 20
1.0
 30
0.0
  9
$UCSORTHOREF
  2

  9
$UCSORTHOVIEW
 70
     0
  9
$UCSORGTOP
 10
0.0
 20
0.0
 30
0.0
  9
$UCSORGBOTTOM
 10
0.0
 20
0.0
 30
0.0
  9
$UCSORGLEFT
 10
0.0
 20
0.0
 30
0.0
  9
$UCSORGRIGHT
 10
0.0
 20
0.0
 30
0.0
  9
$UCSORGFRONT
 10
0.0
 20
0.0
 30
0.0
  9
$UCSORGBACK
 10
0.0
 20
0.0
 30
0.0
  9
$PUCSBASE
  2

  9
$PUCSNAME
  2

  9
$PUCSORG
 10
0.0
 20
0.0
 30
0.0
  9
$PUCSXDIR
 10
1.0
 20
0.0
 30
0.0
  9
$PUCSYDIR
 10
0.0
 20
1.0
 30
0.0
  9
$PUCSORTHOREF
  2

  9
$PUCSORTHOVIEW
 70
     0
  9
$PUCSORGTOP
 10
0.0
 20
0.0
 30
0.0
  9
$PUCSORGBOTTOM
 10
0.0
 20
0.0
 30
0.0
  9
$PUCSORGLEFT
 10
0.0
 20
0.0
 30
0.0
  9
$PUCSORGRIGHT
 10
0.0
 20
0.0
 30
0.0
  9
$PUCSORGFRONT
 10
0.0
 20
0.0
 30
0.0
  9
$PUCSORGBACK
 10
0.0
 20
0.0
 30
0.0
  9
$USERI1
 70
     0
  9
$USERI2
 70
     0
  9
$USERI3
 70
     0
  9
$USERI4
 70
     0
  9
$USERI5
 70
     0
  9
$USERR1
 40
0.0
  9
$USERR2
 40
0.0
  9
$USERR3
 40
0.0
  9
$USERR4
 40
0.0
  9
$USERR5
 40
0.0
  9
$WORLDVIEW
 70
     1
  9
$SHADEDGE
 70
     3
  9
$SHADEDIF
 70
    70
  9
$TILEMODE
 70
     1
  9
$MAXACTVP
 70
    16
  9
$PINSBASE
 10
0.0
 20
0.0
 30
0.0
  9
$PLIMCHECK
 70
     0
  9
$PEXTMIN
 10
1.000000000000000E+20
 20
1.000000000000000E+20
 30
1.000000000000000E+20
  9
$PEXTMAX
 10
-1.000000000000000E+20
 20
-1.000000000000000E+20
 30
-1.000000000000000E+20
  9
$PLIMMIN
 10
0.0
 20
0.0
  9
$PLIMMAX
 10
12.0
 20
9.0
  9
$UNITMODE
 70
     0
  9
$VISRETAIN
 70
     0
  9
$PLINEGEN
 70
     0
  9
$PSLTSCALE
 70
     1
  9
$TREEDEPTH
 70
  3020
  9
$CMLSTYLE
  2
Standard
  9
$CMLJUST
 70
     0
  9
$CMLSCALE
 40
1.0
  9
$PROXYGRAPHICS
 70
     1
  9
$MEASUREMENT
 70
     0
  9
$CELWEIGHT
370
    -1
  9
$ENDCAPS
280
     0
  9
$JOINSTYLE
280
     0
  9
$LWDISPLAY
290
     0
  9
$INSUNITS
 70
     0
  9
$HYPERLINKBASE
  1

  9
$STYLESHEET
  1

  9
$XEDIT
290
     1
  9
$CEPSNTYPE
380
     0
  9
$PSTYLEMODE
290
     1
  9
$FINGERPRINTGUID
  2
{B53A838F-F1A3-4C8B-9350-63BF8DA735BC}
  9
$VERSIONGUID
  2
{F0C74278-AA64-4CEB-82C3-8DD432117CFA}
  9
$EXTNAMES
290
     1
  9
$PSVPSCALE
 40
0.0
  9
$OLESTARTUP
290
     0
  0
ENDSEC
  0
SECTION
  2
CLASSES
  0
CLASS
  1
ACDBDICTIONARYWDFLT
  2
AcDbDictionaryWithDefault
  3
ObjectDBX Classes
 90
        0
280
     0
281
     0
  0
CLASS
  1
MATERIAL
  2
AcDbMaterial
  3
ObjectDBX Classes
 90
     1153
280
     0
281
     0
  0
CLASS
  1
VISUALSTYLE
  2
AcDbVisualStyle
  3
ObjectDBX Classes
 90
     4095
280
     0
281
     0
  0
CLASS
  1
SCALE
  2
AcDbScale
  3
ObjectDBX Classes
 90
     1153
280
     0
281
     0
  0
CLASS
  1
TABLESTYLE
  2
AcDbTableStyle
  3
ObjectDBX Classes
 90
     4095
280
     0
281
     0
  0
CLASS
  1
MLEADERSTYLE
  2
AcDbMLeaderStyle
  3
ACDB_MLEADERSTYLE_CLASS
 90
     4095
280
     0
281
     0
  0
CLASS
  1
ACDBSECTIONVIEWSTYLE
  2
AcDbSectionViewStyle
  3
ObjectDBX Classes
 90
     1025
280
     0
281
     0
  0
CLASS
  1
ACDBDETAILVIEWSTYLE
  2
AcDbDetailViewStyle
  3
ObjectDBX Classes
 90
     1025
280
     0
281
     0
  0
CLASS
  1
DICTIONARYVAR
  2
AcDbDictionaryVar
  3
ObjectDBX Classes
 90
        0
280
     0
281
     0
  0
CLASS
  1
CELLSTYLEMAP
  2
AcDbCellStyleMap
  3
ObjectDBX Classes
 90
     1152
280
     0
281
     0
  0
CLASS
  1
SORTENTSTABLE
  2
AcDbSortentsTable
  3
ObjectDBX Classes
 90
        0
280
     0
281
     0
  0
CLASS
  1
ACDBPLACEHOLDER
  2
AcDbPlaceHolder
  3
ObjectDBX Classes
 90
        0
280
     0
281
     0
  0
CLASS
  1
LAYOUT
  2
AcDbLayout
  3
ObjectDBX Classes
 90
        0
280
     0
281
     0
  0
ENDSEC
  0
SECTION
  2
TABLES
  0
TABLE
  2
VPORT
  5
83AC
330
0
100
AcDbSymbolTable
 70
     1
  0
VPORT
  5
8418
330
83AC
100
AcDbSymbolTableRecord
100
AcDbViewportTableRecord
  2
*ACTIVE
 70
     0
 10
0.0
 20
0.0
 11
1.0
 21
1.0
 12
4200.000019557773
 22
5900.000027474012
 13
0.0
 23
0.0
 14
10.0
 24
10.0
 15
10.0
 25
10.0
 16
0.0
 26
0.0
 36
1.0
 17
0.0
 27
0.0
 37
0.0
 40
11876.28512550527
 41
2.050213675213675
 42
50.0
 43
0.0
 44
0.0
 50
0.0
 51
0.0
 71
     0
 72
   100
 73
     1
 74
     0
 75
     0
 76
     0
 77
     0
 78
     0
281
     0
 65
     1
110
0.0
120
0.0
130
0.0
111
1.0
121
0.0
131
0.0
112
0.0
122
1.0
132
0.0
 79
     0
146
0.0
1001
ACAD_NAV_VCDISPLAY
1070
     3
  0
ENDTAB
  0
TABLE
  2
LTYPE
  5
83A9
330
0
100
AcDbSymbolTable
 70
     3
  0
LTYPE
  5
83FE
330
83A9
100
AcDbSymbolTableRecord
100
AcDbLinetypeTableRecord
  2
ByBlock
 70
     0
  3

 72
    65
 73
     0
 40
0.0
  0
LTYPE
  5
83FF
330
83A9
100
AcDbSymbolTableRecord
100
AcDbLinetypeTableRecord
  2
ByLayer
 70
     0
  3

 72
    65
 73
     0
 40
0.0
  0
LTYPE
  5
8400
330
83A9
100
AcDbSymbolTableRecord
100
AcDbLinetypeTableRecord
  2
CONTINUOUS
 70
     0
  3
Solid line
 72
    65
 73
     0
 40
0.0
  0
LTYPE
  5
8419
330
83A9
100
AcDbSymbolTableRecord
100
AcDbLinetypeTableRecord
  2
CENTER
 70
     0
  3
____ _ ____ _ ____ _ ____ _ ____ _ ____ _ ____ 
 72
    65
 73
     4
 40
2.0
 49
1.25
 74
     0
 49
-0.25
 74
     0
 49
0.25
 74
     0
 49
-0.25
 74
     0
  0
ENDTAB
  0
TABLE
  2
LAYER
  5
83A6
330
0
100
AcDbSymbolTable
 70
     6
  0
LAYER
  5
83F8
102
{ACAD_XDICTIONARY
360
845D
102
}
330
83A6
100
AcDbSymbolTableRecord
100
AcDbLayerTableRecord
  2
0
 70
     0
 62
     7
  6
CONTINUOUS
370
    -3
390
83B3
  0
LAYER
  5
8417
102
{ACAD_XDICTIONARY
360
845F
102
}
330
83A6
100
AcDbSymbolTableRecord
100
AcDbLayerTableRecord
  2
3
 70
     0
 62
     2
  6
CONTINUOUS
370
    -3
390
83B3
  0
LAYER
  5
841A
102
{ACAD_XDICTIONARY
360
8461
102
}
330
83A6
100
AcDbSymbolTableRecord
100
AcDbLayerTableRecord
  2
2
 70
     0
 62
     3
  6
CENTER
370
    -3
390
83B3
  0
LAYER
  5
841B
102
{ACAD_XDICTIONARY
360
8463
102
}
330
83A6
100
AcDbSymbolTableRecord
100
AcDbLayerTableRecord
  2
1
 70
     0
 62
     4
  6
CONTINUOUS
370
    -3
390
83B3
  0
LAYER
  5
841C
102
{ACAD_XDICTIONARY
360
8465
102
}
330
83A6
100
AcDbSymbolTableRecord
100
AcDbLayerTableRecord
  2
4
 70
     0
 62
     7
  6
CONTINUOUS
370
    -3
390
83B3
  0
LAYER
  5
841D
330
83A6
100
AcDbSymbolTableRecord
100
AcDbLayerTableRecord
  2
DEFPOINTS
 70
     0
 62
     7
  6
CONTINUOUS
290
     0
370
    -3
390
83B3
  0
ENDTAB
  0
TABLE
  2
STYLE
  5
83A7
330
0
100
AcDbSymbolTable
 70
     2
  0
STYLE
  5
83F9
330
83A7
100
AcDbSymbolTableRecord
100
AcDbTextStyleTableRecord
  2
STANDARD
 70
     0
 40
0.0
 41
1.0
 50
0.0
 71
     0
 42
180.0
  3
simplex.shx
  4
extfont.shx
  0
STYLE
  5
83FD
330
83A7
100
AcDbSymbolTableRecord
100
AcDbTextStyleTableRecord
  2
Annotative
 70
     0
 40
0.0
 41
1.0
 50
0.0
 71
     0
 42
0.2
  3
txt
  4

1001
AcadAnnotative
1000
AnnotativeData
1002
{
1070
     1
1070
     1
1002
}
  0
ENDTAB
  0
TABLE
  2
VIEW
  5
83AA
330
0
100
AcDbSymbolTable
 70
     0
  0
ENDTAB
  0
TABLE
  2
UCS
  5
83AB
330
0
100
AcDbSymbolTable
 70
     0
  0
ENDTAB
  0
TABLE
  2
APPID
  5
83AD
330
0
100
AcDbSymbolTable
 70
     8
  0
APPID
  5
83FA
330
83AD
100
AcDbSymbolTableRecord
100
AcDbRegAppTableRecord
  2
ACAD
 70
     0
  0
APPID
  5
8401
330
83AD
100
AcDbSymbolTableRecord
100
AcDbRegAppTableRecord
  2
AcadAnnotative
 70
     0
  0
APPID
  5
8471
330
83AD
100
AcDbSymbolTableRecord
100
AcDbRegAppTableRecord
  2
ACAD_NAV_VCDISPLAY
 70
     0
  0
APPID
  5
84B8
330
83AD
100
AcDbSymbolTableRecord
100
AcDbRegAppTableRecord
  2
ACAD_DSTYLE_DIMJAG
 70
     0
  0
APPID
  5
84B9
330
83AD
100
AcDbSymbolTableRecord
100
AcDbRegAppTableRecord
  2
ACAD_DSTYLE_DIMTALN
 70
     0
  0
APPID
  5
84EE
330
83AD
100
AcDbSymbolTableRecord
100
AcDbRegAppTableRecord
  2
AcadAnnoMonitorAlertIconDisabled
 70
     0
  0
APPID
  5
84EF
330
83AD
100
AcDbSymbolTableRecord
100
AcDbRegAppTableRecord
  2
ACAD_EXEMPT_FROM_CAD_STANDARDS
 70
     0
  0
APPID
  5
8774
330
83AD
100
AcDbSymbolTableRecord
100
AcDbRegAppTableRecord
  2
ACAD_MLEADERVER
 70
     0
  0
ENDTAB
  0
TABLE
  2
DIMSTYLE
  5
83AE
330
0
100
AcDbSymbolTable
 70
     3
100
AcDbDimStyleTable
 71
     1
340
841E
  0
DIMSTYLE
105
83FB
102
{ACAD_REACTORS
330
81A8
330
81B5
330
81C2
330
81CF
330
8214
102
}
330
83AE
100
AcDbSymbolTableRecord
100
AcDbDimStyleTableRecord
  2
Standard
 70
     0
340
83F9
  0
DIMSTYLE
105
83FC
330
83AE
100
AcDbSymbolTableRecord
100
AcDbDimStyleTableRecord
  2
Annotative
 70
     0
340
83F9
1001
AcadAnnotative
1000
AnnotativeData
1002
{
1070
     1
1070
     1
1002
}
  0
DIMSTYLE
105
841E
102
{ACAD_REACTORS
330
84BA
330
84C7
330
84D4
330
84E1
330
854B
330
8558
330
8565
330
8572
330
857F
330
85A2
330
85AF
330
85BC
330
85C9
330
85D6
330
85F0
330
85FD
330
860F
330
8621
102
}
330
83AE
100
AcDbSymbolTableRecord
100
AcDbDimStyleTableRecord
  2
IGA
 70
     0
 40
2.0
 41
2.0
 42
0.5
 43
10.0
 44
1.0
 47
1.0
 48
1.0
 73
     0
 74
     0
 77
     1
 78
     8
140
3.0
141
0.0
143
0.03937
146
10.0
147
1.0
173
     1
271
     3
272
     3
279
     2
284
     8
285
     8
286
     8
340
83F9
  0
ENDTAB
  0
TABLE
  2
BLOCK_RECORD
  5
83A5
330
0
100
AcDbSymbolTable
 70
    50
  0
BLOCK_RECORD
  5
8413
102
{ACAD_XDICTIONARY
360
84B4
102
}
330
83A5
100
AcDbSymbolTableRecord
100
AcDbBlockTableRecord
  2
*Model_Space
340
8416
  0
BLOCK_RECORD
  5
840F
330
83A5
100
AcDbSymbolTableRecord
100
AcDbBlockTableRecord
  2
*Paper_Space
340
8412
  0
BLOCK_RECORD
  5
8422
330
83A5
100
AcDbSymbolTableRecord
100
AcDbBlockTableRecord
  2
$MODEL_SPACE
340
0
  0
BLOCK_RECORD
  5
8424
330
83A5
100
AcDbSymbolTableRecord
100
AcDbBlockTableRecord
  2
$PAPER_SPACE
340
0
  0
BLOCK_RECORD
  5
8426
330
83A5
100
AcDbSymbolTableRecord
100
AcDbBlockTableRecord
  2
YA_N
340
0
102
{BLKREFS
331
7C0C
331
7C28
331
7C29
331
7C4E
331
7C8E
331
7CA1
331
7CC7
331
7CDE
102
}
  0
BLOCK_RECORD
  5
8428
330
83A5
100
AcDbSymbolTableRecord
100
AcDbBlockTableRecord
  2
*D3
340
0
  0
BLOCK_RECORD
  5
842A
330
83A5
100
AcDbSymbolTableRecord
100
AcDbBlockTableRecord
  2
_OPEN
340
0
102
{BLKREFS
331
8377
331
853C
331
853D
331
8545
331
8546
331
8552
331
8553
331
855F
331
8560
331
856C
331
856D
331
8579
331
857A
331
8378
331
84CE
331
84CF
331
84FD
331
84FE
331
8365
331
8366
331
85EA
331
85EB
331
85F7
331
85F8
331
836E
331
836F
331
8586
331
8587
331
859C
331
859D
331
85A9
331
85AA
331
85B6
331
85B7
331
85C3
331
85C4
331
85D0
331
85D1
331
85DD
331
85DE
331
8302
331
8303
331
830B
331
830C
331
8314
331
8315
331
831D
331
831E
331
8326
331
8327
331
832F
331
8330
331
8338
331
8339
331
8341
331
8342
331
8726
331
8736
331
8737
331
834A
331
834B
331
86CC
331
8353
331
8354
331
835C
331
835D
331
81C8
331
81C9
331
820D
331
820E
331
821A
331
821B
331
8383
331
838B
331
838C
331
81A1
331
81A2
331
81AE
331
81AF
331
81BB
331
81BC
102
}
  0
BLOCK_RECORD
  5
842B
330
83A5
100
AcDbSymbolTableRecord
100
AcDbBlockTableRecord
  2
*D5
340
0
  0
BLOCK_RECORD
  5
842D
330
83A5
100
AcDbSymbolTableRecord
100
AcDbBlockTableRecord
  2
*D6
340
0
  0
BLOCK_RECORD
  5
842F
330
83A5
100
AcDbSymbolTableRecord
100
AcDbBlockTableRecord
  2
*D7
340
0
  0
BLOCK_RECORD
  5
8431
330
83A5
100
AcDbSymbolTableRecord
100
AcDbBlockTableRecord
  2
*D8
340
0
  0
BLOCK_RECORD
  5
8433
330
83A5
100
AcDbSymbolTableRecord
100
AcDbBlockTableRecord
  2
*D9
340
0
  0
BLOCK_RECORD
  5
8435
330
83A5
100
AcDbSymbolTableRecord
100
AcDbBlockTableRecord
  2
*D10
340
0
  0
BLOCK_RECORD
  5
8437
330
83A5
100
AcDbSymbolTableRecord
100
AcDbBlockTableRecord
  2
*D11
340
0
  0
BLOCK_RECORD
  5
8439
330
83A5
100
AcDbSymbolTableRecord
100
AcDbBlockTableRecord
  2
*D12
340
0
  0
BLOCK_RECORD
  5
843B
330
83A5
100
AcDbSymbolTableRecord
100
AcDbBlockTableRecord
  2
*D13
340
0
  0
BLOCK_RECORD
  5
843D
330
83A5
100
AcDbSymbolTableRecord
100
AcDbBlockTableRecord
  2
*D14
340
0
  0
BLOCK_RECORD
  5
843F
330
83A5
100
AcDbSymbolTableRecord
100
AcDbBlockTableRecord
  2
*D15
340
0
  0
BLOCK_RECORD
  5
8441
330
83A5
100
AcDbSymbolTableRecord
100
AcDbBlockTableRecord
  2
*D16
340
0
  0
BLOCK_RECORD
  5
8443
330
83A5
100
AcDbSymbolTableRecord
100
AcDbBlockTableRecord
  2
*D17
340
0
  0
BLOCK_RECORD
  5
8446
330
83A5
100
AcDbSymbolTableRecord
100
AcDbBlockTableRecord
  2
*D18
340
0
  0
BLOCK_RECORD
  5
8448
330
83A5
100
AcDbSymbolTableRecord
100
AcDbBlockTableRecord
  2
_DOT
340
0
102
{BLKREFS
331
8382
102
}
  0
BLOCK_RECORD
  5
8449
330
83A5
100
AcDbSymbolTableRecord
100
AcDbBlockTableRecord
  2
*D20
340
0
  0
BLOCK_RECORD
  5
844C
330
83A5
100
AcDbSymbolTableRecord
100
AcDbBlockTableRecord
  2
*D21
340
0
  0
BLOCK_RECORD
  5
844E
330
83A5
100
AcDbSymbolTableRecord
100
AcDbBlockTableRecord
  2
*D22
340
0
  0
BLOCK_RECORD
  5
8450
330
83A5
100
AcDbSymbolTableRecord
100
AcDbBlockTableRecord
  2
*D23
340
0
  0
BLOCK_RECORD
  5
8452
330
83A5
100
AcDbSymbolTableRecord
100
AcDbBlockTableRecord
  2
*D24
340
0
  0
BLOCK_RECORD
  5
8454
330
83A5
100
AcDbSymbolTableRecord
100
AcDbBlockTableRecord
  2
_NONE
340
0
  0
BLOCK_RECORD
  5
8456
330
83A5
100
AcDbSymbolTableRecord
100
AcDbBlockTableRecord
  2
*D26
340
0
  0
BLOCK_RECORD
  5
8458
330
83A5
100
AcDbSymbolTableRecord
100
AcDbBlockTableRecord
  2
*D27
340
0
  0
BLOCK_RECORD
  5
845A
330
83A5
100
AcDbSymbolTableRecord
100
AcDbBlockTableRecord
  2
*D28
340
0
  0
BLOCK_RECORD
  5
84BB
330
83A5
100
AcDbSymbolTableRecord
100
AcDbBlockTableRecord
  2
*D29
340
0
  0
BLOCK_RECORD
  5
84C8
330
83A5
100
AcDbSymbolTableRecord
100
AcDbBlockTableRecord
  2
*D30
340
0
  0
BLOCK_RECORD
  5
84D5
330
83A5
100
AcDbSymbolTableRecord
100
AcDbBlockTableRecord
  2
*D31
340
0
  0
BLOCK_RECORD
  5
84E2
330
83A5
100
AcDbSymbolTableRecord
100
AcDbBlockTableRecord
  2
*D32
340
0
  0
BLOCK_RECORD
  5
854C
330
83A5
100
AcDbSymbolTableRecord
100
AcDbBlockTableRecord
  2
*D33
340
0
  0
BLOCK_RECORD
  5
8559
330
83A5
100
AcDbSymbolTableRecord
100
AcDbBlockTableRecord
  2
*D34
340
0
  0
BLOCK_RECORD
  5
8566
330
83A5
100
AcDbSymbolTableRecord
100
AcDbBlockTableRecord
  2
*D35
340
0
  0
BLOCK_RECORD
  5
8573
330
83A5
100
AcDbSymbolTableRecord
100
AcDbBlockTableRecord
  2
*D36
340
0
  0
BLOCK_RECORD
  5
8580
330
83A5
100
AcDbSymbolTableRecord
100
AcDbBlockTableRecord
  2
*D37
340
0
  0
BLOCK_RECORD
  5
858D
330
83A5
100
AcDbSymbolTableRecord
100
AcDbBlockTableRecord
  2
*D38
340
0
  0
BLOCK_RECORD
  5
85A3
330
83A5
100
AcDbSymbolTableRecord
100
AcDbBlockTableRecord
  2
*D39
340
0
  0
BLOCK_RECORD
  5
85B0
330
83A5
100
AcDbSymbolTableRecord
100
AcDbBlockTableRecord
  2
*D40
340
0
  0
BLOCK_RECORD
  5
85BD
330
83A5
100
AcDbSymbolTableRecord
100
AcDbBlockTableRecord
  2
*D41
340
0
  0
BLOCK_RECORD
  5
85CA
330
83A5
100
AcDbSymbolTableRecord
100
AcDbBlockTableRecord
  2
*D42
340
0
  0
BLOCK_RECORD
  5
85D7
330
83A5
100
AcDbSymbolTableRecord
100
AcDbBlockTableRecord
  2
*D43
340
0
  0
BLOCK_RECORD
  5
85E4
330
83A5
100
AcDbSymbolTableRecord
100
AcDbBlockTableRecord
  2
*D44
340
0
  0
BLOCK_RECORD
  5
85F1
330
83A5
100
AcDbSymbolTableRecord
100
AcDbBlockTableRecord
  2
*D45
340
0
  0
BLOCK_RECORD
  5
85FE
330
83A5
100
AcDbSymbolTableRecord
100
AcDbBlockTableRecord
  2
*D46
340
0
  0
BLOCK_RECORD
  5
8610
330
83A5
100
AcDbSymbolTableRecord
100
AcDbBlockTableRecord
  2
*D47
340
0
  0
BLOCK_RECORD
  5
8622
330
83A5
100
AcDbSymbolTableRecord
100
AcDbBlockTableRecord
  2
*D48
340
0
  0
BLOCK_RECORD
  5
86BF
330
83A5
100
AcDbSymbolTableRecord
100
AcDbBlockTableRecord
  2
_DotSmall
340
0
102
{BLKREFS
331
8725
331
86CD
102
}
  0
ENDTAB
  0
ENDSEC
  0
SECTION
  2
BLOCKS
  0
BLOCK
  5
8414
330
8413
100
AcDbEntity
  8
0
100
AcDbBlockBegin
  2
*Model_Space
 70
     0
 10
0.0
 20
0.0
 30
0.0
  3
*Model_Space
  1

  0
ENDBLK
  5
8415
330
8413
100
AcDbEntity
  8
0
100
AcDbBlockEnd
  0
BLOCK
  5
8410
330
840F
100
AcDbEntity
 67
     1
  8
0
100
AcDbBlockBegin
  2
*Paper_Space
 70
     0
 10
0.0
 20
0.0
 30
0.0
  3
*Paper_Space
  1

  0
ENDBLK
  5
8411
330
840F
100
AcDbEntity
 67
     1
  8
0
100
AcDbBlockEnd
  0
BLOCK
  5
8423
330
8422
100
AcDbEntity
  8
0
100
AcDbBlockBegin
  2
$MODEL_SPACE
 70
     0
 10
0.0
 20
0.0
 30
0.0
  3
$MODEL_SPACE
  1

  0
ENDBLK
  5
1B
330
8422
100
AcDbEntity
  8
0
100
AcDbBlockEnd
  0
BLOCK
  5
8425
330
8424
100
AcDbEntity
  8
0
100
AcDbBlockBegin
  2
$PAPER_SPACE
 70
     0
 10
0.0
 20
0.0
 30
0.0
  3
$PAPER_SPACE
  1

  0
ENDBLK
  5
18
330
8424
100
AcDbEntity
  8
0
100
AcDbBlockEnd
  0
BLOCK
  5
8427
330
8426
100
AcDbEntity
  8
0
100
AcDbBlockBegin
  2
YA_N
 70
     0
 10
0.0
 20
0.0
 30
0.0
  3
YA_N
  1

  0
ENDBLK
  5
79FE
330
8426
100
AcDbEntity
  8
0
100
AcDbBlockEnd
  0
BLOCK
  5
8429
330
8428
100
AcDbEntity
  8
0
100
AcDbBlockBegin
  2
*D3
 70
     1
 10
0.0
 20
0.0
 30
0.0
  3
*D3
  1

  0
LINE
  5
82FF
330
8428
100
AcDbEntity
  8
3
 62
     0
100
AcDbLine
 10
5531.407928765325
 20
5310.856382047695
 30
0.0
 11
5531.407928765325
 21
5579.256168514262
 31
0.0
  0
LINE
  5
8300
330
8428
100
AcDbEntity
  8
3
 62
     0
100
AcDbLine
 10
7231.407928765325
 20
5310.856382047695
 30
0.0
 11
7231.407928765325
 21
5579.256168514262
 31
0.0
  0
LINE
  5
8301
330
8428
100
AcDbEntity
  8
3
 62
     0
100
AcDbLine
 10
5611.407928765326
 20
5539.256168514262
 30
0.0
 11
7151.407928765326
 21
5539.256168514262
 31
0.0
  0
INSERT
  5
8302
330
8428
100
AcDbEntity
  8
3
 62
     0
100
AcDbBlockReference
  2
_OPEN
 10
5531.407928765325
 20
5539.256168514262
 30
0.0
 41
80.0
 42
80.0
 43
80.0
 50
180.0
  0
INSERT
  5
8303
330
8428
100
AcDbEntity
  8
3
 62
     0
100
AcDbBlockReference
  2
_OPEN
 10
7231.407928765325
 20
5539.256168514262
 30
0.0
 41
80.0
 42
80.0
 43
80.0
  0
TEXT
  5
8394
330
8428
100
AcDbEntity
  8
3
 62
     0
100
AcDbText
 10
6141.41
 20
5426.86
 30
0.0
 40
120.0
  1
1700
100
AcDbText
  0
POINT
  5
8305
330
8428
100
AcDbEntity
  8
DEFPOINTS
 62
     0
100
AcDbPoint
 10
5531.407928765325
 20
5290.856382047696
 30
0.0
  0
POINT
  5
8306
330
8428
100
AcDbEntity
  8
DEFPOINTS
 62
     0
100
AcDbPoint
 10
7231.407928765325
 20
5290.856382047696
 30
0.0
  0
POINT
  5
8307
330
8428
100
AcDbEntity
  8
DEFPOINTS
 62
     0
100
AcDbPoint
 10
7231.407928765325
 20
5539.256168514262
 30
0.0
  0
ENDBLK
  5
8046
330
8428
100
AcDbEntity
  8
0
100
AcDbBlockEnd
  0
BLOCK
  5
8445
330
842A
100
AcDbEntity
  8
0
100
AcDbBlockBegin
  2
_OPEN
 70
     0
 10
0.0
 20
0.0
 30
0.0
  3
_OPEN
  1

  0
LINE
  5
7EFD
330
842A
100
AcDbEntity
  8
0
  6
ByBlock
 62
     0
100
AcDbLine
 10
-1.0
 20
0.1666666666666666
 30
0.0
 11
0.0
 21
0.0
 31
0.0
  0
LINE
  5
7EFE
330
842A
100
AcDbEntity
  8
0
  6
ByBlock
 62
     0
100
AcDbLine
 10
0.0
 20
0.0
 30
0.0
 11
-1.0
 21
-0.1666666666666666
 31
0.0
  0
LINE
  5
7EFF
330
842A
100
AcDbEntity
  8
0
  6
ByBlock
 62
     0
100
AcDbLine
 10
0.0
 20
0.0
 30
0.0
 11
-1.0
 21
0.0
 31
0.0
  0
ENDBLK
  5
7F00
330
842A
100
AcDbEntity
  8
0
100
AcDbBlockEnd
  0
BLOCK
  5
842C
330
842B
100
AcDbEntity
  8
0
100
AcDbBlockBegin
  2
*D5
 70
     1
 10
0.0
 20
0.0
 30
0.0
  3
*D5
  1

  0
LINE
  5
8308
330
842B
100
AcDbEntity
  8
3
 62
     0
100
AcDbLine
 10
5146.407928765327
 20
4669.935954207627
 30
0.0
 11
5146.407928765327
 21
5861.298092940816
 31
0.0
  0
LINE
  5
8309
330
842B
100
AcDbEntity
  8
3
 62
     0
100
AcDbLine
 10
6381.407928765326
 20
5742.787629067658
 30
0.0
 11
6381.407928765326
 21
5861.298092940816
 31
0.0
  0
LINE
  5
830A
330
842B
100
AcDbEntity
  8
3
 62
     0
100
AcDbLine
 10
5226.407928765326
 20
5821.298092940816
 30
0.0
 11
6301.407928765326
 21
5821.298092940816
 31
0.0
  0
INSERT
  5
830B
330
842B
100
AcDbEntity
  8
3
 62
     0
100
AcDbBlockReference
  2
_OPEN
 10
5146.407928765327
 20
5821.298092940816
 30
0.0
 41
80.0
 42
80.0
 43
80.0
 50
180.0
  0
INSERT
  5
830C
330
842B
100
AcDbEntity
  8
3
 62
     0
100
AcDbBlockReference
  2
_OPEN
 10
6381.407928765326
 20
5821.298092940816
 30
0.0
 41
80.0
 42
80.0
 43
80.0
  0
TEXT
  5
8395
330
842B
100
AcDbEntity
  8
3
 62
     0
100
AcDbText
 10
5523.91
 20
5808.9
 30
0.0
 40
120.0
  1
MAX
100
AcDbText
  0
TEXT
  5
8396
330
842B
100
AcDbEntity
  8
3
 62
     0
100
AcDbText
 10
5523.91
 20
5652.899999999999
 30
0.0
 40
120.0
  1
1280
100
AcDbText
  0
POINT
  5
830E
330
842B
100
AcDbEntity
  8
DEFPOINTS
 62
     0
100
AcDbPoint
 10
5146.407928765327
 20
4649.935954207625
 30
0.0
  0
POINT
  5
830F
330
842B
100
AcDbEntity
  8
DEFPOINTS
 62
     0
100
AcDbPoint
 10
6381.407928765326
 20
5722.787629067657
 30
0.0
  0
POINT
  5
8310
330
842B
100
AcDbEntity
  8
DEFPOINTS
 62
     0
100
AcDbPoint
 10
6381.407928765326
 20
5821.298092940816
 30
0.0
  0
ENDBLK
  5
8174
330
842B
100
AcDbEntity
  8
0
100
AcDbBlockEnd
  0
BLOCK
  5
842E
330
842D
100
AcDbEntity
  8
0
100
AcDbBlockBegin
  2
*D6
 70
     1
 10
0.0
 20
0.0
 30
0.0
  3
*D6
  1

  0
LINE
  5
8311
330
842D
100
AcDbEntity
  8
3
 62
     0
100
AcDbLine
 10
6381.407928765326
 20
5742.787629067658
 30
0.0
 11
6381.407928765326
 21
5860.910505835629
 31
0.0
  0
LINE
  5
8312
330
842D
100
AcDbEntity
  8
3
 62
     0
100
AcDbLine
 10
7391.407928765325
 20
4285.273885309893
 30
0.0
 11
7391.407928765325
 21
5860.910505835629
 31
0.0
  0
LINE
  5
8313
330
842D
100
AcDbEntity
  8
3
 62
     0
100
AcDbLine
 10
6461.407928765325
 20
5820.910505835629
 30
0.0
 11
7311.407928765325
 21
5820.910505835629
 31
0.0
  0
INSERT
  5
8314
330
842D
100
AcDbEntity
  8
3
 62
     0
100
AcDbBlockReference
  2
_OPEN
 10
6381.407928765326
 20
5820.910505835629
 30
0.0
 41
80.0
 42
80.0
 43
80.0
 50
180.0
  0
INSERT
  5
8315
330
842D
100
AcDbEntity
  8
3
 62
     0
100
AcDbBlockReference
  2
_OPEN
 10
7391.407928765325
 20
5820.910505835629
 30
0.0
 41
80.0
 42
80.0
 43
80.0
  0
TEXT
  5
8397
330
842D
100
AcDbEntity
  8
3
 62
     0
100
AcDbText
 10
6646.41
 20
5739.94
 30
0.0
 40
120.0
  1
(1020)
100
AcDbText
  0
POINT
  5
8317
330
842D
100
AcDbEntity
  8
DEFPOINTS
 62
     0
100
AcDbPoint
 10
6381.407928765326
 20
5722.787629067657
 30
0.0
  0
POINT
  5
8318
330
842D
100
AcDbEntity
  8
DEFPOINTS
 62
     0
100
AcDbPoint
 10
7391.407928765325
 20
4265.273885309894
 30
0.0
  0
POINT
  5
8319
330
842D
100
AcDbEntity
  8
DEFPOINTS
 62
     0
100
AcDbPoint
 10
7391.407928765325
 20
5820.910505835629
 30
0.0
  0
ENDBLK
  5
817F
330
842D
100
AcDbEntity
  8
0
100
AcDbBlockEnd
  0
BLOCK
  5
8430
330
842F
100
AcDbEntity
  8
0
100
AcDbBlockBegin
  2
*D7
 70
     1
 10
0.0
 20
0.0
 30
0.0
  3
*D7
  1

  0
LINE
  5
831A
330
842F
100
AcDbEntity
  8
3
 62
     0
100
AcDbLine
 10
7253.707928765328
 20
4994.935954207627
 30
0.0
 11
7682.67755367783
 21
4994.935954207627
 31
0.0
  0
LINE
  5
831B
330
842F
100
AcDbEntity
  8
3
 62
     0
100
AcDbLine
 10
7253.707928765328
 20
3744.935954207626
 30
0.0
 11
7682.67755367783
 21
3744.935954207626
 31
0.0
  0
LINE
  5
831C
330
842F
100
AcDbEntity
  8
3
 62
     0
100
AcDbLine
 10
7642.677553677827
 20
4914.935954207628
 30
0.0
 11
7642.677553677827
 21
3824.935954207626
 31
0.0
  0
INSERT
  5
831D
330
842F
100
AcDbEntity
  8
3
 62
     0
100
AcDbBlockReference
  2
_OPEN
 10
7642.677553677827
 20
4994.935954207627
 30
0.0
 41
80.0
 42
80.0
 43
80.0
 50
90.0
  0
INSERT
  5
831E
330
842F
100
AcDbEntity
  8
3
 62
     0
100
AcDbBlockReference
  2
_OPEN
 10
7642.677553677827
 20
3744.935954207626
 30
0.0
 41
80.0
 42
80.0
 43
80.0
 50
270.0
  0
TEXT
  5
8398
330
842F
100
AcDbEntity
  8
3
 62
     0
100
AcDbText
 10
7302.680000000001
 20
4157.54
 30
0.0
 40
120.0
  1
\U+03C61250
100
AcDbText
  0
POINT
  5
8320
330
842F
100
AcDbEntity
  8
DEFPOINTS
 62
     0
100
AcDbPoint
 10
7233.707928765326
 20
4994.935954207627
 30
0.0
  0
POINT
  5
8321
330
842F
100
AcDbEntity
  8
DEFPOINTS
 62
     0
100
AcDbPoint
 10
7233.707928765326
 20
3744.935954207626
 30
0.0
  0
POINT
  5
8322
330
842F
100
AcDbEntity
  8
DEFPOINTS
 62
     0
100
AcDbPoint
 10
7642.677553677827
 20
3744.935954207626
 30
0.0
  0
ENDBLK
  5
8025
330
842F
100
AcDbEntity
  8
0
100
AcDbBlockEnd
  0
BLOCK
  5
8432
330
8431
100
AcDbEntity
  8
0
100
AcDbBlockBegin
  2
*D8
 70
     1
 10
0.0
 20
0.0
 30
0.0
  3
*D8
  1

  0
LINE
  5
8323
330
8431
100
AcDbEntity
  8
3
 62
     0
100
AcDbLine
 10
2006.831659683934
 20
8875.623467839007
 30
0.0
 11
1537.8155184481
 21
8875.623467839007
 31
0.0
  0
LINE
  5
8324
330
8431
100
AcDbEntity
  8
3
 62
     0
100
AcDbLine
 10
2006.831659683934
 20
6755.623467839007
 30
0.0
 11
1537.8155184481
 21
6755.623467839007
 31
0.0
  0
LINE
  5
8325
330
8431
100
AcDbEntity
  8
3
 62
     0
100
AcDbLine
 10
1577.8155184481
 20
8795.623467839005
 30
0.0
 11
1577.8155184481
 21
6835.623467839008
 31
0.0
  0
INSERT
  5
8326
330
8431
100
AcDbEntity
  8
3
 62
     0
100
AcDbBlockReference
  2
_OPEN
 10
1577.8155184481
 20
8875.623467839007
 30
0.0
 41
80.0
 42
80.0
 43
80.0
 50
90.0
  0
INSERT
  5
8327
330
8431
100
AcDbEntity
  8
3
 62
     0
100
AcDbBlockReference
  2
_OPEN
 10
1577.8155184481
 20
6755.623467839007
 30
0.0
 41
80.0
 42
80.0
 43
80.0
 50
270.0
  0
TEXT
  5
8399
330
8431
100
AcDbEntity
  8
3
 62
     0
100
AcDbText
 10
1237.82
 20
7603.22
 30
0.0
 40
120.0
  1
2120
100
AcDbText
  0
POINT
  5
8329
330
8431
100
AcDbEntity
  8
DEFPOINTS
 62
     0
100
AcDbPoint
 10
2026.831659683934
 20
8875.623467839007
 30
0.0
  0
POINT
  5
832A
330
8431
100
AcDbEntity
  8
DEFPOINTS
 62
     0
100
AcDbPoint
 10
2026.831659683934
 20
6755.623467839007
 30
0.0
  0
POINT
  5
832B
330
8431
100
AcDbEntity
  8
DEFPOINTS
 62
     0
100
AcDbPoint
 10
1577.8155184481
 20
6755.623467839007
 30
0.0
  0
ENDBLK
  5
7FF9
330
8431
100
AcDbEntity
  8
0
100
AcDbBlockEnd
  0
BLOCK
  5
8434
330
8433
100
AcDbEntity
  8
0
100
AcDbBlockBegin
  2
*D9
 70
     1
 10
0.0
 20
0.0
 30
0.0
  3
*D9
  1

  0
LINE
  5
832C
330
8433
100
AcDbEntity
  8
3
 62
     0
100
AcDbLine
 10
2026.831659683934
 20
8895.623467839007
 30
0.0
 11
2026.831659683934
 21
9120.259606344193
 31
0.0
  0
LINE
  5
832D
330
8433
100
AcDbEntity
  8
3
 62
     0
100
AcDbLine
 10
3526.831659683934
 20
8895.623467839008
 30
0.0
 11
3526.831659683934
 21
9120.259606344193
 31
0.0
  0
LINE
  5
832E
330
8433
100
AcDbEntity
  8
3
 62
     0
100
AcDbLine
 10
2106.831659683934
 20
9080.259606344192
 30
0.0
 11
3446.831659683934
 21
9080.259606344192
 31
0.0
  0
INSERT
  5
832F
330
8433
100
AcDbEntity
  8
3
 62
     0
100
AcDbBlockReference
  2
_OPEN
 10
2026.831659683934
 20
9080.259606344192
 30
0.0
 41
80.0
 42
80.0
 43
80.0
 50
180.0
  0
INSERT
  5
8330
330
8433
100
AcDbEntity
  8
3
 62
     0
100
AcDbBlockReference
  2
_OPEN
 10
3526.831659683934
 20
9080.259606344192
 30
0.0
 41
80.0
 42
80.0
 43
80.0
  0
TEXT
  5
839A
330
8433
100
AcDbEntity
  8
3
 62
     0
100
AcDbText
 10
2536.83
 20
8967.859999999999
 30
0.0
 40
120.0
  1
1500
100
AcDbText
  0
POINT
  5
8332
330
8433
100
AcDbEntity
  8
DEFPOINTS
 62
     0
100
AcDbPoint
 10
2026.831659683934
 20
8875.623467839007
 30
0.0
  0
POINT
  5
8333
330
8433
100
AcDbEntity
  8
DEFPOINTS
 62
     0
100
AcDbPoint
 10
3526.831659683934
 20
8875.623467839009
 30
0.0
  0
POINT
  5
8334
330
8433
100
AcDbEntity
  8
DEFPOINTS
 62
     0
100
AcDbPoint
 10
3526.831659683934
 20
9080.259606344192
 30
0.0
  0
ENDBLK
  5
7FEE
330
8433
100
AcDbEntity
  8
0
100
AcDbBlockEnd
  0
BLOCK
  5
8436
330
8435
100
AcDbEntity
  8
0
100
AcDbBlockBegin
  2
*D10
 70
     1
 10
0.0
 20
0.0
 30
0.0
  3
*D10
  1

  0
LINE
  5
8335
330
8435
100
AcDbEntity
  8
3
 62
     0
100
AcDbLine
 10
3526.831659683934
 20
8895.623467839008
 30
0.0
 11
3526.831659683934
 21
9120.259606344193
 31
0.0
  0
LINE
  5
8336
330
8435
100
AcDbEntity
  8
3
 62
     0
100
AcDbLine
 10
4476.831659683933
 20
7775.623467839007
 30
0.0
 11
4476.831659683933
 21
9120.259606344193
 31
0.0
  0
LINE
  5
8337
330
8435
100
AcDbEntity
  8
3
 62
     0
100
AcDbLine
 10
3606.831659683933
 20
9080.259606344192
 30
0.0
 11
4396.831659683934
 21
9080.259606344192
 31
0.0
  0
INSERT
  5
8338
330
8435
100
AcDbEntity
  8
3
 62
     0
100
AcDbBlockReference
  2
_OPEN
 10
3526.831659683934
 20
9080.259606344192
 30
0.0
 41
80.0
 42
80.0
 43
80.0
 50
180.0
  0
INSERT
  5
8339
330
8435
100
AcDbEntity
  8
3
 62
     0
100
AcDbBlockReference
  2
_OPEN
 10
4476.831659683933
 20
9080.259606344192
 30
0.0
 41
80.0
 42
80.0
 43
80.0
  0
TEXT
  5
839B
330
8435
100
AcDbEntity
  8
3
 62
     0
100
AcDbText
 10
3761.83
 20
8967.859999999999
 30
0.0
 40
120.0
  1
950
100
AcDbText
  0
POINT
  5
833B
330
8435
100
AcDbEntity
  8
DEFPOINTS
 62
     0
100
AcDbPoint
 10
3526.831659683934
 20
8875.623467839009
 30
0.0
  0
POINT
  5
833C
330
8435
100
AcDbEntity
  8
DEFPOINTS
 62
     0
100
AcDbPoint
 10
4476.831659683933
 20
7755.623467839007
 30
0.0
  0
POINT
  5
833D
330
8435
100
AcDbEntity
  8
DEFPOINTS
 62
     0
100
AcDbPoint
 10
4476.831659683933
 20
9080.259606344192
 30
0.0
  0
ENDBLK
  5
7FE3
330
8435
100
AcDbEntity
  8
0
100
AcDbBlockEnd
  0
BLOCK
  5
8438
330
8437
100
AcDbEntity
  8
0
100
AcDbBlockBegin
  2
*D11
 70
     1
 10
0.0
 20
0.0
 30
0.0
  3
*D11
  1

  0
LINE
  5
833E
330
8437
100
AcDbEntity
  8
3
 62
     0
100
AcDbLine
 10
4496.831659683934
 20
7755.623467839007
 30
0.0
 11
4783.158060791513
 21
7755.623467839007
 31
0.0
  0
LINE
  5
833F
330
8437
100
AcDbEntity
  8
3
 62
     0
100
AcDbLine
 10
4496.831659683934
 20
6755.623467839007
 30
0.0
 11
4783.158060791513
 21
6755.623467839007
 31
0.0
  0
LINE
  5
8340
330
8437
100
AcDbEntity
  8
3
 62
     0
100
AcDbLine
 10
4743.158060791513
 20
7675.62346783901
 30
0.0
 11
4743.158060791513
 21
6835.623467839008
 31
0.0
  0
INSERT
  5
8341
330
8437
100
AcDbEntity
  8
3
 62
     0
100
AcDbBlockReference
  2
_OPEN
 10
4743.158060791513
 20
7755.623467839007
 30
0.0
 41
80.0
 42
80.0
 43
80.0
 50
90.0
  0
INSERT
  5
8342
330
8437
100
AcDbEntity
  8
3
 62
     0
100
AcDbBlockReference
  2
_OPEN
 10
4743.158060791513
 20
6755.623467839007
 30
0.0
 41
80.0
 42
80.0
 43
80.0
 50
270.0
  0
TEXT
  5
839C
330
8437
100
AcDbEntity
  8
3
 62
     0
100
AcDbText
 10
4403.159999999999
 20
7043.220000000001
 30
0.0
 40
120.0
  1
1000
100
AcDbText
  0
POINT
  5
8344
330
8437
100
AcDbEntity
  8
DEFPOINTS
 62
     0
100
AcDbPoint
 10
4476.831659683933
 20
7755.623467839007
 30
0.0
  0
POINT
  5
8345
330
8437
100
AcDbEntity
  8
DEFPOINTS
 62
     0
100
AcDbPoint
 10
4476.831659683933
 20
6755.623467839007
 30
0.0
  0
POINT
  5
8346
330
8437
100
AcDbEntity
  8
DEFPOINTS
 62
     0
100
AcDbPoint
 10
4743.158060791513
 20
6755.623467839007
 30
0.0
  0
ENDBLK
  5
7FD8
330
8437
100
AcDbEntity
  8
0
100
AcDbBlockEnd
  0
BLOCK
  5
843A
330
8439
100
AcDbEntity
  8
0
100
AcDbBlockBegin
  2
*D12
 70
     1
 10
0.0
 20
0.0
 30
0.0
  3
*D12
  1

  0
LINE
  5
8347
330
8439
100
AcDbEntity
  8
3
 62
     0
100
AcDbLine
 10
4476.831659683933
 20
6735.623467839008
 30
0.0
 11
4476.831659683933
 21
6350.869589649356
 31
0.0
  0
LINE
  5
8348
330
8439
100
AcDbEntity
  8
3
 62
     0
100
AcDbLine
 10
2026.831659683934
 20
6735.623467839008
 30
0.0
 11
2026.831659683934
 21
6350.869589649356
 31
0.0
  0
LINE
  5
8349
330
8439
100
AcDbEntity
  8
3
 62
     0
100
AcDbLine
 10
4396.831659683934
 20
6390.869589649355
 30
0.0
 11
2106.831659683934
 21
6390.869589649355
 31
0.0
  0
INSERT
  5
834A
330
8439
100
AcDbEntity
  8
3
 62
     0
100
AcDbBlockReference
  2
_OPEN
 10
4476.831659683933
 20
6390.869589649355
 30
0.0
 41
80.0
 42
80.0
 43
80.0
  0
INSERT
  5
834B
330
8439
100
AcDbEntity
  8
3
 62
     0
100
AcDbBlockReference
  2
_OPEN
 10
2026.831659683934
 20
6390.869589649355
 30
0.0
 41
80.0
 42
80.0
 43
80.0
 50
180.0
  0
TEXT
  5
839D
330
8439
100
AcDbEntity
  8
3
 62
     0
100
AcDbText
 10
3011.83
 20
6278.47
 30
0.0
 40
120.0
  1
2450
100
AcDbText
  0
POINT
  5
834D
330
8439
100
AcDbEntity
  8
DEFPOINTS
 62
     0
100
AcDbPoint
 10
4476.831659683933
 20
6755.623467839007
 30
0.0
  0
POINT
  5
834E
330
8439
100
AcDbEntity
  8
DEFPOINTS
 62
     0
100
AcDbPoint
 10
2026.831659683934
 20
6755.623467839007
 30
0.0
  0
POINT
  5
834F
330
8439
100
AcDbEntity
  8
DEFPOINTS
 62
     0
100
AcDbPoint
 10
2026.831659683934
 20
6390.869589649355
 30
0.0
  0
ENDBLK
  5
7FCD
330
8439
100
AcDbEntity
  8
0
100
AcDbBlockEnd
  0
BLOCK
  5
843C
330
843B
100
AcDbEntity
  8
0
100
AcDbBlockBegin
  2
*D13
 70
     1
 10
0.0
 20
0.0
 30
0.0
  3
*D13
  1

  0
LINE
  5
8350
330
843B
100
AcDbEntity
  8
3
 62
     0
100
AcDbLine
 10
1931.831659683934
 20
3035.935954207627
 30
0.0
 11
1658.820626993976
 21
3035.935954207627
 31
0.0
  0
LINE
  5
8351
330
843B
100
AcDbEntity
  8
3
 62
     0
100
AcDbLine
 10
1931.831659683934
 20
4315.935954207627
 30
0.0
 11
1658.820626993976
 21
4315.935954207627
 31
0.0
  0
LINE
  5
8352
330
843B
100
AcDbEntity
  8
3
 62
     0
100
AcDbLine
 10
1698.820626993976
 20
3115.935954207627
 30
0.0
 11
1698.820626993976
 21
4235.935954207627
 31
0.0
  0
INSERT
  5
8353
330
843B
100
AcDbEntity
  8
3
 62
     0
100
AcDbBlockReference
  2
_OPEN
 10
1698.820626993976
 20
3035.935954207627
 30
0.0
 41
80.0
 42
80.0
 43
80.0
 50
270.0
  0
INSERT
  5
8354
330
843B
100
AcDbEntity
  8
3
 62
     0
100
AcDbBlockReference
  2
_OPEN
 10
1698.820626993976
 20
4315.935954207627
 30
0.0
 41
80.0
 42
80.0
 43
80.0
 50
90.0
  0
TEXT
  5
839E
330
843B
100
AcDbEntity
  8
3
 62
     0
100
AcDbText
 10
1358.82
 20
3463.54
 30
0.0
 40
120.0
  1
1280
100
AcDbText
  0
POINT
  5
8356
330
843B
100
AcDbEntity
  8
DEFPOINTS
 62
     0
100
AcDbPoint
 10
1951.831659683934
 20
3035.935954207627
 30
0.0
  0
POINT
  5
8357
330
843B
100
AcDbEntity
  8
DEFPOINTS
 62
     0
100
AcDbPoint
 10
1951.831659683934
 20
4315.935954207627
 30
0.0
  0
POINT
  5
8358
330
843B
100
AcDbEntity
  8
DEFPOINTS
 62
     0
100
AcDbPoint
 10
1698.820626993976
 20
4315.935954207627
 30
0.0
  0
ENDBLK
  5
7FB7
330
843B
100
AcDbEntity
  8
0
100
AcDbBlockEnd
  0
BLOCK
  5
843E
330
843D
100
AcDbEntity
  8
0
100
AcDbBlockBegin
  2
*D14
 70
     1
 10
0.0
 20
0.0
 30
0.0
  3
*D14
  1

  0
LINE
  5
8359
330
843D
100
AcDbEntity
  8
3
 62
     0
100
AcDbLine
 10
1931.831659683934
 20
3035.935954207627
 30
0.0
 11
1411.757784537447
 21
3035.935954207627
 31
0.0
  0
LINE
  5
835A
330
843D
100
AcDbEntity
  8
3
 62
     0
100
AcDbLine
 10
1853.395121435081
 20
4369.935954207627
 30
0.0
 11
1411.757784537447
 21
4369.935954207627
 31
0.0
  0
LINE
  5
835B
330
843D
100
AcDbEntity
  8
3
 62
     0
100
AcDbLine
 10
1451.757784537447
 20
3115.935954207627
 30
0.0
 11
1451.757784537447
 21
4289.935954207627
 31
0.0
  0
INSERT
  5
835C
330
843D
100
AcDbEntity
  8
3
 62
     0
100
AcDbBlockReference
  2
_OPEN
 10
1451.757784537447
 20
3035.935954207627
 30
0.0
 41
80.0
 42
80.0
 43
80.0
 50
270.0
  0
INSERT
  5
835D
330
843D
100
AcDbEntity
  8
3
 62
     0
100
AcDbBlockReference
  2
_OPEN
 10
1451.757784537447
 20
4369.935954207627
 30
0.0
 41
80.0
 42
80.0
 43
80.0
 50
90.0
  0
TEXT
  5
839F
330
843D
100
AcDbEntity
  8
3
 62
     0
100
AcDbText
 10
1111.76
 20
3490.54
 30
0.0
 40
120.0
  1
1334
100
AcDbText
  0
POINT
  5
835F
330
843D
100
AcDbEntity
  8
DEFPOINTS
 62
     0
100
AcDbPoint
 10
1951.831659683934
 20
3035.935954207627
 30
0.0
  0
POINT
  5
8360
330
843D
100
AcDbEntity
  8
DEFPOINTS
 62
     0
100
AcDbPoint
 10
1873.395121435081
 20
4369.935954207627
 30
0.0
  0
POINT
  5
8361
330
843D
100
AcDbEntity
  8
DEFPOINTS
 62
     0
100
AcDbPoint
 10
1451.757784537447
 20
4369.935954207627
 30
0.0
  0
ENDBLK
  5
7FAC
330
843D
100
AcDbEntity
  8
0
100
AcDbBlockEnd
  0
BLOCK
  5
8440
330
843F
100
AcDbEntity
  8
0
100
AcDbBlockBegin
  2
*D15
 70
     1
 10
0.0
 20
0.0
 30
0.0
  3
*D15
  1

  0
LINE
  5
8362
330
843F
100
AcDbEntity
  8
3
 62
     0
100
AcDbLine
 10
3852.287402522041
 20
4389.935954207627
 30
0.0
 11
3852.287402522041
 21
5574.448112292856
 31
0.0
  0
LINE
  5
8363
330
843F
100
AcDbEntity
  8
3
 62
     0
100
AcDbLine
 10
2776.831659683934
 20
5469.070503599152
 30
0.0
 11
2776.831659683934
 21
5574.448112292856
 31
0.0
  0
LINE
  5
8364
330
843F
100
AcDbEntity
  8
3
 62
     0
100
AcDbLine
 10
3772.28740252204
 20
5534.448112292857
 30
0.0
 11
2856.831659683934
 21
5534.448112292857
 31
0.0
  0
INSERT
  5
8365
330
843F
100
AcDbEntity
  8
3
 62
     0
100
AcDbBlockReference
  2
_OPEN
 10
3852.287402522041
 20
5534.448112292857
 30
0.0
 41
80.0
 42
80.0
 43
80.0
  0
INSERT
  5
8366
330
843F
100
AcDbEntity
  8
3
 62
     0
100
AcDbBlockReference
  2
_OPEN
 10
2776.831659683934
 20
5534.448112292857
 30
0.0
 41
80.0
 42
80.0
 43
80.0
 50
180.0
  0
TEXT
  5
83A0
330
843F
100
AcDbEntity
  8
3
 62
     0
100
AcDbText
 10
3074.56
 20
5422.05
 30
0.0
 40
120.0
  1
1079
100
AcDbText
  0
POINT
  5
8368
330
843F
100
AcDbEntity
  8
DEFPOINTS
 62
     0
100
AcDbPoint
 10
3852.287402522041
 20
4369.935954207627
 30
0.0
  0
POINT
  5
8369
330
843F
100
AcDbEntity
  8
DEFPOINTS
 62
     0
100
AcDbPoint
 10
2776.831659683934
 20
5449.070503599152
 30
0.0
  0
POINT
  5
836A
330
843F
100
AcDbEntity
  8
DEFPOINTS
 62
     0
100
AcDbPoint
 10
2776.831659683934
 20
5534.448112292857
 30
0.0
  0
ENDBLK
  5
7F8B
330
843F
100
AcDbEntity
  8
0
100
AcDbBlockEnd
  0
BLOCK
  5
8442
330
8441
100
AcDbEntity
  8
0
100
AcDbBlockBegin
  2
*D16
 70
     1
 10
0.0
 20
0.0
 30
0.0
  3
*D16
  1

  0
LINE
  5
836B
330
8441
100
AcDbEntity
  8
3
 62
     0
100
AcDbLine
 10
2776.831659683934
 20
5469.070503599152
 30
0.0
 11
2776.831659683934
 21
5574.448112292856
 31
0.0
  0
LINE
  5
836C
330
8441
100
AcDbEntity
  8
3
 62
     0
100
AcDbLine
 10
1951.831659683934
 20
4388.935954207627
 30
0.0
 11
1951.831659683934
 21
5574.448112292856
 31
0.0
  0
LINE
  5
836D
330
8441
100
AcDbEntity
  8
3
 62
     0
100
AcDbLine
 10
2696.831659683934
 20
5534.448112292857
 30
0.0
 11
2031.831659683934
 21
5534.448112292857
 31
0.0
  0
INSERT
  5
836E
330
8441
100
AcDbEntity
  8
3
 62
     0
100
AcDbBlockReference
  2
_OPEN
 10
2776.831659683934
 20
5534.448112292857
 30
0.0
 41
80.0
 42
80.0
 43
80.0
  0
INSERT
  5
836F
330
8441
100
AcDbEntity
  8
3
 62
     0
100
AcDbBlockReference
  2
_OPEN
 10
1951.831659683934
 20
5534.448112292857
 30
0.0
 41
80.0
 42
80.0
 43
80.0
 50
180.0
  0
TEXT
  5
83A1
330
8441
100
AcDbEntity
  8
3
 62
     0
100
AcDbText
 10
2124.33
 20
5422.05
 30
0.0
 40
120.0
  1
825
100
AcDbText
  0
POINT
  5
8371
330
8441
100
AcDbEntity
  8
DEFPOINTS
 62
     0
100
AcDbPoint
 10
2776.831659683934
 20
5449.070503599152
 30
0.0
  0
POINT
  5
8372
330
8441
100
AcDbEntity
  8
DEFPOINTS
 62
     0
100
AcDbPoint
 10
1951.831659683934
 20
4368.935954207628
 30
0.0
  0
POINT
  5
8373
330
8441
100
AcDbEntity
  8
DEFPOINTS
 62
     0
100
AcDbPoint
 10
1951.831659683934
 20
5534.448112292857
 30
0.0
  0
ENDBLK
  5
7F80
330
8441
100
AcDbEntity
  8
0
100
AcDbBlockEnd
  0
BLOCK
  5
8444
330
8443
100
AcDbEntity
  8
0
100
AcDbBlockBegin
  2
*D17
 70
     1
 10
0.0
 20
0.0
 30
0.0
  3
*D17
  1

  0
LINE
  5
8374
330
8443
100
AcDbEntity
  8
3
 62
     0
100
AcDbLine
 10
1853.395121435081
 20
4369.935954207627
 30
0.0
 11
1160.642070885875
 21
4369.935954207627
 31
0.0
  0
LINE
  5
8375
330
8443
100
AcDbEntity
  8
3
 62
     0
100
AcDbLine
 10
2006.831659683934
 20
2939.935954207627
 30
0.0
 11
1160.642070885874
 21
2939.935954207627
 31
0.0
  0
LINE
  5
8376
330
8443
100
AcDbEntity
  8
3
 62
     0
100
AcDbLine
 10
1200.642070885875
 20
4289.935954207627
 30
0.0
 11
1200.642070885875
 21
3019.935954207627
 31
0.0
  0
INSERT
  5
8377
330
8443
100
AcDbEntity
  8
3
 62
     0
100
AcDbBlockReference
  2
_OPEN
 10
1200.642070885875
 20
4369.935954207627
 30
0.0
 41
80.0
 42
80.0
 43
80.0
 50
90.0
  0
INSERT
  5
8378
330
8443
100
AcDbEntity
  8
3
 62
     0
100
AcDbBlockReference
  2
_OPEN
 10
1200.642070885875
 20
2939.935954207627
 30
0.0
 41
80.0
 42
80.0
 43
80.0
 50
270.0
  0
TEXT
  5
83A2
330
8443
100
AcDbEntity
  8
3
 62
     0
100
AcDbText
 10
860.6419999999999
 20
3442.540000000001
 30
0.0
 40
120.0
  1
1430
100
AcDbText
  0
POINT
  5
837A
330
8443
100
AcDbEntity
  8
DEFPOINTS
 62
     0
100
AcDbPoint
 10
1873.395121435081
 20
4369.935954207627
 30
0.0
  0
POINT
  5
837B
330
8443
100
AcDbEntity
  8
DEFPOINTS
 62
     0
100
AcDbPoint
 10
2026.831659683934
 20
2939.935954207627
 30
0.0
  0
POINT
  5
837C
330
8443
100
AcDbEntity
  8
DEFPOINTS
 62
     0
100
AcDbPoint
 10
1200.642070885875
 20
2939.935954207627
 30
0.0
  0
ENDBLK
  5
7F6A
330
8443
100
AcDbEntity
  8
0
100
AcDbBlockEnd
  0
BLOCK
  5
8447
330
8446
100
AcDbEntity
  8
0
100
AcDbBlockBegin
  2
*D18
 70
     1
 10
0.0
 20
0.0
 30
0.0
  3
*D18
  1

  0
LINE
  5
837D
330
8446
100
AcDbEntity
  8
3
 62
     0
100
AcDbLine
 10
2006.831659683934
 20
2919.935954207627
 30
0.0
 11
1160.642070885874
 21
2919.935954207627
 31
0.0
  0
LINE
  5
837E
330
8446
100
AcDbEntity
  8
3
 62
     0
100
AcDbLine
 10
2006.831659683934
 20
2854.935954207627
 30
0.0
 11
1160.642070885874
 21
2854.935954207627
 31
0.0
  0
LINE
  5
837F
330
8446
100
AcDbEntity
  8
3
 62
     0
100
AcDbLine
 10
1200.642070885875
 20
2999.935954207627
 30
0.0
 11
1200.642070885875
 21
3079.935954207627
 31
0.0
  0
LINE
  5
8380
330
8446
100
AcDbEntity
  8
3
 62
     0
100
AcDbLine
 10
1200.642070885875
 20
2774.935954207627
 30
0.0
 11
1200.642070885874
 21
2420.650239921912
 31
0.0
  0
LINE
  5
8381
330
8446
100
AcDbEntity
  8
3
 62
     0
100
AcDbLine
 10
1200.642070885875
 20
2919.935954207627
 30
0.0
 11
1200.642070885875
 21
2854.935954207627
 31
0.0
  0
INSERT
  5
8382
330
8446
100
AcDbEntity
  8
3
 62
     0
100
AcDbBlockReference
  2
_DOT
 10
1200.642070885875
 20
2919.935954207627
 30
0.0
 41
80.0
 42
80.0
 43
80.0
 50
270.0
  0
INSERT
  5
8383
330
8446
100
AcDbEntity
  8
3
 62
     0
100
AcDbBlockReference
  2
_OPEN
 10
1200.642070885875
 20
2854.935954207627
 30
0.0
 41
80.0
 42
80.0
 43
80.0
 50
90.0
  0
TEXT
  5
83A3
330
8446
100
AcDbEntity
  8
3
 62
     0
100
AcDbText
 10
860.6419999999999
 20
2345.39
 30
0.0
 40
120.0
  1
65
100
AcDbText
  0
POINT
  5
8385
330
8446
100
AcDbEntity
  8
DEFPOINTS
 62
     0
100
AcDbPoint
 10
2026.831659683934
 20
2919.935954207627
 30
0.0
  0
POINT
  5
8386
330
8446
100
AcDbEntity
  8
DEFPOINTS
 62
     0
100
AcDbPoint
 10
2026.831659683934
 20
2854.935954207627
 30
0.0
  0
POINT
  5
8387
330
8446
100
AcDbEntity
  8
DEFPOINTS
 62
     0
100
AcDbPoint
 10
1200.642070885875
 20
2854.935954207627
 30
0.0
  0
ENDBLK
  5
8103
330
8446
100
AcDbEntity
  8
0
100
AcDbBlockEnd
  0
BLOCK
  5
844B
330
8448
100
AcDbEntity
  8
0
100
AcDbBlockBegin
  2
_DOT
 70
     0
 10
0.0
 20
0.0
 30
0.0
  3
_DOT
  1

  0
LINE
  5
8104
330
8448
100
AcDbEntity
  8
0
  6
ByBlock
 62
     0
100
AcDbLine
 10
0.0
 20
0.0
 30
0.0
 11
-1.0
 21
-0.0000000000000284
 31
0.0
  0
LWPOLYLINE
  5
8105
330
8448
100
AcDbEntity
  8
0
  6
ByBlock
 62
     0
100
AcDbPolyline
 90
        2
 70
     1
 43
0.1666666666666666
 10
-0.0833333333333286
 20
-0.0000000000000284
 42
1.0
 10
0.0833333333333286
 20
-0.0000000000000284
 42
1.0
  0
ENDBLK
  5
80C2
330
8448
100
AcDbEntity
  8
0
100
AcDbBlockEnd
  0
BLOCK
  5
844A
330
8449
100
AcDbEntity
  8
0
100
AcDbBlockBegin
  2
*D20
 70
     1
 10
0.0
 20
0.0
 30
0.0
  3
*D20
  1

  0
LINE
  5
8388
330
8449
100
AcDbEntity
  8
3
 62
     0
100
AcDbLine
 10
1951.831659683934
 20
4408.935954207627
 30
0.0
 11
1951.831659683934
 21
5855.282770043522
 31
0.0
  0
LINE
  5
8389
330
8449
100
AcDbEntity
  8
3
 62
     0
100
AcDbLine
 10
4476.831659683933
 20
3084.935954207627
 30
0.0
 11
4476.831659683933
 21
5855.282770043522
 31
0.0
  0
LINE
  5
838A
330
8449
100
AcDbEntity
  8
3
 62
     0
100
AcDbLine
 10
2031.831659683934
 20
5815.282770043522
 30
0.0
 11
4396.831659683934
 21
5815.282770043522
 31
0.0
  0
INSERT
  5
838B
330
8449
100
AcDbEntity
  8
3
 62
     0
100
AcDbBlockReference
  2
_OPEN
 10
1951.831659683934
 20
5815.282770043522
 30
0.0
 41
80.0
 42
80.0
 43
80.0
 50
180.0
  0
INSERT
  5
838C
330
8449
100
AcDbEntity
  8
3
 62
     0
100
AcDbBlockReference
  2
_OPEN
 10
4476.831659683933
 20
5815.282770043522
 30
0.0
 41
80.0
 42
80.0
 43
80.0
  0
TEXT
  5
83A4
330
8449
100
AcDbEntity
  8
3
 62
     0
100
AcDbText
 10
3058.95
 20
5702.88
 30
0.0
 40
120.0
  1
2525
100
AcDbText
  0
POINT
  5
838E
330
8449
100
AcDbEntity
  8
DEFPOINTS
 62
     0
100
AcDbPoint
 10
1951.831659683934
 20
4388.935954207627
 30
0.0
  0
POINT
  5
838F
330
8449
100
AcDbEntity
  8
DEFPOINTS
 62
     0
100
AcDbPoint
 10
4476.831659683933
 20
3064.935954207627
 30
0.0
  0
POINT
  5
8390
330
8449
100
AcDbEntity
  8
DEFPOINTS
 62
     0
100
AcDbPoint
 10
4476.831659683933
 20
5815.282770043522
 30
0.0
  0
ENDBLK
  5
806B
330
8449
100
AcDbEntity
  8
0
100
AcDbBlockEnd
  0
BLOCK
  5
844D
330
844C
100
AcDbEntity
  8
0
100
AcDbBlockBegin
  2
*D21
 70
     1
 10
0.0
 20
0.0
 30
0.0
  3
*D21
  1

  0
LINE
  5
819E
330
844C
100
AcDbEntity
  8
0
  6
ByBlock
 62
     0
100
AcDbLine
 10
2026.831659683934
 20
2834.935954207627
 30
0.0
 11
2026.831659683934
 21
2556.714947416167
 31
0.0
  0
LINE
  5
819F
330
844C
100
AcDbEntity
  8
0
  6
ByBlock
 62
     0
100
AcDbLine
 10
2776.831659683934
 20
2834.935954207626
 30
0.0
 11
2776.831659683934
 21
2556.714947416167
 31
0.0
  0
LINE
  5
81A0
330
844C
100
AcDbEntity
  8
0
  6
ByBlock
 62
     0
100
AcDbLine
 10
2106.831659683934
 20
2596.714947416167
 30
0.0
 11
2696.831659683934
 21
2596.714947416167
 31
0.0
  0
INSERT
  5
81A1
330
844C
100
AcDbEntity
  8
0
  6
ByBlock
 62
     0
100
AcDbBlockReference
  2
_OPEN
 10
2026.831659683934
 20
2596.714947416167
 30
0.0
 41
80.0
 42
80.0
 43
80.0
 50
180.0
  0
INSERT
  5
81A2
330
844C
100
AcDbEntity
  8
0
  6
ByBlock
 62
     0
100
AcDbBlockReference
  2
_OPEN
 10
2776.831659683934
 20
2596.714947416167
 30
0.0
 41
80.0
 42
80.0
 43
80.0
  0
TEXT
  5
81A3
330
844C
100
AcDbEntity
  8
3
 62
     0
100
AcDbText
 10
2247.54594539822
 20
2636.714947416167
 30
0.0
 40
120.0
  1
750
100
AcDbText
  0
POINT
  5
81A4
330
844C
100
AcDbEntity
  8
DEFPOINTS
  6
ByBlock
 62
     0
100
AcDbPoint
 10
2026.831659683934
 20
2854.935954207627
 30
0.0
  0
POINT
  5
81A5
330
844C
100
AcDbEntity
  8
DEFPOINTS
  6
ByBlock
 62
     0
100
AcDbPoint
 10
2776.831659683934
 20
2854.935954207626
 30
0.0
  0
POINT
  5
81A6
330
844C
100
AcDbEntity
  8
DEFPOINTS
  6
ByBlock
 62
     0
100
AcDbPoint
 10
2776.831659683934
 20
2596.714947416167
 30
0.0
  0
ENDBLK
  5
81A7
330
844C
100
AcDbEntity
  8
0
100
AcDbBlockEnd
  0
BLOCK
  5
844F
330
844E
100
AcDbEntity
  8
0
100
AcDbBlockBegin
  2
*D22
 70
     1
 10
0.0
 20
0.0
 30
0.0
  3
*D22
  1

  0
LINE
  5
81AB
330
844E
100
AcDbEntity
  8
0
  6
ByBlock
 62
     0
100
AcDbLine
 10
2776.831659683934
 20
2834.935954207626
 30
0.0
 11
2776.831659683934
 21
2556.714947416167
 31
0.0
  0
LINE
  5
81AC
330
844E
100
AcDbEntity
  8
0
  6
ByBlock
 62
     0
100
AcDbLine
 10
4476.831659683933
 20
2834.935954207627
 30
0.0
 11
4476.831659683933
 21
2556.714947416167
 31
0.0
  0
LINE
  5
81AD
330
844E
100
AcDbEntity
  8
0
  6
ByBlock
 62
     0
100
AcDbLine
 10
2856.831659683934
 20
2596.714947416167
 30
0.0
 11
4396.831659683934
 21
2596.714947416167
 31
0.0
  0
INSERT
  5
81AE
330
844E
100
AcDbEntity
  8
0
  6
ByBlock
 62
     0
100
AcDbBlockReference
  2
_OPEN
 10
2776.831659683934
 20
2596.714947416167
 30
0.0
 41
80.0
 42
80.0
 43
80.0
 50
180.0
  0
INSERT
  5
81AF
330
844E
100
AcDbEntity
  8
0
  6
ByBlock
 62
     0
100
AcDbBlockReference
  2
_OPEN
 10
4476.831659683933
 20
2596.714947416167
 30
0.0
 41
80.0
 42
80.0
 43
80.0
  0
TEXT
  5
81B0
330
844E
100
AcDbEntity
  8
3
 62
     0
100
AcDbText
 10
3426.831659683934
 20
2636.714947416167
 30
0.0
 40
120.0
  1
1700
100
AcDbText
  0
POINT
  5
81B1
330
844E
100
AcDbEntity
  8
DEFPOINTS
  6
ByBlock
 62
     0
100
AcDbPoint
 10
2776.831659683934
 20
2854.935954207626
 30
0.0
  0
POINT
  5
81B2
330
844E
100
AcDbEntity
  8
DEFPOINTS
  6
ByBlock
 62
     0
100
AcDbPoint
 10
4476.831659683933
 20
2854.935954207627
 30
0.0
  0
POINT
  5
81B3
330
844E
100
AcDbEntity
  8
DEFPOINTS
  6
ByBlock
 62
     0
100
AcDbPoint
 10
4476.831659683933
 20
2596.714947416167
 30
0.0
  0
ENDBLK
  5
81B4
330
844E
100
AcDbEntity
  8
0
100
AcDbBlockEnd
  0
BLOCK
  5
8451
330
8450
100
AcDbEntity
  8
0
100
AcDbBlockBegin
  2
*D23
 70
     1
 10
0.0
 20
0.0
 30
0.0
  3
*D23
  1

  0
LINE
  5
81B8
330
8450
100
AcDbEntity
  8
0
  6
ByBlock
 62
     0
100
AcDbLine
 10
5179.407928765328
 20
2834.935954207627
 30
0.0
 11
5179.407928765328
 21
2556.714947416167
 31
0.0
  0
LINE
  5
81B9
330
8450
100
AcDbEntity
  8
0
  6
ByBlock
 62
     0
100
AcDbLine
 10
6381.407928765328
 20
2834.935954207626
 30
0.0
 11
6381.407928765328
 21
2556.714947416167
 31
0.0
  0
LINE
  5
81BA
330
8450
100
AcDbEntity
  8
0
  6
ByBlock
 62
     0
100
AcDbLine
 10
5259.407928765328
 20
2596.714947416167
 30
0.0
 11
6301.407928765327
 21
2596.714947416167
 31
0.0
  0
INSERT
  5
81BB
330
8450
100
AcDbEntity
  8
0
  6
ByBlock
 62
     0
100
AcDbBlockReference
  2
_OPEN
 10
5179.407928765328
 20
2596.714947416167
 30
0.0
 41
80.0
 42
80.0
 43
80.0
 50
180.0
  0
INSERT
  5
81BC
330
8450
100
AcDbEntity
  8
0
  6
ByBlock
 62
     0
100
AcDbBlockReference
  2
_OPEN
 10
6381.407928765328
 20
2596.714947416167
 30
0.0
 41
80.0
 42
80.0
 43
80.0
  0
TEXT
  5
81BD
330
8450
100
AcDbEntity
  8
3
 62
     0
100
AcDbText
 10
5580.407928765326
 20
2636.714947416167
 30
0.0
 40
120.0
  1
1202
100
AcDbText
  0
POINT
  5
81BE
330
8450
100
AcDbEntity
  8
DEFPOINTS
  6
ByBlock
 62
     0
100
AcDbPoint
 10
5179.407928765328
 20
2854.935954207627
 30
0.0
  0
POINT
  5
81BF
330
8450
100
AcDbEntity
  8
DEFPOINTS
  6
ByBlock
 62
     0
100
AcDbPoint
 10
6381.407928765328
 20
2854.935954207626
 30
0.0
  0
POINT
  5
81C0
330
8450
100
AcDbEntity
  8
DEFPOINTS
  6
ByBlock
 62
     0
100
AcDbPoint
 10
6381.407928765328
 20
2596.714947416167
 30
0.0
  0
ENDBLK
  5
81C1
330
8450
100
AcDbEntity
  8
0
100
AcDbBlockEnd
  0
BLOCK
  5
8453
330
8452
100
AcDbEntity
  8
0
100
AcDbBlockBegin
  2
*D24
 70
     1
 10
0.0
 20
0.0
 30
0.0
  3
*D24
  1

  0
LINE
  5
81C5
330
8452
100
AcDbEntity
  8
0
  6
ByBlock
 62
     0
100
AcDbLine
 10
6381.407928765328
 20
2834.935954207626
 30
0.0
 11
6381.407928765328
 21
2556.714947416167
 31
0.0
  0
LINE
  5
81C6
330
8452
100
AcDbEntity
  8
0
  6
ByBlock
 62
     0
100
AcDbLine
 10
7299.407928765325
 20
2834.935954207627
 30
0.0
 11
7299.407928765325
 21
2556.714947416167
 31
0.0
  0
LINE
  5
81C7
330
8452
100
AcDbEntity
  8
0
  6
ByBlock
 62
     0
100
AcDbLine
 10
6461.407928765328
 20
2596.714947416167
 30
0.0
 11
7219.407928765325
 21
2596.714947416167
 31
0.0
  0
INSERT
  5
81C8
330
8452
100
AcDbEntity
  8
0
  6
ByBlock
 62
     0
100
AcDbBlockReference
  2
_OPEN
 10
6381.407928765328
 20
2596.714947416167
 30
0.0
 41
80.0
 42
80.0
 43
80.0
 50
180.0
  0
INSERT
  5
81C9
330
8452
100
AcDbEntity
  8
0
  6
ByBlock
 62
     0
100
AcDbBlockReference
  2
_OPEN
 10
7299.407928765325
 20
2596.714947416167
 30
0.0
 41
80.0
 42
80.0
 43
80.0
  0
TEXT
  5
81CA
330
8452
100
AcDbEntity
  8
3
 62
     0
100
AcDbText
 10
6697.550785908183
 20
2636.714947416167
 30
0.0
 40
120.0
  1
918
100
AcDbText
  0
POINT
  5
81CB
330
8452
100
AcDbEntity
  8
DEFPOINTS
  6
ByBlock
 62
     0
100
AcDbPoint
 10
6381.407928765328
 20
2854.935954207626
 30
0.0
  0
POINT
  5
81CC
330
8452
100
AcDbEntity
  8
DEFPOINTS
  6
ByBlock
 62
     0
100
AcDbPoint
 10
7299.407928765325
 20
2854.935954207627
 30
0.0
  0
POINT
  5
81CD
330
8452
100
AcDbEntity
  8
DEFPOINTS
  6
ByBlock
 62
     0
100
AcDbPoint
 10
7299.407928765325
 20
2596.714947416167
 30
0.0
  0
ENDBLK
  5
81CE
330
8452
100
AcDbEntity
  8
0
100
AcDbBlockEnd
  0
BLOCK
  5
8455
330
8454
100
AcDbEntity
  8
0
100
AcDbBlockBegin
  2
_NONE
 70
     0
 10
0.0
 20
0.0
 30
0.0
  3
_NONE
  1

  0
CIRCLE
  5
81D2
330
8454
100
AcDbEntity
  8
0
  6
ByBlock
 62
     0
100
AcDbCircle
 10
0.0
 20
0.0
 30
0.0
 40
0.25
  0
ENDBLK
  5
81D3
330
8454
100
AcDbEntity
  8
0
100
AcDbBlockEnd
  0
BLOCK
  5
8457
330
8456
100
AcDbEntity
  8
0
100
AcDbBlockBegin
  2
*D26
 70
     1
 10
0.0
 20
0.0
 30
0.0
  3
*D26
  1

  0
LINE
  5
81F2
330
8456
100
AcDbEntity
  8
0
  6
ByBlock
 62
     0
100
AcDbLine
 10
1203.170627867308
 20
2919.935954207627
 30
0.0
 11
1203.170627867308
 21
2919.935954207627
 31
0.0
  0
LINE
  5
81F3
330
8456
100
AcDbEntity
  8
0
  6
ByBlock
 62
     0
100
AcDbLine
 10
1203.170627867308
 20
2939.935954207627
 30
0.0
 11
1203.170627867308
 21
3099.935954207627
 31
0.0
  0
TEXT
  5
81F4
330
8456
100
AcDbEntity
  8
3
 62
     0
100
AcDbText
 10
1051.742056438736
 20
2647.650239921913
 30
0.0
 40
120.0
  1
   (20)
 50
90.0
100
AcDbText
  0
LINE
  5
81F5
330
8456
100
AcDbEntity
  8
0
  6
ByBlock
 62
     0
100
AcDbLine
 10
1203.170627867308
 20
2919.935954207627
 30
0.0
 11
1203.170627867308
 21
2939.935954207627
 31
0.0
  0
POINT
  5
81F6
330
8456
100
AcDbEntity
  8
DEFPOINTS
  6
ByBlock
 62
     0
100
AcDbPoint
 10
2026.831659683934
 20
2919.935954207627
 30
0.0
  0
POINT
  5
81F7
330
8456
100
AcDbEntity
  8
DEFPOINTS
  6
ByBlock
 62
     0
100
AcDbPoint
 10
2026.831659683934
 20
2939.935954207627
 30
0.0
  0
POINT
  5
81F8
330
8456
100
AcDbEntity
  8
DEFPOINTS
  6
ByBlock
 62
     0
100
AcDbPoint
 10
1203.170627867308
 20
2939.935954207627
 30
0.0
  0
ENDBLK
  5
81F9
330
8456
100
AcDbEntity
  8
0
100
AcDbBlockEnd
  0
BLOCK
  5
8459
330
8458
100
AcDbEntity
  8
0
100
AcDbBlockBegin
  2
*D27
 70
     1
 10
0.0
 20
0.0
 30
0.0
  3
*D27
  1

  0
LINE
  5
820A
330
8458
100
AcDbEntity
  8
0
  6
ByBlock
 62
     0
100
AcDbLine
 10
2847.831659683933
 20
5266.935954207628
 30
0.0
 11
1163.170627867308
 21
5266.935954207628
 31
0.0
  0
LINE
  5
820B
330
8458
100
AcDbEntity
  8
0
  6
ByBlock
 62
     0
100
AcDbLine
 10
1919.310814992313
 20
4369.935954207627
 30
0.0
 11
1163.170627867308
 21
4369.935954207627
 31
0.0
  0
LINE
  5
820C
330
8458
100
AcDbEntity
  8
0
  6
ByBlock
 62
     0
100
AcDbLine
 10
1203.170627867308
 20
5186.935954207628
 30
0.0
 11
1203.170627867308
 21
4449.935954207627
 31
0.0
  0
INSERT
  5
820D
330
8458
100
AcDbEntity
  8
0
  6
ByBlock
 62
     0
100
AcDbBlockReference
  2
_OPEN
 10
1203.170627867308
 20
5266.935954207628
 30
0.0
 41
80.0
 42
80.0
 43
80.0
 50
90.0
  0
INSERT
  5
820E
330
8458
100
AcDbEntity
  8
0
  6
ByBlock
 62
     0
100
AcDbBlockReference
  2
_OPEN
 10
1203.170627867308
 20
4369.935954207627
 30
0.0
 41
80.0
 42
80.0
 43
80.0
 50
270.0
  0
TEXT
  5
820F
330
8458
100
AcDbEntity
  8
3
 62
     0
100
AcDbText
 10
1163.170627867308
 20
4664.150239921912
 30
0.0
 40
120.0
  1
897
 50
90.0
100
AcDbText
  0
POINT
  5
8210
330
8458
100
AcDbEntity
  8
DEFPOINTS
  6
ByBlock
 62
     0
100
AcDbPoint
 10
2867.831659683934
 20
5266.935954207628
 30
0.0
  0
POINT
  5
8211
330
8458
100
AcDbEntity
  8
DEFPOINTS
  6
ByBlock
 62
     0
100
AcDbPoint
 10
1939.310814992313
 20
4369.935954207627
 30
0.0
  0
POINT
  5
8212
330
8458
100
AcDbEntity
  8
DEFPOINTS
  6
ByBlock
 62
     0
100
AcDbPoint
 10
1203.170627867308
 20
4369.935954207627
 30
0.0
  0
ENDBLK
  5
8213
330
8458
100
AcDbEntity
  8
0
100
AcDbBlockEnd
  0
BLOCK
  5
845B
330
845A
100
AcDbEntity
  8
0
100
AcDbBlockBegin
  2
*D28
 70
     1
 10
0.0
 20
0.0
 30
0.0
  3
*D28
  1

  0
LINE
  5
8217
330
845A
100
AcDbEntity
  8
0
  6
ByBlock
 62
     0
100
AcDbLine
 10
2006.831659683934
 20
2854.935954207627
 30
0.0
 11
822.1965177199017
 21
2854.935954207627
 31
0.0
  0
LINE
  5
8218
330
845A
100
AcDbEntity
  8
0
  6
ByBlock
 62
     0
100
AcDbLine
 10
2827.831659683934
 20
5266.935954207628
 30
0.0
 11
822.1965177199017
 21
5266.935954207628
 31
0.0
  0
LINE
  5
8219
330
845A
100
AcDbEntity
  8
0
  6
ByBlock
 62
     0
100
AcDbLine
 10
862.1965177199017
 20
2934.935954207627
 30
0.0
 11
862.1965177199017
 21
5186.935954207628
 31
0.0
  0
INSERT
  5
821A
330
845A
100
AcDbEntity
  8
0
  6
ByBlock
 62
     0
100
AcDbBlockReference
  2
_OPEN
 10
862.1965177199017
 20
2854.935954207627
 30
0.0
 41
80.0
 42
80.0
 43
80.0
 50
270.0
  0
INSERT
  5
821B
330
845A
100
AcDbEntity
  8
0
  6
ByBlock
 62
     0
100
AcDbBlockReference
  2
_OPEN
 10
862.1965177199017
 20
5266.935954207628
 30
0.0
 41
80.0
 42
80.0
 43
80.0
 50
90.0
  0
TEXT
  5
821C
330
845A
100
AcDbEntity
  8
3
 62
     0
100
AcDbText
 10
770.7679462913302
 20
3783.79309706477
 30
0.0
 40
120.0
  1
(2412)
 50
90.0
100
AcDbText
  0
POINT
  5
821D
330
845A
100
AcDbEntity
  8
DEFPOINTS
  6
ByBlock
 62
     0
100
AcDbPoint
 10
2026.831659683934
 20
2854.935954207627
 30
0.0
  0
POINT
  5
821E
330
845A
100
AcDbEntity
  8
DEFPOINTS
  6
ByBlock
 62
     0
100
AcDbPoint
 10
2847.831659683933
 20
5266.935954207628
 30
0.0
  0
POINT
  5
821F
330
845A
100
AcDbEntity
  8
DEFPOINTS
  6
ByBlock
 62
     0
100
AcDbPoint
 10
862.1965177199017
 20
5266.935954207628
 30
0.0
  0
ENDBLK
  5
8220
330
845A
100
AcDbEntity
  8
0
100
AcDbBlockEnd
  0
BLOCK
  5
84BC
330
84BB
100
AcDbEntity
  8
0
100
AcDbBlockBegin
  2
*D29
 70
     1
 10
0.0
 20
0.0
 30
0.0
  3
*D29
  1

  0
LINE
  5
84FA
330
84BB
100
AcDbEntity
  8
3
 62
     0
370
    -2
100
AcDbLine
 10
7251.407928765326
 20
4994.935954207627
 30
0.0
 11
7682.677553677827
 21
4994.935954207627
 31
0.0
  0
LINE
  5
84FB
330
84BB
100
AcDbEntity
  8
3
 62
     0
370
    -2
100
AcDbLine
 10
7251.407928765326
 20
3744.935954207627
 30
0.0
 11
7682.677553677827
 21
3744.935954207627
 31
0.0
  0
LINE
  5
84FC
330
84BB
100
AcDbEntity
  8
3
 62
     0
370
    -2
100
AcDbLine
 10
7642.677553677827
 20
4914.935954207628
 30
0.0
 11
7642.677553677827
 21
3824.935954207627
 31
0.0
  0
INSERT
  5
84FD
330
84BB
100
AcDbEntity
  8
3
 62
     0
370
    -2
100
AcDbBlockReference
  2
_OPEN
 10
7642.677553677827
 20
4994.935954207627
 30
0.0
 41
80.0
 42
80.0
 43
80.0
 50
90.0
  0
INSERT
  5
84FE
330
84BB
100
AcDbEntity
  8
3
 62
     0
370
    -2
100
AcDbBlockReference
  2
_OPEN
 10
7642.677553677827
 20
3744.935954207627
 30
0.0
 41
80.0
 42
80.0
 43
80.0
 50
270.0
  0
MTEXT
  5
84FF
330
84BB
100
AcDbEntity
  8
3
 62
     0
100
AcDbMText
 10
7542.677553677826
 20
4369.935954207628
 30
0.0
 40
120.0
 41
0.0
 71
     5
 72
     1
  1
\A1;\U+03C61250
 11
0.0000000000000001
 21
1.0
 31
0.0
 73
     1
 44
1.0
1001
ACAD
1000
MTEXTBEGIN
1070
    73
1070
     1
1070
    44
1040
1.0
1070
    74
1070
     0
1000
MTEXTEND
  0
POINT
  5
8500
330
84BB
100
AcDbEntity
  8
DEFPOINTS
 62
     0
100
AcDbPoint
 10
7231.407928765325
 20
4994.935954207627
 30
0.0
  0
POINT
  5
8501
330
84BB
100
AcDbEntity
  8
DEFPOINTS
 62
     0
100
AcDbPoint
 10
7231.407928765325
 20
3744.935954207627
 30
0.0
  0
POINT
  5
8502
330
84BB
100
AcDbEntity
  8
DEFPOINTS
 62
     0
100
AcDbPoint
 10
7642.677553677827
 20
3744.935954207627
 30
0.0
  0
ENDBLK
  5
84BD
330
84BB
100
AcDbEntity
  8
0
100
AcDbBlockEnd
  0
BLOCK
  5
84C9
330
84C8
100
AcDbEntity
  8
0
100
AcDbBlockBegin
  2
*D30
 70
     1
 10
0.0
 20
0.0
 30
0.0
  3
*D30
  1

  0
LINE
  5
84CB
330
84C8
100
AcDbEntity
  8
3
 62
     0
370
    -2
100
AcDbLine
 10
5531.407928765328
 20
5286.935954207628
 30
0.0
 11
5531.407928765328
 21
5579.256168514262
 31
0.0
  0
LINE
  5
84CC
330
84C8
100
AcDbEntity
  8
3
 62
     0
370
    -2
100
AcDbLine
 10
7231.407928765325
 20
5286.935954207628
 30
0.0
 11
7231.407928765325
 21
5579.256168514262
 31
0.0
  0
LINE
  5
84CD
330
84C8
100
AcDbEntity
  8
3
 62
     0
370
    -2
100
AcDbLine
 10
5611.407928765327
 20
5539.256168514262
 30
0.0
 11
7151.407928765326
 21
5539.256168514262
 31
0.0
  0
INSERT
  5
84CE
330
84C8
100
AcDbEntity
  8
3
 62
     0
370
    -2
100
AcDbBlockReference
  2
_OPEN
 10
5531.407928765328
 20
5539.256168514262
 30
0.0
 41
80.0
 42
80.0
 43
80.0
 50
180.0
  0
INSERT
  5
84CF
330
84C8
100
AcDbEntity
  8
3
 62
     0
370
    -2
100
AcDbBlockReference
  2
_OPEN
 10
7231.407928765325
 20
5539.256168514262
 30
0.0
 41
80.0
 42
80.0
 43
80.0
  0
MTEXT
  5
84D0
330
84C8
100
AcDbEntity
  8
3
 62
     0
100
AcDbMText
 10
6381.407928765327
 20
5639.256168514261
 30
0.0
 40
120.0
 41
0.0
 71
     5
 72
     1
  1
\A1;1700
 73
     1
 44
1.0
1001
ACAD
1000
MTEXTBEGIN
1070
    73
1070
     1
1070
    44
1040
1.0
1070
    74
1070
     0
1000
MTEXTEND
  0
POINT
  5
84D1
330
84C8
100
AcDbEntity
  8
DEFPOINTS
 62
     0
100
AcDbPoint
 10
5531.407928765328
 20
5266.935954207627
 30
0.0
  0
POINT
  5
84D2
330
84C8
100
AcDbEntity
  8
DEFPOINTS
 62
     0
100
AcDbPoint
 10
7231.407928765325
 20
5266.935954207627
 30
0.0
  0
POINT
  5
84D3
330
84C8
100
AcDbEntity
  8
DEFPOINTS
 62
     0
100
AcDbPoint
 10
7231.407928765325
 20
5539.256168514262
 30
0.0
  0
ENDBLK
  5
84CA
330
84C8
100
AcDbEntity
  8
0
100
AcDbBlockEnd
  0
BLOCK
  5
84D6
330
84D5
100
AcDbEntity
  8
0
100
AcDbBlockBegin
  2
*D31
 70
     1
 10
0.0
 20
0.0
 30
0.0
  3
*D31
  1

  0
LINE
  5
8542
330
84D5
100
AcDbEntity
  8
3
 62
     0
370
    -2
100
AcDbLine
 10
5101.407928765326
 20
4769.935954207627
 30
0.0
 11
5101.407928765326
 21
5860.910505835629
 31
0.0
  0
LINE
  5
8543
330
84D5
100
AcDbEntity
  8
3
 62
     0
370
    -2
100
AcDbLine
 10
6381.407928765326
 20
5840.910505835629
 30
0.0
 11
6381.407928765326
 21
5780.910505835629
 31
0.0
  0
LINE
  5
8544
330
84D5
100
AcDbEntity
  8
3
 62
     0
370
    -2
100
AcDbLine
 10
5181.407928765325
 20
5820.910505835629
 30
0.0
 11
6301.407928765326
 21
5820.910505835629
 31
0.0
  0
INSERT
  5
8545
330
84D5
100
AcDbEntity
  8
3
 62
     0
370
    -2
100
AcDbBlockReference
  2
_OPEN
 10
5101.407928765326
 20
5820.910505835629
 30
0.0
 41
80.0
 42
80.0
 43
80.0
 50
180.0
  0
INSERT
  5
8546
330
84D5
100
AcDbEntity
  8
3
 62
     0
370
    -2
100
AcDbBlockReference
  2
_OPEN
 10
6381.407928765326
 20
5820.910505835629
 30
0.0
 41
80.0
 42
80.0
 43
80.0
  0
MTEXT
  5
8547
330
84D5
100
AcDbEntity
  8
3
 62
     0
100
AcDbMText
 10
5741.407928765326
 20
5952.339077264201
 30
0.0
 40
120.0
 41
0.0
 71
     5
 72
     1
  1
\A1;(1280)
 73
     1
 44
1.0
1001
ACAD
1000
MTEXTBEGIN
1070
    73
1070
     1
1070
    44
1040
1.0
1070
    74
1070
     0
1000
MTEXTEND
  0
POINT
  5
8548
330
84D5
100
AcDbEntity
  8
DEFPOINTS
 62
     0
100
AcDbPoint
 10
5101.407928765326
 20
4749.935954207627
 30
0.0
  0
POINT
  5
8549
330
84D5
100
AcDbEntity
  8
DEFPOINTS
 62
     0
100
AcDbPoint
 10
6381.407928765326
 20
5860.910505835629
 30
0.0
  0
POINT
  5
854A
330
84D5
100
AcDbEntity
  8
DEFPOINTS
 62
     0
100
AcDbPoint
 10
6381.407928765326
 20
5820.910505835629
 30
0.0
  0
ENDBLK
  5
84D7
330
84D5
100
AcDbEntity
  8
0
100
AcDbBlockEnd
  0
BLOCK
  5
84E3
330
84E2
100
AcDbEntity
  8
0
100
AcDbBlockBegin
  2
*D32
 70
     1
 10
0.0
 20
0.0
 30
0.0
  3
*D32
  1

  0
LINE
  5
8539
330
84E2
100
AcDbEntity
  8
3
 62
     0
370
    -2
100
AcDbLine
 10
6381.407928765326
 20
5840.910505835629
 30
0.0
 11
6381.407928765326
 21
5780.910505835629
 31
0.0
  0
LINE
  5
853A
330
84E2
100
AcDbEntity
  8
3
 62
     0
370
    -2
100
AcDbLine
 10
7401.407928765324
 20
4313.935954207627
 30
0.0
 11
7401.407928765324
 21
5860.910505835629
 31
0.0
  0
LINE
  5
853B
330
84E2
100
AcDbEntity
  8
3
 62
     0
370
    -2
100
AcDbLine
 10
6461.407928765325
 20
5820.910505835629
 30
0.0
 11
7321.407928765324
 21
5820.910505835629
 31
0.0
  0
INSERT
  5
853C
330
84E2
100
AcDbEntity
  8
3
 62
     0
370
    -2
100
AcDbBlockReference
  2
_OPEN
 10
6381.407928765326
 20
5820.910505835629
 30
0.0
 41
80.0
 42
80.0
 43
80.0
 50
180.0
  0
INSERT
  5
853D
330
84E2
100
AcDbEntity
  8
3
 62
     0
370
    -2
100
AcDbBlockReference
  2
_OPEN
 10
7401.407928765324
 20
5820.910505835629
 30
0.0
 41
80.0
 42
80.0
 43
80.0
  0
MTEXT
  5
853E
330
84E2
100
AcDbEntity
  8
3
 62
     0
100
AcDbMText
 10
6891.407928765326
 20
5952.339077264201
 30
0.0
 40
120.0
 41
0.0
 71
     5
 72
     1
  1
\A1;(1020)
 73
     1
 44
1.0
1001
ACAD
1000
MTEXTBEGIN
1070
    73
1070
     1
1070
    44
1040
1.0
1070
    74
1070
     0
1000
MTEXTEND
  0
POINT
  5
853F
330
84E2
100
AcDbEntity
  8
DEFPOINTS
 62
     0
100
AcDbPoint
 10
6381.407928765326
 20
5860.910505835629
 30
0.0
  0
POINT
  5
8540
330
84E2
100
AcDbEntity
  8
DEFPOINTS
 62
     0
100
AcDbPoint
 10
7401.407928765324
 20
4293.935954207627
 30
0.0
  0
POINT
  5
8541
330
84E2
100
AcDbEntity
  8
DEFPOINTS
 62
     0
100
AcDbPoint
 10
7401.407928765324
 20
5820.910505835629
 30
0.0
  0
ENDBLK
  5
84E4
330
84E2
100
AcDbEntity
  8
0
100
AcDbBlockEnd
  0
BLOCK
  5
854D
330
854C
100
AcDbEntity
  8
0
100
AcDbBlockBegin
  2
*D33
 70
     1
 10
0.0
 20
0.0
 30
0.0
  3
*D33
  1

  0
LINE
  5
854F
330
854C
100
AcDbEntity
  8
3
 62
     0
370
    -2
100
AcDbLine
 10
2026.831659683934
 20
8895.623467839007
 30
0.0
 11
2026.831659683934
 21
9120.259606344193
 31
0.0
  0
LINE
  5
8550
330
854C
100
AcDbEntity
  8
3
 62
     0
370
    -2
100
AcDbLine
 10
3526.831659683934
 20
8895.623467839007
 30
0.0
 11
3526.831659683934
 21
9120.259606344193
 31
0.0
  0
LINE
  5
8551
330
854C
100
AcDbEntity
  8
3
 62
     0
370
    -2
100
AcDbLine
 10
2106.831659683934
 20
9080.259606344192
 30
0.0
 11
3446.831659683934
 21
9080.259606344192
 31
0.0
  0
INSERT
  5
8552
330
854C
100
AcDbEntity
  8
3
 62
     0
370
    -2
100
AcDbBlockReference
  2
_OPEN
 10
2026.831659683934
 20
9080.259606344192
 30
0.0
 41
80.0
 42
80.0
 43
80.0
 50
180.0
  0
INSERT
  5
8553
330
854C
100
AcDbEntity
  8
3
 62
     0
370
    -2
100
AcDbBlockReference
  2
_OPEN
 10
3526.831659683934
 20
9080.259606344192
 30
0.0
 41
80.0
 42
80.0
 43
80.0
  0
MTEXT
  5
8554
330
854C
100
AcDbEntity
  8
3
 62
     0
100
AcDbMText
 10
2776.831659683934
 20
9180.259606344192
 30
0.0
 40
120.0
 41
0.0
 71
     5
 72
     1
  1
\A1;1500
 73
     1
 44
1.0
1001
ACAD
1000
MTEXTBEGIN
1070
    73
1070
     1
1070
    44
1040
1.0
1070
    74
1070
     0
1000
MTEXTEND
  0
POINT
  5
8555
330
854C
100
AcDbEntity
  8
DEFPOINTS
 62
     0
100
AcDbPoint
 10
2026.831659683934
 20
8875.623467839007
 30
0.0
  0
POINT
  5
8556
330
854C
100
AcDbEntity
  8
DEFPOINTS
 62
     0
100
AcDbPoint
 10
3526.831659683934
 20
8875.623467839007
 30
0.0
  0
POINT
  5
8557
330
854C
100
AcDbEntity
  8
DEFPOINTS
 62
     0
100
AcDbPoint
 10
3526.831659683934
 20
9080.259606344192
 30
0.0
  0
ENDBLK
  5
854E
330
854C
100
AcDbEntity
  8
0
100
AcDbBlockEnd
  0
BLOCK
  5
855A
330
8559
100
AcDbEntity
  8
0
100
AcDbBlockBegin
  2
*D34
 70
     1
 10
0.0
 20
0.0
 30
0.0
  3
*D34
  1

  0
LINE
  5
855C
330
8559
100
AcDbEntity
  8
3
 62
     0
370
    -2
100
AcDbLine
 10
3526.831659683934
 20
8895.623467839007
 30
0.0
 11
3526.831659683934
 21
9120.259606344193
 31
0.0
  0
LINE
  5
855D
330
8559
100
AcDbEntity
  8
3
 62
     0
370
    -2
100
AcDbLine
 10
4476.831659683933
 20
7775.623467839007
 30
0.0
 11
4476.831659683933
 21
9120.259606344193
 31
0.0
  0
LINE
  5
855E
330
8559
100
AcDbEntity
  8
3
 62
     0
370
    -2
100
AcDbLine
 10
3606.831659683934
 20
9080.259606344192
 30
0.0
 11
4396.831659683932
 21
9080.259606344192
 31
0.0
  0
INSERT
  5
855F
330
8559
100
AcDbEntity
  8
3
 62
     0
370
    -2
100
AcDbBlockReference
  2
_OPEN
 10
3526.831659683934
 20
9080.259606344192
 30
0.0
 41
80.0
 42
80.0
 43
80.0
 50
180.0
  0
INSERT
  5
8560
330
8559
100
AcDbEntity
  8
3
 62
     0
370
    -2
100
AcDbBlockReference
  2
_OPEN
 10
4476.831659683933
 20
9080.259606344192
 30
0.0
 41
80.0
 42
80.0
 43
80.0
  0
MTEXT
  5
8561
330
8559
100
AcDbEntity
  8
3
 62
     0
100
AcDbMText
 10
4001.831659683933
 20
9180.259606344192
 30
0.0
 40
120.0
 41
0.0
 71
     5
 72
     1
  1
\A1;950
 73
     1
 44
1.0
1001
ACAD
1000
MTEXTBEGIN
1070
    73
1070
     1
1070
    44
1040
1.0
1070
    74
1070
     0
1000
MTEXTEND
  0
POINT
  5
8562
330
8559
100
AcDbEntity
  8
DEFPOINTS
 62
     0
100
AcDbPoint
 10
3526.831659683934
 20
8875.623467839007
 30
0.0
  0
POINT
  5
8563
330
8559
100
AcDbEntity
  8
DEFPOINTS
 62
     0
100
AcDbPoint
 10
4476.831659683933
 20
7755.623467839007
 30
0.0
  0
POINT
  5
8564
330
8559
100
AcDbEntity
  8
DEFPOINTS
 62
     0
100
AcDbPoint
 10
4476.831659683933
 20
9080.259606344192
 30
0.0
  0
ENDBLK
  5
855B
330
8559
100
AcDbEntity
  8
0
100
AcDbBlockEnd
  0
BLOCK
  5
8567
330
8566
100
AcDbEntity
  8
0
100
AcDbBlockBegin
  2
*D35
 70
     1
 10
0.0
 20
0.0
 30
0.0
  3
*D35
  1

  0
LINE
  5
8569
330
8566
100
AcDbEntity
  8
3
 62
     0
370
    -2
100
AcDbLine
 10
4496.831659683933
 20
7755.623467839007
 30
0.0
 11
4783.158060791513
 21
7755.623467839007
 31
0.0
  0
LINE
  5
856A
330
8566
100
AcDbEntity
  8
3
 62
     0
370
    -2
100
AcDbLine
 10
4496.831659683933
 20
6755.623467839007
 30
0.0
 11
4783.158060791513
 21
6755.623467839007
 31
0.0
  0
LINE
  5
856B
330
8566
100
AcDbEntity
  8
3
 62
     0
370
    -2
100
AcDbLine
 10
4743.158060791513
 20
7675.623467839007
 30
0.0
 11
4743.158060791513
 21
6835.623467839008
 31
0.0
  0
INSERT
  5
856C
330
8566
100
AcDbEntity
  8
3
 62
     0
370
    -2
100
AcDbBlockReference
  2
_OPEN
 10
4743.158060791513
 20
7755.623467839007
 30
0.0
 41
80.0
 42
80.0
 43
80.0
 50
90.0
  0
INSERT
  5
856D
330
8566
100
AcDbEntity
  8
3
 62
     0
370
    -2
100
AcDbBlockReference
  2
_OPEN
 10
4743.158060791513
 20
6755.623467839007
 30
0.0
 41
80.0
 42
80.0
 43
80.0
 50
270.0
  0
MTEXT
  5
856E
330
8566
100
AcDbEntity
  8
3
 62
     0
100
AcDbMText
 10
4643.158060791511
 20
7255.623467839008
 30
0.0
 40
120.0
 41
0.0
 71
     5
 72
     1
  1
\A1;1000
 11
0.0000000000000001
 21
1.0
 31
0.0
 73
     1
 44
1.0
1001
ACAD
1000
MTEXTBEGIN
1070
    73
1070
     1
1070
    44
1040
1.0
1070
    74
1070
     0
1000
MTEXTEND
  0
POINT
  5
856F
330
8566
100
AcDbEntity
  8
DEFPOINTS
 62
     0
100
AcDbPoint
 10
4476.831659683933
 20
7755.623467839007
 30
0.0
  0
POINT
  5
8570
330
8566
100
AcDbEntity
  8
DEFPOINTS
 62
     0
100
AcDbPoint
 10
4476.831659683933
 20
6755.623467839007
 30
0.0
  0
POINT
  5
8571
330
8566
100
AcDbEntity
  8
DEFPOINTS
 62
     0
100
AcDbPoint
 10
4743.158060791513
 20
6755.623467839007
 30
0.0
  0
ENDBLK
  5
8568
330
8566
100
AcDbEntity
  8
0
100
AcDbBlockEnd
  0
BLOCK
  5
8574
330
8573
100
AcDbEntity
  8
0
100
AcDbBlockBegin
  2
*D36
 70
     1
 10
0.0
 20
0.0
 30
0.0
  3
*D36
  1

  0
LINE
  5
8576
330
8573
100
AcDbEntity
  8
3
 62
     0
370
    -2
100
AcDbLine
 10
2006.831659683934
 20
8875.623467839007
 30
0.0
 11
1537.8155184481
 21
8875.623467839007
 31
0.0
  0
LINE
  5
8577
330
8573
100
AcDbEntity
  8
3
 62
     0
370
    -2
100
AcDbLine
 10
2006.831659683934
 20
6755.623467839007
 30
0.0
 11
1537.8155184481
 21
6755.623467839007
 31
0.0
  0
LINE
  5
8578
330
8573
100
AcDbEntity
  8
3
 62
     0
370
    -2
100
AcDbLine
 10
1577.8155184481
 20
8795.623467839005
 30
0.0
 11
1577.8155184481
 21
6835.623467839008
 31
0.0
  0
INSERT
  5
8579
330
8573
100
AcDbEntity
  8
3
 62
     0
370
    -2
100
AcDbBlockReference
  2
_OPEN
 10
1577.8155184481
 20
8875.623467839007
 30
0.0
 41
80.0
 42
80.0
 43
80.0
 50
90.0
  0
INSERT
  5
857A
330
8573
100
AcDbEntity
  8
3
 62
     0
370
    -2
100
AcDbBlockReference
  2
_OPEN
 10
1577.8155184481
 20
6755.623467839007
 30
0.0
 41
80.0
 42
80.0
 43
80.0
 50
270.0
  0
MTEXT
  5
857B
330
8573
100
AcDbEntity
  8
3
 62
     0
100
AcDbMText
 10
1477.815518448099
 20
7815.623467839007
 30
0.0
 40
120.0
 41
0.0
 71
     5
 72
     1
  1
\A1;2120
 11
0.0000000000000001
 21
1.0
 31
0.0
 73
     1
 44
1.0
1001
ACAD
1000
MTEXTBEGIN
1070
    73
1070
     1
1070
    44
1040
1.0
1070
    74
1070
     0
1000
MTEXTEND
  0
POINT
  5
857C
330
8573
100
AcDbEntity
  8
DEFPOINTS
 62
     0
100
AcDbPoint
 10
2026.831659683934
 20
8875.623467839007
 30
0.0
  0
POINT
  5
857D
330
8573
100
AcDbEntity
  8
DEFPOINTS
 62
     0
100
AcDbPoint
 10
2026.831659683934
 20
6755.623467839007
 30
0.0
  0
POINT
  5
857E
330
8573
100
AcDbEntity
  8
DEFPOINTS
 62
     0
100
AcDbPoint
 10
1577.8155184481
 20
6755.623467839007
 30
0.0
  0
ENDBLK
  5
8575
330
8573
100
AcDbEntity
  8
0
100
AcDbBlockEnd
  0
BLOCK
  5
8581
330
8580
100
AcDbEntity
  8
0
100
AcDbBlockBegin
  2
*D37
 70
     1
 10
0.0
 20
0.0
 30
0.0
  3
*D37
  1

  0
LINE
  5
8583
330
8580
100
AcDbEntity
  8
3
 62
     0
370
    -2
100
AcDbLine
 10
2026.831659683934
 20
6735.623467839008
 30
0.0
 11
2026.831659683934
 21
6350.869589649355
 31
0.0
  0
LINE
  5
8584
330
8580
100
AcDbEntity
  8
3
 62
     0
370
    -2
100
AcDbLine
 10
4476.831659683933
 20
6735.623467839008
 30
0.0
 11
4476.831659683933
 21
6350.869589649355
 31
0.0
  0
LINE
  5
8585
330
8580
100
AcDbEntity
  8
3
 62
     0
370
    -2
100
AcDbLine
 10
2106.831659683934
 20
6390.869589649355
 30
0.0
 11
4396.831659683932
 21
6390.869589649355
 31
0.0
  0
INSERT
  5
8586
330
8580
100
AcDbEntity
  8
3
 62
     0
370
    -2
100
AcDbBlockReference
  2
_OPEN
 10
2026.831659683934
 20
6390.869589649355
 30
0.0
 41
80.0
 42
80.0
 43
80.0
 50
180.0
  0
INSERT
  5
8587
330
8580
100
AcDbEntity
  8
3
 62
     0
370
    -2
100
AcDbBlockReference
  2
_OPEN
 10
4476.831659683933
 20
6390.869589649355
 30
0.0
 41
80.0
 42
80.0
 43
80.0
  0
MTEXT
  5
8588
330
8580
100
AcDbEntity
  8
3
 62
     0
100
AcDbMText
 10
3251.831659683933
 20
6490.869589649354
 30
0.0
 40
120.0
 41
0.0
 71
     5
 72
     1
  1
\A1;2450
 73
     1
 44
1.0
1001
ACAD
1000
MTEXTBEGIN
1070
    73
1070
     1
1070
    44
1040
1.0
1070
    74
1070
     0
1000
MTEXTEND
  0
POINT
  5
8589
330
8580
100
AcDbEntity
  8
DEFPOINTS
 62
     0
100
AcDbPoint
 10
2026.831659683934
 20
6755.623467839007
 30
0.0
  0
POINT
  5
858A
330
8580
100
AcDbEntity
  8
DEFPOINTS
 62
     0
100
AcDbPoint
 10
4476.831659683933
 20
6755.623467839007
 30
0.0
  0
POINT
  5
858B
330
8580
100
AcDbEntity
  8
DEFPOINTS
 62
     0
100
AcDbPoint
 10
4476.831659683933
 20
6390.869589649355
 30
0.0
  0
ENDBLK
  5
8582
330
8580
100
AcDbEntity
  8
0
100
AcDbBlockEnd
  0
BLOCK
  5
858E
330
858D
100
AcDbEntity
  8
0
100
AcDbBlockBegin
  2
*D38
 70
     1
 10
0.0
 20
0.0
 30
0.0
  3
*D38
  1

  0
LINE
  5
8599
330
858D
100
AcDbEntity
  8
3
 62
     0
370
    -2
100
AcDbLine
 10
4436.831659683934
 20
6677.623467839009
 30
0.0
 11
5548.797359233533
 21
6677.623467839009
 31
0.0
  0
LINE
  5
859A
330
858D
100
AcDbEntity
  8
3
 62
     0
370
    -2
100
AcDbLine
 10
4014.81536383005
 20
7957.623467839008
 30
0.0
 11
5548.797359233533
 21
7957.623467839008
 31
0.0
  0
LINE
  5
859B
330
858D
100
AcDbEntity
  8
3
 62
     0
370
    -2
100
AcDbLine
 10
5508.797359233533
 20
6757.62346783901
 30
0.0
 11
5508.797359233533
 21
7877.623467839008
 31
0.0
  0
INSERT
  5
859C
330
858D
100
AcDbEntity
  8
3
 62
     0
370
    -2
100
AcDbBlockReference
  2
_OPEN
 10
5508.797359233533
 20
6677.623467839009
 30
0.0
 41
80.0
 42
80.0
 43
80.0
 50
270.0
  0
INSERT
  5
859D
330
858D
100
AcDbEntity
  8
3
 62
     0
370
    -2
100
AcDbBlockReference
  2
_OPEN
 10
5508.797359233533
 20
7957.623467839008
 30
0.0
 41
80.0
 42
80.0
 43
80.0
 50
90.0
  0
MTEXT
  5
859E
330
858D
100
AcDbEntity
  8
3
 62
     0
100
AcDbMText
 10
5408.797359233531
 20
7317.62346783901
 30
0.0
 40
120.0
 41
0.0
 71
     5
 72
     1
  1
\A1;1280
 11
0.0000000000000001
 21
1.0
 31
0.0
 73
     1
 44
1.0
1001
ACAD
1000
MTEXTBEGIN
1070
    73
1070
     1
1070
    44
1040
1.0
1070
    74
1070
     0
1000
MTEXTEND
  0
POINT
  5
859F
330
858D
100
AcDbEntity
  8
DEFPOINTS
 62
     0
100
AcDbPoint
 10
4416.831659683934
 20
6677.623467839009
 30
0.0
  0
POINT
  5
85A0
330
858D
100
AcDbEntity
  8
DEFPOINTS
 62
     0
100
AcDbPoint
 10
3994.815363830051
 20
7957.623467839008
 30
0.0
  0
POINT
  5
85A1
330
858D
100
AcDbEntity
  8
DEFPOINTS
 62
     0
100
AcDbPoint
 10
5508.797359233533
 20
7957.623467839008
 30
0.0
  0
ENDBLK
  5
858F
330
858D
100
AcDbEntity
  8
0
100
AcDbBlockEnd
  0
BLOCK
  5
85A4
330
85A3
100
AcDbEntity
  8
0
100
AcDbBlockBegin
  2
*D39
 70
     1
 10
0.0
 20
0.0
 30
0.0
  3
*D39
  1

  0
LINE
  5
85A6
330
85A3
100
AcDbEntity
  8
3
 62
     0
370
    -2
100
AcDbLine
 10
1951.831659683934
 20
4388.935954207628
 30
0.0
 11
1951.831659683934
 21
5574.448112292856
 31
0.0
  0
LINE
  5
85A7
330
85A3
100
AcDbEntity
  8
3
 62
     0
370
    -2
100
AcDbLine
 10
2776.831659683934
 20
5438.534369238305
 30
0.0
 11
2776.831659683934
 21
5574.448112292856
 31
0.0
  0
LINE
  5
85A8
330
85A3
100
AcDbEntity
  8
3
 62
     0
370
    -2
100
AcDbLine
 10
2031.831659683934
 20
5534.448112292857
 30
0.0
 11
2696.831659683934
 21
5534.448112292857
 31
0.0
  0
INSERT
  5
85A9
330
85A3
100
AcDbEntity
  8
3
 62
     0
370
    -2
100
AcDbBlockReference
  2
_OPEN
 10
1951.831659683934
 20
5534.448112292857
 30
0.0
 41
80.0
 42
80.0
 43
80.0
 50
180.0
  0
INSERT
  5
85AA
330
85A3
100
AcDbEntity
  8
3
 62
     0
370
    -2
100
AcDbBlockReference
  2
_OPEN
 10
2776.831659683934
 20
5534.448112292857
 30
0.0
 41
80.0
 42
80.0
 43
80.0
  0
MTEXT
  5
85AB
330
85A3
100
AcDbEntity
  8
3
 62
     0
100
AcDbMText
 10
2364.331659683934
 20
5634.448112292856
 30
0.0
 40
120.0
 41
0.0
 71
     5
 72
     1
  1
\A1;825
 73
     1
 44
1.0
1001
ACAD
1000
MTEXTBEGIN
1070
    73
1070
     1
1070
    44
1040
1.0
1070
    74
1070
     0
1000
MTEXTEND
  0
POINT
  5
85AC
330
85A3
100
AcDbEntity
  8
DEFPOINTS
 62
     0
100
AcDbPoint
 10
1951.831659683934
 20
4368.935954207628
 30
0.0
  0
POINT
  5
85AD
330
85A3
100
AcDbEntity
  8
DEFPOINTS
 62
     0
100
AcDbPoint
 10
2776.831659683934
 20
5418.534369238305
 30
0.0
  0
POINT
  5
85AE
330
85A3
100
AcDbEntity
  8
DEFPOINTS
 62
     0
100
AcDbPoint
 10
2776.831659683934
 20
5534.448112292857
 30
0.0
  0
ENDBLK
  5
85A5
330
85A3
100
AcDbEntity
  8
0
100
AcDbBlockEnd
  0
BLOCK
  5
85B1
330
85B0
100
AcDbEntity
  8
0
100
AcDbBlockBegin
  2
*D40
 70
     1
 10
0.0
 20
0.0
 30
0.0
  3
*D40
  1

  0
LINE
  5
85B3
330
85B0
100
AcDbEntity
  8
3
 62
     0
370
    -2
100
AcDbLine
 10
2776.831659683934
 20
5438.534369238305
 30
0.0
 11
2776.831659683934
 21
5574.448112292856
 31
0.0
  0
LINE
  5
85B4
330
85B0
100
AcDbEntity
  8
3
 62
     0
370
    -2
100
AcDbLine
 10
3855.831659683934
 20
4298.935954207627
 30
0.0
 11
3855.831659683934
 21
5574.448112292856
 31
0.0
  0
LINE
  5
85B5
330
85B0
100
AcDbEntity
  8
3
 62
     0
370
    -2
100
AcDbLine
 10
2856.831659683934
 20
5534.448112292857
 30
0.0
 11
3775.831659683934
 21
5534.448112292857
 31
0.0
  0
INSERT
  5
85B6
330
85B0
100
AcDbEntity
  8
3
 62
     0
370
    -2
100
AcDbBlockReference
  2
_OPEN
 10
2776.831659683934
 20
5534.448112292857
 30
0.0
 41
80.0
 42
80.0
 43
80.0
 50
180.0
  0
INSERT
  5
85B7
330
85B0
100
AcDbEntity
  8
3
 62
     0
370
    -2
100
AcDbBlockReference
  2
_OPEN
 10
3855.831659683934
 20
5534.448112292857
 30
0.0
 41
80.0
 42
80.0
 43
80.0
  0
MTEXT
  5
85B8
330
85B0
100
AcDbEntity
  8
3
 62
     0
100
AcDbMText
 10
3316.331659683934
 20
5634.448112292856
 30
0.0
 40
120.0
 41
0.0
 71
     5
 72
     1
  1
\A1;1079
 73
     1
 44
1.0
1001
ACAD
1000
MTEXTBEGIN
1070
    73
1070
     1
1070
    44
1040
1.0
1070
    74
1070
     0
1000
MTEXTEND
  0
POINT
  5
85B9
330
85B0
100
AcDbEntity
  8
DEFPOINTS
 62
     0
100
AcDbPoint
 10
2776.831659683934
 20
5418.534369238305
 30
0.0
  0
POINT
  5
85BA
330
85B0
100
AcDbEntity
  8
DEFPOINTS
 62
     0
100
AcDbPoint
 10
3855.831659683934
 20
4278.935954207628
 30
0.0
  0
POINT
  5
85BB
330
85B0
100
AcDbEntity
  8
DEFPOINTS
 62
     0
100
AcDbPoint
 10
3855.831659683934
 20
5534.448112292857
 30
0.0
  0
ENDBLK
  5
85B2
330
85B0
100
AcDbEntity
  8
0
100
AcDbBlockEnd
  0
BLOCK
  5
85BE
330
85BD
100
AcDbEntity
  8
0
100
AcDbBlockBegin
  2
*D41
 70
     1
 10
0.0
 20
0.0
 30
0.0
  3
*D41
  1

  0
LINE
  5
85C0
330
85BD
100
AcDbEntity
  8
3
 62
     0
370
    -2
100
AcDbLine
 10
1951.831659683934
 20
4388.935954207628
 30
0.0
 11
1951.831659683934
 21
5855.282770043522
 31
0.0
  0
LINE
  5
85C1
330
85BD
100
AcDbEntity
  8
3
 62
     0
370
    -2
100
AcDbLine
 10
4476.831659683933
 20
3084.935954207627
 30
0.0
 11
4476.831659683933
 21
5855.282770043522
 31
0.0
  0
LINE
  5
85C2
330
85BD
100
AcDbEntity
  8
3
 62
     0
370
    -2
100
AcDbLine
 10
2031.831659683934
 20
5815.282770043522
 30
0.0
 11
4396.831659683932
 21
5815.282770043522
 31
0.0
  0
INSERT
  5
85C3
330
85BD
100
AcDbEntity
  8
3
 62
     0
370
    -2
100
AcDbBlockReference
  2
_OPEN
 10
1951.831659683934
 20
5815.282770043522
 30
0.0
 41
80.0
 42
80.0
 43
80.0
 50
180.0
  0
INSERT
  5
85C4
330
85BD
100
AcDbEntity
  8
3
 62
     0
370
    -2
100
AcDbBlockReference
  2
_OPEN
 10
4476.831659683933
 20
5815.282770043522
 30
0.0
 41
80.0
 42
80.0
 43
80.0
  0
MTEXT
  5
85C5
330
85BD
100
AcDbEntity
  8
3
 62
     0
100
AcDbMText
 10
3214.331659683934
 20
5915.282770043521
 30
0.0
 40
120.0
 41
0.0
 71
     5
 72
     1
  1
\A1;2525
 73
     1
 44
1.0
1001
ACAD
1000
MTEXTBEGIN
1070
    73
1070
     1
1070
    44
1040
1.0
1070
    74
1070
     0
1000
MTEXTEND
  0
POINT
  5
85C6
330
85BD
100
AcDbEntity
  8
DEFPOINTS
 62
     0
100
AcDbPoint
 10
1951.831659683934
 20
4368.935954207628
 30
0.0
  0
POINT
  5
85C7
330
85BD
100
AcDbEntity
  8
DEFPOINTS
 62
     0
100
AcDbPoint
 10
4476.831659683933
 20
3064.935954207627
 30
0.0
  0
POINT
  5
85C8
330
85BD
100
AcDbEntity
  8
DEFPOINTS
 62
     0
100
AcDbPoint
 10
4476.831659683933
 20
5815.282770043522
 30
0.0
  0
ENDBLK
  5
85BF
330
85BD
100
AcDbEntity
  8
0
100
AcDbBlockEnd
  0
BLOCK
  5
85CB
330
85CA
100
AcDbEntity
  8
0
100
AcDbBlockBegin
  2
*D42
 70
     1
 10
0.0
 20
0.0
 30
0.0
  3
*D42
  1

  0
LINE
  5
85CD
330
85CA
100
AcDbEntity
  8
3
 62
     0
370
    -2
100
AcDbLine
 10
1931.831659683934
 20
4315.935954207627
 30
0.0
 11
1658.820626993976
 21
4315.935954207627
 31
0.0
  0
LINE
  5
85CE
330
85CA
100
AcDbEntity
  8
3
 62
     0
370
    -2
100
AcDbLine
 10
1931.831659683934
 20
3035.935954207627
 30
0.0
 11
1658.820626993976
 21
3035.935954207627
 31
0.0
  0
LINE
  5
85CF
330
85CA
100
AcDbEntity
  8
3
 62
     0
370
    -2
100
AcDbLine
 10
1698.820626993977
 20
4235.935954207627
 30
0.0
 11
1698.820626993976
 21
3115.935954207627
 31
0.0
  0
INSERT
  5
85D0
330
85CA
100
AcDbEntity
  8
3
 62
     0
370
    -2
100
AcDbBlockReference
  2
_OPEN
 10
1698.820626993977
 20
4315.935954207627
 30
0.0
 41
80.0
 42
80.0
 43
80.0
 50
90.0
  0
INSERT
  5
85D1
330
85CA
100
AcDbEntity
  8
3
 62
     0
370
    -2
100
AcDbBlockReference
  2
_OPEN
 10
1698.820626993976
 20
3035.935954207627
 30
0.0
 41
80.0
 42
80.0
 43
80.0
 50
270.0
  0
MTEXT
  5
85D2
330
85CA
100
AcDbEntity
  8
3
 62
     0
100
AcDbMText
 10
1598.820626993975
 20
3675.935954207627
 30
0.0
 40
120.0
 41
0.0
 71
     5
 72
     1
  1
\A1;1280
 11
0.0000000000000001
 21
1.0
 31
0.0
 73
     1
 44
1.0
1001
ACAD
1000
MTEXTBEGIN
1070
    73
1070
     1
1070
    44
1040
1.0
1070
    74
1070
     0
1000
MTEXTEND
  0
POINT
  5
85D3
330
85CA
100
AcDbEntity
  8
DEFPOINTS
 62
     0
100
AcDbPoint
 10
1951.831659683934
 20
4315.935954207627
 30
0.0
  0
POINT
  5
85D4
330
85CA
100
AcDbEntity
  8
DEFPOINTS
 62
     0
100
AcDbPoint
 10
1951.831659683934
 20
3035.935954207627
 30
0.0
  0
POINT
  5
85D5
330
85CA
100
AcDbEntity
  8
DEFPOINTS
 62
     0
100
AcDbPoint
 10
1698.820626993976
 20
3035.935954207627
 30
0.0
  0
ENDBLK
  5
85CC
330
85CA
100
AcDbEntity
  8
0
100
AcDbBlockEnd
  0
BLOCK
  5
85D8
330
85D7
100
AcDbEntity
  8
0
100
AcDbBlockBegin
  2
*D43
 70
     1
 10
0.0
 20
0.0
 30
0.0
  3
*D43
  1

  0
LINE
  5
85DA
330
85D7
100
AcDbEntity
  8
3
 62
     0
370
    -2
100
AcDbLine
 10
1931.831659683934
 20
3035.935954207627
 30
0.0
 11
1411.757784537447
 21
3035.935954207627
 31
0.0
  0
LINE
  5
85DB
330
85D7
100
AcDbEntity
  8
3
 62
     0
370
    -2
100
AcDbLine
 10
1919.310814992313
 20
4369.935954207627
 30
0.0
 11
1411.757784537447
 21
4369.935954207627
 31
0.0
  0
LINE
  5
85DC
330
85D7
100
AcDbEntity
  8
3
 62
     0
370
    -2
100
AcDbLine
 10
1451.757784537447
 20
3115.935954207627
 30
0.0
 11
1451.757784537447
 21
4289.935954207627
 31
0.0
  0
INSERT
  5
85DD
330
85D7
100
AcDbEntity
  8
3
 62
     0
370
    -2
100
AcDbBlockReference
  2
_OPEN
 10
1451.757784537447
 20
3035.935954207627
 30
0.0
 41
80.0
 42
80.0
 43
80.0
 50
270.0
  0
INSERT
  5
85DE
330
85D7
100
AcDbEntity
  8
3
 62
     0
370
    -2
100
AcDbBlockReference
  2
_OPEN
 10
1451.757784537447
 20
4369.935954207627
 30
0.0
 41
80.0
 42
80.0
 43
80.0
 50
90.0
  0
MTEXT
  5
85DF
330
85D7
100
AcDbEntity
  8
3
 62
     0
100
AcDbMText
 10
1351.757784537446
 20
3702.935954207627
 30
0.0
 40
120.0
 41
0.0
 71
     5
 72
     1
  1
\A1;1334
 11
0.0000000000000001
 21
1.0
 31
0.0
 73
     1
 44
1.0
1001
ACAD
1000
MTEXTBEGIN
1070
    73
1070
     1
1070
    44
1040
1.0
1070
    74
1070
     0
1000
MTEXTEND
  0
POINT
  5
85E0
330
85D7
100
AcDbEntity
  8
DEFPOINTS
 62
     0
100
AcDbPoint
 10
1951.831659683934
 20
3035.935954207627
 30
0.0
  0
POINT
  5
85E1
330
85D7
100
AcDbEntity
  8
DEFPOINTS
 62
     0
100
AcDbPoint
 10
1939.310814992313
 20
4369.935954207627
 30
0.0
  0
POINT
  5
85E2
330
85D7
100
AcDbEntity
  8
DEFPOINTS
 62
     0
100
AcDbPoint
 10
1451.757784537447
 20
4369.935954207627
 30
0.0
  0
ENDBLK
  5
85D9
330
85D7
100
AcDbEntity
  8
0
100
AcDbBlockEnd
  0
BLOCK
  5
85E5
330
85E4
100
AcDbEntity
  8
0
100
AcDbBlockBegin
  2
*D44
 70
     1
 10
0.0
 20
0.0
 30
0.0
  3
*D44
  1

  0
LINE
  5
85E7
330
85E4
100
AcDbEntity
  8
3
 62
     0
370
    -2
100
AcDbLine
 10
2847.831659683933
 20
5266.935954207628
 30
0.0
 11
1160.642070885875
 21
5266.935954207629
 31
0.0
  0
LINE
  5
85E8
330
85E4
100
AcDbEntity
  8
3
 62
     0
370
    -2
100
AcDbLine
 10
1919.310814992313
 20
4369.935954207627
 30
0.0
 11
1160.642070885875
 21
4369.935954207627
 31
0.0
  0
LINE
  5
85E9
330
85E4
100
AcDbEntity
  8
3
 62
     0
370
    -2
100
AcDbLine
 10
1200.642070885875
 20
5186.935954207629
 30
0.0
 11
1200.642070885875
 21
4449.935954207627
 31
0.0
  0
INSERT
  5
85EA
330
85E4
100
AcDbEntity
  8
3
 62
     0
370
    -2
100
AcDbBlockReference
  2
_OPEN
 10
1200.642070885875
 20
5266.935954207629
 30
0.0
 41
80.0
 42
80.0
 43
80.0
 50
90.0
  0
INSERT
  5
85EB
330
85E4
100
AcDbEntity
  8
3
 62
     0
370
    -2
100
AcDbBlockReference
  2
_OPEN
 10
1200.642070885875
 20
4369.935954207627
 30
0.0
 41
80.0
 42
80.0
 43
80.0
 50
270.0
  0
MTEXT
  5
85EC
330
85E4
100
AcDbEntity
  8
3
 62
     0
100
AcDbMText
 10
1100.642070885874
 20
4818.435954207628
 30
0.0
 40
120.0
 41
0.0
 71
     5
 72
     1
  1
\A1;897
 11
0.0000000000000001
 21
1.0
 31
0.0
 73
     1
 44
1.0
1001
ACAD
1000
MTEXTBEGIN
1070
    73
1070
     1
1070
    44
1040
1.0
1070
    74
1070
     0
1000
MTEXTEND
  0
POINT
  5
85ED
330
85E4
100
AcDbEntity
  8
DEFPOINTS
 62
     0
100
AcDbPoint
 10
2867.831659683934
 20
5266.935954207628
 30
0.0
  0
POINT
  5
85EE
330
85E4
100
AcDbEntity
  8
DEFPOINTS
 62
     0
100
AcDbPoint
 10
1939.310814992313
 20
4369.935954207627
 30
0.0
  0
POINT
  5
85EF
330
85E4
100
AcDbEntity
  8
DEFPOINTS
 62
     0
100
AcDbPoint
 10
1200.642070885875
 20
4369.935954207627
 30
0.0
  0
ENDBLK
  5
85E6
330
85E4
100
AcDbEntity
  8
0
100
AcDbBlockEnd
  0
BLOCK
  5
85F2
330
85F1
100
AcDbEntity
  8
0
100
AcDbBlockBegin
  2
*D45
 70
     1
 10
0.0
 20
0.0
 30
0.0
  3
*D45
  1

  0
LINE
  5
85F4
330
85F1
100
AcDbEntity
  8
3
 62
     0
370
    -2
100
AcDbLine
 10
1919.310814992313
 20
4369.935954207627
 30
0.0
 11
1160.642070885875
 21
4369.935954207627
 31
0.0
  0
LINE
  5
85F5
330
85F1
100
AcDbEntity
  8
3
 62
     0
370
    -2
100
AcDbLine
 10
2006.831659683934
 20
2939.935954207627
 30
0.0
 11
1160.642070885875
 21
2939.935954207627
 31
0.0
  0
LINE
  5
85F6
330
85F1
100
AcDbEntity
  8
3
 62
     0
370
    -2
100
AcDbLine
 10
1200.642070885875
 20
4289.935954207627
 30
0.0
 11
1200.642070885875
 21
3019.935954207627
 31
0.0
  0
INSERT
  5
85F7
330
85F1
100
AcDbEntity
  8
3
 62
     0
370
    -2
100
AcDbBlockReference
  2
_OPEN
 10
1200.642070885875
 20
4369.935954207627
 30
0.0
 41
80.0
 42
80.0
 43
80.0
 50
90.0
  0
INSERT
  5
85F8
330
85F1
100
AcDbEntity
  8
3
 62
     0
370
    -2
100
AcDbBlockReference
  2
_OPEN
 10
1200.642070885875
 20
2939.935954207627
 30
0.0
 41
80.0
 42
80.0
 43
80.0
 50
270.0
  0
MTEXT
  5
85F9
330
85F1
100
AcDbEntity
  8
3
 62
     0
100
AcDbMText
 10
1100.642070885874
 20
3654.935954207628
 30
0.0
 40
120.0
 41
0.0
 71
     5
 72
     1
  1
\A1;1430
 11
0.0000000000000001
 21
1.0
 31
0.0
 73
     1
 44
1.0
1001
ACAD
1000
MTEXTBEGIN
1070
    73
1070
     1
1070
    44
1040
1.0
1070
    74
1070
     0
1000
MTEXTEND
  0
POINT
  5
85FA
330
85F1
100
AcDbEntity
  8
DEFPOINTS
 62
     0
100
AcDbPoint
 10
1939.310814992313
 20
4369.935954207627
 30
0.0
  0
POINT
  5
85FB
330
85F1
100
AcDbEntity
  8
DEFPOINTS
 62
     0
100
AcDbPoint
 10
2026.831659683934
 20
2939.935954207627
 30
0.0
  0
POINT
  5
85FC
330
85F1
100
AcDbEntity
  8
DEFPOINTS
 62
     0
100
AcDbPoint
 10
1200.642070885875
 20
2939.935954207627
 30
0.0
  0
ENDBLK
  5
85F3
330
85F1
100
AcDbEntity
  8
0
100
AcDbBlockEnd
  0
BLOCK
  5
85FF
330
85FE
100
AcDbEntity
  8
0
100
AcDbBlockBegin
  2
*D46
 70
     1
 10
0.0
 20
0.0
 30
0.0
  3
*D46
  1

  0
LINE
  5
86C3
330
85FE
100
AcDbEntity
  8
3
 62
     0
370
    -2
100
AcDbLine
 10
2006.831659683934
 20
2939.935954207627
 30
0.0
 11
1160.642070885875
 21
2939.935954207627
 31
0.0
  0
LINE
  5
86C4
330
85FE
100
AcDbEntity
  8
3
 62
     0
370
    -2
100
AcDbLine
 10
2006.831659683934
 20
2919.935954207627
 30
0.0
 11
1160.642070885875
 21
2919.935954207627
 31
0.0
  0
LINE
  5
86C5
330
85FE
100
AcDbEntity
  8
3
 62
     0
370
    -2
100
AcDbLine
 10
1200.642070885875
 20
3019.935954207627
 30
0.0
 11
1200.642070885875
 21
3099.935954207627
 31
0.0
  0
LINE
  5
86C6
330
85FE
100
AcDbEntity
  8
3
 62
     0
370
    -2
100
AcDbLine
 10
1200.642070885875
 20
2919.935954207627
 30
0.0
 11
1200.642070885875
 21
2839.935954207627
 31
0.0
  0
LINE
  5
86C7
330
85FE
100
AcDbEntity
  8
3
 62
     0
370
    -2
100
AcDbLine
 10
1200.642070885875
 20
2929.935954207627
 30
0.0
 11
1009.213499457303
 21
2987.364525636199
 31
0.0
  0
LINE
  5
86C8
330
85FE
100
AcDbEntity
  8
3
 62
     0
370
    -2
100
AcDbLine
 10
1009.213499457303
 20
2987.364525636199
 30
0.0
 11
1009.213499457303
 21
3415.935954207628
 31
0.0
  0
MTEXT
  5
86C9
330
85FE
100
AcDbEntity
  8
3
 62
     0
100
AcDbMText
 10
877.7849280287314
 20
3201.650239921913
 30
0.0
 40
120.0
 41
0.0
 71
     5
 72
     1
  1
\A1;(20)
 11
0.0000000000000001
 21
1.0
 31
0.0
 73
     1
 44
1.0
1001
ACAD
1000
MTEXTBEGIN
1070
    73
1070
     1
1070
    44
1040
1.0
1070
    74
1070
     0
1000
MTEXTEND
  0
LINE
  5
86CA
330
85FE
100
AcDbEntity
  8
3
 62
     0
370
    -2
100
AcDbLine
 10
1200.642070885875
 20
2939.935954207627
 30
0.0
 11
1200.642070885875
 21
2919.935954207627
 31
0.0
  0
LINE
  5
86CB
330
85FE
100
AcDbEntity
  8
3
 62
     0
370
    -2
100
AcDbLine
 10
1200.642070885875
 20
2939.935954207627
 30
0.0
 11
1200.642070885875
 21
2919.935954207627
 31
0.0
  0
INSERT
  5
86CC
330
85FE
100
AcDbEntity
  8
3
 62
     0
370
    -2
100
AcDbBlockReference
  2
_OPEN
 10
1200.642070885875
 20
2939.935954207627
 30
0.0
 41
80.0
 42
80.0
 43
80.0
 50
270.0
  0
INSERT
  5
86CD
330
85FE
100
AcDbEntity
  8
3
 62
     0
370
    -2
100
AcDbBlockReference
  2
_DotSmall
 10
1200.642070885875
 20
2919.935954207627
 30
0.0
 41
80.0
 42
80.0
 43
80.0
 50
90.0
  0
POINT
  5
86CE
330
85FE
100
AcDbEntity
  8
DEFPOINTS
 62
     0
100
AcDbPoint
 10
2026.831659683934
 20
2939.935954207627
 30
0.0
  0
POINT
  5
86CF
330
85FE
100
AcDbEntity
  8
DEFPOINTS
 62
     0
100
AcDbPoint
 10
2026.831659683934
 20
2919.935954207627
 30
0.0
  0
POINT
  5
86D0
330
85FE
100
AcDbEntity
  8
DEFPOINTS
 62
     0
100
AcDbPoint
 10
1200.642070885875
 20
2919.935954207627
 30
0.0
  0
ENDBLK
  5
8600
330
85FE
100
AcDbEntity
  8
0
100
AcDbBlockEnd
  0
BLOCK
  5
8611
330
8610
100
AcDbEntity
  8
0
100
AcDbBlockBegin
  2
*D47
 70
     1
 10
0.0
 20
0.0
 30
0.0
  3
*D47
  1

  0
LINE
  5
871F
330
8610
100
AcDbEntity
  8
3
 62
     0
370
    -2
100
AcDbLine
 10
2006.831659683934
 20
2919.935954207627
 30
0.0
 11
1160.642070885875
 21
2919.935954207627
 31
0.0
  0
LINE
  5
8720
330
8610
100
AcDbEntity
  8
3
 62
     0
370
    -2
100
AcDbLine
 10
2006.831659683934
 20
2854.935954207627
 30
0.0
 11
1160.642070885875
 21
2854.935954207627
 31
0.0
  0
LINE
  5
8721
330
8610
100
AcDbEntity
  8
3
 62
     0
370
    -2
100
AcDbLine
 10
1200.642070885875
 20
2919.935954207627
 30
0.0
 11
1200.642070885875
 21
2999.935954207627
 31
0.0
  0
LINE
  5
8722
330
8610
100
AcDbEntity
  8
3
 62
     0
370
    -2
100
AcDbLine
 10
1200.642070885875
 20
2774.935954207627
 30
0.0
 11
1200.642070885875
 21
2694.935954207627
 31
0.0
  0
MTEXT
  5
8723
330
8610
100
AcDbEntity
  8
3
 62
     0
100
AcDbMText
 10
1100.642070885875
 20
2694.935954207627
 30
0.0
 40
120.0
 41
0.0
 71
     5
 72
     1
  1
\A1;65
 11
0.0000000000000001
 21
1.0
 31
0.0
 73
     1
 44
1.0
1001
ACAD
1000
MTEXTBEGIN
1070
    73
1070
     1
1070
    44
1040
1.0
1070
    74
1070
     0
1000
MTEXTEND
  0
LINE
  5
8724
330
8610
100
AcDbEntity
  8
3
 62
     0
370
    -2
100
AcDbLine
 10
1200.642070885875
 20
2919.935954207627
 30
0.0
 11
1200.642070885875
 21
2854.935954207627
 31
0.0
  0
INSERT
  5
8725
330
8610
100
AcDbEntity
  8
3
 62
     0
370
    -2
100
AcDbBlockReference
  2
_DotSmall
 10
1200.642070885875
 20
2919.935954207627
 30
0.0
 41
80.0
 42
80.0
 43
80.0
 50
270.0
  0
INSERT
  5
8726
330
8610
100
AcDbEntity
  8
3
 62
     0
370
    -2
100
AcDbBlockReference
  2
_OPEN
 10
1200.642070885875
 20
2854.935954207627
 30
0.0
 41
80.0
 42
80.0
 43
80.0
 50
90.0
  0
POINT
  5
8727
330
8610
100
AcDbEntity
  8
DEFPOINTS
 62
     0
100
AcDbPoint
 10
2026.831659683934
 20
2919.935954207627
 30
0.0
  0
POINT
  5
8728
330
8610
100
AcDbEntity
  8
DEFPOINTS
 62
     0
100
AcDbPoint
 10
2026.831659683934
 20
2854.935954207627
 30
0.0
  0
POINT
  5
8729
330
8610
100
AcDbEntity
  8
DEFPOINTS
 62
     0
100
AcDbPoint
 10
1200.642070885875
 20
2854.935954207627
 30
0.0
  0
ENDBLK
  5
8612
330
8610
100
AcDbEntity
  8
0
100
AcDbBlockEnd
  0
BLOCK
  5
8623
330
8622
100
AcDbEntity
  8
0
100
AcDbBlockBegin
  2
*D48
 70
     1
 10
0.0
 20
0.0
 30
0.0
  3
*D48
  1

  0
LINE
  5
8733
330
8622
100
AcDbEntity
  8
3
 62
     0
370
    -2
100
AcDbLine
 10
2006.831659683934
 20
2854.935954207627
 30
0.0
 11
696.2562497068129
 21
2854.935954207628
 31
0.0
  0
LINE
  5
8734
330
8622
100
AcDbEntity
  8
3
 62
     0
370
    -2
100
AcDbLine
 10
2847.831659683933
 20
5266.935954207628
 30
0.0
 11
696.2562497068136
 21
5266.935954207629
 31
0.0
  0
LINE
  5
8735
330
8622
100
AcDbEntity
  8
3
 62
     0
370
    -2
100
AcDbLine
 10
736.256249706813
 20
2934.935954207627
 30
0.0
 11
736.2562497068134
 21
5186.935954207629
 31
0.0
  0
INSERT
  5
8736
330
8622
100
AcDbEntity
  8
3
 62
     0
370
    -2
100
AcDbBlockReference
  2
_OPEN
 10
736.256249706813
 20
2854.935954207628
 30
0.0
 41
80.0
 42
80.0
 43
80.0
 50
270.0
  0
INSERT
  5
8737
330
8622
100
AcDbEntity
  8
3
 62
     0
370
    -2
100
AcDbBlockReference
  2
_OPEN
 10
736.2562497068134
 20
5266.935954207629
 30
0.0
 41
80.0
 42
80.0
 43
80.0
 50
90.0
  0
MTEXT
  5
8738
330
8622
100
AcDbEntity
  8
3
 62
     0
100
AcDbMText
 10
604.8276782782411
 20
4060.935954207628
 30
0.0
 40
120.0
 41
0.0
 71
     5
 72
     1
  1
\A1;(2412)
 11
0.0000000000000001
 21
1.0
 31
0.0
 73
     1
 44
1.0
1001
ACAD
1000
MTEXTBEGIN
1070
    73
1070
     1
1070
    44
1040
1.0
1070
    74
1070
     0
1000
MTEXTEND
  0
POINT
  5
8739
330
8622
100
AcDbEntity
  8
DEFPOINTS
 62
     0
100
AcDbPoint
 10
2026.831659683934
 20
2854.935954207627
 30
0.0
  0
POINT
  5
873A
330
8622
100
AcDbEntity
  8
DEFPOINTS
 62
     0
100
AcDbPoint
 10
2867.831659683934
 20
5266.935954207628
 30
0.0
  0
POINT
  5
873B
330
8622
100
AcDbEntity
  8
DEFPOINTS
 62
     0
100
AcDbPoint
 10
736.2562497068134
 20
5266.935954207629
 30
0.0
  0
ENDBLK
  5
8624
330
8622
100
AcDbEntity
  8
0
100
AcDbBlockEnd
  0
BLOCK
  5
86C1
330
86BF
100
AcDbEntity
  8
0
100
AcDbBlockBegin
  2
_DotSmall
 70
     0
 10
0.0
 20
0.0
 30
0.0
  3
_DotSmall
  1

  0
LWPOLYLINE
  5
86C0
330
86BF
100
AcDbEntity
  8
0
  6
ByBlock
 62
     0
100
AcDbPolyline
 90
        2
 70
     1
 43
0.5
 10
-0.0625
 20
0.0
 42
1.0
 10
0.0625
 20
0.0
 42
1.0
  0
ENDBLK
  5
86C2
330
86BF
100
AcDbEntity
  8
0
100
AcDbBlockEnd
  0
ENDSEC
  0
SECTION
  2
ENTITIES
  0
INSERT
  5
7C0C
330
8413
100
AcDbEntity
  8
1
100
AcDbBlockReference
  2
YA_N
 10
6.0
 20
5.0
 30
0.0
  0
LINE
  5
7C0D
330
8413
100
AcDbEntity
  8
2
100
AcDbLine
 10
2776.831659683934
 20
5418.534369238305
 30
0.0
 11
2776.831659683934
 21
2854.935954207626
 31
0.0
  0
LINE
  5
7C0E
330
8413
100
AcDbEntity
  8
1
100
AcDbLine
 10
5179.407928765326
 20
2939.935954207627
 30
0.0
 11
7299.407928765326
 21
2939.935954207627
 31
0.0
1001
ACAD
1000
ASC_BOUNDS
1002
{
1070
    19
1005
0
1005
0
1002
}
  0
LINE
  5
7C0F
330
8413
100
AcDbEntity
  8
1
100
AcDbLine
 10
5179.407928765326
 20
3064.935954207627
 30
0.0
 11
7299.407928765325
 21
3064.935954207627
 31
0.0
  0
LINE
  5
7C10
330
8413
100
AcDbEntity
  8
1
100
AcDbLine
 10
7231.407928765325
 20
3064.935954207627
 30
0.0
 11
7231.407928765325
 21
4315.935954207627
 31
0.0
  0
LINE
  5
7C12
330
8413
100
AcDbEntity
  8
1
100
AcDbLine
 10
5478.407928765324
 20
3064.935954207627
 30
0.0
 11
5478.407928765324
 21
3124.935954207629
 31
0.0
  0
LINE
  5
7C13
330
8413
100
AcDbEntity
  8
2
100
AcDbLine
 10
3984.37259322367
 20
4369.935954207627
 30
0.0
 11
1939.310814992313
 21
4369.935954207627
 31
0.0
  0
LINE
  5
7C14
330
8413
100
AcDbEntity
  8
2
100
AcDbLine
 10
5166.107928765327
 20
4369.935954207627
 30
0.0
 11
7414.918415004563
 21
4369.935954207627
 31
0.0
  0
LINE
  5
7C15
330
8413
100
AcDbEntity
  8
2
100
AcDbLine
 10
5109.90520216895
 20
3324.935954207627
 30
0.0
 11
6077.581026044529
 21
3324.935954207627
 31
0.0
  0
LINE
  5
7C16
330
8413
100
AcDbEntity
  8
1
100
AcDbLine
 10
5186.407928765326
 20
3430.935954207626
 30
0.0
 11
5264.307928765326
 21
3430.935954207626
 31
0.0
  0
LINE
  5
7C17
330
8413
100
AcDbEntity
  8
1
100
AcDbLine
 10
5186.407928765326
 20
3218.935954207627
 30
0.0
 11
5264.307928765326
 21
3218.935954207627
 31
0.0
  0
LINE
  5
7C18
330
8413
100
AcDbEntity
  8
1
100
AcDbLine
 10
5284.407928765325
 20
4439.935954207627
 30
0.0
 11
5284.407928765325
 21
4299.935954207627
 31
0.0
  0
LINE
  5
7C19
330
8413
100
AcDbEntity
  8
1
100
AcDbLine
 10
5264.307928765326
 20
4623.935954207627
 30
0.0
 11
5264.307928765326
 21
4439.935954207627
 31
0.0
  0
LINE
  5
7C1A
330
8413
100
AcDbEntity
  8
1
100
AcDbLine
 10
5264.307928765326
 20
4439.935954207627
 30
0.0
 11
5284.407928765325
 21
4439.935954207627
 31
0.0
  0
LINE
  5
7C1B
330
8413
100
AcDbEntity
  8
1
100
AcDbLine
 10
5264.307928765326
 20
4299.935954207627
 30
0.0
 11
5284.407928765325
 21
4299.935954207627
 31
0.0
  0
LINE
  5
7C1C
330
8413
100
AcDbEntity
  8
1
100
AcDbLine
 10
5264.307928765326
 20
4299.935954207627
 30
0.0
 11
5264.307928765326
 21
3384.935954207627
 31
0.0
  0
LINE
  5
7C1D
330
8413
100
AcDbEntity
  8
1
100
AcDbLine
 10
5186.407928765326
 20
4623.935954207627
 30
0.0
 11
5186.407928765326
 21
3218.935954207627
 31
0.0
  0
LINE
  5
7C1E
330
8413
100
AcDbEntity
  8
1
100
AcDbLine
 10
5279.407928765326
 20
3384.935954207627
 30
0.0
 11
5279.407928765326
 21
3264.935954207627
 31
0.0
  0
LINE
  5
7C1F
330
8413
100
AcDbEntity
  8
1
100
AcDbLine
 10
5264.307928765326
 20
3384.935954207627
 30
0.0
 11
5279.407928765326
 21
3384.935954207627
 31
0.0
  0
LINE
  5
7C20
330
8413
100
AcDbEntity
  8
1
100
AcDbLine
 10
5264.307928765326
 20
3264.935954207627
 30
0.0
 11
5279.407928765326
 21
3264.935954207627
 31
0.0
  0
LINE
  5
7C21
330
8413
100
AcDbEntity
  8
1
100
AcDbLine
 10
5264.307928765326
 20
3264.935954207627
 30
0.0
 11
5264.307928765326
 21
3218.935954207627
 31
0.0
  0
LINE
  5
7C22
330
8413
100
AcDbEntity
  8
1
100
AcDbLine
 10
5101.407928765327
 20
3104.935954207627
 30
0.0
 11
5346.407928765327
 21
3104.935954207627
 31
0.0
  0
LINE
  5
7C23
330
8413
100
AcDbEntity
  8
1
100
AcDbLine
 10
5101.407928765327
 20
4749.935954207627
 30
0.0
 11
5101.407928765327
 21
3104.935954207627
 31
0.0
  0
LINE
  5
7C24
330
8413
100
AcDbEntity
  8
1
100
AcDbLine
 10
5346.407928765326
 20
4749.935954207627
 30
0.0
 11
5346.407928765327
 21
4729.935954207627
 31
0.0
  0
LINE
  5
7C25
330
8413
100
AcDbEntity
  8
2
100
AcDbLine
 10
2776.831659683934
 20
8975.307810564771
 30
0.0
 11
2776.831659683934
 21
6640.130133296469
 31
0.0
  0
LINE
  5
7C26
330
8413
100
AcDbEntity
  8
2
100
AcDbLine
 10
4196.831659683934
 20
7630.440686962332
 30
0.0
 11
4196.831659683934
 21
6627.011154728186
 31
0.0
  0
LINE
  5
7C27
330
8413
100
AcDbEntity
  8
2
100
AcDbLine
 10
6381.407928765326
 20
5474.212796594279
 30
0.0
 11
6381.407928765328
 21
2854.935954207626
 31
0.0
  0
INSERT
  5
7C28
330
8413
100
AcDbEntity
  8
1
100
AcDbBlockReference
  2
YA_N
 10
-1757.227407310314
 20
-1218.78641745778
 30
0.0
 41
30.0
 42
30.0
 43
30.0
  0
INSERT
  5
7C29
330
8413
100
AcDbEntity
  8
1
100
AcDbBlockReference
  2
YA_N
 10
-755.2436758818473
 20
-538.554984833856
 30
0.0
 41
30.0
 42
30.0
 43
30.0
  0
LINE
  5
7C2A
330
8413
100
AcDbEntity
  8
1
100
AcDbLine
 10
5179.407928765324
 20
2919.935954207627
 30
0.0
 11
7299.407928765325
 21
2919.935954207627
 31
0.0
1001
ACAD
1000
ASC_BOUNDS
1002
{
1070
    19
1005
0
1005
0
1002
}
  0
LINE
  5
7C2B
330
8413
100
AcDbEntity
  8
1
100
AcDbLine
 10
5179.407928765325
 20
2854.935954207627
 30
0.0
 11
7299.407928765325
 21
2854.935954207627
 31
0.0
  0
LINE
  5
7C2C
330
8413
100
AcDbEntity
  8
1
100
AcDbLine
 10
7299.407928765325
 20
2919.935954207627
 30
0.0
 11
7299.407928765325
 21
2854.935954207627
 31
0.0
  0
LINE
  5
7C2D
330
8413
100
AcDbEntity
  8
1
100
AcDbLine
 10
7231.407928765325
 20
4315.935954207627
 30
0.0
 11
7231.407928765325
 21
5266.935954207627
 31
0.0
  0
LINE
  5
7C2E
330
8413
100
AcDbEntity
  8
1
100
AcDbLine
 10
5531.407928765325
 20
4315.935954207627
 30
0.0
 11
5531.407928765328
 21
5266.935954207627
 31
0.0
  0
LINE
  5
7C2F
330
8413
100
AcDbEntity
  8
1
100
AcDbLine
 10
2026.831659683934
 20
8875.623467839007
 30
0.0
 11
3526.831659683934
 21
8875.623467839009
 31
0.0
  0
LINE
  5
7C30
330
8413
100
AcDbEntity
  8
1
100
AcDbLine
 10
2026.831659683934
 20
6755.623467839007
 30
0.0
 11
4476.831659683933
 21
6755.623467839007
 31
0.0
  0
LINE
  5
7C31
330
8413
100
AcDbEntity
  8
1
100
AcDbLine
 10
2026.831659683934
 20
8875.623467839007
 30
0.0
 11
2026.831659683934
 21
8807.623467839011
 31
0.0
  0
LINE
  5
7C32
330
8413
100
AcDbEntity
  8
1
100
AcDbLine
 10
4476.831659683933
 20
7755.623467839007
 30
0.0
 11
4476.831659683933
 21
6755.623467839007
 31
0.0
  0
LINE
  5
7C33
330
8413
100
AcDbEntity
  8
1
100
AcDbLine
 10
3526.831659683934
 20
8875.623467839007
 30
0.0
 11
3526.831659683934
 21
8807.623467839011
 31
0.0
  0
LINE
  5
7C34
330
8413
100
AcDbEntity
  8
1
100
AcDbLine
 10
3855.831659683934
 20
7755.623467839007
 30
0.0
 11
4476.831659683933
 21
7755.623467839007
 31
0.0
  0
LINE
  5
7C36
330
8413
100
AcDbEntity
  8
1
100
AcDbLine
 10
5373.907928765326
 20
4293.935954207627
 30
0.0
 11
5373.907928765326
 21
4163.935954207627
 31
0.0
  0
LINE
  5
7C37
330
8413
100
AcDbEntity
  8
1
100
AcDbLine
 10
5513.907928765326
 20
4303.935954207627
 30
0.0
 11
5513.907928765326
 21
4153.935954207628
 31
0.0
  0
LINE
  5
7C38
330
8413
100
AcDbEntity
  8
1
100
AcDbLine
 10
5383.907928765328
 20
4303.935954207627
 30
0.0
 11
5454.107928765328
 21
4303.935954207627
 31
0.0
  0
LINE
  5
7C39
330
8413
100
AcDbEntity
  8
1
100
AcDbLine
 10
5383.907928765328
 20
4153.935954207628
 30
0.0
 11
5454.107928765328
 21
4153.935954207628
 31
0.0
  0
ARC
  5
7C3A
330
8413
100
AcDbEntity
  8
1
100
AcDbCircle
 10
5383.907928765328
 20
4293.935954207627
 30
0.0
 40
10.0
100
AcDbArc
 50
90.0
 51
180.0
  0
ARC
  5
7C3B
330
8413
100
AcDbEntity
  8
1
100
AcDbCircle
 10
5383.907928765328
 20
4163.935954207627
 30
0.0
 40
10.0
100
AcDbArc
 50
180.0
 51
270.0
  0
LINE
  5
7C3C
330
8413
100
AcDbEntity
  8
1
100
AcDbLine
 10
5454.107928765328
 20
4153.935954207628
 30
0.0
 11
5513.907928765326
 21
4153.935954207628
 31
0.0
  0
LINE
  5
7C3D
330
8413
100
AcDbEntity
  8
1
100
AcDbLine
 10
5454.107928765328
 20
4303.935954207627
 30
0.0
 11
5513.907928765326
 21
4303.935954207627
 31
0.0
  0
LINE
  5
7C3E
330
8413
100
AcDbEntity
  8
1
100
AcDbLine
 10
7401.407928765324
 20
4293.935954207627
 30
0.0
 11
7401.407928765324
 21
4163.935954207627
 31
0.0
  0
LINE
  5
7C3F
330
8413
100
AcDbEntity
  8
1
100
AcDbLine
 10
7248.907928765325
 20
4303.935954207627
 30
0.0
 11
7248.907928765325
 21
4153.935954207628
 31
0.0
  0
LINE
  5
7C40
330
8413
100
AcDbEntity
  8
1
100
AcDbLine
 10
7391.407928765325
 20
4153.935954207628
 30
0.0
 11
7308.707928765326
 21
4153.935954207628
 31
0.0
  0
ARC
  5
7C41
330
8413
100
AcDbEntity
  8
1
100
AcDbCircle
 10
7391.407928765325
 20
4163.935954207627
 30
0.0
 40
10.0
100
AcDbArc
 50
270.0
 51
0.0
  0
LINE
  5
7C42
330
8413
100
AcDbEntity
  8
1
100
AcDbLine
 10
7308.707928765326
 20
4153.935954207628
 30
0.0
 11
7248.907928765325
 21
4153.935954207628
 31
0.0
  0
LINE
  5
7C43
330
8413
100
AcDbEntity
  8
1
100
AcDbLine
 10
7391.407928765325
 20
4303.935954207627
 30
0.0
 11
7308.707928765326
 21
4303.935954207627
 31
0.0
  0
ARC
  5
7C44
330
8413
100
AcDbEntity
  8
1
100
AcDbCircle
 10
7391.407928765325
 20
4293.935954207627
 30
0.0
 40
10.0
100
AcDbArc
 50
0.0
 51
90.0
  0
LINE
  5
7C45
330
8413
100
AcDbEntity
  8
1
100
AcDbLine
 10
7308.707928765326
 20
4303.935954207627
 30
0.0
 11
7248.907928765325
 21
4303.935954207627
 31
0.0
  0
LINE
  5
7C4A
330
8413
100
AcDbEntity
  8
1
100
AcDbLine
 10
5186.407928765326
 20
4623.935954207627
 30
0.0
 11
5264.307928765326
 21
4623.935954207627
 31
0.0
  0
LINE
  5
7C4B
330
8413
100
AcDbEntity
  8
1
100
AcDbLine
 10
5186.407928765326
 20
4115.935954207627
 30
0.0
 11
5264.307928765326
 21
4115.935954207627
 31
0.0
  0
LINE
  5
7C4C
330
8413
100
AcDbEntity
  8
1
100
AcDbLine
 10
5101.407928765326
 20
4749.935954207627
 30
0.0
 11
5346.407928765325
 21
4749.935954207627
 31
0.0
  0
LINE
  5
7C4D
330
8413
100
AcDbEntity
  8
1
100
AcDbLine
 10
5346.407928765327
 20
3124.935954207627
 30
0.0
 11
5346.407928765327
 21
3104.935954207627
 31
0.0
  0
INSERT
  5
7C4E
330
8413
100
AcDbEntity
  8
1
100
AcDbBlockReference
  2
YA_N
 10
4767.943419715615
 20
-1494.695868425496
 30
0.0
  0
LINE
  5
7C4F
330
8413
100
AcDbEntity
  8
1
100
AcDbLine
 10
7299.407928765325
 20
3064.935954207627
 30
0.0
 11
7299.407928765326
 21
2939.935954207627
 31
0.0
  0
LINE
  5
7C50
330
8413
100
AcDbEntity
  8
1
100
AcDbLine
 10
5179.407928765325
 20
2919.935954207627
 30
0.0
 11
5179.407928765328
 21
2854.935954207627
 31
0.0
  0
LINE
  5
7C51
330
8413
100
AcDbEntity
  8
1
100
AcDbLine
 10
5179.407928765326
 20
3064.935954207627
 30
0.0
 11
5179.407928765326
 21
2939.935954207627
 31
0.0
  0
LINE
  5
7C55
330
8413
100
AcDbEntity
  8
1
100
AcDbLine
 10
5284.407928765325
 20
4407.435954207627
 30
0.0
 11
5531.407928765325
 21
4407.435954207627
 31
0.0
  0
LINE
  5
7C56
330
8413
100
AcDbEntity
  8
1
100
AcDbLine
 10
5284.407928765325
 20
4332.435954207627
 30
0.0
 11
5531.407928765325
 21
4332.435954207627
 31
0.0
  0
LINE
  5
7C57
330
8413
100
AcDbEntity
  8
1
100
AcDbLine
 10
5375.357928765327
 20
3124.935954207627
 30
0.0
 11
5375.357928765327
 21
3324.935954207628
 31
0.0
  0
LINE
  5
7C58
330
8413
100
AcDbEntity
  8
1
100
AcDbLine
 10
5375.357928765327
 20
3124.935954207628
 30
0.0
 11
6025.357928765328
 21
3124.93595420763
 31
0.0
  0
LINE
  5
7C59
330
8413
100
AcDbEntity
  8
1
100
AcDbLine
 10
6025.357928765328
 20
3534.935954207632
 30
0.0
 11
5375.357928765326
 21
3534.935954207627
 31
0.0
  0
LINE
  5
7C5A
330
8413
100
AcDbEntity
  8
1
100
AcDbLine
 10
5365.357928765327
 20
3294.935954207628
 30
0.0
 11
5279.407928765326
 21
3294.935954207628
 31
0.0
  0
LINE
  5
7C5B
330
8413
100
AcDbEntity
  8
1
100
AcDbLine
 10
5365.357928765327
 20
3354.935954207628
 30
0.0
 11
5279.407928765326
 21
3354.935954207627
 31
0.0
  0
LINE
  5
7C5C
330
8413
100
AcDbEntity
  8
1
100
AcDbLine
 10
5375.357928765327
 20
3534.935954207627
 30
0.0
 11
5375.357928765327
 21
3324.935954207628
 31
0.0
  0
LINE
  5
7C5D
330
8413
100
AcDbEntity
  8
1
100
AcDbLine
 10
5365.357928765327
 20
3292.435954207628
 30
0.0
 11
5365.357928765327
 21
3357.435954207628
 31
0.0
  0
LINE
  5
7C5E
330
8413
100
AcDbEntity
  8
1
100
AcDbLine
 10
5365.357928765327
 20
3292.435954207628
 30
0.0
 11
5375.357928765327
 21
3292.435954207628
 31
0.0
  0
LINE
  5
7C5F
330
8413
100
AcDbEntity
  8
1
100
AcDbLine
 10
5365.357928765327
 20
3357.435954207628
 30
0.0
 11
5375.357928765327
 21
3357.435954207628
 31
0.0
  0
LINE
  5
7C60
330
8413
100
AcDbEntity
  8
2
100
AcDbLine
 10
1801.004538962214
 20
7957.62346783901
 30
0.0
 11
3994.815363830051
 21
7957.623467839008
 31
0.0
  0
LINE
  5
7C61
330
8413
100
AcDbEntity
  8
1
100
AcDbLine
 10
2396.831659683934
 20
6677.623467839009
 30
0.0
 11
4416.831659683934
 21
6677.623467839009
 31
0.0
  0
LINE
  5
7C62
330
8413
100
AcDbEntity
  8
1
100
AcDbLine
 10
2522.831659683934
 20
6762.62346783901
 30
0.0
 11
3030.831659683934
 21
6762.62346783901
 31
0.0
  0
LINE
  5
7C63
330
8413
100
AcDbEntity
  8
1
100
AcDbLine
 10
2846.831659683934
 20
6840.52346783901
 30
0.0
 11
3030.831659683934
 21
6840.52346783901
 31
0.0
  0
LINE
  5
7C64
330
8413
100
AcDbEntity
  8
1
100
AcDbLine
 10
4226.831659683933
 20
6941.57346783901
 30
0.0
 11
4226.831659683933
 21
6855.623467839009
 31
0.0
  0
LINE
  5
7C65
330
8413
100
AcDbEntity
  8
1
100
AcDbLine
 10
4166.831659683934
 20
6941.57346783901
 30
0.0
 11
4166.831659683934
 21
6855.623467839009
 31
0.0
  0
LINE
  5
7C66
330
8413
100
AcDbEntity
  8
1
100
AcDbLine
 10
4416.831659683934
 20
6677.623467839009
 30
0.0
 11
4416.831659683934
 21
6922.623467839009
 31
0.0
  0
LINE
  5
7C67
330
8413
100
AcDbEntity
  8
1
100
AcDbLine
 10
3576.831659683934
 20
6755.62346783901
 30
0.0
 11
3701.831659683934
 21
6755.62346783901
 31
0.0
  0
LINE
  5
7C68
330
8413
100
AcDbEntity
  8
1
100
AcDbLine
 10
3720.831659683934
 20
6755.623467839007
 30
0.0
 11
3785.831659683934
 21
6755.62346783901
 31
0.0
  0
LINE
  5
7C69
330
8413
100
AcDbEntity
  8
1
100
AcDbLine
 10
4136.831659683934
 20
6855.623467839009
 30
0.0
 11
4256.831659683934
 21
6855.623467839009
 31
0.0
  0
LINE
  5
7C6A
330
8413
100
AcDbEntity
  8
1
100
AcDbLine
 10
4256.831659683934
 20
6840.52346783901
 30
0.0
 11
4302.831659683934
 21
6840.52346783901
 31
0.0
  0
LINE
  5
7C6B
330
8413
100
AcDbEntity
  8
1
100
AcDbLine
 10
4302.831659683934
 20
6762.62346783901
 30
0.0
 11
4302.831659683934
 21
6840.52346783901
 31
0.0
  0
LINE
  5
7C6C
330
8413
100
AcDbEntity
  8
1
100
AcDbLine
 10
4256.831659683934
 20
6840.52346783901
 30
0.0
 11
4256.831659683934
 21
6855.623467839009
 31
0.0
  0
LINE
  5
7C6D
330
8413
100
AcDbEntity
  8
1
100
AcDbLine
 10
4090.831659683933
 20
6762.62346783901
 30
0.0
 11
4090.831659683933
 21
6840.523467839009
 31
0.0
  0
LINE
  5
7C6E
330
8413
100
AcDbEntity
  8
1
100
AcDbLine
 10
4136.831659683934
 20
6840.52346783901
 30
0.0
 11
4136.831659683934
 21
6855.623467839009
 31
0.0
  0
LINE
  5
7C6F
330
8413
100
AcDbEntity
  8
1
100
AcDbLine
 10
3030.831659683934
 20
6762.62346783901
 30
0.0
 11
3030.831659683934
 21
6840.523467839009
 31
0.0
  0
LINE
  5
7C70
330
8413
100
AcDbEntity
  8
1
100
AcDbLine
 10
3986.831659683934
 20
6951.57346783901
 30
0.0
 11
4196.831659683934
 21
6951.57346783901
 31
0.0
  0
LINE
  5
7C71
330
8413
100
AcDbEntity
  8
1
100
AcDbLine
 10
4229.331659683934
 20
6941.57346783901
 30
0.0
 11
4164.331659683933
 21
6941.57346783901
 31
0.0
  0
LINE
  5
7C72
330
8413
100
AcDbEntity
  8
1
100
AcDbLine
 10
4396.831659683934
 20
6951.57346783901
 30
0.0
 11
4396.831659683925
 21
7601.073467839011
 31
0.0
  0
LINE
  5
7C73
330
8413
100
AcDbEntity
  8
1
100
AcDbLine
 10
4396.831659683934
 20
6951.57346783901
 30
0.0
 11
4196.831659683934
 21
6951.57346783901
 31
0.0
  0
LINE
  5
7C74
330
8413
100
AcDbEntity
  8
1
100
AcDbLine
 10
4229.331659683934
 20
6941.57346783901
 30
0.0
 11
4229.331659683934
 21
6951.57346783901
 31
0.0
  0
LINE
  5
7C75
330
8413
100
AcDbEntity
  8
1
100
AcDbLine
 10
4396.831659683932
 20
7127.07346783901
 30
0.0
 11
4395.831659683932
 21
7127.07346783901
 31
0.0
  0
LINE
  5
7C76
330
8413
100
AcDbEntity
  8
1
100
AcDbLine
 10
3986.831659683927
 20
7601.073467839009
 30
0.0
 11
3986.831659683934
 21
6951.573467839009
 31
0.0
  0
LINE
  5
7C77
330
8413
100
AcDbEntity
  8
1
100
AcDbLine
 10
4164.331659683933
 20
6941.57346783901
 30
0.0
 11
4164.331659683933
 21
6951.57346783901
 31
0.0
  0
LINE
  5
7C78
330
8413
100
AcDbEntity
  8
1
100
AcDbLine
 10
2814.331659683934
 20
6860.623467839011
 30
0.0
 11
2814.331659683934
 21
7107.623467839008
 31
0.0
  0
LINE
  5
7C79
330
8413
100
AcDbEntity
  8
1
100
AcDbLine
 10
2739.331659683934
 20
6860.623467839011
 30
0.0
 11
2739.331659683934
 21
7107.623467839009
 31
0.0
  0
LINE
  5
7C7A
330
8413
100
AcDbEntity
  8
1
100
AcDbLine
 10
2396.831659683934
 20
6677.623467839009
 30
0.0
 11
2396.831659683934
 21
6922.623467839009
 31
0.0
  0
LINE
  5
7C7B
330
8413
100
AcDbEntity
  8
1
100
AcDbLine
 10
2706.831659683934
 20
6860.623467839011
 30
0.0
 11
2846.831659683934
 21
6860.623467839011
 31
0.0
  0
LINE
  5
7C7C
330
8413
100
AcDbEntity
  8
1
100
AcDbLine
 10
2846.831659683934
 20
6840.523467839009
 30
0.0
 11
2846.831659683934
 21
6860.623467839011
 31
0.0
  0
LINE
  5
7C7D
330
8413
100
AcDbEntity
  8
1
100
AcDbLine
 10
2522.831659683934
 20
6840.52346783901
 30
0.0
 11
2706.831659683934
 21
6840.52346783901
 31
0.0
  0
LINE
  5
7C7E
330
8413
100
AcDbEntity
  8
1
100
AcDbLine
 10
2706.831659683934
 20
6840.52346783901
 30
0.0
 11
2706.831659683934
 21
6860.623467839011
 31
0.0
  0
LINE
  5
7C7F
330
8413
100
AcDbEntity
  8
1
100
AcDbLine
 10
2522.831659683934
 20
6762.62346783901
 30
0.0
 11
2522.831659683934
 21
6840.523467839009
 31
0.0
  0
LINE
  5
7C80
330
8413
100
AcDbEntity
  8
1
100
AcDbLine
 10
2396.831659683934
 20
6922.623467839009
 30
0.0
 11
4416.831659683934
 21
6922.623467839102
 31
0.0
  0
LINE
  5
7C81
330
8413
100
AcDbEntity
  8
1
100
AcDbLine
 10
4396.831659683932
 20
7601.073467839011
 30
0.0
 11
3986.831659683927
 21
7601.073467839009
 31
0.0
  0
LINE
  5
7C82
330
8413
100
AcDbEntity
  8
1
100
AcDbLine
 10
1951.831659683933
 20
8807.623467839011
 30
0.0
 11
3855.831659683934
 21
8807.623467839011
 31
0.0
  0
LINE
  5
7C83
330
8413
100
AcDbEntity
  8
1
100
AcDbLine
 10
1951.831659683934
 20
7107.623467839008
 30
0.0
 11
3855.831659683934
 21
7107.623467839008
 31
0.0
  0
LINE
  5
7C84
330
8413
100
AcDbEntity
  8
1
100
AcDbLine
 10
1951.831659683934
 20
8857.62346783901
 30
0.0
 11
1951.831659683933
 21
7057.623467839007
 31
0.0
  0
LINE
  5
7C85
330
8413
100
AcDbEntity
  8
1
100
AcDbLine
 10
3855.831659683934
 20
8807.623467839006
 30
0.0
 11
3855.831659683934
 21
7107.623467839008
 31
0.0
  0
LINE
  5
7C86
330
8413
100
AcDbEntity
  8
1
100
AcDbLine
 10
2026.831659683934
 20
7107.623467839008
 30
0.0
 11
2026.831659683934
 21
6755.623467839007
 31
0.0
  0
LINE
  5
7C87
330
8413
100
AcDbEntity
  8
1
100
AcDbLine
 10
4090.831659683933
 20
6840.52346783901
 30
0.0
 11
4136.831659683934
 21
6840.52346783901
 31
0.0
  0
LINE
  5
7C88
330
8413
100
AcDbEntity
  8
1
100
AcDbLine
 10
4090.831659683933
 20
6762.62346783901
 30
0.0
 11
4302.831659683934
 21
6762.62346783901
 31
0.0
  0
INSERT
  5
7C8E
330
8413
100
AcDbEntity
  8
1
100
AcDbBlockReference
  2
YA_N
 10
10491.49125510566
 20
1972.966762031963
 30
0.0
  0
ARC
  5
7C90
330
8413
100
AcDbEntity
  8
1
100
AcDbCircle
 10
2685.831659683934
 20
4278.935954207628
 30
0.0
 40
1170.0
100
AcDbArc
 50
274.460843697874
 51
4.460843697873976
  0
ARC
  5
7C91
330
8413
100
AcDbEntity
  8
1
100
AcDbCircle
 10
2867.831659683934
 20
4278.935954207628
 30
0.0
 40
988.0
100
AcDbArc
 50
5.284732954534544
 51
95.28473295453455
  0
ARC
  5
7C92
330
8413
100
AcDbEntity
  8
1
100
AcDbCircle
 10
2853.831659683934
 20
4446.935954207627
 30
0.0
 40
820.0
100
AcDbArc
 50
95.38815180432743
 51
182.757514755792
  0
LINE
  5
7C93
330
8413
100
AcDbEntity
  8
1
100
AcDbLine
 10
2776.831659683934
 20
3112.48021136952
 30
0.0
 11
1951.831659683934
 21
3035.935954207627
 31
0.0
  0
LINE
  5
7C94
330
8413
100
AcDbEntity
  8
1
100
AcDbLine
 10
2026.831659683934
 20
2939.935954207627
 30
0.0
 11
4476.831659683933
 21
2939.935954207627
 31
0.0
1001
ACAD
1000
ASC_BOUNDS
1002
{
1070
    19
1002
}
  0
LINE
  5
7C95
330
8413
100
AcDbEntity
  8
1
100
AcDbLine
 10
2026.831659683934
 20
3064.935954207627
 30
0.0
 11
4476.831659683933
 21
3064.935954207627
 31
0.0
  0
LINE
  5
7C96
330
8413
100
AcDbEntity
  8
1
100
AcDbLine
 10
2026.831659683934
 20
3064.935954207627
 30
0.0
 11
2026.831659683934
 21
2939.935954207627
 31
0.0
  0
LINE
  5
7C97
330
8413
100
AcDbEntity
  8
1
100
AcDbLine
 10
4476.831659683933
 20
3064.935954207627
 30
0.0
 11
4476.831659683933
 21
2939.935954207627
 31
0.0
  0
LINE
  5
7C98
330
8413
100
AcDbEntity
  8
2
100
AcDbLine
 10
4196.831659683934
 20
3615.790470813337
 30
0.0
 11
4196.831659683935
 21
2854.935954207627
 31
0.0
  0
LINE
  5
7C99
330
8413
100
AcDbEntity
  8
2
100
AcDbLine
 10
3916.517442925782
 20
3324.935954207627
 30
0.0
 11
4466.937680551182
 21
3324.935954207627
 31
0.0
  0
LINE
  5
7C9C
330
8413
100
AcDbEntity
  8
1
100
AcDbLine
 10
1951.831659683934
 20
4315.935954207627
 30
0.0
 11
2035.79657279533
 21
4315.935954207627
 31
0.0
  0
LINE
  5
7C9D
330
8413
100
AcDbEntity
  8
1
100
AcDbLine
 10
2001.831659683934
 20
3040.575000096227
 30
0.0
 11
2001.831659683934
 21
4315.935954207627
 31
0.0
  0
LINE
  5
7C9E
330
8413
100
AcDbEntity
  8
1
100
AcDbLine
 10
1951.831659683934
 20
2982.935954207627
 30
0.0
 11
1951.831659683934
 21
4368.935954207628
 31
0.0
  0
POINT
  5
7CA0
330
8413
100
AcDbEntity
  8
1
100
AcDbPoint
 10
3851.631944294587
 20
4369.935954207627
 30
0.0
  0
INSERT
  5
7CA1
330
8413
100
AcDbEntity
  8
1
100
AcDbBlockReference
  2
YA_N
 10
8728.26384779535
 20
749.1803445741823
 30
0.0
 41
30.0
 42
30.0
 43
30.0
  0
LINE
  5
7CA3
330
8413
100
AcDbEntity
  8
1
100
AcDbLine
 10
2026.831659683934
 20
2919.935954207627
 30
0.0
 11
4476.831659683933
 21
2919.935954207627
 31
0.0
1001
ACAD
1000
ASC_BOUNDS
1002
{
1070
    19
1002
}
  0
LINE
  5
7CA4
330
8413
100
AcDbEntity
  8
1
100
AcDbLine
 10
2026.831659683934
 20
2854.935954207627
 30
0.0
 11
4476.831659683933
 21
2854.935954207627
 31
0.0
  0
LINE
  5
7CA5
330
8413
100
AcDbEntity
  8
1
100
AcDbLine
 10
2026.831659683934
 20
2919.935954207627
 30
0.0
 11
2026.831659683934
 21
2854.935954207627
 31
0.0
  0
LINE
  5
7CA6
330
8413
100
AcDbEntity
  8
1
100
AcDbLine
 10
4476.831659683933
 20
2919.935954207627
 30
0.0
 11
4476.831659683933
 21
2854.935954207627
 31
0.0
  0
ARC
  5
7CA7
330
8413
100
AcDbEntity
  8
1
100
AcDbCircle
 10
4196.831659683934
 20
3324.935954207627
 30
0.0
 40
203.5
100
AcDbArc
 50
285.60376
 51
254.396301
  0
LINE
  5
7CA8
330
8413
100
AcDbEntity
  8
1
100
AcDbLine
 10
4251.569696683935
 20
3128.935954207627
 30
0.0
 11
4142.093622683932
 21
3128.935954207627
 31
0.0
  0
ARC
  5
7CA9
330
8413
100
AcDbEntity
  8
1
100
AcDbCircle
 10
4010.831659683933
 20
3141.935954207627
 30
0.0
 40
3.0
100
AcDbArc
 50
90.0
 51
180.0
  0
ARC
  5
7CAA
330
8413
100
AcDbEntity
  8
1
100
AcDbCircle
 10
4012.831659683933
 20
3199.262615207627
 30
0.0
 40
5.000066999999999
100
AcDbArc
 50
124.943665
 51
180.0
  0
LINE
  5
7CAB
330
8413
100
AcDbEntity
  8
1
100
AcDbLine
 10
4007.831659683933
 20
3199.262615207627
 30
0.0
 11
4007.831659683933
 21
3124.935954207627
 31
0.0
  0
LINE
  5
7CAE
330
8413
100
AcDbEntity
  8
1
100
AcDbLine
 10
4092.729089683933
 20
3150.079143207627
 30
0.0
 11
4087.331659683933
 21
3129.935954207627
 31
0.0
  0
LINE
  5
7CAF
330
8413
100
AcDbEntity
  8
1
100
AcDbLine
 10
4087.331659683933
 20
3141.935954207627
 30
0.0
 11
4087.331659683933
 21
3124.935954207627
 31
0.0
  0
LINE
  5
7CB0
330
8413
100
AcDbEntity
  8
1
100
AcDbLine
 10
4084.331659683933
 20
3144.935954207627
 30
0.0
 11
4010.831659683933
 21
3144.935954207627
 31
0.0
  0
ARC
  5
7CB1
330
8413
100
AcDbEntity
  8
1
100
AcDbCircle
 10
4084.331659683933
 20
3141.935954207627
 30
0.0
 40
3.0
100
AcDbArc
 50
0.0
 51
90.0
  0
LINE
  5
7CB2
330
8413
100
AcDbEntity
  8
1
100
AcDbLine
 10
4009.967889683934
 20
3203.361247207627
 30
0.0
 11
4025.905755683933
 21
3214.497722207627
 31
0.0
  0
LINE
  5
7CB3
330
8413
100
AcDbEntity
  8
1
100
AcDbLine
 10
4385.831659683934
 20
3199.262615207627
 30
0.0
 11
4385.831659683934
 21
3124.935954207627
 31
0.0
  0
LINE
  5
7CB6
330
8413
100
AcDbEntity
  8
1
100
AcDbLine
 10
4300.934442683934
 20
3150.079265207627
 30
0.0
 11
4306.331659683934
 21
3129.935954207627
 31
0.0
  0
LINE
  5
7CB7
330
8413
100
AcDbEntity
  8
1
100
AcDbLine
 10
4306.331659683934
 20
3141.935954207627
 30
0.0
 11
4306.331659683934
 21
3124.935954207627
 31
0.0
  0
LINE
  5
7CB8
330
8413
100
AcDbEntity
  8
1
100
AcDbLine
 10
4309.331659683934
 20
3144.935954207627
 30
0.0
 11
4382.831659683934
 21
3144.935954207627
 31
0.0
  0
ARC
  5
7CB9
330
8413
100
AcDbEntity
  8
1
100
AcDbCircle
 10
4309.331659683934
 20
3141.935954207627
 30
0.0
 40
3.0
100
AcDbArc
 50
90.0
 51
180.0
  0
ARC
  5
7CBA
330
8413
100
AcDbEntity
  8
1
100
AcDbCircle
 10
4382.831659683934
 20
3141.935954207627
 30
0.0
 40
3.0
100
AcDbArc
 50
0.0
 51
90.0
  0
LINE
  5
7CBB
330
8413
100
AcDbEntity
  8
1
100
AcDbLine
 10
4383.695550683933
 20
3203.361247207627
 30
0.0
 11
4367.757684683932
 21
3214.497722207627
 31
0.0
  0
ARC
  5
7CBC
330
8413
100
AcDbEntity
  8
1
100
AcDbCircle
 10
4380.831659683933
 20
3199.262615207627
 30
0.0
 40
5.0
100
AcDbArc
 50
0.0
 51
55.05633899999998
  0
LINE
  5
7CBD
330
8413
100
AcDbEntity
  8
1
100
AcDbLine
 10
3953.408634641323
 20
3124.935954207627
 30
0.0
 11
4126.831659683934
 21
3124.935954207627
 31
0.0
  0
LINE
  5
7CBE
330
8413
100
AcDbEntity
  8
1
100
AcDbLine
 10
3936.831659683934
 20
3064.935954207627
 30
0.0
 11
3953.408634641323
 21
3124.935954207627
 31
0.0
  0
LINE
  5
7CBF
330
8413
100
AcDbEntity
  8
1
100
AcDbLine
 10
4456.831659683934
 20
3064.935954207627
 30
0.0
 11
4440.650703138816
 21
3124.935954207627
 31
0.0
  0
LINE
  5
7CC0
330
8413
100
AcDbEntity
  8
1
100
AcDbLine
 10
4126.831659683934
 20
3114.935954207627
 30
0.0
 11
4266.831659683933
 21
3114.935954207627
 31
0.0
  0
LINE
  5
7CC2
330
8413
100
AcDbEntity
  8
1
100
AcDbLine
 10
4266.831659683933
 20
3124.935954207627
 30
0.0
 11
4266.831659683933
 21
3114.935954207627
 31
0.0
  0
LINE
  5
7CC3
330
8413
100
AcDbEntity
  8
1
100
AcDbLine
 10
4126.831659683934
 20
3124.935954207627
 30
0.0
 11
4126.831659683934
 21
3114.935954207627
 31
0.0
  0
LINE
  5
7CC6
330
8413
100
AcDbEntity
  8
1
100
AcDbLine
 10
4266.831659683933
 20
3124.935954207627
 30
0.0
 11
4440.650703138816
 21
3124.935954207627
 31
0.0
  0
INSERT
  5
7CC7
330
8413
100
AcDbEntity
  8
1
100
AcDbBlockReference
  2
YA_N
 10
9730.247579223819
 20
1429.411777198107
 30
0.0
 41
30.0
 42
30.0
 43
30.0
  0
CIRCLE
  5
7CCD
330
8413
100
AcDbEntity
  8
1
100
AcDbCircle
 10
4196.831659683934
 20
3324.935954207627
 30
0.0
 40
107.0
  0
POINT
  5
7CCE
330
8413
100
AcDbEntity
  8
1
100
AcDbPoint
 10
2026.831659683934
 20
2919.935954207627
 30
0.0
  0
POINT
  5
7CCF
330
8413
100
AcDbEntity
  8
1
100
AcDbPoint
 10
2026.831659683934
 20
2939.935954207627
 30
0.0
  0
POINT
  5
7CD0
330
8413
100
AcDbEntity
  8
1
100
AcDbPoint
 10
2026.831659683934
 20
2919.935954207627
 30
0.0
  0
ARC
  5
7CD2
330
8413
100
AcDbEntity
  8
1
100
AcDbCircle
 10
2776.831659683934
 20
4369.935954207627
 30
0.0
 40
625.0
100
AcDbArc
 50
0.0
 51
180.0
  0
ARC
  5
7CD3
330
8413
100
AcDbEntity
  8
1
100
AcDbCircle
 10
2776.831659683934
 20
4369.935954207627
 30
0.0
 40
675.0
100
AcDbArc
 50
0.0
 51
180.0
  0
ARC
  5
7CD4
330
8413
100
AcDbEntity
  8
1
100
AcDbCircle
 10
2776.831659683934
 20
4369.935954207627
 30
0.0
 40
625.0
100
AcDbArc
 50
180.0
 51
0.0
  0
ARC
  5
7CD5
330
8413
100
AcDbEntity
  8
1
100
AcDbCircle
 10
2776.831659683934
 20
4369.935954207627
 30
0.0
 40
675.0
100
AcDbArc
 50
180.0
 51
0.0
  0
CIRCLE
  5
7CD8
330
8413
100
AcDbEntity
  8
1
100
AcDbCircle
 10
2776.831659683934
 20
4369.935954207627
 30
0.0
 40
254.0
  0
POINT
  5
7CD9
330
8413
100
AcDbEntity
  8
1
100
AcDbPoint
 10
2026.831659683934
 20
2919.935954207627
 30
0.0
  0
POINT
  5
7CDB
330
8413
100
AcDbEntity
  8
1
100
AcDbPoint
 10
2026.831659683934
 20
2919.935954207627
 30
0.0
  0
POINT
  5
7CDC
330
8413
100
AcDbEntity
  8
1
100
AcDbPoint
 10
2026.831659683934
 20
2939.935954207627
 30
0.0
  0
ARC
  5
7CDD
330
8413
100
AcDbEntity
  8
1
100
AcDbCircle
 10
2776.831659683934
 20
4369.935954207627
 30
0.0
 40
743.0
100
AcDbArc
 50
177.103091958974
 51
184.1678363221618
  0
INSERT
  5
7CDE
330
8413
100
AcDbEntity
  8
1
100
AcDbBlockReference
  2
YA_N
 10
15253.43467482128
 20
473.2708936064663
 30
0.0
  0
ARC
  5
7CE0
330
8413
100
AcDbEntity
  8
1
100
AcDbCircle
 10
2776.831659683934
 20
4369.935954207627
 30
0.0
 40
380.0
100
AcDbArc
 50
48.44327906850633
 51
238.8568658610076
  0
ARC
  5
7CE1
330
8413
100
AcDbEntity
  8
1
100
AcDbCircle
 10
4196.831659683934
 20
3324.935954207627
 30
0.0
 40
220.0
100
AcDbArc
 50
238.8568658610076
 51
48.44327906850637
  0
LINE
  5
7CE2
330
8413
100
AcDbEntity
  8
1
100
AcDbLine
 10
3028.908902328605
 20
4654.289719332444
 30
0.0
 11
4342.771115951902
 21
3489.561818227258
 31
0.0
  0
LINE
  5
7CE3
330
8413
100
AcDbEntity
  8
1
100
AcDbLine
 10
2943.913982729283
 20
4561.245905140061
 30
0.0
 11
4267.216732777842
 21
3405.527154009873
 31
0.0
  0
LINE
  5
7CE4
330
8413
100
AcDbEntity
  8
1
100
AcDbLine
 10
2643.863050175184
 20
4153.521192961289
 30
0.0
 11
4140.817324182217
 21
3233.769105966059
 31
0.0
  0
LINE
  5
7CE5
330
8413
100
AcDbEntity
  8
1
100
AcDbLine
 10
2580.304092518002
 20
4044.70232226923
 30
0.0
 11
4083.052541851026
 21
3136.642798874872
 31
0.0
  0
POINT
  5
7CF0
330
8413
100
AcDbEntity
  8
1
100
AcDbPoint
 10
2026.831659683934
 20
2919.935954207627
 30
0.0
  0
POINT
  5
7CF8
330
8413
100
AcDbEntity
  8
1
100
AcDbPoint
 10
2026.831659683934
 20
2919.935954207627
 30
0.0
  0
POINT
  5
7CF9
330
8413
100
AcDbEntity
  8
1
100
AcDbPoint
 10
2026.831659683934
 20
2939.935954207627
 30
0.0
  0
LINE
  5
7CFD
330
8413
100
AcDbEntity
  8
1
100
AcDbLine
 10
5531.407928765328
 20
5266.935954207627
 30
0.0
 11
7231.407928765325
 21
5266.935954207627
 31
0.0
  0
LINE
  5
7D00
330
8413
100
AcDbEntity
  8
1
100
AcDbLine
 10
5913.557537593625
 20
3124.93595420763
 30
0.0
 11
5913.557537593625
 21
3070.399788374015
 31
0.0
  0
LINE
  5
7D07
330
8413
100
AcDbEntity
  8
1
100
AcDbLine
 10
5531.407928765325
 20
3534.935954207629
 30
0.0
 11
5531.407928765325
 21
4315.935954207627
 31
0.0
  0
LINE
  5
8092
330
8413
100
AcDbEntity
  8
1
100
AcDbLine
 10
6025.357928765328
 20
3534.935954207627
 30
0.0
 11
6025.357928765326
 21
3124.93595420763
 31
0.0
  0
LINE
  5
8093
330
8413
100
AcDbEntity
  8
4
100
AcDbLine
 10
7400.0
 20
2000.0
 30
0.0
 11
7400.0
 21
1200.0
 31
0.0
  0
LINE
  5
8094
330
8413
100
AcDbEntity
  8
4
100
AcDbLine
 10
4600.0
 20
2000.0
 30
0.0
 11
4600.0
 21
1200.0
 31
0.0
  0
LINE
  5
8095
330
8413
100
AcDbEntity
  8
4
100
AcDbLine
 10
2600.0
 20
2000.0
 30
0.0
 11
2600.0
 21
1200.0
 31
0.0
  0
LINE
  5
8098
330
8413
100
AcDbEntity
  8
4
100
AcDbLine
 10
2600.0
 20
1200.0
 30
0.0
 11
7400.0
 21
1200.0
 31
0.0
  0
LINE
  5
8099
330
8413
100
AcDbEntity
  8
4
100
AcDbLine
 10
2600.0
 20
1600.0
 30
0.0
 11
7400.0
 21
1600.0
 31
0.0
  0
TEXT
  5
809A
330
8413
100
AcDbEntity
  8
4
100
AcDbText
 10
2754.008323387607
 20
1726.172103466451
 30
0.0
 40
200.0
  1
機器名称
100
AcDbText
  0
TEXT
  5
809B
330
8413
100
AcDbEntity
  8
4
100
AcDbText
 10
2745.03242409919
 20
1286.580626928043
 30
0.0
 40
200.0
  1
機器型番
100
AcDbText
  0
TEXT
  5
809C
330
8413
100
AcDbEntity
  8
4
100
AcDbText
 10
4710.714981950659
 20
1690.287075830274
 30
0.0
 40
200.0
  1
ミツヤ多翼送風機
100
AcDbText
  0
TEXT
  5
809D
330
8413
100
AcDbEntity
  8
4
100
AcDbText
 10
4746.617982341923
 20
1268.638337119773
 30
0.0
 40
200.0
  1
MF#8-5
100
AcDbText
  0
TEXT
  5
809F
330
8413
100
AcDbEntity
  8
4
100
AcDbText
 10
3261.976911550468
 20
9533.715365330063
 30
0.0
 40
215.9999999999999
  1
床置防振ベット
100
AcDbText
  0
TEXT
  5
80A0
330
8413
100
AcDbEntity
  8
4
100
AcDbText
 10
1264.670373317785
 20
10135.52390479719
 30
0.0
 40
288.0
  1
遠心式両吸込両持多翼ファン
100
AcDbText
  0
LINE
  5
80A1
330
8413
100
AcDbEntity
  8
4
100
AcDbLine
 10
1000.0
 20
9877.635017059219
 30
0.0
 11
7400.0
 21
9877.635017059219
 31
0.0
  0
LINE
  5
80A2
330
8413
100
AcDbEntity
  8
4
100
AcDbLine
 10
1000.0
 20
10677.63501705921
 30
0.0
 11
7400.0
 21
10677.63501705921
 31
0.0
  0
LINE
  5
80A3
330
8413
100
AcDbEntity
  8
4
100
AcDbLine
 10
2600.0
 20
2000.0
 30
0.0
 11
7400.0
 21
2000.0
 31
0.0
  0
LINE
  5
80A4
330
8413
100
AcDbEntity
  8
4
100
AcDbLine
 10
1000.0
 20
10677.63501705921
 30
0.0
 11
1000.0
 21
9877.635017059219
 31
0.0
  0
TEXT
  5
80A5
330
8413
100
AcDbEntity
  8
4
100
AcDbText
 10
1518.541582579659
 20
9529.277910185374
 30
0.0
 40
215.9999999999999
  1
右回転左横向
100
AcDbText
  0
TEXT
  5
80A6
330
8413
100
AcDbEntity
  8
4
100
AcDbText
 10
5875.878236997159
 20
10824.24432598123
 30
0.0
 40
224.0
  1
No.
100
AcDbText
  0
TEXT
  5
80A7
330
8413
100
AcDbEntity
  8
4
100
AcDbText
 10
5245.184250400053
 20
9533.715365330063
 30
0.0
 40
215.9999999999999
  1
縮尺：1/40
100
AcDbText
  0
LINE
  5
80A8
330
8413
100
AcDbEntity
  8
4
100
AcDbLine
 10
7400.0
 20
10677.63501705921
 30
0.0
 11
7400.0
 21
9877.635017059219
 31
0.0
  0
LINE
  5
80A9
330
8413
100
AcDbEntity
  8
4
100
AcDbLine
 10
8400.0
 20
11800.0
 30
0.0
 11
8400.0
 21
11800.0
 31
0.0
  0
LINE
  5
80AA
330
8413
100
AcDbEntity
  8
4
100
AcDbLine
 10
5762.469689439458
 20
10725.0543325016
 30
0.0
 11
5762.469689439458
 21
11146.609046199
 31
0.0
  0
LINE
  5
80AB
330
8413
100
AcDbEntity
  8
4
100
AcDbLine
 10
5762.469689439458
 20
11146.609046199
 30
0.0
 11
7400.0
 21
11146.609046199
 31
0.0
  0
LINE
  5
80AC
330
8413
100
AcDbEntity
  8
4
100
AcDbLine
 10
7400.0
 20
11146.609046199
 30
0.0
 11
7400.0
 21
10725.0543325016
 31
0.0
  0
LINE
  5
80AD
330
8413
100
AcDbEntity
  8
4
100
AcDbLine
 10
7400.0
 20
10725.0543325016
 30
0.0
 11
5762.469689439458
 21
10725.0543325016
 31
0.0
  0
LINE
  5
80AE
330
8413
100
AcDbEntity
  8
4
100
AcDbLine
 10
0.0
 20
0.0
 30
0.0
 11
0.0
 21
11800.0
 31
0.0
  0
LINE
  5
80AF
330
8413
100
AcDbEntity
  8
4
100
AcDbLine
 10
0.0
 20
11800.0
 30
0.0
 11
8400.0
 21
11800.0
 31
0.0
  0
LINE
  5
80B0
330
8413
100
AcDbEntity
  8
4
100
AcDbLine
 10
8400.0
 20
11800.0
 30
0.0
 11
8400.0
 21
0.0
 31
0.0
  0
LINE
  5
80B1
330
8413
100
AcDbEntity
  8
4
100
AcDbLine
 10
8400.0
 20
0.0
 30
0.0
 11
0.0
 21
0.0
 31
0.0
  0
DIMENSION
  5
81A8
330
8413
100
AcDbEntity
  8
3
100
AcDbDimension
  2
*D21
 10
2776.831659683934
 20
2596.714947416167
 30
0.0
 11
2401.831659683934
 21
2696.714947416166
 31
0.0
 71
     5
 42
-1.0
  3
Standard
100
AcDbAlignedDimension
 13
2026.831659683934
 23
2854.935954207627
 33
0.0
 14
2776.831659683934
 24
2854.935954207626
 34
0.0
100
AcDbRotatedDimension
1001
ACAD
1000
DSTYLE
1002
{
1070
   172
1070
     1
1070
    40
1040
40.0
1070
   271
1070
     0
1070
   143
1040
0.039
1002
}
  0
DIMENSION
  5
81B5
330
8413
100
AcDbEntity
  8
3
100
AcDbDimension
  2
*D22
 10
4476.831659683933
 20
2596.714947416167
 30
0.0
 11
3626.831659683933
 21
2696.714947416166
 31
0.0
 71
     5
 42
-1.0
  3
Standard
100
AcDbAlignedDimension
 13
2776.831659683934
 23
2854.935954207626
 33
0.0
 14
4476.831659683933
 24
2854.935954207627
 34
0.0
100
AcDbRotatedDimension
1001
ACAD
1000
DSTYLE
1002
{
1070
   172
1070
     1
1070
    40
1040
40.0
1070
   271
1070
     0
1070
   143
1040
0.039
1002
}
  0
DIMENSION
  5
81C2
330
8413
100
AcDbEntity
  8
3
100
AcDbDimension
  2
*D23
 10
6381.407928765328
 20
2596.714947416167
 30
0.0
 11
5780.407928765328
 21
2696.714947416166
 31
0.0
 71
     5
 42
-1.0
  3
Standard
100
AcDbAlignedDimension
 13
5179.407928765328
 23
2854.935954207627
 33
0.0
 14
6381.407928765328
 24
2854.935954207626
 34
0.0
100
AcDbRotatedDimension
1001
ACAD
1000
DSTYLE
1002
{
1070
   172
1070
     1
1070
    40
1040
40.0
1070
   271
1070
     0
1070
   143
1040
0.039
1002
}
  0
DIMENSION
  5
81CF
330
8413
100
AcDbEntity
  8
3
100
AcDbDimension
  2
*D24
 10
7299.407928765325
 20
2596.714947416167
 30
0.0
 11
6840.407928765326
 21
2696.714947416166
 31
0.0
 71
     5
 42
-1.0
  3
Standard
100
AcDbAlignedDimension
 13
6381.407928765328
 23
2854.935954207626
 33
0.0
 14
7299.407928765325
 24
2854.935954207627
 34
0.0
100
AcDbRotatedDimension
1001
ACAD
1000
DSTYLE
1002
{
1070
   172
1070
     1
1070
    40
1040
40.0
1070
   271
1070
     0
1070
   143
1040
0.039
1002
}
  0
DIMENSION
  5
8214
330
8413
100
AcDbEntity
  8
3
100
AcDbDimension
  2
*D27
 10
1203.170627867308
 20
4369.935954207627
 30
0.0
 11
1103.170627867308
 21
4818.435954207627
 31
0.0
 71
     5
 42
-1.0
  3
Standard
100
AcDbAlignedDimension
 13
2867.831659683934
 23
5266.935954207628
 33
0.0
 14
1939.310814992313
 24
4369.935954207627
 34
0.0
 50
90.0
100
AcDbRotatedDimension
1001
ACAD
1000
DSTYLE
1002
{
1070
   172
1070
     1
1070
    40
1040
40.0
1070
   271
1070
     0
1070
   143
1040
0.039
1002
}
  0
DIMENSION
  5
84BA
330
8413
100
AcDbEntity
  8
3
100
AcDbDimension
  2
*D29
 10
7642.677553677827
 20
3744.935954207627
 30
0.0
 11
7542.677553677826
 21
4369.935954207628
 31
0.0
 70
    32
  1
\U+03C6<>
 71
     5
 42
1250.0
  3
IGA
100
AcDbAlignedDimension
 13
7231.407928765325
 23
4994.935954207627
 33
0.0
 14
7231.407928765325
 24
3744.935954207627
 34
0.0
 50
90.0
100
AcDbRotatedDimension
1001
ACAD
1000
DSTYLE
1002
{
1070
    40
1040
40.0
1070
   143
1040
0.039
1070
   172
1070
     1
1070
   271
1070
     4
1070
   272
1070
     4
1070
   279
1070
     0
1070
   284
1070
     0
1070
   285
1070
     0
1070
   286
1070
     0
1070
   341
1005
842A
1070
   343
1005
842A
1070
   344
1005
842A
1002
}
  0
DIMENSION
  5
84C7
330
8413
100
AcDbEntity
  8
3
100
AcDbDimension
  2
*D30
 10
7231.407928765325
 20
5539.256168514262
 30
0.0
 11
6381.407928765327
 21
5639.256168514261
 31
0.0
 70
    32
 71
     5
 42
1699.999999999998
  3
IGA
100
AcDbAlignedDimension
 13
5531.407928765328
 23
5266.935954207627
 33
0.0
 14
7231.407928765325
 24
5266.935954207627
 34
0.0
100
AcDbRotatedDimension
1001
ACAD
1000
DSTYLE
1002
{
1070
    40
1040
40.0
1070
   143
1040
0.039
1070
   172
1070
     1
1070
   271
1070
     4
1070
   272
1070
     4
1070
   279
1070
     0
1070
   284
1070
     0
1070
   285
1070
     0
1070
   286
1070
     0
1070
   341
1005
842A
1070
   343
1005
842A
1070
   344
1005
842A
1002
}
  0
DIMENSION
  5
84D4
330
8413
100
AcDbEntity
  8
3
100
AcDbDimension
  2
*D31
 10
6381.407928765326
 20
5820.910505835629
 30
0.0
 11
5741.407928765326
 21
5952.339077264201
 31
0.0
 70
    32
  1
(<>)
 71
     5
 42
1280.000000000001
  3
IGA
100
AcDbAlignedDimension
 13
5101.407928765326
 23
4749.935954207627
 33
0.0
 14
6381.407928765326
 24
5860.910505835629
 34
0.0
100
AcDbRotatedDimension
1001
ACAD
1000
DSTYLE
1002
{
1070
    40
1040
40.0
1070
   143
1040
0.039
1070
   172
1070
     1
1070
   271
1070
     4
1070
   272
1070
     4
1070
   279
1070
     0
1070
   284
1070
     0
1070
   285
1070
     0
1070
   286
1070
     0
1070
   341
1005
842A
1070
   343
1005
842A
1070
   344
1005
842A
1002
}
  0
DIMENSION
  5
84E1
330
8413
100
AcDbEntity
  8
3
100
AcDbDimension
  2
*D32
 10
7401.407928765324
 20
5820.910505835629
 30
0.0
 11
6891.407928765326
 21
5952.339077264201
 31
0.0
 70
    32
  1
(<>)
 71
     5
 42
1019.999999999999
  3
IGA
100
AcDbAlignedDimension
 13
6381.407928765326
 23
5860.910505835629
 33
0.0
 14
7401.407928765324
 24
4293.935954207627
 34
0.0
100
AcDbRotatedDimension
1001
ACAD
1000
DSTYLE
1002
{
1070
    40
1040
40.0
1070
   143
1040
0.039
1070
   172
1070
     1
1070
   271
1070
     4
1070
   272
1070
     4
1070
   279
1070
     1
1070
   284
1070
     0
1070
   285
1070
     0
1070
   286
1070
     0
1070
   341
1005
842A
1070
   343
1005
842A
1070
   344
1005
842A
1002
}
  0
DIMENSION
  5
854B
330
8413
100
AcDbEntity
  8
3
100
AcDbDimension
  2
*D33
 10
3526.831659683934
 20
9080.259606344192
 30
0.0
 11
2776.831659683934
 21
9180.259606344192
 31
0.0
 70
    32
 71
     5
 42
1500.0
  3
IGA
100
AcDbAlignedDimension
 13
2026.831659683934
 23
8875.623467839007
 33
0.0
 14
3526.831659683934
 24
8875.623467839007
 34
0.0
100
AcDbRotatedDimension
1001
ACAD
1000
DSTYLE
1002
{
1070
    40
1040
40.0
1070
   143
1040
0.039
1070
   172
1070
     1
1070
   271
1070
     4
1070
   272
1070
     4
1070
   279
1070
     0
1070
   284
1070
     0
1070
   285
1070
     0
1070
   286
1070
     0
1070
   341
1005
842A
1070
   343
1005
842A
1070
   344
1005
842A
1002
}
  0
DIMENSION
  5
8558
330
8413
100
AcDbEntity
  8
3
100
AcDbDimension
  2
*D34
 10
4476.831659683933
 20
9080.259606344192
 30
0.0
 11
4001.831659683933
 21
9180.259606344192
 31
0.0
 70
    32
 71
     5
 42
949.9999999999996
  3
IGA
100
AcDbAlignedDimension
 13
3526.831659683934
 23
8875.623467839007
 33
0.0
 14
4476.831659683933
 24
7755.623467839007
 34
0.0
100
AcDbRotatedDimension
1001
ACAD
1000
DSTYLE
1002
{
1070
    40
1040
40.0
1070
   143
1040
0.039
1070
   172
1070
     1
1070
   271
1070
     4
1070
   272
1070
     4
1070
   279
1070
     1
1070
   284
1070
     0
1070
   285
1070
     0
1070
   286
1070
     0
1070
   341
1005
842A
1070
   343
1005
842A
1070
   344
1005
842A
1002
}
  0
DIMENSION
  5
8565
330
8413
100
AcDbEntity
  8
3
100
AcDbDimension
  2
*D35
 10
4743.158060791513
 20
6755.623467839007
 30
0.0
 11
4643.158060791511
 21
7255.623467839008
 31
0.0
 70
    32
 71
     5
 42
1000.0
  3
IGA
100
AcDbAlignedDimension
 13
4476.831659683933
 23
7755.623467839007
 33
0.0
 14
4476.831659683933
 24
6755.623467839007
 34
0.0
 50
90.0
100
AcDbRotatedDimension
1001
ACAD
1000
DSTYLE
1002
{
1070
    40
1040
40.0
1070
   143
1040
0.039
1070
   172
1070
     1
1070
   271
1070
     4
1070
   272
1070
     4
1070
   279
1070
     0
1070
   284
1070
     0
1070
   285
1070
     0
1070
   286
1070
     0
1070
   341
1005
842A
1070
   343
1005
842A
1070
   344
1005
842A
1002
}
  0
DIMENSION
  5
8572
330
8413
100
AcDbEntity
  8
3
100
AcDbDimension
  2
*D36
 10
1577.8155184481
 20
6755.623467839007
 30
0.0
 11
1477.815518448099
 21
7815.623467839007
 31
0.0
 70
    32
 71
     5
 42
2119.999999999999
  3
IGA
100
AcDbAlignedDimension
 13
2026.831659683934
 23
8875.623467839007
 33
0.0
 14
2026.831659683934
 24
6755.623467839007
 34
0.0
 50
90.0
100
AcDbRotatedDimension
1001
ACAD
1000
DSTYLE
1002
{
1070
    40
1040
40.0
1070
   143
1040
0.039
1070
   172
1070
     1
1070
   271
1070
     4
1070
   272
1070
     4
1070
   279
1070
     0
1070
   284
1070
     0
1070
   285
1070
     0
1070
   286
1070
     0
1070
   341
1005
842A
1070
   343
1005
842A
1070
   344
1005
842A
1002
}
  0
DIMENSION
  5
857F
330
8413
100
AcDbEntity
  8
3
100
AcDbDimension
  2
*D37
 10
4476.831659683933
 20
6390.869589649355
 30
0.0
 11
3251.831659683933
 21
6490.869589649354
 31
0.0
 70
    32
 71
     5
 42
2449.999999999999
  3
IGA
100
AcDbAlignedDimension
 13
2026.831659683934
 23
6755.623467839007
 33
0.0
 14
4476.831659683933
 24
6755.623467839007
 34
0.0
100
AcDbRotatedDimension
1001
ACAD
1000
DSTYLE
1002
{
1070
    40
1040
40.0
1070
   143
1040
0.039
1070
   172
1070
     1
1070
   271
1070
     4
1070
   272
1070
     4
1070
   279
1070
     0
1070
   284
1070
     0
1070
   285
1070
     0
1070
   286
1070
     0
1070
   341
1005
842A
1070
   343
1005
842A
1070
   344
1005
842A
1002
}
  0
DIMENSION
  5
85A2
330
8413
100
AcDbEntity
  8
3
100
AcDbDimension
  2
*D39
 10
2776.831659683934
 20
5534.448112292857
 30
0.0
 11
2364.331659683934
 21
5634.448112292856
 31
0.0
 70
    32
 71
     5
 42
824.9999999999996
  3
IGA
100
AcDbAlignedDimension
 13
1951.831659683934
 23
4368.935954207628
 33
0.0
 14
2776.831659683934
 24
5418.534369238305
 34
0.0
100
AcDbRotatedDimension
1001
ACAD
1000
DSTYLE
1002
{
1070
    40
1040
40.0
1070
   143
1040
0.039
1070
   172
1070
     1
1070
   271
1070
     4
1070
   272
1070
     4
1070
   279
1070
     0
1070
   284
1070
     0
1070
   285
1070
     0
1070
   286
1070
     0
1070
   341
1005
842A
1070
   343
1005
842A
1070
   344
1005
842A
1002
}
  0
DIMENSION
  5
85AF
330
8413
100
AcDbEntity
  8
3
100
AcDbDimension
  2
*D40
 10
3855.831659683934
 20
5534.448112292857
 30
0.0
 11
3316.331659683934
 21
5634.448112292856
 31
0.0
 70
    32
 71
     5
 42
1079.0
  3
IGA
100
AcDbAlignedDimension
 13
2776.831659683934
 23
5418.534369238305
 33
0.0
 14
3855.831659683934
 24
4278.935954207628
 34
0.0
100
AcDbRotatedDimension
1001
ACAD
1000
DSTYLE
1002
{
1070
    40
1040
40.0
1070
   143
1040
0.039
1070
   172
1070
     1
1070
   271
1070
     4
1070
   272
1070
     4
1070
   279
1070
     1
1070
   284
1070
     0
1070
   285
1070
     0
1070
   286
1070
     0
1070
   341
1005
842A
1070
   343
1005
842A
1070
   344
1005
842A
1002
}
  0
DIMENSION
  5
85BC
330
8413
100
AcDbEntity
  8
3
100
AcDbDimension
  2
*D41
 10
4476.831659683933
 20
5815.282770043522
 30
0.0
 11
3214.331659683934
 21
5915.282770043521
 31
0.0
 70
    32
 71
     5
 42
2524.999999999999
  3
IGA
100
AcDbAlignedDimension
 13
1951.831659683934
 23
4368.935954207628
 33
0.0
 14
4476.831659683933
 24
3064.935954207627
 34
0.0
100
AcDbRotatedDimension
1001
ACAD
1000
DSTYLE
1002
{
1070
    40
1040
40.0
1070
   143
1040
0.039
1070
   172
1070
     1
1070
   271
1070
     4
1070
   272
1070
     4
1070
   279
1070
     0
1070
   284
1070
     0
1070
   285
1070
     0
1070
   286
1070
     0
1070
   341
1005
842A
1070
   343
1005
842A
1070
   344
1005
842A
1002
}
  0
DIMENSION
  5
85C9
330
8413
100
AcDbEntity
  8
3
100
AcDbDimension
  2
*D42
 10
1698.820626993976
 20
3035.935954207627
 30
0.0
 11
1598.820626993975
 21
3675.935954207627
 31
0.0
 70
    32
 71
     5
 42
1280.0
  3
IGA
100
AcDbAlignedDimension
 13
1951.831659683934
 23
4315.935954207627
 33
0.0
 14
1951.831659683934
 24
3035.935954207627
 34
0.0
 50
90.0
100
AcDbRotatedDimension
1001
ACAD
1000
DSTYLE
1002
{
1070
    40
1040
40.0
1070
   143
1040
0.039
1070
   172
1070
     1
1070
   271
1070
     4
1070
   272
1070
     4
1070
   279
1070
     0
1070
   284
1070
     0
1070
   285
1070
     0
1070
   286
1070
     0
1070
   341
1005
842A
1070
   343
1005
842A
1070
   344
1005
842A
1002
}
  0
DIMENSION
  5
85D6
330
8413
100
AcDbEntity
  8
3
100
AcDbDimension
  2
*D43
 10
1451.757784537447
 20
4369.935954207627
 30
0.0
 11
1351.757784537446
 21
3702.935954207627
 31
0.0
 70
    32
 71
     5
 42
1334.0
  3
IGA
100
AcDbAlignedDimension
 13
1951.831659683934
 23
3035.935954207627
 33
0.0
 14
1939.310814992313
 24
4369.935954207627
 34
0.0
 50
90.0
100
AcDbRotatedDimension
1001
ACAD
1000
DSTYLE
1002
{
1070
    40
1040
40.0
1070
   143
1040
0.039
1070
   172
1070
     1
1070
   271
1070
     4
1070
   272
1070
     4
1070
   279
1070
     0
1070
   284
1070
     0
1070
   285
1070
     0
1070
   286
1070
     0
1070
   341
1005
842A
1070
   343
1005
842A
1070
   344
1005
842A
1002
}
  0
DIMENSION
  5
85F0
330
8413
100
AcDbEntity
  8
3
100
AcDbDimension
  2
*D45
 10
1200.642070885875
 20
2939.935954207627
 30
0.0
 11
1100.642070885874
 21
3654.935954207628
 31
0.0
 70
    32
 71
     5
 42
1430.0
  3
IGA
100
AcDbAlignedDimension
 13
1939.310814992313
 23
4369.935954207627
 33
0.0
 14
2026.831659683934
 24
2939.935954207627
 34
0.0
 50
90.0
100
AcDbRotatedDimension
1001
ACAD
1000
DSTYLE
1002
{
1070
    40
1040
40.0
1070
   143
1040
0.039
1070
   172
1070
     1
1070
   271
1070
     4
1070
   272
1070
     4
1070
   279
1070
     1
1070
   284
1070
     0
1070
   285
1070
     0
1070
   286
1070
     0
1070
   341
1005
842A
1070
   343
1005
842A
1070
   344
1005
842A
1002
}
  0
DIMENSION
  5
85FD
330
8413
100
AcDbEntity
  8
3
100
AcDbDimension
  2
*D46
 10
1200.642070885875
 20
2919.935954207627
 30
0.0
 11
877.7849280287314
 21
3027.364525636199
 31
0.0
 70
    32
  1
(<>)
 71
     5
 42
20.0
  3
IGA
100
AcDbAlignedDimension
 13
2026.831659683934
 23
2939.935954207627
 33
0.0
 14
2026.831659683934
 24
2919.935954207627
 34
0.0
 50
90.0
100
AcDbRotatedDimension
1001
ACAD
1000
DSTYLE
1002
{
1070
    40
1040
40.0
1070
   143
1040
0.039
1070
   172
1070
     1
1070
   271
1070
     4
1070
   272
1070
     4
1070
   279
1070
     1
1070
   284
1070
     0
1070
   285
1070
     0
1070
   286
1070
     0
1070
   341
1005
842A
1070
   343
1005
842A
1070
   344
1005
86BF
1002
}
  0
DIMENSION
  5
860F
330
8413
100
AcDbEntity
  8
3
100
AcDbDimension
  2
*D47
 10
1200.642070885875
 20
2854.935954207627
 30
0.0
 11
1200.642070885875
 21
2694.935954207627
 31
0.0
 70
   160
 71
     5
 42
65.0
  3
IGA
100
AcDbAlignedDimension
 13
2026.831659683934
 23
2919.935954207627
 33
0.0
 14
2026.831659683934
 24
2854.935954207627
 34
0.0
 50
90.0
100
AcDbRotatedDimension
1001
ACAD
1000
DSTYLE
1002
{
1070
    40
1040
40.0
1070
   143
1040
0.039
1070
   172
1070
     1
1070
   271
1070
     4
1070
   272
1070
     4
1070
   279
1070
     1
1070
   284
1070
     0
1070
   285
1070
     0
1070
   286
1070
     0
1070
   341
1005
842A
1070
   343
1005
86BF
1070
   344
1005
842A
1002
}
  0
DIMENSION
  5
8621
330
8413
100
AcDbEntity
  8
3
100
AcDbDimension
  2
*D48
 10
736.2562497068134
 20
5266.935954207629
 30
0.0
 11
604.8276782782411
 21
4060.935954207628
 31
0.0
 70
    32
  1
(<>)
 71
     5
 42
2412.000000000002
  3
IGA
100
AcDbAlignedDimension
 13
2026.831659683934
 23
2854.935954207627
 33
0.0
 14
2867.831659683934
 24
5266.935954207628
 34
0.0
 50
90.0
100
AcDbRotatedDimension
1001
ACAD
1000
DSTYLE
1002
{
1070
    40
1040
40.0
1070
   143
1040
0.039
1070
   172
1070
     1
1070
   271
1070
     4
1070
   272
1070
     4
1070
   279
1070
     0
1070
   284
1070
     0
1070
   285
1070
     0
1070
   286
1070
     0
1070
   341
1005
842A
1070
   343
1005
842A
1070
   344
1005
842A
1002
}
  0
ENDSEC
  0
SECTION
  2
OBJECTS
  0
DICTIONARY
  5
83B0
330
0
100
AcDbDictionary
281
     1
  3
ACAD_CIP_PREVIOUS_PRODUCT_INFO
350
845C
  3
ACAD_COLOR
350
8406
  3
ACAD_DETAILVIEWSTYLE
350
840D
  3
ACAD_GROUP
350
83B1
  3
ACAD_LAYOUT
350
8405
  3
ACAD_MATERIAL
350
83B4
  3
ACAD_MLEADERSTYLE
350
8409
  3
ACAD_MLINESTYLE
350
8402
  3
ACAD_PLOTSETTINGS
350
8404
  3
ACAD_PLOTSTYLENAME
350
83B2
  3
ACAD_SCALELIST
350
83E6
  3
ACAD_SECTIONVIEWSTYLE
350
840B
  3
ACAD_TABLESTYLE
350
8407
  3
ACAD_VISUALSTYLE
350
83CD
  3
ACDB_RECOMPOSE_DATA
350
873E
  3
AcDbVariableDictionary
350
8467
  3
DWGPROPS
350
873F
  0
DICTIONARY
  5
845D
330
83F8
100
AcDbDictionary
280
     1
281
     1
  3
ADSK_XREC_LAYER_RECONCILED
360
845E
  0
DICTIONARY
  5
845F
330
8417
100
AcDbDictionary
280
     1
281
     1
  3
ADSK_XREC_LAYER_RECONCILED
360
8460
  0
DICTIONARY
  5
8461
330
841A
100
AcDbDictionary
280
     1
281
     1
  3
ADSK_XREC_LAYER_RECONCILED
360
8462
  0
DICTIONARY
  5
8463
330
841B
100
AcDbDictionary
280
     1
281
     1
  3
ADSK_XREC_LAYER_RECONCILED
360
8464
  0
DICTIONARY
  5
8465
330
841C
100
AcDbDictionary
280
     1
281
     1
  3
ADSK_XREC_LAYER_RECONCILED
360
8466
  0
DICTIONARY
  5
84B4
330
8413
100
AcDbDictionary
280
     1
281
     1
  3
ACAD_SORTENTS
360
84B5
  0
XRECORD
  5
845C
102
{ACAD_REACTORS
330
83B0
102
}
330
83B0
100
AcDbXrecord
280
     1
300
ACDLT
300
2015
300
INVLTS_F_S
  0
DICTIONARY
  5
8406
102
{ACAD_REACTORS
330
83B0
102
}
330
83B0
100
AcDbDictionary
281
     1
  0
DICTIONARY
  5
840D
102
{ACAD_REACTORS
330
83B0
102
}
330
83B0
100
AcDbDictionary
281
     1
  3
Imperial24
350
840E
  0
DICTIONARY
  5
83B1
102
{ACAD_REACTORS
330
83B0
102
}
330
83B0
100
AcDbDictionary
281
     1
  0
DICTIONARY
  5
8405
102
{ACAD_REACTORS
330
83B0
102
}
330
83B0
100
AcDbDictionary
281
     1
  3
Model
350
8416
  3
レイアウト1
350
8412
  0
DICTIONARY
  5
83B4
102
{ACAD_REACTORS
330
83B0
102
}
330
83B0
100
AcDbDictionary
281
     1
  3
ByBlock
350
83BD
  3
ByLayer
350
83B5
  3
Global
350
83C5
  0
DICTIONARY
  5
8409
102
{ACAD_REACTORS
330
83B0
102
}
330
83B0
100
AcDbDictionary
281
     1
  3
Standard
350
840A
  0
DICTIONARY
  5
8402
102
{ACAD_REACTORS
330
83B0
102
}
330
83B0
100
AcDbDictionary
281
     1
  3
Standard
350
8403
  0
DICTIONARY
  5
8404
102
{ACAD_REACTORS
330
83B0
102
}
330
83B0
100
AcDbDictionary
281
     1
  0
ACDBDICTIONARYWDFLT
  5
83B2
102
{ACAD_REACTORS
330
83B0
102
}
330
83B0
100
AcDbDictionary
281
     1
  3
Normal
350
83B3
100
AcDbDictionaryWithDefault
340
83B3
  0
DICTIONARY
  5
83E6
102
{ACAD_REACTORS
330
83B0
102
}
330
83B0
100
AcDbDictionary
281
     1
  3
A0
350
83E7
  3
A1
350
83E8
  3
A2
350
83E9
  3
A3
350
83EA
  3
A4
350
83EB
  3
A5
350
83EC
  3
A6
350
83ED
  3
A7
350
83EE
  3
A8
350
83EF
  3
A9
350
83F0
  3
B0
350
83F1
  3
B1
350
83F2
  3
B2
350
83F3
  3
B3
350
83F4
  3
B4
350
83F5
  3
B5
350
83F6
  3
B6
350
83F7
  0
DICTIONARY
  5
840B
102
{ACAD_REACTORS
330
83B0
102
}
330
83B0
100
AcDbDictionary
281
     1
  3
Imperial24
350
840C
  0
DICTIONARY
  5
8407
102
{ACAD_REACTORS
330
83B0
102
}
330
83B0
100
AcDbDictionary
281
     1
  3
Standard
350
8408
  0
DICTIONARY
  5
83CD
102
{ACAD_REACTORS
330
83B0
102
}
330
83B0
100
AcDbDictionary
281
     1
  3
2dWireframe
350
83D3
  3
Basic
350
83D2
  3
Brighten
350
83D9
  3
ColorChange
350
83DD
  3
Conceptual
350
83D6
  3
Dim
350
83D8
  3
EdgeColorOff
350
83E5
  3
Facepattern
350
83DC
  3
Flat
350
83CE
  3
FlatWithEdges
350
83CF
  3
Gouraud
350
83D0
  3
GouraudWithEdges
350
83D1
  3
Hidden
350
83D5
  3
JitterOff
350
83E3
  3
Linepattern
350
83DB
  3
OverhangOff
350
83E4
  3
Realistic
350
83D7
  3
Shaded
350
83E2
  3
Shaded with edges
350
83E1
  3
Shades of Gray
350
83DE
  3
Sketchy
350
83DF
  3
Thicken
350
83DA
  3
Wireframe
350
83D4
  3
X-Ray
350
83E0
  0
XRECORD
  5
873E
102
{ACAD_REACTORS
330
83B0
102
}
330
83B0
100
AcDbXrecord
280
     1
 90
        1
330
8408
  0
DICTIONARY
  5
8467
102
{ACAD_REACTORS
330
83B0
102
}
330
83B0
100
AcDbDictionary
281
     1
  3
CANNOSCALE
350
846C
  3
CMLEADERSTYLE
350
8469
  3
CTABLESTYLE
350
8468
  3
CVIEWDETAILSTYLE
350
846A
  3
CVIEWSECTIONSTYLE
350
846B
  3
DIMASSOC
350
846F
  3
INDEXCTL
350
846E
  3
SORTENTS
350
846D
  3
XCLIPFRAME
350
8470
  0
XRECORD
  5
873F
102
{ACAD_REACTORS
330
83B0
102
}
330
83B0
100
AcDbXrecord
280
     1
  1
DWGPROPS COOKIE
  2

  3

  4

  6

  7

  8
yasukiyo.ogawa
  9

300
=
301
=
302
=
303
=
304
=
305
=
306
=
307
=
308
=
309
=
 40
0.0217269560185185
 41
2451898.461951968
 42
2460280.754184653
  1

 90
        0
  0
XRECORD
  5
845E
102
{ACAD_REACTORS
330
845D
102
}
330
845D
100
AcDbXrecord
280
     1
290
     1
  0
XRECORD
  5
8460
102
{ACAD_REACTORS
330
845F
102
}
330
845F
100
AcDbXrecord
280
     1
290
     1
  0
XRECORD
  5
8462
102
{ACAD_REACTORS
330
8461
102
}
330
8461
100
AcDbXrecord
280
     1
290
     1
  0
XRECORD
  5
8464
102
{ACAD_REACTORS
330
8463
102
}
330
8463
100
AcDbXrecord
280
     1
290
     1
  0
XRECORD
  5
8466
102
{ACAD_REACTORS
330
8465
102
}
330
8465
100
AcDbXrecord
280
     1
290
     1
  0
SORTENTSTABLE
  5
84B5
102
{ACAD_REACTORS
330
84B4
102
}
330
84B4
100
AcDbSortentsTable
330
8413
331
7D00
  5
7D07
331
7CA3
  5
7CA5
331
7C92
  5
7C94
331
7C81
  5
7C83
331
7C78
  5
7C7A
331
809A
  5
809C
331
80AB
  5
80AD
331
7C23
  5
7C25
331
7C67
  5
7C69
331
7C56
  5
7C58
331
7C45
  5
7C48
331
7C34
  5
7C36
331
7C12
  5
7C12
331
7CC6
  5
7CCA
331
7CA4
  5
7CA6
331
7C93
  5
7C95
331
7C82
  5
7C84
331
7C79
  5
7C7B
331
7C68
  5
7C6A
331
809B
  5
809D
331
80AC
  5
80AE
331
7C24
  5
7C26
331
7C57
  5
7C59
331
7C13
  5
7C13
331
81A8
  5
81C2
331
81C2
  5
81DE
331
7C69
  5
7C6B
331
7C58
  5
7C5A
331
7CB6
  5
7CB8
331
7CA5
  5
7CA7
331
7C94
  5
7C96
331
7C83
  5
7C85
331
7C7A
  5
7C7C
331
7CD8
  5
7CDB
331
7CC7
  5
7CCB
331
809C
  5
809F
331
80AD
  5
80AF
331
7C25
  5
7C27
331
7C36
  5
7C38
331
7C14
  5
7C14
331
7CB7
  5
7CB9
331
7CA6
  5
7CA8
331
7C95
  5
7C97
331
7C84
  5
7C86
331
7C7B
  5
7C7D
331
7C6A
  5
7C6C
331
7C59
  5
7C5B
331
7CD9
  5
7CDC
331
809D
  5
80A0
331
80AE
  5
80B0
331
7C26
  5
7C28
331
7C15
  5
7C17
331
7C37
  5
7C39
331
7CB8
  5
7CBA
331
7CA7
  5
7CA9
331
7C96
  5
7C98
331
7C85
  5
7C87
331
7C7C
  5
7C7E
331
7C6B
  5
7C6D
331
7C5A
  5
7C5C
331
7C38
  5
7C3A
331
80AF
  5
80B1
331
7C27
  5
7C29
331
7C16
  5
7C18
331
80B0
  5
81A8
331
7C28
  5
7C2A
331
7CDB
  5
7CDD
331
7CB9
  5
7CBB
331
7CA8
  5
7CAA
331
7C97
  5
7C99
331
7C86
  5
7C88
331
7C7D
  5
7C7F
331
7C6C
  5
7C6E
331
7C5B
  5
7C5D
331
7C4A
  5
7C4C
331
7C39
  5
7C3B
331
809F
  5
80A1
331
7C17
  5
7C19
331
80A0
  5
80A2
331
7C18
  5
7C1A
331
80B1
  5
81B5
331
7C29
  5
7C2B
331
7CDC
  5
7CDE
331
7CBA
  5
7CBC
331
7CA9
  5
7CAB
331
7C98
  5
7C9C
331
7C87
  5
7C89
331
7C7E
  5
7C80
331
7C6D
  5
7C6F
331
7C5C
  5
7C5E
331
7C4B
  5
7C4D
331
7C3A
  5
7C3C
331
80A1
  5
80A3
331
7C19
  5
7C1B
331
8214
  5
84B3
331
7CBB
  5
7CBD
331
7CAA
  5
7CAE
331
7C99
  5
7C9D
331
7C88
  5
7C8A
331
7C7F
  5
7C81
331
7C6E
  5
7C70
331
7C5D
  5
7C5F
331
7C4C
  5
7C4E
331
7C3B
  5
7C3D
331
7C2A
  5
7C2C
331
7D07
  5
8060
331
7CDD
  5
7CE0
331
80A2
  5
80A4
331
7C1A
  5
7C1C
331
7CDE
  5
7CE1
331
7CCD
  5
7CCF
331
7CBC
  5
7CBE
331
7CAB
  5
7CAF
331
7C6F
  5
7C71
331
7C5E
  5
7C60
331
7C4D
  5
7C4F
331
7C3C
  5
7C3E
331
7C2B
  5
7C2D
331
8092
  5
8094
331
7CF8
  5
7CFD
331
7CF0
  5
7CF9
331
80A3
  5
80A5
331
7C1B
  5
7C1D
331
7CCE
  5
7CD0
331
7CBD
  5
7CBF
331
7C70
  5
7C72
331
7C5F
  5
7C61
331
7C4E
  5
7C50
331
7C3D
  5
7C3F
331
7C2C
  5
7C2E
331
8093
  5
8095
331
7CF9
  5
7D00
331
7CE0
  5
7CE2
331
80A4
  5
80A6
331
7C1C
  5
7C1E
331
7CCF
  5
7CD2
331
7CBE
  5
7CC0
331
7C9C
  5
7C9E
331
7C71
  5
7C73
331
7C60
  5
7C62
331
7C4F
  5
7C51
331
7C3E
  5
7C40
331
7C2D
  5
7C2F
331
7CE1
  5
7CE3
331
7CD0
  5
7CD3
331
8094
  5
8098
331
80A5
  5
80A7
331
7C1D
  5
7C1F
331
7CBF
  5
7CC2
331
7CAE
  5
7CB0
331
7C9D
  5
7CA0
331
7C72
  5
7C74
331
7C61
  5
7C63
331
7C50
  5
7C55
331
7C3F
  5
7C41
331
7C2E
  5
7C30
331
7C0C
  5
7C0C
331
7CE2
  5
7CE4
331
7CC0
  5
7CC3
331
8095
  5
8099
331
80A6
  5
80A8
331
7C1E
  5
7C20
331
7CAF
  5
7CB1
331
7C9E
  5
7CA1
331
7C73
  5
7C75
331
7C62
  5
7C64
331
7C51
  5
7C56
331
7C40
  5
7C42
331
7C2F
  5
7C31
331
7C0D
  5
7C0D
331
7CE3
  5
7CE5
331
7CD2
  5
7CD4
331
7CB0
  5
7CB2
331
80A7
  5
80A9
331
7C1F
  5
7C21
331
81CF
  5
8214
331
7C8E
  5
7C91
331
7C74
  5
7C76
331
7C63
  5
7C65
331
7C41
  5
7C43
331
7C30
  5
7C32
331
7C0E
  5
7C0E
331
7CFD
  5
7D01
331
7CE4
  5
7CE6
331
7CD3
  5
7CD5
331
7CC2
  5
7CC6
331
7CB1
  5
7CB3
331
7CA0
  5
7CA3
331
80A8
  5
80AA
331
7C20
  5
7C22
331
7C75
  5
7C77
331
7C64
  5
7C66
331
7C42
  5
7C44
331
7C31
  5
7C33
331
7C0F
  5
7C0F
331
7CE5
  5
7CE7
331
7CD4
  5
7CD8
331
7CC3
  5
7CC7
331
7CB2
  5
7CB6
331
7CA1
  5
7CA4
331
7C90
  5
7C92
331
8098
  5
809A
331
80A9
  5
80AB
331
7C21
  5
7C23
331
81B5
  5
81CF
331
7C43
  5
7C45
331
7C32
  5
7C34
331
7C76
  5
7C78
331
7C65
  5
7C67
331
7C10
  5
7C10
331
7CB3
  5
7CB7
331
7C91
  5
7C93
331
7C80
  5
7C82
331
8099
  5
809B
331
7CD5
  5
7CD9
331
80AA
  5
80AC
331
7C77
  5
7C79
331
7C66
  5
7C68
331
7C55
  5
7C57
331
7C44
  5
7C47
331
7C33
  5
7C35
331
7C22
  5
7C24
  0
ACDBDETAILVIEWSTYLE
  5
840E
102
{ACAD_XDICTIONARY
360
8777
102
}
102
{ACAD_REACTORS
330
840D
102
}
330
840D
100
AcDbModelDocViewStyle
 70
     0
  3
Imperial24
290
     0
100
AcDbDetailViewStyle
 70
     0
 71
     0
 90
        3
 71
     1
340
83F9
 40
0.24
340
0
 40
0.24
300

 40
0.36
280
     3
 71
     2
340
8400
 90
       25
 71
     3
340
83F9
 40
0.24
 90
        1
 40
0.75
 90
        1
300
%<\AcVar ViewType \f "%tc1">% %<\AcVar ViewDetailId>%\PSCALE %<\AcVar ViewScale \f "%sn">%
 71
     4
340
8400
 90
       25
340
8400
 90
       25
280
     0
  0
LAYOUT
  5
8416
102
{ACAD_XDICTIONARY
360
877B
102
}
102
{ACAD_REACTORS
330
8405
102
}
330
8405
100
AcDbPlotSettings
  1

  2
RICOH imagio MP W3600 RPCS
  4

  6

 40
0.0
 41
0.0
 42
0.0
 43
0.0
 44
0.0
 45
0.0
 46
0.0
 47
0.0
 48
0.0
 49
0.0
140
0.0
141
0.0
142
1.0
143
1.0
 70
  1712
 72
     0
 73
     0
 74
     0
  7

 75
     0
147
1.0
148
0.0
149
0.0
100
AcDbLayout
  1
Model
 70
     1
 71
     0
 10
0.0
 20
0.0
 11
12.0
 21
9.0
 12
0.0
 22
0.0
 32
0.0
 14
0.0
 24
0.0
 34
0.0
 15
0.0
 25
0.0
 35
0.0
146
0.0
 13
0.0
 23
0.0
 33
0.0
 16
1.0
 26
0.0
 36
0.0
 17
0.0
 27
1.0
 37
0.0
 76
     0
330
8413
331
8418
  0
LAYOUT
  5
8412
102
{ACAD_XDICTIONARY
360
8779
102
}
102
{ACAD_REACTORS
330
8405
102
}
330
8405
100
AcDbPlotSettings
  1

  2
RICOH imagio MP W3600 RPCS
  4

  6

 40
0.0
 41
0.0
 42
0.0
 43
0.0
 44
0.0
 45
0.0
 46
0.0
 47
0.0
 48
0.0
 49
0.0
140
0.0
141
0.0
142
1.0
143
1.0
 70
   688
 72
     0
 73
     0
 74
     5
  7

 75
    16
147
1.0
148
0.0
149
0.0
100
AcDbLayout
  1
レイアウト1
 70
     1
 71
     1
 10
0.0
 20
0.0
 11
12.0
 21
9.0
 12
0.0
 22
0.0
 32
0.0
 14
1.000000000000000E+20
 24
1.000000000000000E+20
 34
1.000000000000000E+20
 15
-1.000000000000000E+20
 25
-1.000000000000000E+20
 35
-1.000000000000000E+20
146
0.0
 13
0.0
 23
0.0
 33
0.0
 16
1.0
 26
0.0
 36
0.0
 17
0.0
 27
1.0
 37
0.0
 76
     0
330
840F
  0
MATERIAL
  5
83BD
102
{ACAD_XDICTIONARY
360
83BE
102
}
102
{ACAD_REACTORS
330
83B4
102
}
330
83B4
100
AcDbMaterial
  1
ByBlock
 72
     0
 43
0.0208333333333333
 43
0.0
 43
0.0
 43
0.0
 43
0.0
 43
0.0208333333333333
 43
0.0
 43
0.0
 43
0.0
 43
0.0
 43
1.0
 43
0.0
 43
0.0
 43
0.0
 43
0.0
 43
1.0
 77
     0
 47
0.0208333333333333
 47
0.0
 47
0.0
 47
0.0
 47
0.0
 47
0.0208333333333333
 47
0.0
 47
0.0
 47
0.0
 47
0.0
 47
1.0
 47
0.0
 47
0.0
 47
0.0
 47
0.0
 47
1.0
171
     0
 49
0.0208333333333333
 49
0.0
 49
0.0
 49
0.0
 49
0.0
 49
0.0208333333333333
 49
0.0
 49
0.0
 49
0.0
 49
0.0
 49
1.0
 49
0.0
 49
0.0
 49
0.0
 49
0.0
 49
1.0
175
     0
142
0.0208333333333333
142
0.0
142
0.0
142
0.0
142
0.0
142
0.0208333333333333
142
0.0
142
0.0
142
0.0
142
0.0
142
1.0
142
0.0
142
0.0
142
0.0
142
0.0
142
1.0
179
     0
144
0.0208333333333333
144
0.0
144
0.0
144
0.0
144
0.0
144
0.0208333333333333
144
0.0
144
0.0
144
0.0
144
0.0
144
1.0
144
0.0
144
0.0
144
0.0
144
0.0
144
1.0
147
0.0208333333333333
147
0.0
147
0.0
147
0.0
147
0.0
147
0.0208333333333333
147
0.0
147
0.0
147
0.0
147
0.0
147
1.0
147
0.0
147
0.0
147
0.0
147
0.0
147
1.0
  0
MATERIAL
  5
83B5
102
{ACAD_XDICTIONARY
360
83B6
102
}
102
{ACAD_REACTORS
330
83B4
102
}
330
83B4
100
AcDbMaterial
  1
ByLayer
 72
     0
 43
0.0208333333333333
 43
0.0
 43
0.0
 43
0.0
 43
0.0
 43
0.0208333333333333
 43
0.0
 43
0.0
 43
0.0
 43
0.0
 43
1.0
 43
0.0
 43
0.0
 43
0.0
 43
0.0
 43
1.0
 77
     0
 47
0.0208333333333333
 47
0.0
 47
0.0
 47
0.0
 47
0.0
 47
0.0208333333333333
 47
0.0
 47
0.0
 47
0.0
 47
0.0
 47
1.0
 47
0.0
 47
0.0
 47
0.0
 47
0.0
 47
1.0
171
     0
 49
0.0208333333333333
 49
0.0
 49
0.0
 49
0.0
 49
0.0
 49
0.0208333333333333
 49
0.0
 49
0.0
 49
0.0
 49
0.0
 49
1.0
 49
0.0
 49
0.0
 49
0.0
 49
0.0
 49
1.0
175
     0
142
0.0208333333333333
142
0.0
142
0.0
142
0.0
142
0.0
142
0.0208333333333333
142
0.0
142
0.0
142
0.0
142
0.0
142
1.0
142
0.0
142
0.0
142
0.0
142
0.0
142
1.0
179
     0
144
0.0208333333333333
144
0.0
144
0.0
144
0.0
144
0.0
144
0.0208333333333333
144
0.0
144
0.0
144
0.0
144
0.0
144
1.0
144
0.0
144
0.0
144
0.0
144
0.0
144
1.0
147
0.0208333333333333
147
0.0
147
0.0
147
0.0
147
0.0
147
0.0208333333333333
147
0.0
147
0.0
147
0.0
147
0.0
147
1.0
147
0.0
147
0.0
147
0.0
147
0.0
147
1.0
  0
MATERIAL
  5
83C5
102
{ACAD_XDICTIONARY
360
83C6
102
}
102
{ACAD_REACTORS
330
83B4
102
}
330
83B4
100
AcDbMaterial
  1
Global
 72
     0
 43
0.0208333333333333
 43
0.0
 43
0.0
 43
0.0
 43
0.0
 43
0.0208333333333333
 43
0.0
 43
0.0
 43
0.0
 43
0.0
 43
1.0
 43
0.0
 43
0.0
 43
0.0
 43
0.0
 43
1.0
 77
     0
 47
0.0208333333333333
 47
0.0
 47
0.0
 47
0.0
 47
0.0
 47
0.0208333333333333
 47
0.0
 47
0.0
 47
0.0
 47
0.0
 47
1.0
 47
0.0
 47
0.0
 47
0.0
 47
0.0
 47
1.0
171
     0
 49
0.0208333333333333
 49
0.0
 49
0.0
 49
0.0
 49
0.0
 49
0.0208333333333333
 49
0.0
 49
0.0
 49
0.0
 49
0.0
 49
1.0
 49
0.0
 49
0.0
 49
0.0
 49
0.0
 49
1.0
175
     0
142
0.0208333333333333
142
0.0
142
0.0
142
0.0
142
0.0
142
0.0208333333333333
142
0.0
142
0.0
142
0.0
142
0.0
142
1.0
142
0.0
142
0.0
142
0.0
142
0.0
142
1.0
179
     0
144
0.0208333333333333
144
0.0
144
0.0
144
0.0
144
0.0
144
0.0208333333333333
144
0.0
144
0.0
144
0.0
144
0.0
144
1.0
144
0.0
144
0.0
144
0.0
144
0.0
144
1.0
147
0.0208333333333333
147
0.0
147
0.0
147
0.0
147
0.0
147
0.0208333333333333
147
0.0
147
0.0
147
0.0
147
0.0
147
1.0
147
0.0
147
0.0
147
0.0
147
0.0
147
1.0
  0
MLEADERSTYLE
  5
840A
102
{ACAD_REACTORS
330
8409
102
}
330
8409
100
AcDbMLeaderStyle
170
     2
171
     1
172
     0
 90
        2
 40
0.0
 41
0.0
173
     1
 91
-1056964608
340
83FE
 92
       -2
290
     1
 42
0.09
291
     1
 43
0.36
  3
Standard
 44
0.18
300

342
83F9
174
     1
178
     6
175
     1
176
     0
 93
-1056964608
 45
0.18
292
     0
297
     0
 46
0.18
 94
-1056964608
 47
1.0
 49
1.0
140
1.0
293
     1
141
0.0
294
     1
177
     0
142
1.0
295
     0
296
     0
143
0.125
1001
ACAD_MLEADERVER
1070
     2
  0
MLINESTYLE
  5
8403
102
{ACAD_REACTORS
330
8402
102
}
330
8402
100
AcDbMlineStyle
  2
STANDARD
 70
     0
  3

 62
   256
 51
90.0
 52
90.0
 71
     2
 49
0.5
 62
   256
  6
BYLAYER
 49
-0.5
 62
   256
  6
BYLAYER
  0
ACDBPLACEHOLDER
  5
83B3
102
{ACAD_REACTORS
330
83B2
102
}
330
83B2
  0
SCALE
  5
83E7
102
{ACAD_REACTORS
330
83E6
102
}
330
83E6
100
AcDbScale
 70
     0
300
1:1
140
1.0
141
1.0
290
     1
  0
SCALE
  5
83E8
102
{ACAD_REACTORS
330
83E6
102
}
330
83E6
100
AcDbScale
 70
     0
300
1/128" = 1'-0"
140
0.0078125
141
12.0
290
     0
  0
SCALE
  5
83E9
102
{ACAD_REACTORS
330
83E6
102
}
330
83E6
100
AcDbScale
 70
     0
300
1/64" = 1'-0"
140
0.015625
141
12.0
290
     0
  0
SCALE
  5
83EA
102
{ACAD_REACTORS
330
83E6
102
}
330
83E6
100
AcDbScale
 70
     0
300
1/32" = 1'-0"
140
0.03125
141
12.0
290
     0
  0
SCALE
  5
83EB
102
{ACAD_REACTORS
330
83E6
102
}
330
83E6
100
AcDbScale
 70
     0
300
1/16" = 1'-0"
140
0.0625
141
12.0
290
     0
  0
SCALE
  5
83EC
102
{ACAD_REACTORS
330
83E6
102
}
330
83E6
100
AcDbScale
 70
     0
300
3/32" = 1'-0"
140
0.09375
141
12.0
290
     0
  0
SCALE
  5
83ED
102
{ACAD_REACTORS
330
83E6
102
}
330
83E6
100
AcDbScale
 70
     0
300
1/8" = 1'-0"
140
0.125
141
12.0
290
     0
  0
SCALE
  5
83EE
102
{ACAD_REACTORS
330
83E6
102
}
330
83E6
100
AcDbScale
 70
     0
300
3/16" = 1'-0"
140
0.1875
141
12.0
290
     0
  0
SCALE
  5
83EF
102
{ACAD_REACTORS
330
83E6
102
}
330
83E6
100
AcDbScale
 70
     0
300
1/4" = 1'-0"
140
0.25
141
12.0
290
     0
  0
SCALE
  5
83F0
102
{ACAD_REACTORS
330
83E6
102
}
330
83E6
100
AcDbScale
 70
     0
300
3/8" = 1'-0"
140
0.375
141
12.0
290
     0
  0
SCALE
  5
83F1
102
{ACAD_REACTORS
330
83E6
102
}
330
83E6
100
AcDbScale
 70
     0
300
1/2" = 1'-0"
140
0.5
141
12.0
290
     0
  0
SCALE
  5
83F2
102
{ACAD_REACTORS
330
83E6
102
}
330
83E6
100
AcDbScale
 70
     0
300
3/4" = 1'-0"
140
0.75
141
12.0
290
     0
  0
SCALE
  5
83F3
102
{ACAD_REACTORS
330
83E6
102
}
330
83E6
100
AcDbScale
 70
     0
300
1" = 1'-0"
140
1.0
141
12.0
290
     0
  0
SCALE
  5
83F4
102
{ACAD_REACTORS
330
83E6
102
}
330
83E6
100
AcDbScale
 70
     0
300
1-1/2" = 1'-0"
140
1.5
141
12.0
290
     0
  0
SCALE
  5
83F5
102
{ACAD_REACTORS
330
83E6
102
}
330
83E6
100
AcDbScale
 70
     0
300
3" = 1'-0"
140
3.0
141
12.0
290
     0
  0
SCALE
  5
83F6
102
{ACAD_REACTORS
330
83E6
102
}
330
83E6
100
AcDbScale
 70
     0
300
6" = 1'-0"
140
6.0
141
12.0
290
     0
  0
SCALE
  5
83F7
102
{ACAD_REACTORS
330
83E6
102
}
330
83E6
100
AcDbScale
 70
     0
300
1'-0" = 1'-0"
140
12.0
141
12.0
290
     0
  0
ACDBSECTIONVIEWSTYLE
  5
840C
102
{ACAD_XDICTIONARY
360
8775
102
}
102
{ACAD_REACTORS
330
840B
102
}
330
840B
100
AcDbModelDocViewStyle
 70
     0
  3
Imperial24
290
     0
100
AcDbSectionViewStyle
 70
     0
 71
     0
 90
       78
 71
     1
340
83F9
 40
0.24
340
0
340
0
 40
0.24
300
I, O, Q, S, X, Z
 40
0.48
 90
        3
 40
0.18
 90
        1
 71
     2
340
8400
 90
       25
340
8400
 90
       50
 40
0.24
 40
0.0
 40
0.24
 71
     3
340
83F9
 40
0.24
 90
        1
 40
0.75
 90
        1
300
%<\AcVar ViewType \f "%tc1">% %<\AcVar ViewSectionStartId>%-%<\AcVar ViewSectionEndId>%\PSCALE %<\AcVar ViewScale \f "%sn">%
 71
     4
300
ANSI31
 40
1.0
 90
        0
290
     0
290
     0
 90
        6
 40
0.0
 40
1.570796326794896
 40
0.2617993877991494
 40
1.308996938995747
 40
-0.2617993877991494
 40
1.832595714594046
  0
TABLESTYLE
  5
8408
102
{ACAD_XDICTIONARY
360
873C
102
}
102
{ACAD_REACTORS
330
8407
102
}
330
8407
100
AcDbTableStyle
  3
Standard
 70
     0
 71
     0
 40
0.06
 41
0.06
280
     0
281
     0
  7
STANDARD
140
0.18
170
     2
 62
     0
 63
     7
283
     0
274
    -2
284
     1
 64
     0
275
    -2
285
     1
 65
     0
276
    -2
286
     1
 66
     0
277
    -2
287
     1
 67
     0
278
    -2
288
     1
 68
     0
279
    -2
289
     1
 69
     0
  7
STANDARD
140
0.25
170
     5
 62
     0
 63
     7
283
     0
274
    -2
284
     1
 64
     0
275
    -2
285
     1
 65
     0
276
    -2
286
     1
 66
     0
277
    -2
287
     1
 67
     0
278
    -2
288
     1
 68
     0
279
    -2
289
     1
 69
     0
  7
STANDARD
140
0.18
170
     5
 62
     0
 63
     7
283
     0
274
    -2
284
     1
 64
     0
275
    -2
285
     1
 65
     0
276
    -2
286
     1
 66
     0
277
    -2
287
     1
 67
     0
278
    -2
288
     1
 68
     0
279
    -2
289
     1
 69
     0
  0
VISUALSTYLE
  5
83D3
102
{ACAD_XDICTIONARY
360
874D
102
}
102
{ACAD_REACTORS
330
83CD
102
}
330
83CD
100
AcDbVisualStyle
  2
2dWireframe
 70
     4
 71
     0
 72
     2
 73
     0
 90
        0
 40
-0.6
 41
-30.0
 62
     5
 63
     7
 74
     1
 91
        4
 64
     7
 65
   257
 75
     1
175
     1
 42
1.0
 92
        0
 66
   257
 43
1.0
 76
     1
 77
     6
 78
     2
 67
     7
 79
     5
170
     0
171
     0
290
     0
174
     0
 93
        1
 44
0.0
173
     0
291
     0
 45
0.0
1001
ACAD
1000
AcDbSavedByObjectVersion
1070
     0
  0
VISUALSTYLE
  5
83D2
102
{ACAD_XDICTIONARY
360
874B
102
}
102
{ACAD_REACTORS
330
83CD
102
}
330
83CD
100
AcDbVisualStyle
  2
Basic
 70
     7
 71
     1
 72
     0
 73
     1
 90
        0
 40
-0.6
 41
-30.0
 62
     5
 63
     7
 74
     0
 91
        4
 64
     7
 65
   257
 75
     1
175
     1
 42
1.0
 92
        8
 66
     7
 43
1.0
 76
     1
 77
     6
 78
     2
 67
     7
 79
     5
170
     0
171
     0
290
     0
174
     0
 93
        1
 44
0.0
173
     0
291
     1
 45
0.0
1001
ACAD
1000
AcDbSavedByObjectVersion
1070
     0
  0
VISUALSTYLE
  5
83D9
102
{ACAD_XDICTIONARY
360
8759
102
}
102
{ACAD_REACTORS
330
83CD
102
}
330
83CD
100
AcDbVisualStyle
  2
Brighten
 70
    12
 71
     2
 72
     2
 73
     0
 90
        0
 40
-0.6
 41
-30.0
 62
     5
 63
     7
 74
     1
 91
        4
 64
     7
 65
   257
 75
     1
175
     1
 42
1.0
 92
        8
 66
     7
 43
1.0
 76
     1
 77
     6
 78
     2
 67
     7
 79
     5
170
     0
171
     0
290
     0
174
     0
 93
        1
 44
50.0
173
     0
291
     1
 45
0.0
1001
ACAD
1000
AcDbSavedByObjectVersion
1070
     0
  0
VISUALSTYLE
  5
83DD
102
{ACAD_XDICTIONARY
360
8761
102
}
102
{ACAD_REACTORS
330
83CD
102
}
330
83CD
100
AcDbVisualStyle
  2
ColorChange
 70
    16
 71
     2
 72
     2
 73
     3
 90
        0
 40
-0.6
 41
-30.0
 62
     5
 63
     8
 74
     1
 91
        4
 64
     7
 65
   257
 75
     1
175
     1
 42
1.0
 92
        8
 66
     8
 43
1.0
 76
     1
 77
     6
 78
     2
 67
     7
 79
     5
170
     0
171
     0
290
     0
174
     0
 93
        1
 44
0.0
173
     0
291
     1
 45
0.0
1001
ACAD
1000
AcDbSavedByObjectVersion
1070
     0
  0
VISUALSTYLE
  5
83D6
102
{ACAD_XDICTIONARY
360
8753
102
}
102
{ACAD_REACTORS
330
83CD
102
}
330
83CD
100
AcDbVisualStyle
  2
Conceptual
 70
     9
 71
     3
 72
     2
 73
     0
 90
        0
 40
-0.6
 41
-30.0
 62
     5
 63
     7
 74
     2
 91
        2
 64
     7
 65
   257
 75
     1
175
     1
 42
179.0
 92
        8
 66
     7
 43
1.0
 76
     1
 77
     6
 78
     2
 67
     7
 79
     3
170
     0
171
     0
290
     0
174
     0
 93
        1
 44
0.0
173
     0
291
     0
 45
0.0
1001
ACAD
1000
AcDbSavedByObjectVersion
1070
     0
  0
VISUALSTYLE
  5
83D8
102
{ACAD_XDICTIONARY
360
8757
102
}
102
{ACAD_REACTORS
330
83CD
102
}
330
83CD
100
AcDbVisualStyle
  2
Dim
 70
    11
 71
     2
 72
     2
 73
     0
 90
        0
 40
-0.6
 41
-30.0
 62
     5
 63
     7
 74
     1
 91
        4
 64
     7
 65
   257
 75
     1
175
     1
 42
1.0
 92
        8
 66
     7
 43
1.0
 76
     1
 77
     6
 78
     2
 67
     7
 79
     5
170
     0
171
     0
290
     0
174
     0
 93
        1
 44
-50.0
173
     0
291
     1
 45
0.0
1001
ACAD
1000
AcDbSavedByObjectVersion
1070
     0
  0
VISUALSTYLE
  5
83E5
102
{ACAD_XDICTIONARY
360
8771
102
}
102
{ACAD_REACTORS
330
83CD
102
}
330
83CD
100
AcDbVisualStyle
  2
EdgeColorOff
 70
    22
 71
     2
 72
     2
 73
     0
 90
        0
 40
-0.6
 41
-30.0
 62
     5
 63
     7
 74
     1
 91
        4
 64
     7
 65
   257
 75
     1
175
     1
 42
1.0
 92
        8
 66
     7
 43
1.0
 76
     1
 77
     6
 78
     2
 67
     7
 79
     5
170
     0
171
     0
290
     0
174
     0
 93
        1
 44
0.0
173
     0
291
     1
 45
0.0
1001
ACAD
1000
AcDbSavedByObjectVersion
1070
     0
  0
VISUALSTYLE
  5
83DC
102
{ACAD_XDICTIONARY
360
875F
102
}
102
{ACAD_REACTORS
330
83CD
102
}
330
83CD
100
AcDbVisualStyle
  2
Facepattern
 70
    15
 71
     2
 72
     2
 73
     0
 90
        0
 40
-0.6
 41
-30.0
 62
     5
 63
     7
 74
     1
 91
        4
 64
     7
 65
   257
 75
     1
175
     1
 42
1.0
 92
        8
 66
     7
 43
1.0
 76
     1
 77
     6
 78
     2
 67
     7
 79
     5
170
     0
171
     0
290
     0
174
     0
 93
        1
 44
0.0
173
     0
291
     1
 45
0.0
1001
ACAD
1000
AcDbSavedByObjectVersion
1070
     0
  0
VISUALSTYLE
  5
83CE
102
{ACAD_XDICTIONARY
360
8743
102
}
102
{ACAD_REACTORS
330
83CD
102
}
330
83CD
100
AcDbVisualStyle
  2
Flat
 70
     0
 71
     2
 72
     1
 73
     1
 90
        2
 40
-0.6
 41
30.0
 62
     5
 63
     7
 74
     0
 91
        0
 64
     7
 65
   257
 75
     1
175
     1
 42
1.0
 92
        8
 66
     7
 43
1.0
 76
     1
 77
     6
 78
     2
 67
     7
 79
     5
170
     0
171
     0
290
     0
174
     0
 93
       13
 44
0.0
173
     0
291
     1
 45
0.0
1001
ACAD
1000
AcDbSavedByObjectVersion
1070
     0
  0
VISUALSTYLE
  5
83CF
102
{ACAD_XDICTIONARY
360
8745
102
}
102
{ACAD_REACTORS
330
83CD
102
}
330
83CD
100
AcDbVisualStyle
  2
FlatWithEdges
 70
     1
 71
     2
 72
     1
 73
     1
 90
        2
 40
-0.6
 41
30.0
 62
     5
 63
     7
 74
     1
 91
        0
 64
     7
 65
   257
 75
     1
175
     1
 42
1.0
 92
        0
 66
   257
 43
1.0
 76
     1
 77
     6
 78
     2
 67
     7
 79
     5
170
     0
171
     0
290
     0
174
     0
 93
       13
 44
0.0
173
     0
291
     1
 45
0.0
1001
ACAD
1000
AcDbSavedByObjectVersion
1070
     0
  0
VISUALSTYLE
  5
83D0
102
{ACAD_XDICTIONARY
360
8747
102
}
102
{ACAD_REACTORS
330
83CD
102
}
330
83CD
100
AcDbVisualStyle
  2
Gouraud
 70
     2
 71
     2
 72
     2
 73
     1
 90
        2
 40
-0.6
 41
30.0
 62
     5
 63
     7
 74
     0
 91
        0
 64
     7
 65
   257
 75
     1
175
     1
 42
1.0
 92
        0
 66
     7
 43
1.0
 76
     1
 77
     6
 78
     2
 67
     7
 79
     5
170
     0
171
     0
290
     0
174
     0
 93
       13
 44
0.0
173
     0
291
     1
 45
0.0
1001
ACAD
1000
AcDbSavedByObjectVersion
1070
     0
  0
VISUALSTYLE
  5
83D1
102
{ACAD_XDICTIONARY
360
8749
102
}
102
{ACAD_REACTORS
330
83CD
102
}
330
83CD
100
AcDbVisualStyle
  2
GouraudWithEdges
 70
     3
 71
     2
 72
     2
 73
     1
 90
        2
 40
-0.6
 41
30.0
 62
     5
 63
     7
 74
     1
 91
        0
 64
     7
 65
   257
 75
     1
175
     1
 42
1.0
 92
        0
 66
   257
 43
1.0
 76
     1
 77
     6
 78
     2
 67
     7
 79
     5
170
     0
171
     0
290
     0
174
     0
 93
       13
 44
0.0
173
     0
291
     1
 45
0.0
1001
ACAD
1000
AcDbSavedByObjectVersion
1070
     0
  0
VISUALSTYLE
  5
83D5
102
{ACAD_XDICTIONARY
360
8751
102
}
102
{ACAD_REACTORS
330
83CD
102
}
330
83CD
100
AcDbVisualStyle
  2
Hidden
 70
     6
 71
     1
 72
     2
 73
     2
 90
        0
 40
-0.6
 41
-30.0
 62
     5
 63
     7
 74
     2
 91
        2
 64
     7
 65
   257
 75
     2
175
     1
 42
40.0
 92
        0
 66
   257
 43
1.0
 76
     1
 77
     6
 78
     2
 67
     7
 79
     3
170
     0
171
     0
290
     0
174
     0
 93
        1
 44
0.0
173
     0
291
     0
 45
0.0
1001
ACAD
1000
AcDbSavedByObjectVersion
1070
     0
  0
VISUALSTYLE
  5
83E3
102
{ACAD_XDICTIONARY
360
876D
102
}
102
{ACAD_REACTORS
330
83CD
102
}
330
83CD
100
AcDbVisualStyle
  2
JitterOff
 70
    20
 71
     2
 72
     2
 73
     0
 90
        0
 40
-0.6
 41
-30.0
 62
     5
 63
     7
 74
     1
 91
        4
 64
     7
 65
   257
 75
     1
175
     1
 42
1.0
 92
       10
 66
     7
 43
1.0
 76
     1
 77
     6
 78
     2
 67
     7
 79
     5
170
     0
171
     0
290
     0
174
     0
 93
        1
 44
0.0
173
     0
291
     1
 45
0.0
1001
ACAD
1000
AcDbSavedByObjectVersion
1070
     0
  0
VISUALSTYLE
  5
83DB
102
{ACAD_XDICTIONARY
360
875D
102
}
102
{ACAD_REACTORS
330
83CD
102
}
330
83CD
100
AcDbVisualStyle
  2
Linepattern
 70
    14
 71
     2
 72
     2
 73
     0
 90
        0
 40
-0.6
 41
-30.0
 62
     5
 63
     7
 74
     1
 91
        4
 64
     7
 65
   257
 75
     7
175
     7
 42
1.0
 92
        8
 66
     7
 43
1.0
 76
     1
 77
     6
 78
     2
 67
     7
 79
     5
170
     0
171
     0
290
     0
174
     0
 93
        1
 44
0.0
173
     0
291
     1
 45
0.0
1001
ACAD
1000
AcDbSavedByObjectVersion
1070
     0
  0
VISUALSTYLE
  5
83E4
102
{ACAD_XDICTIONARY
360
876F
102
}
102
{ACAD_REACTORS
330
83CD
102
}
330
83CD
100
AcDbVisualStyle
  2
OverhangOff
 70
    21
 71
     2
 72
     2
 73
     0
 90
        0
 40
-0.6
 41
-30.0
 62
     5
 63
     7
 74
     1
 91
        4
 64
     7
 65
   257
 75
     1
175
     1
 42
1.0
 92
        9
 66
     7
 43
1.0
 76
     1
 77
     6
 78
     2
 67
     7
 79
     5
170
     0
171
     0
290
     0
174
     0
 93
        1
 44
0.0
173
     0
291
     1
 45
0.0
1001
ACAD
1000
AcDbSavedByObjectVersion
1070
     0
  0
VISUALSTYLE
  5
83D7
102
{ACAD_XDICTIONARY
360
8755
102
}
102
{ACAD_REACTORS
330
83CD
102
}
330
83CD
100
AcDbVisualStyle
  2
Realistic
 70
     8
 71
     2
 72
     3
 73
     0
 90
        2
 40
-0.6
 41
30.0
 62
     5
 63
     7
 74
     0
 91
        0
 64
     7
 65
   257
 75
     1
175
     1
 42
1.0
 92
        8
 66
   257
 43
1.0
 76
     1
 77
     6
 78
     2
 67
     7
 79
     3
170
     0
171
     0
290
     0
174
     0
 93
       13
 44
0.0
173
     0
291
     0
 45
0.0
1001
ACAD
1000
AcDbSavedByObjectVersion
1070
     0
  0
VISUALSTYLE
  5
83E2
102
{ACAD_XDICTIONARY
360
876B
102
}
102
{ACAD_REACTORS
330
83CD
102
}
330
83CD
100
AcDbVisualStyle
  2
Shaded
 70
    27
 71
     2
 72
     2
 73
     1
 90
        2
 40
-0.6
 41
30.0
 62
     5
 63
     7
 74
     0
 91
        4
 64
     7
 65
   257
 75
     1
175
     1
 42
1.0
 92
        8
 66
   257
 43
1.0
 76
     1
 77
     6
 78
     2
 67
     8
 79
     3
170
     0
171
     0
290
     0
174
     0
 93
        5
 44
0.0
173
     0
291
     0
 45
0.0
1001
ACAD
1000
AcDbSavedByObjectVersion
1070
     0
  0
VISUALSTYLE
  5
83E1
102
{ACAD_XDICTIONARY
360
8769
102
}
102
{ACAD_REACTORS
330
83CD
102
}
330
83CD
100
AcDbVisualStyle
  2
Shaded with edges
 70
    26
 71
     2
 72
     2
 73
     1
 90
        2
 40
-0.6
 41
30.0
 62
     5
 63
     7
 74
     1
 91
       10
 64
     7
 65
   257
 75
     2
175
     1
 42
1.0
 92
        8
 66
   257
 43
1.0
 76
     1
 77
     6
 78
     2
 67
     7
 79
     3
170
     0
171
     0
290
     0
174
     0
 93
        5
 44
0.0
173
     0
291
     0
 45
0.0
1001
ACAD
1000
AcDbSavedByObjectVersion
1070
     0
  0
VISUALSTYLE
  5
83DE
102
{ACAD_XDICTIONARY
360
8763
102
}
102
{ACAD_REACTORS
330
83CD
102
}
330
83CD
100
AcDbVisualStyle
  2
Shades of Gray
 70
    23
 71
     2
 72
     2
 73
     3
 90
        0
 40
-0.6
 41
-30.0
 62
     5
 63
     7
 74
     2
 91
        2
 64
     7
 65
     7
 75
     1
175
     1
 42
40.0
 92
        8
 66
     7
 43
1.0
 76
     1
 77
     6
 78
     2
 67
     7
 79
     3
170
     0
171
     0
290
     0
174
     0
 93
        1
 44
0.0
173
     0
291
     0
 45
0.0
1001
ACAD
1000
AcDbSavedByObjectVersion
1070
     0
  0
VISUALSTYLE
  5
83DF
102
{ACAD_XDICTIONARY
360
8765
102
}
102
{ACAD_REACTORS
330
83CD
102
}
330
83CD
100
AcDbVisualStyle
  2
Sketchy
 70
    24
 71
     1
 72
     2
 73
     2
 90
        0
 40
-0.6
 41
-30.0
 62
     5
 63
     7
 74
     2
 91
        2
 64
     7
 65
     7
 75
     1
175
     1
 42
40.0
 92
       11
 66
     7
 43
1.0
 76
     1
 77
     6
 78
     2
 67
     7
 79
     6
170
     0
171
     0
290
     0
174
     0
 93
        1
 44
0.0
173
     0
291
     0
 45
0.0
1001
ACAD
1000
AcDbSavedByObjectVersion
1070
     0
  0
VISUALSTYLE
  5
83DA
102
{ACAD_XDICTIONARY
360
875B
102
}
102
{ACAD_REACTORS
330
83CD
102
}
330
83CD
100
AcDbVisualStyle
  2
Thicken
 70
    13
 71
     2
 72
     2
 73
     0
 90
        0
 40
-0.6
 41
-30.0
 62
     5
 63
     7
 74
     1
 91
        4
 64
     7
 65
   257
 75
     1
175
     1
 42
1.0
 92
       12
 66
     7
 43
1.0
 76
     1
 77
     6
 78
     2
 67
     7
 79
     5
170
     0
171
     0
290
     0
174
     0
 93
        1
 44
0.0
173
     0
291
     1
 45
0.0
1001
ACAD
1000
AcDbSavedByObjectVersion
1070
     0
  0
VISUALSTYLE
  5
83D4
102
{ACAD_XDICTIONARY
360
874F
102
}
102
{ACAD_REACTORS
330
83CD
102
}
330
83CD
100
AcDbVisualStyle
  2
Wireframe
 70
     5
 71
     0
 72
     2
 73
     0
 90
        0
 40
-0.6
 41
-30.0
 62
     5
 63
     7
 74
     1
 91
        4
 64
     7
 65
   257
 75
     1
175
     1
 42
1.0
 92
        0
 66
   257
 43
1.0
 76
     1
 77
     6
 78
     2
 67
     7
 79
     3
170
     0
171
     0
290
     0
174
     0
 93
        1
 44
0.0
173
     0
291
     0
 45
0.0
1001
ACAD
1000
AcDbSavedByObjectVersion
1070
     0
  0
VISUALSTYLE
  5
83E0
102
{ACAD_XDICTIONARY
360
8767
102
}
102
{ACAD_REACTORS
330
83CD
102
}
330
83CD
100
AcDbVisualStyle
  2
X-Ray
 70
    25
 71
     2
 72
     2
 73
     1
 90
        1
 40
0.5
 41
-30.0
 62
     5
 63
     7
 74
     1
 91
        0
 64
     7
 65
   257
 75
     1
175
     1
 42
1.0
 92
        8
 66
     7
 43
1.0
 76
     1
 77
     6
 78
     2
 67
     7
 79
     3
170
     0
171
     0
290
     0
174
     0
 93
       13
 44
0.0
173
     0
291
     0
 45
0.0
1001
ACAD
1000
AcDbSavedByObjectVersion
1070
     0
  0
DICTIONARYVAR
  5
846C
102
{ACAD_REACTORS
330
8467
102
}
330
8467
100
DictionaryVariables
280
     0
  1
1:1
  0
DICTIONARYVAR
  5
8469
102
{ACAD_REACTORS
330
8467
102
}
330
8467
100
DictionaryVariables
280
     0
  1
STANDARD
  0
DICTIONARYVAR
  5
8468
102
{ACAD_REACTORS
330
8467
102
}
330
8467
100
DictionaryVariables
280
     0
  1
STANDARD
  0
DICTIONARYVAR
  5
846A
102
{ACAD_REACTORS
330
8467
102
}
330
8467
100
DictionaryVariables
280
     0
  1
Imperial24
  0
DICTIONARYVAR
  5
846B
102
{ACAD_REACTORS
330
8467
102
}
330
8467
100
DictionaryVariables
280
     0
  1
Imperial24
  0
DICTIONARYVAR
  5
846F
102
{ACAD_REACTORS
330
8467
102
}
330
8467
100
DictionaryVariables
280
     0
  1
1
  0
DICTIONARYVAR
  5
846E
102
{ACAD_REACTORS
330
8467
102
}
330
8467
100
DictionaryVariables
280
     0
  1
0
  0
DICTIONARYVAR
  5
846D
102
{ACAD_REACTORS
330
8467
102
}
330
8467
100
DictionaryVariables
280
     0
  1
127
  0
DICTIONARYVAR
  5
8470
102
{ACAD_REACTORS
330
8467
102
}
330
8467
100
DictionaryVariables
280
     0
  1
2
  0
DICTIONARY
  5
8777
330
840E
100
AcDbDictionary
280
     1
281
     1
  3
ACAD_XREC_ROUNDTRIP
360
8778
  0
DICTIONARY
  5
877B
330
8416
100
AcDbDictionary
280
     1
281
     1
  3
ACAD_XREC_ROUNDTRIP
360
877C
  0
DICTIONARY
  5
8779
330
8412
100
AcDbDictionary
280
     1
281
     1
  3
ACAD_XREC_ROUNDTRIP
360
877A
  0
DICTIONARY
  5
83BE
330
83BD
100
AcDbDictionary
280
     1
281
     1
  3
ACAD_XREC_ROUNDTRIP
360
8741
  3
BUMPTILE
360
83C0
  3
DIFFUSETILE
360
83BF
  3
OPACITYTILE
360
83C3
  3
REFLECTIONTILE
360
83C2
  3
REFRACTIONTILE
360
83C4
  3
SPECULARTILE
360
83C1
  0
DICTIONARY
  5
83B6
330
83B5
100
AcDbDictionary
280
     1
281
     1
  3
ACAD_XREC_ROUNDTRIP
360
8740
  3
BUMPTILE
360
83B8
  3
DIFFUSETILE
360
83B7
  3
OPACITYTILE
360
83BB
  3
REFLECTIONTILE
360
83BA
  3
REFRACTIONTILE
360
83BC
  3
SPECULARTILE
360
83B9
  0
DICTIONARY
  5
83C6
330
83C5
100
AcDbDictionary
280
     1
281
     1
  3
ACAD_XREC_ROUNDTRIP
360
8742
  3
BUMPTILE
360
83C8
  3
DIFFUSETILE
360
83C7
  3
FBXASSET
360
84B7
  3
OPACITYTILE
360
83CB
  3
REFLECTIONTILE
360
83CA
  3
REFRACTIONTILE
360
83CC
  3
SPECULARTILE
360
83C9
  0
DICTIONARY
  5
8775
330
840C
100
AcDbDictionary
280
     1
281
     1
  3
ACAD_XREC_ROUNDTRIP
360
8776
  0
DICTIONARY
  5
873C
330
8408
100
AcDbDictionary
280
     1
281
     1
  3
ACAD_ROUNDTRIP_2008_TABLESTYLE_CELLSTYLEMAP
360
873D
  3
ACAD_XREC_ROUNDTRIP
360
8773
  0
DICTIONARY
  5
874D
330
83D3
100
AcDbDictionary
280
     1
281
     1
  3
ACAD_XREC_ROUNDTRIP
360
874E
  0
DICTIONARY
  5
874B
330
83D2
100
AcDbDictionary
280
     1
281
     1
  3
ACAD_XREC_ROUNDTRIP
360
874C
  0
DICTIONARY
  5
8759
330
83D9
100
AcDbDictionary
280
     1
281
     1
  3
ACAD_XREC_ROUNDTRIP
360
875A
  0
DICTIONARY
  5
8761
330
83DD
100
AcDbDictionary
280
     1
281
     1
  3
ACAD_XREC_ROUNDTRIP
360
8762
  0
DICTIONARY
  5
8753
330
83D6
100
AcDbDictionary
280
     1
281
     1
  3
ACAD_XREC_ROUNDTRIP
360
8754
  0
DICTIONARY
  5
8757
330
83D8
100
AcDbDictionary
280
     1
281
     1
  3
ACAD_XREC_ROUNDTRIP
360
8758
  0
DICTIONARY
  5
8771
330
83E5
100
AcDbDictionary
280
     1
281
     1
  3
ACAD_XREC_ROUNDTRIP
360
8772
  0
DICTIONARY
  5
875F
330
83DC
100
AcDbDictionary
280
     1
281
     1
  3
ACAD_XREC_ROUNDTRIP
360
8760
  0
DICTIONARY
  5
8743
330
83CE
100
AcDbDictionary
280
     1
281
     1
  3
ACAD_XREC_ROUNDTRIP
360
8744
  0
DICTIONARY
  5
8745
330
83CF
100
AcDbDictionary
280
     1
281
     1
  3
ACAD_XREC_ROUNDTRIP
360
8746
  0
DICTIONARY
  5
8747
330
83D0
100
AcDbDictionary
280
     1
281
     1
  3
ACAD_XREC_ROUNDTRIP
360
8748
  0
DICTIONARY
  5
8749
330
83D1
100
AcDbDictionary
280
     1
281
     1
  3
ACAD_XREC_ROUNDTRIP
360
874A
  0
DICTIONARY
  5
8751
330
83D5
100
AcDbDictionary
280
     1
281
     1
  3
ACAD_XREC_ROUNDTRIP
360
8752
  0
DICTIONARY
  5
876D
330
83E3
100
AcDbDictionary
280
     1
281
     1
  3
ACAD_XREC_ROUNDTRIP
360
876E
  0
DICTIONARY
  5
875D
330
83DB
100
AcDbDictionary
280
     1
281
     1
  3
ACAD_XREC_ROUNDTRIP
360
875E
  0
DICTIONARY
  5
876F
330
83E4
100
AcDbDictionary
280
     1
281
     1
  3
ACAD_XREC_ROUNDTRIP
360
8770
  0
DICTIONARY
  5
8755
330
83D7
100
AcDbDictionary
280
     1
281
     1
  3
ACAD_XREC_ROUNDTRIP
360
8756
  0
DICTIONARY
  5
876B
330
83E2
100
AcDbDictionary
280
     1
281
     1
  3
ACAD_XREC_ROUNDTRIP
360
876C
  0
DICTIONARY
  5
8769
330
83E1
100
AcDbDictionary
280
     1
281
     1
  3
ACAD_XREC_ROUNDTRIP
360
876A
  0
DICTIONARY
  5
8763
330
83DE
100
AcDbDictionary
280
     1
281
     1
  3
ACAD_XREC_ROUNDTRIP
360
8764
  0
DICTIONARY
  5
8765
330
83DF
100
AcDbDictionary
280
     1
281
     1
  3
ACAD_XREC_ROUNDTRIP
360
8766
  0
DICTIONARY
  5
875B
330
83DA
100
AcDbDictionary
280
     1
281
     1
  3
ACAD_XREC_ROUNDTRIP
360
875C
  0
DICTIONARY
  5
874F
330
83D4
100
AcDbDictionary
280
     1
281
     1
  3
ACAD_XREC_ROUNDTRIP
360
8750
  0
DICTIONARY
  5
8767
330
83E0
100
AcDbDictionary
280
     1
281
     1
  3
ACAD_XREC_ROUNDTRIP
360
8768
  0
XRECORD
  5
8778
102
{ACAD_REACTORS
330
8777
102
}
330
8777
100
AcDbXrecord
280
     1
102
DISPLAYNAME
  1
Imperial24
102
FLAGS
 90
        0
  0
XRECORD
  5
877C
102
{ACAD_REACTORS
330
877B
102
}
330
877B
100
AcDbXrecord
280
     1
102
SHADEPLOT
 70
     0
102
SHADEPLOTRESLEVEL
 70
     2
102
SHADEPLOTCUSTOMDPI
 70
   300
  0
XRECORD
  5
877A
102
{ACAD_REACTORS
330
8779
102
}
330
8779
100
AcDbXrecord
280
     1
102
SHADEPLOT
 70
     0
102
SHADEPLOTRESLEVEL
 70
     2
102
SHADEPLOTCUSTOMDPI
 70
   300
  0
XRECORD
  5
8741
102
{ACAD_REACTORS
330
83BE
102
}
330
83BE
100
AcDbXrecord
280
     1
102
MATERIAL
148
0.0
149
0.0
149
0.0
 93
        0
 94
      127
282
     0
 72
     0
 77
     0
171
     0
175
     0
179
     0
273
     0
  0
XRECORD
  5
83C0
102
{ACAD_REACTORS
330
83BE
102
}
330
83BE
100
AcDbXrecord
280
     1
270
     1
271
     1
  0
XRECORD
  5
83BF
102
{ACAD_REACTORS
330
83BE
102
}
330
83BE
100
AcDbXrecord
280
     1
270
     1
271
     1
  0
XRECORD
  5
83C3
102
{ACAD_REACTORS
330
83BE
102
}
330
83BE
100
AcDbXrecord
280
     1
270
     1
271
     1
  0
XRECORD
  5
83C2
102
{ACAD_REACTORS
330
83BE
102
}
330
83BE
100
AcDbXrecord
280
     1
270
     1
271
     1
  0
XRECORD
  5
83C4
102
{ACAD_REACTORS
330
83BE
102
}
330
83BE
100
AcDbXrecord
280
     1
270
     1
271
     1
  0
XRECORD
  5
83C1
102
{ACAD_REACTORS
330
83BE
102
}
330
83BE
100
AcDbXrecord
280
     1
270
     1
271
     1
  0
XRECORD
  5
8740
102
{ACAD_REACTORS
330
83B6
102
}
330
83B6
100
AcDbXrecord
280
     1
102
MATERIAL
148
0.0
149
0.0
149
0.0
 93
        0
 94
      127
282
     0
 72
     0
 77
     0
171
     0
175
     0
179
     0
273
     0
  0
XRECORD
  5
83B8
102
{ACAD_REACTORS
330
83B6
102
}
330
83B6
100
AcDbXrecord
280
     1
270
     1
271
     1
  0
XRECORD
  5
83B7
102
{ACAD_REACTORS
330
83B6
102
}
330
83B6
100
AcDbXrecord
280
     1
270
     1
271
     1
  0
XRECORD
  5
83BB
102
{ACAD_REACTORS
330
83B6
102
}
330
83B6
100
AcDbXrecord
280
     1
270
     1
271
     1
  0
XRECORD
  5
83BA
102
{ACAD_REACTORS
330
83B6
102
}
330
83B6
100
AcDbXrecord
280
     1
270
     1
271
     1
  0
XRECORD
  5
83BC
102
{ACAD_REACTORS
330
83B6
102
}
330
83B6
100
AcDbXrecord
280
     1
270
     1
271
     1
  0
XRECORD
  5
83B9
102
{ACAD_REACTORS
330
83B6
102
}
330
83B6
100
AcDbXrecord
280
     1
270
     1
271
     1
  0
XRECORD
  5
8742
102
{ACAD_REACTORS
330
83C6
102
}
330
83C6
100
AcDbXrecord
280
     1
102
MATERIAL
148
0.0
149
0.0
149
0.0
 93
        0
 94
      127
282
     0
 72
     0
 77
     0
171
     0
175
     0
179
     0
273
     0
  0
XRECORD
  5
83C8
102
{ACAD_REACTORS
330
83C6
102
}
330
83C6
100
AcDbXrecord
280
     1
270
     1
271
     1
  0
XRECORD
  5
83C7
102
{ACAD_REACTORS
330
83C6
102
}
330
83C6
100
AcDbXrecord
280
     1
270
     1
271
     1
  0
XRECORD
  5
84B7
102
{ACAD_REACTORS
330
83C6
102
}
330
83C6
100
AcDbXrecord
280
     1
 70
     1
 90
1959938040
 71
     1
  1
B1BCEDB0-BD4A-4C6F-B633-AE2E86E1423C
311
504B0304140006080800798F8157B607F8B5D7000000200100004F00000043434138414541412D304131432D344531392D384642372D4133463334454138393441322F4173736574446174612F446566696E6974696F6E4974657261746F7250726F706572746965732E62696EEB606060F80F0540260323103700495E20ED
311
9E9A975A94991C9C9C919A9BC8C00612C9C94F4ACC6147C831019920AE4B6A5A62694E0948976F6671726A4E4E625E6A7E69B12042A9426E6209D0B8C41C3D90264E20860914834C48875806B2DF0F88414E02D189290556F689C5C5A925B6FA694915FA064E868E2ECEAE8EBA46A66616BA26CEE696BA8E66CECEBA96A6E6
311
46AE962E962606CE8EFA45A9C5F9A545C9A9C5FA46FA06F15093E30BF2D283221DEB0C19188280D6B330BCDF9715AE1550176E38410F68914B7A73CC4E83999B804C24B00F00504B0304140006080800798F81572EFFFABBF0000000300200004500000043434138414541412D304131432D344531392D384642372D413346
311
3334454138393441322F4173736574446174612F496E7374616E636550726F706572746965732E62696EEB606060F80F0540260323103700495E20ED9E9A975A94991C9C9C919A9BA802147032747276757132D075723171D435713673D375323336D675743572B530733534313276664768046931363471713532B5D43535
311
3131D635313332D475727372D13534373670367376B67474B5042A03DBCBA019D37FE8ABC6157B20CD04146B0062181F4C03F940F0C11EA29A8141C08141002C0426541C106CAC2CA046088033B02A030AC2157C6006F21A8018AAF50194E6010A610250382264E08660284CD9E98021862280A91564B406929A0FF62C401E
311
28B6F88038B83CB1243943D7A928312F25350524131B1BFB9F161800504B0304140006080800798F815728BB58AF800100009E0500003D00000043434138414541412D304131432D344531392D384642372D4133463334454138393441322F536368656D61732F436F6D6D6F6E536368656D612E786D6CBD544D4FC23018BE
311
FB2B96DE15493C78601010A34B880709DEDFB52FD0D8B54BD70DF6EFED3AC0B12E6442E2716BFB3CEFF3D18E26FB440405EA8C2B1992E1C323095052C5B8DC842437EBFB673219DF8DA659866649B798C078B48AE6410122242F2A4994AC7F93815DF85C049C8564CA0A901499DD886B2EB9B1E02448F358701A9235880C49
311
A0119892A20C89D1B9FD768815CAD268CB5E0355B40B1E47F3E37A2020464BED06AA57CE8FCC20C3C3446D46761A2632A8C1283D07031EFF2AE7CCB1BFEEE916E406DFAC8E36FFD99A9D60A6944090EEDC3B670C7DC13DE86B6B2C5C240D6E503BB85ACD579D513F1B9F9A69DC9CC22AFA80C426D40AF0B21EA168559156B6
311
276F0F726A6BFF04DCD513A87A62CAD41FB24FCB2858B3952E3D852084DA25B9303C15687973CC8E8AAE11DF2836C38C6A9E765E8C1BA1BFB1DC29CDFE518C8B5A7655A4ED7E77291ABEB80DBD82EC866ADE1B8D05AF9E35CF09D7A061F38A986D9EC412B8F0F65E5D81534D9B231D1E5A8FE577A241F3A5FD01504B030414
311
0006080800798F81572CCEBD668A040000E01200003E00000043434138414541412D304131432D344531392D384642372D4133463334454138393441322F536368656D61732F47656E65726963536368656D612E786D6CD5586D6FDB380CFE7EBF42F0F7A649B70E1B90744856B4970F450FCD7A5F05459613EDE4174872DA
311
DCAF3F522F8ED3B88D2F1D06AC4050DBA2493EE4438AF2F8EB73AEC8466823CB62928C06C384888297A92C5693A4B6D9D9E7E4EBD51FE3A931C22EF85AE4EC6AFC38BF261BA626C9AD288496DC3F4FCEAFC63366845F7A10452AF41DB320C0D44EC26EAB20918735565582695670811A6A49643A49A6E9069FA4604A64B290
311
16DC4B48552F95E4932463CA888468C1D2B250DB4962750DF7CE273069CE8363F1FF4EDB00E0A21999574AE4A2B00C353B93F3BD4777B8A61ED8F604ABFEDD79CE56A2B7BDFBDBC50996E0ADDE16FED26223C5D30956C29BDF4A55EA686E5E58B112DA45CE67F76F4FA27EFA3FB672FD7372FC388FAECDCA5209E693CAD167
311
BADCD272F943701B3812F8A3D852008B1D2E32DB927B2F833C6EA95879925356D254582695095A3CE982924720BE5774A3CB9CDCDB350427D2DF20DA1B5532EBE2D5D6288D75D4F7E4FD9890A0EF8E3D93EBB8F8BA4758158EF6FB90A6F9520281C93DE7AAC6D24607DA296BB96018123F821A7D6A5C5884050C475DA48654
311
42732C8B95684A50165CBB3A32F25F783A4A480ED59AD7F924B968AEA50131F46303223E6A397B0E52976030DC1DCA81D7E7C1EDEEA42C19FF27635C505E2BD5198A599020DF50A2330FCB3AAF28CB0124108429553EF1B228802E2265D8F7CC2401042B155BCC7070F1E5C55F13B4A9577362CCCE46C32174E010C3C378C4
311
4841A4BDA00FE3A12006CE11EE6AEC59894D3526DDE1CD59D503ECC324017F8061B7F162162FA62EDD81AE3308617770796DCBDAD2B2625C5AE8A63DE20B2C8AA5E95E76E5730823955956E33E705425A2187C185D36489A1B44D3DCEC2172F6BA2105C3546287A7194B2331768EBBE64F6E70A9930ABE0ADEA89E9E2C3852
311
3B810287AD67A54A039C1606EAFE68F8304610BB9093DBDDABC0B2AE4E290DCDA15376D7E39F72B556F0B32EAB5D3D498B4C41ABADEC3A1434C422D87E8025A84BDCB2B1417ED750FAE4DA8976863974C577C7F902D3F156AD354DEA3540DE6BEAE2BEA52F7A2EB4CA43802ECE5BF2CE2EDC9347179FFB023CE412E60BE16D
311
A0BE29B374988A553F561DC04615DD35F7D2C8979F60E5955CE93DF29DED8AFA1EE6642D53418086C03C47C377910F75F7E8F5EF665F70B60FFB22AEDF897D119E8423C773E819A3C1E55E550599EE6EDCA34D0C86FD72057DF2CD46F16A470682471C164E4346D5306BF12D7D12D82CFF673D41636C347443FEB51B50D72E
311
A171A8E4A58623A4A16E0FA2B8B10A0D23268D87C33896EE8FB73305A74BF224EDBADFA0BD674AB354D63DB7BD5D83426761C077DE767728235446A552754EB93B755891C3C4CC6CADE37CF0E912A7BB38DBA010F9DE1282EDF470CA69A9CDA482E334C4A6EA4107987980B17E72F31730EBF88BBD39E7C629F56797A3C000
311
9C2C5AE7951D9A05A02773440F02EEB4DE396A3B6A570C72CCFBCD823B0B8ED3F1D5CEDDFED772FA70236C83FB7D86C385D570B87107535572A60A96035F8F7C6A7192F13007246BBE0521855E6AC46F3E27689CEE7D186A6FD679D98CDCAD13333E04EBE7ED6F55FF01504B0304140006080800798F81576180134D5F0100
311
006B0300004500000043434138414541412D304131432D344531392D384642372D4133463334454138393441322F536368656D61732F52656E6465724D6174657269616C536368656D612E786D6CA5934D6FC2300C86EFFB1551EEE343DBA41D1A103009551ADAD40EAE28A4A68D9426284961FCFBE5A340113B2071746D3F
311
765EBF4DC6BFB5407BD0862B49F0B037C0082453059725C18DDD3EBFE3F1E829991803366715D474942CD30FB4A782E00C64017A412D684E454CE3FE28995203B162A6EA5AC94B66997D225E109CD63B0135484BAD1B3C07E9080CA35DB3119C11BCA5C200461A68A1A438126C75E3E230D40FF81FB3F03C91D1E3A3A0AF79
311
FE28E25BC39EC3E17E4C2A2D94A0833A51AF55BCCA7D88572FCBAC529C4140B020FC3AAFA886621DCED7EAD7664CC86024E806DC297DA1BB393E4156543457A4537DB8817349A70F8ACBF09B3EEE2CB2F33E91B65D60786E4E3B39B77E3FEEEF5650424525DA657FB8B46BE6BF064646F0A0F7327C0BC1BC1B4CBBC1C419FA
311
3CCB23500007872A2580CAAE5461865565294E4EDB4617B62FF579DF9A5B2F54E834076A597573A020912FED777F9B3F504B0304140006080800798F815769134F8151000000570000004700000043434138414541412D304131432D344531392D384642372D4133463334454138393441322F4173736574446174612F4173
311
7365745461626C654F66436F6E74656E74732E62696E536160607032747276757132D075723171D435713673D375323336D675743572B5307335343132761602AACB4D2C492DCA4CCC492C28484D2C4ACC4B4E050A82012F90744FCD03CA26072767A4E6260200504B0304140006080800798F8157F8658340580000006800
311
00004500000043434138414541412D304131432D344531392D384642372D4133463334454138393441322F4173736574446174612F53747265616D56657273696F6E5461626C652E696E66558CBD0A80300C06F73E4B117FB66E451741D041DC5BF98480A492E4FDD18EAEC7DD4555D89EF28DF51A0B1BD8340C4DE7DD848B
311
988C0ACF0649566493F2408C508DDEBB99D5129FF8F1AF8CF5B9503E20FAE5A16B5AF702504B0304140006080800798F815771539FF1350100009A0400003600000043434138414541412D304131432D344531392D384642372D4133463334454138393441322F4173736574446174612F636E782E786D6CCD94314FC33010
311
85FF4AE43D7612540195E30AC1D209242A06B6AB7369AD3A76645F10FC7BEC3603A888A943D7F3BBF3F327BF93ABCFC1161F18A2F1AE6535AF58814EFBCEB85DCB26EACB3B56AC940CDED30F192B1C0CD8B25C664AEE829FC6B9D4610F93CD556BDC612E3EC488B481ADC5E7FED13B42479115DA428C2D8B7A8F037098C877
311
180FBC03025EF380D14F41639A4466C079920E08841D534DD5DC94755356F5A6BE5D2EEE978BEA5D8AAC5472EBBD9DF5265D16FC58E8D3AD4C5552E46325A760664D7E0B537F79E45BE3A4484A252385C464EEA0AF3175C0385AA381123AE13521954984304871122B2932835F249EB037CEE496753206E4C34BB287810C5E
311
1D91FFBC5E9ECCDA4502A7F17A799C3BBC3C85D7E30F7A3B05F298986BCBC9B9436E5C7F819488E31A49A1C95B457D03504B0304140006080800798F815773438BE4090100004F0300003400000043434138414541412D304131432D344531392D384642372D4133463334454138393441322F536368656D61732F636E782E
311
786D6CCD93BD4E042114855F65423F303366A36E18B6B0B0B2512B3B84BBBB64813BE1C7E8DB0B23C56E62A7C57670F842CE395CF8EED3D9EE034234E86732D28174E0156AE30F33C969DFDF916E2778404C6718E9BC7430932A13C10F01F3D2240D7B996D55ADF1A7263EA073E85FD4119C249DB232C699C4754B654EA821
311
9EA89649D29106889883827243320EDA0D2A804CA0899886E9A61FA77E185FC7DBEDE67EBB19DE38ABA4E0EF88B6F1C62708B8740ACBC2173B0367F558F01C4C636A0622CEBDD1D2066785103CA6503A6864FA5A0A2997C51A2553A98AADE00F2338AB512F023F828760D47526BE30F76F919FC16B084FE5958291F63A93FF
311
E6F16F05B075F6CB08D4AF20BE01504B0304140006080800798F8157410A3D5871000000A40000002C00000043434138414541412D304131432D344531392D384642372D4133463334454138393441322F636E782E786D6C55CC4D0E82301086E1AB34B31774E7A22D31F1069E60020334B633A63FC6E34B0909B07DDE2F9F
311
EE7EC1AB2FC5E4840DDC9A2B28E25E06C7938192C7CB1D54677514C9871928C640062A83D55394F2D968A0118BAFEA1DBF377CA444F98919176EAB9FEAAB9F2960DA5BBB1E2ED3FA6FFF504B0304140006080800798F8157614E69F17E000000A300000007000000636E782E786D6C4D8CD10AC22018465F45FE7B6B6B420E
311
D4F127EE3D467343721A36A3C74F63175D7D70F8CE11C367F3E46DD3CBC520A13D35406CB8C7D9855542DE17CA810C4AA418F7BF1B90306D5642C5A0C49A627E1E68B6CB947DA5DE85C701B5468E069136D86ACA4CDB533EDEAE14BBB1630679CFF0528C7355CAFC7A656B5E7D01504B0304140006080800798F815716E99B
311
5DA600000035010000130000005B436F6E74656E745F54797065735D2E786D6C9590410E82301045AFD2740F4517C6180A0BF5065E60AC53688469D30E066F6F91AD9AB89CF9FFFD3F99BA9DC7413C3026E749CB4D59498164FCCD51A7E5C4B6D84BD136F5E5193089ECA5A465CF1C0E4A25D3E308A9F401292BD6C711388F
311
B15301CC1D3A54DBAADA29E38991B8E0254336F5092D4C038BF39CD76B6FC6A538AEBEA54A4B08617006389FA516557DE4AE8E7E70DE30729138228C5F021CD93F02D4FB0DCD0B504B0304140006080800798F81573DEE336E64000000790000001B0000006175746F6465736B2D64657369676E2D7061636B6167652E786D
311
6C35CBC10E83200C00D05F21DCA56CA76D41FC96062B120735B69A7DBE268BB7777961F8D5AF396893C2ADB70FE7ADA196782C2DF776D7A97B5933C430F15651E5469C55D70F80A4992A3ADC954792C525AE70A1E4D6AD9816CC044FEFDF01FE3FDE907802504B0304140006080800798F8157B2BA090DF700000096010000
311
3700000043434138414541412D304131432D344531392D384642372D4133463334454138393441322F4173736574446174612F636F72652E786D6C8550CB6EC32010FC156BEFD8863C9C4498C8AF3FE8A93704C44589C1E251F5F30B892BB5A79E66353B3BBB3BF4FAB53C8A4FE5BCB6A6055CD6502823ACD4666E21861B3A
311
417165D4591B7EC9A0307C512D641A189D9D8DEB46096B8232993556AA8DE4DEAB008578A4A2052F3ED4C24B1E4352F87BB97271E7B32A71F9D2311AA396DBA896C94DDFB472C0C66620DDD43428C188F6D3B947FD910C68DA0FA7E948A6AEE931ADF230A3412F3FDB85533C28098CD464873041357EC3CDE570BE1CEA775A
311
6525A33EB8F4F3B6347F07ACCB578F3C705ABDBA7F5CE32AFF778DDA841DD95C5F131E583EF2D960B4CA29257846983027CABE01504B0304140006080800798F8157ADC441ABF6000000940100003500000043434138414541412D304131432D344531392D384642372D4133463334454138393441322F536368656D61732F
311
636F72652E786D6C8550CB6EC32010FC156BEFD8863C9C44982876FC05EDA93704C44189C1E251F5F30BB12BB5A79E66353B3BBB3BF4FC353D8B4FE5BCB6A6055CD6502823ACD4666C21861B3A407166D4591B7EC9A0307C522D641A181D9D8DF34A096B8232993556AA95E4DEAB008578A6A2052FEE6AE2258F2129FCA39C
311
B978F05195B85C748CC6A8E53AAA6572D337AD1CB06BD393CBD03428C1156D876387BA3DE9D1B0ED0FC39E0C97A6C3B4CAC38C063DFD6C174EF1A0243052930DC204D5F81D37A7DDF1B4AB3F6895958CFAE0D2CFEBD2FC1DB0B7D79D9E564BEF8F679CE5FF9E519BB021ABE732E181E5135F0D46AB9C5182578009739EEC1B
311
504B0304140006080800798F81571C7CAE1402010000D70100002D00000043434138414541412D304131432D344531392D384642372D4133463334454138393441322F636F72652E786D6C95914D6EC3201085AF62CD1EDBF84771224C442DE7045D7547CDC44189C132B8EAF10BB5ABB6BB76057A7C6F8637C3CEEFD32379
311
C3C5696B5AA0690E099AC12A6DC616567F250D2467CE166BFD0F0C1223276C21CAC0D9B8D875DEA5C11A8F26AAC62ADC45E91C7A488647B8B4E0861B4E3295AB0F84BBA7B31CEE72C494A61BC799D7D3977558507A54C08BBC28092D484E9FE9E1541F4F75FEC2B24872B66AE3CB626F86D32BAAC4CE3E44025EB36C7B0DD4
311
AAD5CE6815FEA8AF1A17E05D271AD10B4172413B52F5F4489ACBD38188F25256BD688E9528429160E6CCF9254C662F1267F057FB66FC956C9DD53F936D0E079C7E87CAE29839CB3E7710CEB812FE01504B0304140006080800798F8157D9437DDA06010000B201000008000000636F72652E786D6C8D50CB6EC32010FC15B4
311
77FC200F2711268A1DFF414FBD51431C141B2C1E51FBF785D895DA5B4F8B66677686A1E7CF69444F699D32BA86322B0049DD1BA1F45043F0377C007466D41AE37FD100693EC91A120C8C0ED68479857AA3BDD409D546C815E4CE490FA81FE3A306D7DFE5C4331E7C64B84736F3FEC1079995D9C263D4ABE947DA5BC9BD14C0
311
484136B824B828DFCAEAB43B9E76C53BCD1393D1109458AD9488EEEAA6A40576AD5A72E9AA0AC771C5DBEED8E0664F5ADC6DDB43B727DDA56A4A9A2731A3CEDBF8E7F548CCE991E3CFE44BF365C5E88731E34A88A104327AFC0256D03C2DFE840EB3F84768A5FD86AC071785039602BD16D1383518C7ABDE3853DBEC1B504B
311
01021400140006080800798F8157B607F8B5D7000000200100004F000000000000000000000000000000000043434138414541412D304131432D344531392D384642372D4133463334454138393441322F4173736574446174612F446566696E6974696F6E4974657261746F7250726F706572746965732E62696E504B0102
311
1400140006080800798F81572EFFFABBF00000003002000045000000000000000000000000004401000043434138414541412D304131432D344531392D384642372D4133463334454138393441322F4173736574446174612F496E7374616E636550726F706572746965732E62696E504B01021400140006080800798F8157
311
28BB58AF800100009E0500003D000000000000000000000000009702000043434138414541412D304131432D344531392D384642372D4133463334454138393441322F536368656D61732F436F6D6D6F6E536368656D612E786D6C504B01021400140006080800798F81572CCEBD668A040000E01200003E00000000000000
311
0000000000007204000043434138414541412D304131432D344531392D384642372D4133463334454138393441322F536368656D61732F47656E65726963536368656D612E786D6C504B01021400140006080800798F81576180134D5F0100006B03000045000000000000000000000000005809000043434138414541412D
311
304131432D344531392D384642372D4133463334454138393441322F536368656D61732F52656E6465724D6174657269616C536368656D612E786D6C504B01021400140006080800798F815769134F81510000005700000047000000000000000000000000001A0B000043434138414541412D304131432D344531392D3846
311
42372D4133463334454138393441322F4173736574446174612F41737365745461626C654F66436F6E74656E74732E62696E504B01021400140006080800798F8157F865834058000000680000004500000000000000000000000000D00B000043434138414541412D304131432D344531392D384642372D41334633344541
311
38393441322F4173736574446174612F53747265616D56657273696F6E5461626C652E696E66504B01021400140006080800798F815771539FF1350100009A04000036000000000000000000000000008B0C000043434138414541412D304131432D344531392D384642372D4133463334454138393441322F417373657444
311
6174612F636E782E786D6C504B01021400140006080800798F815773438BE4090100004F0300003400000000000000000000000000140E000043434138414541412D304131432D344531392D384642372D4133463334454138393441322F536368656D61732F636E782E786D6C504B01021400140006080800798F8157410A
311
3D5871000000A40000002C000000000000000000000000006F0F000043434138414541412D304131432D344531392D384642372D4133463334454138393441322F636E782E786D6C504B01021400140006080800798F8157614E69F17E000000A300000007000000000000000000000000002A100000636E782E786D6C504B
311
01021400140006080800798F815716E99B5DA6000000350100001300000000000000000000000000CD1000005B436F6E74656E745F54797065735D2E786D6C504B01021400140006080800798F81573DEE336E64000000790000001B00000000000000000000000000A41100006175746F6465736B2D64657369676E2D7061
311
636B6167652E786D6C504B01021400140006080800798F8157B2BA090DF70000009601000037000000000000000000000000004112000043434138414541412D304131432D344531392D384642372D4133463334454138393441322F4173736574446174612F636F72652E786D6C504B01021400140006080800798F8157AD
311
C441ABF60000009401000035000000000000000000000000008D13000043434138414541412D304131432D344531392D384642372D4133463334454138393441322F536368656D61732F636F72652E786D6C504B01021400140006080800798F81571C7CAE1402010000D70100002D00000000000000000000000000D61400
311
0043434138414541412D304131432D344531392D384642372D4133463334454138393441322F636F72652E786D6C504B01021400140006080800798F8157D9437DDA06010000B2010000080000000000000000000000000023160000636F72652E786D6C504B050600000000110011005A0600004F1700000000
310
504B0304140006080800798F8157000000000000000000000000370000006662782F32313845433239452D394233432D344539452D393430432D4236424630344336393235382F617474726962757465732E62696E504B0304140006080800798F8157000000000000000000000000350000006662782F3231384543323945
310
2D394233432D344539452D393430432D4236424630344336393235382F76657274696365732E62696E504B0304140006080800798F8157F270F1330600000004000000360000006662782F32313845433239452D394233432D344539452D393430432D4236424630344336393235382F747269616E676C65732E62696E6366
310
60600000504B0304140006080800798F815751464CB48900000043010000360000006662782F32313845433239452D394233432D344539452D393430432D4236424630344336393235382F6469726563746F72792E786D6C9D8F310EC2300C45AF127987122606C71DD918B841D4B851A43646695A717C52A85029031293A5
310
A76FBF6FACEF7DA7264E43906840EF0FA03836E242F406C6DCEE4EA06AC22492573150D1F66C60C640E8938CB705396EEDD86DE9B5042FE27813D640EA63BB001C722AF6E55CB61E4863F58284D5D3F53DD715CE1C3985E63FD7F1B7EBDD617E9F1E504B0304140006080800798F8157F8900A4037070000201C0000340000
310
006662782F32313845433239452D394233432D344539452D393430432D4236424630344336393235382F6F626A656374732E786D6CDD59596FDB3810FE2B84F665F74197AFC485E2C2570AA3485BD4E862DF045AA61D6E74819412677FFD0E29529664D956BA2D506C02C40A4D0E67BEB947DEFB4314A267C2384DE23BC3B5
310
1C03913848B634DEDF1979B6336F0DF47E823C962459659F81621C913B432C1B136FCF923C554B5BB2C379D85CBD9FFD8578406262A020C49CDF193C782411B6709E255BC29FAC2DCEB0B5DF1D2CD72A36D6C9EE194E1F1B57A59891380356613D062A8A03B7FE2F88644F3C5B6CA86DEB75DBD6BFB0CD9682D719A531CF70
310
1C9C70D5A0D3EBC655DF1D2C96BDE1D81C0E067D7330EAB9E6EC7EB630DD9BBE331FCDE7E3E9726CA089B74992B054404AE22D68F1D598B89E2DBE29C55728B4F11D24714C028566DB862D517429E14D4C6AC0BA52B48A420A592B0BFD8EC29FD9D609941A4B35B4B570FAB36ABDC9E66F008177B152C689B0729E31D0B5C2
310
BEF007C7B38BD59A5E284711CE08A3384421DD30CC4041B0B550508D8CF016410A09CCA41635BD2AAF60D8D77DA98DCB5D1E86C27F8D89F4341FFC91645C7246FF21ECC87DF536E009A4CD699CDD2A61B3D714488C3D5B2E16DFF57BEACB0248B40BF11EAC05C4149BFABD065E73110B560B63F2F17E73588BF8D07E79CA92
310
94B04C589E7466E5775A8315D302E3EB004A816B5D774754BE02F49F00F99217E481E6183D0C0E032D3BC331DF252C02ED2007990EFC7190783C79F2ECF2F004A15AAC3C8729B8ED0FC2B42646EDEE0AA413EF198C3E617D25DC3AC021D8F4038D859F83A1A030812588F7BBCDC198AC2098C2229CC221480FBF9E2D1E117C
310
147420DE3434D4167E3B284A3B4CD3CF8EBAFA0036C36850AAAA26E3397C873F04DFE962FD719DB31D0EC88372EC05D9D19866904CDB19AA815E73F96FAB4FD2234FE4A9ED0AE09E7D2202478B5ED64A2F482A06581179B8508D5C79A0E0EE61886392E45CADB705AA200913E66F5EFDC2875BEFFA531B417119F8B7B080D6
310
6006D93D603415A01813255E1909AD234E220E2A03DC174AF537387812F0FA0144ACEFE103AC16B326D13C4A7D1C25792CC2F7A9793745B3FA8EFC71DD71CF19F76EC7232D2C97E4B5F7E8D050322FEE89707AE692794D5B2A6A68CA851F0D205AB6491040CD94677E92E28066EDB6D010427928807D91E52DDDED720E41BD
310
159606C756DF1D22A7F2B7BCE432F7EA129F46784FFC1D1619AEF5BE1A4025712D412B32FB30E19CC684CB0AE524723550712C080485DD6AAA2D4648B91F910C7F8FFDC994D7303F4676A10FB55426AAD9EBD6A71954D9F31C4551B925B12FE57FF5398ED2B0A8D2AE61E0F61A37B4E22A9816573C83BDF938F39D2D9145F7
310
35EA655CD0F876A23EFE6EF267E061F8A7C3A3AFA0507A438EBCAE59D71ABA63F1730B41653474FB375A11D7B0D25765A2060973A89A8257FF85D0FD63B780D6E91E4EC29D4FC3308FFC221F642482120C6739EBE4AFA3A173A27C15171A0E51B969474328903B074D597BE8EA03A492C5C7B9A059B90684A231F4689D0439
310
91A2D584A52E643F2ADAAEEBDA7F3BD5FF1C2FAB7DCA13797D49D8B695D37A19A12B305D308870A9325C694792F2C4AB3A5F241B97EB380C341115DF8A2E41590823CF540C266407D4DA3FF0179C051048D7F2D39C81476CC9F65853D4C8A9318731814B35355DA7563B1D0876227DD40AAF9508A8114C1BB088B30FE221FC
310
8A41D550F9715B553576B1BE1289CD82C1CA918F0BB43E7F5837A8C04AE7D35F0446E4A54141ADCE45217781D4B7D5B15E6D5050127D5B5D389E3DE6D126C65464466116789BBE7B2F7BC93B1B1A05DB99B9D3C57C39357BC3D1AD3998DF8CCD298C2CCCF1F0A6B71C2FC603673EB519E149CE02C2ED9EEDF8BA764AE3BD36
310
8C02BA2E1D054C15AEB77EDA9E9B0AFE1F771461B2C1E76CF1576D28CA724F14640D5FECDA50B406EACDDBAA7FF72450B727B13755CEC5AC401BF8E5B405C148E7FBEEA58526AD2B89769E2B19F18D89F76CB7F2D3734C2DA0B7E687DA8EB6905F8FC5307B6AC952BABB95716DE6CEE6CBC5CC31678BC114E2D8E8DE9C8DFA
310
7D73BAEC2D6F474B77D0EB436BA4FA08950BBBE6955F22866A662B63349806F324A43094275BB4270974403075E8105F5944B8EC6CA00050695CBF11E870FAB998A9667813EAD3C12386C174A832721EC05014BA8E3B43ADA3DF600C2A26917238653D41E251D66EA09CD13B034C20A3905FAC0D8CB3E4F050526F8C2B416D
310
38DE8B9EA93855FE7F3C26D0015B39CA55EEE9828B92AC669D301C48E57B028876BA20F97ED1353B0867F0B8C9B35298E3C2511A05827E2150080753BF2705EF0102CF65B95C4BEEA941D269327FD10E0AAA6686D95E8ED72B784F175F6C31195F7D466998EF853A2FE5FB1A2553D419615E0CA13C300C25668A451F3E7F67
310
7F6109BC628AD03D052340BF1F6E477FD8F3248A92B858B2A7EA45155A3FC26BA7ADAD477E50B838EED096758F1AEBC3DC8A130B6FF9132C806A1915B3D102E29A0194E1A962005A23421770ACB67FB5402A09544AD86AE92AE091337D048E24DEE508B7A96EA80C20C11780AB624E5B3EE805CF6630049FFC0B504B030414
310
0006080800798F8157CB340FD53E01000046050000300000006662782F32313845433239452D394233432D344539452D393430432D4236424630344336393235382F636E782E786D6CCD94C14E032110865F65C37D61B7A6511B96261E7C020FC61BCB4E572C0B1B188C7D7BA1D2AA31351E9AD81B19FE49FE6FE6CFF0F5DB
310
64AA57F0413BDB919636A402ABDCA0EDD891889BFA86546BC1BD73F845462A2B27E8482E13C147EFE25C4A036C6434B96AB4DD96A244F4BA8F088154CAC8103A12D4334C92CA886E80B0A58344495BEA21B8E815A47ED413947EE541220C442C9AC555DD2EEAA67D68AF57CBDBD5B279E22C2B05EF9D3345AF2D827773A55C
310
7AD864A6E12C7F0B1EBD2E9A4C40C4A733DA6BCB59FA173C24B7762C3ADCCD5937CF462B89694CCC2904AC9308E4C4D98758709679BF51DFDF3D1E1C5483F6A0D0F9DD3F0DA03D3580A3319A92F037FEBDF0776CD7BF24DCFFDAF649D862EB6CA887B48614D79FFB4F299276349717FAA3B1F3673E9D12D4EAF2900FBECE44
310
CCF6272F2D3D5F40F10E504B0304140006080800798F8157F9242ABE7D000000A30000000B0000006662782F636E782E786D6C4D8CD10AC22018855F45FE7BCB990D05E740B1F718CD0DC969D88C1E3F8D5D74F51D3ECE3972FC6C01BD5D7EF91407E84E04908BF734FBB80E50F6057340A39239A5FDAF06284E9B1BA06950
310
72CDA93C0F35BB652AA1D9E0E3E390B4E3D65061B1D01783996D89118375AF6F84995ED02BAF8B739B54FCFE2ADBBDFA02504B0304140006080800798F8157A6D797065F0000008200000007000000636E782E786D6C4DCB3B0E80201045D1AD90E9FD7516806B51190811670C8A61F982B1B0BAC9C97B72CA7B1037C6D333
310
2918DA1E04D2CAC69353902EDB8C20262D23F3F59B81A079470595414B17391D1F19B4730A5583A7ED43BBE4025D9592775E5ADFFA01504B0304140006080800798F81574FEB6A7CA0000000F4000000130000005B436F6E74656E745F54797065735D2E786D6C7D8F4B0EC2300C44AF1279DFA6B0400835ED02B8011730C1
310
6D239A8F121795DB93D02D6269CFBC19BBED573B8B17C564BC53B0AB1B10E4B47F18372A5878A88E20FAAEBDBD032591BD2E299898C349CAA427B2986A1FC86565F0D122E7318E32A07EE24872DF3407A9BD63725C71C980AEBDD080CBCCE2BAE6F5D69B7110E7CD57AA146008B3D1C8F92C5954F993BB1BF787F39A89ABC4
310
91D09600F9FDA2FB00504B0304140006080800798F81573DEE336E64000000790000001B0000006175746F6465736B2D64657369676E2D7061636B6167652E786D6C35CBC10E83200C00D05F21DCA56CA76D41FC96062B120735B69A7DBE268BB7777961F8D5AF396893C2ADB70FE7ADA196782C2DF776D7A97B5933C430F1
310
5651E5469C55D70F80A4992A3ADC954792C525AE70A1E4D6AD9816CC044FEFDF01FE3FDE907802504B0304140006080800798F81579A09B1BCFA000000960100003B0000006662782F32313845433239452D394233432D344539452D393430432D4236424630344336393235382F7265736F75726365732F636F72652E786D
310
6C8550CB6EC23010FC9568EF4EE290E0801C2344E10B7AEACD729660416CE447D5CFAF4D52A93DF5B4ABD999D9DDE187AFF9517CA2F3DA9A016859438146D9519B698018AEA487E220B8B336FCA24161E48C036418049F9C8DCF1552D60434193576C41594DE6380423D52338057379C652963480C7F2F9F52DDE584252D17
310
9EE031EA7195EA31B9E9AB460762DBB66C4B1923AC3E5E48DBB113E98F6F5BD2B4C7CB79776ABBFEBCE155160B1EF4FCB35D39940147104DDD6C086D484DDF29DB77BB7D577FF02A3305F7C1A59FD7A5F93B100EBD8D4EA1E7D532FDE31A9FE3FFAE519BB06956D745E141D074E46B207895534AE51561AA3951F10D504B03
310
04140006080800798F8157E5487725F0000000B1010000310000006662782F32313845433239452D394233432D344539452D393430432D4236424630344336393235382F636F72652E786D6C8D50CD6E8420187C15C31D05D4AD6E904D34F6097AEA8D00EB925DC1F0D3F4F10BAB4DDADB9EBE2FC30C33DFD0CBF7FA28BE94
310
F3DA9A01E01281421961A536CB0062B8C20E1417469DB5E10F0D1486AF6A0019068C2ECEC6ED80843541998C1A2BD50172EF55008578A465005EDCD4CA4B1E4362F87BB97171E78B2A71B9F3180D7AFD950AA77850123082480D3181087FE0B773DB9F5BF449ABCC6434462D0F2B2D93BBBE6AE5920477F344FA19F6633DC1
310
66CE5B8326389EC677D44CA79EB41DADB298511F5CBAF9F8245FF7AA7C17FECB1C37F942666D424D0EC35DE101C329CFF381D12A1798C6B3DD3473D9EC07504B0304140006080800798F8157CB60615755010000DD0200000C0000006662782F636F72652E786D6C8D52CB6EC32010FC158B3B7EC58ED308134569F2053DF5
310
463071516CB03058F9FC2E7EC8CDA1696509A3D9DD999D11E4F0689B6010A6975A952809631408C57525555D22676F7887820325466BFBA30D058AB5A2441E4694D446BB6E86B85656288F2A5D8919647D2F2C0A78039712F5FC4BB42C64CE42477F0F3BC6EFAC1661124E7D943827AB795456C0266F521844B759566C93A2
310
C0457CBCE02C2F4E78777CDFE2343B5ECE6FA72CDF9D3724F2C39458D92EEADC08664585681AA71B9CA4384E3E92629FBFEDF3F89344BE9392DE1AF03C8B7A7788DEAE0F124DF8139FEBAABFF99C547693CE7CD3448F6802EB8D054A229F0FFCC6F09E330461C8CFB26BB358B80334086EB5C9A05269B79606D63801D47130
310
7E249AAAC03C12FCC693BEE079CD01413155C36ACCC2F5EAAC577FDEA913060FF611286D5AD6ACCB4D2BAEE72AF4646919E7BAD1E63FD38BD525CCC83F4CFA0D504B0304140006080800798F8157C252F79007010000B201000008000000636F72652E786D6C8D50CB6EC32010FC15B4776CF03B1126B2D2E40B7AEA8D1AE2
310
A2D860191CB57F5F885DA9BDF5B4686676671876FA9C46F4508BD3D6B44013024899DE4A6D8616567FC30DA013678BB5FE970C9011936A21C2C0D9B0D875DEA1DE1AAF4C448D956A078573CA03EAC7F068C1F51F6A1289587D50B87B328BFE2E0695D064D371E6F5F4B3DA2F4A7825816724CB31CD30A1AFB43E96876349DE
310
581A959CADAB96BB9596C15DDFB45A8057455157B4AE714DBA2B2ECAFA8C9BEEA5C259D15D2F87735136979CA5719933E797F0E7FD48C8E991138FE8CBD28DE2ECDDDA711784501259337E01272C8DC49FD0EB2CFF115A1B9F67FBC16DC301A721D09308C6B1C1309EF58619DBE6DF504B01021400140006080800798F8157
310
0000000000000000000000003700000000000000000000000000000000006662782F32313845433239452D394233432D344539452D393430432D4236424630344336393235382F617474726962757465732E62696E504B01021400140006080800798F81570000000000000000000000003500000000000000000000000000
310
550000006662782F32313845433239452D394233432D344539452D393430432D4236424630344336393235382F76657274696365732E62696E504B01021400140006080800798F8157F270F13306000000040000003600000000000000000000000000A80000006662782F32313845433239452D394233432D344539452D39
310
3430432D4236424630344336393235382F747269616E676C65732E62696E504B01021400140006080800798F815751464CB489000000430100003600000000000000000000000000020100006662782F32313845433239452D394233432D344539452D393430432D4236424630344336393235382F6469726563746F72792E
310
786D6C504B01021400140006080800798F8157F8900A4037070000201C00003400000000000000000000000000DF0100006662782F32313845433239452D394233432D344539452D393430432D4236424630344336393235382F6F626A656374732E786D6C504B01021400140006080800798F8157CB340FD53E0100004605
310
00003000000000000000000000000000680900006662782F32313845433239452D394233432D344539452D393430432D4236424630344336393235382F636E782E786D6C504B01021400140006080800798F8157F9242ABE7D000000A30000000B00000000000000000000000000F40A00006662782F636E782E786D6C504B
310
01021400140006080800798F8157A6D797065F0000008200000007000000000000000000000000009A0B0000636E782E786D6C504B01021400140006080800798F81574FEB6A7CA0000000F400000013000000000000000000000000001E0C00005B436F6E74656E745F54797065735D2E786D6C504B010214001400060808
310
00798F81573DEE336E64000000790000001B00000000000000000000000000EF0C00006175746F6465736B2D64657369676E2D7061636B6167652E786D6C504B01021400140006080800798F81579A09B1BCFA000000960100003B000000000000000000000000008C0D00006662782F32313845433239452D394233432D34
310
4539452D393430432D4236424630344336393235382F7265736F75726365732F636F72652E786D6C504B01021400140006080800798F8157E5487725F0000000B10100003100000000000000000000000000DF0E00006662782F32313845433239452D394233432D344539452D393430432D4236424630344336393235382F
310
636F72652E786D6C504B01021400140006080800798F8157CB60615755010000DD0200000C000000000000000000000000001E1000006662782F636F72652E786D6C504B01021400140006080800798F8157C252F79007010000B201000008000000000000000000000000009D110000636F72652E786D6C504B0506000000
310
000E000E0080040000CA1200000000
  0
XRECORD
  5
83CB
102
{ACAD_REACTORS
330
83C6
102
}
330
83C6
100
AcDbXrecord
280
     1
270
     1
271
     1
  0
XRECORD
  5
83CA
102
{ACAD_REACTORS
330
83C6
102
}
330
83C6
100
AcDbXrecord
280
     1
270
     1
271
     1
  0
XRECORD
  5
83CC
102
{ACAD_REACTORS
330
83C6
102
}
330
83C6
100
AcDbXrecord
280
     1
270
     1
271
     1
  0
XRECORD
  5
83C9
102
{ACAD_REACTORS
330
83C6
102
}
330
83C6
100
AcDbXrecord
280
     1
270
     1
271
     1
  0
XRECORD
  5
8776
102
{ACAD_REACTORS
330
8775
102
}
330
8775
100
AcDbXrecord
280
     1
102
DISPLAYNAME
  1
Imperial24
102
FLAGS
 90
        0
  0
CELLSTYLEMAP
  5
873D
102
{ACAD_REACTORS
330
873C
102
}
330
873C
100
AcDbCellStyleMap
 90
        3
300
CELLSTYLE
  1
TABLEFORMAT_BEGIN
 90
        5
170
     1
 91
        0
 92
    32768
 62
   257
 93
        1
300
CONTENTFORMAT
  1
CONTENTFORMAT_BEGIN
 90
        0
 91
        0
 92
      512
 93
        0
300

 40
0.0
140
1.0
 94
        5
 62
     0
340
83F9
144
0.25
309
CONTENTFORMAT_END
171
     0
 94
        0
309
TABLEFORMAT_END
  1
CELLSTYLE_BEGIN
 90
        1
 91
        1
300
_TITLE
309
CELLSTYLE_END
300
CELLSTYLE
  1
TABLEFORMAT_BEGIN
 90
        5
170
     1
 91
        0
 92
        0
 62
   257
 93
        1
300
CONTENTFORMAT
  1
CONTENTFORMAT_BEGIN
 90
        0
 91
        0
 92
      512
 93
        0
300

 40
0.0
140
1.0
 94
        5
 62
     0
340
83F9
144
0.18
309
CONTENTFORMAT_END
171
     0
 94
        0
309
TABLEFORMAT_END
  1
CELLSTYLE_BEGIN
 90
        2
 91
        1
300
_HEADER
309
CELLSTYLE_END
300
CELLSTYLE
  1
TABLEFORMAT_BEGIN
 90
        5
170
     1
 91
        0
 92
        0
 62
   257
 93
        1
300
CONTENTFORMAT
  1
CONTENTFORMAT_BEGIN
 90
        0
 91
        0
 92
      512
 93
        0
300

 40
0.0
140
1.0
 94
        2
 62
     0
340
83F9
144
0.18
309
CONTENTFORMAT_END
171
     0
 94
        0
309
TABLEFORMAT_END
  1
CELLSTYLE_BEGIN
 90
        3
 91
        2
300
_DATA
309
CELLSTYLE_END
  0
XRECORD
  5
8773
102
{ACAD_REACTORS
330
873C
102
}
330
873C
100
AcDbXrecord
280
     1
102
ACAD_ROUNDTRIP_PRE2007_TABLESTYLE
 90
      512
 91
        0
  1

 92
      512
 93
        0
  2

 94
      512
 95
        0
  3

  0
XRECORD
  5
874E
102
{ACAD_REACTORS
330
874D
102
}
330
874D
100
AcDbXrecord
280
     1
102
RTVSPost2010Prop28
280
     1
102
RTVSPost2010PropOp28
 70
     1
102
RTVSPost2010Prop29
280
     1
102
RTVSPost2010PropOp29
 70
     1
102
RTVSPost2010Prop30
280
     0
102
RTVSPost2010PropOp30
 70
     1
102
RTVSPost2010Prop31
280
     0
102
RTVSPost2010PropOp31
 70
     1
102
RTVSPost2010Prop32
280
     0
102
RTVSPost2010PropOp32
 70
     1
102
RTVSPost2010Prop33
280
     0
102
RTVSPost2010PropOp33
 70
     1
102
RTVSPost2010Prop34
280
     0
102
RTVSPost2010PropOp34
 70
     1
102
RTVSPost2010Prop35
280
     0
102
RTVSPost2010PropOp35
 70
     1
102
RTVSPost2010Prop36
280
     0
102
RTVSPost2010PropOp36
 70
     1
102
RTVSPost2010Prop37
 90
       50
102
RTVSPost2010PropOp37
 70
     1
102
RTVSPost2010Prop38
140
0.0
102
RTVSPost2010PropOp38
 70
     1
102
RTVSPost2010Prop39
140
1.0
102
RTVSPost2010PropOp39
 70
     1
102
RTVSPost2010Prop40
 90
        0
102
RTVSPost2010PropOp40
 70
     1
102
RTVSPost2010Prop41ColorIndex
 90
       18
102
RTVSPost2010Prop41ColorRGB
 90
        0
102
RTVSPost2010PropOp41
 70
     1
102
RTVSPost2010Prop42
 90
       50
102
RTVSPost2010PropOp42
 70
     1
102
RTVSPost2010Prop43
 90
        3
102
RTVSPost2010PropOp43
 70
     1
102
RTVSPost2010Prop44ColorIndex
 90
        5
102
RTVSPost2010Prop44ColorRGB
 90
      255
102
RTVSPost2010PropOp44
 70
     1
102
RTVSPost2010Prop45
280
     0
102
RTVSPost2010PropOp45
 70
     1
102
RTVSPost2010Prop46
 90
       50
102
RTVSPost2010PropOp46
 70
     1
102
RTVSPost2010Prop47
 90
       50
102
RTVSPost2010PropOp47
 70
     1
102
RTVSPost2010Prop48
 90
       50
102
RTVSPost2010PropOp48
 70
     1
102
RTVSPost2010Prop49
280
     0
102
RTVSPost2010PropOp49
 70
     1
102
RTVSPost2010Prop50
 90
       50
102
RTVSPost2010PropOp50
 70
     1
102
RTVSPost2010Prop51ColorIndex
 90
      256
102
RTVSPost2010Prop51ColorRGB
 90
-16777216
102
RTVSPost2010PropOp51
 70
     0
102
RTVSPost2010Prop52
140
1.0
102
RTVSPost2010PropOp52
 70
     0
102
RTVSPost2010Prop53
 90
        2
102
RTVSPost2010PropOp53
 70
     1
102
RTVSPost2010Prop54
  1
strokes_ogs.tif
102
RTVSPost2010PropOp54
 70
     1
102
RTVSPost2010Prop55
280
     0
102
RTVSPost2010PropOp55
 70
     1
102
RTVSPost2010Prop56
140
1.0
102
RTVSPost2010PropOp56
 70
     1
102
RTVSPost2010Prop57
140
1.0
102
RTVSPost2010PropOp57
 70
     1
102
RTVSPropertyOp0
 70
     1
102
RTVSPropertyOp1
 70
     1
102
RTVSPropertyOp2
 70
     1
102
RTVSPropertyOp3
 70
     1
102
RTVSPropertyOp4
 70
     1
102
RTVSPropertyOp5
 70
     1
102
RTVSPropertyOp6
 70
     1
102
RTVSPropertyOp7
 70
     1
102
RTVSPropertyOp8
 70
     1
102
RTVSPropertyOp9
 70
     1
102
RTVSPropertyOp10
 70
     1
102
RTVSPropertyOp11
 70
     1
102
RTVSPropertyOp12
 70
     1
102
RTVSPropertyOp13
 70
     1
102
RTVSPropertyOp14
 70
     1
102
RTVSPropertyOp15
 70
     1
102
RTVSPropertyOp16
 70
     1
102
RTVSPropertyOp17
 70
     1
102
RTVSPropertyOp18
 70
     1
102
RTVSPropertyOp19
 70
     1
102
RTVSPropertyOp20
 70
     1
102
RTVSPropertyOp21
 70
     1
102
RTVSPropertyOp22
 70
     1
102
RTVSPropertyOp23
 70
     1
102
RTVSPropertyOp24
 70
     1
102
RTVSPropertyOp25
 70
     1
102
RTVSPropertyOp26
 70
     1
102
RTVSPropertyOp27
 70
     1
102
RTVSPropertyOp28
 70
     1
102
RTVSPropertyOp29
 70
     1
102
RTVSPropertyOp30
 70
     1
102
RTVSPropertyOp31
 70
     1
102
RTVSPropertyOp32
 70
     1
102
RTVSPropertyOp33
 70
     1
102
RTVSPropertyOp34
 70
     1
102
RTVSPropertyOp35
 70
     1
102
RTVSPropertyOp36
 70
     1
102
RTVSPropertyOp37
 70
     1
102
RTVSPropertyOp38
 70
     1
102
RTVSPropertyOp39
 70
     1
102
RTVSPropertyOp40
 70
     1
102
RTVSPropertyOp41
 70
     1
102
RTVSPropertyOp42
 70
     1
102
RTVSPropertyOp43
 70
     1
102
RTVSPropertyOp44
 70
     1
102
RTVSPropertyOp45
 70
     1
102
RTVSPropertyOp46
 70
     1
102
RTVSPropertyOp47
 70
     1
102
RTVSPropertyOp48
 70
     1
102
RTVSPropertyOp49
 70
     1
102
RTVSPropertyOp50
 70
     1
102
RTVSPropertyOp51
 70
     0
102
RTVSPropertyOp52
 70
     0
102
RTVSPropertyOp53
 70
     1
102
RTVSPropertyOp54
 70
     1
102
RTVSPropertyOp55
 70
     1
102
RTVSPropertyOp56
 70
     1
102
RTVSPropertyOp57
 70
     1
102
RTVSPropertyOp58
 70
     1
102
RTVSPropertyOp59
 70
     1
102
RTVSPropertyOp60
 70
     1
102
RTVSPropertyOp61
 70
     1
102
RTVSPropertyOp62
 70
     1
  0
XRECORD
  5
874C
102
{ACAD_REACTORS
330
874B
102
}
330
874B
100
AcDbXrecord
280
     1
102
RTVSPost2010Prop28
280
     0
102
RTVSPost2010PropOp28
 70
     1
102
RTVSPost2010Prop29
280
     1
102
RTVSPost2010PropOp29
 70
     1
102
RTVSPost2010Prop30
280
     1
102
RTVSPost2010PropOp30
 70
     1
102
RTVSPost2010Prop31
280
     0
102
RTVSPost2010PropOp31
 70
     1
102
RTVSPost2010Prop32
280
     0
102
RTVSPost2010PropOp32
 70
     1
102
RTVSPost2010Prop33
280
     0
102
RTVSPost2010PropOp33
 70
     1
102
RTVSPost2010Prop34
280
     0
102
RTVSPost2010PropOp34
 70
     1
102
RTVSPost2010Prop35
280
     0
102
RTVSPost2010PropOp35
 70
     1
102
RTVSPost2010Prop36
280
     0
102
RTVSPost2010PropOp36
 70
     1
102
RTVSPost2010Prop37
 90
       50
102
RTVSPost2010PropOp37
 70
     1
102
RTVSPost2010Prop38
140
0.0
102
RTVSPost2010PropOp38
 70
     1
102
RTVSPost2010Prop39
140
1.0
102
RTVSPost2010PropOp39
 70
     1
102
RTVSPost2010Prop40
 90
        0
102
RTVSPost2010PropOp40
 70
     1
102
RTVSPost2010Prop41ColorIndex
 90
       18
102
RTVSPost2010Prop41ColorRGB
 90
        0
102
RTVSPost2010PropOp41
 70
     1
102
RTVSPost2010Prop42
 90
       50
102
RTVSPost2010PropOp42
 70
     1
102
RTVSPost2010Prop43
 90
        3
102
RTVSPost2010PropOp43
 70
     1
102
RTVSPost2010Prop44ColorIndex
 90
        5
102
RTVSPost2010Prop44ColorRGB
 90
      255
102
RTVSPost2010PropOp44
 70
     1
102
RTVSPost2010Prop45
280
     0
102
RTVSPost2010PropOp45
 70
     1
102
RTVSPost2010Prop46
 90
       50
102
RTVSPost2010PropOp46
 70
     1
102
RTVSPost2010Prop47
 90
       50
102
RTVSPost2010PropOp47
 70
     1
102
RTVSPost2010Prop48
 90
       50
102
RTVSPost2010PropOp48
 70
     1
102
RTVSPost2010Prop49
280
     0
102
RTVSPost2010PropOp49
 70
     1
102
RTVSPost2010Prop50
 90
       50
102
RTVSPost2010PropOp50
 70
     1
102
RTVSPost2010Prop51ColorIndex
 90
      256
102
RTVSPost2010Prop51ColorRGB
 90
-16777216
102
RTVSPost2010PropOp51
 70
     0
102
RTVSPost2010Prop52
140
1.0
102
RTVSPost2010PropOp52
 70
     0
102
RTVSPost2010Prop53
 90
        2
102
RTVSPost2010PropOp53
 70
     1
102
RTVSPost2010Prop54
  1
strokes_ogs.tif
102
RTVSPost2010PropOp54
 70
     1
102
RTVSPost2010Prop55
280
     0
102
RTVSPost2010PropOp55
 70
     1
102
RTVSPost2010Prop56
140
1.0
102
RTVSPost2010PropOp56
 70
     1
102
RTVSPost2010Prop57
140
1.0
102
RTVSPost2010PropOp57
 70
     1
102
RTVSPropertyOp0
 70
     1
102
RTVSPropertyOp1
 70
     1
102
RTVSPropertyOp2
 70
     1
102
RTVSPropertyOp3
 70
     1
102
RTVSPropertyOp4
 70
     1
102
RTVSPropertyOp5
 70
     1
102
RTVSPropertyOp6
 70
     1
102
RTVSPropertyOp7
 70
     1
102
RTVSPropertyOp8
 70
     1
102
RTVSPropertyOp9
 70
     1
102
RTVSPropertyOp10
 70
     1
102
RTVSPropertyOp11
 70
     1
102
RTVSPropertyOp12
 70
     1
102
RTVSPropertyOp13
 70
     1
102
RTVSPropertyOp14
 70
     1
102
RTVSPropertyOp15
 70
     1
102
RTVSPropertyOp16
 70
     1
102
RTVSPropertyOp17
 70
     1
102
RTVSPropertyOp18
 70
     1
102
RTVSPropertyOp19
 70
     1
102
RTVSPropertyOp20
 70
     1
102
RTVSPropertyOp21
 70
     1
102
RTVSPropertyOp22
 70
     1
102
RTVSPropertyOp23
 70
     1
102
RTVSPropertyOp24
 70
     1
102
RTVSPropertyOp25
 70
     1
102
RTVSPropertyOp26
 70
     1
102
RTVSPropertyOp27
 70
     1
102
RTVSPropertyOp28
 70
     1
102
RTVSPropertyOp29
 70
     1
102
RTVSPropertyOp30
 70
     1
102
RTVSPropertyOp31
 70
     1
102
RTVSPropertyOp32
 70
     1
102
RTVSPropertyOp33
 70
     1
102
RTVSPropertyOp34
 70
     1
102
RTVSPropertyOp35
 70
     1
102
RTVSPropertyOp36
 70
     1
102
RTVSPropertyOp37
 70
     1
102
RTVSPropertyOp38
 70
     1
102
RTVSPropertyOp39
 70
     1
102
RTVSPropertyOp40
 70
     1
102
RTVSPropertyOp41
 70
     1
102
RTVSPropertyOp42
 70
     1
102
RTVSPropertyOp43
 70
     1
102
RTVSPropertyOp44
 70
     1
102
RTVSPropertyOp45
 70
     1
102
RTVSPropertyOp46
 70
     1
102
RTVSPropertyOp47
 70
     1
102
RTVSPropertyOp48
 70
     1
102
RTVSPropertyOp49
 70
     1
102
RTVSPropertyOp50
 70
     1
102
RTVSPropertyOp51
 70
     0
102
RTVSPropertyOp52
 70
     0
102
RTVSPropertyOp53
 70
     1
102
RTVSPropertyOp54
 70
     1
102
RTVSPropertyOp55
 70
     1
102
RTVSPropertyOp56
 70
     1
102
RTVSPropertyOp57
 70
     1
102
RTVSPropertyOp58
 70
     1
102
RTVSPropertyOp59
 70
     1
102
RTVSPropertyOp60
 70
     1
102
RTVSPropertyOp61
 70
     1
102
RTVSPropertyOp62
 70
     1
  0
XRECORD
  5
875A
102
{ACAD_REACTORS
330
8759
102
}
330
8759
100
AcDbXrecord
280
     1
102
RTVSPost2010Prop28
280
     0
102
RTVSPost2010PropOp28
 70
     1
102
RTVSPost2010Prop29
280
     1
102
RTVSPost2010PropOp29
 70
     1
102
RTVSPost2010Prop30
280
     1
102
RTVSPost2010PropOp30
 70
     1
102
RTVSPost2010Prop31
280
     0
102
RTVSPost2010PropOp31
 70
     1
102
RTVSPost2010Prop32
280
     0
102
RTVSPost2010PropOp32
 70
     1
102
RTVSPost2010Prop33
280
     0
102
RTVSPost2010PropOp33
 70
     1
102
RTVSPost2010Prop34
280
     0
102
RTVSPost2010PropOp34
 70
     1
102
RTVSPost2010Prop35
280
     0
102
RTVSPost2010PropOp35
 70
     1
102
RTVSPost2010Prop36
280
     0
102
RTVSPost2010PropOp36
 70
     1
102
RTVSPost2010Prop37
 90
       50
102
RTVSPost2010PropOp37
 70
     1
102
RTVSPost2010Prop38
140
0.0
102
RTVSPost2010PropOp38
 70
     1
102
RTVSPost2010Prop39
140
1.0
102
RTVSPost2010PropOp39
 70
     1
102
RTVSPost2010Prop40
 90
        0
102
RTVSPost2010PropOp40
 70
     1
102
RTVSPost2010Prop41ColorIndex
 90
       18
102
RTVSPost2010Prop41ColorRGB
 90
        0
102
RTVSPost2010PropOp41
 70
     1
102
RTVSPost2010Prop42
 90
       50
102
RTVSPost2010PropOp42
 70
     1
102
RTVSPost2010Prop43
 90
        3
102
RTVSPost2010PropOp43
 70
     1
102
RTVSPost2010Prop44ColorIndex
 90
        5
102
RTVSPost2010Prop44ColorRGB
 90
      255
102
RTVSPost2010PropOp44
 70
     1
102
RTVSPost2010Prop45
280
     0
102
RTVSPost2010PropOp45
 70
     1
102
RTVSPost2010Prop46
 90
       50
102
RTVSPost2010PropOp46
 70
     1
102
RTVSPost2010Prop47
 90
       50
102
RTVSPost2010PropOp47
 70
     1
102
RTVSPost2010Prop48
 90
       50
102
RTVSPost2010PropOp48
 70
     1
102
RTVSPost2010Prop49
280
     0
102
RTVSPost2010PropOp49
 70
     1
102
RTVSPost2010Prop50
 90
       50
102
RTVSPost2010PropOp50
 70
     1
102
RTVSPost2010Prop51ColorIndex
 90
      256
102
RTVSPost2010Prop51ColorRGB
 90
-16777216
102
RTVSPost2010PropOp51
 70
     0
102
RTVSPost2010Prop52
140
1.0
102
RTVSPost2010PropOp52
 70
     0
102
RTVSPost2010Prop53
 90
        2
102
RTVSPost2010PropOp53
 70
     1
102
RTVSPost2010Prop54
  1
strokes_ogs.tif
102
RTVSPost2010PropOp54
 70
     1
102
RTVSPost2010Prop55
280
     0
102
RTVSPost2010PropOp55
 70
     1
102
RTVSPost2010Prop56
140
1.0
102
RTVSPost2010PropOp56
 70
     1
102
RTVSPost2010Prop57
140
1.0
102
RTVSPost2010PropOp57
 70
     1
102
RTVSPropertyOp0
 70
     1
102
RTVSPropertyOp1
 70
     1
102
RTVSPropertyOp2
 70
     1
102
RTVSPropertyOp3
 70
     1
102
RTVSPropertyOp4
 70
     1
102
RTVSPropertyOp5
 70
     1
102
RTVSPropertyOp6
 70
     1
102
RTVSPropertyOp7
 70
     1
102
RTVSPropertyOp8
 70
     1
102
RTVSPropertyOp9
 70
     1
102
RTVSPropertyOp10
 70
     1
102
RTVSPropertyOp11
 70
     1
102
RTVSPropertyOp12
 70
     1
102
RTVSPropertyOp13
 70
     1
102
RTVSPropertyOp14
 70
     1
102
RTVSPropertyOp15
 70
     1
102
RTVSPropertyOp16
 70
     1
102
RTVSPropertyOp17
 70
     1
102
RTVSPropertyOp18
 70
     1
102
RTVSPropertyOp19
 70
     1
102
RTVSPropertyOp20
 70
     1
102
RTVSPropertyOp21
 70
     1
102
RTVSPropertyOp22
 70
     1
102
RTVSPropertyOp23
 70
     1
102
RTVSPropertyOp24
 70
     1
102
RTVSPropertyOp25
 70
     1
102
RTVSPropertyOp26
 70
     1
102
RTVSPropertyOp27
 70
     1
102
RTVSPropertyOp28
 70
     1
102
RTVSPropertyOp29
 70
     1
102
RTVSPropertyOp30
 70
     1
102
RTVSPropertyOp31
 70
     1
102
RTVSPropertyOp32
 70
     1
102
RTVSPropertyOp33
 70
     1
102
RTVSPropertyOp34
 70
     1
102
RTVSPropertyOp35
 70
     1
102
RTVSPropertyOp36
 70
     1
102
RTVSPropertyOp37
 70
     1
102
RTVSPropertyOp38
 70
     1
102
RTVSPropertyOp39
 70
     1
102
RTVSPropertyOp40
 70
     1
102
RTVSPropertyOp41
 70
     1
102
RTVSPropertyOp42
 70
     1
102
RTVSPropertyOp43
 70
     1
102
RTVSPropertyOp44
 70
     1
102
RTVSPropertyOp45
 70
     1
102
RTVSPropertyOp46
 70
     1
102
RTVSPropertyOp47
 70
     1
102
RTVSPropertyOp48
 70
     1
102
RTVSPropertyOp49
 70
     1
102
RTVSPropertyOp50
 70
     1
102
RTVSPropertyOp51
 70
     0
102
RTVSPropertyOp52
 70
     0
102
RTVSPropertyOp53
 70
     1
102
RTVSPropertyOp54
 70
     1
102
RTVSPropertyOp55
 70
     1
102
RTVSPropertyOp56
 70
     1
102
RTVSPropertyOp57
 70
     1
102
RTVSPropertyOp58
 70
     1
102
RTVSPropertyOp59
 70
     1
102
RTVSPropertyOp60
 70
     1
102
RTVSPropertyOp61
 70
     1
102
RTVSPropertyOp62
 70
     1
  0
XRECORD
  5
8762
102
{ACAD_REACTORS
330
8761
102
}
330
8761
100
AcDbXrecord
280
     1
102
RTVSPost2010Prop28
280
     0
102
RTVSPost2010PropOp28
 70
     1
102
RTVSPost2010Prop29
280
     1
102
RTVSPost2010PropOp29
 70
     1
102
RTVSPost2010Prop30
280
     1
102
RTVSPost2010PropOp30
 70
     1
102
RTVSPost2010Prop31
280
     0
102
RTVSPost2010PropOp31
 70
     1
102
RTVSPost2010Prop32
280
     0
102
RTVSPost2010PropOp32
 70
     1
102
RTVSPost2010Prop33
280
     0
102
RTVSPost2010PropOp33
 70
     1
102
RTVSPost2010Prop34
280
     0
102
RTVSPost2010PropOp34
 70
     1
102
RTVSPost2010Prop35
280
     0
102
RTVSPost2010PropOp35
 70
     1
102
RTVSPost2010Prop36
280
     0
102
RTVSPost2010PropOp36
 70
     1
102
RTVSPost2010Prop37
 90
       50
102
RTVSPost2010PropOp37
 70
     1
102
RTVSPost2010Prop38
140
0.0
102
RTVSPost2010PropOp38
 70
     1
102
RTVSPost2010Prop39
140
1.0
102
RTVSPost2010PropOp39
 70
     1
102
RTVSPost2010Prop40
 90
        0
102
RTVSPost2010PropOp40
 70
     1
102
RTVSPost2010Prop41ColorIndex
 90
       18
102
RTVSPost2010Prop41ColorRGB
 90
        0
102
RTVSPost2010PropOp41
 70
     1
102
RTVSPost2010Prop42
 90
       50
102
RTVSPost2010PropOp42
 70
     1
102
RTVSPost2010Prop43
 90
        3
102
RTVSPost2010PropOp43
 70
     1
102
RTVSPost2010Prop44ColorIndex
 90
        5
102
RTVSPost2010Prop44ColorRGB
 90
      255
102
RTVSPost2010PropOp44
 70
     1
102
RTVSPost2010Prop45
280
     0
102
RTVSPost2010PropOp45
 70
     1
102
RTVSPost2010Prop46
 90
       50
102
RTVSPost2010PropOp46
 70
     1
102
RTVSPost2010Prop47
 90
       50
102
RTVSPost2010PropOp47
 70
     1
102
RTVSPost2010Prop48
 90
       50
102
RTVSPost2010PropOp48
 70
     1
102
RTVSPost2010Prop49
280
     0
102
RTVSPost2010PropOp49
 70
     1
102
RTVSPost2010Prop50
 90
       50
102
RTVSPost2010PropOp50
 70
     1
102
RTVSPost2010Prop51ColorIndex
 90
      256
102
RTVSPost2010Prop51ColorRGB
 90
-16777216
102
RTVSPost2010PropOp51
 70
     0
102
RTVSPost2010Prop52
140
1.0
102
RTVSPost2010PropOp52
 70
     0
102
RTVSPost2010Prop53
 90
        2
102
RTVSPost2010PropOp53
 70
     1
102
RTVSPost2010Prop54
  1
strokes_ogs.tif
102
RTVSPost2010PropOp54
 70
     1
102
RTVSPost2010Prop55
280
     0
102
RTVSPost2010PropOp55
 70
     1
102
RTVSPost2010Prop56
140
1.0
102
RTVSPost2010PropOp56
 70
     1
102
RTVSPost2010Prop57
140
1.0
102
RTVSPost2010PropOp57
 70
     1
102
RTVSPropertyOp0
 70
     1
102
RTVSPropertyOp1
 70
     1
102
RTVSPropertyOp2
 70
     1
102
RTVSPropertyOp3
 70
     1
102
RTVSPropertyOp4
 70
     1
102
RTVSPropertyOp5
 70
     1
102
RTVSPropertyOp6
 70
     1
102
RTVSPropertyOp7
 70
     1
102
RTVSPropertyOp8
 70
     1
102
RTVSPropertyOp9
 70
     1
102
RTVSPropertyOp10
 70
     1
102
RTVSPropertyOp11
 70
     1
102
RTVSPropertyOp12
 70
     1
102
RTVSPropertyOp13
 70
     1
102
RTVSPropertyOp14
 70
     1
102
RTVSPropertyOp15
 70
     1
102
RTVSPropertyOp16
 70
     1
102
RTVSPropertyOp17
 70
     1
102
RTVSPropertyOp18
 70
     1
102
RTVSPropertyOp19
 70
     1
102
RTVSPropertyOp20
 70
     1
102
RTVSPropertyOp21
 70
     1
102
RTVSPropertyOp22
 70
     1
102
RTVSPropertyOp23
 70
     1
102
RTVSPropertyOp24
 70
     1
102
RTVSPropertyOp25
 70
     1
102
RTVSPropertyOp26
 70
     1
102
RTVSPropertyOp27
 70
     1
102
RTVSPropertyOp28
 70
     1
102
RTVSPropertyOp29
 70
     1
102
RTVSPropertyOp30
 70
     1
102
RTVSPropertyOp31
 70
     1
102
RTVSPropertyOp32
 70
     1
102
RTVSPropertyOp33
 70
     1
102
RTVSPropertyOp34
 70
     1
102
RTVSPropertyOp35
 70
     1
102
RTVSPropertyOp36
 70
     1
102
RTVSPropertyOp37
 70
     1
102
RTVSPropertyOp38
 70
     1
102
RTVSPropertyOp39
 70
     1
102
RTVSPropertyOp40
 70
     1
102
RTVSPropertyOp41
 70
     1
102
RTVSPropertyOp42
 70
     1
102
RTVSPropertyOp43
 70
     1
102
RTVSPropertyOp44
 70
     1
102
RTVSPropertyOp45
 70
     1
102
RTVSPropertyOp46
 70
     1
102
RTVSPropertyOp47
 70
     1
102
RTVSPropertyOp48
 70
     1
102
RTVSPropertyOp49
 70
     1
102
RTVSPropertyOp50
 70
     1
102
RTVSPropertyOp51
 70
     0
102
RTVSPropertyOp52
 70
     0
102
RTVSPropertyOp53
 70
     1
102
RTVSPropertyOp54
 70
     1
102
RTVSPropertyOp55
 70
     1
102
RTVSPropertyOp56
 70
     1
102
RTVSPropertyOp57
 70
     1
102
RTVSPropertyOp58
 70
     1
102
RTVSPropertyOp59
 70
     1
102
RTVSPropertyOp60
 70
     1
102
RTVSPropertyOp61
 70
     1
102
RTVSPropertyOp62
 70
     1
  0
XRECORD
  5
8754
102
{ACAD_REACTORS
330
8753
102
}
330
8753
100
AcDbXrecord
280
     1
102
RTVSPost2010Prop28
280
     0
102
RTVSPost2010PropOp28
 70
     1
102
RTVSPost2010Prop29
280
     1
102
RTVSPost2010PropOp29
 70
     1
102
RTVSPost2010Prop30
280
     1
102
RTVSPost2010PropOp30
 70
     1
102
RTVSPost2010Prop31
280
     0
102
RTVSPost2010PropOp31
 70
     1
102
RTVSPost2010Prop32
280
     0
102
RTVSPost2010PropOp32
 70
     1
102
RTVSPost2010Prop33
280
     0
102
RTVSPost2010PropOp33
 70
     1
102
RTVSPost2010Prop34
280
     0
102
RTVSPost2010PropOp34
 70
     1
102
RTVSPost2010Prop35
280
     0
102
RTVSPost2010PropOp35
 70
     1
102
RTVSPost2010Prop36
280
     0
102
RTVSPost2010PropOp36
 70
     1
102
RTVSPost2010Prop37
 90
       50
102
RTVSPost2010PropOp37
 70
     1
102
RTVSPost2010Prop38
140
0.0
102
RTVSPost2010PropOp38
 70
     1
102
RTVSPost2010Prop39
140
1.0
102
RTVSPost2010PropOp39
 70
     1
102
RTVSPost2010Prop40
 90
        0
102
RTVSPost2010PropOp40
 70
     1
102
RTVSPost2010Prop41ColorIndex
 90
       18
102
RTVSPost2010Prop41ColorRGB
 90
        0
102
RTVSPost2010PropOp41
 70
     1
102
RTVSPost2010Prop42
 90
       50
102
RTVSPost2010PropOp42
 70
     1
102
RTVSPost2010Prop43
 90
        3
102
RTVSPost2010PropOp43
 70
     1
102
RTVSPost2010Prop44ColorIndex
 90
        5
102
RTVSPost2010Prop44ColorRGB
 90
      255
102
RTVSPost2010PropOp44
 70
     1
102
RTVSPost2010Prop45
280
     0
102
RTVSPost2010PropOp45
 70
     1
102
RTVSPost2010Prop46
 90
       50
102
RTVSPost2010PropOp46
 70
     1
102
RTVSPost2010Prop47
 90
       50
102
RTVSPost2010PropOp47
 70
     1
102
RTVSPost2010Prop48
 90
       50
102
RTVSPost2010PropOp48
 70
     1
102
RTVSPost2010Prop49
280
     0
102
RTVSPost2010PropOp49
 70
     1
102
RTVSPost2010Prop50
 90
       50
102
RTVSPost2010PropOp50
 70
     1
102
RTVSPost2010Prop51ColorIndex
 90
      256
102
RTVSPost2010Prop51ColorRGB
 90
-16777216
102
RTVSPost2010PropOp51
 70
     0
102
RTVSPost2010Prop52
140
1.0
102
RTVSPost2010PropOp52
 70
     0
102
RTVSPost2010Prop53
 90
        2
102
RTVSPost2010PropOp53
 70
     1
102
RTVSPost2010Prop54
  1
strokes_ogs.tif
102
RTVSPost2010PropOp54
 70
     1
102
RTVSPost2010Prop55
280
     0
102
RTVSPost2010PropOp55
 70
     1
102
RTVSPost2010Prop56
140
1.0
102
RTVSPost2010PropOp56
 70
     1
102
RTVSPost2010Prop57
140
1.0
102
RTVSPost2010PropOp57
 70
     1
102
RTVSPropertyOp0
 70
     1
102
RTVSPropertyOp1
 70
     1
102
RTVSPropertyOp2
 70
     1
102
RTVSPropertyOp3
 70
     1
102
RTVSPropertyOp4
 70
     1
102
RTVSPropertyOp5
 70
     1
102
RTVSPropertyOp6
 70
     1
102
RTVSPropertyOp7
 70
     1
102
RTVSPropertyOp8
 70
     1
102
RTVSPropertyOp9
 70
     1
102
RTVSPropertyOp10
 70
     1
102
RTVSPropertyOp11
 70
     1
102
RTVSPropertyOp12
 70
     1
102
RTVSPropertyOp13
 70
     1
102
RTVSPropertyOp14
 70
     1
102
RTVSPropertyOp15
 70
     1
102
RTVSPropertyOp16
 70
     1
102
RTVSPropertyOp17
 70
     1
102
RTVSPropertyOp18
 70
     1
102
RTVSPropertyOp19
 70
     1
102
RTVSPropertyOp20
 70
     1
102
RTVSPropertyOp21
 70
     1
102
RTVSPropertyOp22
 70
     1
102
RTVSPropertyOp23
 70
     1
102
RTVSPropertyOp24
 70
     1
102
RTVSPropertyOp25
 70
     1
102
RTVSPropertyOp26
 70
     1
102
RTVSPropertyOp27
 70
     1
102
RTVSPropertyOp28
 70
     1
102
RTVSPropertyOp29
 70
     1
102
RTVSPropertyOp30
 70
     1
102
RTVSPropertyOp31
 70
     1
102
RTVSPropertyOp32
 70
     1
102
RTVSPropertyOp33
 70
     1
102
RTVSPropertyOp34
 70
     1
102
RTVSPropertyOp35
 70
     1
102
RTVSPropertyOp36
 70
     1
102
RTVSPropertyOp37
 70
     1
102
RTVSPropertyOp38
 70
     1
102
RTVSPropertyOp39
 70
     1
102
RTVSPropertyOp40
 70
     1
102
RTVSPropertyOp41
 70
     1
102
RTVSPropertyOp42
 70
     1
102
RTVSPropertyOp43
 70
     1
102
RTVSPropertyOp44
 70
     1
102
RTVSPropertyOp45
 70
     1
102
RTVSPropertyOp46
 70
     1
102
RTVSPropertyOp47
 70
     1
102
RTVSPropertyOp48
 70
     1
102
RTVSPropertyOp49
 70
     1
102
RTVSPropertyOp50
 70
     1
102
RTVSPropertyOp51
 70
     0
102
RTVSPropertyOp52
 70
     0
102
RTVSPropertyOp53
 70
     1
102
RTVSPropertyOp54
 70
     1
102
RTVSPropertyOp55
 70
     1
102
RTVSPropertyOp56
 70
     1
102
RTVSPropertyOp57
 70
     1
102
RTVSPropertyOp58
 70
     1
102
RTVSPropertyOp59
 70
     1
102
RTVSPropertyOp60
 70
     1
102
RTVSPropertyOp61
 70
     1
102
RTVSPropertyOp62
 70
     1
  0
XRECORD
  5
8758
102
{ACAD_REACTORS
330
8757
102
}
330
8757
100
AcDbXrecord
280
     1
102
RTVSPost2010Prop28
280
     0
102
RTVSPost2010PropOp28
 70
     1
102
RTVSPost2010Prop29
280
     1
102
RTVSPost2010PropOp29
 70
     1
102
RTVSPost2010Prop30
280
     1
102
RTVSPost2010PropOp30
 70
     1
102
RTVSPost2010Prop31
280
     0
102
RTVSPost2010PropOp31
 70
     1
102
RTVSPost2010Prop32
280
     0
102
RTVSPost2010PropOp32
 70
     1
102
RTVSPost2010Prop33
280
     0
102
RTVSPost2010PropOp33
 70
     1
102
RTVSPost2010Prop34
280
     0
102
RTVSPost2010PropOp34
 70
     1
102
RTVSPost2010Prop35
280
     0
102
RTVSPost2010PropOp35
 70
     1
102
RTVSPost2010Prop36
280
     0
102
RTVSPost2010PropOp36
 70
     1
102
RTVSPost2010Prop37
 90
       50
102
RTVSPost2010PropOp37
 70
     1
102
RTVSPost2010Prop38
140
0.0
102
RTVSPost2010PropOp38
 70
     1
102
RTVSPost2010Prop39
140
1.0
102
RTVSPost2010PropOp39
 70
     1
102
RTVSPost2010Prop40
 90
        0
102
RTVSPost2010PropOp40
 70
     1
102
RTVSPost2010Prop41ColorIndex
 90
       18
102
RTVSPost2010Prop41ColorRGB
 90
        0
102
RTVSPost2010PropOp41
 70
     1
102
RTVSPost2010Prop42
 90
       50
102
RTVSPost2010PropOp42
 70
     1
102
RTVSPost2010Prop43
 90
        3
102
RTVSPost2010PropOp43
 70
     1
102
RTVSPost2010Prop44ColorIndex
 90
        5
102
RTVSPost2010Prop44ColorRGB
 90
      255
102
RTVSPost2010PropOp44
 70
     1
102
RTVSPost2010Prop45
280
     0
102
RTVSPost2010PropOp45
 70
     1
102
RTVSPost2010Prop46
 90
       50
102
RTVSPost2010PropOp46
 70
     1
102
RTVSPost2010Prop47
 90
       50
102
RTVSPost2010PropOp47
 70
     1
102
RTVSPost2010Prop48
 90
       50
102
RTVSPost2010PropOp48
 70
     1
102
RTVSPost2010Prop49
280
     0
102
RTVSPost2010PropOp49
 70
     1
102
RTVSPost2010Prop50
 90
       50
102
RTVSPost2010PropOp50
 70
     1
102
RTVSPost2010Prop51ColorIndex
 90
      256
102
RTVSPost2010Prop51ColorRGB
 90
-16777216
102
RTVSPost2010PropOp51
 70
     0
102
RTVSPost2010Prop52
140
1.0
102
RTVSPost2010PropOp52
 70
     0
102
RTVSPost2010Prop53
 90
        2
102
RTVSPost2010PropOp53
 70
     1
102
RTVSPost2010Prop54
  1
strokes_ogs.tif
102
RTVSPost2010PropOp54
 70
     1
102
RTVSPost2010Prop55
280
     0
102
RTVSPost2010PropOp55
 70
     1
102
RTVSPost2010Prop56
140
1.0
102
RTVSPost2010PropOp56
 70
     1
102
RTVSPost2010Prop57
140
1.0
102
RTVSPost2010PropOp57
 70
     1
102
RTVSPropertyOp0
 70
     1
102
RTVSPropertyOp1
 70
     1
102
RTVSPropertyOp2
 70
     1
102
RTVSPropertyOp3
 70
     1
102
RTVSPropertyOp4
 70
     1
102
RTVSPropertyOp5
 70
     1
102
RTVSPropertyOp6
 70
     1
102
RTVSPropertyOp7
 70
     1
102
RTVSPropertyOp8
 70
     1
102
RTVSPropertyOp9
 70
     1
102
RTVSPropertyOp10
 70
     1
102
RTVSPropertyOp11
 70
     1
102
RTVSPropertyOp12
 70
     1
102
RTVSPropertyOp13
 70
     1
102
RTVSPropertyOp14
 70
     1
102
RTVSPropertyOp15
 70
     1
102
RTVSPropertyOp16
 70
     1
102
RTVSPropertyOp17
 70
     1
102
RTVSPropertyOp18
 70
     1
102
RTVSPropertyOp19
 70
     1
102
RTVSPropertyOp20
 70
     1
102
RTVSPropertyOp21
 70
     1
102
RTVSPropertyOp22
 70
     1
102
RTVSPropertyOp23
 70
     1
102
RTVSPropertyOp24
 70
     1
102
RTVSPropertyOp25
 70
     1
102
RTVSPropertyOp26
 70
     1
102
RTVSPropertyOp27
 70
     1
102
RTVSPropertyOp28
 70
     1
102
RTVSPropertyOp29
 70
     1
102
RTVSPropertyOp30
 70
     1
102
RTVSPropertyOp31
 70
     1
102
RTVSPropertyOp32
 70
     1
102
RTVSPropertyOp33
 70
     1
102
RTVSPropertyOp34
 70
     1
102
RTVSPropertyOp35
 70
     1
102
RTVSPropertyOp36
 70
     1
102
RTVSPropertyOp37
 70
     1
102
RTVSPropertyOp38
 70
     1
102
RTVSPropertyOp39
 70
     1
102
RTVSPropertyOp40
 70
     1
102
RTVSPropertyOp41
 70
     1
102
RTVSPropertyOp42
 70
     1
102
RTVSPropertyOp43
 70
     1
102
RTVSPropertyOp44
 70
     1
102
RTVSPropertyOp45
 70
     1
102
RTVSPropertyOp46
 70
     1
102
RTVSPropertyOp47
 70
     1
102
RTVSPropertyOp48
 70
     1
102
RTVSPropertyOp49
 70
     1
102
RTVSPropertyOp50
 70
     1
102
RTVSPropertyOp51
 70
     0
102
RTVSPropertyOp52
 70
     0
102
RTVSPropertyOp53
 70
     1
102
RTVSPropertyOp54
 70
     1
102
RTVSPropertyOp55
 70
     1
102
RTVSPropertyOp56
 70
     1
102
RTVSPropertyOp57
 70
     1
102
RTVSPropertyOp58
 70
     1
102
RTVSPropertyOp59
 70
     1
102
RTVSPropertyOp60
 70
     1
102
RTVSPropertyOp61
 70
     1
102
RTVSPropertyOp62
 70
     1
  0
XRECORD
  5
8772
102
{ACAD_REACTORS
330
8771
102
}
330
8771
100
AcDbXrecord
280
     1
102
RTVSPost2010Prop28
280
     0
102
RTVSPost2010PropOp28
 70
     1
102
RTVSPost2010Prop29
280
     1
102
RTVSPost2010PropOp29
 70
     1
102
RTVSPost2010Prop30
280
     1
102
RTVSPost2010PropOp30
 70
     1
102
RTVSPost2010Prop31
280
     0
102
RTVSPost2010PropOp31
 70
     1
102
RTVSPost2010Prop32
280
     0
102
RTVSPost2010PropOp32
 70
     1
102
RTVSPost2010Prop33
280
     0
102
RTVSPost2010PropOp33
 70
     1
102
RTVSPost2010Prop34
280
     0
102
RTVSPost2010PropOp34
 70
     1
102
RTVSPost2010Prop35
280
     0
102
RTVSPost2010PropOp35
 70
     1
102
RTVSPost2010Prop36
280
     0
102
RTVSPost2010PropOp36
 70
     1
102
RTVSPost2010Prop37
 90
       50
102
RTVSPost2010PropOp37
 70
     0
102
RTVSPost2010Prop38
140
0.0
102
RTVSPost2010PropOp38
 70
     0
102
RTVSPost2010Prop39
140
1.0
102
RTVSPost2010PropOp39
 70
     0
102
RTVSPost2010Prop40
 90
        0
102
RTVSPost2010PropOp40
 70
     0
102
RTVSPost2010Prop41ColorIndex
 90
       18
102
RTVSPost2010Prop41ColorRGB
 90
        0
102
RTVSPost2010PropOp41
 70
     0
102
RTVSPost2010Prop42
 90
       50
102
RTVSPost2010PropOp42
 70
     0
102
RTVSPost2010Prop43
 90
        3
102
RTVSPost2010PropOp43
 70
     0
102
RTVSPost2010Prop44ColorIndex
 90
        5
102
RTVSPost2010Prop44ColorRGB
 90
      255
102
RTVSPost2010PropOp44
 70
     0
102
RTVSPost2010Prop45
280
     0
102
RTVSPost2010PropOp45
 70
     1
102
RTVSPost2010Prop46
 90
       50
102
RTVSPost2010PropOp46
 70
     0
102
RTVSPost2010Prop47
 90
       50
102
RTVSPost2010PropOp47
 70
     0
102
RTVSPost2010Prop48
 90
       50
102
RTVSPost2010PropOp48
 70
     0
102
RTVSPost2010Prop49
280
     0
102
RTVSPost2010PropOp49
 70
     1
102
RTVSPost2010Prop50
 90
       50
102
RTVSPost2010PropOp50
 70
     0
102
RTVSPost2010Prop51ColorIndex
 90
      256
102
RTVSPost2010Prop51ColorRGB
 90
-16777216
102
RTVSPost2010PropOp51
 70
     0
102
RTVSPost2010Prop52
140
1.0
102
RTVSPost2010PropOp52
 70
     0
102
RTVSPost2010Prop53
 90
        2
102
RTVSPost2010PropOp53
 70
     0
102
RTVSPost2010Prop54
  1
strokes_ogs.tif
102
RTVSPost2010PropOp54
 70
     0
102
RTVSPost2010Prop55
280
     0
102
RTVSPost2010PropOp55
 70
     1
102
RTVSPost2010Prop56
140
1.0
102
RTVSPost2010PropOp56
 70
     0
102
RTVSPost2010Prop57
140
1.0
102
RTVSPost2010PropOp57
 70
     0
102
RTVSPropertyOp0
 70
     0
102
RTVSPropertyOp1
 70
     0
102
RTVSPropertyOp2
 70
     0
102
RTVSPropertyOp3
 70
     0
102
RTVSPropertyOp4
 70
     0
102
RTVSPropertyOp5
 70
     0
102
RTVSPropertyOp6
 70
     0
102
RTVSPropertyOp7
 70
     0
102
RTVSPropertyOp8
 70
     0
102
RTVSPropertyOp9
 70
     0
102
RTVSPropertyOp10
 70
     0
102
RTVSPropertyOp11
 70
     0
102
RTVSPropertyOp12
 70
     0
102
RTVSPropertyOp13
 70
     0
102
RTVSPropertyOp14
 70
     2
102
RTVSPropertyOp15
 70
     0
102
RTVSPropertyOp16
 70
     0
102
RTVSPropertyOp17
 70
     0
102
RTVSPropertyOp18
 70
     0
102
RTVSPropertyOp19
 70
     0
102
RTVSPropertyOp20
 70
     0
102
RTVSPropertyOp21
 70
     0
102
RTVSPropertyOp22
 70
     0
102
RTVSPropertyOp23
 70
     0
102
RTVSPropertyOp24
 70
     0
102
RTVSPropertyOp25
 70
     0
102
RTVSPropertyOp26
 70
     0
102
RTVSPropertyOp27
 70
     0
102
RTVSPropertyOp28
 70
     1
102
RTVSPropertyOp29
 70
     1
102
RTVSPropertyOp30
 70
     1
102
RTVSPropertyOp31
 70
     1
102
RTVSPropertyOp32
 70
     1
102
RTVSPropertyOp33
 70
     1
102
RTVSPropertyOp34
 70
     1
102
RTVSPropertyOp35
 70
     1
102
RTVSPropertyOp36
 70
     1
102
RTVSPropertyOp37
 70
     0
102
RTVSPropertyOp38
 70
     0
102
RTVSPropertyOp39
 70
     0
102
RTVSPropertyOp40
 70
     0
102
RTVSPropertyOp41
 70
     0
102
RTVSPropertyOp42
 70
     0
102
RTVSPropertyOp43
 70
     0
102
RTVSPropertyOp44
 70
     0
102
RTVSPropertyOp45
 70
     1
102
RTVSPropertyOp46
 70
     0
102
RTVSPropertyOp47
 70
     0
102
RTVSPropertyOp48
 70
     0
102
RTVSPropertyOp49
 70
     1
102
RTVSPropertyOp50
 70
     0
102
RTVSPropertyOp51
 70
     0
102
RTVSPropertyOp52
 70
     0
102
RTVSPropertyOp53
 70
     0
102
RTVSPropertyOp54
 70
     0
102
RTVSPropertyOp55
 70
     1
102
RTVSPropertyOp56
 70
     0
102
RTVSPropertyOp57
 70
     0
102
RTVSPropertyOp58
 70
     0
102
RTVSPropertyOp59
 70
     0
102
RTVSPropertyOp60
 70
     0
102
RTVSPropertyOp61
 70
     0
102
RTVSPropertyOp62
 70
     0
  0
XRECORD
  5
8760
102
{ACAD_REACTORS
330
875F
102
}
330
875F
100
AcDbXrecord
280
     1
102
RTVSPost2010Prop28
280
     0
102
RTVSPost2010PropOp28
 70
     1
102
RTVSPost2010Prop29
280
     1
102
RTVSPost2010PropOp29
 70
     1
102
RTVSPost2010Prop30
280
     1
102
RTVSPost2010PropOp30
 70
     1
102
RTVSPost2010Prop31
280
     0
102
RTVSPost2010PropOp31
 70
     1
102
RTVSPost2010Prop32
280
     0
102
RTVSPost2010PropOp32
 70
     1
102
RTVSPost2010Prop33
280
     0
102
RTVSPost2010PropOp33
 70
     1
102
RTVSPost2010Prop34
280
     0
102
RTVSPost2010PropOp34
 70
     1
102
RTVSPost2010Prop35
280
     0
102
RTVSPost2010PropOp35
 70
     1
102
RTVSPost2010Prop36
280
     0
102
RTVSPost2010PropOp36
 70
     1
102
RTVSPost2010Prop37
 90
       50
102
RTVSPost2010PropOp37
 70
     1
102
RTVSPost2010Prop38
140
0.0
102
RTVSPost2010PropOp38
 70
     1
102
RTVSPost2010Prop39
140
1.0
102
RTVSPost2010PropOp39
 70
     1
102
RTVSPost2010Prop40
 90
        0
102
RTVSPost2010PropOp40
 70
     1
102
RTVSPost2010Prop41ColorIndex
 90
       18
102
RTVSPost2010Prop41ColorRGB
 90
        0
102
RTVSPost2010PropOp41
 70
     1
102
RTVSPost2010Prop42
 90
       50
102
RTVSPost2010PropOp42
 70
     1
102
RTVSPost2010Prop43
 90
        3
102
RTVSPost2010PropOp43
 70
     1
102
RTVSPost2010Prop44ColorIndex
 90
        5
102
RTVSPost2010Prop44ColorRGB
 90
      255
102
RTVSPost2010PropOp44
 70
     1
102
RTVSPost2010Prop45
280
     0
102
RTVSPost2010PropOp45
 70
     1
102
RTVSPost2010Prop46
 90
       50
102
RTVSPost2010PropOp46
 70
     1
102
RTVSPost2010Prop47
 90
       50
102
RTVSPost2010PropOp47
 70
     1
102
RTVSPost2010Prop48
 90
       50
102
RTVSPost2010PropOp48
 70
     1
102
RTVSPost2010Prop49
280
     0
102
RTVSPost2010PropOp49
 70
     1
102
RTVSPost2010Prop50
 90
       50
102
RTVSPost2010PropOp50
 70
     1
102
RTVSPost2010Prop51ColorIndex
 90
      256
102
RTVSPost2010Prop51ColorRGB
 90
-16777216
102
RTVSPost2010PropOp51
 70
     0
102
RTVSPost2010Prop52
140
1.0
102
RTVSPost2010PropOp52
 70
     0
102
RTVSPost2010Prop53
 90
        2
102
RTVSPost2010PropOp53
 70
     1
102
RTVSPost2010Prop54
  1
strokes_ogs.tif
102
RTVSPost2010PropOp54
 70
     1
102
RTVSPost2010Prop55
280
     0
102
RTVSPost2010PropOp55
 70
     1
102
RTVSPost2010Prop56
140
1.0
102
RTVSPost2010PropOp56
 70
     1
102
RTVSPost2010Prop57
140
1.0
102
RTVSPost2010PropOp57
 70
     1
102
RTVSPropertyOp0
 70
     1
102
RTVSPropertyOp1
 70
     1
102
RTVSPropertyOp2
 70
     1
102
RTVSPropertyOp3
 70
     1
102
RTVSPropertyOp4
 70
     1
102
RTVSPropertyOp5
 70
     1
102
RTVSPropertyOp6
 70
     1
102
RTVSPropertyOp7
 70
     1
102
RTVSPropertyOp8
 70
     1
102
RTVSPropertyOp9
 70
     1
102
RTVSPropertyOp10
 70
     1
102
RTVSPropertyOp11
 70
     1
102
RTVSPropertyOp12
 70
     1
102
RTVSPropertyOp13
 70
     1
102
RTVSPropertyOp14
 70
     1
102
RTVSPropertyOp15
 70
     1
102
RTVSPropertyOp16
 70
     1
102
RTVSPropertyOp17
 70
     1
102
RTVSPropertyOp18
 70
     1
102
RTVSPropertyOp19
 70
     1
102
RTVSPropertyOp20
 70
     1
102
RTVSPropertyOp21
 70
     1
102
RTVSPropertyOp22
 70
     1
102
RTVSPropertyOp23
 70
     1
102
RTVSPropertyOp24
 70
     1
102
RTVSPropertyOp25
 70
     1
102
RTVSPropertyOp26
 70
     1
102
RTVSPropertyOp27
 70
     1
102
RTVSPropertyOp28
 70
     1
102
RTVSPropertyOp29
 70
     1
102
RTVSPropertyOp30
 70
     1
102
RTVSPropertyOp31
 70
     1
102
RTVSPropertyOp32
 70
     1
102
RTVSPropertyOp33
 70
     1
102
RTVSPropertyOp34
 70
     1
102
RTVSPropertyOp35
 70
     1
102
RTVSPropertyOp36
 70
     1
102
RTVSPropertyOp37
 70
     1
102
RTVSPropertyOp38
 70
     1
102
RTVSPropertyOp39
 70
     1
102
RTVSPropertyOp40
 70
     1
102
RTVSPropertyOp41
 70
     1
102
RTVSPropertyOp42
 70
     1
102
RTVSPropertyOp43
 70
     1
102
RTVSPropertyOp44
 70
     1
102
RTVSPropertyOp45
 70
     1
102
RTVSPropertyOp46
 70
     1
102
RTVSPropertyOp47
 70
     1
102
RTVSPropertyOp48
 70
     1
102
RTVSPropertyOp49
 70
     1
102
RTVSPropertyOp50
 70
     1
102
RTVSPropertyOp51
 70
     0
102
RTVSPropertyOp52
 70
     0
102
RTVSPropertyOp53
 70
     1
102
RTVSPropertyOp54
 70
     1
102
RTVSPropertyOp55
 70
     1
102
RTVSPropertyOp56
 70
     1
102
RTVSPropertyOp57
 70
     1
102
RTVSPropertyOp58
 70
     1
102
RTVSPropertyOp59
 70
     1
102
RTVSPropertyOp60
 70
     1
102
RTVSPropertyOp61
 70
     1
102
RTVSPropertyOp62
 70
     1
  0
XRECORD
  5
8744
102
{ACAD_REACTORS
330
8743
102
}
330
8743
100
AcDbXrecord
280
     1
102
RTVSPost2010Prop28
280
     0
102
RTVSPost2010PropOp28
 70
     1
102
RTVSPost2010Prop29
280
     1
102
RTVSPost2010PropOp29
 70
     1
102
RTVSPost2010Prop30
280
     1
102
RTVSPost2010PropOp30
 70
     1
102
RTVSPost2010Prop31
280
     0
102
RTVSPost2010PropOp31
 70
     1
102
RTVSPost2010Prop32
280
     0
102
RTVSPost2010PropOp32
 70
     1
102
RTVSPost2010Prop33
280
     0
102
RTVSPost2010PropOp33
 70
     1
102
RTVSPost2010Prop34
280
     0
102
RTVSPost2010PropOp34
 70
     1
102
RTVSPost2010Prop35
280
     0
102
RTVSPost2010PropOp35
 70
     1
102
RTVSPost2010Prop36
280
     0
102
RTVSPost2010PropOp36
 70
     1
102
RTVSPost2010Prop37
 90
       50
102
RTVSPost2010PropOp37
 70
     1
102
RTVSPost2010Prop38
140
0.0
102
RTVSPost2010PropOp38
 70
     1
102
RTVSPost2010Prop39
140
1.0
102
RTVSPost2010PropOp39
 70
     1
102
RTVSPost2010Prop40
 90
        0
102
RTVSPost2010PropOp40
 70
     1
102
RTVSPost2010Prop41ColorIndex
 90
       18
102
RTVSPost2010Prop41ColorRGB
 90
        0
102
RTVSPost2010PropOp41
 70
     1
102
RTVSPost2010Prop42
 90
       50
102
RTVSPost2010PropOp42
 70
     1
102
RTVSPost2010Prop43
 90
        3
102
RTVSPost2010PropOp43
 70
     1
102
RTVSPost2010Prop44ColorIndex
 90
        5
102
RTVSPost2010Prop44ColorRGB
 90
      255
102
RTVSPost2010PropOp44
 70
     1
102
RTVSPost2010Prop45
280
     0
102
RTVSPost2010PropOp45
 70
     1
102
RTVSPost2010Prop46
 90
       50
102
RTVSPost2010PropOp46
 70
     1
102
RTVSPost2010Prop47
 90
       50
102
RTVSPost2010PropOp47
 70
     1
102
RTVSPost2010Prop48
 90
       50
102
RTVSPost2010PropOp48
 70
     1
102
RTVSPost2010Prop49
280
     0
102
RTVSPost2010PropOp49
 70
     1
102
RTVSPost2010Prop50
 90
       50
102
RTVSPost2010PropOp50
 70
     1
102
RTVSPost2010Prop51ColorIndex
 90
      256
102
RTVSPost2010Prop51ColorRGB
 90
-16777216
102
RTVSPost2010PropOp51
 70
     0
102
RTVSPost2010Prop52
140
1.0
102
RTVSPost2010PropOp52
 70
     0
102
RTVSPost2010Prop53
 90
        2
102
RTVSPost2010PropOp53
 70
     1
102
RTVSPost2010Prop54
  1
strokes_ogs.tif
102
RTVSPost2010PropOp54
 70
     1
102
RTVSPost2010Prop55
280
     0
102
RTVSPost2010PropOp55
 70
     1
102
RTVSPost2010Prop56
140
1.0
102
RTVSPost2010PropOp56
 70
     1
102
RTVSPost2010Prop57
140
1.0
102
RTVSPost2010PropOp57
 70
     1
102
RTVSPropertyOp0
 70
     1
102
RTVSPropertyOp1
 70
     1
102
RTVSPropertyOp2
 70
     1
102
RTVSPropertyOp3
 70
     1
102
RTVSPropertyOp4
 70
     1
102
RTVSPropertyOp5
 70
     1
102
RTVSPropertyOp6
 70
     1
102
RTVSPropertyOp7
 70
     1
102
RTVSPropertyOp8
 70
     1
102
RTVSPropertyOp9
 70
     1
102
RTVSPropertyOp10
 70
     1
102
RTVSPropertyOp11
 70
     1
102
RTVSPropertyOp12
 70
     1
102
RTVSPropertyOp13
 70
     1
102
RTVSPropertyOp14
 70
     1
102
RTVSPropertyOp15
 70
     1
102
RTVSPropertyOp16
 70
     1
102
RTVSPropertyOp17
 70
     1
102
RTVSPropertyOp18
 70
     1
102
RTVSPropertyOp19
 70
     1
102
RTVSPropertyOp20
 70
     1
102
RTVSPropertyOp21
 70
     1
102
RTVSPropertyOp22
 70
     1
102
RTVSPropertyOp23
 70
     1
102
RTVSPropertyOp24
 70
     1
102
RTVSPropertyOp25
 70
     1
102
RTVSPropertyOp26
 70
     1
102
RTVSPropertyOp27
 70
     1
102
RTVSPropertyOp28
 70
     1
102
RTVSPropertyOp29
 70
     1
102
RTVSPropertyOp30
 70
     1
102
RTVSPropertyOp31
 70
     1
102
RTVSPropertyOp32
 70
     1
102
RTVSPropertyOp33
 70
     1
102
RTVSPropertyOp34
 70
     1
102
RTVSPropertyOp35
 70
     1
102
RTVSPropertyOp36
 70
     1
102
RTVSPropertyOp37
 70
     1
102
RTVSPropertyOp38
 70
     1
102
RTVSPropertyOp39
 70
     1
102
RTVSPropertyOp40
 70
     1
102
RTVSPropertyOp41
 70
     1
102
RTVSPropertyOp42
 70
     1
102
RTVSPropertyOp43
 70
     1
102
RTVSPropertyOp44
 70
     1
102
RTVSPropertyOp45
 70
     1
102
RTVSPropertyOp46
 70
     1
102
RTVSPropertyOp47
 70
     1
102
RTVSPropertyOp48
 70
     1
102
RTVSPropertyOp49
 70
     1
102
RTVSPropertyOp50
 70
     1
102
RTVSPropertyOp51
 70
     0
102
RTVSPropertyOp52
 70
     0
102
RTVSPropertyOp53
 70
     1
102
RTVSPropertyOp54
 70
     1
102
RTVSPropertyOp55
 70
     1
102
RTVSPropertyOp56
 70
     1
102
RTVSPropertyOp57
 70
     1
102
RTVSPropertyOp58
 70
     1
102
RTVSPropertyOp59
 70
     1
102
RTVSPropertyOp60
 70
     1
102
RTVSPropertyOp61
 70
     1
102
RTVSPropertyOp62
 70
     1
  0
XRECORD
  5
8746
102
{ACAD_REACTORS
330
8745
102
}
330
8745
100
AcDbXrecord
280
     1
102
RTVSPost2010Prop28
280
     0
102
RTVSPost2010PropOp28
 70
     1
102
RTVSPost2010Prop29
280
     1
102
RTVSPost2010PropOp29
 70
     1
102
RTVSPost2010Prop30
280
     1
102
RTVSPost2010PropOp30
 70
     1
102
RTVSPost2010Prop31
280
     0
102
RTVSPost2010PropOp31
 70
     1
102
RTVSPost2010Prop32
280
     0
102
RTVSPost2010PropOp32
 70
     1
102
RTVSPost2010Prop33
280
     0
102
RTVSPost2010PropOp33
 70
     1
102
RTVSPost2010Prop34
280
     0
102
RTVSPost2010PropOp34
 70
     1
102
RTVSPost2010Prop35
280
     0
102
RTVSPost2010PropOp35
 70
     1
102
RTVSPost2010Prop36
280
     0
102
RTVSPost2010PropOp36
 70
     1
102
RTVSPost2010Prop37
 90
       50
102
RTVSPost2010PropOp37
 70
     1
102
RTVSPost2010Prop38
140
0.0
102
RTVSPost2010PropOp38
 70
     1
102
RTVSPost2010Prop39
140
1.0
102
RTVSPost2010PropOp39
 70
     1
102
RTVSPost2010Prop40
 90
        0
102
RTVSPost2010PropOp40
 70
     1
102
RTVSPost2010Prop41ColorIndex
 90
       18
102
RTVSPost2010Prop41ColorRGB
 90
        0
102
RTVSPost2010PropOp41
 70
     1
102
RTVSPost2010Prop42
 90
       50
102
RTVSPost2010PropOp42
 70
     1
102
RTVSPost2010Prop43
 90
        3
102
RTVSPost2010PropOp43
 70
     1
102
RTVSPost2010Prop44ColorIndex
 90
        5
102
RTVSPost2010Prop44ColorRGB
 90
      255
102
RTVSPost2010PropOp44
 70
     1
102
RTVSPost2010Prop45
280
     0
102
RTVSPost2010PropOp45
 70
     1
102
RTVSPost2010Prop46
 90
       50
102
RTVSPost2010PropOp46
 70
     1
102
RTVSPost2010Prop47
 90
       50
102
RTVSPost2010PropOp47
 70
     1
102
RTVSPost2010Prop48
 90
       50
102
RTVSPost2010PropOp48
 70
     1
102
RTVSPost2010Prop49
280
     0
102
RTVSPost2010PropOp49
 70
     1
102
RTVSPost2010Prop50
 90
       50
102
RTVSPost2010PropOp50
 70
     1
102
RTVSPost2010Prop51ColorIndex
 90
      256
102
RTVSPost2010Prop51ColorRGB
 90
-16777216
102
RTVSPost2010PropOp51
 70
     0
102
RTVSPost2010Prop52
140
1.0
102
RTVSPost2010PropOp52
 70
     0
102
RTVSPost2010Prop53
 90
        2
102
RTVSPost2010PropOp53
 70
     1
102
RTVSPost2010Prop54
  1
strokes_ogs.tif
102
RTVSPost2010PropOp54
 70
     1
102
RTVSPost2010Prop55
280
     0
102
RTVSPost2010PropOp55
 70
     1
102
RTVSPost2010Prop56
140
1.0
102
RTVSPost2010PropOp56
 70
     1
102
RTVSPost2010Prop57
140
1.0
102
RTVSPost2010PropOp57
 70
     1
102
RTVSPropertyOp0
 70
     1
102
RTVSPropertyOp1
 70
     1
102
RTVSPropertyOp2
 70
     1
102
RTVSPropertyOp3
 70
     1
102
RTVSPropertyOp4
 70
     1
102
RTVSPropertyOp5
 70
     1
102
RTVSPropertyOp6
 70
     1
102
RTVSPropertyOp7
 70
     1
102
RTVSPropertyOp8
 70
     1
102
RTVSPropertyOp9
 70
     1
102
RTVSPropertyOp10
 70
     1
102
RTVSPropertyOp11
 70
     1
102
RTVSPropertyOp12
 70
     1
102
RTVSPropertyOp13
 70
     1
102
RTVSPropertyOp14
 70
     1
102
RTVSPropertyOp15
 70
     1
102
RTVSPropertyOp16
 70
     1
102
RTVSPropertyOp17
 70
     1
102
RTVSPropertyOp18
 70
     1
102
RTVSPropertyOp19
 70
     1
102
RTVSPropertyOp20
 70
     1
102
RTVSPropertyOp21
 70
     1
102
RTVSPropertyOp22
 70
     1
102
RTVSPropertyOp23
 70
     1
102
RTVSPropertyOp24
 70
     1
102
RTVSPropertyOp25
 70
     1
102
RTVSPropertyOp26
 70
     1
102
RTVSPropertyOp27
 70
     1
102
RTVSPropertyOp28
 70
     1
102
RTVSPropertyOp29
 70
     1
102
RTVSPropertyOp30
 70
     1
102
RTVSPropertyOp31
 70
     1
102
RTVSPropertyOp32
 70
     1
102
RTVSPropertyOp33
 70
     1
102
RTVSPropertyOp34
 70
     1
102
RTVSPropertyOp35
 70
     1
102
RTVSPropertyOp36
 70
     1
102
RTVSPropertyOp37
 70
     1
102
RTVSPropertyOp38
 70
     1
102
RTVSPropertyOp39
 70
     1
102
RTVSPropertyOp40
 70
     1
102
RTVSPropertyOp41
 70
     1
102
RTVSPropertyOp42
 70
     1
102
RTVSPropertyOp43
 70
     1
102
RTVSPropertyOp44
 70
     1
102
RTVSPropertyOp45
 70
     1
102
RTVSPropertyOp46
 70
     1
102
RTVSPropertyOp47
 70
     1
102
RTVSPropertyOp48
 70
     1
102
RTVSPropertyOp49
 70
     1
102
RTVSPropertyOp50
 70
     1
102
RTVSPropertyOp51
 70
     0
102
RTVSPropertyOp52
 70
     0
102
RTVSPropertyOp53
 70
     1
102
RTVSPropertyOp54
 70
     1
102
RTVSPropertyOp55
 70
     1
102
RTVSPropertyOp56
 70
     1
102
RTVSPropertyOp57
 70
     1
102
RTVSPropertyOp58
 70
     1
102
RTVSPropertyOp59
 70
     1
102
RTVSPropertyOp60
 70
     1
102
RTVSPropertyOp61
 70
     1
102
RTVSPropertyOp62
 70
     1
  0
XRECORD
  5
8748
102
{ACAD_REACTORS
330
8747
102
}
330
8747
100
AcDbXrecord
280
     1
102
RTVSPost2010Prop28
280
     0
102
RTVSPost2010PropOp28
 70
     1
102
RTVSPost2010Prop29
280
     1
102
RTVSPost2010PropOp29
 70
     1
102
RTVSPost2010Prop30
280
     1
102
RTVSPost2010PropOp30
 70
     1
102
RTVSPost2010Prop31
280
     0
102
RTVSPost2010PropOp31
 70
     1
102
RTVSPost2010Prop32
280
     0
102
RTVSPost2010PropOp32
 70
     1
102
RTVSPost2010Prop33
280
     0
102
RTVSPost2010PropOp33
 70
     1
102
RTVSPost2010Prop34
280
     0
102
RTVSPost2010PropOp34
 70
     1
102
RTVSPost2010Prop35
280
     0
102
RTVSPost2010PropOp35
 70
     1
102
RTVSPost2010Prop36
280
     0
102
RTVSPost2010PropOp36
 70
     1
102
RTVSPost2010Prop37
 90
       50
102
RTVSPost2010PropOp37
 70
     1
102
RTVSPost2010Prop38
140
0.0
102
RTVSPost2010PropOp38
 70
     1
102
RTVSPost2010Prop39
140
1.0
102
RTVSPost2010PropOp39
 70
     1
102
RTVSPost2010Prop40
 90
        0
102
RTVSPost2010PropOp40
 70
     1
102
RTVSPost2010Prop41ColorIndex
 90
       18
102
RTVSPost2010Prop41ColorRGB
 90
        0
102
RTVSPost2010PropOp41
 70
     1
102
RTVSPost2010Prop42
 90
       50
102
RTVSPost2010PropOp42
 70
     1
102
RTVSPost2010Prop43
 90
        3
102
RTVSPost2010PropOp43
 70
     1
102
RTVSPost2010Prop44ColorIndex
 90
        5
102
RTVSPost2010Prop44ColorRGB
 90
      255
102
RTVSPost2010PropOp44
 70
     1
102
RTVSPost2010Prop45
280
     0
102
RTVSPost2010PropOp45
 70
     1
102
RTVSPost2010Prop46
 90
       50
102
RTVSPost2010PropOp46
 70
     1
102
RTVSPost2010Prop47
 90
       50
102
RTVSPost2010PropOp47
 70
     1
102
RTVSPost2010Prop48
 90
       50
102
RTVSPost2010PropOp48
 70
     1
102
RTVSPost2010Prop49
280
     0
102
RTVSPost2010PropOp49
 70
     1
102
RTVSPost2010Prop50
 90
       50
102
RTVSPost2010PropOp50
 70
     1
102
RTVSPost2010Prop51ColorIndex
 90
      256
102
RTVSPost2010Prop51ColorRGB
 90
-16777216
102
RTVSPost2010PropOp51
 70
     0
102
RTVSPost2010Prop52
140
1.0
102
RTVSPost2010PropOp52
 70
     0
102
RTVSPost2010Prop53
 90
        2
102
RTVSPost2010PropOp53
 70
     1
102
RTVSPost2010Prop54
  1
strokes_ogs.tif
102
RTVSPost2010PropOp54
 70
     1
102
RTVSPost2010Prop55
280
     0
102
RTVSPost2010PropOp55
 70
     1
102
RTVSPost2010Prop56
140
1.0
102
RTVSPost2010PropOp56
 70
     1
102
RTVSPost2010Prop57
140
1.0
102
RTVSPost2010PropOp57
 70
     1
102
RTVSPropertyOp0
 70
     1
102
RTVSPropertyOp1
 70
     1
102
RTVSPropertyOp2
 70
     1
102
RTVSPropertyOp3
 70
     1
102
RTVSPropertyOp4
 70
     1
102
RTVSPropertyOp5
 70
     1
102
RTVSPropertyOp6
 70
     1
102
RTVSPropertyOp7
 70
     1
102
RTVSPropertyOp8
 70
     1
102
RTVSPropertyOp9
 70
     1
102
RTVSPropertyOp10
 70
     1
102
RTVSPropertyOp11
 70
     1
102
RTVSPropertyOp12
 70
     1
102
RTVSPropertyOp13
 70
     1
102
RTVSPropertyOp14
 70
     1
102
RTVSPropertyOp15
 70
     1
102
RTVSPropertyOp16
 70
     1
102
RTVSPropertyOp17
 70
     1
102
RTVSPropertyOp18
 70
     1
102
RTVSPropertyOp19
 70
     1
102
RTVSPropertyOp20
 70
     1
102
RTVSPropertyOp21
 70
     1
102
RTVSPropertyOp22
 70
     1
102
RTVSPropertyOp23
 70
     1
102
RTVSPropertyOp24
 70
     1
102
RTVSPropertyOp25
 70
     1
102
RTVSPropertyOp26
 70
     1
102
RTVSPropertyOp27
 70
     1
102
RTVSPropertyOp28
 70
     1
102
RTVSPropertyOp29
 70
     1
102
RTVSPropertyOp30
 70
     1
102
RTVSPropertyOp31
 70
     1
102
RTVSPropertyOp32
 70
     1
102
RTVSPropertyOp33
 70
     1
102
RTVSPropertyOp34
 70
     1
102
RTVSPropertyOp35
 70
     1
102
RTVSPropertyOp36
 70
     1
102
RTVSPropertyOp37
 70
     1
102
RTVSPropertyOp38
 70
     1
102
RTVSPropertyOp39
 70
     1
102
RTVSPropertyOp40
 70
     1
102
RTVSPropertyOp41
 70
     1
102
RTVSPropertyOp42
 70
     1
102
RTVSPropertyOp43
 70
     1
102
RTVSPropertyOp44
 70
     1
102
RTVSPropertyOp45
 70
     1
102
RTVSPropertyOp46
 70
     1
102
RTVSPropertyOp47
 70
     1
102
RTVSPropertyOp48
 70
     1
102
RTVSPropertyOp49
 70
     1
102
RTVSPropertyOp50
 70
     1
102
RTVSPropertyOp51
 70
     0
102
RTVSPropertyOp52
 70
     0
102
RTVSPropertyOp53
 70
     1
102
RTVSPropertyOp54
 70
     1
102
RTVSPropertyOp55
 70
     1
102
RTVSPropertyOp56
 70
     1
102
RTVSPropertyOp57
 70
     1
102
RTVSPropertyOp58
 70
     1
102
RTVSPropertyOp59
 70
     1
102
RTVSPropertyOp60
 70
     1
102
RTVSPropertyOp61
 70
     1
102
RTVSPropertyOp62
 70
     1
  0
XRECORD
  5
874A
102
{ACAD_REACTORS
330
8749
102
}
330
8749
100
AcDbXrecord
280
     1
102
RTVSPost2010Prop28
280
     0
102
RTVSPost2010PropOp28
 70
     1
102
RTVSPost2010Prop29
280
     1
102
RTVSPost2010PropOp29
 70
     1
102
RTVSPost2010Prop30
280
     1
102
RTVSPost2010PropOp30
 70
     1
102
RTVSPost2010Prop31
280
     0
102
RTVSPost2010PropOp31
 70
     1
102
RTVSPost2010Prop32
280
     0
102
RTVSPost2010PropOp32
 70
     1
102
RTVSPost2010Prop33
280
     0
102
RTVSPost2010PropOp33
 70
     1
102
RTVSPost2010Prop34
280
     0
102
RTVSPost2010PropOp34
 70
     1
102
RTVSPost2010Prop35
280
     0
102
RTVSPost2010PropOp35
 70
     1
102
RTVSPost2010Prop36
280
     0
102
RTVSPost2010PropOp36
 70
     1
102
RTVSPost2010Prop37
 90
       50
102
RTVSPost2010PropOp37
 70
     1
102
RTVSPost2010Prop38
140
0.0
102
RTVSPost2010PropOp38
 70
     1
102
RTVSPost2010Prop39
140
1.0
102
RTVSPost2010PropOp39
 70
     1
102
RTVSPost2010Prop40
 90
        0
102
RTVSPost2010PropOp40
 70
     1
102
RTVSPost2010Prop41ColorIndex
 90
       18
102
RTVSPost2010Prop41ColorRGB
 90
        0
102
RTVSPost2010PropOp41
 70
     1
102
RTVSPost2010Prop42
 90
       50
102
RTVSPost2010PropOp42
 70
     1
102
RTVSPost2010Prop43
 90
        3
102
RTVSPost2010PropOp43
 70
     1
102
RTVSPost2010Prop44ColorIndex
 90
        5
102
RTVSPost2010Prop44ColorRGB
 90
      255
102
RTVSPost2010PropOp44
 70
     1
102
RTVSPost2010Prop45
280
     0
102
RTVSPost2010PropOp45
 70
     1
102
RTVSPost2010Prop46
 90
       50
102
RTVSPost2010PropOp46
 70
     1
102
RTVSPost2010Prop47
 90
       50
102
RTVSPost2010PropOp47
 70
     1
102
RTVSPost2010Prop48
 90
       50
102
RTVSPost2010PropOp48
 70
     1
102
RTVSPost2010Prop49
280
     0
102
RTVSPost2010PropOp49
 70
     1
102
RTVSPost2010Prop50
 90
       50
102
RTVSPost2010PropOp50
 70
     1
102
RTVSPost2010Prop51ColorIndex
 90
      256
102
RTVSPost2010Prop51ColorRGB
 90
-16777216
102
RTVSPost2010PropOp51
 70
     0
102
RTVSPost2010Prop52
140
1.0
102
RTVSPost2010PropOp52
 70
     0
102
RTVSPost2010Prop53
 90
        2
102
RTVSPost2010PropOp53
 70
     1
102
RTVSPost2010Prop54
  1
strokes_ogs.tif
102
RTVSPost2010PropOp54
 70
     1
102
RTVSPost2010Prop55
280
     0
102
RTVSPost2010PropOp55
 70
     1
102
RTVSPost2010Prop56
140
1.0
102
RTVSPost2010PropOp56
 70
     1
102
RTVSPost2010Prop57
140
1.0
102
RTVSPost2010PropOp57
 70
     1
102
RTVSPropertyOp0
 70
     1
102
RTVSPropertyOp1
 70
     1
102
RTVSPropertyOp2
 70
     1
102
RTVSPropertyOp3
 70
     1
102
RTVSPropertyOp4
 70
     1
102
RTVSPropertyOp5
 70
     1
102
RTVSPropertyOp6
 70
     1
102
RTVSPropertyOp7
 70
     1
102
RTVSPropertyOp8
 70
     1
102
RTVSPropertyOp9
 70
     1
102
RTVSPropertyOp10
 70
     1
102
RTVSPropertyOp11
 70
     1
102
RTVSPropertyOp12
 70
     1
102
RTVSPropertyOp13
 70
     1
102
RTVSPropertyOp14
 70
     1
102
RTVSPropertyOp15
 70
     1
102
RTVSPropertyOp16
 70
     1
102
RTVSPropertyOp17
 70
     1
102
RTVSPropertyOp18
 70
     1
102
RTVSPropertyOp19
 70
     1
102
RTVSPropertyOp20
 70
     1
102
RTVSPropertyOp21
 70
     1
102
RTVSPropertyOp22
 70
     1
102
RTVSPropertyOp23
 70
     1
102
RTVSPropertyOp24
 70
     1
102
RTVSPropertyOp25
 70
     1
102
RTVSPropertyOp26
 70
     1
102
RTVSPropertyOp27
 70
     1
102
RTVSPropertyOp28
 70
     1
102
RTVSPropertyOp29
 70
     1
102
RTVSPropertyOp30
 70
     1
102
RTVSPropertyOp31
 70
     1
102
RTVSPropertyOp32
 70
     1
102
RTVSPropertyOp33
 70
     1
102
RTVSPropertyOp34
 70
     1
102
RTVSPropertyOp35
 70
     1
102
RTVSPropertyOp36
 70
     1
102
RTVSPropertyOp37
 70
     1
102
RTVSPropertyOp38
 70
     1
102
RTVSPropertyOp39
 70
     1
102
RTVSPropertyOp40
 70
     1
102
RTVSPropertyOp41
 70
     1
102
RTVSPropertyOp42
 70
     1
102
RTVSPropertyOp43
 70
     1
102
RTVSPropertyOp44
 70
     1
102
RTVSPropertyOp45
 70
     1
102
RTVSPropertyOp46
 70
     1
102
RTVSPropertyOp47
 70
     1
102
RTVSPropertyOp48
 70
     1
102
RTVSPropertyOp49
 70
     1
102
RTVSPropertyOp50
 70
     1
102
RTVSPropertyOp51
 70
     0
102
RTVSPropertyOp52
 70
     0
102
RTVSPropertyOp53
 70
     1
102
RTVSPropertyOp54
 70
     1
102
RTVSPropertyOp55
 70
     1
102
RTVSPropertyOp56
 70
     1
102
RTVSPropertyOp57
 70
     1
102
RTVSPropertyOp58
 70
     1
102
RTVSPropertyOp59
 70
     1
102
RTVSPropertyOp60
 70
     1
102
RTVSPropertyOp61
 70
     1
102
RTVSPropertyOp62
 70
     1
  0
XRECORD
  5
8752
102
{ACAD_REACTORS
330
8751
102
}
330
8751
100
AcDbXrecord
280
     1
102
RTVSPost2010Prop28
280
     0
102
RTVSPost2010PropOp28
 70
     1
102
RTVSPost2010Prop29
280
     1
102
RTVSPost2010PropOp29
 70
     1
102
RTVSPost2010Prop30
280
     1
102
RTVSPost2010PropOp30
 70
     1
102
RTVSPost2010Prop31
280
     0
102
RTVSPost2010PropOp31
 70
     1
102
RTVSPost2010Prop32
280
     0
102
RTVSPost2010PropOp32
 70
     1
102
RTVSPost2010Prop33
280
     0
102
RTVSPost2010PropOp33
 70
     1
102
RTVSPost2010Prop34
280
     0
102
RTVSPost2010PropOp34
 70
     1
102
RTVSPost2010Prop35
280
     0
102
RTVSPost2010PropOp35
 70
     1
102
RTVSPost2010Prop36
280
     0
102
RTVSPost2010PropOp36
 70
     1
102
RTVSPost2010Prop37
 90
       50
102
RTVSPost2010PropOp37
 70
     1
102
RTVSPost2010Prop38
140
0.0
102
RTVSPost2010PropOp38
 70
     1
102
RTVSPost2010Prop39
140
1.0
102
RTVSPost2010PropOp39
 70
     1
102
RTVSPost2010Prop40
 90
        0
102
RTVSPost2010PropOp40
 70
     1
102
RTVSPost2010Prop41ColorIndex
 90
       18
102
RTVSPost2010Prop41ColorRGB
 90
        0
102
RTVSPost2010PropOp41
 70
     1
102
RTVSPost2010Prop42
 90
       50
102
RTVSPost2010PropOp42
 70
     1
102
RTVSPost2010Prop43
 90
        3
102
RTVSPost2010PropOp43
 70
     1
102
RTVSPost2010Prop44ColorIndex
 90
        5
102
RTVSPost2010Prop44ColorRGB
 90
      255
102
RTVSPost2010PropOp44
 70
     1
102
RTVSPost2010Prop45
280
     0
102
RTVSPost2010PropOp45
 70
     1
102
RTVSPost2010Prop46
 90
       50
102
RTVSPost2010PropOp46
 70
     1
102
RTVSPost2010Prop47
 90
       50
102
RTVSPost2010PropOp47
 70
     1
102
RTVSPost2010Prop48
 90
       50
102
RTVSPost2010PropOp48
 70
     1
102
RTVSPost2010Prop49
280
     0
102
RTVSPost2010PropOp49
 70
     1
102
RTVSPost2010Prop50
 90
       50
102
RTVSPost2010PropOp50
 70
     1
102
RTVSPost2010Prop51ColorIndex
 90
      256
102
RTVSPost2010Prop51ColorRGB
 90
-16777216
102
RTVSPost2010PropOp51
 70
     0
102
RTVSPost2010Prop52
140
1.0
102
RTVSPost2010PropOp52
 70
     0
102
RTVSPost2010Prop53
 90
        2
102
RTVSPost2010PropOp53
 70
     1
102
RTVSPost2010Prop54
  1
strokes_ogs.tif
102
RTVSPost2010PropOp54
 70
     1
102
RTVSPost2010Prop55
280
     0
102
RTVSPost2010PropOp55
 70
     1
102
RTVSPost2010Prop56
140
1.0
102
RTVSPost2010PropOp56
 70
     1
102
RTVSPost2010Prop57
140
1.0
102
RTVSPost2010PropOp57
 70
     1
102
RTVSPropertyOp0
 70
     1
102
RTVSPropertyOp1
 70
     1
102
RTVSPropertyOp2
 70
     1
102
RTVSPropertyOp3
 70
     1
102
RTVSPropertyOp4
 70
     1
102
RTVSPropertyOp5
 70
     1
102
RTVSPropertyOp6
 70
     1
102
RTVSPropertyOp7
 70
     1
102
RTVSPropertyOp8
 70
     1
102
RTVSPropertyOp9
 70
     1
102
RTVSPropertyOp10
 70
     1
102
RTVSPropertyOp11
 70
     1
102
RTVSPropertyOp12
 70
     1
102
RTVSPropertyOp13
 70
     1
102
RTVSPropertyOp14
 70
     1
102
RTVSPropertyOp15
 70
     1
102
RTVSPropertyOp16
 70
     1
102
RTVSPropertyOp17
 70
     1
102
RTVSPropertyOp18
 70
     1
102
RTVSPropertyOp19
 70
     1
102
RTVSPropertyOp20
 70
     1
102
RTVSPropertyOp21
 70
     1
102
RTVSPropertyOp22
 70
     1
102
RTVSPropertyOp23
 70
     1
102
RTVSPropertyOp24
 70
     1
102
RTVSPropertyOp25
 70
     1
102
RTVSPropertyOp26
 70
     1
102
RTVSPropertyOp27
 70
     1
102
RTVSPropertyOp28
 70
     1
102
RTVSPropertyOp29
 70
     1
102
RTVSPropertyOp30
 70
     1
102
RTVSPropertyOp31
 70
     1
102
RTVSPropertyOp32
 70
     1
102
RTVSPropertyOp33
 70
     1
102
RTVSPropertyOp34
 70
     1
102
RTVSPropertyOp35
 70
     1
102
RTVSPropertyOp36
 70
     1
102
RTVSPropertyOp37
 70
     1
102
RTVSPropertyOp38
 70
     1
102
RTVSPropertyOp39
 70
     1
102
RTVSPropertyOp40
 70
     1
102
RTVSPropertyOp41
 70
     1
102
RTVSPropertyOp42
 70
     1
102
RTVSPropertyOp43
 70
     1
102
RTVSPropertyOp44
 70
     1
102
RTVSPropertyOp45
 70
     1
102
RTVSPropertyOp46
 70
     1
102
RTVSPropertyOp47
 70
     1
102
RTVSPropertyOp48
 70
     1
102
RTVSPropertyOp49
 70
     1
102
RTVSPropertyOp50
 70
     1
102
RTVSPropertyOp51
 70
     0
102
RTVSPropertyOp52
 70
     0
102
RTVSPropertyOp53
 70
     1
102
RTVSPropertyOp54
 70
     1
102
RTVSPropertyOp55
 70
     1
102
RTVSPropertyOp56
 70
     1
102
RTVSPropertyOp57
 70
     1
102
RTVSPropertyOp58
 70
     1
102
RTVSPropertyOp59
 70
     1
102
RTVSPropertyOp60
 70
     1
102
RTVSPropertyOp61
 70
     1
102
RTVSPropertyOp62
 70
     1
  0
XRECORD
  5
876E
102
{ACAD_REACTORS
330
876D
102
}
330
876D
100
AcDbXrecord
280
     1
102
RTVSPost2010Prop28
280
     0
102
RTVSPost2010PropOp28
 70
     1
102
RTVSPost2010Prop29
280
     1
102
RTVSPost2010PropOp29
 70
     1
102
RTVSPost2010Prop30
280
     1
102
RTVSPost2010PropOp30
 70
     1
102
RTVSPost2010Prop31
280
     0
102
RTVSPost2010PropOp31
 70
     1
102
RTVSPost2010Prop32
280
     0
102
RTVSPost2010PropOp32
 70
     1
102
RTVSPost2010Prop33
280
     0
102
RTVSPost2010PropOp33
 70
     1
102
RTVSPost2010Prop34
280
     0
102
RTVSPost2010PropOp34
 70
     1
102
RTVSPost2010Prop35
280
     0
102
RTVSPost2010PropOp35
 70
     1
102
RTVSPost2010Prop36
280
     0
102
RTVSPost2010PropOp36
 70
     1
102
RTVSPost2010Prop37
 90
       50
102
RTVSPost2010PropOp37
 70
     0
102
RTVSPost2010Prop38
140
0.0
102
RTVSPost2010PropOp38
 70
     0
102
RTVSPost2010Prop39
140
1.0
102
RTVSPost2010PropOp39
 70
     0
102
RTVSPost2010Prop40
 90
        0
102
RTVSPost2010PropOp40
 70
     0
102
RTVSPost2010Prop41ColorIndex
 90
       18
102
RTVSPost2010Prop41ColorRGB
 90
        0
102
RTVSPost2010PropOp41
 70
     0
102
RTVSPost2010Prop42
 90
       50
102
RTVSPost2010PropOp42
 70
     0
102
RTVSPost2010Prop43
 90
        3
102
RTVSPost2010PropOp43
 70
     0
102
RTVSPost2010Prop44ColorIndex
 90
        5
102
RTVSPost2010Prop44ColorRGB
 90
      255
102
RTVSPost2010PropOp44
 70
     0
102
RTVSPost2010Prop45
280
     0
102
RTVSPost2010PropOp45
 70
     1
102
RTVSPost2010Prop46
 90
       50
102
RTVSPost2010PropOp46
 70
     0
102
RTVSPost2010Prop47
 90
       50
102
RTVSPost2010PropOp47
 70
     0
102
RTVSPost2010Prop48
 90
       50
102
RTVSPost2010PropOp48
 70
     0
102
RTVSPost2010Prop49
280
     0
102
RTVSPost2010PropOp49
 70
     1
102
RTVSPost2010Prop50
 90
       50
102
RTVSPost2010PropOp50
 70
     0
102
RTVSPost2010Prop51ColorIndex
 90
      256
102
RTVSPost2010Prop51ColorRGB
 90
-16777216
102
RTVSPost2010PropOp51
 70
     0
102
RTVSPost2010Prop52
140
1.0
102
RTVSPost2010PropOp52
 70
     0
102
RTVSPost2010Prop53
 90
        2
102
RTVSPost2010PropOp53
 70
     0
102
RTVSPost2010Prop54
  1
strokes_ogs.tif
102
RTVSPost2010PropOp54
 70
     0
102
RTVSPost2010Prop55
280
     0
102
RTVSPost2010PropOp55
 70
     1
102
RTVSPost2010Prop56
140
1.0
102
RTVSPost2010PropOp56
 70
     0
102
RTVSPost2010Prop57
140
1.0
102
RTVSPost2010PropOp57
 70
     0
102
RTVSPropertyOp0
 70
     0
102
RTVSPropertyOp1
 70
     0
102
RTVSPropertyOp2
 70
     0
102
RTVSPropertyOp3
 70
     0
102
RTVSPropertyOp4
 70
     0
102
RTVSPropertyOp5
 70
     0
102
RTVSPropertyOp6
 70
     0
102
RTVSPropertyOp7
 70
     0
102
RTVSPropertyOp8
 70
     0
102
RTVSPropertyOp9
 70
     0
102
RTVSPropertyOp10
 70
     0
102
RTVSPropertyOp11
 70
     0
102
RTVSPropertyOp12
 70
     0
102
RTVSPropertyOp13
 70
     0
102
RTVSPropertyOp14
 70
     2
102
RTVSPropertyOp15
 70
     0
102
RTVSPropertyOp16
 70
     0
102
RTVSPropertyOp17
 70
     0
102
RTVSPropertyOp18
 70
     0
102
RTVSPropertyOp19
 70
     0
102
RTVSPropertyOp20
 70
     0
102
RTVSPropertyOp21
 70
     0
102
RTVSPropertyOp22
 70
     0
102
RTVSPropertyOp23
 70
     0
102
RTVSPropertyOp24
 70
     0
102
RTVSPropertyOp25
 70
     0
102
RTVSPropertyOp26
 70
     0
102
RTVSPropertyOp27
 70
     0
102
RTVSPropertyOp28
 70
     1
102
RTVSPropertyOp29
 70
     1
102
RTVSPropertyOp30
 70
     1
102
RTVSPropertyOp31
 70
     1
102
RTVSPropertyOp32
 70
     1
102
RTVSPropertyOp33
 70
     1
102
RTVSPropertyOp34
 70
     1
102
RTVSPropertyOp35
 70
     1
102
RTVSPropertyOp36
 70
     1
102
RTVSPropertyOp37
 70
     0
102
RTVSPropertyOp38
 70
     0
102
RTVSPropertyOp39
 70
     0
102
RTVSPropertyOp40
 70
     0
102
RTVSPropertyOp41
 70
     0
102
RTVSPropertyOp42
 70
     0
102
RTVSPropertyOp43
 70
     0
102
RTVSPropertyOp44
 70
     0
102
RTVSPropertyOp45
 70
     1
102
RTVSPropertyOp46
 70
     0
102
RTVSPropertyOp47
 70
     0
102
RTVSPropertyOp48
 70
     0
102
RTVSPropertyOp49
 70
     1
102
RTVSPropertyOp50
 70
     0
102
RTVSPropertyOp51
 70
     0
102
RTVSPropertyOp52
 70
     0
102
RTVSPropertyOp53
 70
     0
102
RTVSPropertyOp54
 70
     0
102
RTVSPropertyOp55
 70
     1
102
RTVSPropertyOp56
 70
     0
102
RTVSPropertyOp57
 70
     0
102
RTVSPropertyOp58
 70
     0
102
RTVSPropertyOp59
 70
     0
102
RTVSPropertyOp60
 70
     0
102
RTVSPropertyOp61
 70
     0
102
RTVSPropertyOp62
 70
     0
  0
XRECORD
  5
875E
102
{ACAD_REACTORS
330
875D
102
}
330
875D
100
AcDbXrecord
280
     1
102
RTVSPost2010Prop28
280
     0
102
RTVSPost2010PropOp28
 70
     1
102
RTVSPost2010Prop29
280
     1
102
RTVSPost2010PropOp29
 70
     1
102
RTVSPost2010Prop30
280
     1
102
RTVSPost2010PropOp30
 70
     1
102
RTVSPost2010Prop31
280
     0
102
RTVSPost2010PropOp31
 70
     1
102
RTVSPost2010Prop32
280
     0
102
RTVSPost2010PropOp32
 70
     1
102
RTVSPost2010Prop33
280
     0
102
RTVSPost2010PropOp33
 70
     1
102
RTVSPost2010Prop34
280
     0
102
RTVSPost2010PropOp34
 70
     1
102
RTVSPost2010Prop35
280
     0
102
RTVSPost2010PropOp35
 70
     1
102
RTVSPost2010Prop36
280
     0
102
RTVSPost2010PropOp36
 70
     1
102
RTVSPost2010Prop37
 90
       50
102
RTVSPost2010PropOp37
 70
     1
102
RTVSPost2010Prop38
140
0.0
102
RTVSPost2010PropOp38
 70
     1
102
RTVSPost2010Prop39
140
1.0
102
RTVSPost2010PropOp39
 70
     1
102
RTVSPost2010Prop40
 90
        0
102
RTVSPost2010PropOp40
 70
     1
102
RTVSPost2010Prop41ColorIndex
 90
       18
102
RTVSPost2010Prop41ColorRGB
 90
        0
102
RTVSPost2010PropOp41
 70
     1
102
RTVSPost2010Prop42
 90
       50
102
RTVSPost2010PropOp42
 70
     1
102
RTVSPost2010Prop43
 90
        3
102
RTVSPost2010PropOp43
 70
     1
102
RTVSPost2010Prop44ColorIndex
 90
        5
102
RTVSPost2010Prop44ColorRGB
 90
      255
102
RTVSPost2010PropOp44
 70
     1
102
RTVSPost2010Prop45
280
     0
102
RTVSPost2010PropOp45
 70
     1
102
RTVSPost2010Prop46
 90
       50
102
RTVSPost2010PropOp46
 70
     1
102
RTVSPost2010Prop47
 90
       50
102
RTVSPost2010PropOp47
 70
     1
102
RTVSPost2010Prop48
 90
       50
102
RTVSPost2010PropOp48
 70
     1
102
RTVSPost2010Prop49
280
     0
102
RTVSPost2010PropOp49
 70
     1
102
RTVSPost2010Prop50
 90
       50
102
RTVSPost2010PropOp50
 70
     1
102
RTVSPost2010Prop51ColorIndex
 90
      256
102
RTVSPost2010Prop51ColorRGB
 90
-16777216
102
RTVSPost2010PropOp51
 70
     0
102
RTVSPost2010Prop52
140
1.0
102
RTVSPost2010PropOp52
 70
     0
102
RTVSPost2010Prop53
 90
        2
102
RTVSPost2010PropOp53
 70
     1
102
RTVSPost2010Prop54
  1
strokes_ogs.tif
102
RTVSPost2010PropOp54
 70
     1
102
RTVSPost2010Prop55
280
     0
102
RTVSPost2010PropOp55
 70
     1
102
RTVSPost2010Prop56
140
1.0
102
RTVSPost2010PropOp56
 70
     1
102
RTVSPost2010Prop57
140
1.0
102
RTVSPost2010PropOp57
 70
     1
102
RTVSPropertyOp0
 70
     1
102
RTVSPropertyOp1
 70
     1
102
RTVSPropertyOp2
 70
     1
102
RTVSPropertyOp3
 70
     1
102
RTVSPropertyOp4
 70
     1
102
RTVSPropertyOp5
 70
     1
102
RTVSPropertyOp6
 70
     1
102
RTVSPropertyOp7
 70
     1
102
RTVSPropertyOp8
 70
     1
102
RTVSPropertyOp9
 70
     1
102
RTVSPropertyOp10
 70
     1
102
RTVSPropertyOp11
 70
     1
102
RTVSPropertyOp12
 70
     1
102
RTVSPropertyOp13
 70
     1
102
RTVSPropertyOp14
 70
     1
102
RTVSPropertyOp15
 70
     1
102
RTVSPropertyOp16
 70
     1
102
RTVSPropertyOp17
 70
     1
102
RTVSPropertyOp18
 70
     1
102
RTVSPropertyOp19
 70
     1
102
RTVSPropertyOp20
 70
     1
102
RTVSPropertyOp21
 70
     1
102
RTVSPropertyOp22
 70
     1
102
RTVSPropertyOp23
 70
     1
102
RTVSPropertyOp24
 70
     1
102
RTVSPropertyOp25
 70
     1
102
RTVSPropertyOp26
 70
     1
102
RTVSPropertyOp27
 70
     1
102
RTVSPropertyOp28
 70
     1
102
RTVSPropertyOp29
 70
     1
102
RTVSPropertyOp30
 70
     1
102
RTVSPropertyOp31
 70
     1
102
RTVSPropertyOp32
 70
     1
102
RTVSPropertyOp33
 70
     1
102
RTVSPropertyOp34
 70
     1
102
RTVSPropertyOp35
 70
     1
102
RTVSPropertyOp36
 70
     1
102
RTVSPropertyOp37
 70
     1
102
RTVSPropertyOp38
 70
     1
102
RTVSPropertyOp39
 70
     1
102
RTVSPropertyOp40
 70
     1
102
RTVSPropertyOp41
 70
     1
102
RTVSPropertyOp42
 70
     1
102
RTVSPropertyOp43
 70
     1
102
RTVSPropertyOp44
 70
     1
102
RTVSPropertyOp45
 70
     1
102
RTVSPropertyOp46
 70
     1
102
RTVSPropertyOp47
 70
     1
102
RTVSPropertyOp48
 70
     1
102
RTVSPropertyOp49
 70
     1
102
RTVSPropertyOp50
 70
     1
102
RTVSPropertyOp51
 70
     0
102
RTVSPropertyOp52
 70
     0
102
RTVSPropertyOp53
 70
     1
102
RTVSPropertyOp54
 70
     1
102
RTVSPropertyOp55
 70
     1
102
RTVSPropertyOp56
 70
     1
102
RTVSPropertyOp57
 70
     1
102
RTVSPropertyOp58
 70
     1
102
RTVSPropertyOp59
 70
     1
102
RTVSPropertyOp60
 70
     1
102
RTVSPropertyOp61
 70
     1
102
RTVSPropertyOp62
 70
     1
  0
XRECORD
  5
8770
102
{ACAD_REACTORS
330
876F
102
}
330
876F
100
AcDbXrecord
280
     1
102
RTVSPost2010Prop28
280
     0
102
RTVSPost2010PropOp28
 70
     1
102
RTVSPost2010Prop29
280
     1
102
RTVSPost2010PropOp29
 70
     1
102
RTVSPost2010Prop30
280
     1
102
RTVSPost2010PropOp30
 70
     1
102
RTVSPost2010Prop31
280
     0
102
RTVSPost2010PropOp31
 70
     1
102
RTVSPost2010Prop32
280
     0
102
RTVSPost2010PropOp32
 70
     1
102
RTVSPost2010Prop33
280
     0
102
RTVSPost2010PropOp33
 70
     1
102
RTVSPost2010Prop34
280
     0
102
RTVSPost2010PropOp34
 70
     1
102
RTVSPost2010Prop35
280
     0
102
RTVSPost2010PropOp35
 70
     1
102
RTVSPost2010Prop36
280
     0
102
RTVSPost2010PropOp36
 70
     1
102
RTVSPost2010Prop37
 90
       50
102
RTVSPost2010PropOp37
 70
     0
102
RTVSPost2010Prop38
140
0.0
102
RTVSPost2010PropOp38
 70
     0
102
RTVSPost2010Prop39
140
1.0
102
RTVSPost2010PropOp39
 70
     0
102
RTVSPost2010Prop40
 90
        0
102
RTVSPost2010PropOp40
 70
     0
102
RTVSPost2010Prop41ColorIndex
 90
       18
102
RTVSPost2010Prop41ColorRGB
 90
        0
102
RTVSPost2010PropOp41
 70
     0
102
RTVSPost2010Prop42
 90
       50
102
RTVSPost2010PropOp42
 70
     0
102
RTVSPost2010Prop43
 90
        3
102
RTVSPost2010PropOp43
 70
     0
102
RTVSPost2010Prop44ColorIndex
 90
        5
102
RTVSPost2010Prop44ColorRGB
 90
      255
102
RTVSPost2010PropOp44
 70
     0
102
RTVSPost2010Prop45
280
     0
102
RTVSPost2010PropOp45
 70
     1
102
RTVSPost2010Prop46
 90
       50
102
RTVSPost2010PropOp46
 70
     0
102
RTVSPost2010Prop47
 90
       50
102
RTVSPost2010PropOp47
 70
     0
102
RTVSPost2010Prop48
 90
       50
102
RTVSPost2010PropOp48
 70
     0
102
RTVSPost2010Prop49
280
     0
102
RTVSPost2010PropOp49
 70
     1
102
RTVSPost2010Prop50
 90
       50
102
RTVSPost2010PropOp50
 70
     0
102
RTVSPost2010Prop51ColorIndex
 90
      256
102
RTVSPost2010Prop51ColorRGB
 90
-16777216
102
RTVSPost2010PropOp51
 70
     0
102
RTVSPost2010Prop52
140
1.0
102
RTVSPost2010PropOp52
 70
     0
102
RTVSPost2010Prop53
 90
        2
102
RTVSPost2010PropOp53
 70
     0
102
RTVSPost2010Prop54
  1
strokes_ogs.tif
102
RTVSPost2010PropOp54
 70
     0
102
RTVSPost2010Prop55
280
     0
102
RTVSPost2010PropOp55
 70
     1
102
RTVSPost2010Prop56
140
1.0
102
RTVSPost2010PropOp56
 70
     0
102
RTVSPost2010Prop57
140
1.0
102
RTVSPost2010PropOp57
 70
     0
102
RTVSPropertyOp0
 70
     0
102
RTVSPropertyOp1
 70
     0
102
RTVSPropertyOp2
 70
     0
102
RTVSPropertyOp3
 70
     0
102
RTVSPropertyOp4
 70
     0
102
RTVSPropertyOp5
 70
     0
102
RTVSPropertyOp6
 70
     0
102
RTVSPropertyOp7
 70
     0
102
RTVSPropertyOp8
 70
     0
102
RTVSPropertyOp9
 70
     0
102
RTVSPropertyOp10
 70
     0
102
RTVSPropertyOp11
 70
     0
102
RTVSPropertyOp12
 70
     0
102
RTVSPropertyOp13
 70
     0
102
RTVSPropertyOp14
 70
     2
102
RTVSPropertyOp15
 70
     0
102
RTVSPropertyOp16
 70
     0
102
RTVSPropertyOp17
 70
     0
102
RTVSPropertyOp18
 70
     0
102
RTVSPropertyOp19
 70
     0
102
RTVSPropertyOp20
 70
     0
102
RTVSPropertyOp21
 70
     0
102
RTVSPropertyOp22
 70
     0
102
RTVSPropertyOp23
 70
     0
102
RTVSPropertyOp24
 70
     0
102
RTVSPropertyOp25
 70
     0
102
RTVSPropertyOp26
 70
     0
102
RTVSPropertyOp27
 70
     0
102
RTVSPropertyOp28
 70
     1
102
RTVSPropertyOp29
 70
     1
102
RTVSPropertyOp30
 70
     1
102
RTVSPropertyOp31
 70
     1
102
RTVSPropertyOp32
 70
     1
102
RTVSPropertyOp33
 70
     1
102
RTVSPropertyOp34
 70
     1
102
RTVSPropertyOp35
 70
     1
102
RTVSPropertyOp36
 70
     1
102
RTVSPropertyOp37
 70
     0
102
RTVSPropertyOp38
 70
     0
102
RTVSPropertyOp39
 70
     0
102
RTVSPropertyOp40
 70
     0
102
RTVSPropertyOp41
 70
     0
102
RTVSPropertyOp42
 70
     0
102
RTVSPropertyOp43
 70
     0
102
RTVSPropertyOp44
 70
     0
102
RTVSPropertyOp45
 70
     1
102
RTVSPropertyOp46
 70
     0
102
RTVSPropertyOp47
 70
     0
102
RTVSPropertyOp48
 70
     0
102
RTVSPropertyOp49
 70
     1
102
RTVSPropertyOp50
 70
     0
102
RTVSPropertyOp51
 70
     0
102
RTVSPropertyOp52
 70
     0
102
RTVSPropertyOp53
 70
     0
102
RTVSPropertyOp54
 70
     0
102
RTVSPropertyOp55
 70
     1
102
RTVSPropertyOp56
 70
     0
102
RTVSPropertyOp57
 70
     0
102
RTVSPropertyOp58
 70
     0
102
RTVSPropertyOp59
 70
     0
102
RTVSPropertyOp60
 70
     0
102
RTVSPropertyOp61
 70
     0
102
RTVSPropertyOp62
 70
     0
  0
XRECORD
  5
8756
102
{ACAD_REACTORS
330
8755
102
}
330
8755
100
AcDbXrecord
280
     1
102
RTVSPost2010Prop28
280
     0
102
RTVSPost2010PropOp28
 70
     1
102
RTVSPost2010Prop29
280
     1
102
RTVSPost2010PropOp29
 70
     1
102
RTVSPost2010Prop30
280
     1
102
RTVSPost2010PropOp30
 70
     1
102
RTVSPost2010Prop31
280
     0
102
RTVSPost2010PropOp31
 70
     1
102
RTVSPost2010Prop32
280
     0
102
RTVSPost2010PropOp32
 70
     1
102
RTVSPost2010Prop33
280
     0
102
RTVSPost2010PropOp33
 70
     1
102
RTVSPost2010Prop34
280
     0
102
RTVSPost2010PropOp34
 70
     1
102
RTVSPost2010Prop35
280
     0
102
RTVSPost2010PropOp35
 70
     1
102
RTVSPost2010Prop36
280
     0
102
RTVSPost2010PropOp36
 70
     1
102
RTVSPost2010Prop37
 90
       50
102
RTVSPost2010PropOp37
 70
     1
102
RTVSPost2010Prop38
140
0.0
102
RTVSPost2010PropOp38
 70
     1
102
RTVSPost2010Prop39
140
1.0
102
RTVSPost2010PropOp39
 70
     1
102
RTVSPost2010Prop40
 90
        0
102
RTVSPost2010PropOp40
 70
     1
102
RTVSPost2010Prop41ColorIndex
 90
       18
102
RTVSPost2010Prop41ColorRGB
 90
        0
102
RTVSPost2010PropOp41
 70
     1
102
RTVSPost2010Prop42
 90
       50
102
RTVSPost2010PropOp42
 70
     1
102
RTVSPost2010Prop43
 90
        3
102
RTVSPost2010PropOp43
 70
     1
102
RTVSPost2010Prop44ColorIndex
 90
        5
102
RTVSPost2010Prop44ColorRGB
 90
      255
102
RTVSPost2010PropOp44
 70
     1
102
RTVSPost2010Prop45
280
     0
102
RTVSPost2010PropOp45
 70
     1
102
RTVSPost2010Prop46
 90
       50
102
RTVSPost2010PropOp46
 70
     1
102
RTVSPost2010Prop47
 90
       50
102
RTVSPost2010PropOp47
 70
     1
102
RTVSPost2010Prop48
 90
       50
102
RTVSPost2010PropOp48
 70
     1
102
RTVSPost2010Prop49
280
     0
102
RTVSPost2010PropOp49
 70
     1
102
RTVSPost2010Prop50
 90
       50
102
RTVSPost2010PropOp50
 70
     1
102
RTVSPost2010Prop51ColorIndex
 90
      256
102
RTVSPost2010Prop51ColorRGB
 90
-16777216
102
RTVSPost2010PropOp51
 70
     0
102
RTVSPost2010Prop52
140
1.0
102
RTVSPost2010PropOp52
 70
     0
102
RTVSPost2010Prop53
 90
        2
102
RTVSPost2010PropOp53
 70
     1
102
RTVSPost2010Prop54
  1
strokes_ogs.tif
102
RTVSPost2010PropOp54
 70
     1
102
RTVSPost2010Prop55
280
     0
102
RTVSPost2010PropOp55
 70
     1
102
RTVSPost2010Prop56
140
1.0
102
RTVSPost2010PropOp56
 70
     1
102
RTVSPost2010Prop57
140
1.0
102
RTVSPost2010PropOp57
 70
     1
102
RTVSPropertyOp0
 70
     1
102
RTVSPropertyOp1
 70
     1
102
RTVSPropertyOp2
 70
     1
102
RTVSPropertyOp3
 70
     1
102
RTVSPropertyOp4
 70
     1
102
RTVSPropertyOp5
 70
     1
102
RTVSPropertyOp6
 70
     1
102
RTVSPropertyOp7
 70
     1
102
RTVSPropertyOp8
 70
     1
102
RTVSPropertyOp9
 70
     1
102
RTVSPropertyOp10
 70
     1
102
RTVSPropertyOp11
 70
     1
102
RTVSPropertyOp12
 70
     1
102
RTVSPropertyOp13
 70
     1
102
RTVSPropertyOp14
 70
     1
102
RTVSPropertyOp15
 70
     1
102
RTVSPropertyOp16
 70
     1
102
RTVSPropertyOp17
 70
     1
102
RTVSPropertyOp18
 70
     1
102
RTVSPropertyOp19
 70
     1
102
RTVSPropertyOp20
 70
     1
102
RTVSPropertyOp21
 70
     1
102
RTVSPropertyOp22
 70
     1
102
RTVSPropertyOp23
 70
     1
102
RTVSPropertyOp24
 70
     1
102
RTVSPropertyOp25
 70
     1
102
RTVSPropertyOp26
 70
     1
102
RTVSPropertyOp27
 70
     1
102
RTVSPropertyOp28
 70
     1
102
RTVSPropertyOp29
 70
     1
102
RTVSPropertyOp30
 70
     1
102
RTVSPropertyOp31
 70
     1
102
RTVSPropertyOp32
 70
     1
102
RTVSPropertyOp33
 70
     1
102
RTVSPropertyOp34
 70
     1
102
RTVSPropertyOp35
 70
     1
102
RTVSPropertyOp36
 70
     1
102
RTVSPropertyOp37
 70
     1
102
RTVSPropertyOp38
 70
     1
102
RTVSPropertyOp39
 70
     1
102
RTVSPropertyOp40
 70
     1
102
RTVSPropertyOp41
 70
     1
102
RTVSPropertyOp42
 70
     1
102
RTVSPropertyOp43
 70
     1
102
RTVSPropertyOp44
 70
     1
102
RTVSPropertyOp45
 70
     1
102
RTVSPropertyOp46
 70
     1
102
RTVSPropertyOp47
 70
     1
102
RTVSPropertyOp48
 70
     1
102
RTVSPropertyOp49
 70
     1
102
RTVSPropertyOp50
 70
     1
102
RTVSPropertyOp51
 70
     0
102
RTVSPropertyOp52
 70
     0
102
RTVSPropertyOp53
 70
     1
102
RTVSPropertyOp54
 70
     1
102
RTVSPropertyOp55
 70
     1
102
RTVSPropertyOp56
 70
     1
102
RTVSPropertyOp57
 70
     1
102
RTVSPropertyOp58
 70
     1
102
RTVSPropertyOp59
 70
     1
102
RTVSPropertyOp60
 70
     1
102
RTVSPropertyOp61
 70
     1
102
RTVSPropertyOp62
 70
     1
  0
XRECORD
  5
876C
102
{ACAD_REACTORS
330
876B
102
}
330
876B
100
AcDbXrecord
280
     1
102
RTVSPost2010Prop28
280
     0
102
RTVSPost2010PropOp28
 70
     1
102
RTVSPost2010Prop29
280
     1
102
RTVSPost2010PropOp29
 70
     1
102
RTVSPost2010Prop30
280
     1
102
RTVSPost2010PropOp30
 70
     1
102
RTVSPost2010Prop31
280
     0
102
RTVSPost2010PropOp31
 70
     1
102
RTVSPost2010Prop32
280
     0
102
RTVSPost2010PropOp32
 70
     1
102
RTVSPost2010Prop33
280
     0
102
RTVSPost2010PropOp33
 70
     1
102
RTVSPost2010Prop34
280
     0
102
RTVSPost2010PropOp34
 70
     1
102
RTVSPost2010Prop35
280
     0
102
RTVSPost2010PropOp35
 70
     1
102
RTVSPost2010Prop36
280
     0
102
RTVSPost2010PropOp36
 70
     1
102
RTVSPost2010Prop37
 90
       50
102
RTVSPost2010PropOp37
 70
     1
102
RTVSPost2010Prop38
140
0.0
102
RTVSPost2010PropOp38
 70
     1
102
RTVSPost2010Prop39
140
1.0
102
RTVSPost2010PropOp39
 70
     1
102
RTVSPost2010Prop40
 90
        0
102
RTVSPost2010PropOp40
 70
     1
102
RTVSPost2010Prop41ColorIndex
 90
       18
102
RTVSPost2010Prop41ColorRGB
 90
        0
102
RTVSPost2010PropOp41
 70
     1
102
RTVSPost2010Prop42
 90
       50
102
RTVSPost2010PropOp42
 70
     1
102
RTVSPost2010Prop43
 90
        3
102
RTVSPost2010PropOp43
 70
     1
102
RTVSPost2010Prop44ColorIndex
 90
        5
102
RTVSPost2010Prop44ColorRGB
 90
      255
102
RTVSPost2010PropOp44
 70
     1
102
RTVSPost2010Prop45
280
     0
102
RTVSPost2010PropOp45
 70
     1
102
RTVSPost2010Prop46
 90
       50
102
RTVSPost2010PropOp46
 70
     1
102
RTVSPost2010Prop47
 90
       50
102
RTVSPost2010PropOp47
 70
     1
102
RTVSPost2010Prop48
 90
       50
102
RTVSPost2010PropOp48
 70
     1
102
RTVSPost2010Prop49
280
     0
102
RTVSPost2010PropOp49
 70
     1
102
RTVSPost2010Prop50
 90
       50
102
RTVSPost2010PropOp50
 70
     1
102
RTVSPost2010Prop51ColorIndex
 90
      256
102
RTVSPost2010Prop51ColorRGB
 90
-16777216
102
RTVSPost2010PropOp51
 70
     0
102
RTVSPost2010Prop52
140
1.0
102
RTVSPost2010PropOp52
 70
     0
102
RTVSPost2010Prop53
 90
        2
102
RTVSPost2010PropOp53
 70
     1
102
RTVSPost2010Prop54
  1
strokes_ogs.tif
102
RTVSPost2010PropOp54
 70
     1
102
RTVSPost2010Prop55
280
     0
102
RTVSPost2010PropOp55
 70
     1
102
RTVSPost2010Prop56
140
1.0
102
RTVSPost2010PropOp56
 70
     1
102
RTVSPost2010Prop57
140
1.0
102
RTVSPost2010PropOp57
 70
     1
102
RTVSPropertyOp0
 70
     1
102
RTVSPropertyOp1
 70
     1
102
RTVSPropertyOp2
 70
     1
102
RTVSPropertyOp3
 70
     1
102
RTVSPropertyOp4
 70
     1
102
RTVSPropertyOp5
 70
     1
102
RTVSPropertyOp6
 70
     1
102
RTVSPropertyOp7
 70
     1
102
RTVSPropertyOp8
 70
     1
102
RTVSPropertyOp9
 70
     1
102
RTVSPropertyOp10
 70
     1
102
RTVSPropertyOp11
 70
     1
102
RTVSPropertyOp12
 70
     1
102
RTVSPropertyOp13
 70
     1
102
RTVSPropertyOp14
 70
     1
102
RTVSPropertyOp15
 70
     1
102
RTVSPropertyOp16
 70
     1
102
RTVSPropertyOp17
 70
     1
102
RTVSPropertyOp18
 70
     1
102
RTVSPropertyOp19
 70
     1
102
RTVSPropertyOp20
 70
     1
102
RTVSPropertyOp21
 70
     1
102
RTVSPropertyOp22
 70
     1
102
RTVSPropertyOp23
 70
     1
102
RTVSPropertyOp24
 70
     1
102
RTVSPropertyOp25
 70
     1
102
RTVSPropertyOp26
 70
     1
102
RTVSPropertyOp27
 70
     1
102
RTVSPropertyOp28
 70
     1
102
RTVSPropertyOp29
 70
     1
102
RTVSPropertyOp30
 70
     1
102
RTVSPropertyOp31
 70
     1
102
RTVSPropertyOp32
 70
     1
102
RTVSPropertyOp33
 70
     1
102
RTVSPropertyOp34
 70
     1
102
RTVSPropertyOp35
 70
     1
102
RTVSPropertyOp36
 70
     1
102
RTVSPropertyOp37
 70
     1
102
RTVSPropertyOp38
 70
     1
102
RTVSPropertyOp39
 70
     1
102
RTVSPropertyOp40
 70
     1
102
RTVSPropertyOp41
 70
     1
102
RTVSPropertyOp42
 70
     1
102
RTVSPropertyOp43
 70
     1
102
RTVSPropertyOp44
 70
     1
102
RTVSPropertyOp45
 70
     1
102
RTVSPropertyOp46
 70
     1
102
RTVSPropertyOp47
 70
     1
102
RTVSPropertyOp48
 70
     1
102
RTVSPropertyOp49
 70
     1
102
RTVSPropertyOp50
 70
     1
102
RTVSPropertyOp51
 70
     0
102
RTVSPropertyOp52
 70
     0
102
RTVSPropertyOp53
 70
     1
102
RTVSPropertyOp54
 70
     1
102
RTVSPropertyOp55
 70
     1
102
RTVSPropertyOp56
 70
     1
102
RTVSPropertyOp57
 70
     1
102
RTVSPropertyOp58
 70
     1
102
RTVSPropertyOp59
 70
     1
102
RTVSPropertyOp60
 70
     1
102
RTVSPropertyOp61
 70
     1
102
RTVSPropertyOp62
 70
     1
  0
XRECORD
  5
876A
102
{ACAD_REACTORS
330
8769
102
}
330
8769
100
AcDbXrecord
280
     1
102
RTVSPost2010Prop28
280
     0
102
RTVSPost2010PropOp28
 70
     1
102
RTVSPost2010Prop29
280
     1
102
RTVSPost2010PropOp29
 70
     1
102
RTVSPost2010Prop30
280
     1
102
RTVSPost2010PropOp30
 70
     1
102
RTVSPost2010Prop31
280
     0
102
RTVSPost2010PropOp31
 70
     1
102
RTVSPost2010Prop32
280
     0
102
RTVSPost2010PropOp32
 70
     1
102
RTVSPost2010Prop33
280
     0
102
RTVSPost2010PropOp33
 70
     1
102
RTVSPost2010Prop34
280
     0
102
RTVSPost2010PropOp34
 70
     1
102
RTVSPost2010Prop35
280
     0
102
RTVSPost2010PropOp35
 70
     1
102
RTVSPost2010Prop36
280
     0
102
RTVSPost2010PropOp36
 70
     1
102
RTVSPost2010Prop37
 90
       50
102
RTVSPost2010PropOp37
 70
     1
102
RTVSPost2010Prop38
140
0.0
102
RTVSPost2010PropOp38
 70
     1
102
RTVSPost2010Prop39
140
1.0
102
RTVSPost2010PropOp39
 70
     1
102
RTVSPost2010Prop40
 90
        0
102
RTVSPost2010PropOp40
 70
     1
102
RTVSPost2010Prop41ColorIndex
 90
       18
102
RTVSPost2010Prop41ColorRGB
 90
        0
102
RTVSPost2010PropOp41
 70
     1
102
RTVSPost2010Prop42
 90
       50
102
RTVSPost2010PropOp42
 70
     1
102
RTVSPost2010Prop43
 90
        3
102
RTVSPost2010PropOp43
 70
     1
102
RTVSPost2010Prop44ColorIndex
 90
        5
102
RTVSPost2010Prop44ColorRGB
 90
      255
102
RTVSPost2010PropOp44
 70
     1
102
RTVSPost2010Prop45
280
     0
102
RTVSPost2010PropOp45
 70
     1
102
RTVSPost2010Prop46
 90
       50
102
RTVSPost2010PropOp46
 70
     1
102
RTVSPost2010Prop47
 90
       50
102
RTVSPost2010PropOp47
 70
     1
102
RTVSPost2010Prop48
 90
       50
102
RTVSPost2010PropOp48
 70
     1
102
RTVSPost2010Prop49
280
     0
102
RTVSPost2010PropOp49
 70
     1
102
RTVSPost2010Prop50
 90
       50
102
RTVSPost2010PropOp50
 70
     1
102
RTVSPost2010Prop51ColorIndex
 90
      256
102
RTVSPost2010Prop51ColorRGB
 90
-16777216
102
RTVSPost2010PropOp51
 70
     0
102
RTVSPost2010Prop52
140
1.0
102
RTVSPost2010PropOp52
 70
     0
102
RTVSPost2010Prop53
 90
        2
102
RTVSPost2010PropOp53
 70
     1
102
RTVSPost2010Prop54
  1
strokes_ogs.tif
102
RTVSPost2010PropOp54
 70
     1
102
RTVSPost2010Prop55
280
     0
102
RTVSPost2010PropOp55
 70
     1
102
RTVSPost2010Prop56
140
1.0
102
RTVSPost2010PropOp56
 70
     1
102
RTVSPost2010Prop57
140
1.0
102
RTVSPost2010PropOp57
 70
     1
102
RTVSPropertyOp0
 70
     1
102
RTVSPropertyOp1
 70
     1
102
RTVSPropertyOp2
 70
     1
102
RTVSPropertyOp3
 70
     1
102
RTVSPropertyOp4
 70
     1
102
RTVSPropertyOp5
 70
     1
102
RTVSPropertyOp6
 70
     1
102
RTVSPropertyOp7
 70
     1
102
RTVSPropertyOp8
 70
     1
102
RTVSPropertyOp9
 70
     1
102
RTVSPropertyOp10
 70
     1
102
RTVSPropertyOp11
 70
     1
102
RTVSPropertyOp12
 70
     1
102
RTVSPropertyOp13
 70
     1
102
RTVSPropertyOp14
 70
     1
102
RTVSPropertyOp15
 70
     1
102
RTVSPropertyOp16
 70
     1
102
RTVSPropertyOp17
 70
     1
102
RTVSPropertyOp18
 70
     1
102
RTVSPropertyOp19
 70
     1
102
RTVSPropertyOp20
 70
     1
102
RTVSPropertyOp21
 70
     1
102
RTVSPropertyOp22
 70
     1
102
RTVSPropertyOp23
 70
     1
102
RTVSPropertyOp24
 70
     1
102
RTVSPropertyOp25
 70
     1
102
RTVSPropertyOp26
 70
     1
102
RTVSPropertyOp27
 70
     1
102
RTVSPropertyOp28
 70
     1
102
RTVSPropertyOp29
 70
     1
102
RTVSPropertyOp30
 70
     1
102
RTVSPropertyOp31
 70
     1
102
RTVSPropertyOp32
 70
     1
102
RTVSPropertyOp33
 70
     1
102
RTVSPropertyOp34
 70
     1
102
RTVSPropertyOp35
 70
     1
102
RTVSPropertyOp36
 70
     1
102
RTVSPropertyOp37
 70
     1
102
RTVSPropertyOp38
 70
     1
102
RTVSPropertyOp39
 70
     1
102
RTVSPropertyOp40
 70
     1
102
RTVSPropertyOp41
 70
     1
102
RTVSPropertyOp42
 70
     1
102
RTVSPropertyOp43
 70
     1
102
RTVSPropertyOp44
 70
     1
102
RTVSPropertyOp45
 70
     1
102
RTVSPropertyOp46
 70
     1
102
RTVSPropertyOp47
 70
     1
102
RTVSPropertyOp48
 70
     1
102
RTVSPropertyOp49
 70
     1
102
RTVSPropertyOp50
 70
     1
102
RTVSPropertyOp51
 70
     0
102
RTVSPropertyOp52
 70
     0
102
RTVSPropertyOp53
 70
     1
102
RTVSPropertyOp54
 70
     1
102
RTVSPropertyOp55
 70
     1
102
RTVSPropertyOp56
 70
     1
102
RTVSPropertyOp57
 70
     1
102
RTVSPropertyOp58
 70
     1
102
RTVSPropertyOp59
 70
     1
102
RTVSPropertyOp60
 70
     1
102
RTVSPropertyOp61
 70
     1
102
RTVSPropertyOp62
 70
     1
  0
XRECORD
  5
8764
102
{ACAD_REACTORS
330
8763
102
}
330
8763
100
AcDbXrecord
280
     1
102
RTVSPost2010Prop28
280
     0
102
RTVSPost2010PropOp28
 70
     1
102
RTVSPost2010Prop29
280
     1
102
RTVSPost2010PropOp29
 70
     1
102
RTVSPost2010Prop30
280
     1
102
RTVSPost2010PropOp30
 70
     1
102
RTVSPost2010Prop31
280
     0
102
RTVSPost2010PropOp31
 70
     1
102
RTVSPost2010Prop32
280
     0
102
RTVSPost2010PropOp32
 70
     1
102
RTVSPost2010Prop33
280
     0
102
RTVSPost2010PropOp33
 70
     1
102
RTVSPost2010Prop34
280
     0
102
RTVSPost2010PropOp34
 70
     1
102
RTVSPost2010Prop35
280
     0
102
RTVSPost2010PropOp35
 70
     1
102
RTVSPost2010Prop36
280
     0
102
RTVSPost2010PropOp36
 70
     1
102
RTVSPost2010Prop37
 90
       50
102
RTVSPost2010PropOp37
 70
     1
102
RTVSPost2010Prop38
140
0.0
102
RTVSPost2010PropOp38
 70
     1
102
RTVSPost2010Prop39
140
1.0
102
RTVSPost2010PropOp39
 70
     1
102
RTVSPost2010Prop40
 90
        0
102
RTVSPost2010PropOp40
 70
     1
102
RTVSPost2010Prop41ColorIndex
 90
       18
102
RTVSPost2010Prop41ColorRGB
 90
        0
102
RTVSPost2010PropOp41
 70
     1
102
RTVSPost2010Prop42
 90
       50
102
RTVSPost2010PropOp42
 70
     1
102
RTVSPost2010Prop43
 90
        3
102
RTVSPost2010PropOp43
 70
     1
102
RTVSPost2010Prop44ColorIndex
 90
        5
102
RTVSPost2010Prop44ColorRGB
 90
      255
102
RTVSPost2010PropOp44
 70
     1
102
RTVSPost2010Prop45
280
     0
102
RTVSPost2010PropOp45
 70
     1
102
RTVSPost2010Prop46
 90
       50
102
RTVSPost2010PropOp46
 70
     1
102
RTVSPost2010Prop47
 90
       50
102
RTVSPost2010PropOp47
 70
     1
102
RTVSPost2010Prop48
 90
       50
102
RTVSPost2010PropOp48
 70
     1
102
RTVSPost2010Prop49
280
     0
102
RTVSPost2010PropOp49
 70
     1
102
RTVSPost2010Prop50
 90
       50
102
RTVSPost2010PropOp50
 70
     1
102
RTVSPost2010Prop51ColorIndex
 90
      256
102
RTVSPost2010Prop51ColorRGB
 90
-16777216
102
RTVSPost2010PropOp51
 70
     0
102
RTVSPost2010Prop52
140
1.0
102
RTVSPost2010PropOp52
 70
     0
102
RTVSPost2010Prop53
 90
        2
102
RTVSPost2010PropOp53
 70
     1
102
RTVSPost2010Prop54
  1
strokes_ogs.tif
102
RTVSPost2010PropOp54
 70
     1
102
RTVSPost2010Prop55
280
     0
102
RTVSPost2010PropOp55
 70
     1
102
RTVSPost2010Prop56
140
1.0
102
RTVSPost2010PropOp56
 70
     1
102
RTVSPost2010Prop57
140
1.0
102
RTVSPost2010PropOp57
 70
     1
102
RTVSPropertyOp0
 70
     1
102
RTVSPropertyOp1
 70
     1
102
RTVSPropertyOp2
 70
     1
102
RTVSPropertyOp3
 70
     1
102
RTVSPropertyOp4
 70
     1
102
RTVSPropertyOp5
 70
     1
102
RTVSPropertyOp6
 70
     1
102
RTVSPropertyOp7
 70
     1
102
RTVSPropertyOp8
 70
     1
102
RTVSPropertyOp9
 70
     1
102
RTVSPropertyOp10
 70
     1
102
RTVSPropertyOp11
 70
     1
102
RTVSPropertyOp12
 70
     1
102
RTVSPropertyOp13
 70
     1
102
RTVSPropertyOp14
 70
     1
102
RTVSPropertyOp15
 70
     1
102
RTVSPropertyOp16
 70
     1
102
RTVSPropertyOp17
 70
     1
102
RTVSPropertyOp18
 70
     1
102
RTVSPropertyOp19
 70
     1
102
RTVSPropertyOp20
 70
     1
102
RTVSPropertyOp21
 70
     1
102
RTVSPropertyOp22
 70
     1
102
RTVSPropertyOp23
 70
     1
102
RTVSPropertyOp24
 70
     1
102
RTVSPropertyOp25
 70
     1
102
RTVSPropertyOp26
 70
     1
102
RTVSPropertyOp27
 70
     1
102
RTVSPropertyOp28
 70
     1
102
RTVSPropertyOp29
 70
     1
102
RTVSPropertyOp30
 70
     1
102
RTVSPropertyOp31
 70
     1
102
RTVSPropertyOp32
 70
     1
102
RTVSPropertyOp33
 70
     1
102
RTVSPropertyOp34
 70
     1
102
RTVSPropertyOp35
 70
     1
102
RTVSPropertyOp36
 70
     1
102
RTVSPropertyOp37
 70
     1
102
RTVSPropertyOp38
 70
     1
102
RTVSPropertyOp39
 70
     1
102
RTVSPropertyOp40
 70
     1
102
RTVSPropertyOp41
 70
     1
102
RTVSPropertyOp42
 70
     1
102
RTVSPropertyOp43
 70
     1
102
RTVSPropertyOp44
 70
     1
102
RTVSPropertyOp45
 70
     1
102
RTVSPropertyOp46
 70
     1
102
RTVSPropertyOp47
 70
     1
102
RTVSPropertyOp48
 70
     1
102
RTVSPropertyOp49
 70
     1
102
RTVSPropertyOp50
 70
     1
102
RTVSPropertyOp51
 70
     0
102
RTVSPropertyOp52
 70
     0
102
RTVSPropertyOp53
 70
     1
102
RTVSPropertyOp54
 70
     1
102
RTVSPropertyOp55
 70
     1
102
RTVSPropertyOp56
 70
     1
102
RTVSPropertyOp57
 70
     1
102
RTVSPropertyOp58
 70
     1
102
RTVSPropertyOp59
 70
     1
102
RTVSPropertyOp60
 70
     1
102
RTVSPropertyOp61
 70
     1
102
RTVSPropertyOp62
 70
     1
  0
XRECORD
  5
8766
102
{ACAD_REACTORS
330
8765
102
}
330
8765
100
AcDbXrecord
280
     1
102
RTVSPost2010Prop28
280
     0
102
RTVSPost2010PropOp28
 70
     1
102
RTVSPost2010Prop29
280
     1
102
RTVSPost2010PropOp29
 70
     1
102
RTVSPost2010Prop30
280
     1
102
RTVSPost2010PropOp30
 70
     1
102
RTVSPost2010Prop31
280
     0
102
RTVSPost2010PropOp31
 70
     1
102
RTVSPost2010Prop32
280
     0
102
RTVSPost2010PropOp32
 70
     1
102
RTVSPost2010Prop33
280
     0
102
RTVSPost2010PropOp33
 70
     1
102
RTVSPost2010Prop34
280
     0
102
RTVSPost2010PropOp34
 70
     1
102
RTVSPost2010Prop35
280
     0
102
RTVSPost2010PropOp35
 70
     1
102
RTVSPost2010Prop36
280
     0
102
RTVSPost2010PropOp36
 70
     1
102
RTVSPost2010Prop37
 90
       50
102
RTVSPost2010PropOp37
 70
     1
102
RTVSPost2010Prop38
140
0.0
102
RTVSPost2010PropOp38
 70
     1
102
RTVSPost2010Prop39
140
1.0
102
RTVSPost2010PropOp39
 70
     1
102
RTVSPost2010Prop40
 90
        0
102
RTVSPost2010PropOp40
 70
     1
102
RTVSPost2010Prop41ColorIndex
 90
       18
102
RTVSPost2010Prop41ColorRGB
 90
        0
102
RTVSPost2010PropOp41
 70
     1
102
RTVSPost2010Prop42
 90
       50
102
RTVSPost2010PropOp42
 70
     1
102
RTVSPost2010Prop43
 90
        3
102
RTVSPost2010PropOp43
 70
     1
102
RTVSPost2010Prop44ColorIndex
 90
        5
102
RTVSPost2010Prop44ColorRGB
 90
      255
102
RTVSPost2010PropOp44
 70
     1
102
RTVSPost2010Prop45
280
     0
102
RTVSPost2010PropOp45
 70
     1
102
RTVSPost2010Prop46
 90
       50
102
RTVSPost2010PropOp46
 70
     1
102
RTVSPost2010Prop47
 90
       50
102
RTVSPost2010PropOp47
 70
     1
102
RTVSPost2010Prop48
 90
       50
102
RTVSPost2010PropOp48
 70
     1
102
RTVSPost2010Prop49
280
     0
102
RTVSPost2010PropOp49
 70
     1
102
RTVSPost2010Prop50
 90
       50
102
RTVSPost2010PropOp50
 70
     1
102
RTVSPost2010Prop51ColorIndex
 90
      256
102
RTVSPost2010Prop51ColorRGB
 90
-16777216
102
RTVSPost2010PropOp51
 70
     0
102
RTVSPost2010Prop52
140
1.0
102
RTVSPost2010PropOp52
 70
     0
102
RTVSPost2010Prop53
 90
        2
102
RTVSPost2010PropOp53
 70
     1
102
RTVSPost2010Prop54
  1
strokes_ogs.tif
102
RTVSPost2010PropOp54
 70
     1
102
RTVSPost2010Prop55
280
     0
102
RTVSPost2010PropOp55
 70
     1
102
RTVSPost2010Prop56
140
1.0
102
RTVSPost2010PropOp56
 70
     1
102
RTVSPost2010Prop57
140
1.0
102
RTVSPost2010PropOp57
 70
     1
102
RTVSPropertyOp0
 70
     1
102
RTVSPropertyOp1
 70
     1
102
RTVSPropertyOp2
 70
     1
102
RTVSPropertyOp3
 70
     1
102
RTVSPropertyOp4
 70
     1
102
RTVSPropertyOp5
 70
     1
102
RTVSPropertyOp6
 70
     1
102
RTVSPropertyOp7
 70
     1
102
RTVSPropertyOp8
 70
     1
102
RTVSPropertyOp9
 70
     1
102
RTVSPropertyOp10
 70
     1
102
RTVSPropertyOp11
 70
     1
102
RTVSPropertyOp12
 70
     1
102
RTVSPropertyOp13
 70
     1
102
RTVSPropertyOp14
 70
     1
102
RTVSPropertyOp15
 70
     1
102
RTVSPropertyOp16
 70
     1
102
RTVSPropertyOp17
 70
     1
102
RTVSPropertyOp18
 70
     1
102
RTVSPropertyOp19
 70
     1
102
RTVSPropertyOp20
 70
     1
102
RTVSPropertyOp21
 70
     1
102
RTVSPropertyOp22
 70
     1
102
RTVSPropertyOp23
 70
     1
102
RTVSPropertyOp24
 70
     1
102
RTVSPropertyOp25
 70
     1
102
RTVSPropertyOp26
 70
     1
102
RTVSPropertyOp27
 70
     1
102
RTVSPropertyOp28
 70
     1
102
RTVSPropertyOp29
 70
     1
102
RTVSPropertyOp30
 70
     1
102
RTVSPropertyOp31
 70
     1
102
RTVSPropertyOp32
 70
     1
102
RTVSPropertyOp33
 70
     1
102
RTVSPropertyOp34
 70
     1
102
RTVSPropertyOp35
 70
     1
102
RTVSPropertyOp36
 70
     1
102
RTVSPropertyOp37
 70
     1
102
RTVSPropertyOp38
 70
     1
102
RTVSPropertyOp39
 70
     1
102
RTVSPropertyOp40
 70
     1
102
RTVSPropertyOp41
 70
     1
102
RTVSPropertyOp42
 70
     1
102
RTVSPropertyOp43
 70
     1
102
RTVSPropertyOp44
 70
     1
102
RTVSPropertyOp45
 70
     1
102
RTVSPropertyOp46
 70
     1
102
RTVSPropertyOp47
 70
     1
102
RTVSPropertyOp48
 70
     1
102
RTVSPropertyOp49
 70
     1
102
RTVSPropertyOp50
 70
     1
102
RTVSPropertyOp51
 70
     0
102
RTVSPropertyOp52
 70
     0
102
RTVSPropertyOp53
 70
     1
102
RTVSPropertyOp54
 70
     1
102
RTVSPropertyOp55
 70
     1
102
RTVSPropertyOp56
 70
     1
102
RTVSPropertyOp57
 70
     1
102
RTVSPropertyOp58
 70
     1
102
RTVSPropertyOp59
 70
     1
102
RTVSPropertyOp60
 70
     1
102
RTVSPropertyOp61
 70
     1
102
RTVSPropertyOp62
 70
     1
  0
XRECORD
  5
875C
102
{ACAD_REACTORS
330
875B
102
}
330
875B
100
AcDbXrecord
280
     1
102
RTVSPost2010Prop28
280
     0
102
RTVSPost2010PropOp28
 70
     1
102
RTVSPost2010Prop29
280
     1
102
RTVSPost2010PropOp29
 70
     1
102
RTVSPost2010Prop30
280
     1
102
RTVSPost2010PropOp30
 70
     1
102
RTVSPost2010Prop31
280
     0
102
RTVSPost2010PropOp31
 70
     1
102
RTVSPost2010Prop32
280
     0
102
RTVSPost2010PropOp32
 70
     1
102
RTVSPost2010Prop33
280
     0
102
RTVSPost2010PropOp33
 70
     1
102
RTVSPost2010Prop34
280
     0
102
RTVSPost2010PropOp34
 70
     1
102
RTVSPost2010Prop35
280
     0
102
RTVSPost2010PropOp35
 70
     1
102
RTVSPost2010Prop36
280
     0
102
RTVSPost2010PropOp36
 70
     1
102
RTVSPost2010Prop37
 90
       50
102
RTVSPost2010PropOp37
 70
     1
102
RTVSPost2010Prop38
140
0.0
102
RTVSPost2010PropOp38
 70
     1
102
RTVSPost2010Prop39
140
1.0
102
RTVSPost2010PropOp39
 70
     1
102
RTVSPost2010Prop40
 90
        0
102
RTVSPost2010PropOp40
 70
     1
102
RTVSPost2010Prop41ColorIndex
 90
       18
102
RTVSPost2010Prop41ColorRGB
 90
        0
102
RTVSPost2010PropOp41
 70
     1
102
RTVSPost2010Prop42
 90
       50
102
RTVSPost2010PropOp42
 70
     1
102
RTVSPost2010Prop43
 90
        3
102
RTVSPost2010PropOp43
 70
     1
102
RTVSPost2010Prop44ColorIndex
 90
        5
102
RTVSPost2010Prop44ColorRGB
 90
      255
102
RTVSPost2010PropOp44
 70
     1
102
RTVSPost2010Prop45
280
     0
102
RTVSPost2010PropOp45
 70
     1
102
RTVSPost2010Prop46
 90
       50
102
RTVSPost2010PropOp46
 70
     1
102
RTVSPost2010Prop47
 90
       50
102
RTVSPost2010PropOp47
 70
     1
102
RTVSPost2010Prop48
 90
       50
102
RTVSPost2010PropOp48
 70
     1
102
RTVSPost2010Prop49
280
     0
102
RTVSPost2010PropOp49
 70
     1
102
RTVSPost2010Prop50
 90
       50
102
RTVSPost2010PropOp50
 70
     1
102
RTVSPost2010Prop51ColorIndex
 90
      256
102
RTVSPost2010Prop51ColorRGB
 90
-16777216
102
RTVSPost2010PropOp51
 70
     0
102
RTVSPost2010Prop52
140
1.0
102
RTVSPost2010PropOp52
 70
     0
102
RTVSPost2010Prop53
 90
        2
102
RTVSPost2010PropOp53
 70
     1
102
RTVSPost2010Prop54
  1
strokes_ogs.tif
102
RTVSPost2010PropOp54
 70
     1
102
RTVSPost2010Prop55
280
     0
102
RTVSPost2010PropOp55
 70
     1
102
RTVSPost2010Prop56
140
1.0
102
RTVSPost2010PropOp56
 70
     1
102
RTVSPost2010Prop57
140
1.0
102
RTVSPost2010PropOp57
 70
     1
102
RTVSPropertyOp0
 70
     1
102
RTVSPropertyOp1
 70
     1
102
RTVSPropertyOp2
 70
     1
102
RTVSPropertyOp3
 70
     1
102
RTVSPropertyOp4
 70
     1
102
RTVSPropertyOp5
 70
     1
102
RTVSPropertyOp6
 70
     1
102
RTVSPropertyOp7
 70
     1
102
RTVSPropertyOp8
 70
     1
102
RTVSPropertyOp9
 70
     1
102
RTVSPropertyOp10
 70
     1
102
RTVSPropertyOp11
 70
     1
102
RTVSPropertyOp12
 70
     1
102
RTVSPropertyOp13
 70
     1
102
RTVSPropertyOp14
 70
     1
102
RTVSPropertyOp15
 70
     1
102
RTVSPropertyOp16
 70
     1
102
RTVSPropertyOp17
 70
     1
102
RTVSPropertyOp18
 70
     1
102
RTVSPropertyOp19
 70
     1
102
RTVSPropertyOp20
 70
     1
102
RTVSPropertyOp21
 70
     1
102
RTVSPropertyOp22
 70
     1
102
RTVSPropertyOp23
 70
     1
102
RTVSPropertyOp24
 70
     1
102
RTVSPropertyOp25
 70
     1
102
RTVSPropertyOp26
 70
     1
102
RTVSPropertyOp27
 70
     1
102
RTVSPropertyOp28
 70
     1
102
RTVSPropertyOp29
 70
     1
102
RTVSPropertyOp30
 70
     1
102
RTVSPropertyOp31
 70
     1
102
RTVSPropertyOp32
 70
     1
102
RTVSPropertyOp33
 70
     1
102
RTVSPropertyOp34
 70
     1
102
RTVSPropertyOp35
 70
     1
102
RTVSPropertyOp36
 70
     1
102
RTVSPropertyOp37
 70
     1
102
RTVSPropertyOp38
 70
     1
102
RTVSPropertyOp39
 70
     1
102
RTVSPropertyOp40
 70
     1
102
RTVSPropertyOp41
 70
     1
102
RTVSPropertyOp42
 70
     1
102
RTVSPropertyOp43
 70
     1
102
RTVSPropertyOp44
 70
     1
102
RTVSPropertyOp45
 70
     1
102
RTVSPropertyOp46
 70
     1
102
RTVSPropertyOp47
 70
     1
102
RTVSPropertyOp48
 70
     1
102
RTVSPropertyOp49
 70
     1
102
RTVSPropertyOp50
 70
     1
102
RTVSPropertyOp51
 70
     0
102
RTVSPropertyOp52
 70
     0
102
RTVSPropertyOp53
 70
     1
102
RTVSPropertyOp54
 70
     1
102
RTVSPropertyOp55
 70
     1
102
RTVSPropertyOp56
 70
     1
102
RTVSPropertyOp57
 70
     1
102
RTVSPropertyOp58
 70
     1
102
RTVSPropertyOp59
 70
     1
102
RTVSPropertyOp60
 70
     1
102
RTVSPropertyOp61
 70
     1
102
RTVSPropertyOp62
 70
     1
  0
XRECORD
  5
8750
102
{ACAD_REACTORS
330
874F
102
}
330
874F
100
AcDbXrecord
280
     1
102
RTVSPost2010Prop28
280
     0
102
RTVSPost2010PropOp28
 70
     1
102
RTVSPost2010Prop29
280
     1
102
RTVSPost2010PropOp29
 70
     1
102
RTVSPost2010Prop30
280
     1
102
RTVSPost2010PropOp30
 70
     1
102
RTVSPost2010Prop31
280
     0
102
RTVSPost2010PropOp31
 70
     1
102
RTVSPost2010Prop32
280
     0
102
RTVSPost2010PropOp32
 70
     1
102
RTVSPost2010Prop33
280
     0
102
RTVSPost2010PropOp33
 70
     1
102
RTVSPost2010Prop34
280
     0
102
RTVSPost2010PropOp34
 70
     1
102
RTVSPost2010Prop35
280
     0
102
RTVSPost2010PropOp35
 70
     1
102
RTVSPost2010Prop36
280
     0
102
RTVSPost2010PropOp36
 70
     1
102
RTVSPost2010Prop37
 90
       50
102
RTVSPost2010PropOp37
 70
     1
102
RTVSPost2010Prop38
140
0.0
102
RTVSPost2010PropOp38
 70
     1
102
RTVSPost2010Prop39
140
1.0
102
RTVSPost2010PropOp39
 70
     1
102
RTVSPost2010Prop40
 90
        0
102
RTVSPost2010PropOp40
 70
     1
102
RTVSPost2010Prop41ColorIndex
 90
       18
102
RTVSPost2010Prop41ColorRGB
 90
        0
102
RTVSPost2010PropOp41
 70
     1
102
RTVSPost2010Prop42
 90
       50
102
RTVSPost2010PropOp42
 70
     1
102
RTVSPost2010Prop43
 90
        3
102
RTVSPost2010PropOp43
 70
     1
102
RTVSPost2010Prop44ColorIndex
 90
        5
102
RTVSPost2010Prop44ColorRGB
 90
      255
102
RTVSPost2010PropOp44
 70
     1
102
RTVSPost2010Prop45
280
     0
102
RTVSPost2010PropOp45
 70
     1
102
RTVSPost2010Prop46
 90
       50
102
RTVSPost2010PropOp46
 70
     1
102
RTVSPost2010Prop47
 90
       50
102
RTVSPost2010PropOp47
 70
     1
102
RTVSPost2010Prop48
 90
       50
102
RTVSPost2010PropOp48
 70
     1
102
RTVSPost2010Prop49
280
     0
102
RTVSPost2010PropOp49
 70
     1
102
RTVSPost2010Prop50
 90
       50
102
RTVSPost2010PropOp50
 70
     1
102
RTVSPost2010Prop51ColorIndex
 90
      256
102
RTVSPost2010Prop51ColorRGB
 90
-16777216
102
RTVSPost2010PropOp51
 70
     0
102
RTVSPost2010Prop52
140
1.0
102
RTVSPost2010PropOp52
 70
     0
102
RTVSPost2010Prop53
 90
        2
102
RTVSPost2010PropOp53
 70
     1
102
RTVSPost2010Prop54
  1
strokes_ogs.tif
102
RTVSPost2010PropOp54
 70
     1
102
RTVSPost2010Prop55
280
     0
102
RTVSPost2010PropOp55
 70
     1
102
RTVSPost2010Prop56
140
1.0
102
RTVSPost2010PropOp56
 70
     1
102
RTVSPost2010Prop57
140
1.0
102
RTVSPost2010PropOp57
 70
     1
102
RTVSPropertyOp0
 70
     1
102
RTVSPropertyOp1
 70
     1
102
RTVSPropertyOp2
 70
     1
102
RTVSPropertyOp3
 70
     1
102
RTVSPropertyOp4
 70
     1
102
RTVSPropertyOp5
 70
     1
102
RTVSPropertyOp6
 70
     1
102
RTVSPropertyOp7
 70
     1
102
RTVSPropertyOp8
 70
     1
102
RTVSPropertyOp9
 70
     1
102
RTVSPropertyOp10
 70
     1
102
RTVSPropertyOp11
 70
     1
102
RTVSPropertyOp12
 70
     1
102
RTVSPropertyOp13
 70
     1
102
RTVSPropertyOp14
 70
     1
102
RTVSPropertyOp15
 70
     1
102
RTVSPropertyOp16
 70
     1
102
RTVSPropertyOp17
 70
     1
102
RTVSPropertyOp18
 70
     1
102
RTVSPropertyOp19
 70
     1
102
RTVSPropertyOp20
 70
     1
102
RTVSPropertyOp21
 70
     1
102
RTVSPropertyOp22
 70
     1
102
RTVSPropertyOp23
 70
     1
102
RTVSPropertyOp24
 70
     1
102
RTVSPropertyOp25
 70
     1
102
RTVSPropertyOp26
 70
     1
102
RTVSPropertyOp27
 70
     1
102
RTVSPropertyOp28
 70
     1
102
RTVSPropertyOp29
 70
     1
102
RTVSPropertyOp30
 70
     1
102
RTVSPropertyOp31
 70
     1
102
RTVSPropertyOp32
 70
     1
102
RTVSPropertyOp33
 70
     1
102
RTVSPropertyOp34
 70
     1
102
RTVSPropertyOp35
 70
     1
102
RTVSPropertyOp36
 70
     1
102
RTVSPropertyOp37
 70
     1
102
RTVSPropertyOp38
 70
     1
102
RTVSPropertyOp39
 70
     1
102
RTVSPropertyOp40
 70
     1
102
RTVSPropertyOp41
 70
     1
102
RTVSPropertyOp42
 70
     1
102
RTVSPropertyOp43
 70
     1
102
RTVSPropertyOp44
 70
     1
102
RTVSPropertyOp45
 70
     1
102
RTVSPropertyOp46
 70
     1
102
RTVSPropertyOp47
 70
     1
102
RTVSPropertyOp48
 70
     1
102
RTVSPropertyOp49
 70
     1
102
RTVSPropertyOp50
 70
     1
102
RTVSPropertyOp51
 70
     0
102
RTVSPropertyOp52
 70
     0
102
RTVSPropertyOp53
 70
     1
102
RTVSPropertyOp54
 70
     1
102
RTVSPropertyOp55
 70
     1
102
RTVSPropertyOp56
 70
     1
102
RTVSPropertyOp57
 70
     1
102
RTVSPropertyOp58
 70
     1
102
RTVSPropertyOp59
 70
     1
102
RTVSPropertyOp60
 70
     1
102
RTVSPropertyOp61
 70
     1
102
RTVSPropertyOp62
 70
     1
  0
XRECORD
  5
8768
102
{ACAD_REACTORS
330
8767
102
}
330
8767
100
AcDbXrecord
280
     1
102
RTVSPost2010Prop28
280
     0
102
RTVSPost2010PropOp28
 70
     1
102
RTVSPost2010Prop29
280
     1
102
RTVSPost2010PropOp29
 70
     1
102
RTVSPost2010Prop30
280
     1
102
RTVSPost2010PropOp30
 70
     1
102
RTVSPost2010Prop31
280
     0
102
RTVSPost2010PropOp31
 70
     1
102
RTVSPost2010Prop32
280
     0
102
RTVSPost2010PropOp32
 70
     1
102
RTVSPost2010Prop33
280
     0
102
RTVSPost2010PropOp33
 70
     1
102
RTVSPost2010Prop34
280
     0
102
RTVSPost2010PropOp34
 70
     1
102
RTVSPost2010Prop35
280
     0
102
RTVSPost2010PropOp35
 70
     1
102
RTVSPost2010Prop36
280
     0
102
RTVSPost2010PropOp36
 70
     1
102
RTVSPost2010Prop37
 90
       50
102
RTVSPost2010PropOp37
 70
     1
102
RTVSPost2010Prop38
140
0.0
102
RTVSPost2010PropOp38
 70
     1
102
RTVSPost2010Prop39
140
1.0
102
RTVSPost2010PropOp39
 70
     1
102
RTVSPost2010Prop40
 90
        0
102
RTVSPost2010PropOp40
 70
     1
102
RTVSPost2010Prop41ColorIndex
 90
       18
102
RTVSPost2010Prop41ColorRGB
 90
        0
102
RTVSPost2010PropOp41
 70
     1
102
RTVSPost2010Prop42
 90
       50
102
RTVSPost2010PropOp42
 70
     1
102
RTVSPost2010Prop43
 90
        3
102
RTVSPost2010PropOp43
 70
     1
102
RTVSPost2010Prop44ColorIndex
 90
        5
102
RTVSPost2010Prop44ColorRGB
 90
      255
102
RTVSPost2010PropOp44
 70
     1
102
RTVSPost2010Prop45
280
     0
102
RTVSPost2010PropOp45
 70
     1
102
RTVSPost2010Prop46
 90
       50
102
RTVSPost2010PropOp46
 70
     1
102
RTVSPost2010Prop47
 90
       50
102
RTVSPost2010PropOp47
 70
     1
102
RTVSPost2010Prop48
 90
       50
102
RTVSPost2010PropOp48
 70
     1
102
RTVSPost2010Prop49
280
     0
102
RTVSPost2010PropOp49
 70
     1
102
RTVSPost2010Prop50
 90
       50
102
RTVSPost2010PropOp50
 70
     1
102
RTVSPost2010Prop51ColorIndex
 90
      256
102
RTVSPost2010Prop51ColorRGB
 90
-16777216
102
RTVSPost2010PropOp51
 70
     0
102
RTVSPost2010Prop52
140
1.0
102
RTVSPost2010PropOp52
 70
     0
102
RTVSPost2010Prop53
 90
        2
102
RTVSPost2010PropOp53
 70
     1
102
RTVSPost2010Prop54
  1
strokes_ogs.tif
102
RTVSPost2010PropOp54
 70
     1
102
RTVSPost2010Prop55
280
     0
102
RTVSPost2010PropOp55
 70
     1
102
RTVSPost2010Prop56
140
1.0
102
RTVSPost2010PropOp56
 70
     1
102
RTVSPost2010Prop57
140
1.0
102
RTVSPost2010PropOp57
 70
     1
102
RTVSPropertyOp0
 70
     1
102
RTVSPropertyOp1
 70
     1
102
RTVSPropertyOp2
 70
     1
102
RTVSPropertyOp3
 70
     1
102
RTVSPropertyOp4
 70
     1
102
RTVSPropertyOp5
 70
     1
102
RTVSPropertyOp6
 70
     1
102
RTVSPropertyOp7
 70
     1
102
RTVSPropertyOp8
 70
     1
102
RTVSPropertyOp9
 70
     1
102
RTVSPropertyOp10
 70
     1
102
RTVSPropertyOp11
 70
     1
102
RTVSPropertyOp12
 70
     1
102
RTVSPropertyOp13
 70
     1
102
RTVSPropertyOp14
 70
     1
102
RTVSPropertyOp15
 70
     1
102
RTVSPropertyOp16
 70
     1
102
RTVSPropertyOp17
 70
     1
102
RTVSPropertyOp18
 70
     1
102
RTVSPropertyOp19
 70
     1
102
RTVSPropertyOp20
 70
     1
102
RTVSPropertyOp21
 70
     1
102
RTVSPropertyOp22
 70
     1
102
RTVSPropertyOp23
 70
     1
102
RTVSPropertyOp24
 70
     1
102
RTVSPropertyOp25
 70
     1
102
RTVSPropertyOp26
 70
     1
102
RTVSPropertyOp27
 70
     1
102
RTVSPropertyOp28
 70
     1
102
RTVSPropertyOp29
 70
     1
102
RTVSPropertyOp30
 70
     1
102
RTVSPropertyOp31
 70
     1
102
RTVSPropertyOp32
 70
     1
102
RTVSPropertyOp33
 70
     1
102
RTVSPropertyOp34
 70
     1
102
RTVSPropertyOp35
 70
     1
102
RTVSPropertyOp36
 70
     1
102
RTVSPropertyOp37
 70
     1
102
RTVSPropertyOp38
 70
     1
102
RTVSPropertyOp39
 70
     1
102
RTVSPropertyOp40
 70
     1
102
RTVSPropertyOp41
 70
     1
102
RTVSPropertyOp42
 70
     1
102
RTVSPropertyOp43
 70
     1
102
RTVSPropertyOp44
 70
     1
102
RTVSPropertyOp45
 70
     1
102
RTVSPropertyOp46
 70
     1
102
RTVSPropertyOp47
 70
     1
102
RTVSPropertyOp48
 70
     1
102
RTVSPropertyOp49
 70
     1
102
RTVSPropertyOp50
 70
     1
102
RTVSPropertyOp51
 70
     0
102
RTVSPropertyOp52
 70
     0
102
RTVSPropertyOp53
 70
     1
102
RTVSPropertyOp54
 70
     1
102
RTVSPropertyOp55
 70
     1
102
RTVSPropertyOp56
 70
     1
102
RTVSPropertyOp57
 70
     1
102
RTVSPropertyOp58
 70
     1
102
RTVSPropertyOp59
 70
     1
102
RTVSPropertyOp60
 70
     1
102
RTVSPropertyOp61
 70
     1
102
RTVSPropertyOp62
 70
     1
  0
ENDSEC
  0
EOF
