  0
SECTION
  2
HEADER
  9
$ACADVER
  1
AC1015
  9
$ACADMAINTVER
 70
    20
  9
$DWGCODEPAGE
  3
ANSI_932
  9
$INSBASE
 10
0.0
 20
0.0
 30
0.0
  9
$EXTMIN
 10
-0.2563280987742473
 20
-0.3600799482810544
 30
-0.0015258207003583
  9
$EXTMAX
 10
8400.256367214323
 20
11800.3601348963
 30
0.0000000349246037
  9
$LIMMIN
 10
0.0
 20
0.0
  9
$LIMMAX
 10
297.0
 20
210.0
  9
$ORTHOMODE
 70
     1
  9
$REGENMODE
 70
     1
  9
$FILLMODE
 70
     0
  9
$QTEXTMODE
 70
     0
  9
$MIRRTEXT
 70
     1
  9
$LTSCALE
 40
100.0
  9
$ATTMODE
 70
     1
  9
$TEXTSIZE
 40
180.0
  9
$TRACEWID
 40
0.05
  9
$TEXTSTYLE
  7
STANDARD
  9
$CLAYER
  8
3
  9
$CELTYPE
  6
ByLayer
  9
$CECOLOR
 62
   256
  9
$CELTSCALE
 40
1.0
  9
$DISPSILH
 70
     0
  9
$DIMSCALE
 40
40.0
  9
$DIMASZ
 40
2.0
  9
$DIMEXO
 40
0.5
  9
$DIMDLI
 40
10.0
  9
$DIMRND
 40
0.0
  9
$DIMDLE
 40
0.0
  9
$DIMEXE
 40
1.0
  9
$DIMTP
 40
1.0
  9
$DIMTM
 40
1.0
  9
$DIMTXT
 40
3.0
  9
$DIMCEN
 40
0.0
  9
$DIMTSZ
 40
0.0
  9
$DIMTOL
 70
     0
  9
$DIMLIM
 70
     0
  9
$DIMTIH
 70
     0
  9
$DIMTOH
 70
     0
  9
$DIMSE1
 70
     0
  9
$DIMSE2
 70
     0
  9
$DIMTAD
 70
     1
  9
$DIMZIN
 70
     8
  9
$DIMBLK
  1

  9
$DIMASO
 70
     1
  9
$DIMSHO
 70
     1
  9
$DIMPOST
  1

  9
$DIMAPOST
  1

  9
$DIMALT
 70
     0
  9
$DIMALTD
 70
     2
  9
$DIMALTF
 40
0.039
  9
$DIMLFAC
 40
1.0
  9
$DIMTOFL
 70
     1
  9
$DIMTVP
 40
0.0
  9
$DIMTIX
 70
     0
  9
$DIMSOXD
 70
     0
  9
$DIMSAH
 70
     1
  9
$DIMBLK1
  1
OPEN
  9
$DIMBLK2
  1
OPEN
  9
$DIMSTYLE
  2
IGA
  9
$DIMCLRD
 70
     0
  9
$DIMCLRE
 70
     0
  9
$DIMCLRT
 70
     0
  9
$DIMTFAC
 40
10.0
  9
$DIMGAP
 40
1.0
  9
$DIMJUST
 70
     0
  9
$DIMSD1
 70
     0
  9
$DIMSD2
 70
     0
  9
$DIMTOLJ
 70
     1
  9
$DIMTZIN
 70
     0
  9
$DIMALTZ
 70
     0
  9
$DIMALTTZ
 70
     0
  9
$DIMUPT
 70
     0
  9
$DIMDEC
 70
     4
  9
$DIMTDEC
 70
     4
  9
$DIMALTU
 70
     2
  9
$DIMALTTD
 70
     2
  9
$DIMTXSTY
  7
STANDARD
  9
$DIMAUNIT
 70
     0
  9
$DIMADEC
 70
     0
  9
$DIMALTRND
 40
0.0
  9
$DIMAZIN
 70
     0
  9
$DIMDSEP
 70
    46
  9
$DIMATFIT
 70
     3
  9
$DIMFRAC
 70
     0
  9
$DIMLDRBLK
  1
OPEN
  9
$DIMLUNIT
 70
     2
  9
$DIMLWD
 70
    -2
  9
$DIMLWE
 70
    -2
  9
$DIMTMOVE
 70
     0
  9
$LUNITS
 70
     2
  9
$LUPREC
 70
     3
  9
$SKETCHINC
 40
0.1
  9
$FILLETRAD
 40
50.0
  9
$AUNITS
 70
     0
  9
$AUPREC
 70
     0
  9
$MENU
  1
acad
  9
$ELEVATION
 40
0.0
  9
$PELEVATION
 40
0.0
  9
$THICKNESS
 40
0.0
  9
$LIMCHECK
 70
     0
  9
$CHAMFERA
 40
0.5
  9
$CHAMFERB
 40
0.5
  9
$CHAMFERC
 40
0.0
  9
$CHAMFERD
 40
0.0
  9
$SKPOLY
 70
     0
  9
$TDCREATE
 40
2451898.396178704
  9
$TDUCREATE
 40
2451898.021178704
  9
$TDUPDATE
 40
2460280.748928681
  9
$TDUUPDATE
 40
2460280.373928681
  9
$TDINDWG
 40
0.0206744907
  9
$TDUSRTIMER
 40
0.0206744676
  9
$USRTIMER
 70
     1
  9
$ANGBASE
 50
0.0
  9
$ANGDIR
 70
     0
  9
$PDMODE
 70
     0
  9
$PDSIZE
 40
0.0
  9
$PLINEWID
 40
0.0
  9
$SPLFRAME
 70
     0
  9
$SPLINETYPE
 70
     6
  9
$SPLINESEGS
 70
     8
  9
$HANDSEED
  5
87D8
  9
$SURFTAB1
 70
     6
  9
$SURFTAB2
 70
     6
  9
$SURFTYPE
 70
     6
  9
$SURFU
 70
     6
  9
$SURFV
 70
     6
  9
$UCSBASE
  2

  9
$UCSNAME
  2

  9
$UCSORG
 10
0.0
 20
0.0
 30
0.0
  9
$UCSXDIR
 10
1.0
 20
0.0
 30
0.0
  9
$UCSYDIR
 10
0.0
 20
1.0
 30
0.0
  9
$UCSORTHOREF
  2

  9
$UCSORTHOVIEW
 70
     0
  9
$UCSORGTOP
 10
0.0
 20
0.0
 30
0.0
  9
$UCSORGBOTTOM
 10
0.0
 20
0.0
 30
0.0
  9
$UCSORGLEFT
 10
0.0
 20
0.0
 30
0.0
  9
$UCSORGRIGHT
 10
0.0
 20
0.0
 30
0.0
  9
$UCSORGFRONT
 10
0.0
 20
0.0
 30
0.0
  9
$UCSORGBACK
 10
0.0
 20
0.0
 30
0.0
  9
$PUCSBASE
  2

  9
$PUCSNAME
  2

  9
$PUCSORG
 10
0.0
 20
0.0
 30
0.0
  9
$PUCSXDIR
 10
1.0
 20
0.0
 30
0.0
  9
$PUCSYDIR
 10
0.0
 20
1.0
 30
0.0
  9
$PUCSORTHOREF
  2

  9
$PUCSORTHOVIEW
 70
     0
  9
$PUCSORGTOP
 10
0.0
 20
0.0
 30
0.0
  9
$PUCSORGBOTTOM
 10
0.0
 20
0.0
 30
0.0
  9
$PUCSORGLEFT
 10
0.0
 20
0.0
 30
0.0
  9
$PUCSORGRIGHT
 10
0.0
 20
0.0
 30
0.0
  9
$PUCSORGFRONT
 10
0.0
 20
0.0
 30
0.0
  9
$PUCSORGBACK
 10
0.0
 20
0.0
 30
0.0
  9
$USERI1
 70
     0
  9
$USERI2
 70
     0
  9
$USERI3
 70
     0
  9
$USERI4
 70
     0
  9
$USERI5
 70
     0
  9
$USERR1
 40
0.0
  9
$USERR2
 40
0.0
  9
$USERR3
 40
0.0
  9
$USERR4
 40
0.0
  9
$USERR5
 40
0.0
  9
$WORLDVIEW
 70
     1
  9
$SHADEDGE
 70
     3
  9
$SHADEDIF
 70
    70
  9
$TILEMODE
 70
     1
  9
$MAXACTVP
 70
    16
  9
$PINSBASE
 10
0.0
 20
0.0
 30
0.0
  9
$PLIMCHECK
 70
     0
  9
$PEXTMIN
 10
1.000000000000000E+20
 20
1.000000000000000E+20
 30
1.000000000000000E+20
  9
$PEXTMAX
 10
-1.000000000000000E+20
 20
-1.000000000000000E+20
 30
-1.000000000000000E+20
  9
$PLIMMIN
 10
0.0
 20
0.0
  9
$PLIMMAX
 10
12.0
 20
9.0
  9
$UNITMODE
 70
     0
  9
$VISRETAIN
 70
     0
  9
$PLINEGEN
 70
     0
  9
$PSLTSCALE
 70
     1
  9
$TREEDEPTH
 70
  3020
  9
$CMLSTYLE
  2
Standard
  9
$CMLJUST
 70
     0
  9
$CMLSCALE
 40
1.0
  9
$PROXYGRAPHICS
 70
     1
  9
$MEASUREMENT
 70
     0
  9
$CELWEIGHT
370
    -1
  9
$ENDCAPS
280
     0
  9
$JOINSTYLE
280
     0
  9
$LWDISPLAY
290
     0
  9
$INSUNITS
 70
     0
  9
$HYPERLINKBASE
  1

  9
$STYLESHEET
  1

  9
$XEDIT
290
     1
  9
$CEPSNTYPE
380
     0
  9
$PSTYLEMODE
290
     1
  9
$FINGERPRINTGUID
  2
{59FD5324-A576-4265-990D-B4DD4B764FED}
  9
$VERSIONGUID
  2
{19A793CE-4FFE-4DE3-B09B-3CF18E59C7D2}
  9
$EXTNAMES
290
     1
  9
$PSVPSCALE
 40
0.0
  9
$OLESTARTUP
290
     0
  0
ENDSEC
  0
SECTION
  2
CLASSES
  0
CLASS
  1
ACDBDICTIONARYWDFLT
  2
AcDbDictionaryWithDefault
  3
ObjectDBX Classes
 90
        0
280
     0
281
     0
  0
CLASS
  1
MATERIAL
  2
AcDbMaterial
  3
ObjectDBX Classes
 90
     1153
280
     0
281
     0
  0
CLASS
  1
VISUALSTYLE
  2
AcDbVisualStyle
  3
ObjectDBX Classes
 90
     4095
280
     0
281
     0
  0
CLASS
  1
SCALE
  2
AcDbScale
  3
ObjectDBX Classes
 90
     1153
280
     0
281
     0
  0
CLASS
  1
TABLESTYLE
  2
AcDbTableStyle
  3
ObjectDBX Classes
 90
     4095
280
     0
281
     0
  0
CLASS
  1
MLEADERSTYLE
  2
AcDbMLeaderStyle
  3
ACDB_MLEADERSTYLE_CLASS
 90
     4095
280
     0
281
     0
  0
CLASS
  1
ACDBSECTIONVIEWSTYLE
  2
AcDbSectionViewStyle
  3
ObjectDBX Classes
 90
     1025
280
     0
281
     0
  0
CLASS
  1
ACDBDETAILVIEWSTYLE
  2
AcDbDetailViewStyle
  3
ObjectDBX Classes
 90
     1025
280
     0
281
     0
  0
CLASS
  1
DICTIONARYVAR
  2
AcDbDictionaryVar
  3
ObjectDBX Classes
 90
        0
280
     0
281
     0
  0
CLASS
  1
CELLSTYLEMAP
  2
AcDbCellStyleMap
  3
ObjectDBX Classes
 90
     1152
280
     0
281
     0
  0
CLASS
  1
SORTENTSTABLE
  2
AcDbSortentsTable
  3
ObjectDBX Classes
 90
        0
280
     0
281
     0
  0
CLASS
  1
ACDBPLACEHOLDER
  2
AcDbPlaceHolder
  3
ObjectDBX Classes
 90
        0
280
     0
281
     0
  0
CLASS
  1
LAYOUT
  2
AcDbLayout
  3
ObjectDBX Classes
 90
        0
280
     0
281
     0
  0
ENDSEC
  0
SECTION
  2
TABLES
  0
TABLE
  2
VPORT
  5
83B7
330
0
100
AcDbSymbolTable
 70
     1
  0
VPORT
  5
8423
330
83B7
100
AcDbSymbolTableRecord
100
AcDbViewportTableRecord
  2
*ACTIVE
 70
     0
 10
0.0
 20
0.0
 11
1.0
 21
1.0
 12
4200.000019557773
 22
5900.000027474012
 13
0.0
 23
0.0
 14
10.0
 24
10.0
 15
10.0
 25
10.0
 16
0.0
 26
0.0
 36
1.0
 17
0.0
 27
0.0
 37
0.0
 40
11876.28512550527
 41
2.050213675213675
 42
50.0
 43
0.0
 44
0.0
 50
0.0
 51
0.0
 71
     0
 72
   100
 73
     1
 74
     0
 75
     0
 76
     0
 77
     0
 78
     0
281
     0
 65
     1
110
0.0
120
0.0
130
0.0
111
1.0
121
0.0
131
0.0
112
0.0
122
1.0
132
0.0
 79
     0
146
0.0
1001
ACAD_NAV_VCDISPLAY
1070
     3
  0
ENDTAB
  0
TABLE
  2
LTYPE
  5
83B4
330
0
100
AcDbSymbolTable
 70
     4
  0
LTYPE
  5
8409
330
83B4
100
AcDbSymbolTableRecord
100
AcDbLinetypeTableRecord
  2
ByBlock
 70
     0
  3

 72
    65
 73
     0
 40
0.0
  0
LTYPE
  5
840A
330
83B4
100
AcDbSymbolTableRecord
100
AcDbLinetypeTableRecord
  2
ByLayer
 70
     0
  3

 72
    65
 73
     0
 40
0.0
  0
LTYPE
  5
840B
330
83B4
100
AcDbSymbolTableRecord
100
AcDbLinetypeTableRecord
  2
CONTINUOUS
 70
     0
  3
Solid line
 72
    65
 73
     0
 40
0.0
  0
LTYPE
  5
8424
330
83B4
100
AcDbSymbolTableRecord
100
AcDbLinetypeTableRecord
  2
CENTER
 70
     0
  3
____ _ ____ _ ____ _ ____ _ ____ _ ____ _ ____ 
 72
    65
 73
     4
 40
2.0
 49
1.25
 74
     0
 49
-0.25
 74
     0
 49
0.25
 74
     0
 49
-0.25
 74
     0
  0
ENDTAB
  0
TABLE
  2
LAYER
  5
83B1
330
0
100
AcDbSymbolTable
 70
     6
  0
LAYER
  5
8403
102
{ACAD_XDICTIONARY
360
8466
102
}
330
83B1
100
AcDbSymbolTableRecord
100
AcDbLayerTableRecord
  2
0
 70
     0
 62
     7
  6
CONTINUOUS
370
    -3
390
83BE
  0
LAYER
  5
8422
102
{ACAD_XDICTIONARY
360
8468
102
}
330
83B1
100
AcDbSymbolTableRecord
100
AcDbLayerTableRecord
  2
3
 70
     0
 62
     2
  6
CONTINUOUS
370
    -3
390
83BE
  0
LAYER
  5
8425
102
{ACAD_XDICTIONARY
360
846A
102
}
330
83B1
100
AcDbSymbolTableRecord
100
AcDbLayerTableRecord
  2
2
 70
     0
 62
     3
  6
CENTER
370
    -3
390
83BE
  0
LAYER
  5
8426
102
{ACAD_XDICTIONARY
360
846C
102
}
330
83B1
100
AcDbSymbolTableRecord
100
AcDbLayerTableRecord
  2
1
 70
     0
 62
     4
  6
CONTINUOUS
370
    -3
390
83BE
  0
LAYER
  5
8427
102
{ACAD_XDICTIONARY
360
846E
102
}
330
83B1
100
AcDbSymbolTableRecord
100
AcDbLayerTableRecord
  2
4
 70
     0
 62
     7
  6
CONTINUOUS
370
    -3
390
83BE
  0
LAYER
  5
8428
330
83B1
100
AcDbSymbolTableRecord
100
AcDbLayerTableRecord
  2
DEFPOINTS
 70
     0
 62
     7
  6
CONTINUOUS
290
     0
370
    -3
390
83BE
  0
ENDTAB
  0
TABLE
  2
STYLE
  5
83B2
330
0
100
AcDbSymbolTable
 70
     2
  0
STYLE
  5
8404
330
83B2
100
AcDbSymbolTableRecord
100
AcDbTextStyleTableRecord
  2
STANDARD
 70
     0
 40
0.0
 41
1.0
 50
0.0
 71
     0
 42
180.0
  3
simplex.shx
  4
extfont.shx
  0
STYLE
  5
8408
330
83B2
100
AcDbSymbolTableRecord
100
AcDbTextStyleTableRecord
  2
Annotative
 70
     0
 40
0.0
 41
1.0
 50
0.0
 71
     0
 42
0.2
  3
txt
  4

1001
AcadAnnotative
1000
AnnotativeData
1002
{
1070
     1
1070
     1
1002
}
  0
ENDTAB
  0
TABLE
  2
VIEW
  5
83B5
330
0
100
AcDbSymbolTable
 70
     0
  0
ENDTAB
  0
TABLE
  2
UCS
  5
83B6
330
0
100
AcDbSymbolTable
 70
     0
  0
ENDTAB
  0
TABLE
  2
APPID
  5
83B8
330
0
100
AcDbSymbolTable
 70
     8
  0
APPID
  5
8405
330
83B8
100
AcDbSymbolTableRecord
100
AcDbRegAppTableRecord
  2
ACAD
 70
     0
  0
APPID
  5
840C
330
83B8
100
AcDbSymbolTableRecord
100
AcDbRegAppTableRecord
  2
AcadAnnotative
 70
     0
  0
APPID
  5
847A
330
83B8
100
AcDbSymbolTableRecord
100
AcDbRegAppTableRecord
  2
ACAD_NAV_VCDISPLAY
 70
     0
  0
APPID
  5
84C1
330
83B8
100
AcDbSymbolTableRecord
100
AcDbRegAppTableRecord
  2
ACAD_DSTYLE_DIMJAG
 70
     0
  0
APPID
  5
84C2
330
83B8
100
AcDbSymbolTableRecord
100
AcDbRegAppTableRecord
  2
ACAD_DSTYLE_DIMTALN
 70
     0
  0
APPID
  5
84F7
330
83B8
100
AcDbSymbolTableRecord
100
AcDbRegAppTableRecord
  2
AcadAnnoMonitorAlertIconDisabled
 70
     0
  0
APPID
  5
84F8
330
83B8
100
AcDbSymbolTableRecord
100
AcDbRegAppTableRecord
  2
ACAD_EXEMPT_FROM_CAD_STANDARDS
 70
     0
  0
APPID
  5
87CF
330
83B8
100
AcDbSymbolTableRecord
100
AcDbRegAppTableRecord
  2
ACAD_MLEADERVER
 70
     0
  0
ENDTAB
  0
TABLE
  2
DIMSTYLE
  5
83B9
330
0
100
AcDbSymbolTable
 70
     4
100
AcDbDimStyleTable
 71
     1
340
8429
  0
DIMSTYLE
105
8406
102
{ACAD_REACTORS
330
81A9
330
81B6
330
81D0
330
81DD
102
}
330
83B9
100
AcDbSymbolTableRecord
100
AcDbDimStyleTableRecord
  2
Standard
 70
     0
340
8404
  0
DIMSTYLE
105
8407
330
83B9
100
AcDbSymbolTableRecord
100
AcDbDimStyleTableRecord
  2
Annotative
 70
     0
340
8404
1001
AcadAnnotative
1000
AnnotativeData
1002
{
1070
     1
1070
     1
1002
}
  0
DIMSTYLE
105
8429
102
{ACAD_REACTORS
330
84C3
330
84D0
330
84DD
330
84EA
330
8561
330
856E
330
857B
330
8588
330
8595
330
85AB
330
85B8
330
85C5
330
85D2
330
85E6
330
85F3
330
8600
330
8612
330
8624
102
}
330
83B9
100
AcDbSymbolTableRecord
100
AcDbDimStyleTableRecord
  2
IGA
 70
     0
 40
2.0
 41
2.0
 42
0.5
 43
10.0
 44
1.0
 47
1.0
 48
1.0
 73
     0
 74
     0
 77
     1
 78
     8
140
3.0
141
0.0
143
0.03937
146
10.0
147
1.0
173
     1
271
     3
272
     3
279
     2
284
     8
285
     8
286
     8
340
8404
  0
ENDTAB
  0
TABLE
  2
BLOCK_RECORD
  5
83B0
330
0
100
AcDbSymbolTable
 70
    49
  0
BLOCK_RECORD
  5
841E
102
{ACAD_XDICTIONARY
360
84BD
102
}
330
83B0
100
AcDbSymbolTableRecord
100
AcDbBlockTableRecord
  2
*Model_Space
340
8421
  0
BLOCK_RECORD
  5
841A
330
83B0
100
AcDbSymbolTableRecord
100
AcDbBlockTableRecord
  2
*Paper_Space
340
841D
  0
BLOCK_RECORD
  5
842D
330
83B0
100
AcDbSymbolTableRecord
100
AcDbBlockTableRecord
  2
$MODEL_SPACE
340
0
  0
BLOCK_RECORD
  5
842F
330
83B0
100
AcDbSymbolTableRecord
100
AcDbBlockTableRecord
  2
$PAPER_SPACE
340
0
  0
BLOCK_RECORD
  5
8431
330
83B0
100
AcDbSymbolTableRecord
100
AcDbBlockTableRecord
  2
YA_N
340
0
102
{BLKREFS
331
7C3A
331
7C55
331
7C56
331
7C7B
331
7CC8
331
7CD8
331
7D02
331
7D19
102
}
  0
BLOCK_RECORD
  5
8433
330
83B0
100
AcDbSymbolTableRecord
100
AcDbBlockTableRecord
  2
*D3
340
0
  0
BLOCK_RECORD
  5
8435
330
83B0
100
AcDbSymbolTableRecord
100
AcDbBlockTableRecord
  2
_OPEN
340
0
102
{BLKREFS
331
8332
331
8333
331
833B
331
833C
331
8344
331
8345
331
8793
331
834D
331
834E
331
8739
331
8356
331
8357
331
830E
331
830F
331
8317
331
8318
331
8320
331
8321
331
8329
331
832A
331
835F
331
8664
331
8665
331
8360
331
85FA
331
85FB
331
8368
331
8369
331
859C
331
859D
331
85A5
331
85A6
331
85B2
331
85B3
331
85BF
331
85C0
331
85CC
331
85CD
331
85D9
331
85DA
331
85ED
331
85EE
331
8371
331
8372
331
8545
331
8546
331
854E
331
854F
331
8568
331
8569
331
8575
331
8576
331
8582
331
8583
331
858F
331
8590
331
837A
331
837B
331
84D7
331
84D8
331
8506
331
8507
331
8386
331
838D
331
838E
331
81F2
331
81F3
331
8396
331
8397
331
81A2
331
81A3
331
81AF
331
81B0
331
81C9
331
81CA
331
81D6
331
81D7
102
}
  0
BLOCK_RECORD
  5
8436
330
83B0
100
AcDbSymbolTableRecord
100
AcDbBlockTableRecord
  2
*D5
340
0
  0
BLOCK_RECORD
  5
8438
330
83B0
100
AcDbSymbolTableRecord
100
AcDbBlockTableRecord
  2
*D6
340
0
  0
BLOCK_RECORD
  5
843A
330
83B0
100
AcDbSymbolTableRecord
100
AcDbBlockTableRecord
  2
*D7
340
0
  0
BLOCK_RECORD
  5
843C
330
83B0
100
AcDbSymbolTableRecord
100
AcDbBlockTableRecord
  2
*D8
340
0
  0
BLOCK_RECORD
  5
843E
330
83B0
100
AcDbSymbolTableRecord
100
AcDbBlockTableRecord
  2
*D9
340
0
  0
BLOCK_RECORD
  5
8440
330
83B0
100
AcDbSymbolTableRecord
100
AcDbBlockTableRecord
  2
*D10
340
0
  0
BLOCK_RECORD
  5
8442
330
83B0
100
AcDbSymbolTableRecord
100
AcDbBlockTableRecord
  2
*D11
340
0
  0
BLOCK_RECORD
  5
8444
330
83B0
100
AcDbSymbolTableRecord
100
AcDbBlockTableRecord
  2
*D12
340
0
  0
BLOCK_RECORD
  5
8446
330
83B0
100
AcDbSymbolTableRecord
100
AcDbBlockTableRecord
  2
*D13
340
0
  0
BLOCK_RECORD
  5
8448
330
83B0
100
AcDbSymbolTableRecord
100
AcDbBlockTableRecord
  2
*D14
340
0
  0
BLOCK_RECORD
  5
844A
330
83B0
100
AcDbSymbolTableRecord
100
AcDbBlockTableRecord
  2
*D15
340
0
  0
BLOCK_RECORD
  5
844C
330
83B0
100
AcDbSymbolTableRecord
100
AcDbBlockTableRecord
  2
*D16
340
0
  0
BLOCK_RECORD
  5
844E
330
83B0
100
AcDbSymbolTableRecord
100
AcDbBlockTableRecord
  2
*D17
340
0
  0
BLOCK_RECORD
  5
8450
330
83B0
100
AcDbSymbolTableRecord
100
AcDbBlockTableRecord
  2
_DOT
340
0
102
{BLKREFS
331
8385
102
}
  0
BLOCK_RECORD
  5
8452
330
83B0
100
AcDbSymbolTableRecord
100
AcDbBlockTableRecord
  2
*D19
340
0
  0
BLOCK_RECORD
  5
8454
330
83B0
100
AcDbSymbolTableRecord
100
AcDbBlockTableRecord
  2
*D20
340
0
  0
BLOCK_RECORD
  5
8457
330
83B0
100
AcDbSymbolTableRecord
100
AcDbBlockTableRecord
  2
*D21
340
0
  0
BLOCK_RECORD
  5
8459
330
83B0
100
AcDbSymbolTableRecord
100
AcDbBlockTableRecord
  2
*D22
340
0
  0
BLOCK_RECORD
  5
845B
330
83B0
100
AcDbSymbolTableRecord
100
AcDbBlockTableRecord
  2
*D23
340
0
  0
BLOCK_RECORD
  5
845D
330
83B0
100
AcDbSymbolTableRecord
100
AcDbBlockTableRecord
  2
*D24
340
0
  0
BLOCK_RECORD
  5
845F
330
83B0
100
AcDbSymbolTableRecord
100
AcDbBlockTableRecord
  2
_NONE
340
0
  0
BLOCK_RECORD
  5
8461
330
83B0
100
AcDbSymbolTableRecord
100
AcDbBlockTableRecord
  2
*D26
340
0
  0
BLOCK_RECORD
  5
8463
330
83B0
100
AcDbSymbolTableRecord
100
AcDbBlockTableRecord
  2
*D27
340
0
  0
BLOCK_RECORD
  5
84C4
330
83B0
100
AcDbSymbolTableRecord
100
AcDbBlockTableRecord
  2
*D28
340
0
  0
BLOCK_RECORD
  5
84D1
330
83B0
100
AcDbSymbolTableRecord
100
AcDbBlockTableRecord
  2
*D29
340
0
  0
BLOCK_RECORD
  5
84DE
330
83B0
100
AcDbSymbolTableRecord
100
AcDbBlockTableRecord
  2
*D30
340
0
  0
BLOCK_RECORD
  5
84EB
330
83B0
100
AcDbSymbolTableRecord
100
AcDbBlockTableRecord
  2
*D31
340
0
  0
BLOCK_RECORD
  5
8555
330
83B0
100
AcDbSymbolTableRecord
100
AcDbBlockTableRecord
  2
*D32
340
0
  0
BLOCK_RECORD
  5
8562
330
83B0
100
AcDbSymbolTableRecord
100
AcDbBlockTableRecord
  2
*D33
340
0
  0
BLOCK_RECORD
  5
856F
330
83B0
100
AcDbSymbolTableRecord
100
AcDbBlockTableRecord
  2
*D34
340
0
  0
BLOCK_RECORD
  5
857C
330
83B0
100
AcDbSymbolTableRecord
100
AcDbBlockTableRecord
  2
*D35
340
0
  0
BLOCK_RECORD
  5
8589
330
83B0
100
AcDbSymbolTableRecord
100
AcDbBlockTableRecord
  2
*D36
340
0
  0
BLOCK_RECORD
  5
8596
330
83B0
100
AcDbSymbolTableRecord
100
AcDbBlockTableRecord
  2
*D37
340
0
  0
BLOCK_RECORD
  5
85AC
330
83B0
100
AcDbSymbolTableRecord
100
AcDbBlockTableRecord
  2
*D38
340
0
  0
BLOCK_RECORD
  5
85B9
330
83B0
100
AcDbSymbolTableRecord
100
AcDbBlockTableRecord
  2
*D39
340
0
  0
BLOCK_RECORD
  5
85C6
330
83B0
100
AcDbSymbolTableRecord
100
AcDbBlockTableRecord
  2
*D40
340
0
  0
BLOCK_RECORD
  5
85D3
330
83B0
100
AcDbSymbolTableRecord
100
AcDbBlockTableRecord
  2
*D41
340
0
  0
BLOCK_RECORD
  5
85E7
330
83B0
100
AcDbSymbolTableRecord
100
AcDbBlockTableRecord
  2
*D43
340
0
  0
BLOCK_RECORD
  5
85F4
330
83B0
100
AcDbSymbolTableRecord
100
AcDbBlockTableRecord
  2
*D44
340
0
  0
BLOCK_RECORD
  5
8601
330
83B0
100
AcDbSymbolTableRecord
100
AcDbBlockTableRecord
  2
*D45
340
0
  0
BLOCK_RECORD
  5
8613
330
83B0
100
AcDbSymbolTableRecord
100
AcDbBlockTableRecord
  2
*D46
340
0
  0
BLOCK_RECORD
  5
8625
330
83B0
100
AcDbSymbolTableRecord
100
AcDbBlockTableRecord
  2
*D47
340
0
  0
BLOCK_RECORD
  5
872C
330
83B0
100
AcDbSymbolTableRecord
100
AcDbBlockTableRecord
  2
_DotSmall
340
0
102
{BLKREFS
331
8792
331
873A
102
}
  0
ENDTAB
  0
ENDSEC
  0
SECTION
  2
BLOCKS
  0
BLOCK
  5
841F
330
841E
100
AcDbEntity
  8
0
100
AcDbBlockBegin
  2
*Model_Space
 70
     0
 10
0.0
 20
0.0
 30
0.0
  3
*Model_Space
  1

  0
ENDBLK
  5
8420
330
841E
100
AcDbEntity
  8
0
100
AcDbBlockEnd
  0
BLOCK
  5
841B
330
841A
100
AcDbEntity
 67
     1
  8
0
100
AcDbBlockBegin
  2
*Paper_Space
 70
     0
 10
0.0
 20
0.0
 30
0.0
  3
*Paper_Space
  1

  0
ENDBLK
  5
841C
330
841A
100
AcDbEntity
 67
     1
  8
0
100
AcDbBlockEnd
  0
BLOCK
  5
842E
330
842D
100
AcDbEntity
  8
0
100
AcDbBlockBegin
  2
$MODEL_SPACE
 70
     0
 10
0.0
 20
0.0
 30
0.0
  3
$MODEL_SPACE
  1

  0
ENDBLK
  5
1B
330
842D
100
AcDbEntity
  8
0
100
AcDbBlockEnd
  0
BLOCK
  5
8430
330
842F
100
AcDbEntity
  8
0
100
AcDbBlockBegin
  2
$PAPER_SPACE
 70
     0
 10
0.0
 20
0.0
 30
0.0
  3
$PAPER_SPACE
  1

  0
ENDBLK
  5
18
330
842F
100
AcDbEntity
  8
0
100
AcDbBlockEnd
  0
BLOCK
  5
8432
330
8431
100
AcDbEntity
  8
0
100
AcDbBlockBegin
  2
YA_N
 70
     0
 10
0.0
 20
0.0
 30
0.0
  3
YA_N
  1

  0
ENDBLK
  5
79FE
330
8431
100
AcDbEntity
  8
0
100
AcDbBlockEnd
  0
BLOCK
  5
8434
330
8433
100
AcDbEntity
  8
0
100
AcDbBlockBegin
  2
*D3
 70
     1
 10
0.0
 20
0.0
 30
0.0
  3
*D3
  1

  0
LINE
  5
830B
330
8433
100
AcDbEntity
  8
3
 62
     0
100
AcDbLine
 10
5545.659262902689
 20
4757.552393784735
 30
0.0
 11
5545.659262902689
 21
5025.952180251301
 31
0.0
  0
LINE
  5
830C
330
8433
100
AcDbEntity
  8
3
 62
     0
100
AcDbLine
 10
7245.659262902688
 20
4757.552393784735
 30
0.0
 11
7245.659262902688
 21
5025.952180251301
 31
0.0
  0
LINE
  5
830D
330
8433
100
AcDbEntity
  8
3
 62
     0
100
AcDbLine
 10
5625.659262902689
 20
4985.952180251301
 30
0.0
 11
7165.659262902689
 21
4985.952180251301
 31
0.0
  0
INSERT
  5
830E
330
8433
100
AcDbEntity
  8
3
 62
     0
100
AcDbBlockReference
  2
_OPEN
 10
5545.659262902689
 20
4985.952180251301
 30
0.0
 41
80.0
 42
80.0
 43
80.0
 50
180.0
  0
INSERT
  5
830F
330
8433
100
AcDbEntity
  8
3
 62
     0
100
AcDbBlockReference
  2
_OPEN
 10
7245.659262902688
 20
4985.952180251301
 30
0.0
 41
80.0
 42
80.0
 43
80.0
  0
TEXT
  5
839F
330
8433
100
AcDbEntity
  8
3
 62
     0
100
AcDbText
 10
6155.660000000001
 20
4873.55
 30
0.0
 40
120.0
  1
1700
100
AcDbText
  0
POINT
  5
8311
330
8433
100
AcDbEntity
  8
DEFPOINTS
 62
     0
100
AcDbPoint
 10
5545.659262902689
 20
4737.552393784734
 30
0.0
  0
POINT
  5
8312
330
8433
100
AcDbEntity
  8
DEFPOINTS
 62
     0
100
AcDbPoint
 10
7245.659262902688
 20
4737.552393784734
 30
0.0
  0
POINT
  5
8313
330
8433
100
AcDbEntity
  8
DEFPOINTS
 62
     0
100
AcDbPoint
 10
7245.659262902688
 20
4985.952180251301
 30
0.0
  0
ENDBLK
  5
8088
330
8433
100
AcDbEntity
  8
0
100
AcDbBlockEnd
  0
BLOCK
  5
8451
330
8435
100
AcDbEntity
  8
0
100
AcDbBlockBegin
  2
_OPEN
 70
     0
 10
0.0
 20
0.0
 30
0.0
  3
_OPEN
  1

  0
LINE
  5
7F79
330
8435
100
AcDbEntity
  8
0
  6
ByBlock
 62
     0
100
AcDbLine
 10
-1.0
 20
0.1666666666666666
 30
0.0
 11
0.0
 21
0.0
 31
0.0
  0
LINE
  5
7F7A
330
8435
100
AcDbEntity
  8
0
  6
ByBlock
 62
     0
100
AcDbLine
 10
0.0
 20
0.0
 30
0.0
 11
-1.0
 21
-0.1666666666666666
 31
0.0
  0
LINE
  5
7F7B
330
8435
100
AcDbEntity
  8
0
  6
ByBlock
 62
     0
100
AcDbLine
 10
0.0
 20
0.0
 30
0.0
 11
-1.0
 21
0.0
 31
0.0
  0
ENDBLK
  5
7F7C
330
8435
100
AcDbEntity
  8
0
100
AcDbBlockEnd
  0
BLOCK
  5
8437
330
8436
100
AcDbEntity
  8
0
100
AcDbBlockBegin
  2
*D5
 70
     1
 10
0.0
 20
0.0
 30
0.0
  3
*D5
  1

  0
LINE
  5
8314
330
8436
100
AcDbEntity
  8
3
 62
     0
100
AcDbLine
 10
5160.65926290269
 20
4227.929630863208
 30
0.0
 11
5160.65926290269
 21
5279.303072215389
 31
0.0
  0
LINE
  5
8315
330
8436
100
AcDbEntity
  8
3
 62
     0
100
AcDbLine
 10
6395.65926290269
 20
5196.920362397317
 30
0.0
 11
6395.65926290269
 21
5279.303072215389
 31
0.0
  0
LINE
  5
8316
330
8436
100
AcDbEntity
  8
3
 62
     0
100
AcDbLine
 10
5240.65926290269
 20
5239.303072215388
 30
0.0
 11
6315.659262902689
 21
5239.303072215388
 31
0.0
  0
INSERT
  5
8317
330
8436
100
AcDbEntity
  8
3
 62
     0
100
AcDbBlockReference
  2
_OPEN
 10
5160.65926290269
 20
5239.303072215388
 30
0.0
 41
80.0
 42
80.0
 43
80.0
 50
180.0
  0
INSERT
  5
8318
330
8436
100
AcDbEntity
  8
3
 62
     0
100
AcDbBlockReference
  2
_OPEN
 10
6395.65926290269
 20
5239.303072215388
 30
0.0
 41
80.0
 42
80.0
 43
80.0
  0
TEXT
  5
83A0
330
8436
100
AcDbEntity
  8
3
 62
     0
100
AcDbText
 10
5538.16
 20
5226.9
 30
0.0
 40
120.0
  1
MAX
100
AcDbText
  0
TEXT
  5
83A1
330
8436
100
AcDbEntity
  8
3
 62
     0
100
AcDbText
 10
5538.16
 20
5070.899999999999
 30
0.0
 40
120.0
  1
1280
100
AcDbText
  0
POINT
  5
831A
330
8436
100
AcDbEntity
  8
DEFPOINTS
 62
     0
100
AcDbPoint
 10
5160.65926290269
 20
4207.929630863207
 30
0.0
  0
POINT
  5
831B
330
8436
100
AcDbEntity
  8
DEFPOINTS
 62
     0
100
AcDbPoint
 10
6395.65926290269
 20
5176.920362397315
 30
0.0
  0
POINT
  5
831C
330
8436
100
AcDbEntity
  8
DEFPOINTS
 62
     0
100
AcDbPoint
 10
6395.65926290269
 20
5239.303072215388
 30
0.0
  0
ENDBLK
  5
8190
330
8436
100
AcDbEntity
  8
0
100
AcDbBlockEnd
  0
BLOCK
  5
8439
330
8438
100
AcDbEntity
  8
0
100
AcDbBlockBegin
  2
*D6
 70
     1
 10
0.0
 20
0.0
 30
0.0
  3
*D6
  1

  0
LINE
  5
831D
330
8438
100
AcDbEntity
  8
3
 62
     0
100
AcDbLine
 10
6395.65926290269
 20
5196.920362397317
 30
0.0
 11
6395.65926290269
 21
5278.915485110204
 31
0.0
  0
LINE
  5
831E
330
8438
100
AcDbEntity
  8
3
 62
     0
100
AcDbLine
 10
7405.659262902689
 20
3843.267561965474
 30
0.0
 11
7405.659262902689
 21
5278.915485110204
 31
0.0
  0
LINE
  5
831F
330
8438
100
AcDbEntity
  8
3
 62
     0
100
AcDbLine
 10
6475.65926290269
 20
5238.915485110203
 30
0.0
 11
7325.659262902689
 21
5238.915485110203
 31
0.0
  0
INSERT
  5
8320
330
8438
100
AcDbEntity
  8
3
 62
     0
100
AcDbBlockReference
  2
_OPEN
 10
6395.65926290269
 20
5238.915485110203
 30
0.0
 41
80.0
 42
80.0
 43
80.0
 50
180.0
  0
INSERT
  5
8321
330
8438
100
AcDbEntity
  8
3
 62
     0
100
AcDbBlockReference
  2
_OPEN
 10
7405.659262902689
 20
5238.915485110203
 30
0.0
 41
80.0
 42
80.0
 43
80.0
  0
TEXT
  5
83A2
330
8438
100
AcDbEntity
  8
3
 62
     0
100
AcDbText
 10
6660.66
 20
5157.939999999999
 30
0.0
 40
120.0
  1
(1020)
100
AcDbText
  0
POINT
  5
8323
330
8438
100
AcDbEntity
  8
DEFPOINTS
 62
     0
100
AcDbPoint
 10
6395.65926290269
 20
5176.920362397315
 30
0.0
  0
POINT
  5
8324
330
8438
100
AcDbEntity
  8
DEFPOINTS
 62
     0
100
AcDbPoint
 10
7405.659262902689
 20
3823.267561965474
 30
0.0
  0
POINT
  5
8325
330
8438
100
AcDbEntity
  8
DEFPOINTS
 62
     0
100
AcDbPoint
 10
7405.659262902689
 20
5238.915485110203
 30
0.0
  0
ENDBLK
  5
8185
330
8438
100
AcDbEntity
  8
0
100
AcDbBlockEnd
  0
BLOCK
  5
843B
330
843A
100
AcDbEntity
  8
0
100
AcDbBlockBegin
  2
*D7
 70
     1
 10
0.0
 20
0.0
 30
0.0
  3
*D7
  1

  0
LINE
  5
8326
330
843A
100
AcDbEntity
  8
3
 62
     0
100
AcDbLine
 10
7267.95926290269
 20
4552.929630863208
 30
0.0
 11
7696.928887815194
 21
4552.929630863208
 31
0.0
  0
LINE
  5
8327
330
843A
100
AcDbEntity
  8
3
 62
     0
100
AcDbLine
 10
7267.95926290269
 20
3302.929630863206
 30
0.0
 11
7696.928887815194
 21
3302.929630863206
 31
0.0
  0
LINE
  5
8328
330
843A
100
AcDbEntity
  8
3
 62
     0
100
AcDbLine
 10
7656.928887815194
 20
4472.929630863208
 30
0.0
 11
7656.928887815194
 21
3382.929630863206
 31
0.0
  0
INSERT
  5
8329
330
843A
100
AcDbEntity
  8
3
 62
     0
100
AcDbBlockReference
  2
_OPEN
 10
7656.928887815194
 20
4552.929630863208
 30
0.0
 41
80.0
 42
80.0
 43
80.0
 50
90.0
  0
INSERT
  5
832A
330
843A
100
AcDbEntity
  8
3
 62
     0
100
AcDbBlockReference
  2
_OPEN
 10
7656.928887815194
 20
3302.929630863206
 30
0.0
 41
80.0
 42
80.0
 43
80.0
 50
270.0
  0
TEXT
  5
83A3
330
843A
100
AcDbEntity
  8
3
 62
     0
100
AcDbText
 10
7316.930000000001
 20
3715.530000000001
 30
0.0
 40
120.0
  1
\U+03C61250
100
AcDbText
  0
POINT
  5
832C
330
843A
100
AcDbEntity
  8
DEFPOINTS
 62
     0
100
AcDbPoint
 10
7247.959262902689
 20
4552.929630863208
 30
0.0
  0
POINT
  5
832D
330
843A
100
AcDbEntity
  8
DEFPOINTS
 62
     0
100
AcDbPoint
 10
7247.959262902689
 20
3302.929630863206
 30
0.0
  0
POINT
  5
832E
330
843A
100
AcDbEntity
  8
DEFPOINTS
 62
     0
100
AcDbPoint
 10
7656.928887815194
 20
3302.929630863206
 30
0.0
  0
ENDBLK
  5
8067
330
843A
100
AcDbEntity
  8
0
100
AcDbBlockEnd
  0
BLOCK
  5
843D
330
843C
100
AcDbEntity
  8
0
100
AcDbBlockBegin
  2
*D8
 70
     1
 10
0.0
 20
0.0
 30
0.0
  3
*D8
  1

  0
LINE
  5
832F
330
843C
100
AcDbEntity
  8
3
 62
     0
100
AcDbLine
 10
3965.557756892302
 20
8639.308553199738
 30
0.0
 11
4434.573898128134
 21
8639.308553199738
 31
0.0
  0
LINE
  5
8330
330
843C
100
AcDbEntity
  8
3
 62
     0
100
AcDbLine
 10
3965.557756892302
 20
6519.308553199739
 30
0.0
 11
4434.573898128134
 21
6519.308553199739
 31
0.0
  0
LINE
  5
8331
330
843C
100
AcDbEntity
  8
3
 62
     0
100
AcDbLine
 10
4394.573898128134
 20
8559.308553199738
 30
0.0
 11
4394.573898128134
 21
6599.308553199738
 31
0.0
  0
INSERT
  5
8332
330
843C
100
AcDbEntity
  8
3
 62
     0
100
AcDbBlockReference
  2
_OPEN
 10
4394.573898128134
 20
8639.308553199738
 30
0.0
 41
80.0
 42
80.0
 43
80.0
 50
90.0
  0
INSERT
  5
8333
330
843C
100
AcDbEntity
  8
3
 62
     0
100
AcDbBlockReference
  2
_OPEN
 10
4394.573898128134
 20
6519.308553199739
 30
0.0
 41
80.0
 42
80.0
 43
80.0
 50
270.0
  0
TEXT
  5
83A4
330
843C
100
AcDbEntity
  8
3
 62
     0
100
AcDbText
 10
4054.57
 20
7366.91
 30
0.0
 40
120.0
  1
2120
100
AcDbText
  0
POINT
  5
8335
330
843C
100
AcDbEntity
  8
DEFPOINTS
 62
     0
100
AcDbPoint
 10
3945.557756892302
 20
8639.308553199738
 30
0.0
  0
POINT
  5
8336
330
843C
100
AcDbEntity
  8
DEFPOINTS
 62
     0
100
AcDbPoint
 10
3945.557756892302
 20
6519.308553199739
 30
0.0
  0
POINT
  5
8337
330
843C
100
AcDbEntity
  8
DEFPOINTS
 62
     0
100
AcDbPoint
 10
4394.573898128134
 20
6519.308553199739
 30
0.0
  0
ENDBLK
  5
803B
330
843C
100
AcDbEntity
  8
0
100
AcDbBlockEnd
  0
BLOCK
  5
843F
330
843E
100
AcDbEntity
  8
0
100
AcDbBlockBegin
  2
*D9
 70
     1
 10
0.0
 20
0.0
 30
0.0
  3
*D9
  1

  0
LINE
  5
8338
330
843E
100
AcDbEntity
  8
3
 62
     0
100
AcDbLine
 10
3945.557756892302
 20
8659.308553199737
 30
0.0
 11
3945.557756892302
 21
8883.944691704925
 31
0.0
  0
LINE
  5
8339
330
843E
100
AcDbEntity
  8
3
 62
     0
100
AcDbLine
 10
2445.557756892303
 20
8659.308553199741
 30
0.0
 11
2445.557756892303
 21
8883.944691704925
 31
0.0
  0
LINE
  5
833A
330
843E
100
AcDbEntity
  8
3
 62
     0
100
AcDbLine
 10
3865.557756892302
 20
8843.944691704926
 30
0.0
 11
2525.557756892303
 21
8843.944691704926
 31
0.0
  0
INSERT
  5
833B
330
843E
100
AcDbEntity
  8
3
 62
     0
100
AcDbBlockReference
  2
_OPEN
 10
3945.557756892302
 20
8843.944691704926
 30
0.0
 41
80.0
 42
80.0
 43
80.0
  0
INSERT
  5
833C
330
843E
100
AcDbEntity
  8
3
 62
     0
100
AcDbBlockReference
  2
_OPEN
 10
2445.557756892303
 20
8843.944691704926
 30
0.0
 41
80.0
 42
80.0
 43
80.0
 50
180.0
  0
TEXT
  5
83A5
330
843E
100
AcDbEntity
  8
3
 62
     0
100
AcDbText
 10
2955.56
 20
8731.54
 30
0.0
 40
120.0
  1
1500
100
AcDbText
  0
POINT
  5
833E
330
843E
100
AcDbEntity
  8
DEFPOINTS
 62
     0
100
AcDbPoint
 10
3945.557756892302
 20
8639.308553199738
 30
0.0
  0
POINT
  5
833F
330
843E
100
AcDbEntity
  8
DEFPOINTS
 62
     0
100
AcDbPoint
 10
2445.557756892303
 20
8639.30855319974
 30
0.0
  0
POINT
  5
8340
330
843E
100
AcDbEntity
  8
DEFPOINTS
 62
     0
100
AcDbPoint
 10
2445.557756892303
 20
8843.944691704926
 30
0.0
  0
ENDBLK
  5
8030
330
843E
100
AcDbEntity
  8
0
100
AcDbBlockEnd
  0
BLOCK
  5
8441
330
8440
100
AcDbEntity
  8
0
100
AcDbBlockBegin
  2
*D10
 70
     1
 10
0.0
 20
0.0
 30
0.0
  3
*D10
  1

  0
LINE
  5
8341
330
8440
100
AcDbEntity
  8
3
 62
     0
100
AcDbLine
 10
2445.557756892303
 20
8659.308553199741
 30
0.0
 11
2445.557756892303
 21
8883.944691704925
 31
0.0
  0
LINE
  5
8342
330
8440
100
AcDbEntity
  8
3
 62
     0
100
AcDbLine
 10
1495.557756892301
 20
7539.308553199742
 30
0.0
 11
1495.557756892301
 21
8883.944691704925
 31
0.0
  0
LINE
  5
8343
330
8440
100
AcDbEntity
  8
3
 62
     0
100
AcDbLine
 10
2365.557756892303
 20
8843.944691704926
 30
0.0
 11
1575.557756892301
 21
8843.944691704926
 31
0.0
  0
INSERT
  5
8344
330
8440
100
AcDbEntity
  8
3
 62
     0
100
AcDbBlockReference
  2
_OPEN
 10
2445.557756892303
 20
8843.944691704926
 30
0.0
 41
80.0
 42
80.0
 43
80.0
  0
INSERT
  5
8345
330
8440
100
AcDbEntity
  8
3
 62
     0
100
AcDbBlockReference
  2
_OPEN
 10
1495.557756892301
 20
8843.944691704926
 30
0.0
 41
80.0
 42
80.0
 43
80.0
 50
180.0
  0
TEXT
  5
83A6
330
8440
100
AcDbEntity
  8
3
 62
     0
100
AcDbText
 10
1730.56
 20
8731.54
 30
0.0
 40
120.0
  1
950
100
AcDbText
  0
POINT
  5
8347
330
8440
100
AcDbEntity
  8
DEFPOINTS
 62
     0
100
AcDbPoint
 10
2445.557756892303
 20
8639.30855319974
 30
0.0
  0
POINT
  5
8348
330
8440
100
AcDbEntity
  8
DEFPOINTS
 62
     0
100
AcDbPoint
 10
1495.557756892301
 20
7519.308553199741
 30
0.0
  0
POINT
  5
8349
330
8440
100
AcDbEntity
  8
DEFPOINTS
 62
     0
100
AcDbPoint
 10
1495.557756892301
 20
8843.944691704926
 30
0.0
  0
ENDBLK
  5
8025
330
8440
100
AcDbEntity
  8
0
100
AcDbBlockEnd
  0
BLOCK
  5
8443
330
8442
100
AcDbEntity
  8
0
100
AcDbBlockBegin
  2
*D11
 70
     1
 10
0.0
 20
0.0
 30
0.0
  3
*D11
  1

  0
LINE
  5
834A
330
8442
100
AcDbEntity
  8
3
 62
     0
100
AcDbLine
 10
1475.557756892301
 20
7519.308553199741
 30
0.0
 11
1189.231355784723
 21
7519.308553199741
 31
0.0
  0
LINE
  5
834B
330
8442
100
AcDbEntity
  8
3
 62
     0
100
AcDbLine
 10
1475.557756892301
 20
6519.308553199741
 30
0.0
 11
1189.231355784722
 21
6519.308553199741
 31
0.0
  0
LINE
  5
834C
330
8442
100
AcDbEntity
  8
3
 62
     0
100
AcDbLine
 10
1229.231355784723
 20
7439.308553199741
 30
0.0
 11
1229.231355784722
 21
6599.30855319974
 31
0.0
  0
INSERT
  5
834D
330
8442
100
AcDbEntity
  8
3
 62
     0
100
AcDbBlockReference
  2
_OPEN
 10
1229.231355784723
 20
7519.308553199741
 30
0.0
 41
80.0
 42
80.0
 43
80.0
 50
90.0
  0
INSERT
  5
834E
330
8442
100
AcDbEntity
  8
3
 62
     0
100
AcDbBlockReference
  2
_OPEN
 10
1229.231355784722
 20
6519.308553199741
 30
0.0
 41
80.0
 42
80.0
 43
80.0
 50
270.0
  0
TEXT
  5
83A7
330
8442
100
AcDbEntity
  8
3
 62
     0
100
AcDbText
 10
889.2310000000001
 20
6806.910000000001
 30
0.0
 40
120.0
  1
1000
100
AcDbText
  0
POINT
  5
8350
330
8442
100
AcDbEntity
  8
DEFPOINTS
 62
     0
100
AcDbPoint
 10
1495.557756892301
 20
7519.308553199741
 30
0.0
  0
POINT
  5
8351
330
8442
100
AcDbEntity
  8
DEFPOINTS
 62
     0
100
AcDbPoint
 10
1495.557756892301
 20
6519.308553199741
 30
0.0
  0
POINT
  5
8352
330
8442
100
AcDbEntity
  8
DEFPOINTS
 62
     0
100
AcDbPoint
 10
1229.231355784722
 20
6519.308553199741
 30
0.0
  0
ENDBLK
  5
801A
330
8442
100
AcDbEntity
  8
0
100
AcDbBlockEnd
  0
BLOCK
  5
8445
330
8444
100
AcDbEntity
  8
0
100
AcDbBlockBegin
  2
*D12
 70
     1
 10
0.0
 20
0.0
 30
0.0
  3
*D12
  1

  0
LINE
  5
8353
330
8444
100
AcDbEntity
  8
3
 62
     0
100
AcDbLine
 10
1495.557756892301
 20
6499.308553199741
 30
0.0
 11
1495.557756892301
 21
6114.554675010086
 31
0.0
  0
LINE
  5
8354
330
8444
100
AcDbEntity
  8
3
 62
     0
100
AcDbLine
 10
3945.557756892302
 20
6499.308553199738
 30
0.0
 11
3945.557756892302
 21
6114.554675010086
 31
0.0
  0
LINE
  5
8355
330
8444
100
AcDbEntity
  8
3
 62
     0
100
AcDbLine
 10
1575.557756892301
 20
6154.554675010087
 30
0.0
 11
3865.557756892302
 21
6154.554675010087
 31
0.0
  0
INSERT
  5
8356
330
8444
100
AcDbEntity
  8
3
 62
     0
100
AcDbBlockReference
  2
_OPEN
 10
1495.557756892301
 20
6154.554675010087
 30
0.0
 41
80.0
 42
80.0
 43
80.0
 50
180.0
  0
INSERT
  5
8357
330
8444
100
AcDbEntity
  8
3
 62
     0
100
AcDbBlockReference
  2
_OPEN
 10
3945.557756892302
 20
6154.554675010087
 30
0.0
 41
80.0
 42
80.0
 43
80.0
  0
TEXT
  5
83A8
330
8444
100
AcDbEntity
  8
3
 62
     0
100
AcDbText
 10
2480.56
 20
6042.149999999999
 30
0.0
 40
120.0
  1
2450
100
AcDbText
  0
POINT
  5
8359
330
8444
100
AcDbEntity
  8
DEFPOINTS
 62
     0
100
AcDbPoint
 10
1495.557756892301
 20
6519.308553199741
 30
0.0
  0
POINT
  5
835A
330
8444
100
AcDbEntity
  8
DEFPOINTS
 62
     0
100
AcDbPoint
 10
3945.557756892302
 20
6519.308553199739
 30
0.0
  0
POINT
  5
835B
330
8444
100
AcDbEntity
  8
DEFPOINTS
 62
     0
100
AcDbPoint
 10
3945.557756892302
 20
6154.554675010087
 30
0.0
  0
ENDBLK
  5
800F
330
8444
100
AcDbEntity
  8
0
100
AcDbBlockEnd
  0
BLOCK
  5
8447
330
8446
100
AcDbEntity
  8
0
100
AcDbBlockBegin
  2
*D13
 70
     1
 10
0.0
 20
0.0
 30
0.0
  3
*D13
  1

  0
LINE
  5
835C
330
8446
100
AcDbEntity
  8
3
 62
     0
100
AcDbLine
 10
1861.557756892302
 20
4772.929630863209
 30
0.0
 11
1861.557756892302
 21
5045.940663553165
 31
0.0
  0
LINE
  5
835D
330
8446
100
AcDbEntity
  8
3
 62
     0
100
AcDbLine
 10
3141.557756892302
 20
4772.929630863209
 30
0.0
 11
3141.557756892302
 21
5045.940663553165
 31
0.0
  0
LINE
  5
835E
330
8446
100
AcDbEntity
  8
3
 62
     0
100
AcDbLine
 10
1941.557756892302
 20
5005.940663553165
 30
0.0
 11
3061.557756892302
 21
5005.940663553165
 31
0.0
  0
INSERT
  5
835F
330
8446
100
AcDbEntity
  8
3
 62
     0
100
AcDbBlockReference
  2
_OPEN
 10
1861.557756892302
 20
5005.940663553165
 30
0.0
 41
80.0
 42
80.0
 43
80.0
 50
180.0
  0
INSERT
  5
8360
330
8446
100
AcDbEntity
  8
3
 62
     0
100
AcDbBlockReference
  2
_OPEN
 10
3141.557756892302
 20
5005.940663553165
 30
0.0
 41
80.0
 42
80.0
 43
80.0
  0
TEXT
  5
83A9
330
8446
100
AcDbEntity
  8
3
 62
     0
100
AcDbText
 10
2261.56
 20
4893.54
 30
0.0
 40
120.0
  1
1280
100
AcDbText
  0
POINT
  5
8362
330
8446
100
AcDbEntity
  8
DEFPOINTS
 62
     0
100
AcDbPoint
 10
1861.557756892302
 20
4752.929630863208
 30
0.0
  0
POINT
  5
8363
330
8446
100
AcDbEntity
  8
DEFPOINTS
 62
     0
100
AcDbPoint
 10
3141.557756892302
 20
4752.929630863208
 30
0.0
  0
POINT
  5
8364
330
8446
100
AcDbEntity
  8
DEFPOINTS
 62
     0
100
AcDbPoint
 10
3141.557756892302
 20
5005.940663553165
 30
0.0
  0
ENDBLK
  5
7FF9
330
8446
100
AcDbEntity
  8
0
100
AcDbBlockEnd
  0
BLOCK
  5
8449
330
8448
100
AcDbEntity
  8
0
100
AcDbBlockBegin
  2
*D14
 70
     1
 10
0.0
 20
0.0
 30
0.0
  3
*D14
  1

  0
LINE
  5
8365
330
8448
100
AcDbEntity
  8
3
 62
     0
100
AcDbLine
 10
1861.557756892302
 20
4772.929630863209
 30
0.0
 11
1861.557756892302
 21
5293.003506009694
 31
0.0
  0
LINE
  5
8366
330
8448
100
AcDbEntity
  8
3
 62
     0
100
AcDbLine
 10
3195.557756892303
 20
4851.366169112058
 30
0.0
 11
3195.557756892303
 21
5293.003506009694
 31
0.0
  0
LINE
  5
8367
330
8448
100
AcDbEntity
  8
3
 62
     0
100
AcDbLine
 10
1941.557756892302
 20
5253.003506009694
 30
0.0
 11
3115.557756892302
 21
5253.003506009694
 31
0.0
  0
INSERT
  5
8368
330
8448
100
AcDbEntity
  8
3
 62
     0
100
AcDbBlockReference
  2
_OPEN
 10
1861.557756892302
 20
5253.003506009694
 30
0.0
 41
80.0
 42
80.0
 43
80.0
 50
180.0
  0
INSERT
  5
8369
330
8448
100
AcDbEntity
  8
3
 62
     0
100
AcDbBlockReference
  2
_OPEN
 10
3195.557756892303
 20
5253.003506009694
 30
0.0
 41
80.0
 42
80.0
 43
80.0
  0
TEXT
  5
83AA
330
8448
100
AcDbEntity
  8
3
 62
     0
100
AcDbText
 10
2288.56
 20
5140.6
 30
0.0
 40
120.0
  1
1334
100
AcDbText
  0
POINT
  5
836B
330
8448
100
AcDbEntity
  8
DEFPOINTS
 62
     0
100
AcDbPoint
 10
1861.557756892302
 20
4752.929630863208
 30
0.0
  0
POINT
  5
836C
330
8448
100
AcDbEntity
  8
DEFPOINTS
 62
     0
100
AcDbPoint
 10
3195.557756892303
 20
4831.36616911206
 30
0.0
  0
POINT
  5
836D
330
8448
100
AcDbEntity
  8
DEFPOINTS
 62
     0
100
AcDbPoint
 10
3195.557756892303
 20
5253.003506009694
 30
0.0
  0
ENDBLK
  5
7FEE
330
8448
100
AcDbEntity
  8
0
100
AcDbBlockEnd
  0
BLOCK
  5
844B
330
844A
100
AcDbEntity
  8
0
100
AcDbBlockBegin
  2
*D15
 70
     1
 10
0.0
 20
0.0
 30
0.0
  3
*D15
  1

  0
LINE
  5
836E
330
844A
100
AcDbEntity
  8
3
 62
     0
100
AcDbLine
 10
3214.557756892301
 20
4752.929630863208
 30
0.0
 11
4399.792441257581
 21
4752.929630863208
 31
0.0
  0
LINE
  5
836F
330
844A
100
AcDbEntity
  8
3
 62
     0
100
AcDbLine
 10
4201.583893614581
 20
3927.929630863207
 30
0.0
 11
4399.792441257581
 21
3927.929630863207
 31
0.0
  0
LINE
  5
8370
330
844A
100
AcDbEntity
  8
3
 62
     0
100
AcDbLine
 10
4359.792441257581
 20
4672.929630863208
 30
0.0
 11
4359.792441257581
 21
4007.929630863207
 31
0.0
  0
INSERT
  5
8371
330
844A
100
AcDbEntity
  8
3
 62
     0
100
AcDbBlockReference
  2
_OPEN
 10
4359.792441257581
 20
4752.929630863208
 30
0.0
 41
80.0
 42
80.0
 43
80.0
 50
90.0
  0
INSERT
  5
8372
330
844A
100
AcDbEntity
  8
3
 62
     0
100
AcDbBlockReference
  2
_OPEN
 10
4359.792441257581
 20
3927.929630863207
 30
0.0
 41
80.0
 42
80.0
 43
80.0
 50
270.0
  0
TEXT
  5
83AB
330
844A
100
AcDbEntity
  8
3
 62
     0
100
AcDbText
 10
4019.789999999999
 20
4128.029999999999
 30
0.0
 40
120.0
  1
825
100
AcDbText
  0
POINT
  5
8374
330
844A
100
AcDbEntity
  8
DEFPOINTS
 62
     0
100
AcDbPoint
 10
3194.557756892301
 20
4752.929630863208
 30
0.0
  0
POINT
  5
8375
330
844A
100
AcDbEntity
  8
DEFPOINTS
 62
     0
100
AcDbPoint
 10
4181.583893614581
 20
3927.929630863207
 30
0.0
  0
POINT
  5
8376
330
844A
100
AcDbEntity
  8
DEFPOINTS
 62
     0
100
AcDbPoint
 10
4359.792441257581
 20
3927.929630863207
 30
0.0
  0
ENDBLK
  5
7FC2
330
844A
100
AcDbEntity
  8
0
100
AcDbBlockEnd
  0
BLOCK
  5
844D
330
844C
100
AcDbEntity
  8
0
100
AcDbBlockBegin
  2
*D16
 70
     1
 10
0.0
 20
0.0
 30
0.0
  3
*D16
  1

  0
LINE
  5
8377
330
844C
100
AcDbEntity
  8
3
 62
     0
100
AcDbLine
 10
4201.583893614581
 20
3927.929630863207
 30
0.0
 11
4399.792441257581
 21
3927.929630863207
 31
0.0
  0
LINE
  5
8378
330
844C
100
AcDbEntity
  8
3
 62
     0
100
AcDbLine
 10
3965.557756892302
 20
2817.929630863207
 30
0.0
 11
4399.792441257581
 21
2817.929630863207
 31
0.0
  0
LINE
  5
8379
330
844C
100
AcDbEntity
  8
3
 62
     0
100
AcDbLine
 10
4359.792441257581
 20
3847.929630863207
 30
0.0
 11
4359.792441257581
 21
2897.929630863207
 31
0.0
  0
INSERT
  5
837A
330
844C
100
AcDbEntity
  8
3
 62
     0
100
AcDbBlockReference
  2
_OPEN
 10
4359.792441257581
 20
3927.929630863207
 30
0.0
 41
80.0
 42
80.0
 43
80.0
 50
90.0
  0
INSERT
  5
837B
330
844C
100
AcDbEntity
  8
3
 62
     0
100
AcDbBlockReference
  2
_OPEN
 10
4359.792441257581
 20
2817.929630863207
 30
0.0
 41
80.0
 42
80.0
 43
80.0
 50
270.0
  0
TEXT
  5
83AC
330
844C
100
AcDbEntity
  8
3
 62
     0
100
AcDbText
 10
4019.789999999999
 20
3160.53
 30
0.0
 40
120.0
  1
1110
100
AcDbText
  0
POINT
  5
837D
330
844C
100
AcDbEntity
  8
DEFPOINTS
 62
     0
100
AcDbPoint
 10
4181.583893614581
 20
3927.929630863207
 30
0.0
  0
POINT
  5
837E
330
844C
100
AcDbEntity
  8
DEFPOINTS
 62
     0
100
AcDbPoint
 10
3945.557756892302
 20
2817.929630863207
 30
0.0
  0
POINT
  5
837F
330
844C
100
AcDbEntity
  8
DEFPOINTS
 62
     0
100
AcDbPoint
 10
4359.792441257581
 20
2817.929630863207
 30
0.0
  0
ENDBLK
  5
7FB7
330
844C
100
AcDbEntity
  8
0
100
AcDbBlockEnd
  0
BLOCK
  5
844F
330
844E
100
AcDbEntity
  8
0
100
AcDbBlockBegin
  2
*D17
 70
     1
 10
0.0
 20
0.0
 30
0.0
  3
*D17
  1

  0
LINE
  5
8380
330
844E
100
AcDbEntity
  8
3
 62
     0
100
AcDbLine
 10
3965.557756892302
 20
2797.929630863207
 30
0.0
 11
4399.792441257581
 21
2797.929630863207
 31
0.0
  0
LINE
  5
8381
330
844E
100
AcDbEntity
  8
3
 62
     0
100
AcDbLine
 10
3965.557756892302
 20
2732.929630863207
 30
0.0
 11
4399.792441257581
 21
2732.929630863207
 31
0.0
  0
LINE
  5
8382
330
844E
100
AcDbEntity
  8
3
 62
     0
100
AcDbLine
 10
4359.792441257581
 20
2877.929630863207
 30
0.0
 11
4359.792441257581
 21
2957.929630863207
 31
0.0
  0
LINE
  5
8383
330
844E
100
AcDbEntity
  8
3
 62
     0
100
AcDbLine
 10
4359.792441257581
 20
2652.929630863207
 30
0.0
 11
4359.792441257581
 21
2298.643916577493
 31
0.0
  0
LINE
  5
8384
330
844E
100
AcDbEntity
  8
3
 62
     0
100
AcDbLine
 10
4359.792441257581
 20
2797.929630863207
 30
0.0
 11
4359.792441257581
 21
2732.929630863207
 31
0.0
  0
INSERT
  5
8385
330
844E
100
AcDbEntity
  8
3
 62
     0
100
AcDbBlockReference
  2
_DOT
 10
4359.792441257581
 20
2797.929630863207
 30
0.0
 41
80.0
 42
80.0
 43
80.0
 50
270.0
  0
INSERT
  5
8386
330
844E
100
AcDbEntity
  8
3
 62
     0
100
AcDbBlockReference
  2
_OPEN
 10
4359.792441257581
 20
2732.929630863207
 30
0.0
 41
80.0
 42
80.0
 43
80.0
 50
90.0
  0
TEXT
  5
83AD
330
844E
100
AcDbEntity
  8
3
 62
     0
100
AcDbText
 10
4019.789999999999
 20
2223.39
 30
0.0
 40
120.0
  1
65
100
AcDbText
  0
POINT
  5
8388
330
844E
100
AcDbEntity
  8
DEFPOINTS
 62
     0
100
AcDbPoint
 10
3945.557756892302
 20
2797.929630863207
 30
0.0
  0
POINT
  5
8389
330
844E
100
AcDbEntity
  8
DEFPOINTS
 62
     0
100
AcDbPoint
 10
3945.557756892302
 20
2732.929630863207
 30
0.0
  0
POINT
  5
838A
330
844E
100
AcDbEntity
  8
DEFPOINTS
 62
     0
100
AcDbPoint
 10
4359.792441257581
 20
2732.929630863207
 30
0.0
  0
ENDBLK
  5
811A
330
844E
100
AcDbEntity
  8
0
100
AcDbBlockEnd
  0
BLOCK
  5
8456
330
8450
100
AcDbEntity
  8
0
100
AcDbBlockBegin
  2
_DOT
 70
     0
 10
0.0
 20
0.0
 30
0.0
  3
_DOT
  1

  0
LINE
  5
8128
330
8450
100
AcDbEntity
  8
0
  6
ByBlock
 62
     0
100
AcDbLine
 10
0.0
 20
0.0
 30
0.0
 11
-1.0
 21
-0.0000000000000284
 31
0.0
  0
LWPOLYLINE
  5
8129
330
8450
100
AcDbEntity
  8
0
  6
ByBlock
 62
     0
100
AcDbPolyline
 90
        2
 70
     1
 43
0.1666666666666666
 10
-0.0833333333333286
 20
-0.0000000000000284
 42
1.0
 10
0.0833333333333286
 20
-0.0000000000000284
 42
1.0
  0
ENDBLK
  5
810D
330
8450
100
AcDbEntity
  8
0
100
AcDbBlockEnd
  0
BLOCK
  5
8453
330
8452
100
AcDbEntity
  8
0
100
AcDbBlockBegin
  2
*D19
 70
     1
 10
0.0
 20
0.0
 30
0.0
  3
*D19
  1

  0
LINE
  5
838B
330
8452
100
AcDbEntity
  8
3
 62
     0
100
AcDbLine
 10
4092.557756892301
 20
3856.929630863207
 30
0.0
 11
4092.557756892301
 21
5293.003506009694
 31
0.0
  0
LINE
  5
838C
330
8452
100
AcDbEntity
  8
3
 62
     0
100
AcDbLine
 10
3275.557756892301
 20
5253.003506009694
 30
0.0
 11
4012.5577568923
 21
5253.003506009694
 31
0.0
  0
INSERT
  5
838D
330
8452
100
AcDbEntity
  8
3
 62
     0
100
AcDbBlockReference
  2
_OPEN
 10
3195.557756892303
 20
5253.003506009694
 30
0.0
 41
80.0
 42
80.0
 43
80.0
 50
180.0
  0
INSERT
  5
838E
330
8452
100
AcDbEntity
  8
3
 62
     0
100
AcDbBlockReference
  2
_OPEN
 10
4092.557756892301
 20
5253.003506009694
 30
0.0
 41
80.0
 42
80.0
 43
80.0
  0
TEXT
  5
83AE
330
8452
100
AcDbEntity
  8
3
 62
     0
100
AcDbText
 10
3404.06
 20
5140.6
 30
0.0
 40
120.0
  1
897
100
AcDbText
  0
POINT
  5
8390
330
8452
100
AcDbEntity
  8
DEFPOINTS
 62
     0
100
AcDbPoint
 10
3195.557756892303
 20
4831.36616911206
 30
0.0
  0
POINT
  5
8391
330
8452
100
AcDbEntity
  8
DEFPOINTS
 62
     0
100
AcDbPoint
 10
4092.557756892301
 20
3836.929630863208
 30
0.0
  0
POINT
  5
8392
330
8452
100
AcDbEntity
  8
DEFPOINTS
 62
     0
100
AcDbPoint
 10
4092.557756892301
 20
5253.003506009694
 30
0.0
  0
ENDBLK
  5
80D1
330
8452
100
AcDbEntity
  8
0
100
AcDbBlockEnd
  0
BLOCK
  5
8455
330
8454
100
AcDbEntity
  8
0
100
AcDbBlockBegin
  2
*D20
 70
     1
 10
0.0
 20
0.0
 30
0.0
  3
*D20
  1

  0
LINE
  5
8393
330
8454
100
AcDbEntity
  8
3
 62
     0
100
AcDbLine
 10
4092.557756892301
 20
3856.929630863207
 30
0.0
 11
4092.557756892301
 21
5560.793946915612
 31
0.0
  0
LINE
  5
8394
330
8454
100
AcDbEntity
  8
3
 62
     0
100
AcDbLine
 10
1495.557756892301
 20
2962.929630863207
 30
0.0
 11
1495.557756892302
 21
5560.793946915612
 31
0.0
  0
LINE
  5
8395
330
8454
100
AcDbEntity
  8
3
 62
     0
100
AcDbLine
 10
4012.5577568923
 20
5520.79394691561
 30
0.0
 11
1575.557756892302
 21
5520.79394691561
 31
0.0
  0
INSERT
  5
8396
330
8454
100
AcDbEntity
  8
3
 62
     0
100
AcDbBlockReference
  2
_OPEN
 10
4092.557756892301
 20
5520.79394691561
 30
0.0
 41
80.0
 42
80.0
 43
80.0
  0
INSERT
  5
8397
330
8454
100
AcDbEntity
  8
3
 62
     0
100
AcDbBlockReference
  2
_OPEN
 10
1495.557756892302
 20
5520.79394691561
 30
0.0
 41
80.0
 42
80.0
 43
80.0
 50
180.0
  0
TEXT
  5
83AF
330
8454
100
AcDbEntity
  8
3
 62
     0
100
AcDbText
 10
2704.19
 20
5408.39
 30
0.0
 40
120.0
  1
2597
100
AcDbText
  0
POINT
  5
8399
330
8454
100
AcDbEntity
  8
DEFPOINTS
 62
     0
100
AcDbPoint
 10
4092.557756892301
 20
3836.929630863208
 30
0.0
  0
POINT
  5
839A
330
8454
100
AcDbEntity
  8
DEFPOINTS
 62
     0
100
AcDbPoint
 10
1495.557756892301
 20
2942.929630863207
 30
0.0
  0
POINT
  5
839B
330
8454
100
AcDbEntity
  8
DEFPOINTS
 62
     0
100
AcDbPoint
 10
1495.557756892302
 20
5520.79394691561
 30
0.0
  0
ENDBLK
  5
80DD
330
8454
100
AcDbEntity
  8
0
100
AcDbBlockEnd
  0
BLOCK
  5
8458
330
8457
100
AcDbEntity
  8
0
100
AcDbBlockBegin
  2
*D21
 70
     1
 10
0.0
 20
0.0
 30
0.0
  3
*D21
  1

  0
LINE
  5
819F
330
8457
100
AcDbEntity
  8
0
  6
ByBlock
 62
     0
100
AcDbLine
 10
1495.557756892301
 20
2712.929630863207
 30
0.0
 11
1495.557756892301
 21
2452.637852619049
 31
0.0
  0
LINE
  5
81A0
330
8457
100
AcDbEntity
  8
0
  6
ByBlock
 62
     0
100
AcDbLine
 10
3195.557756892301
 20
2712.929630863207
 30
0.0
 11
3195.557756892301
 21
2452.637852619049
 31
0.0
  0
LINE
  5
81A1
330
8457
100
AcDbEntity
  8
0
  6
ByBlock
 62
     0
100
AcDbLine
 10
1575.557756892301
 20
2492.637852619049
 30
0.0
 11
3115.557756892301
 21
2492.637852619049
 31
0.0
  0
INSERT
  5
81A2
330
8457
100
AcDbEntity
  8
0
  6
ByBlock
 62
     0
100
AcDbBlockReference
  2
_OPEN
 10
1495.557756892301
 20
2492.637852619049
 30
0.0
 41
80.0
 42
80.0
 43
80.0
 50
180.0
  0
INSERT
  5
81A3
330
8457
100
AcDbEntity
  8
0
  6
ByBlock
 62
     0
100
AcDbBlockReference
  2
_OPEN
 10
3195.557756892301
 20
2492.637852619049
 30
0.0
 41
80.0
 42
80.0
 43
80.0
  0
TEXT
  5
81A4
330
8457
100
AcDbEntity
  8
3
 62
     0
100
AcDbText
 10
2145.557756892301
 20
2532.637852619049
 30
0.0
 40
120.0
  1
1700
100
AcDbText
  0
POINT
  5
81A5
330
8457
100
AcDbEntity
  8
DEFPOINTS
  6
ByBlock
 62
     0
100
AcDbPoint
 10
1495.557756892301
 20
2732.929630863207
 30
0.0
  0
POINT
  5
81A6
330
8457
100
AcDbEntity
  8
DEFPOINTS
  6
ByBlock
 62
     0
100
AcDbPoint
 10
3195.557756892301
 20
2732.929630863207
 30
0.0
  0
POINT
  5
81A7
330
8457
100
AcDbEntity
  8
DEFPOINTS
  6
ByBlock
 62
     0
100
AcDbPoint
 10
3195.557756892301
 20
2492.637852619049
 30
0.0
  0
ENDBLK
  5
81A8
330
8457
100
AcDbEntity
  8
0
100
AcDbBlockEnd
  0
BLOCK
  5
845A
330
8459
100
AcDbEntity
  8
0
100
AcDbBlockBegin
  2
*D22
 70
     1
 10
0.0
 20
0.0
 30
0.0
  3
*D22
  1

  0
LINE
  5
81AC
330
8459
100
AcDbEntity
  8
0
  6
ByBlock
 62
     0
100
AcDbLine
 10
3195.557756892301
 20
2712.929630863207
 30
0.0
 11
3195.557756892301
 21
2452.637852619049
 31
0.0
  0
LINE
  5
81AD
330
8459
100
AcDbEntity
  8
0
  6
ByBlock
 62
     0
100
AcDbLine
 10
3945.557756892302
 20
2712.929630863207
 30
0.0
 11
3945.557756892302
 21
2452.637852619049
 31
0.0
  0
LINE
  5
81AE
330
8459
100
AcDbEntity
  8
0
  6
ByBlock
 62
     0
100
AcDbLine
 10
3275.557756892301
 20
2492.637852619049
 30
0.0
 11
3865.557756892302
 21
2492.637852619049
 31
0.0
  0
INSERT
  5
81AF
330
8459
100
AcDbEntity
  8
0
  6
ByBlock
 62
     0
100
AcDbBlockReference
  2
_OPEN
 10
3195.557756892301
 20
2492.637852619049
 30
0.0
 41
80.0
 42
80.0
 43
80.0
 50
180.0
  0
INSERT
  5
81B0
330
8459
100
AcDbEntity
  8
0
  6
ByBlock
 62
     0
100
AcDbBlockReference
  2
_OPEN
 10
3945.557756892302
 20
2492.637852619049
 30
0.0
 41
80.0
 42
80.0
 43
80.0
  0
TEXT
  5
81B1
330
8459
100
AcDbEntity
  8
3
 62
     0
100
AcDbText
 10
3416.272042606588
 20
2532.637852619049
 30
0.0
 40
120.0
  1
750
100
AcDbText
  0
POINT
  5
81B2
330
8459
100
AcDbEntity
  8
DEFPOINTS
  6
ByBlock
 62
     0
100
AcDbPoint
 10
3195.557756892301
 20
2732.929630863207
 30
0.0
  0
POINT
  5
81B3
330
8459
100
AcDbEntity
  8
DEFPOINTS
  6
ByBlock
 62
     0
100
AcDbPoint
 10
3945.557756892302
 20
2732.929630863207
 30
0.0
  0
POINT
  5
81B4
330
8459
100
AcDbEntity
  8
DEFPOINTS
  6
ByBlock
 62
     0
100
AcDbPoint
 10
3945.557756892302
 20
2492.637852619049
 30
0.0
  0
ENDBLK
  5
81B5
330
8459
100
AcDbEntity
  8
0
100
AcDbBlockEnd
  0
BLOCK
  5
845C
330
845B
100
AcDbEntity
  8
0
100
AcDbBlockBegin
  2
*D23
 70
     1
 10
0.0
 20
0.0
 30
0.0
  3
*D23
  1

  0
LINE
  5
81C6
330
845B
100
AcDbEntity
  8
0
  6
ByBlock
 62
     0
100
AcDbLine
 10
5193.65926290269
 20
2712.929630863207
 30
0.0
 11
5193.65926290269
 21
2452.637852619049
 31
0.0
  0
LINE
  5
81C7
330
845B
100
AcDbEntity
  8
0
  6
ByBlock
 62
     0
100
AcDbLine
 10
6395.659262902686
 20
2712.929630863207
 30
0.0
 11
6395.659262902686
 21
2452.637852619049
 31
0.0
  0
LINE
  5
81C8
330
845B
100
AcDbEntity
  8
0
  6
ByBlock
 62
     0
100
AcDbLine
 10
5273.65926290269
 20
2492.637852619049
 30
0.0
 11
6315.659262902687
 21
2492.637852619049
 31
0.0
  0
INSERT
  5
81C9
330
845B
100
AcDbEntity
  8
0
  6
ByBlock
 62
     0
100
AcDbBlockReference
  2
_OPEN
 10
5193.65926290269
 20
2492.637852619049
 30
0.0
 41
80.0
 42
80.0
 43
80.0
 50
180.0
  0
INSERT
  5
81CA
330
845B
100
AcDbEntity
  8
0
  6
ByBlock
 62
     0
100
AcDbBlockReference
  2
_OPEN
 10
6395.659262902686
 20
2492.637852619049
 30
0.0
 41
80.0
 42
80.0
 43
80.0
  0
TEXT
  5
81CB
330
845B
100
AcDbEntity
  8
3
 62
     0
100
AcDbText
 10
5594.659262902688
 20
2532.637852619049
 30
0.0
 40
120.0
  1
1202
100
AcDbText
  0
POINT
  5
81CC
330
845B
100
AcDbEntity
  8
DEFPOINTS
  6
ByBlock
 62
     0
100
AcDbPoint
 10
5193.65926290269
 20
2732.929630863207
 30
0.0
  0
POINT
  5
81CD
330
845B
100
AcDbEntity
  8
DEFPOINTS
  6
ByBlock
 62
     0
100
AcDbPoint
 10
6395.659262902686
 20
2732.929630863207
 30
0.0
  0
POINT
  5
81CE
330
845B
100
AcDbEntity
  8
DEFPOINTS
  6
ByBlock
 62
     0
100
AcDbPoint
 10
6395.659262902686
 20
2492.637852619049
 30
0.0
  0
ENDBLK
  5
81CF
330
845B
100
AcDbEntity
  8
0
100
AcDbBlockEnd
  0
BLOCK
  5
845E
330
845D
100
AcDbEntity
  8
0
100
AcDbBlockBegin
  2
*D24
 70
     1
 10
0.0
 20
0.0
 30
0.0
  3
*D24
  1

  0
LINE
  5
81D3
330
845D
100
AcDbEntity
  8
0
  6
ByBlock
 62
     0
100
AcDbLine
 10
6395.659262902686
 20
2712.929630863207
 30
0.0
 11
6395.659262902686
 21
2452.637852619049
 31
0.0
  0
LINE
  5
81D4
330
845D
100
AcDbEntity
  8
0
  6
ByBlock
 62
     0
100
AcDbLine
 10
7313.659262902691
 20
2712.929630863207
 30
0.0
 11
7313.659262902691
 21
2452.637852619049
 31
0.0
  0
LINE
  5
81D5
330
845D
100
AcDbEntity
  8
0
  6
ByBlock
 62
     0
100
AcDbLine
 10
6475.659262902687
 20
2492.637852619049
 30
0.0
 11
7233.65926290269
 21
2492.637852619049
 31
0.0
  0
INSERT
  5
81D6
330
845D
100
AcDbEntity
  8
0
  6
ByBlock
 62
     0
100
AcDbBlockReference
  2
_OPEN
 10
6395.659262902686
 20
2492.637852619049
 30
0.0
 41
80.0
 42
80.0
 43
80.0
 50
180.0
  0
INSERT
  5
81D7
330
845D
100
AcDbEntity
  8
0
  6
ByBlock
 62
     0
100
AcDbBlockReference
  2
_OPEN
 10
7313.659262902691
 20
2492.637852619049
 30
0.0
 41
80.0
 42
80.0
 43
80.0
  0
TEXT
  5
81D8
330
845D
100
AcDbEntity
  8
3
 62
     0
100
AcDbText
 10
6711.802120045544
 20
2532.637852619049
 30
0.0
 40
120.0
  1
918
100
AcDbText
  0
POINT
  5
81D9
330
845D
100
AcDbEntity
  8
DEFPOINTS
  6
ByBlock
 62
     0
100
AcDbPoint
 10
6395.659262902686
 20
2732.929630863207
 30
0.0
  0
POINT
  5
81DA
330
845D
100
AcDbEntity
  8
DEFPOINTS
  6
ByBlock
 62
     0
100
AcDbPoint
 10
7313.659262902691
 20
2732.929630863207
 30
0.0
  0
POINT
  5
81DB
330
845D
100
AcDbEntity
  8
DEFPOINTS
  6
ByBlock
 62
     0
100
AcDbPoint
 10
7313.659262902691
 20
2492.637852619049
 30
0.0
  0
ENDBLK
  5
81DC
330
845D
100
AcDbEntity
  8
0
100
AcDbBlockEnd
  0
BLOCK
  5
8460
330
845F
100
AcDbEntity
  8
0
100
AcDbBlockBegin
  2
_NONE
 70
     0
 10
0.0
 20
0.0
 30
0.0
  3
_NONE
  1

  0
CIRCLE
  5
81E0
330
845F
100
AcDbEntity
  8
0
  6
ByBlock
 62
     0
100
AcDbCircle
 10
0.0
 20
0.0
 30
0.0
 40
0.25
  0
ENDBLK
  5
81E1
330
845F
100
AcDbEntity
  8
0
100
AcDbBlockEnd
  0
BLOCK
  5
8462
330
8461
100
AcDbEntity
  8
0
100
AcDbBlockBegin
  2
*D26
 70
     1
 10
0.0
 20
0.0
 30
0.0
  3
*D26
  1

  0
LINE
  5
8228
330
8461
100
AcDbEntity
  8
0
  6
ByBlock
 62
     0
100
AcDbLine
 10
4361.324219005356
 20
2797.929630863207
 30
0.0
 11
4361.324219005356
 21
2797.929630863207
 31
0.0
  0
LINE
  5
8229
330
8461
100
AcDbEntity
  8
0
  6
ByBlock
 62
     0
100
AcDbLine
 10
4361.324219005356
 20
2817.929630863207
 30
0.0
 11
4361.324219005356
 21
2977.929630863207
 31
0.0
  0
TEXT
  5
822A
330
8461
100
AcDbEntity
  8
3
 62
     0
100
AcDbText
 10
4592.752790433928
 20
2525.643916577493
 30
0.0
 40
120.0
  1
   (20)
 50
90.0
100
AcDbText
  0
LINE
  5
822B
330
8461
100
AcDbEntity
  8
0
  6
ByBlock
 62
     0
100
AcDbLine
 10
4361.324219005356
 20
2797.929630863207
 30
0.0
 11
4361.324219005356
 21
2817.929630863207
 31
0.0
  0
POINT
  5
822C
330
8461
100
AcDbEntity
  8
DEFPOINTS
  6
ByBlock
 62
     0
100
AcDbPoint
 10
3945.557756892302
 20
2797.929630863207
 30
0.0
  0
POINT
  5
822D
330
8461
100
AcDbEntity
  8
DEFPOINTS
  6
ByBlock
 62
     0
100
AcDbPoint
 10
3945.557756892302
 20
2817.929630863207
 30
0.0
  0
POINT
  5
822E
330
8461
100
AcDbEntity
  8
DEFPOINTS
  6
ByBlock
 62
     0
100
AcDbPoint
 10
4361.324219005356
 20
2817.929630863207
 30
0.0
  0
ENDBLK
  5
822F
330
8461
100
AcDbEntity
  8
0
100
AcDbBlockEnd
  0
BLOCK
  5
8464
330
8463
100
AcDbEntity
  8
0
100
AcDbBlockBegin
  2
*D27
 70
     1
 10
0.0
 20
0.0
 30
0.0
  3
*D27
  1

  0
LINE
  5
81EF
330
8463
100
AcDbEntity
  8
0
  6
ByBlock
 62
     0
100
AcDbLine
 10
3965.557756892302
 20
2732.929630863207
 30
0.0
 11
4729.266613523555
 21
2732.929630863207
 31
0.0
  0
LINE
  5
81F0
330
8463
100
AcDbEntity
  8
0
  6
ByBlock
 62
     0
100
AcDbLine
 10
3234.557756892302
 20
4752.929630863208
 30
0.0
 11
4729.266613523555
 21
4752.929630863208
 31
0.0
  0
LINE
  5
81F1
330
8463
100
AcDbEntity
  8
0
  6
ByBlock
 62
     0
100
AcDbLine
 10
4689.266613523556
 20
2812.929630863207
 30
0.0
 11
4689.266613523556
 21
4672.929630863208
 31
0.0
  0
INSERT
  5
81F2
330
8463
100
AcDbEntity
  8
0
  6
ByBlock
 62
     0
100
AcDbBlockReference
  2
_OPEN
 10
4689.266613523556
 20
2732.929630863207
 30
0.0
 41
80.0
 42
80.0
 43
80.0
 50
270.0
  0
INSERT
  5
81F3
330
8463
100
AcDbEntity
  8
0
  6
ByBlock
 62
     0
100
AcDbBlockReference
  2
_OPEN
 10
4689.266613523556
 20
4752.929630863208
 30
0.0
 41
80.0
 42
80.0
 43
80.0
 50
90.0
  0
TEXT
  5
81F4
330
8463
100
AcDbEntity
  8
3
 62
     0
100
AcDbText
 10
4597.838042094984
 20
3454.358202291778
 30
0.0
 40
120.0
  1
(2020)
 50
90.0
100
AcDbText
  0
POINT
  5
81F5
330
8463
100
AcDbEntity
  8
DEFPOINTS
  6
ByBlock
 62
     0
100
AcDbPoint
 10
3945.557756892302
 20
2732.929630863207
 30
0.0
  0
POINT
  5
81F6
330
8463
100
AcDbEntity
  8
DEFPOINTS
  6
ByBlock
 62
     0
100
AcDbPoint
 10
3214.557756892301
 20
4752.929630863208
 30
0.0
  0
POINT
  5
81F7
330
8463
100
AcDbEntity
  8
DEFPOINTS
  6
ByBlock
 62
     0
100
AcDbPoint
 10
4689.266613523556
 20
4752.929630863208
 30
0.0
  0
ENDBLK
  5
81F8
330
8463
100
AcDbEntity
  8
0
100
AcDbBlockEnd
  0
BLOCK
  5
84C5
330
84C4
100
AcDbEntity
  8
0
100
AcDbBlockBegin
  2
*D28
 70
     1
 10
0.0
 20
0.0
 30
0.0
  3
*D28
  1

  0
LINE
  5
8503
330
84C4
100
AcDbEntity
  8
3
 62
     0
370
    -2
100
AcDbLine
 10
7265.659262902689
 20
4552.929630863207
 30
0.0
 11
7696.928887815194
 21
4552.929630863207
 31
0.0
  0
LINE
  5
8504
330
84C4
100
AcDbEntity
  8
3
 62
     0
370
    -2
100
AcDbLine
 10
7265.659262902689
 20
3302.929630863207
 30
0.0
 11
7696.928887815194
 21
3302.929630863207
 31
0.0
  0
LINE
  5
8505
330
84C4
100
AcDbEntity
  8
3
 62
     0
370
    -2
100
AcDbLine
 10
7656.928887815194
 20
4472.929630863207
 30
0.0
 11
7656.928887815194
 21
3382.929630863207
 31
0.0
  0
INSERT
  5
8506
330
84C4
100
AcDbEntity
  8
3
 62
     0
370
    -2
100
AcDbBlockReference
  2
_OPEN
 10
7656.928887815194
 20
4552.929630863207
 30
0.0
 41
80.0
 42
80.0
 43
80.0
 50
90.0
  0
INSERT
  5
8507
330
84C4
100
AcDbEntity
  8
3
 62
     0
370
    -2
100
AcDbBlockReference
  2
_OPEN
 10
7656.928887815194
 20
3302.929630863207
 30
0.0
 41
80.0
 42
80.0
 43
80.0
 50
270.0
  0
MTEXT
  5
8508
330
84C4
100
AcDbEntity
  8
3
 62
     0
100
AcDbMText
 10
7556.928887815193
 20
3927.929630863209
 30
0.0
 40
120.0
 41
0.0
 71
     5
 72
     1
  1
\A1;\U+03C61250
 11
0.0000000000000001
 21
1.0
 31
0.0
 73
     1
 44
1.0
1001
ACAD
1000
MTEXTBEGIN
1070
    73
1070
     1
1070
    44
1040
1.0
1070
    74
1070
     0
1000
MTEXTEND
  0
POINT
  5
8509
330
84C4
100
AcDbEntity
  8
DEFPOINTS
 62
     0
100
AcDbPoint
 10
7245.659262902688
 20
4552.929630863207
 30
0.0
  0
POINT
  5
850A
330
84C4
100
AcDbEntity
  8
DEFPOINTS
 62
     0
100
AcDbPoint
 10
7245.659262902688
 20
3302.929630863207
 30
0.0
  0
POINT
  5
850B
330
84C4
100
AcDbEntity
  8
DEFPOINTS
 62
     0
100
AcDbPoint
 10
7656.928887815194
 20
3302.929630863207
 30
0.0
  0
ENDBLK
  5
84C6
330
84C4
100
AcDbEntity
  8
0
100
AcDbBlockEnd
  0
BLOCK
  5
84D2
330
84D1
100
AcDbEntity
  8
0
100
AcDbBlockBegin
  2
*D29
 70
     1
 10
0.0
 20
0.0
 30
0.0
  3
*D29
  1

  0
LINE
  5
84D4
330
84D1
100
AcDbEntity
  8
3
 62
     0
370
    -2
100
AcDbLine
 10
5545.659262902689
 20
4772.929630863209
 30
0.0
 11
5545.659262902689
 21
5025.952180251301
 31
0.0
  0
LINE
  5
84D5
330
84D1
100
AcDbEntity
  8
3
 62
     0
370
    -2
100
AcDbLine
 10
7245.659262902688
 20
4772.929630863209
 30
0.0
 11
7245.659262902688
 21
5025.952180251301
 31
0.0
  0
LINE
  5
84D6
330
84D1
100
AcDbEntity
  8
3
 62
     0
370
    -2
100
AcDbLine
 10
5625.659262902689
 20
4985.952180251301
 30
0.0
 11
7165.659262902689
 21
4985.952180251301
 31
0.0
  0
INSERT
  5
84D7
330
84D1
100
AcDbEntity
  8
3
 62
     0
370
    -2
100
AcDbBlockReference
  2
_OPEN
 10
5545.659262902689
 20
4985.952180251301
 30
0.0
 41
80.0
 42
80.0
 43
80.0
 50
180.0
  0
INSERT
  5
84D8
330
84D1
100
AcDbEntity
  8
3
 62
     0
370
    -2
100
AcDbBlockReference
  2
_OPEN
 10
7245.659262902688
 20
4985.952180251301
 30
0.0
 41
80.0
 42
80.0
 43
80.0
  0
MTEXT
  5
84D9
330
84D1
100
AcDbEntity
  8
3
 62
     0
100
AcDbMText
 10
6395.65926290269
 20
5085.9521802513
 30
0.0
 40
120.0
 41
0.0
 71
     5
 72
     1
  1
\A1;1700
 73
     1
 44
1.0
1001
ACAD
1000
MTEXTBEGIN
1070
    73
1070
     1
1070
    44
1040
1.0
1070
    74
1070
     0
1000
MTEXTEND
  0
POINT
  5
84DA
330
84D1
100
AcDbEntity
  8
DEFPOINTS
 62
     0
100
AcDbPoint
 10
5545.659262902689
 20
4752.929630863208
 30
0.0
  0
POINT
  5
84DB
330
84D1
100
AcDbEntity
  8
DEFPOINTS
 62
     0
100
AcDbPoint
 10
7245.659262902688
 20
4752.929630863208
 30
0.0
  0
POINT
  5
84DC
330
84D1
100
AcDbEntity
  8
DEFPOINTS
 62
     0
100
AcDbPoint
 10
7245.659262902688
 20
4985.952180251301
 30
0.0
  0
ENDBLK
  5
84D3
330
84D1
100
AcDbEntity
  8
0
100
AcDbBlockEnd
  0
BLOCK
  5
84DF
330
84DE
100
AcDbEntity
  8
0
100
AcDbBlockBegin
  2
*D30
 70
     1
 10
0.0
 20
0.0
 30
0.0
  3
*D30
  1

  0
LINE
  5
854B
330
84DE
100
AcDbEntity
  8
3
 62
     0
370
    -2
100
AcDbLine
 10
5115.659262902688
 20
4327.929630863208
 30
0.0
 11
5115.659262902688
 21
5278.915485110204
 31
0.0
  0
LINE
  5
854C
330
84DE
100
AcDbEntity
  8
3
 62
     0
370
    -2
100
AcDbLine
 10
6395.65926290269
 20
5165.952180251301
 30
0.0
 11
6395.65926290269
 21
5278.915485110204
 31
0.0
  0
LINE
  5
854D
330
84DE
100
AcDbEntity
  8
3
 62
     0
370
    -2
100
AcDbLine
 10
5195.659262902689
 20
5238.915485110203
 30
0.0
 11
6315.65926290269
 21
5238.915485110203
 31
0.0
  0
INSERT
  5
854E
330
84DE
100
AcDbEntity
  8
3
 62
     0
370
    -2
100
AcDbBlockReference
  2
_OPEN
 10
5115.659262902688
 20
5238.915485110203
 30
0.0
 41
80.0
 42
80.0
 43
80.0
 50
180.0
  0
INSERT
  5
854F
330
84DE
100
AcDbEntity
  8
3
 62
     0
370
    -2
100
AcDbBlockReference
  2
_OPEN
 10
6395.65926290269
 20
5238.915485110203
 30
0.0
 41
80.0
 42
80.0
 43
80.0
  0
MTEXT
  5
8550
330
84DE
100
AcDbEntity
  8
3
 62
     0
100
AcDbMText
 10
5755.659262902689
 20
5370.344056538774
 30
0.0
 40
120.0
 41
0.0
 71
     5
 72
     1
  1
\A1;(1280)
 73
     1
 44
1.0
1001
ACAD
1000
MTEXTBEGIN
1070
    73
1070
     1
1070
    44
1040
1.0
1070
    74
1070
     0
1000
MTEXTEND
  0
POINT
  5
8551
330
84DE
100
AcDbEntity
  8
DEFPOINTS
 62
     0
100
AcDbPoint
 10
5115.659262902688
 20
4307.929630863208
 30
0.0
  0
POINT
  5
8552
330
84DE
100
AcDbEntity
  8
DEFPOINTS
 62
     0
100
AcDbPoint
 10
6395.65926290269
 20
5145.952180251301
 30
0.0
  0
POINT
  5
8553
330
84DE
100
AcDbEntity
  8
DEFPOINTS
 62
     0
100
AcDbPoint
 10
6395.65926290269
 20
5238.915485110203
 30
0.0
  0
ENDBLK
  5
84E0
330
84DE
100
AcDbEntity
  8
0
100
AcDbBlockEnd
  0
BLOCK
  5
84EC
330
84EB
100
AcDbEntity
  8
0
100
AcDbBlockBegin
  2
*D31
 70
     1
 10
0.0
 20
0.0
 30
0.0
  3
*D31
  1

  0
LINE
  5
8542
330
84EB
100
AcDbEntity
  8
3
 62
     0
370
    -2
100
AcDbLine
 10
6395.65926290269
 20
5165.952180251301
 30
0.0
 11
6395.65926290269
 21
5278.915485110204
 31
0.0
  0
LINE
  5
8543
330
84EB
100
AcDbEntity
  8
3
 62
     0
370
    -2
100
AcDbLine
 10
7415.65926290269
 20
3871.929630863207
 30
0.0
 11
7415.65926290269
 21
5278.915485110204
 31
0.0
  0
LINE
  5
8544
330
84EB
100
AcDbEntity
  8
3
 62
     0
370
    -2
100
AcDbLine
 10
6475.65926290269
 20
5238.915485110203
 30
0.0
 11
7335.659262902691
 21
5238.915485110203
 31
0.0
  0
INSERT
  5
8545
330
84EB
100
AcDbEntity
  8
3
 62
     0
370
    -2
100
AcDbBlockReference
  2
_OPEN
 10
6395.65926290269
 20
5238.915485110203
 30
0.0
 41
80.0
 42
80.0
 43
80.0
 50
180.0
  0
INSERT
  5
8546
330
84EB
100
AcDbEntity
  8
3
 62
     0
370
    -2
100
AcDbBlockReference
  2
_OPEN
 10
7415.65926290269
 20
5238.915485110203
 30
0.0
 41
80.0
 42
80.0
 43
80.0
  0
MTEXT
  5
8547
330
84EB
100
AcDbEntity
  8
3
 62
     0
100
AcDbMText
 10
6905.659262902689
 20
5370.344056538774
 30
0.0
 40
120.0
 41
0.0
 71
     5
 72
     1
  1
\A1;(1020)
 73
     1
 44
1.0
1001
ACAD
1000
MTEXTBEGIN
1070
    73
1070
     1
1070
    44
1040
1.0
1070
    74
1070
     0
1000
MTEXTEND
  0
POINT
  5
8548
330
84EB
100
AcDbEntity
  8
DEFPOINTS
 62
     0
100
AcDbPoint
 10
6395.65926290269
 20
5145.952180251301
 30
0.0
  0
POINT
  5
8549
330
84EB
100
AcDbEntity
  8
DEFPOINTS
 62
     0
100
AcDbPoint
 10
7415.65926290269
 20
3851.929630863207
 30
0.0
  0
POINT
  5
854A
330
84EB
100
AcDbEntity
  8
DEFPOINTS
 62
     0
100
AcDbPoint
 10
7415.65926290269
 20
5238.915485110203
 30
0.0
  0
ENDBLK
  5
84ED
330
84EB
100
AcDbEntity
  8
0
100
AcDbBlockEnd
  0
BLOCK
  5
8556
330
8555
100
AcDbEntity
  8
0
100
AcDbBlockBegin
  2
*D32
 70
     1
 10
0.0
 20
0.0
 30
0.0
  3
*D32
  1

  0
LINE
  5
85A2
330
8555
100
AcDbEntity
  8
3
 62
     0
370
    -2
100
AcDbLine
 10
4191.384877614022
 20
7721.308553199742
 30
0.0
 11
5438.989838232679
 21
7721.308553199742
 31
0.0
  0
LINE
  5
85A3
330
8555
100
AcDbEntity
  8
3
 62
     0
370
    -2
100
AcDbLine
 10
3595.557756892301
 20
6441.308553199741
 30
0.0
 11
5438.989838232679
 21
6441.308553199741
 31
0.0
  0
LINE
  5
85A4
330
8555
100
AcDbEntity
  8
3
 62
     0
370
    -2
100
AcDbLine
 10
5398.989838232679
 20
7641.308553199742
 30
0.0
 11
5398.989838232679
 21
6521.308553199741
 31
0.0
  0
INSERT
  5
85A5
330
8555
100
AcDbEntity
  8
3
 62
     0
370
    -2
100
AcDbBlockReference
  2
_OPEN
 10
5398.989838232679
 20
7721.308553199742
 30
0.0
 41
80.0
 42
80.0
 43
80.0
 50
90.0
  0
INSERT
  5
85A6
330
8555
100
AcDbEntity
  8
3
 62
     0
370
    -2
100
AcDbBlockReference
  2
_OPEN
 10
5398.989838232679
 20
6441.308553199741
 30
0.0
 41
80.0
 42
80.0
 43
80.0
 50
270.0
  0
MTEXT
  5
85A7
330
8555
100
AcDbEntity
  8
3
 62
     0
100
AcDbMText
 10
5298.989838232677
 20
7081.308553199743
 30
0.0
 40
120.0
 41
0.0
 71
     5
 72
     1
  1
\A1;1280
 11
0.0000000000000001
 21
1.0
 31
0.0
 73
     1
 44
1.0
1001
ACAD
1000
MTEXTBEGIN
1070
    73
1070
     1
1070
    44
1040
1.0
1070
    74
1070
     0
1000
MTEXTEND
  0
POINT
  5
85A8
330
8555
100
AcDbEntity
  8
DEFPOINTS
 62
     0
100
AcDbPoint
 10
4171.384877614022
 20
7721.308553199742
 30
0.0
  0
POINT
  5
85A9
330
8555
100
AcDbEntity
  8
DEFPOINTS
 62
     0
100
AcDbPoint
 10
3575.557756892301
 20
6441.308553199741
 30
0.0
  0
POINT
  5
85AA
330
8555
100
AcDbEntity
  8
DEFPOINTS
 62
     0
100
AcDbPoint
 10
5398.989838232679
 20
6441.308553199741
 30
0.0
  0
ENDBLK
  5
8557
330
8555
100
AcDbEntity
  8
0
100
AcDbBlockEnd
  0
BLOCK
  5
8563
330
8562
100
AcDbEntity
  8
0
100
AcDbBlockBegin
  2
*D33
 70
     1
 10
0.0
 20
0.0
 30
0.0
  3
*D33
  1

  0
LINE
  5
8565
330
8562
100
AcDbEntity
  8
3
 62
     0
370
    -2
100
AcDbLine
 10
1495.557756892301
 20
7539.308553199742
 30
0.0
 11
1495.557756892301
 21
8883.944691704925
 31
0.0
  0
LINE
  5
8566
330
8562
100
AcDbEntity
  8
3
 62
     0
370
    -2
100
AcDbLine
 10
2445.557756892303
 20
8659.308553199737
 30
0.0
 11
2445.557756892303
 21
8883.944691704925
 31
0.0
  0
LINE
  5
8567
330
8562
100
AcDbEntity
  8
3
 62
     0
370
    -2
100
AcDbLine
 10
1575.557756892301
 20
8843.944691704926
 30
0.0
 11
2365.557756892303
 21
8843.944691704926
 31
0.0
  0
INSERT
  5
8568
330
8562
100
AcDbEntity
  8
3
 62
     0
370
    -2
100
AcDbBlockReference
  2
_OPEN
 10
1495.557756892301
 20
8843.944691704926
 30
0.0
 41
80.0
 42
80.0
 43
80.0
 50
180.0
  0
INSERT
  5
8569
330
8562
100
AcDbEntity
  8
3
 62
     0
370
    -2
100
AcDbBlockReference
  2
_OPEN
 10
2445.557756892303
 20
8843.944691704926
 30
0.0
 41
80.0
 42
80.0
 43
80.0
  0
MTEXT
  5
856A
330
8562
100
AcDbEntity
  8
3
 62
     0
100
AcDbMText
 10
1970.557756892302
 20
8943.944691704926
 30
0.0
 40
120.0
 41
0.0
 71
     5
 72
     1
  1
\A1;950
 73
     1
 44
1.0
1001
ACAD
1000
MTEXTBEGIN
1070
    73
1070
     1
1070
    44
1040
1.0
1070
    74
1070
     0
1000
MTEXTEND
  0
POINT
  5
856B
330
8562
100
AcDbEntity
  8
DEFPOINTS
 62
     0
100
AcDbPoint
 10
1495.557756892301
 20
7519.308553199741
 30
0.0
  0
POINT
  5
856C
330
8562
100
AcDbEntity
  8
DEFPOINTS
 62
     0
100
AcDbPoint
 10
2445.557756892303
 20
8639.308553199738
 30
0.0
  0
POINT
  5
856D
330
8562
100
AcDbEntity
  8
DEFPOINTS
 62
     0
100
AcDbPoint
 10
2445.557756892303
 20
8843.944691704926
 30
0.0
  0
ENDBLK
  5
8564
330
8562
100
AcDbEntity
  8
0
100
AcDbBlockEnd
  0
BLOCK
  5
8570
330
856F
100
AcDbEntity
  8
0
100
AcDbBlockBegin
  2
*D34
 70
     1
 10
0.0
 20
0.0
 30
0.0
  3
*D34
  1

  0
LINE
  5
8572
330
856F
100
AcDbEntity
  8
3
 62
     0
370
    -2
100
AcDbLine
 10
2445.557756892303
 20
8659.308553199737
 30
0.0
 11
2445.557756892303
 21
8883.944691704925
 31
0.0
  0
LINE
  5
8573
330
856F
100
AcDbEntity
  8
3
 62
     0
370
    -2
100
AcDbLine
 10
3945.557756892302
 20
8659.308553199737
 30
0.0
 11
3945.557756892302
 21
8883.944691704925
 31
0.0
  0
LINE
  5
8574
330
856F
100
AcDbEntity
  8
3
 62
     0
370
    -2
100
AcDbLine
 10
2525.557756892303
 20
8843.944691704926
 30
0.0
 11
3865.557756892302
 21
8843.944691704926
 31
0.0
  0
INSERT
  5
8575
330
856F
100
AcDbEntity
  8
3
 62
     0
370
    -2
100
AcDbBlockReference
  2
_OPEN
 10
2445.557756892303
 20
8843.944691704926
 30
0.0
 41
80.0
 42
80.0
 43
80.0
 50
180.0
  0
INSERT
  5
8576
330
856F
100
AcDbEntity
  8
3
 62
     0
370
    -2
100
AcDbBlockReference
  2
_OPEN
 10
3945.557756892302
 20
8843.944691704926
 30
0.0
 41
80.0
 42
80.0
 43
80.0
  0
MTEXT
  5
8577
330
856F
100
AcDbEntity
  8
3
 62
     0
100
AcDbMText
 10
3195.557756892303
 20
8943.944691704926
 30
0.0
 40
120.0
 41
0.0
 71
     5
 72
     1
  1
\A1;1500
 73
     1
 44
1.0
1001
ACAD
1000
MTEXTBEGIN
1070
    73
1070
     1
1070
    44
1040
1.0
1070
    74
1070
     0
1000
MTEXTEND
  0
POINT
  5
8578
330
856F
100
AcDbEntity
  8
DEFPOINTS
 62
     0
100
AcDbPoint
 10
2445.557756892303
 20
8639.308553199738
 30
0.0
  0
POINT
  5
8579
330
856F
100
AcDbEntity
  8
DEFPOINTS
 62
     0
100
AcDbPoint
 10
3945.557756892302
 20
8639.308553199738
 30
0.0
  0
POINT
  5
857A
330
856F
100
AcDbEntity
  8
DEFPOINTS
 62
     0
100
AcDbPoint
 10
3945.557756892302
 20
8843.944691704926
 30
0.0
  0
ENDBLK
  5
8571
330
856F
100
AcDbEntity
  8
0
100
AcDbBlockEnd
  0
BLOCK
  5
857D
330
857C
100
AcDbEntity
  8
0
100
AcDbBlockBegin
  2
*D35
 70
     1
 10
0.0
 20
0.0
 30
0.0
  3
*D35
  1

  0
LINE
  5
857F
330
857C
100
AcDbEntity
  8
3
 62
     0
370
    -2
100
AcDbLine
 10
3965.557756892302
 20
8639.308553199738
 30
0.0
 11
4434.573898128134
 21
8639.308553199736
 31
0.0
  0
LINE
  5
8580
330
857C
100
AcDbEntity
  8
3
 62
     0
370
    -2
100
AcDbLine
 10
3965.557756892302
 20
6519.308553199739
 30
0.0
 11
4434.573898128134
 21
6519.308553199739
 31
0.0
  0
LINE
  5
8581
330
857C
100
AcDbEntity
  8
3
 62
     0
370
    -2
100
AcDbLine
 10
4394.573898128134
 20
8559.308553199734
 30
0.0
 11
4394.573898128134
 21
6599.308553199738
 31
0.0
  0
INSERT
  5
8582
330
857C
100
AcDbEntity
  8
3
 62
     0
370
    -2
100
AcDbBlockReference
  2
_OPEN
 10
4394.573898128134
 20
8639.308553199736
 30
0.0
 41
80.0
 42
80.0
 43
80.0
 50
90.0
  0
INSERT
  5
8583
330
857C
100
AcDbEntity
  8
3
 62
     0
370
    -2
100
AcDbBlockReference
  2
_OPEN
 10
4394.573898128134
 20
6519.308553199739
 30
0.0
 41
80.0
 42
80.0
 43
80.0
 50
270.0
  0
MTEXT
  5
8584
330
857C
100
AcDbEntity
  8
3
 62
     0
100
AcDbMText
 10
4294.573898128134
 20
7579.308553199739
 30
0.0
 40
120.0
 41
0.0
 71
     5
 72
     1
  1
\A1;2120
 11
0.0000000000000001
 21
1.0
 31
0.0
 73
     1
 44
1.0
1001
ACAD
1000
MTEXTBEGIN
1070
    73
1070
     1
1070
    44
1040
1.0
1070
    74
1070
     0
1000
MTEXTEND
  0
POINT
  5
8585
330
857C
100
AcDbEntity
  8
DEFPOINTS
 62
     0
100
AcDbPoint
 10
3945.557756892302
 20
8639.308553199738
 30
0.0
  0
POINT
  5
8586
330
857C
100
AcDbEntity
  8
DEFPOINTS
 62
     0
100
AcDbPoint
 10
3945.557756892302
 20
6519.308553199739
 30
0.0
  0
POINT
  5
8587
330
857C
100
AcDbEntity
  8
DEFPOINTS
 62
     0
100
AcDbPoint
 10
4394.573898128134
 20
6519.308553199739
 30
0.0
  0
ENDBLK
  5
857E
330
857C
100
AcDbEntity
  8
0
100
AcDbBlockEnd
  0
BLOCK
  5
858A
330
8589
100
AcDbEntity
  8
0
100
AcDbBlockBegin
  2
*D36
 70
     1
 10
0.0
 20
0.0
 30
0.0
  3
*D36
  1

  0
LINE
  5
858C
330
8589
100
AcDbEntity
  8
3
 62
     0
370
    -2
100
AcDbLine
 10
1475.557756892301
 20
7519.308553199741
 30
0.0
 11
1189.231355784722
 21
7519.308553199741
 31
0.0
  0
LINE
  5
858D
330
8589
100
AcDbEntity
  8
3
 62
     0
370
    -2
100
AcDbLine
 10
1475.557756892301
 20
6519.308553199741
 30
0.0
 11
1189.231355784722
 21
6519.308553199741
 31
0.0
  0
LINE
  5
858E
330
8589
100
AcDbEntity
  8
3
 62
     0
370
    -2
100
AcDbLine
 10
1229.231355784722
 20
7439.308553199741
 30
0.0
 11
1229.231355784722
 21
6599.30855319974
 31
0.0
  0
INSERT
  5
858F
330
8589
100
AcDbEntity
  8
3
 62
     0
370
    -2
100
AcDbBlockReference
  2
_OPEN
 10
1229.231355784722
 20
7519.308553199741
 30
0.0
 41
80.0
 42
80.0
 43
80.0
 50
90.0
  0
INSERT
  5
8590
330
8589
100
AcDbEntity
  8
3
 62
     0
370
    -2
100
AcDbBlockReference
  2
_OPEN
 10
1229.231355784722
 20
6519.308553199741
 30
0.0
 41
80.0
 42
80.0
 43
80.0
 50
270.0
  0
MTEXT
  5
8591
330
8589
100
AcDbEntity
  8
3
 62
     0
100
AcDbMText
 10
1129.231355784721
 20
7019.308553199741
 30
0.0
 40
120.0
 41
0.0
 71
     5
 72
     1
  1
\A1;1000
 11
0.0000000000000001
 21
1.0
 31
0.0
 73
     1
 44
1.0
1001
ACAD
1000
MTEXTBEGIN
1070
    73
1070
     1
1070
    44
1040
1.0
1070
    74
1070
     0
1000
MTEXTEND
  0
POINT
  5
8592
330
8589
100
AcDbEntity
  8
DEFPOINTS
 62
     0
100
AcDbPoint
 10
1495.557756892301
 20
7519.308553199741
 30
0.0
  0
POINT
  5
8593
330
8589
100
AcDbEntity
  8
DEFPOINTS
 62
     0
100
AcDbPoint
 10
1495.557756892301
 20
6519.308553199741
 30
0.0
  0
POINT
  5
8594
330
8589
100
AcDbEntity
  8
DEFPOINTS
 62
     0
100
AcDbPoint
 10
1229.231355784722
 20
6519.308553199741
 30
0.0
  0
ENDBLK
  5
858B
330
8589
100
AcDbEntity
  8
0
100
AcDbBlockEnd
  0
BLOCK
  5
8597
330
8596
100
AcDbEntity
  8
0
100
AcDbBlockBegin
  2
*D37
 70
     1
 10
0.0
 20
0.0
 30
0.0
  3
*D37
  1

  0
LINE
  5
8599
330
8596
100
AcDbEntity
  8
3
 62
     0
370
    -2
100
AcDbLine
 10
1495.557756892301
 20
6499.308553199741
 30
0.0
 11
1495.557756892301
 21
6114.554675010086
 31
0.0
  0
LINE
  5
859A
330
8596
100
AcDbEntity
  8
3
 62
     0
370
    -2
100
AcDbLine
 10
3945.557756892302
 20
6499.308553199738
 30
0.0
 11
3945.557756892302
 21
6114.554675010086
 31
0.0
  0
LINE
  5
859B
330
8596
100
AcDbEntity
  8
3
 62
     0
370
    -2
100
AcDbLine
 10
1575.557756892301
 20
6154.554675010087
 30
0.0
 11
3865.557756892302
 21
6154.554675010087
 31
0.0
  0
INSERT
  5
859C
330
8596
100
AcDbEntity
  8
3
 62
     0
370
    -2
100
AcDbBlockReference
  2
_OPEN
 10
1495.557756892301
 20
6154.554675010087
 30
0.0
 41
80.0
 42
80.0
 43
80.0
 50
180.0
  0
INSERT
  5
859D
330
8596
100
AcDbEntity
  8
3
 62
     0
370
    -2
100
AcDbBlockReference
  2
_OPEN
 10
3945.557756892302
 20
6154.554675010087
 30
0.0
 41
80.0
 42
80.0
 43
80.0
  0
MTEXT
  5
859E
330
8596
100
AcDbEntity
  8
3
 62
     0
100
AcDbMText
 10
2720.557756892302
 20
6254.554675010087
 30
0.0
 40
120.0
 41
0.0
 71
     5
 72
     1
  1
\A1;2450
 73
     1
 44
1.0
1001
ACAD
1000
MTEXTBEGIN
1070
    73
1070
     1
1070
    44
1040
1.0
1070
    74
1070
     0
1000
MTEXTEND
  0
POINT
  5
859F
330
8596
100
AcDbEntity
  8
DEFPOINTS
 62
     0
100
AcDbPoint
 10
1495.557756892301
 20
6519.308553199741
 30
0.0
  0
POINT
  5
85A0
330
8596
100
AcDbEntity
  8
DEFPOINTS
 62
     0
100
AcDbPoint
 10
3945.557756892302
 20
6519.308553199739
 30
0.0
  0
POINT
  5
85A1
330
8596
100
AcDbEntity
  8
DEFPOINTS
 62
     0
100
AcDbPoint
 10
3945.557756892302
 20
6154.554675010087
 30
0.0
  0
ENDBLK
  5
8598
330
8596
100
AcDbEntity
  8
0
100
AcDbBlockEnd
  0
BLOCK
  5
85AD
330
85AC
100
AcDbEntity
  8
0
100
AcDbBlockBegin
  2
*D38
 70
     1
 10
0.0
 20
0.0
 30
0.0
  3
*D38
  1

  0
LINE
  5
85AF
330
85AC
100
AcDbEntity
  8
3
 62
     0
370
    -2
100
AcDbLine
 10
1861.557756892302
 20
4772.929630863209
 30
0.0
 11
1861.557756892302
 21
5045.940663553165
 31
0.0
  0
LINE
  5
85B0
330
85AC
100
AcDbEntity
  8
3
 62
     0
370
    -2
100
AcDbLine
 10
3141.557756892302
 20
4772.929630863209
 30
0.0
 11
3141.557756892302
 21
5045.940663553165
 31
0.0
  0
LINE
  5
85B1
330
85AC
100
AcDbEntity
  8
3
 62
     0
370
    -2
100
AcDbLine
 10
1941.557756892302
 20
5005.940663553165
 30
0.0
 11
3061.557756892302
 21
5005.940663553165
 31
0.0
  0
INSERT
  5
85B2
330
85AC
100
AcDbEntity
  8
3
 62
     0
370
    -2
100
AcDbBlockReference
  2
_OPEN
 10
1861.557756892302
 20
5005.940663553165
 30
0.0
 41
80.0
 42
80.0
 43
80.0
 50
180.0
  0
INSERT
  5
85B3
330
85AC
100
AcDbEntity
  8
3
 62
     0
370
    -2
100
AcDbBlockReference
  2
_OPEN
 10
3141.557756892302
 20
5005.940663553165
 30
0.0
 41
80.0
 42
80.0
 43
80.0
  0
MTEXT
  5
85B4
330
85AC
100
AcDbEntity
  8
3
 62
     0
100
AcDbMText
 10
2501.557756892302
 20
5105.940663553165
 30
0.0
 40
120.0
 41
0.0
 71
     5
 72
     1
  1
\A1;1280
 73
     1
 44
1.0
1001
ACAD
1000
MTEXTBEGIN
1070
    73
1070
     1
1070
    44
1040
1.0
1070
    74
1070
     0
1000
MTEXTEND
  0
POINT
  5
85B5
330
85AC
100
AcDbEntity
  8
DEFPOINTS
 62
     0
100
AcDbPoint
 10
1861.557756892302
 20
4752.929630863208
 30
0.0
  0
POINT
  5
85B6
330
85AC
100
AcDbEntity
  8
DEFPOINTS
 62
     0
100
AcDbPoint
 10
3141.557756892302
 20
4752.929630863208
 30
0.0
  0
POINT
  5
85B7
330
85AC
100
AcDbEntity
  8
DEFPOINTS
 62
     0
100
AcDbPoint
 10
3141.557756892302
 20
5005.940663553165
 30
0.0
  0
ENDBLK
  5
85AE
330
85AC
100
AcDbEntity
  8
0
100
AcDbBlockEnd
  0
BLOCK
  5
85BA
330
85B9
100
AcDbEntity
  8
0
100
AcDbBlockBegin
  2
*D39
 70
     1
 10
0.0
 20
0.0
 30
0.0
  3
*D39
  1

  0
LINE
  5
85BC
330
85B9
100
AcDbEntity
  8
3
 62
     0
370
    -2
100
AcDbLine
 10
1861.557756892302
 20
4772.929630863209
 30
0.0
 11
1861.557756892302
 21
5293.003506009694
 31
0.0
  0
LINE
  5
85BD
330
85B9
100
AcDbEntity
  8
3
 62
     0
370
    -2
100
AcDbLine
 10
3195.557756892303
 20
4813.547431885435
 30
0.0
 11
3195.557756892303
 21
5293.003506009694
 31
0.0
  0
LINE
  5
85BE
330
85B9
100
AcDbEntity
  8
3
 62
     0
370
    -2
100
AcDbLine
 10
1941.557756892302
 20
5253.003506009694
 30
0.0
 11
3115.557756892302
 21
5253.003506009694
 31
0.0
  0
INSERT
  5
85BF
330
85B9
100
AcDbEntity
  8
3
 62
     0
370
    -2
100
AcDbBlockReference
  2
_OPEN
 10
1861.557756892302
 20
5253.003506009694
 30
0.0
 41
80.0
 42
80.0
 43
80.0
 50
180.0
  0
INSERT
  5
85C0
330
85B9
100
AcDbEntity
  8
3
 62
     0
370
    -2
100
AcDbBlockReference
  2
_OPEN
 10
3195.557756892303
 20
5253.003506009694
 30
0.0
 41
80.0
 42
80.0
 43
80.0
  0
MTEXT
  5
85C1
330
85B9
100
AcDbEntity
  8
3
 62
     0
100
AcDbMText
 10
2528.557756892303
 20
5353.003506009694
 30
0.0
 40
120.0
 41
0.0
 71
     5
 72
     1
  1
\A1;1334
 73
     1
 44
1.0
1001
ACAD
1000
MTEXTBEGIN
1070
    73
1070
     1
1070
    44
1040
1.0
1070
    74
1070
     0
1000
MTEXTEND
  0
POINT
  5
85C2
330
85B9
100
AcDbEntity
  8
DEFPOINTS
 62
     0
100
AcDbPoint
 10
1861.557756892302
 20
4752.929630863208
 30
0.0
  0
POINT
  5
85C3
330
85B9
100
AcDbEntity
  8
DEFPOINTS
 62
     0
100
AcDbPoint
 10
3195.557756892303
 20
4793.547431885436
 30
0.0
  0
POINT
  5
85C4
330
85B9
100
AcDbEntity
  8
DEFPOINTS
 62
     0
100
AcDbPoint
 10
3195.557756892303
 20
5253.003506009694
 30
0.0
  0
ENDBLK
  5
85BB
330
85B9
100
AcDbEntity
  8
0
100
AcDbBlockEnd
  0
BLOCK
  5
85C7
330
85C6
100
AcDbEntity
  8
0
100
AcDbBlockBegin
  2
*D40
 70
     1
 10
0.0
 20
0.0
 30
0.0
  3
*D40
  1

  0
LINE
  5
85C9
330
85C6
100
AcDbEntity
  8
3
 62
     0
370
    -2
100
AcDbLine
 10
3195.557756892303
 20
4813.547431885435
 30
0.0
 11
3195.557756892303
 21
5293.003506009694
 31
0.0
  0
LINE
  5
85CA
330
85C6
100
AcDbEntity
  8
3
 62
     0
370
    -2
100
AcDbLine
 10
4092.557756892301
 20
3856.929630863207
 30
0.0
 11
4092.557756892301
 21
5293.003506009694
 31
0.0
  0
LINE
  5
85CB
330
85C6
100
AcDbEntity
  8
3
 62
     0
370
    -2
100
AcDbLine
 10
3275.557756892303
 20
5253.003506009694
 30
0.0
 11
4012.5577568923
 21
5253.003506009694
 31
0.0
  0
INSERT
  5
85CC
330
85C6
100
AcDbEntity
  8
3
 62
     0
370
    -2
100
AcDbBlockReference
  2
_OPEN
 10
3195.557756892303
 20
5253.003506009694
 30
0.0
 41
80.0
 42
80.0
 43
80.0
 50
180.0
  0
INSERT
  5
85CD
330
85C6
100
AcDbEntity
  8
3
 62
     0
370
    -2
100
AcDbBlockReference
  2
_OPEN
 10
4092.557756892301
 20
5253.003506009694
 30
0.0
 41
80.0
 42
80.0
 43
80.0
  0
MTEXT
  5
85CE
330
85C6
100
AcDbEntity
  8
3
 62
     0
100
AcDbMText
 10
3644.057756892302
 20
5353.003506009694
 30
0.0
 40
120.0
 41
0.0
 71
     5
 72
     1
  1
\A1;897
 73
     1
 44
1.0
1001
ACAD
1000
MTEXTBEGIN
1070
    73
1070
     1
1070
    44
1040
1.0
1070
    74
1070
     0
1000
MTEXTEND
  0
POINT
  5
85CF
330
85C6
100
AcDbEntity
  8
DEFPOINTS
 62
     0
100
AcDbPoint
 10
3195.557756892303
 20
4793.547431885436
 30
0.0
  0
POINT
  5
85D0
330
85C6
100
AcDbEntity
  8
DEFPOINTS
 62
     0
100
AcDbPoint
 10
4092.557756892301
 20
3836.929630863208
 30
0.0
  0
POINT
  5
85D1
330
85C6
100
AcDbEntity
  8
DEFPOINTS
 62
     0
100
AcDbPoint
 10
4092.557756892301
 20
5253.003506009694
 30
0.0
  0
ENDBLK
  5
85C8
330
85C6
100
AcDbEntity
  8
0
100
AcDbBlockEnd
  0
BLOCK
  5
85D4
330
85D3
100
AcDbEntity
  8
0
100
AcDbBlockBegin
  2
*D41
 70
     1
 10
0.0
 20
0.0
 30
0.0
  3
*D41
  1

  0
LINE
  5
85D6
330
85D3
100
AcDbEntity
  8
3
 62
     0
370
    -2
100
AcDbLine
 10
1495.557756892301
 20
2962.929630863207
 30
0.0
 11
1495.557756892301
 21
5560.79394691561
 31
0.0
  0
LINE
  5
85D7
330
85D3
100
AcDbEntity
  8
3
 62
     0
370
    -2
100
AcDbLine
 10
4092.557756892301
 20
3856.929630863207
 30
0.0
 11
4092.557756892301
 21
5560.79394691561
 31
0.0
  0
LINE
  5
85D8
330
85D3
100
AcDbEntity
  8
3
 62
     0
370
    -2
100
AcDbLine
 10
1575.557756892301
 20
5520.79394691561
 30
0.0
 11
4012.5577568923
 21
5520.79394691561
 31
0.0
  0
INSERT
  5
85D9
330
85D3
100
AcDbEntity
  8
3
 62
     0
370
    -2
100
AcDbBlockReference
  2
_OPEN
 10
1495.557756892301
 20
5520.79394691561
 30
0.0
 41
80.0
 42
80.0
 43
80.0
 50
180.0
  0
INSERT
  5
85DA
330
85D3
100
AcDbEntity
  8
3
 62
     0
370
    -2
100
AcDbBlockReference
  2
_OPEN
 10
4092.557756892301
 20
5520.79394691561
 30
0.0
 41
80.0
 42
80.0
 43
80.0
  0
MTEXT
  5
85DB
330
85D3
100
AcDbEntity
  8
3
 62
     0
100
AcDbMText
 10
2794.057756892302
 20
5620.79394691561
 30
0.0
 40
120.0
 41
0.0
 71
     5
 72
     1
  1
\A1;2597
 73
     1
 44
1.0
1001
ACAD
1000
MTEXTBEGIN
1070
    73
1070
     1
1070
    44
1040
1.0
1070
    74
1070
     0
1000
MTEXTEND
  0
POINT
  5
85DC
330
85D3
100
AcDbEntity
  8
DEFPOINTS
 62
     0
100
AcDbPoint
 10
1495.557756892301
 20
2942.929630863207
 30
0.0
  0
POINT
  5
85DD
330
85D3
100
AcDbEntity
  8
DEFPOINTS
 62
     0
100
AcDbPoint
 10
4092.557756892301
 20
3836.929630863208
 30
0.0
  0
POINT
  5
85DE
330
85D3
100
AcDbEntity
  8
DEFPOINTS
 62
     0
100
AcDbPoint
 10
4092.557756892301
 20
5520.79394691561
 30
0.0
  0
ENDBLK
  5
85D5
330
85D3
100
AcDbEntity
  8
0
100
AcDbBlockEnd
  0
BLOCK
  5
85E8
330
85E7
100
AcDbEntity
  8
0
100
AcDbBlockBegin
  2
*D43
 70
     1
 10
0.0
 20
0.0
 30
0.0
  3
*D43
  1

  0
LINE
  5
85EA
330
85E7
100
AcDbEntity
  8
3
 62
     0
370
    -2
100
AcDbLine
 10
3214.557756892301
 20
4752.929630863208
 30
0.0
 11
4399.792441257581
 21
4752.929630863208
 31
0.0
  0
LINE
  5
85EB
330
85E7
100
AcDbEntity
  8
3
 62
     0
370
    -2
100
AcDbLine
 10
4205.539039607349
 20
3927.929630863207
 30
0.0
 11
4399.792441257581
 21
3927.929630863207
 31
0.0
  0
LINE
  5
85EC
330
85E7
100
AcDbEntity
  8
3
 62
     0
370
    -2
100
AcDbLine
 10
4359.792441257581
 20
4672.929630863208
 30
0.0
 11
4359.792441257581
 21
4007.929630863207
 31
0.0
  0
INSERT
  5
85ED
330
85E7
100
AcDbEntity
  8
3
 62
     0
370
    -2
100
AcDbBlockReference
  2
_OPEN
 10
4359.792441257581
 20
4752.929630863208
 30
0.0
 41
80.0
 42
80.0
 43
80.0
 50
90.0
  0
INSERT
  5
85EE
330
85E7
100
AcDbEntity
  8
3
 62
     0
370
    -2
100
AcDbBlockReference
  2
_OPEN
 10
4359.792441257581
 20
3927.929630863207
 30
0.0
 41
80.0
 42
80.0
 43
80.0
 50
270.0
  0
MTEXT
  5
85EF
330
85E7
100
AcDbEntity
  8
3
 62
     0
100
AcDbMText
 10
4259.79244125758
 20
4340.429630863208
 30
0.0
 40
120.0
 41
0.0
 71
     5
 72
     1
  1
\A1;825
 11
0.0000000000000001
 21
1.0
 31
0.0
 73
     1
 44
1.0
1001
ACAD
1000
MTEXTBEGIN
1070
    73
1070
     1
1070
    44
1040
1.0
1070
    74
1070
     0
1000
MTEXTEND
  0
POINT
  5
85F0
330
85E7
100
AcDbEntity
  8
DEFPOINTS
 62
     0
100
AcDbPoint
 10
3194.557756892301
 20
4752.929630863208
 30
0.0
  0
POINT
  5
85F1
330
85E7
100
AcDbEntity
  8
DEFPOINTS
 62
     0
100
AcDbPoint
 10
4185.539039607348
 20
3927.929630863207
 30
0.0
  0
POINT
  5
85F2
330
85E7
100
AcDbEntity
  8
DEFPOINTS
 62
     0
100
AcDbPoint
 10
4359.792441257581
 20
3927.929630863207
 30
0.0
  0
ENDBLK
  5
85E9
330
85E7
100
AcDbEntity
  8
0
100
AcDbBlockEnd
  0
BLOCK
  5
85F5
330
85F4
100
AcDbEntity
  8
0
100
AcDbBlockBegin
  2
*D44
 70
     1
 10
0.0
 20
0.0
 30
0.0
  3
*D44
  1

  0
LINE
  5
85F7
330
85F4
100
AcDbEntity
  8
3
 62
     0
370
    -2
100
AcDbLine
 10
4205.539039607349
 20
3927.929630863207
 30
0.0
 11
4399.792441257581
 21
3927.929630863207
 31
0.0
  0
LINE
  5
85F8
330
85F4
100
AcDbEntity
  8
3
 62
     0
370
    -2
100
AcDbLine
 10
3965.557756892302
 20
2817.929630863207
 30
0.0
 11
4399.792441257581
 21
2817.929630863207
 31
0.0
  0
LINE
  5
85F9
330
85F4
100
AcDbEntity
  8
3
 62
     0
370
    -2
100
AcDbLine
 10
4359.792441257581
 20
3847.929630863207
 30
0.0
 11
4359.792441257581
 21
2897.929630863207
 31
0.0
  0
INSERT
  5
85FA
330
85F4
100
AcDbEntity
  8
3
 62
     0
370
    -2
100
AcDbBlockReference
  2
_OPEN
 10
4359.792441257581
 20
3927.929630863207
 30
0.0
 41
80.0
 42
80.0
 43
80.0
 50
90.0
  0
INSERT
  5
85FB
330
85F4
100
AcDbEntity
  8
3
 62
     0
370
    -2
100
AcDbBlockReference
  2
_OPEN
 10
4359.792441257581
 20
2817.929630863207
 30
0.0
 41
80.0
 42
80.0
 43
80.0
 50
270.0
  0
MTEXT
  5
85FC
330
85F4
100
AcDbEntity
  8
3
 62
     0
100
AcDbMText
 10
4259.79244125758
 20
3372.929630863207
 30
0.0
 40
120.0
 41
0.0
 71
     5
 72
     1
  1
\A1;1110
 11
0.0000000000000001
 21
1.0
 31
0.0
 73
     1
 44
1.0
1001
ACAD
1000
MTEXTBEGIN
1070
    73
1070
     1
1070
    44
1040
1.0
1070
    74
1070
     0
1000
MTEXTEND
  0
POINT
  5
85FD
330
85F4
100
AcDbEntity
  8
DEFPOINTS
 62
     0
100
AcDbPoint
 10
4185.539039607348
 20
3927.929630863207
 30
0.0
  0
POINT
  5
85FE
330
85F4
100
AcDbEntity
  8
DEFPOINTS
 62
     0
100
AcDbPoint
 10
3945.557756892302
 20
2817.929630863207
 30
0.0
  0
POINT
  5
85FF
330
85F4
100
AcDbEntity
  8
DEFPOINTS
 62
     0
100
AcDbPoint
 10
4359.792441257581
 20
2817.929630863207
 30
0.0
  0
ENDBLK
  5
85F6
330
85F4
100
AcDbEntity
  8
0
100
AcDbBlockEnd
  0
BLOCK
  5
8602
330
8601
100
AcDbEntity
  8
0
100
AcDbBlockBegin
  2
*D45
 70
     1
 10
0.0
 20
0.0
 30
0.0
  3
*D45
  1

  0
LINE
  5
8730
330
8601
100
AcDbEntity
  8
3
 62
     0
370
    -2
100
AcDbLine
 10
3965.557756892302
 20
2817.929630863207
 30
0.0
 11
4399.792441257581
 21
2817.929630863207
 31
0.0
  0
LINE
  5
8731
330
8601
100
AcDbEntity
  8
3
 62
     0
370
    -2
100
AcDbLine
 10
3965.557756892302
 20
2797.929630863207
 30
0.0
 11
4399.792441257581
 21
2797.929630863207
 31
0.0
  0
LINE
  5
8732
330
8601
100
AcDbEntity
  8
3
 62
     0
370
    -2
100
AcDbLine
 10
4359.792441257581
 20
2897.929630863207
 30
0.0
 11
4359.792441257581
 21
2977.929630863207
 31
0.0
  0
LINE
  5
8733
330
8601
100
AcDbEntity
  8
3
 62
     0
370
    -2
100
AcDbLine
 10
4359.792441257581
 20
2797.929630863207
 30
0.0
 11
4359.792441257581
 21
2717.929630863207
 31
0.0
  0
LINE
  5
8734
330
8601
100
AcDbEntity
  8
3
 62
     0
370
    -2
100
AcDbLine
 10
4359.792441257581
 20
2807.929630863207
 30
0.0
 11
4734.078155543296
 21
2920.215345148922
 31
0.0
  0
LINE
  5
8735
330
8601
100
AcDbEntity
  8
3
 62
     0
370
    -2
100
AcDbLine
 10
4734.078155543296
 20
2920.215345148922
 30
0.0
 11
4734.078155543296
 21
3348.78677372035
 31
0.0
  0
MTEXT
  5
8736
330
8601
100
AcDbEntity
  8
3
 62
     0
100
AcDbMText
 10
4602.649584114724
 20
3134.501059434636
 30
0.0
 40
120.0
 41
0.0
 71
     5
 72
     1
  1
\A1;(20)
 11
0.0000000000000001
 21
1.0
 31
0.0
 73
     1
 44
1.0
1001
ACAD
1000
MTEXTBEGIN
1070
    73
1070
     1
1070
    44
1040
1.0
1070
    74
1070
     0
1000
MTEXTEND
  0
LINE
  5
8737
330
8601
100
AcDbEntity
  8
3
 62
     0
370
    -2
100
AcDbLine
 10
4359.792441257581
 20
2817.929630863207
 30
0.0
 11
4359.792441257581
 21
2797.929630863207
 31
0.0
  0
LINE
  5
8738
330
8601
100
AcDbEntity
  8
3
 62
     0
370
    -2
100
AcDbLine
 10
4359.792441257581
 20
2817.929630863207
 30
0.0
 11
4359.792441257581
 21
2797.929630863207
 31
0.0
  0
INSERT
  5
8739
330
8601
100
AcDbEntity
  8
3
 62
     0
370
    -2
100
AcDbBlockReference
  2
_OPEN
 10
4359.792441257581
 20
2817.929630863207
 30
0.0
 41
80.0
 42
80.0
 43
80.0
 50
270.0
  0
INSERT
  5
873A
330
8601
100
AcDbEntity
  8
3
 62
     0
370
    -2
100
AcDbBlockReference
  2
_DotSmall
 10
4359.792441257581
 20
2797.929630863207
 30
0.0
 41
80.0
 42
80.0
 43
80.0
 50
90.0
  0
POINT
  5
873B
330
8601
100
AcDbEntity
  8
DEFPOINTS
 62
     0
100
AcDbPoint
 10
3945.557756892302
 20
2817.929630863207
 30
0.0
  0
POINT
  5
873C
330
8601
100
AcDbEntity
  8
DEFPOINTS
 62
     0
100
AcDbPoint
 10
3945.557756892302
 20
2797.929630863207
 30
0.0
  0
POINT
  5
873D
330
8601
100
AcDbEntity
  8
DEFPOINTS
 62
     0
100
AcDbPoint
 10
4359.792441257581
 20
2797.929630863207
 30
0.0
  0
ENDBLK
  5
8603
330
8601
100
AcDbEntity
  8
0
100
AcDbBlockEnd
  0
BLOCK
  5
8614
330
8613
100
AcDbEntity
  8
0
100
AcDbBlockBegin
  2
*D46
 70
     1
 10
0.0
 20
0.0
 30
0.0
  3
*D46
  1

  0
LINE
  5
878C
330
8613
100
AcDbEntity
  8
3
 62
     0
370
    -2
100
AcDbLine
 10
3965.557756892302
 20
2797.929630863207
 30
0.0
 11
4399.792441257581
 21
2797.929630863207
 31
0.0
  0
LINE
  5
878D
330
8613
100
AcDbEntity
  8
3
 62
     0
370
    -2
100
AcDbLine
 10
3965.557756892302
 20
2732.929630863207
 30
0.0
 11
4399.792441257581
 21
2732.929630863207
 31
0.0
  0
LINE
  5
878E
330
8613
100
AcDbEntity
  8
3
 62
     0
370
    -2
100
AcDbLine
 10
4359.792441257581
 20
2797.929630863207
 30
0.0
 11
4359.792441257581
 21
2877.929630863207
 31
0.0
  0
LINE
  5
878F
330
8613
100
AcDbEntity
  8
3
 62
     0
370
    -2
100
AcDbLine
 10
4359.792441257581
 20
2652.929630863207
 30
0.0
 11
4359.792441257581
 21
2572.929630863207
 31
0.0
  0
MTEXT
  5
8790
330
8613
100
AcDbEntity
  8
3
 62
     0
100
AcDbMText
 10
4259.792441257581
 20
2572.929630863207
 30
0.0
 40
120.0
 41
0.0
 71
     5
 72
     1
  1
\A1;65
 11
0.0000000000000001
 21
1.0
 31
0.0
 73
     1
 44
1.0
1001
ACAD
1000
MTEXTBEGIN
1070
    73
1070
     1
1070
    44
1040
1.0
1070
    74
1070
     0
1000
MTEXTEND
  0
LINE
  5
8791
330
8613
100
AcDbEntity
  8
3
 62
     0
370
    -2
100
AcDbLine
 10
4359.792441257581
 20
2797.929630863207
 30
0.0
 11
4359.792441257581
 21
2732.929630863207
 31
0.0
  0
INSERT
  5
8792
330
8613
100
AcDbEntity
  8
3
 62
     0
370
    -2
100
AcDbBlockReference
  2
_DotSmall
 10
4359.792441257581
 20
2797.929630863207
 30
0.0
 41
80.0
 42
80.0
 43
80.0
 50
270.0
  0
INSERT
  5
8793
330
8613
100
AcDbEntity
  8
3
 62
     0
370
    -2
100
AcDbBlockReference
  2
_OPEN
 10
4359.792441257581
 20
2732.929630863207
 30
0.0
 41
80.0
 42
80.0
 43
80.0
 50
90.0
  0
POINT
  5
8794
330
8613
100
AcDbEntity
  8
DEFPOINTS
 62
     0
100
AcDbPoint
 10
3945.557756892302
 20
2797.929630863207
 30
0.0
  0
POINT
  5
8795
330
8613
100
AcDbEntity
  8
DEFPOINTS
 62
     0
100
AcDbPoint
 10
3945.557756892302
 20
2732.929630863207
 30
0.0
  0
POINT
  5
8796
330
8613
100
AcDbEntity
  8
DEFPOINTS
 62
     0
100
AcDbPoint
 10
4359.792441257581
 20
2732.929630863207
 30
0.0
  0
ENDBLK
  5
8615
330
8613
100
AcDbEntity
  8
0
100
AcDbBlockEnd
  0
BLOCK
  5
8626
330
8625
100
AcDbEntity
  8
0
100
AcDbBlockBegin
  2
*D47
 70
     1
 10
0.0
 20
0.0
 30
0.0
  3
*D47
  1

  0
LINE
  5
8661
330
8625
100
AcDbEntity
  8
3
 62
     0
370
    -2
100
AcDbLine
 10
3965.557756892302
 20
2732.929630863207
 30
0.0
 11
4809.412244257517
 21
2732.929630863207
 31
0.0
  0
LINE
  5
8662
330
8625
100
AcDbEntity
  8
3
 62
     0
370
    -2
100
AcDbLine
 10
3214.557756892301
 20
4752.929630863208
 30
0.0
 11
4809.412244257517
 21
4752.929630863208
 31
0.0
  0
LINE
  5
8663
330
8625
100
AcDbEntity
  8
3
 62
     0
370
    -2
100
AcDbLine
 10
4769.412244257517
 20
2812.929630863207
 30
0.0
 11
4769.412244257517
 21
4672.929630863208
 31
0.0
  0
INSERT
  5
8664
330
8625
100
AcDbEntity
  8
3
 62
     0
370
    -2
100
AcDbBlockReference
  2
_OPEN
 10
4769.412244257517
 20
2732.929630863207
 30
0.0
 41
80.0
 42
80.0
 43
80.0
 50
270.0
  0
INSERT
  5
8665
330
8625
100
AcDbEntity
  8
3
 62
     0
370
    -2
100
AcDbBlockReference
  2
_OPEN
 10
4769.412244257517
 20
4752.929630863208
 30
0.0
 41
80.0
 42
80.0
 43
80.0
 50
90.0
  0
MTEXT
  5
8666
330
8625
100
AcDbEntity
  8
3
 62
     0
100
AcDbMText
 10
4637.983672828944
 20
3742.929630863208
 30
0.0
 40
120.0
 41
0.0
 71
     5
 72
     1
  1
\A1;(2020)
 11
0.0000000000000001
 21
1.0
 31
0.0
 73
     1
 44
1.0
1001
ACAD
1000
MTEXTBEGIN
1070
    73
1070
     1
1070
    44
1040
1.0
1070
    74
1070
     0
1000
MTEXTEND
  0
POINT
  5
8667
330
8625
100
AcDbEntity
  8
DEFPOINTS
 62
     0
100
AcDbPoint
 10
3945.557756892302
 20
2732.929630863207
 30
0.0
  0
POINT
  5
8668
330
8625
100
AcDbEntity
  8
DEFPOINTS
 62
     0
100
AcDbPoint
 10
3194.557756892301
 20
4752.929630863208
 30
0.0
  0
POINT
  5
8669
330
8625
100
AcDbEntity
  8
DEFPOINTS
 62
     0
100
AcDbPoint
 10
4769.412244257517
 20
4752.929630863208
 30
0.0
  0
ENDBLK
  5
8627
330
8625
100
AcDbEntity
  8
0
100
AcDbBlockEnd
  0
BLOCK
  5
872E
330
872C
100
AcDbEntity
  8
0
100
AcDbBlockBegin
  2
_DotSmall
 70
     0
 10
0.0
 20
0.0
 30
0.0
  3
_DotSmall
  1

  0
LWPOLYLINE
  5
872D
330
872C
100
AcDbEntity
  8
0
  6
ByBlock
 62
     0
100
AcDbPolyline
 90
        2
 70
     1
 43
0.5
 10
-0.0625
 20
0.0
 42
1.0
 10
0.0625
 20
0.0
 42
1.0
  0
ENDBLK
  5
872F
330
872C
100
AcDbEntity
  8
0
100
AcDbBlockEnd
  0
ENDSEC
  0
SECTION
  2
ENTITIES
  0
INSERT
  5
7C3A
330
841E
100
AcDbEntity
  8
1
100
AcDbBlockReference
  2
YA_N
 10
6.0
 20
5.0
 30
0.0
  0
LINE
  5
7C3B
330
841E
100
AcDbEntity
  8
2
100
AcDbLine
 10
3195.557756892303
 20
4793.547431885436
 30
0.0
 11
3195.557756892301
 21
2732.929630863207
 31
0.0
  0
LINE
  5
7C3C
330
841E
100
AcDbEntity
  8
1
100
AcDbLine
 10
5193.659262902689
 20
2817.929630863207
 30
0.0
 11
7313.659262902688
 21
2817.929630863207
 31
0.0
1001
ACAD
1000
ASC_BOUNDS
1002
{
1070
    19
1005
0
1005
0
1002
}
  0
LINE
  5
7C3D
330
841E
100
AcDbEntity
  8
1
100
AcDbLine
 10
5193.659262902689
 20
2942.929630863207
 30
0.0
 11
7313.659262902691
 21
2942.929630863207
 31
0.0
  0
LINE
  5
7C3E
330
841E
100
AcDbEntity
  8
1
100
AcDbLine
 10
7245.659262902688
 20
4752.929630863208
 30
0.0
 11
7245.65926290269
 21
3927.929630863207
 31
0.0
  0
LINE
  5
7C3F
330
841E
100
AcDbEntity
  8
1
100
AcDbLine
 10
5545.659262902689
 20
4752.929630863208
 30
0.0
 11
5545.659262902689
 21
3927.929630863207
 31
0.0
  0
LINE
  5
7C41
330
841E
100
AcDbEntity
  8
2
100
AcDbLine
 10
5180.35926290269
 20
3927.929630863207
 30
0.0
 11
7429.169749141927
 21
3927.929630863207
 31
0.0
  0
LINE
  5
7C42
330
841E
100
AcDbEntity
  8
2
100
AcDbLine
 10
5124.156536306313
 20
3202.929630863208
 30
0.0
 11
5684.7848580257
 21
3202.929630863208
 31
0.0
  0
LINE
  5
7C43
330
841E
100
AcDbEntity
  8
1
100
AcDbLine
 10
5200.659262902689
 20
3308.929630863207
 30
0.0
 11
5278.559262902689
 21
3308.929630863207
 31
0.0
  0
LINE
  5
7C44
330
841E
100
AcDbEntity
  8
1
100
AcDbLine
 10
5200.659262902689
 20
3096.929630863207
 30
0.0
 11
5278.559262902689
 21
3096.929630863207
 31
0.0
  0
LINE
  5
7C45
330
841E
100
AcDbEntity
  8
1
100
AcDbLine
 10
5298.65926290269
 20
3997.929630863207
 30
0.0
 11
5298.65926290269
 21
3857.929630863207
 31
0.0
  0
LINE
  5
7C46
330
841E
100
AcDbEntity
  8
1
100
AcDbLine
 10
5278.559262902689
 20
4181.929630863208
 30
0.0
 11
5278.559262902689
 21
3997.929630863207
 31
0.0
  0
LINE
  5
7C47
330
841E
100
AcDbEntity
  8
1
100
AcDbLine
 10
5278.559262902689
 20
3997.929630863207
 30
0.0
 11
5298.65926290269
 21
3997.929630863207
 31
0.0
  0
LINE
  5
7C48
330
841E
100
AcDbEntity
  8
1
100
AcDbLine
 10
5278.559262902689
 20
3857.929630863207
 30
0.0
 11
5298.65926290269
 21
3857.929630863207
 31
0.0
  0
LINE
  5
7C49
330
841E
100
AcDbEntity
  8
1
100
AcDbLine
 10
5278.559262902689
 20
3857.929630863207
 30
0.0
 11
5278.559262902689
 21
3262.929630863208
 31
0.0
  0
LINE
  5
7C4A
330
841E
100
AcDbEntity
  8
1
100
AcDbLine
 10
5200.659262902689
 20
4181.929630863208
 30
0.0
 11
5200.659262902689
 21
3096.929630863207
 31
0.0
  0
LINE
  5
7C4B
330
841E
100
AcDbEntity
  8
1
100
AcDbLine
 10
5293.65926290269
 20
3262.929630863208
 30
0.0
 11
5293.65926290269
 21
3142.929630863207
 31
0.0
  0
LINE
  5
7C4C
330
841E
100
AcDbEntity
  8
1
100
AcDbLine
 10
5278.559262902689
 20
3262.929630863208
 30
0.0
 11
5293.65926290269
 21
3262.929630863208
 31
0.0
  0
LINE
  5
7C4D
330
841E
100
AcDbEntity
  8
1
100
AcDbLine
 10
5278.559262902689
 20
3142.929630863207
 30
0.0
 11
5293.65926290269
 21
3142.929630863207
 31
0.0
  0
LINE
  5
7C4E
330
841E
100
AcDbEntity
  8
1
100
AcDbLine
 10
5278.559262902689
 20
3142.929630863207
 30
0.0
 11
5278.559262902689
 21
3096.929630863207
 31
0.0
  0
LINE
  5
7C4F
330
841E
100
AcDbEntity
  8
1
100
AcDbLine
 10
5115.65926290269
 20
2982.929630863207
 30
0.0
 11
5360.659262902689
 21
2982.929630863207
 31
0.0
  0
LINE
  5
7C50
330
841E
100
AcDbEntity
  8
1
100
AcDbLine
 10
5115.65926290269
 20
4307.929630863208
 30
0.0
 11
5115.65926290269
 21
2982.929630863207
 31
0.0
  0
LINE
  5
7C51
330
841E
100
AcDbEntity
  8
1
100
AcDbLine
 10
5360.659262902689
 20
4307.929630863208
 30
0.0
 11
5360.659262902689
 21
4287.929630863208
 31
0.0
  0
LINE
  5
7C52
330
841E
100
AcDbEntity
  8
2
100
AcDbLine
 10
3195.557756892303
 20
8738.992895925507
 30
0.0
 11
3195.557756892303
 21
6358.815218657199
 31
0.0
  0
LINE
  5
7C53
330
841E
100
AcDbEntity
  8
2
100
AcDbLine
 10
1775.557756892301
 20
7394.125772323062
 30
0.0
 11
1775.557756892301
 21
6345.696240088916
 31
0.0
  0
LINE
  5
7C54
330
841E
100
AcDbEntity
  8
2
100
AcDbLine
 10
6395.65926290269
 20
4920.908808331319
 30
0.0
 11
6395.659262902686
 21
2732.929630863207
 31
0.0
  0
INSERT
  5
7C55
330
841E
100
AcDbEntity
  8
1
100
AcDbBlockReference
  2
YA_N
 10
-1757.227407310314
 20
-1218.78641745778
 30
0.0
 41
30.0
 42
30.0
 43
30.0
  0
INSERT
  5
7C56
330
841E
100
AcDbEntity
  8
1
100
AcDbBlockReference
  2
YA_N
 10
-755.2436758818473
 20
-538.554984833856
 30
0.0
 41
30.0
 42
30.0
 43
30.0
  0
LINE
  5
7C57
330
841E
100
AcDbEntity
  8
1
100
AcDbLine
 10
5193.659262902688
 20
2797.929630863207
 30
0.0
 11
7313.659262902691
 21
2797.929630863207
 31
0.0
1001
ACAD
1000
ASC_BOUNDS
1002
{
1070
    19
1005
0
1005
0
1002
}
  0
LINE
  5
7C58
330
841E
100
AcDbEntity
  8
1
100
AcDbLine
 10
5193.659262902688
 20
2732.929630863207
 30
0.0
 11
7313.659262902691
 21
2732.929630863207
 31
0.0
  0
LINE
  5
7C59
330
841E
100
AcDbEntity
  8
1
100
AcDbLine
 10
7313.659262902691
 20
2797.929630863207
 30
0.0
 11
7313.659262902691
 21
2732.929630863207
 31
0.0
  0
LINE
  5
7C5A
330
841E
100
AcDbEntity
  8
1
100
AcDbLine
 10
7245.659262902688
 20
3928.929630863207
 30
0.0
 11
7245.659262902688
 21
2942.929630863207
 31
0.0
  0
LINE
  5
7C5B
330
841E
100
AcDbEntity
  8
1
100
AcDbLine
 10
5545.659262902689
 20
3928.929630863207
 30
0.0
 11
5545.659262902689
 21
2942.929630863207
 31
0.0
  0
LINE
  5
7C5C
330
841E
100
AcDbEntity
  8
1
100
AcDbLine
 10
3945.557756892302
 20
8639.308553199738
 30
0.0
 11
2445.557756892303
 21
8639.30855319974
 31
0.0
  0
LINE
  5
7C5D
330
841E
100
AcDbEntity
  8
1
100
AcDbLine
 10
3945.557756892302
 20
6519.308553199739
 30
0.0
 11
1495.557756892301
 21
6519.308553199741
 31
0.0
  0
LINE
  5
7C5E
330
841E
100
AcDbEntity
  8
1
100
AcDbLine
 10
3945.557756892302
 20
8639.308553199738
 30
0.0
 11
3945.557756892302
 21
8571.308553199742
 31
0.0
  0
LINE
  5
7C5F
330
841E
100
AcDbEntity
  8
1
100
AcDbLine
 10
1495.557756892301
 20
7519.308553199741
 30
0.0
 11
1495.557756892301
 21
6519.308553199739
 31
0.0
  0
LINE
  5
7C60
330
841E
100
AcDbEntity
  8
1
100
AcDbLine
 10
2445.557756892303
 20
8639.308553199738
 30
0.0
 11
2445.557756892303
 21
8571.308553199742
 31
0.0
  0
LINE
  5
7C61
330
841E
100
AcDbEntity
  8
1
100
AcDbLine
 10
1861.557756892302
 20
7519.308553199741
 30
0.0
 11
1495.557756892301
 21
7519.308553199741
 31
0.0
  0
LINE
  5
7C63
330
841E
100
AcDbEntity
  8
1
100
AcDbLine
 10
5388.159262902689
 20
3851.929630863207
 30
0.0
 11
5388.159262902689
 21
3721.929630863207
 31
0.0
  0
LINE
  5
7C64
330
841E
100
AcDbEntity
  8
1
100
AcDbLine
 10
5528.159262902689
 20
3861.929630863207
 30
0.0
 11
5528.159262902689
 21
3711.929630863207
 31
0.0
  0
LINE
  5
7C65
330
841E
100
AcDbEntity
  8
1
100
AcDbLine
 10
5398.15926290269
 20
3861.929630863207
 30
0.0
 11
5468.35926290269
 21
3861.929630863207
 31
0.0
  0
LINE
  5
7C66
330
841E
100
AcDbEntity
  8
1
100
AcDbLine
 10
5398.15926290269
 20
3711.929630863207
 30
0.0
 11
5468.35926290269
 21
3711.929630863207
 31
0.0
  0
ARC
  5
7C67
330
841E
100
AcDbEntity
  8
1
100
AcDbCircle
 10
5398.15926290269
 20
3851.929630863207
 30
0.0
 40
10.0
100
AcDbArc
 50
90.0
 51
180.0
  0
ARC
  5
7C68
330
841E
100
AcDbEntity
  8
1
100
AcDbCircle
 10
5398.15926290269
 20
3721.929630863207
 30
0.0
 40
10.0
100
AcDbArc
 50
180.0
 51
270.0
  0
LINE
  5
7C69
330
841E
100
AcDbEntity
  8
1
100
AcDbLine
 10
5468.35926290269
 20
3711.929630863207
 30
0.0
 11
5528.159262902689
 21
3711.929630863207
 31
0.0
  0
LINE
  5
7C6A
330
841E
100
AcDbEntity
  8
1
100
AcDbLine
 10
5468.35926290269
 20
3861.929630863207
 30
0.0
 11
5528.159262902689
 21
3861.929630863207
 31
0.0
  0
LINE
  5
7C6B
330
841E
100
AcDbEntity
  8
1
100
AcDbLine
 10
7415.65926290269
 20
3851.929630863207
 30
0.0
 11
7415.65926290269
 21
3721.929630863207
 31
0.0
  0
LINE
  5
7C6C
330
841E
100
AcDbEntity
  8
1
100
AcDbLine
 10
7263.159262902689
 20
3861.929630863207
 30
0.0
 11
7263.159262902689
 21
3711.929630863207
 31
0.0
  0
LINE
  5
7C6D
330
841E
100
AcDbEntity
  8
1
100
AcDbLine
 10
7405.659262902689
 20
3711.929630863207
 30
0.0
 11
7322.959262902688
 21
3711.929630863207
 31
0.0
  0
ARC
  5
7C6E
330
841E
100
AcDbEntity
  8
1
100
AcDbCircle
 10
7405.659262902689
 20
3721.929630863207
 30
0.0
 40
10.0
100
AcDbArc
 50
270.0
 51
0.0
  0
LINE
  5
7C6F
330
841E
100
AcDbEntity
  8
1
100
AcDbLine
 10
7322.959262902688
 20
3711.929630863207
 30
0.0
 11
7263.159262902689
 21
3711.929630863207
 31
0.0
  0
LINE
  5
7C70
330
841E
100
AcDbEntity
  8
1
100
AcDbLine
 10
7405.659262902689
 20
3861.929630863207
 30
0.0
 11
7322.959262902688
 21
3861.929630863207
 31
0.0
  0
ARC
  5
7C71
330
841E
100
AcDbEntity
  8
1
100
AcDbCircle
 10
7405.659262902689
 20
3851.929630863207
 30
0.0
 40
10.0
100
AcDbArc
 50
0.0
 51
90.0
  0
LINE
  5
7C72
330
841E
100
AcDbEntity
  8
1
100
AcDbLine
 10
7322.959262902688
 20
3861.929630863207
 30
0.0
 11
7263.159262902689
 21
3861.929630863207
 31
0.0
  0
LINE
  5
7C77
330
841E
100
AcDbEntity
  8
1
100
AcDbLine
 10
5200.659262902689
 20
4181.929630863208
 30
0.0
 11
5278.559262902689
 21
4181.929630863208
 31
0.0
  0
LINE
  5
7C78
330
841E
100
AcDbEntity
  8
1
100
AcDbLine
 10
5200.659262902689
 20
3673.929630863208
 30
0.0
 11
5278.559262902689
 21
3673.929630863208
 31
0.0
  0
LINE
  5
7C79
330
841E
100
AcDbEntity
  8
1
100
AcDbLine
 10
5115.659262902688
 20
4307.929630863208
 30
0.0
 11
5360.659262902689
 21
4307.929630863208
 31
0.0
  0
LINE
  5
7C7A
330
841E
100
AcDbEntity
  8
1
100
AcDbLine
 10
5360.659262902689
 20
3002.929630863207
 30
0.0
 11
5360.659262902689
 21
2982.929630863207
 31
0.0
  0
INSERT
  5
7C7B
330
841E
100
AcDbEntity
  8
1
100
AcDbBlockReference
  2
YA_N
 10
4767.943419715615
 20
-1494.695868425496
 30
0.0
  0
LINE
  5
7C7C
330
841E
100
AcDbEntity
  8
1
100
AcDbLine
 10
7313.659262902691
 20
2942.929630863207
 30
0.0
 11
7313.659262902688
 21
2817.929630863207
 31
0.0
  0
LINE
  5
7C7D
330
841E
100
AcDbEntity
  8
1
100
AcDbLine
 10
5193.659262902688
 20
2797.929630863207
 30
0.0
 11
5193.65926290269
 21
2732.929630863207
 31
0.0
  0
LINE
  5
7C7E
330
841E
100
AcDbEntity
  8
1
100
AcDbLine
 10
5193.659262902689
 20
2942.929630863207
 30
0.0
 11
5193.659262902689
 21
2817.929630863207
 31
0.0
  0
LINE
  5
7C82
330
841E
100
AcDbEntity
  8
1
100
AcDbLine
 10
5298.65926290269
 20
3965.429630863207
 30
0.0
 11
5545.659262902688
 21
3965.429630863207
 31
0.0
  0
LINE
  5
7C83
330
841E
100
AcDbEntity
  8
1
100
AcDbLine
 10
5298.65926290269
 20
3890.429630863208
 30
0.0
 11
5545.659262902688
 21
3890.429630863208
 31
0.0
  0
LINE
  5
7C84
330
841E
100
AcDbEntity
  8
1
100
AcDbLine
 10
5389.609262902689
 20
3002.929630863207
 30
0.0
 11
5389.609262902689
 21
3202.929630863208
 31
0.0
  0
LINE
  5
7C85
330
841E
100
AcDbEntity
  8
1
100
AcDbLine
 10
5389.609262902689
 20
3002.929630863208
 30
0.0
 11
5545.659262902688
 21
3002.92963086321
 31
0.0
  0
LINE
  5
7C86
330
841E
100
AcDbEntity
  8
1
100
AcDbLine
 10
5545.659262902688
 20
3412.929630863209
 30
0.0
 11
5389.609262902689
 21
3412.929630863208
 31
0.0
  0
LINE
  5
7C87
330
841E
100
AcDbEntity
  8
1
100
AcDbLine
 10
5379.60926290269
 20
3172.929630863208
 30
0.0
 11
5293.65926290269
 21
3172.929630863208
 31
0.0
  0
LINE
  5
7C88
330
841E
100
AcDbEntity
  8
1
100
AcDbLine
 10
5379.60926290269
 20
3232.929630863208
 30
0.0
 11
5293.65926290269
 21
3232.929630863208
 31
0.0
  0
LINE
  5
7C89
330
841E
100
AcDbEntity
  8
1
100
AcDbLine
 10
5389.609262902689
 20
3412.929630863208
 30
0.0
 11
5389.609262902689
 21
3202.929630863208
 31
0.0
  0
LINE
  5
7C8A
330
841E
100
AcDbEntity
  8
1
100
AcDbLine
 10
5379.60926290269
 20
3170.429630863208
 30
0.0
 11
5379.60926290269
 21
3235.429630863208
 31
0.0
  0
LINE
  5
7C8B
330
841E
100
AcDbEntity
  8
1
100
AcDbLine
 10
5379.60926290269
 20
3170.429630863208
 30
0.0
 11
5389.609262902689
 21
3170.429630863208
 31
0.0
  0
LINE
  5
7C8C
330
841E
100
AcDbEntity
  8
1
100
AcDbLine
 10
5379.60926290269
 20
3235.429630863208
 30
0.0
 11
5389.609262902689
 21
3235.429630863208
 31
0.0
  0
LINE
  5
7C9B
330
841E
100
AcDbEntity
  8
2
100
AcDbLine
 10
4171.384877614022
 20
7721.308553199742
 30
0.0
 11
1753.029276631838
 21
7721.30855319974
 31
0.0
  0
LINE
  5
7C9C
330
841E
100
AcDbEntity
  8
1
100
AcDbLine
 10
3575.557756892301
 20
6441.308553199743
 30
0.0
 11
1555.557756892302
 21
6441.308553199743
 31
0.0
  0
LINE
  5
7C9D
330
841E
100
AcDbEntity
  8
1
100
AcDbLine
 10
3449.557756892303
 20
6526.308553199742
 30
0.0
 11
2941.557756892303
 21
6526.308553199742
 31
0.0
  0
LINE
  5
7C9E
330
841E
100
AcDbEntity
  8
1
100
AcDbLine
 10
3125.557756892302
 20
6604.208553199741
 30
0.0
 11
2941.557756892303
 21
6604.208553199741
 31
0.0
  0
LINE
  5
7C9F
330
841E
100
AcDbEntity
  8
1
100
AcDbLine
 10
1745.557756892301
 20
6705.258553199742
 30
0.0
 11
1745.557756892301
 21
6619.308553199743
 31
0.0
  0
LINE
  5
7CA0
330
841E
100
AcDbEntity
  8
1
100
AcDbLine
 10
1805.5577568923
 20
6705.258553199742
 30
0.0
 11
1805.5577568923
 21
6619.308553199743
 31
0.0
  0
LINE
  5
7CA1
330
841E
100
AcDbEntity
  8
1
100
AcDbLine
 10
1555.557756892302
 20
6441.308553199743
 30
0.0
 11
1555.557756892302
 21
6686.308553199743
 31
0.0
  0
LINE
  5
7CA2
330
841E
100
AcDbEntity
  8
1
100
AcDbLine
 10
2395.557756892301
 20
6519.308553199741
 30
0.0
 11
2270.557756892301
 21
6519.308553199741
 31
0.0
  0
LINE
  5
7CA3
330
841E
100
AcDbEntity
  8
1
100
AcDbLine
 10
2251.557756892301
 20
6519.308553199741
 30
0.0
 11
2186.557756892301
 21
6519.308553199742
 31
0.0
  0
LINE
  5
7CA4
330
841E
100
AcDbEntity
  8
1
100
AcDbLine
 10
1835.557756892301
 20
6619.308553199743
 30
0.0
 11
1715.557756892301
 21
6619.308553199743
 31
0.0
  0
LINE
  5
7CA5
330
841E
100
AcDbEntity
  8
1
100
AcDbLine
 10
1715.557756892301
 20
6604.208553199741
 30
0.0
 11
1669.557756892301
 21
6604.208553199741
 31
0.0
  0
LINE
  5
7CA6
330
841E
100
AcDbEntity
  8
1
100
AcDbLine
 10
1669.557756892301
 20
6526.308553199742
 30
0.0
 11
1669.557756892301
 21
6604.208553199741
 31
0.0
  0
LINE
  5
7CA7
330
841E
100
AcDbEntity
  8
1
100
AcDbLine
 10
1715.557756892301
 20
6604.208553199741
 30
0.0
 11
1715.557756892301
 21
6619.308553199743
 31
0.0
  0
LINE
  5
7CA8
330
841E
100
AcDbEntity
  8
1
100
AcDbLine
 10
1881.5577568923
 20
6526.308553199742
 30
0.0
 11
1881.5577568923
 21
6604.208553199741
 31
0.0
  0
LINE
  5
7CA9
330
841E
100
AcDbEntity
  8
1
100
AcDbLine
 10
1835.557756892301
 20
6604.208553199741
 30
0.0
 11
1835.557756892301
 21
6619.308553199743
 31
0.0
  0
LINE
  5
7CAA
330
841E
100
AcDbEntity
  8
1
100
AcDbLine
 10
2941.557756892303
 20
6526.308553199742
 30
0.0
 11
2941.557756892303
 21
6604.208553199741
 31
0.0
  0
LINE
  5
7CAB
330
841E
100
AcDbEntity
  8
1
100
AcDbLine
 10
1985.557756892301
 20
6715.258553199742
 30
0.0
 11
1775.557756892301
 21
6715.258553199742
 31
0.0
  0
LINE
  5
7CAC
330
841E
100
AcDbEntity
  8
1
100
AcDbLine
 10
1743.057756892301
 20
6705.258553199742
 30
0.0
 11
1808.057756892301
 21
6705.258553199742
 31
0.0
  0
LINE
  5
7CAD
330
841E
100
AcDbEntity
  8
1
100
AcDbLine
 10
1575.557756892301
 20
6715.258553199745
 30
0.0
 11
1575.557756892309
 21
7364.758553199743
 31
0.0
  0
LINE
  5
7CAE
330
841E
100
AcDbEntity
  8
1
100
AcDbLine
 10
1575.557756892301
 20
6715.258553199742
 30
0.0
 11
1775.557756892301
 21
6715.258553199742
 31
0.0
  0
LINE
  5
7CAF
330
841E
100
AcDbEntity
  8
1
100
AcDbLine
 10
1743.057756892301
 20
6705.258553199742
 30
0.0
 11
1743.057756892301
 21
6715.258553199742
 31
0.0
  0
LINE
  5
7CB0
330
841E
100
AcDbEntity
  8
1
100
AcDbLine
 10
1575.557756892303
 20
6890.758553199742
 30
0.0
 11
1576.557756892303
 21
6890.758553199742
 31
0.0
  0
LINE
  5
7CB1
330
841E
100
AcDbEntity
  8
1
100
AcDbLine
 10
1985.557756892303
 20
6871.308553199741
 30
0.0
 11
1985.557756892301
 21
6715.258553199742
 31
0.0
  0
LINE
  5
7CB2
330
841E
100
AcDbEntity
  8
1
100
AcDbLine
 10
1808.057756892301
 20
6705.258553199742
 30
0.0
 11
1808.057756892301
 21
6715.258553199742
 31
0.0
  0
LINE
  5
7CB3
330
841E
100
AcDbEntity
  8
1
100
AcDbLine
 10
3158.057756892302
 20
6624.308553199742
 30
0.0
 11
3158.057756892302
 21
6871.308553199741
 31
0.0
  0
LINE
  5
7CB4
330
841E
100
AcDbEntity
  8
1
100
AcDbLine
 10
3233.057756892303
 20
6624.308553199742
 30
0.0
 11
3233.057756892303
 21
6871.308553199741
 31
0.0
  0
LINE
  5
7CB5
330
841E
100
AcDbEntity
  8
1
100
AcDbLine
 10
3575.557756892301
 20
6441.308553199741
 30
0.0
 11
3575.557756892301
 21
6686.30855319974
 31
0.0
  0
LINE
  5
7CB6
330
841E
100
AcDbEntity
  8
1
100
AcDbLine
 10
3265.557756892302
 20
6624.308553199742
 30
0.0
 11
3125.557756892302
 21
6624.308553199742
 31
0.0
  0
LINE
  5
7CB7
330
841E
100
AcDbEntity
  8
1
100
AcDbLine
 10
3125.557756892302
 20
6604.208553199741
 30
0.0
 11
3125.557756892302
 21
6624.308553199742
 31
0.0
  0
LINE
  5
7CB8
330
841E
100
AcDbEntity
  8
1
100
AcDbLine
 10
3449.557756892303
 20
6604.208553199741
 30
0.0
 11
3265.557756892302
 21
6604.208553199741
 31
0.0
  0
LINE
  5
7CB9
330
841E
100
AcDbEntity
  8
1
100
AcDbLine
 10
3265.557756892302
 20
6604.208553199741
 30
0.0
 11
3265.557756892302
 21
6624.308553199742
 31
0.0
  0
LINE
  5
7CBA
330
841E
100
AcDbEntity
  8
1
100
AcDbLine
 10
3449.557756892303
 20
6526.308553199742
 30
0.0
 11
3449.557756892303
 21
6604.208553199741
 31
0.0
  0
LINE
  5
7CBB
330
841E
100
AcDbEntity
  8
1
100
AcDbLine
 10
3575.557756892301
 20
6686.308553199741
 30
0.0
 11
1555.557756892302
 21
6686.308553199833
 31
0.0
  0
LINE
  5
7CBD
330
841E
100
AcDbEntity
  8
1
100
AcDbLine
 10
1575.557756892304
 20
7364.758553199743
 30
0.0
 11
1861.557756892302
 21
7364.758553199742
 31
0.0
  0
LINE
  5
7CBE
330
841E
100
AcDbEntity
  8
1
100
AcDbLine
 10
4092.557756892301
 20
8571.308553199742
 30
0.0
 11
1861.557756892302
 21
8571.308553199742
 31
0.0
  0
LINE
  5
7CBF
330
841E
100
AcDbEntity
  8
1
100
AcDbLine
 10
4092.557756892301
 20
6871.308553199739
 30
0.0
 11
1861.557756892302
 21
6871.308553199741
 31
0.0
  0
LINE
  5
7CC0
330
841E
100
AcDbEntity
  8
1
100
AcDbLine
 10
3945.557756892302
 20
6871.308553199741
 30
0.0
 11
3945.557756892302
 21
6519.308553199739
 31
0.0
  0
LINE
  5
7CC1
330
841E
100
AcDbEntity
  8
1
100
AcDbLine
 10
1881.5577568923
 20
6604.208553199741
 30
0.0
 11
1835.557756892301
 21
6604.208553199741
 31
0.0
  0
LINE
  5
7CC2
330
841E
100
AcDbEntity
  8
1
100
AcDbLine
 10
1881.5577568923
 20
6526.308553199742
 30
0.0
 11
1669.557756892301
 21
6526.308553199742
 31
0.0
  0
INSERT
  5
7CC8
330
841E
100
AcDbEntity
  8
1
100
AcDbBlockReference
  2
YA_N
 10
10738.86349375248
 20
1135.274830878665
 30
0.0
  0
ARC
  5
7CCA
330
841E
100
AcDbEntity
  8
1
100
AcDbCircle
 10
3104.557756892301
 20
4018.929630863207
 30
0.0
 40
1170.0
100
AcDbArc
 50
184.4608436978738
 51
246.8761524324772
  0
ARC
  5
7CCB
330
841E
100
AcDbEntity
  8
1
100
AcDbCircle
 10
3104.557756892301
 20
3836.929630863208
 30
0.0
 40
988.0
100
AcDbArc
 50
295.1957948442135
 51
5.28473295453451
  0
ARC
  5
7CCC
330
841E
100
AcDbEntity
  8
1
100
AcDbCircle
 10
3272.557756892301
 20
3850.929630863208
 30
0.0
 40
820.0
100
AcDbArc
 50
5.388151804327393
 51
92.75751475579211
  0
LINE
  5
7CCD
330
841E
100
AcDbEntity
  8
1
100
AcDbLine
 10
1938.102014054193
 20
3927.929630863207
 30
0.0
 11
1861.557756892302
 21
4752.929630863208
 31
0.0
  0
LINE
  5
7CCE
330
841E
100
AcDbEntity
  8
1
100
AcDbLine
 10
3945.557756892302
 20
2817.929630863207
 30
0.0
 11
1495.557756892301
 21
2817.929630863207
 31
0.0
1001
ACAD
1000
ASC_BOUNDS
1002
{
1070
    19
1002
}
  0
LINE
  5
7CCF
330
841E
100
AcDbEntity
  8
1
100
AcDbLine
 10
3945.557756892302
 20
2942.929630863207
 30
0.0
 11
1495.557756892301
 21
2942.929630863207
 31
0.0
  0
LINE
  5
7CD0
330
841E
100
AcDbEntity
  8
1
100
AcDbLine
 10
3945.557756892302
 20
2942.929630863207
 30
0.0
 11
3945.557756892302
 21
2817.929630863207
 31
0.0
  0
LINE
  5
7CD1
330
841E
100
AcDbEntity
  8
1
100
AcDbLine
 10
1495.557756892301
 20
2942.929630863207
 30
0.0
 11
1495.557756892301
 21
2817.929630863207
 31
0.0
  0
LINE
  5
7CD2
330
841E
100
AcDbEntity
  8
2
100
AcDbLine
 10
1775.557756892301
 20
3493.784147468918
 30
0.0
 11
1775.557756892302
 21
2732.929630863207
 31
0.0
  0
LINE
  5
7CD3
330
841E
100
AcDbEntity
  8
2
100
AcDbLine
 10
2055.871973650453
 20
3202.929630863208
 30
0.0
 11
1368.393278597586
 21
3202.929630863208
 31
0.0
  0
LINE
  5
7CD4
330
841E
100
AcDbEntity
  8
1
100
AcDbLine
 10
3141.557756892302
 20
4752.929630863208
 30
0.0
 11
3141.557756892304
 21
4668.96471775181
 31
0.0
  0
LINE
  5
7CD5
330
841E
100
AcDbEntity
  8
1
100
AcDbLine
 10
1866.196802780901
 20
4702.929630863208
 30
0.0
 11
3141.557756892302
 21
4702.929630863208
 31
0.0
  0
LINE
  5
7CD6
330
841E
100
AcDbEntity
  8
1
100
AcDbLine
 10
1808.557756892301
 20
4752.929630863208
 30
0.0
 11
3194.557756892301
 21
4752.929630863208
 31
0.0
  0
POINT
  5
7CD7
330
841E
100
AcDbEntity
  8
1
100
AcDbPoint
 10
2120.75747228165
 20
3927.929630863207
 30
0.0
  0
INSERT
  5
7CD8
330
841E
100
AcDbEntity
  8
1
100
AcDbBlockReference
  2
YA_N
 10
8975.636086442174
 20
-88.51158657911581
 30
0.0
 41
30.0
 42
30.0
 43
30.0
  0
LINE
  5
7CDA
330
841E
100
AcDbEntity
  8
1
100
AcDbLine
 10
3945.557756892302
 20
2797.929630863207
 30
0.0
 11
1495.557756892301
 21
2797.929630863207
 31
0.0
1001
ACAD
1000
ASC_BOUNDS
1002
{
1070
    19
1002
}
  0
LINE
  5
7CDB
330
841E
100
AcDbEntity
  8
1
100
AcDbLine
 10
3945.557756892302
 20
2732.929630863207
 30
0.0
 11
1495.557756892301
 21
2732.929630863207
 31
0.0
  0
LINE
  5
7CDC
330
841E
100
AcDbEntity
  8
1
100
AcDbLine
 10
3945.557756892302
 20
2797.929630863207
 30
0.0
 11
3945.557756892302
 21
2732.929630863207
 31
0.0
  0
LINE
  5
7CDD
330
841E
100
AcDbEntity
  8
1
100
AcDbLine
 10
1495.557756892301
 20
2797.929630863207
 30
0.0
 11
1495.557756892301
 21
2732.929630863207
 31
0.0
  0
ARC
  5
7CDE
330
841E
100
AcDbEntity
  8
1
100
AcDbCircle
 10
1775.557756892301
 20
3202.929630863208
 30
0.0
 40
203.5
100
AcDbArc
 50
285.603699
 51
254.39624
  0
LINE
  5
7CDF
330
841E
100
AcDbEntity
  8
1
100
AcDbLine
 10
1720.8197198923
 20
3006.929630863207
 30
0.0
 11
1830.295793892302
 21
3006.929630863207
 31
0.0
  0
ARC
  5
7CE0
330
841E
100
AcDbEntity
  8
1
100
AcDbCircle
 10
1961.557756892301
 20
3019.929630863207
 30
0.0
 40
3.0
100
AcDbArc
 50
0.0
 51
90.0
  0
ARC
  5
7CE1
330
841E
100
AcDbEntity
  8
1
100
AcDbCircle
 10
1959.5577568923
 20
3077.256291863207
 30
0.0
 40
5.000066999999999
100
AcDbArc
 50
0.0
 51
55.056335
  0
LINE
  5
7CE2
330
841E
100
AcDbEntity
  8
1
100
AcDbLine
 10
1964.5577568923
 20
3077.256291863207
 30
0.0
 11
1964.5577568923
 21
3002.929630863207
 31
0.0
  0
LINE
  5
7CE6
330
841E
100
AcDbEntity
  8
1
100
AcDbLine
 10
1879.660326892302
 20
3028.072819863208
 30
0.0
 11
1885.057756892301
 21
3007.929630863207
 31
0.0
  0
LINE
  5
7CE7
330
841E
100
AcDbEntity
  8
1
100
AcDbLine
 10
1885.057756892301
 20
3019.929630863207
 30
0.0
 11
1885.057756892301
 21
3002.929630863207
 31
0.0
  0
LINE
  5
7CE8
330
841E
100
AcDbEntity
  8
1
100
AcDbLine
 10
1888.0577568923
 20
3022.929630863207
 30
0.0
 11
1961.557756892301
 21
3022.929630863207
 31
0.0
  0
ARC
  5
7CE9
330
841E
100
AcDbEntity
  8
1
100
AcDbCircle
 10
1888.0577568923
 20
3019.929630863207
 30
0.0
 40
3.0
100
AcDbArc
 50
90.0
 51
180.0
  0
LINE
  5
7CEA
330
841E
100
AcDbEntity
  8
1
100
AcDbLine
 10
1962.421526892301
 20
3081.354923863207
 30
0.0
 11
1946.483660892301
 21
3092.491398863207
 31
0.0
  0
LINE
  5
7CEB
330
841E
100
AcDbEntity
  8
1
100
AcDbLine
 10
1586.557756892301
 20
3077.256291863207
 30
0.0
 11
1586.557756892301
 21
3002.929630863207
 31
0.0
  0
LINE
  5
7CEF
330
841E
100
AcDbEntity
  8
1
100
AcDbLine
 10
1671.454973892301
 20
3028.072941863207
 30
0.0
 11
1666.057756892301
 21
3007.929630863207
 31
0.0
  0
LINE
  5
7CF0
330
841E
100
AcDbEntity
  8
1
100
AcDbLine
 10
1666.057756892301
 20
3019.929630863207
 30
0.0
 11
1666.057756892301
 21
3002.929630863207
 31
0.0
  0
LINE
  5
7CF1
330
841E
100
AcDbEntity
  8
1
100
AcDbLine
 10
1663.057756892301
 20
3022.929630863207
 30
0.0
 11
1589.557756892301
 21
3022.929630863207
 31
0.0
  0
ARC
  5
7CF2
330
841E
100
AcDbEntity
  8
1
100
AcDbCircle
 10
1663.057756892301
 20
3019.929630863207
 30
0.0
 40
3.0
100
AcDbArc
 50
0.0
 51
90.0
  0
ARC
  5
7CF3
330
841E
100
AcDbEntity
  8
1
100
AcDbCircle
 10
1589.557756892301
 20
3019.929630863207
 30
0.0
 40
3.0
100
AcDbArc
 50
90.0
 51
180.0
  0
LINE
  5
7CF4
330
841E
100
AcDbEntity
  8
1
100
AcDbLine
 10
1588.693865892302
 20
3081.354923863207
 30
0.0
 11
1604.631731892303
 21
3092.491398863207
 31
0.0
  0
ARC
  5
7CF5
330
841E
100
AcDbEntity
  8
1
100
AcDbCircle
 10
1591.557756892301
 20
3077.256291863207
 30
0.0
 40
5.0
100
AcDbArc
 50
124.943661
 51
180.0
  0
LINE
  5
7CF6
330
841E
100
AcDbEntity
  8
1
100
AcDbLine
 10
2018.980781934911
 20
3002.929630863207
 30
0.0
 11
1845.557756892302
 21
3002.929630863207
 31
0.0
  0
LINE
  5
7CF7
330
841E
100
AcDbEntity
  8
1
100
AcDbLine
 10
2035.557756892302
 20
2942.929630863207
 30
0.0
 11
2018.980781934911
 21
3002.929630863207
 31
0.0
  0
LINE
  5
7CF8
330
841E
100
AcDbEntity
  8
1
100
AcDbLine
 10
1515.557756892301
 20
2942.929630863207
 30
0.0
 11
1531.73871343742
 21
3002.929630863207
 31
0.0
  0
LINE
  5
7CF9
330
841E
100
AcDbEntity
  8
1
100
AcDbLine
 10
1845.557756892302
 20
2992.929630863207
 30
0.0
 11
1705.557756892301
 21
2992.929630863207
 31
0.0
  0
LINE
  5
7CFB
330
841E
100
AcDbEntity
  8
1
100
AcDbLine
 10
1705.557756892301
 20
3002.929630863207
 30
0.0
 11
1705.557756892301
 21
2992.929630863207
 31
0.0
  0
LINE
  5
7CFC
330
841E
100
AcDbEntity
  8
1
100
AcDbLine
 10
1845.557756892302
 20
3002.929630863207
 30
0.0
 11
1845.557756892302
 21
2992.929630863207
 31
0.0
  0
LINE
  5
7CFF
330
841E
100
AcDbEntity
  8
1
100
AcDbLine
 10
1705.557756892301
 20
3002.929630863207
 30
0.0
 11
1531.73871343742
 21
3002.929630863207
 31
0.0
  0
INSERT
  5
7D02
330
841E
100
AcDbEntity
  8
1
100
AcDbBlockReference
  2
YA_N
 10
9977.619817870641
 20
591.719846044809
 30
0.0
 41
30.0
 42
30.0
 43
30.0
  0
CIRCLE
  5
7D08
330
841E
100
AcDbEntity
  8
1
100
AcDbCircle
 10
1775.557756892301
 20
3202.929630863208
 30
0.0
 40
107.0
  0
POINT
  5
7D09
330
841E
100
AcDbEntity
  8
1
100
AcDbPoint
 10
3945.557756892302
 20
2797.929630863207
 30
0.0
  0
POINT
  5
7D0A
330
841E
100
AcDbEntity
  8
1
100
AcDbPoint
 10
3945.557756892302
 20
2817.929630863207
 30
0.0
  0
POINT
  5
7D0B
330
841E
100
AcDbEntity
  8
1
100
AcDbPoint
 10
3945.557756892302
 20
2797.929630863207
 30
0.0
  0
ARC
  5
7D0D
330
841E
100
AcDbEntity
  8
1
100
AcDbCircle
 10
3195.557756892303
 20
3927.929630863207
 30
0.0
 40
625.0
100
AcDbArc
 50
0.0
 51
180.0
  0
ARC
  5
7D0E
330
841E
100
AcDbEntity
  8
1
100
AcDbCircle
 10
3195.557756892303
 20
3927.929630863207
 30
0.0
 40
675.0
100
AcDbArc
 50
0.0
 51
180.0
  0
ARC
  5
7D0F
330
841E
100
AcDbEntity
  8
1
100
AcDbCircle
 10
3195.557756892303
 20
3927.929630863207
 30
0.0
 40
625.0
100
AcDbArc
 50
180.0
 51
0.0
  0
ARC
  5
7D10
330
841E
100
AcDbEntity
  8
1
100
AcDbCircle
 10
3195.557756892303
 20
3927.929630863207
 30
0.0
 40
675.0
100
AcDbArc
 50
180.0
 51
0.0
  0
CIRCLE
  5
7D13
330
841E
100
AcDbEntity
  8
1
100
AcDbCircle
 10
3195.557756892303
 20
3927.929630863207
 30
0.0
 40
254.0
  0
POINT
  5
7D14
330
841E
100
AcDbEntity
  8
1
100
AcDbPoint
 10
3945.557756892302
 20
2797.929630863207
 30
0.0
  0
POINT
  5
7D16
330
841E
100
AcDbEntity
  8
1
100
AcDbPoint
 10
3945.557756892302
 20
2797.929630863207
 30
0.0
  0
POINT
  5
7D17
330
841E
100
AcDbEntity
  8
1
100
AcDbPoint
 10
3945.557756892302
 20
2817.929630863207
 30
0.0
  0
ARC
  5
7D18
330
841E
100
AcDbEntity
  8
1
100
AcDbCircle
 10
3195.557756892303
 20
3927.929630863207
 30
0.0
 40
743.0
100
AcDbArc
 50
87.10309195897407
 51
94.1678363221616
  0
INSERT
  5
7D19
330
841E
100
AcDbEntity
  8
1
100
AcDbBlockReference
  2
YA_N
 10
15500.8069134681
 20
-364.421037546832
 30
0.0
  0
ARC
  5
7D1B
330
841E
100
AcDbEntity
  8
1
100
AcDbCircle
 10
3195.557756892303
 20
3927.929630863207
 30
0.0
 40
380.0
100
AcDbArc
 50
291.2876978829832
 51
122.8066865543592
  0
ARC
  5
7D1C
330
841E
100
AcDbEntity
  8
1
100
AcDbCircle
 10
1775.557756892301
 20
3202.929630863208
 30
0.0
 40
220.0
100
AcDbArc
 50
122.8066865543592
 51
291.2876978829832
  0
LINE
  5
7D1D
330
841E
100
AcDbEntity
  8
1
100
AcDbLine
 10
2989.671361856981
 20
4247.320914932386
 30
0.0
 11
1656.360370292905
 21
3387.840374271681
 31
0.0
  0
LINE
  5
7D1E
330
841E
100
AcDbEntity
  8
1
100
AcDbLine
 10
3059.69239360444
 20
4142.537652751154
 30
0.0
 11
1718.323135349777
 21
3293.335372367185
 31
0.0
  0
LINE
  5
7D1F
330
841E
100
AcDbEntity
  8
1
100
AcDbLine
 10
3289.708377012805
 20
3692.023588696152
 30
0.0
 11
1815.219632297396
 21
3103.551888690471
 31
0.0
  0
LINE
  5
7D20
330
841E
100
AcDbEntity
  8
1
100
AcDbLine
 10
3333.517203923572
 20
3573.85733460886
 30
0.0
 11
1855.429015699879
 21
2997.940406715953
 31
0.0
  0
POINT
  5
7D24
330
841E
100
AcDbEntity
  8
1
100
AcDbPoint
 10
3945.557756892302
 20
2797.929630863207
 30
0.0
  0
POINT
  5
7D26
330
841E
100
AcDbEntity
  8
1
100
AcDbPoint
 10
3945.557756892302
 20
2797.929630863207
 30
0.0
  0
POINT
  5
7D27
330
841E
100
AcDbEntity
  8
1
100
AcDbPoint
 10
3945.557756892302
 20
2817.929630863207
 30
0.0
  0
LINE
  5
7D2A
330
841E
100
AcDbEntity
  8
1
100
AcDbLine
 10
5492.65926290269
 20
4752.929630863208
 30
0.0
 11
7298.659262902688
 21
4752.929630863208
 31
0.0
  0
LINE
  5
7D2B
330
841E
100
AcDbEntity
  8
1
100
AcDbLine
 10
5545.659262902688
 20
4702.929630863208
 30
0.0
 11
7245.659262902688
 21
4702.929630863208
 31
0.0
  0
LINE
  5
7D2C
330
841E
100
AcDbEntity
  8
1
100
AcDbLine
 10
4092.557756892301
 20
8571.308553199742
 30
0.0
 11
4092.557756892301
 21
6871.308553199739
 31
0.0
  0
LINE
  5
7D2D
330
841E
100
AcDbEntity
  8
1
100
AcDbLine
 10
1861.557756892302
 20
8571.308553199742
 30
0.0
 11
1861.557756892302
 21
6871.308553199741
 31
0.0
  0
LINE
  5
7D2E
330
841E
100
AcDbEntity
  8
1
100
AcDbLine
 10
3141.557756892302
 20
8571.308553199742
 30
0.0
 11
3141.557756892302
 21
6871.308553199741
 31
0.0
  0
LINE
  5
7D2F
330
841E
100
AcDbEntity
  8
1
100
AcDbLine
 10
3141.557756892302
 20
8571.308553199742
 30
0.0
 11
1861.557756892302
 21
6871.308553199741
 31
0.0
  0
LINE
  5
7D30
330
841E
100
AcDbEntity
  8
1
100
AcDbLine
 10
1861.557756892302
 20
8571.308553199742
 30
0.0
 11
3141.557756892302
 21
6871.308553199741
 31
0.0
  0
LINE
  5
80E3
330
841E
100
AcDbEntity
  8
4
100
AcDbLine
 10
7400.0
 20
2000.0
 30
0.0
 11
7400.0
 21
1200.0
 31
0.0
  0
LINE
  5
80E4
330
841E
100
AcDbEntity
  8
4
100
AcDbLine
 10
4600.0
 20
2000.0
 30
0.0
 11
4600.0
 21
1200.0
 31
0.0
  0
LINE
  5
80E5
330
841E
100
AcDbEntity
  8
4
100
AcDbLine
 10
2600.0
 20
2000.0
 30
0.0
 11
2600.0
 21
1200.0
 31
0.0
  0
LINE
  5
80E8
330
841E
100
AcDbEntity
  8
4
100
AcDbLine
 10
2600.0
 20
1200.0
 30
0.0
 11
7400.0
 21
1200.0
 31
0.0
  0
LINE
  5
80E9
330
841E
100
AcDbEntity
  8
4
100
AcDbLine
 10
2600.0
 20
1600.0
 30
0.0
 11
7400.0
 21
1600.0
 31
0.0
  0
TEXT
  5
80EA
330
841E
100
AcDbEntity
  8
4
100
AcDbText
 10
2754.008323387607
 20
1726.172103466451
 30
0.0
 40
200.0
  1
機器名称
100
AcDbText
  0
TEXT
  5
80EB
330
841E
100
AcDbEntity
  8
4
100
AcDbText
 10
2745.03242409919
 20
1286.580626928043
 30
0.0
 40
200.0
  1
機器型番
100
AcDbText
  0
TEXT
  5
80EC
330
841E
100
AcDbEntity
  8
4
100
AcDbText
 10
4710.714981950659
 20
1690.287075830274
 30
0.0
 40
200.0
  1
ミツヤ多翼送風機
100
AcDbText
  0
TEXT
  5
80ED
330
841E
100
AcDbEntity
  8
4
100
AcDbText
 10
4746.617982341923
 20
1268.638337119773
 30
0.0
 40
200.0
  1
MF#8-5
100
AcDbText
  0
TEXT
  5
80EF
330
841E
100
AcDbEntity
  8
4
100
AcDbText
 10
3239.654004135525
 20
9533.715365330063
 30
0.0
 40
215.9999999999999
  1
床置防振ベット
100
AcDbText
  0
TEXT
  5
80F0
330
841E
100
AcDbEntity
  8
4
100
AcDbText
 10
1264.670373317785
 20
10135.52390479719
 30
0.0
 40
288.0
  1
遠心式両吸込両持多翼ファン
100
AcDbText
  0
LINE
  5
80F1
330
841E
100
AcDbEntity
  8
4
100
AcDbLine
 10
1000.0
 20
9877.635017059219
 30
0.0
 11
7400.0
 21
9877.635017059219
 31
0.0
  0
LINE
  5
80F2
330
841E
100
AcDbEntity
  8
4
100
AcDbLine
 10
1000.0
 20
10677.63501705921
 30
0.0
 11
7400.0
 21
10677.63501705921
 31
0.0
  0
LINE
  5
80F3
330
841E
100
AcDbEntity
  8
4
100
AcDbLine
 10
2600.0
 20
2000.0
 30
0.0
 11
7400.0
 21
2000.0
 31
0.0
  0
LINE
  5
80F4
330
841E
100
AcDbEntity
  8
4
100
AcDbLine
 10
1000.0
 20
10677.63501705921
 30
0.0
 11
1000.0
 21
9877.635017059219
 31
0.0
  0
TEXT
  5
80F5
330
841E
100
AcDbEntity
  8
4
100
AcDbText
 10
1496.218675164716
 20
9529.277910185374
 30
0.0
 40
215.9999999999999
  1
右回転上向
100
AcDbText
  0
TEXT
  5
80F6
330
841E
100
AcDbEntity
  8
4
100
AcDbText
 10
5875.878236997159
 20
10824.24432598123
 30
0.0
 40
224.0
  1
No.
100
AcDbText
  0
TEXT
  5
80F7
330
841E
100
AcDbEntity
  8
4
100
AcDbText
 10
5245.184250400053
 20
9533.715365330063
 30
0.0
 40
215.9999999999999
  1
縮尺：1/40
100
AcDbText
  0
LINE
  5
80F8
330
841E
100
AcDbEntity
  8
4
100
AcDbLine
 10
7400.0
 20
10677.63501705921
 30
0.0
 11
7400.0
 21
9877.635017059219
 31
0.0
  0
LINE
  5
80F9
330
841E
100
AcDbEntity
  8
4
100
AcDbLine
 10
8400.0
 20
11800.0
 30
0.0
 11
8400.0
 21
11800.0
 31
0.0
  0
LINE
  5
80FA
330
841E
100
AcDbEntity
  8
4
100
AcDbLine
 10
5762.469689439458
 20
10725.0543325016
 30
0.0
 11
5762.469689439458
 21
11146.609046199
 31
0.0
  0
LINE
  5
80FB
330
841E
100
AcDbEntity
  8
4
100
AcDbLine
 10
5762.469689439458
 20
11146.609046199
 30
0.0
 11
7400.0
 21
11146.609046199
 31
0.0
  0
LINE
  5
80FC
330
841E
100
AcDbEntity
  8
4
100
AcDbLine
 10
7400.0
 20
11146.609046199
 30
0.0
 11
7400.0
 21
10725.0543325016
 31
0.0
  0
LINE
  5
80FD
330
841E
100
AcDbEntity
  8
4
100
AcDbLine
 10
7400.0
 20
10725.0543325016
 30
0.0
 11
5762.469689439458
 21
10725.0543325016
 31
0.0
  0
LINE
  5
80FE
330
841E
100
AcDbEntity
  8
4
100
AcDbLine
 10
0.0
 20
0.0
 30
0.0
 11
0.0
 21
11800.0
 31
0.0
  0
LINE
  5
80FF
330
841E
100
AcDbEntity
  8
4
100
AcDbLine
 10
0.0
 20
11800.0
 30
0.0
 11
8400.0
 21
11800.0
 31
0.0
  0
LINE
  5
8100
330
841E
100
AcDbEntity
  8
4
100
AcDbLine
 10
8400.0
 20
11800.0
 30
0.0
 11
8400.0
 21
0.0
 31
0.0
  0
LINE
  5
8101
330
841E
100
AcDbEntity
  8
4
100
AcDbLine
 10
8400.0
 20
0.0
 30
0.0
 11
0.0
 21
0.0
 31
0.0
  0
DIMENSION
  5
81A9
330
841E
100
AcDbEntity
  8
3
100
AcDbDimension
  2
*D21
 10
3195.557756892301
 20
2492.637852619049
 30
0.0
 11
2345.557756892302
 21
2592.637852619049
 31
0.0
 71
     5
 42
-1.0
  3
Standard
100
AcDbAlignedDimension
 13
1495.557756892301
 23
2732.929630863207
 33
0.0
 14
3195.557756892301
 24
2732.929630863207
 34
0.0
100
AcDbRotatedDimension
1001
ACAD
1000
DSTYLE
1002
{
1070
   172
1070
     1
1070
    40
1040
40.0
1070
   271
1070
     0
1070
   143
1040
0.039
1002
}
  0
DIMENSION
  5
81B6
330
841E
100
AcDbEntity
  8
3
100
AcDbDimension
  2
*D22
 10
3945.557756892302
 20
2492.637852619049
 30
0.0
 11
3570.557756892303
 21
2592.637852619049
 31
0.0
 71
     5
 42
-1.0
  3
Standard
100
AcDbAlignedDimension
 13
3195.557756892301
 23
2732.929630863207
 33
0.0
 14
3945.557756892302
 24
2732.929630863207
 34
0.0
100
AcDbRotatedDimension
1001
ACAD
1000
DSTYLE
1002
{
1070
   172
1070
     1
1070
    40
1040
40.0
1070
   271
1070
     0
1070
   143
1040
0.039
1002
}
  0
DIMENSION
  5
81D0
330
841E
100
AcDbEntity
  8
3
100
AcDbDimension
  2
*D23
 10
6395.659262902686
 20
2492.637852619049
 30
0.0
 11
5794.659262902688
 21
2592.637852619049
 31
0.0
 71
     5
 42
-1.0
  3
Standard
100
AcDbAlignedDimension
 13
5193.65926290269
 23
2732.929630863207
 33
0.0
 14
6395.659262902686
 24
2732.929630863207
 34
0.0
100
AcDbRotatedDimension
1001
ACAD
1000
DSTYLE
1002
{
1070
   172
1070
     1
1070
    40
1040
40.0
1070
   271
1070
     0
1070
   143
1040
0.039
1002
}
  0
DIMENSION
  5
81DD
330
841E
100
AcDbEntity
  8
3
100
AcDbDimension
  2
*D24
 10
7313.659262902691
 20
2492.637852619049
 30
0.0
 11
6854.659262902686
 21
2592.637852619049
 31
0.0
 71
     5
 42
-1.0
  3
Standard
100
AcDbAlignedDimension
 13
6395.659262902686
 23
2732.929630863207
 33
0.0
 14
7313.659262902691
 24
2732.929630863207
 34
0.0
100
AcDbRotatedDimension
1001
ACAD
1000
DSTYLE
1002
{
1070
   172
1070
     1
1070
    40
1040
40.0
1070
   271
1070
     0
1070
   143
1040
0.039
1002
}
  0
DIMENSION
  5
84C3
330
841E
100
AcDbEntity
  8
3
100
AcDbDimension
  2
*D28
 10
7656.928887815194
 20
3302.929630863207
 30
0.0
 11
7556.928887815193
 21
3927.929630863209
 31
0.0
 70
    32
  1
\U+03C6<>
 71
     5
 42
1250.0
  3
IGA
100
AcDbAlignedDimension
 13
7245.659262902688
 23
4552.929630863207
 33
0.0
 14
7245.659262902688
 24
3302.929630863207
 34
0.0
 50
90.0
100
AcDbRotatedDimension
1001
ACAD
1000
DSTYLE
1002
{
1070
    40
1040
40.0
1070
   143
1040
0.039
1070
   172
1070
     1
1070
   271
1070
     4
1070
   272
1070
     4
1070
   279
1070
     0
1070
   284
1070
     0
1070
   285
1070
     0
1070
   286
1070
     0
1070
   341
1005
8435
1070
   343
1005
8435
1070
   344
1005
8435
1002
}
  0
DIMENSION
  5
84D0
330
841E
100
AcDbEntity
  8
3
100
AcDbDimension
  2
*D29
 10
7245.659262902688
 20
4985.952180251301
 30
0.0
 11
6395.65926290269
 21
5085.9521802513
 31
0.0
 70
    32
 71
     5
 42
1699.999999999999
  3
IGA
100
AcDbAlignedDimension
 13
5545.659262902689
 23
4752.929630863208
 33
0.0
 14
7245.659262902688
 24
4752.929630863208
 34
0.0
100
AcDbRotatedDimension
1001
ACAD
1000
DSTYLE
1002
{
1070
    40
1040
40.0
1070
   143
1040
0.039
1070
   172
1070
     1
1070
   271
1070
     4
1070
   272
1070
     4
1070
   279
1070
     0
1070
   284
1070
     0
1070
   285
1070
     0
1070
   286
1070
     0
1070
   341
1005
8435
1070
   343
1005
8435
1070
   344
1005
8435
1002
}
  0
DIMENSION
  5
84DD
330
841E
100
AcDbEntity
  8
3
100
AcDbDimension
  2
*D30
 10
6395.65926290269
 20
5238.915485110203
 30
0.0
 11
5755.659262902689
 21
5370.344056538774
 31
0.0
 70
    32
  1
(<>)
 71
     5
 42
1280.000000000001
  3
IGA
100
AcDbAlignedDimension
 13
5115.659262902688
 23
4307.929630863208
 33
0.0
 14
6395.65926290269
 24
5145.952180251301
 34
0.0
100
AcDbRotatedDimension
1001
ACAD
1000
DSTYLE
1002
{
1070
    40
1040
40.0
1070
   143
1040
0.039
1070
   172
1070
     1
1070
   271
1070
     4
1070
   272
1070
     4
1070
   279
1070
     0
1070
   284
1070
     0
1070
   285
1070
     0
1070
   286
1070
     0
1070
   341
1005
8435
1070
   343
1005
8435
1070
   344
1005
8435
1002
}
  0
DIMENSION
  5
84EA
330
841E
100
AcDbEntity
  8
3
100
AcDbDimension
  2
*D31
 10
7415.65926290269
 20
5238.915485110203
 30
0.0
 11
6905.659262902689
 21
5370.344056538774
 31
0.0
 70
    32
  1
(<>)
 71
     5
 42
1020.0
  3
IGA
100
AcDbAlignedDimension
 13
6395.65926290269
 23
5145.952180251301
 33
0.0
 14
7415.65926290269
 24
3851.929630863207
 34
0.0
100
AcDbRotatedDimension
1001
ACAD
1000
DSTYLE
1002
{
1070
    40
1040
40.0
1070
   143
1040
0.039
1070
   172
1070
     1
1070
   271
1070
     4
1070
   272
1070
     4
1070
   279
1070
     1
1070
   284
1070
     0
1070
   285
1070
     0
1070
   286
1070
     0
1070
   341
1005
8435
1070
   343
1005
8435
1070
   344
1005
8435
1002
}
  0
DIMENSION
  5
8561
330
841E
100
AcDbEntity
  8
3
100
AcDbDimension
  2
*D33
 10
2445.557756892303
 20
8843.944691704926
 30
0.0
 11
1970.557756892302
 21
8943.944691704926
 31
0.0
 70
    32
 71
     5
 42
950.0000000000014
  3
IGA
100
AcDbAlignedDimension
 13
1495.557756892301
 23
7519.308553199741
 33
0.0
 14
2445.557756892303
 24
8639.308553199738
 34
0.0
100
AcDbRotatedDimension
1001
ACAD
1000
DSTYLE
1002
{
1070
    40
1040
40.0
1070
   143
1040
0.039
1070
   172
1070
     1
1070
   271
1070
     4
1070
   272
1070
     4
1070
   279
1070
     0
1070
   284
1070
     0
1070
   285
1070
     0
1070
   286
1070
     0
1070
   341
1005
8435
1070
   343
1005
8435
1070
   344
1005
8435
1002
}
  0
DIMENSION
  5
856E
330
841E
100
AcDbEntity
  8
3
100
AcDbDimension
  2
*D34
 10
3945.557756892302
 20
8843.944691704926
 30
0.0
 11
3195.557756892303
 21
8943.944691704926
 31
0.0
 70
    32
 71
     5
 42
1500.0
  3
IGA
100
AcDbAlignedDimension
 13
2445.557756892303
 23
8639.308553199738
 33
0.0
 14
3945.557756892302
 24
8639.308553199738
 34
0.0
100
AcDbRotatedDimension
1001
ACAD
1000
DSTYLE
1002
{
1070
    40
1040
40.0
1070
   143
1040
0.039
1070
   172
1070
     1
1070
   271
1070
     4
1070
   272
1070
     4
1070
   279
1070
     1
1070
   284
1070
     0
1070
   285
1070
     0
1070
   286
1070
     0
1070
   341
1005
8435
1070
   343
1005
8435
1070
   344
1005
8435
1002
}
  0
DIMENSION
  5
857B
330
841E
100
AcDbEntity
  8
3
100
AcDbDimension
  2
*D35
 10
4394.573898128134
 20
6519.308553199739
 30
0.0
 11
4294.573898128134
 21
7579.308553199739
 31
0.0
 70
    32
 71
     5
 42
2119.999999999997
  3
IGA
100
AcDbAlignedDimension
 13
3945.557756892302
 23
8639.308553199738
 33
0.0
 14
3945.557756892302
 24
6519.308553199739
 34
0.0
 50
90.0
100
AcDbRotatedDimension
1001
ACAD
1000
DSTYLE
1002
{
1070
    40
1040
40.0
1070
   143
1040
0.039
1070
   172
1070
     1
1070
   271
1070
     4
1070
   272
1070
     4
1070
   279
1070
     0
1070
   284
1070
     0
1070
   285
1070
     0
1070
   286
1070
     0
1070
   341
1005
8435
1070
   343
1005
8435
1070
   344
1005
8435
1002
}
  0
DIMENSION
  5
8588
330
841E
100
AcDbEntity
  8
3
100
AcDbDimension
  2
*D36
 10
1229.231355784722
 20
6519.308553199741
 30
0.0
 11
1129.231355784721
 21
7019.308553199741
 31
0.0
 70
    32
 71
     5
 42
1000.0
  3
IGA
100
AcDbAlignedDimension
 13
1495.557756892301
 23
7519.308553199741
 33
0.0
 14
1495.557756892301
 24
6519.308553199741
 34
0.0
 50
90.0
100
AcDbRotatedDimension
1001
ACAD
1000
DSTYLE
1002
{
1070
    40
1040
40.0
1070
   143
1040
0.039
1070
   172
1070
     1
1070
   271
1070
     4
1070
   272
1070
     4
1070
   279
1070
     0
1070
   284
1070
     0
1070
   285
1070
     0
1070
   286
1070
     0
1070
   341
1005
8435
1070
   343
1005
8435
1070
   344
1005
8435
1002
}
  0
DIMENSION
  5
8595
330
841E
100
AcDbEntity
  8
3
100
AcDbDimension
  2
*D37
 10
3945.557756892302
 20
6154.554675010087
 30
0.0
 11
2720.557756892302
 21
6254.554675010087
 31
0.0
 70
    32
 71
     5
 42
2450.000000000001
  3
IGA
100
AcDbAlignedDimension
 13
1495.557756892301
 23
6519.308553199741
 33
0.0
 14
3945.557756892302
 24
6519.308553199739
 34
0.0
100
AcDbRotatedDimension
1001
ACAD
1000
DSTYLE
1002
{
1070
    40
1040
40.0
1070
   143
1040
0.039
1070
   172
1070
     1
1070
   271
1070
     4
1070
   272
1070
     4
1070
   279
1070
     0
1070
   284
1070
     0
1070
   285
1070
     0
1070
   286
1070
     0
1070
   341
1005
8435
1070
   343
1005
8435
1070
   344
1005
8435
1002
}
  0
DIMENSION
  5
85AB
330
841E
100
AcDbEntity
  8
3
100
AcDbDimension
  2
*D38
 10
3141.557756892302
 20
5005.940663553165
 30
0.0
 11
2501.557756892302
 21
5105.940663553165
 31
0.0
 70
    32
 71
     5
 42
1280.0
  3
IGA
100
AcDbAlignedDimension
 13
1861.557756892302
 23
4752.929630863208
 33
0.0
 14
3141.557756892302
 24
4752.929630863208
 34
0.0
100
AcDbRotatedDimension
1001
ACAD
1000
DSTYLE
1002
{
1070
    40
1040
40.0
1070
   143
1040
0.039
1070
   172
1070
     1
1070
   271
1070
     4
1070
   272
1070
     4
1070
   279
1070
     0
1070
   284
1070
     0
1070
   285
1070
     0
1070
   286
1070
     0
1070
   341
1005
8435
1070
   343
1005
8435
1070
   344
1005
8435
1002
}
  0
DIMENSION
  5
85B8
330
841E
100
AcDbEntity
  8
3
100
AcDbDimension
  2
*D39
 10
3195.557756892303
 20
5253.003506009694
 30
0.0
 11
2528.557756892303
 21
5353.003506009694
 31
0.0
 70
    32
 71
     5
 42
1334.0
  3
IGA
100
AcDbAlignedDimension
 13
1861.557756892302
 23
4752.929630863208
 33
0.0
 14
3195.557756892303
 24
4793.547431885436
 34
0.0
100
AcDbRotatedDimension
1001
ACAD
1000
DSTYLE
1002
{
1070
    40
1040
40.0
1070
   143
1040
0.039
1070
   172
1070
     1
1070
   271
1070
     4
1070
   272
1070
     4
1070
   279
1070
     0
1070
   284
1070
     0
1070
   285
1070
     0
1070
   286
1070
     0
1070
   341
1005
8435
1070
   343
1005
8435
1070
   344
1005
8435
1002
}
  0
DIMENSION
  5
85C5
330
841E
100
AcDbEntity
  8
3
100
AcDbDimension
  2
*D40
 10
4092.557756892301
 20
5253.003506009694
 30
0.0
 11
3644.057756892302
 21
5353.003506009694
 31
0.0
 70
    32
 71
     5
 42
896.9999999999986
  3
IGA
100
AcDbAlignedDimension
 13
3195.557756892303
 23
4793.547431885436
 33
0.0
 14
4092.557756892301
 24
3836.929630863208
 34
0.0
100
AcDbRotatedDimension
1001
ACAD
1000
DSTYLE
1002
{
1070
    40
1040
40.0
1070
   143
1040
0.039
1070
   172
1070
     1
1070
   271
1070
     4
1070
   272
1070
     4
1070
   279
1070
     1
1070
   284
1070
     0
1070
   285
1070
     0
1070
   286
1070
     0
1070
   341
1005
8435
1070
   343
1005
8435
1070
   344
1005
8435
1002
}
  0
DIMENSION
  5
85D2
330
841E
100
AcDbEntity
  8
3
100
AcDbDimension
  2
*D41
 10
4092.557756892301
 20
5520.79394691561
 30
0.0
 11
2794.057756892302
 21
5620.79394691561
 31
0.0
 70
    32
 71
     5
 42
2596.999999999999
  3
IGA
100
AcDbAlignedDimension
 13
1495.557756892301
 23
2942.929630863207
 33
0.0
 14
4092.557756892301
 24
3836.929630863208
 34
0.0
100
AcDbRotatedDimension
1001
ACAD
1000
DSTYLE
1002
{
1070
    40
1040
40.0
1070
   143
1040
0.039
1070
   172
1070
     1
1070
   271
1070
     4
1070
   272
1070
     4
1070
   279
1070
     0
1070
   284
1070
     0
1070
   285
1070
     0
1070
   286
1070
     0
1070
   341
1005
8435
1070
   343
1005
8435
1070
   344
1005
8435
1002
}
  0
LINE
  5
85DF
330
841E
100
AcDbEntity
  8
2
100
AcDbLine
 10
4185.539039607348
 20
3927.929630863207
 30
0.0
 11
1889.167684926811
 21
3927.929630863207
 31
0.0
1001
ACAD
1000
ASC_BOUNDS
1002
{
1070
    19
1002
}
  0
DIMENSION
  5
85E6
330
841E
100
AcDbEntity
  8
3
100
AcDbDimension
  2
*D43
 10
4359.792441257581
 20
3927.929630863207
 30
0.0
 11
4259.79244125758
 21
4340.429630863208
 31
0.0
 70
    32
 71
     5
 42
825.0000000000014
  3
IGA
100
AcDbAlignedDimension
 13
3194.557756892301
 23
4752.929630863208
 33
0.0
 14
4185.539039607348
 24
3927.929630863207
 34
0.0
 50
90.0
100
AcDbRotatedDimension
1001
ACAD
1000
DSTYLE
1002
{
1070
    40
1040
40.0
1070
   143
1040
0.039
1070
   172
1070
     1
1070
   271
1070
     4
1070
   272
1070
     4
1070
   279
1070
     0
1070
   284
1070
     0
1070
   285
1070
     0
1070
   286
1070
     0
1070
   341
1005
8435
1070
   343
1005
8435
1070
   344
1005
8435
1002
}
  0
DIMENSION
  5
85F3
330
841E
100
AcDbEntity
  8
3
100
AcDbDimension
  2
*D44
 10
4359.792441257581
 20
2817.929630863207
 30
0.0
 11
4259.79244125758
 21
3372.929630863207
 31
0.0
 70
    32
 71
     5
 42
1110.0
  3
IGA
100
AcDbAlignedDimension
 13
4185.539039607348
 23
3927.929630863207
 33
0.0
 14
3945.557756892302
 24
2817.929630863207
 34
0.0
 50
90.0
100
AcDbRotatedDimension
1001
ACAD
1000
DSTYLE
1002
{
1070
    40
1040
40.0
1070
   143
1040
0.039
1070
   172
1070
     1
1070
   271
1070
     4
1070
   272
1070
     4
1070
   279
1070
     1
1070
   284
1070
     0
1070
   285
1070
     0
1070
   286
1070
     0
1070
   341
1005
8435
1070
   343
1005
8435
1070
   344
1005
8435
1002
}
  0
DIMENSION
  5
8600
330
841E
100
AcDbEntity
  8
3
100
AcDbDimension
  2
*D45
 10
4359.792441257581
 20
2797.929630863207
 30
0.0
 11
4602.649584114724
 21
2960.215345148922
 31
0.0
 70
    32
  1
(<>)
 71
     5
 42
20.0
  3
IGA
100
AcDbAlignedDimension
 13
3945.557756892302
 23
2817.929630863207
 33
0.0
 14
3945.557756892302
 24
2797.929630863207
 34
0.0
 50
90.0
100
AcDbRotatedDimension
1001
ACAD
1000
DSTYLE
1002
{
1070
    40
1040
40.0
1070
   143
1040
0.039
1070
   172
1070
     1
1070
   271
1070
     4
1070
   272
1070
     4
1070
   279
1070
     1
1070
   284
1070
     0
1070
   285
1070
     0
1070
   286
1070
     0
1070
   341
1005
8435
1070
   343
1005
8435
1070
   344
1005
872C
1002
}
  0
DIMENSION
  5
8612
330
841E
100
AcDbEntity
  8
3
100
AcDbDimension
  2
*D46
 10
4359.792441257581
 20
2732.929630863207
 30
0.0
 11
4359.792441257581
 21
2572.929630863207
 31
0.0
 70
   160
 71
     5
 42
65.0
  3
IGA
100
AcDbAlignedDimension
 13
3945.557756892302
 23
2797.929630863207
 33
0.0
 14
3945.557756892302
 24
2732.929630863207
 34
0.0
 50
90.0
100
AcDbRotatedDimension
1001
ACAD
1000
DSTYLE
1002
{
1070
    40
1040
40.0
1070
   143
1040
0.039
1070
   172
1070
     1
1070
   271
1070
     4
1070
   272
1070
     4
1070
   279
1070
     1
1070
   284
1070
     0
1070
   285
1070
     0
1070
   286
1070
     0
1070
   341
1005
8435
1070
   343
1005
872C
1070
   344
1005
8435
1002
}
  0
DIMENSION
  5
8624
330
841E
100
AcDbEntity
  8
3
100
AcDbDimension
  2
*D47
 10
4769.412244257517
 20
4752.929630863208
 30
0.0
 11
4637.983672828944
 21
3742.929630863208
 31
0.0
 70
    32
  1
(<>)
 71
     5
 42
2020.000000000001
  3
IGA
100
AcDbAlignedDimension
 13
3945.557756892302
 23
2732.929630863207
 33
0.0
 14
3194.557756892301
 24
4752.929630863208
 34
0.0
 50
90.0
100
AcDbRotatedDimension
1001
ACAD
1000
DSTYLE
1002
{
1070
    40
1040
40.0
1070
   143
1040
0.039
1070
   172
1070
     1
1070
   271
1070
     4
1070
   272
1070
     4
1070
   279
1070
     0
1070
   284
1070
     0
1070
   285
1070
     0
1070
   286
1070
     0
1070
   341
1005
8435
1070
   343
1005
8435
1070
   344
1005
8435
1002
}
  0
ENDSEC
  0
SECTION
  2
OBJECTS
  0
DICTIONARY
  5
83BB
330
0
100
AcDbDictionary
281
     1
  3
ACAD_CIP_PREVIOUS_PRODUCT_INFO
350
8465
  3
ACAD_COLOR
350
8411
  3
ACAD_DETAILVIEWSTYLE
350
8418
  3
ACAD_GROUP
350
83BC
  3
ACAD_LAYOUT
350
8410
  3
ACAD_MATERIAL
350
83BF
  3
ACAD_MLEADERSTYLE
350
8414
  3
ACAD_MLINESTYLE
350
840D
  3
ACAD_PLOTSETTINGS
350
840F
  3
ACAD_PLOTSTYLENAME
350
83BD
  3
ACAD_SCALELIST
350
83F1
  3
ACAD_SECTIONVIEWSTYLE
350
8416
  3
ACAD_TABLESTYLE
350
8412
  3
ACAD_VISUALSTYLE
350
83D8
  3
ACDB_RECOMPOSE_DATA
350
8799
  3
AcDbVariableDictionary
350
8470
  3
DWGPROPS
350
879A
  0
DICTIONARY
  5
8466
330
8403
100
AcDbDictionary
280
     1
281
     1
  3
ADSK_XREC_LAYER_RECONCILED
360
8467
  0
DICTIONARY
  5
8468
330
8422
100
AcDbDictionary
280
     1
281
     1
  3
ADSK_XREC_LAYER_RECONCILED
360
8469
  0
DICTIONARY
  5
846A
330
8425
100
AcDbDictionary
280
     1
281
     1
  3
ADSK_XREC_LAYER_RECONCILED
360
846B
  0
DICTIONARY
  5
846C
330
8426
100
AcDbDictionary
280
     1
281
     1
  3
ADSK_XREC_LAYER_RECONCILED
360
846D
  0
DICTIONARY
  5
846E
330
8427
100
AcDbDictionary
280
     1
281
     1
  3
ADSK_XREC_LAYER_RECONCILED
360
846F
  0
DICTIONARY
  5
84BD
330
841E
100
AcDbDictionary
280
     1
281
     1
  3
ACAD_SORTENTS
360
84BE
  0
XRECORD
  5
8465
102
{ACAD_REACTORS
330
83BB
102
}
330
83BB
100
AcDbXrecord
280
     1
300
ACDLT
300
2015
300
INVLTS_F_S
  0
DICTIONARY
  5
8411
102
{ACAD_REACTORS
330
83BB
102
}
330
83BB
100
AcDbDictionary
281
     1
  0
DICTIONARY
  5
8418
102
{ACAD_REACTORS
330
83BB
102
}
330
83BB
100
AcDbDictionary
281
     1
  3
Imperial24
350
8419
  0
DICTIONARY
  5
83BC
102
{ACAD_REACTORS
330
83BB
102
}
330
83BB
100
AcDbDictionary
281
     1
  0
DICTIONARY
  5
8410
102
{ACAD_REACTORS
330
83BB
102
}
330
83BB
100
AcDbDictionary
281
     1
  3
Model
350
8421
  3
レイアウト1
350
841D
  0
DICTIONARY
  5
83BF
102
{ACAD_REACTORS
330
83BB
102
}
330
83BB
100
AcDbDictionary
281
     1
  3
ByBlock
350
83C8
  3
ByLayer
350
83C0
  3
Global
350
83D0
  0
DICTIONARY
  5
8414
102
{ACAD_REACTORS
330
83BB
102
}
330
83BB
100
AcDbDictionary
281
     1
  3
Standard
350
8415
  0
DICTIONARY
  5
840D
102
{ACAD_REACTORS
330
83BB
102
}
330
83BB
100
AcDbDictionary
281
     1
  3
Standard
350
840E
  0
DICTIONARY
  5
840F
102
{ACAD_REACTORS
330
83BB
102
}
330
83BB
100
AcDbDictionary
281
     1
  0
ACDBDICTIONARYWDFLT
  5
83BD
102
{ACAD_REACTORS
330
83BB
102
}
330
83BB
100
AcDbDictionary
281
     1
  3
Normal
350
83BE
100
AcDbDictionaryWithDefault
340
83BE
  0
DICTIONARY
  5
83F1
102
{ACAD_REACTORS
330
83BB
102
}
330
83BB
100
AcDbDictionary
281
     1
  3
A0
350
83F2
  3
A1
350
83F3
  3
A2
350
83F4
  3
A3
350
83F5
  3
A4
350
83F6
  3
A5
350
83F7
  3
A6
350
83F8
  3
A7
350
83F9
  3
A8
350
83FA
  3
A9
350
83FB
  3
B0
350
83FC
  3
B1
350
83FD
  3
B2
350
83FE
  3
B3
350
83FF
  3
B4
350
8400
  3
B5
350
8401
  3
B6
350
8402
  0
DICTIONARY
  5
8416
102
{ACAD_REACTORS
330
83BB
102
}
330
83BB
100
AcDbDictionary
281
     1
  3
Imperial24
350
8417
  0
DICTIONARY
  5
8412
102
{ACAD_REACTORS
330
83BB
102
}
330
83BB
100
AcDbDictionary
281
     1
  3
Standard
350
8413
  0
DICTIONARY
  5
83D8
102
{ACAD_REACTORS
330
83BB
102
}
330
83BB
100
AcDbDictionary
281
     1
  3
2dWireframe
350
83DE
  3
Basic
350
83DD
  3
Brighten
350
83E4
  3
ColorChange
350
83E8
  3
Conceptual
350
83E1
  3
Dim
350
83E3
  3
EdgeColorOff
350
83F0
  3
Facepattern
350
83E7
  3
Flat
350
83D9
  3
FlatWithEdges
350
83DA
  3
Gouraud
350
83DB
  3
GouraudWithEdges
350
83DC
  3
Hidden
350
83E0
  3
JitterOff
350
83EE
  3
Linepattern
350
83E6
  3
OverhangOff
350
83EF
  3
Realistic
350
83E2
  3
Shaded
350
83ED
  3
Shaded with edges
350
83EC
  3
Shades of Gray
350
83E9
  3
Sketchy
350
83EA
  3
Thicken
350
83E5
  3
Wireframe
350
83DF
  3
X-Ray
350
83EB
  0
XRECORD
  5
8799
102
{ACAD_REACTORS
330
83BB
102
}
330
83BB
100
AcDbXrecord
280
     1
 90
        1
330
8413
  0
DICTIONARY
  5
8470
102
{ACAD_REACTORS
330
83BB
102
}
330
83BB
100
AcDbDictionary
281
     1
  3
CANNOSCALE
350
8475
  3
CMLEADERSTYLE
350
8472
  3
CTABLESTYLE
350
8471
  3
CVIEWDETAILSTYLE
350
8473
  3
CVIEWSECTIONSTYLE
350
8474
  3
DIMASSOC
350
8478
  3
INDEXCTL
350
8477
  3
SORTENTS
350
8476
  3
XCLIPFRAME
350
8479
  0
XRECORD
  5
879A
102
{ACAD_REACTORS
330
83BB
102
}
330
83BB
100
AcDbXrecord
280
     1
  1
DWGPROPS COOKIE
  2

  3

  4

  6

  7

  8
yasukiyo.ogawa
  9

300
=
301
=
302
=
303
=
304
=
305
=
306
=
307
=
308
=
309
=
 40
0.0206736111111111
 41
2451898.396178704
 42
2460280.748928681
  1

 90
        0
  0
XRECORD
  5
8467
102
{ACAD_REACTORS
330
8466
102
}
330
8466
100
AcDbXrecord
280
     1
290
     1
  0
XRECORD
  5
8469
102
{ACAD_REACTORS
330
8468
102
}
330
8468
100
AcDbXrecord
280
     1
290
     1
  0
XRECORD
  5
846B
102
{ACAD_REACTORS
330
846A
102
}
330
846A
100
AcDbXrecord
280
     1
290
     1
  0
XRECORD
  5
846D
102
{ACAD_REACTORS
330
846C
102
}
330
846C
100
AcDbXrecord
280
     1
290
     1
  0
XRECORD
  5
846F
102
{ACAD_REACTORS
330
846E
102
}
330
846E
100
AcDbXrecord
280
     1
290
     1
  0
SORTENTSTABLE
  5
84BE
102
{ACAD_REACTORS
330
84BD
102
}
330
84BD
100
AcDbSortentsTable
330
841E
331
8101
  5
81D0
331
80F0
  5
80F3
331
7CBF
  5
7CC1
331
7CD0
  5
7CD3
331
7C50
  5
7C52
331
7CE1
  5
7CE7
331
7C61
  5
7C63
331
7CF2
  5
7CF5
331
7D14
  5
7D18
331
7C9C
  5
7C9E
331
7C83
  5
7C85
331
7CAD
  5
7CAF
331
7C72
  5
7C75
331
7C3F
  5
7C3F
331
80F1
  5
80F4
331
7CC0
  5
7CC2
331
7CF3
  5
7CF6
331
7CE2
  5
7CE8
331
7CD1
  5
7CD4
331
7C51
  5
7C53
331
7D26
  5
7D2A
331
7CAE
  5
7CB0
331
7C9D
  5
7C9F
331
7C84
  5
7C86
331
84DD
  5
84EA
331
80F2
  5
80F5
331
7D30
  5
80E5
331
85B8
  5
85C5
331
81B6
  5
81EC
331
7CC1
  5
7CC3
331
7CD2
  5
7CD5
331
7C52
  5
7C54
331
7CF4
  5
7CF7
331
7C63
  5
7C65
331
7D16
  5
7D19
331
7C9E
  5
7CA0
331
7D27
  5
7D2B
331
7CAF
  5
7CB1
331
7C85
  5
7C87
331
7C41
  5
7C41
331
8561
  5
856E
331
81D0
  5
81F9
331
80F3
  5
80F6
331
7CB0
  5
7CB2
331
7CC2
  5
7CC4
331
7C42
  5
7C44
331
7CD3
  5
7CD6
331
7C53
  5
7C55
331
7CF5
  5
7CF8
331
7C86
  5
7C88
331
7D17
  5
7D1B
331
7C9F
  5
7CA1
331
7C64
  5
7C66
331
7D18
  5
7D1C
331
7CA0
  5
7CA2
331
84C3
  5
84D0
331
8595
  5
85AB
331
80F4
  5
80F7
331
80E3
  5
80E8
331
7CB1
  5
7CB3
331
7C43
  5
7C45
331
7CD4
  5
7CD7
331
7C54
  5
7C56
331
7CF6
  5
7CF9
331
7C87
  5
7C89
331
7C65
  5
7C67
331
7D08
  5
7D0B
331
7C88
  5
7C8A
331
7D19
  5
7D1D
331
7CA1
  5
7CA3
331
80F5
  5
80F8
331
80E4
  5
80E9
331
7D2A
  5
7D2D
331
7CB2
  5
7CB4
331
7CD5
  5
7CD8
331
7C55
  5
7C57
331
7C44
  5
7C46
331
7CE6
  5
7CE9
331
7CF7
  5
7CFB
331
7C77
  5
7C79
331
7C66
  5
7C68
331
7CF8
  5
7CFC
331
7C78
  5
7C7A
331
7D09
  5
7D0D
331
7C89
  5
7C8B
331
84D0
  5
84DD
331
80F6
  5
80F9
331
80E5
  5
80EA
331
7D2B
  5
7D2E
331
85AB
  5
85B8
331
81A9
  5
81DD
331
7CB3
  5
7CB5
331
7CA2
  5
7CA4
331
7CD6
  5
7CDA
331
7C56
  5
7C58
331
7C45
  5
7C47
331
7CE7
  5
7CEA
331
7C67
  5
7C69
331
7CE8
  5
7CEB
331
7C68
  5
7C6A
331
7CF9
  5
7CFF
331
7C79
  5
7C7B
331
7D0A
  5
7D0E
331
7C8A
  5
7C8C
331
7D1B
  5
7D1E
331
80F7
  5
80FA
331
7D2C
  5
7D2F
331
7CB4
  5
7CB6
331
85DF
  5
7CD1
331
7CD7
  5
7CDB
331
7C57
  5
7C59
331
7C46
  5
7C48
331
7CA3
  5
7CA5
331
7CD8
  5
7CDC
331
7C58
  5
7C5A
331
7CE9
  5
7CEF
331
7C69
  5
7C6B
331
7D0B
  5
7D0F
331
7C8B
  5
7C9B
331
7C7A
  5
7C7C
331
7D1C
  5
7D1F
331
8588
  5
8595
331
7D2D
  5
7D30
331
80F8
  5
80FB
331
7C47
  5
7C49
331
7CB5
  5
7CB7
331
7CA4
  5
7CA6
331
7CC8
  5
7CCB
331
7C48
  5
7C4A
331
7CEA
  5
7CF0
331
7C6A
  5
7C6C
331
7C59
  5
7C5B
331
7CFB
  5
7D02
331
7C7B
  5
7C7D
331
7D1D
  5
7D20
331
7CA5
  5
7CA7
331
80F9
  5
80FC
331
80E8
  5
80EB
331
7D2E
  5
80C7
331
7CB6
  5
7CB8
331
7C8C
  5
7C9C
331
7CB8
  5
7CBA
331
7CDA
  5
7CDD
331
7C5A
  5
7C5C
331
7C49
  5
7C4B
331
7CEB
  5
7CF1
331
7C6B
  5
7C6D
331
7D0D
  5
7D10
331
7CFC
  5
7D05
331
7D1E
  5
7D22
331
7CA6
  5
7CA8
331
80FA
  5
80FD
331
80E9
  5
80EC
331
7D2F
  5
80DE
331
7CB7
  5
7CB9
331
7C7C
  5
7C7E
331
85D2
  5
85DF
331
7CB9
  5
7CBB
331
7CCA
  5
7CCC
331
7C4A
  5
7C4C
331
7CDB
  5
7CDE
331
7C5B
  5
7C5D
331
7D0E
  5
7D13
331
7C7D
  5
7C82
331
80FB
  5
80FE
331
80EA
  5
80ED
331
7D1F
  5
7D23
331
7CA7
  5
7CA9
331
7C6C
  5
7C6E
331
7CBA
  5
7CBD
331
7CCB
  5
7CCD
331
7C4B
  5
7C4D
331
7CDC
  5
7CDF
331
7C5C
  5
7C5E
331
7D0F
  5
7D14
331
7C7E
  5
7C83
331
857B
  5
8588
331
7D20
  5
7D24
331
80FC
  5
80FF
331
80EB
  5
80EF
331
7CA8
  5
7CAA
331
7C6D
  5
7C6F
331
7C3A
  5
7C3A
331
7CBB
  5
7CBE
331
7CCC
  5
7CCE
331
7C4C
  5
7C4E
331
7CDD
  5
7CE0
331
7C5D
  5
7C5F
331
7D10
  5
7D16
331
7CFF
  5
7D06
331
80FD
  5
8100
331
80EC
  5
80F0
331
7CA9
  5
7CAB
331
7C6E
  5
7C70
331
7C3B
  5
7C3B
331
7CCD
  5
7CCF
331
7C4D
  5
7C4F
331
7CDE
  5
7CE1
331
7C5E
  5
7C60
331
7CEF
  5
7CF2
331
7C6F
  5
7C71
331
80FE
  5
8101
331
80ED
  5
80F1
331
7CAA
  5
7CAC
331
7C3C
  5
7C3C
331
85C5
  5
85D2
331
84EA
  5
8561
331
7CBD
  5
7CBF
331
7CCE
  5
7CD0
331
7C4E
  5
7C50
331
7CDF
  5
7CE2
331
7C5F
  5
7C61
331
7CF0
  5
7CF3
331
80FF
  5
81A9
331
7CAB
  5
7CAD
331
7C70
  5
7C72
331
7C3D
  5
7C3D
331
81DD
  5
84BC
331
8100
  5
81B6
331
7CBE
  5
7CC0
331
7CCF
  5
7CD2
331
7C4F
  5
7C51
331
7CE0
  5
7CE6
331
7C60
  5
7C62
331
7CF1
  5
7CF4
331
7D02
  5
7D0A
331
7C82
  5
7C84
331
7D13
  5
7D17
331
856E
  5
857B
331
7D24
  5
7D29
331
80EF
  5
80F2
331
7CAC
  5
7CAE
331
7C9B
  5
7C9D
331
7C71
  5
7C74
331
7C3E
  5
7C3E
  0
ACDBDETAILVIEWSTYLE
  5
8419
102
{ACAD_XDICTIONARY
360
87D2
102
}
102
{ACAD_REACTORS
330
8418
102
}
330
8418
100
AcDbModelDocViewStyle
 70
     0
  3
Imperial24
290
     0
100
AcDbDetailViewStyle
 70
     0
 71
     0
 90
        3
 71
     1
340
8404
 40
0.24
340
0
 40
0.24
300

 40
0.36
280
     3
 71
     2
340
840B
 90
       25
 71
     3
340
8404
 40
0.24
 90
        1
 40
0.75
 90
        1
300
%<\AcVar ViewType \f "%tc1">% %<\AcVar ViewDetailId>%\PSCALE %<\AcVar ViewScale \f "%sn">%
 71
     4
340
840B
 90
       25
340
840B
 90
       25
280
     0
  0
LAYOUT
  5
8421
102
{ACAD_XDICTIONARY
360
87D6
102
}
102
{ACAD_REACTORS
330
8410
102
}
330
8410
100
AcDbPlotSettings
  1

  2
RICOH imagio MP W3600 RPCS
  4

  6

 40
0.0
 41
0.0
 42
0.0
 43
0.0
 44
0.0
 45
0.0
 46
0.0
 47
0.0
 48
0.0
 49
0.0
140
0.0
141
0.0
142
1.0
143
1.0
 70
  1712
 72
     0
 73
     0
 74
     0
  7

 75
     0
147
1.0
148
0.0
149
0.0
100
AcDbLayout
  1
Model
 70
     1
 71
     0
 10
0.0
 20
0.0
 11
12.0
 21
9.0
 12
0.0
 22
0.0
 32
0.0
 14
0.0
 24
0.0
 34
0.0
 15
0.0
 25
0.0
 35
0.0
146
0.0
 13
0.0
 23
0.0
 33
0.0
 16
1.0
 26
0.0
 36
0.0
 17
0.0
 27
1.0
 37
0.0
 76
     0
330
841E
331
8423
  0
LAYOUT
  5
841D
102
{ACAD_XDICTIONARY
360
87D4
102
}
102
{ACAD_REACTORS
330
8410
102
}
330
8410
100
AcDbPlotSettings
  1

  2
RICOH imagio MP W3600 RPCS
  4

  6

 40
0.0
 41
0.0
 42
0.0
 43
0.0
 44
0.0
 45
0.0
 46
0.0
 47
0.0
 48
0.0
 49
0.0
140
0.0
141
0.0
142
1.0
143
1.0
 70
   688
 72
     0
 73
     0
 74
     5
  7

 75
    16
147
1.0
148
0.0
149
0.0
100
AcDbLayout
  1
レイアウト1
 70
     1
 71
     1
 10
0.0
 20
0.0
 11
12.0
 21
9.0
 12
0.0
 22
0.0
 32
0.0
 14
1.000000000000000E+20
 24
1.000000000000000E+20
 34
1.000000000000000E+20
 15
-1.000000000000000E+20
 25
-1.000000000000000E+20
 35
-1.000000000000000E+20
146
0.0
 13
0.0
 23
0.0
 33
0.0
 16
1.0
 26
0.0
 36
0.0
 17
0.0
 27
1.0
 37
0.0
 76
     0
330
841A
  0
MATERIAL
  5
83C8
102
{ACAD_XDICTIONARY
360
83C9
102
}
102
{ACAD_REACTORS
330
83BF
102
}
330
83BF
100
AcDbMaterial
  1
ByBlock
 72
     0
 43
0.0208333333333333
 43
0.0
 43
0.0
 43
0.0
 43
0.0
 43
0.0208333333333333
 43
0.0
 43
0.0
 43
0.0
 43
0.0
 43
1.0
 43
0.0
 43
0.0
 43
0.0
 43
0.0
 43
1.0
 77
     0
 47
0.0208333333333333
 47
0.0
 47
0.0
 47
0.0
 47
0.0
 47
0.0208333333333333
 47
0.0
 47
0.0
 47
0.0
 47
0.0
 47
1.0
 47
0.0
 47
0.0
 47
0.0
 47
0.0
 47
1.0
171
     0
 49
0.0208333333333333
 49
0.0
 49
0.0
 49
0.0
 49
0.0
 49
0.0208333333333333
 49
0.0
 49
0.0
 49
0.0
 49
0.0
 49
1.0
 49
0.0
 49
0.0
 49
0.0
 49
0.0
 49
1.0
175
     0
142
0.0208333333333333
142
0.0
142
0.0
142
0.0
142
0.0
142
0.0208333333333333
142
0.0
142
0.0
142
0.0
142
0.0
142
1.0
142
0.0
142
0.0
142
0.0
142
0.0
142
1.0
179
     0
144
0.0208333333333333
144
0.0
144
0.0
144
0.0
144
0.0
144
0.0208333333333333
144
0.0
144
0.0
144
0.0
144
0.0
144
1.0
144
0.0
144
0.0
144
0.0
144
0.0
144
1.0
147
0.0208333333333333
147
0.0
147
0.0
147
0.0
147
0.0
147
0.0208333333333333
147
0.0
147
0.0
147
0.0
147
0.0
147
1.0
147
0.0
147
0.0
147
0.0
147
0.0
147
1.0
  0
MATERIAL
  5
83C0
102
{ACAD_XDICTIONARY
360
83C1
102
}
102
{ACAD_REACTORS
330
83BF
102
}
330
83BF
100
AcDbMaterial
  1
ByLayer
 72
     0
 43
0.0208333333333333
 43
0.0
 43
0.0
 43
0.0
 43
0.0
 43
0.0208333333333333
 43
0.0
 43
0.0
 43
0.0
 43
0.0
 43
1.0
 43
0.0
 43
0.0
 43
0.0
 43
0.0
 43
1.0
 77
     0
 47
0.0208333333333333
 47
0.0
 47
0.0
 47
0.0
 47
0.0
 47
0.0208333333333333
 47
0.0
 47
0.0
 47
0.0
 47
0.0
 47
1.0
 47
0.0
 47
0.0
 47
0.0
 47
0.0
 47
1.0
171
     0
 49
0.0208333333333333
 49
0.0
 49
0.0
 49
0.0
 49
0.0
 49
0.0208333333333333
 49
0.0
 49
0.0
 49
0.0
 49
0.0
 49
1.0
 49
0.0
 49
0.0
 49
0.0
 49
0.0
 49
1.0
175
     0
142
0.0208333333333333
142
0.0
142
0.0
142
0.0
142
0.0
142
0.0208333333333333
142
0.0
142
0.0
142
0.0
142
0.0
142
1.0
142
0.0
142
0.0
142
0.0
142
0.0
142
1.0
179
     0
144
0.0208333333333333
144
0.0
144
0.0
144
0.0
144
0.0
144
0.0208333333333333
144
0.0
144
0.0
144
0.0
144
0.0
144
1.0
144
0.0
144
0.0
144
0.0
144
0.0
144
1.0
147
0.0208333333333333
147
0.0
147
0.0
147
0.0
147
0.0
147
0.0208333333333333
147
0.0
147
0.0
147
0.0
147
0.0
147
1.0
147
0.0
147
0.0
147
0.0
147
0.0
147
1.0
  0
MATERIAL
  5
83D0
102
{ACAD_XDICTIONARY
360
83D1
102
}
102
{ACAD_REACTORS
330
83BF
102
}
330
83BF
100
AcDbMaterial
  1
Global
 72
     0
 43
0.0208333333333333
 43
0.0
 43
0.0
 43
0.0
 43
0.0
 43
0.0208333333333333
 43
0.0
 43
0.0
 43
0.0
 43
0.0
 43
1.0
 43
0.0
 43
0.0
 43
0.0
 43
0.0
 43
1.0
 77
     0
 47
0.0208333333333333
 47
0.0
 47
0.0
 47
0.0
 47
0.0
 47
0.0208333333333333
 47
0.0
 47
0.0
 47
0.0
 47
0.0
 47
1.0
 47
0.0
 47
0.0
 47
0.0
 47
0.0
 47
1.0
171
     0
 49
0.0208333333333333
 49
0.0
 49
0.0
 49
0.0
 49
0.0
 49
0.0208333333333333
 49
0.0
 49
0.0
 49
0.0
 49
0.0
 49
1.0
 49
0.0
 49
0.0
 49
0.0
 49
0.0
 49
1.0
175
     0
142
0.0208333333333333
142
0.0
142
0.0
142
0.0
142
0.0
142
0.0208333333333333
142
0.0
142
0.0
142
0.0
142
0.0
142
1.0
142
0.0
142
0.0
142
0.0
142
0.0
142
1.0
179
     0
144
0.0208333333333333
144
0.0
144
0.0
144
0.0
144
0.0
144
0.0208333333333333
144
0.0
144
0.0
144
0.0
144
0.0
144
1.0
144
0.0
144
0.0
144
0.0
144
0.0
144
1.0
147
0.0208333333333333
147
0.0
147
0.0
147
0.0
147
0.0
147
0.0208333333333333
147
0.0
147
0.0
147
0.0
147
0.0
147
1.0
147
0.0
147
0.0
147
0.0
147
0.0
147
1.0
  0
MLEADERSTYLE
  5
8415
102
{ACAD_REACTORS
330
8414
102
}
330
8414
100
AcDbMLeaderStyle
170
     2
171
     1
172
     0
 90
        2
 40
0.0
 41
0.0
173
     1
 91
-1056964608
340
8409
 92
       -2
290
     1
 42
0.09
291
     1
 43
0.36
  3
Standard
 44
0.18
300

342
8404
174
     1
178
     6
175
     1
176
     0
 93
-1056964608
 45
0.18
292
     0
297
     0
 46
0.18
 94
-1056964608
 47
1.0
 49
1.0
140
1.0
293
     1
141
0.0
294
     1
177
     0
142
1.0
295
     0
296
     0
143
0.125
1001
ACAD_MLEADERVER
1070
     2
  0
MLINESTYLE
  5
840E
102
{ACAD_REACTORS
330
840D
102
}
330
840D
100
AcDbMlineStyle
  2
STANDARD
 70
     0
  3

 62
   256
 51
90.0
 52
90.0
 71
     2
 49
0.5
 62
   256
  6
BYLAYER
 49
-0.5
 62
   256
  6
BYLAYER
  0
ACDBPLACEHOLDER
  5
83BE
102
{ACAD_REACTORS
330
83BD
102
}
330
83BD
  0
SCALE
  5
83F2
102
{ACAD_REACTORS
330
83F1
102
}
330
83F1
100
AcDbScale
 70
     0
300
1:1
140
1.0
141
1.0
290
     1
  0
SCALE
  5
83F3
102
{ACAD_REACTORS
330
83F1
102
}
330
83F1
100
AcDbScale
 70
     0
300
1/128" = 1'-0"
140
0.0078125
141
12.0
290
     0
  0
SCALE
  5
83F4
102
{ACAD_REACTORS
330
83F1
102
}
330
83F1
100
AcDbScale
 70
     0
300
1/64" = 1'-0"
140
0.015625
141
12.0
290
     0
  0
SCALE
  5
83F5
102
{ACAD_REACTORS
330
83F1
102
}
330
83F1
100
AcDbScale
 70
     0
300
1/32" = 1'-0"
140
0.03125
141
12.0
290
     0
  0
SCALE
  5
83F6
102
{ACAD_REACTORS
330
83F1
102
}
330
83F1
100
AcDbScale
 70
     0
300
1/16" = 1'-0"
140
0.0625
141
12.0
290
     0
  0
SCALE
  5
83F7
102
{ACAD_REACTORS
330
83F1
102
}
330
83F1
100
AcDbScale
 70
     0
300
3/32" = 1'-0"
140
0.09375
141
12.0
290
     0
  0
SCALE
  5
83F8
102
{ACAD_REACTORS
330
83F1
102
}
330
83F1
100
AcDbScale
 70
     0
300
1/8" = 1'-0"
140
0.125
141
12.0
290
     0
  0
SCALE
  5
83F9
102
{ACAD_REACTORS
330
83F1
102
}
330
83F1
100
AcDbScale
 70
     0
300
3/16" = 1'-0"
140
0.1875
141
12.0
290
     0
  0
SCALE
  5
83FA
102
{ACAD_REACTORS
330
83F1
102
}
330
83F1
100
AcDbScale
 70
     0
300
1/4" = 1'-0"
140
0.25
141
12.0
290
     0
  0
SCALE
  5
83FB
102
{ACAD_REACTORS
330
83F1
102
}
330
83F1
100
AcDbScale
 70
     0
300
3/8" = 1'-0"
140
0.375
141
12.0
290
     0
  0
SCALE
  5
83FC
102
{ACAD_REACTORS
330
83F1
102
}
330
83F1
100
AcDbScale
 70
     0
300
1/2" = 1'-0"
140
0.5
141
12.0
290
     0
  0
SCALE
  5
83FD
102
{ACAD_REACTORS
330
83F1
102
}
330
83F1
100
AcDbScale
 70
     0
300
3/4" = 1'-0"
140
0.75
141
12.0
290
     0
  0
SCALE
  5
83FE
102
{ACAD_REACTORS
330
83F1
102
}
330
83F1
100
AcDbScale
 70
     0
300
1" = 1'-0"
140
1.0
141
12.0
290
     0
  0
SCALE
  5
83FF
102
{ACAD_REACTORS
330
83F1
102
}
330
83F1
100
AcDbScale
 70
     0
300
1-1/2" = 1'-0"
140
1.5
141
12.0
290
     0
  0
SCALE
  5
8400
102
{ACAD_REACTORS
330
83F1
102
}
330
83F1
100
AcDbScale
 70
     0
300
3" = 1'-0"
140
3.0
141
12.0
290
     0
  0
SCALE
  5
8401
102
{ACAD_REACTORS
330
83F1
102
}
330
83F1
100
AcDbScale
 70
     0
300
6" = 1'-0"
140
6.0
141
12.0
290
     0
  0
SCALE
  5
8402
102
{ACAD_REACTORS
330
83F1
102
}
330
83F1
100
AcDbScale
 70
     0
300
1'-0" = 1'-0"
140
12.0
141
12.0
290
     0
  0
ACDBSECTIONVIEWSTYLE
  5
8417
102
{ACAD_XDICTIONARY
360
87D0
102
}
102
{ACAD_REACTORS
330
8416
102
}
330
8416
100
AcDbModelDocViewStyle
 70
     0
  3
Imperial24
290
     0
100
AcDbSectionViewStyle
 70
     0
 71
     0
 90
       78
 71
     1
340
8404
 40
0.24
340
0
340
0
 40
0.24
300
I, O, Q, S, X, Z
 40
0.48
 90
        3
 40
0.18
 90
        1
 71
     2
340
840B
 90
       25
340
840B
 90
       50
 40
0.24
 40
0.0
 40
0.24
 71
     3
340
8404
 40
0.24
 90
        1
 40
0.75
 90
        1
300
%<\AcVar ViewType \f "%tc1">% %<\AcVar ViewSectionStartId>%-%<\AcVar ViewSectionEndId>%\PSCALE %<\AcVar ViewScale \f "%sn">%
 71
     4
300
ANSI31
 40
1.0
 90
        0
290
     0
290
     0
 90
        6
 40
0.0
 40
1.570796326794896
 40
0.2617993877991494
 40
1.308996938995747
 40
-0.2617993877991494
 40
1.832595714594046
  0
TABLESTYLE
  5
8413
102
{ACAD_XDICTIONARY
360
8797
102
}
102
{ACAD_REACTORS
330
8412
102
}
330
8412
100
AcDbTableStyle
  3
Standard
 70
     0
 71
     0
 40
0.06
 41
0.06
280
     0
281
     0
  7
STANDARD
140
0.18
170
     2
 62
     0
 63
     7
283
     0
274
    -2
284
     1
 64
     0
275
    -2
285
     1
 65
     0
276
    -2
286
     1
 66
     0
277
    -2
287
     1
 67
     0
278
    -2
288
     1
 68
     0
279
    -2
289
     1
 69
     0
  7
STANDARD
140
0.25
170
     5
 62
     0
 63
     7
283
     0
274
    -2
284
     1
 64
     0
275
    -2
285
     1
 65
     0
276
    -2
286
     1
 66
     0
277
    -2
287
     1
 67
     0
278
    -2
288
     1
 68
     0
279
    -2
289
     1
 69
     0
  7
STANDARD
140
0.18
170
     5
 62
     0
 63
     7
283
     0
274
    -2
284
     1
 64
     0
275
    -2
285
     1
 65
     0
276
    -2
286
     1
 66
     0
277
    -2
287
     1
 67
     0
278
    -2
288
     1
 68
     0
279
    -2
289
     1
 69
     0
  0
VISUALSTYLE
  5
83DE
102
{ACAD_XDICTIONARY
360
87A8
102
}
102
{ACAD_REACTORS
330
83D8
102
}
330
83D8
100
AcDbVisualStyle
  2
2dWireframe
 70
     4
 71
     0
 72
     2
 73
     0
 90
        0
 40
-0.6
 41
-30.0
 62
     5
 63
     7
 74
     1
 91
        4
 64
     7
 65
   257
 75
     1
175
     1
 42
1.0
 92
        0
 66
   257
 43
1.0
 76
     1
 77
     6
 78
     2
 67
     7
 79
     5
170
     0
171
     0
290
     0
174
     0
 93
        1
 44
0.0
173
     0
291
     0
 45
0.0
1001
ACAD
1000
AcDbSavedByObjectVersion
1070
     0
  0
VISUALSTYLE
  5
83DD
102
{ACAD_XDICTIONARY
360
87A6
102
}
102
{ACAD_REACTORS
330
83D8
102
}
330
83D8
100
AcDbVisualStyle
  2
Basic
 70
     7
 71
     1
 72
     0
 73
     1
 90
        0
 40
-0.6
 41
-30.0
 62
     5
 63
     7
 74
     0
 91
        4
 64
     7
 65
   257
 75
     1
175
     1
 42
1.0
 92
        8
 66
     7
 43
1.0
 76
     1
 77
     6
 78
     2
 67
     7
 79
     5
170
     0
171
     0
290
     0
174
     0
 93
        1
 44
0.0
173
     0
291
     1
 45
0.0
1001
ACAD
1000
AcDbSavedByObjectVersion
1070
     0
  0
VISUALSTYLE
  5
83E4
102
{ACAD_XDICTIONARY
360
87B4
102
}
102
{ACAD_REACTORS
330
83D8
102
}
330
83D8
100
AcDbVisualStyle
  2
Brighten
 70
    12
 71
     2
 72
     2
 73
     0
 90
        0
 40
-0.6
 41
-30.0
 62
     5
 63
     7
 74
     1
 91
        4
 64
     7
 65
   257
 75
     1
175
     1
 42
1.0
 92
        8
 66
     7
 43
1.0
 76
     1
 77
     6
 78
     2
 67
     7
 79
     5
170
     0
171
     0
290
     0
174
     0
 93
        1
 44
50.0
173
     0
291
     1
 45
0.0
1001
ACAD
1000
AcDbSavedByObjectVersion
1070
     0
  0
VISUALSTYLE
  5
83E8
102
{ACAD_XDICTIONARY
360
87BC
102
}
102
{ACAD_REACTORS
330
83D8
102
}
330
83D8
100
AcDbVisualStyle
  2
ColorChange
 70
    16
 71
     2
 72
     2
 73
     3
 90
        0
 40
-0.6
 41
-30.0
 62
     5
 63
     8
 74
     1
 91
        4
 64
     7
 65
   257
 75
     1
175
     1
 42
1.0
 92
        8
 66
     8
 43
1.0
 76
     1
 77
     6
 78
     2
 67
     7
 79
     5
170
     0
171
     0
290
     0
174
     0
 93
        1
 44
0.0
173
     0
291
     1
 45
0.0
1001
ACAD
1000
AcDbSavedByObjectVersion
1070
     0
  0
VISUALSTYLE
  5
83E1
102
{ACAD_XDICTIONARY
360
87AE
102
}
102
{ACAD_REACTORS
330
83D8
102
}
330
83D8
100
AcDbVisualStyle
  2
Conceptual
 70
     9
 71
     3
 72
     2
 73
     0
 90
        0
 40
-0.6
 41
-30.0
 62
     5
 63
     7
 74
     2
 91
        2
 64
     7
 65
   257
 75
     1
175
     1
 42
179.0
 92
        8
 66
     7
 43
1.0
 76
     1
 77
     6
 78
     2
 67
     7
 79
     3
170
     0
171
     0
290
     0
174
     0
 93
        1
 44
0.0
173
     0
291
     0
 45
0.0
1001
ACAD
1000
AcDbSavedByObjectVersion
1070
     0
  0
VISUALSTYLE
  5
83E3
102
{ACAD_XDICTIONARY
360
87B2
102
}
102
{ACAD_REACTORS
330
83D8
102
}
330
83D8
100
AcDbVisualStyle
  2
Dim
 70
    11
 71
     2
 72
     2
 73
     0
 90
        0
 40
-0.6
 41
-30.0
 62
     5
 63
     7
 74
     1
 91
        4
 64
     7
 65
   257
 75
     1
175
     1
 42
1.0
 92
        8
 66
     7
 43
1.0
 76
     1
 77
     6
 78
     2
 67
     7
 79
     5
170
     0
171
     0
290
     0
174
     0
 93
        1
 44
-50.0
173
     0
291
     1
 45
0.0
1001
ACAD
1000
AcDbSavedByObjectVersion
1070
     0
  0
VISUALSTYLE
  5
83F0
102
{ACAD_XDICTIONARY
360
87CC
102
}
102
{ACAD_REACTORS
330
83D8
102
}
330
83D8
100
AcDbVisualStyle
  2
EdgeColorOff
 70
    22
 71
     2
 72
     2
 73
     0
 90
        0
 40
-0.6
 41
-30.0
 62
     5
 63
     7
 74
     1
 91
        4
 64
     7
 65
   257
 75
     1
175
     1
 42
1.0
 92
        8
 66
     7
 43
1.0
 76
     1
 77
     6
 78
     2
 67
     7
 79
     5
170
     0
171
     0
290
     0
174
     0
 93
        1
 44
0.0
173
     0
291
     1
 45
0.0
1001
ACAD
1000
AcDbSavedByObjectVersion
1070
     0
  0
VISUALSTYLE
  5
83E7
102
{ACAD_XDICTIONARY
360
87BA
102
}
102
{ACAD_REACTORS
330
83D8
102
}
330
83D8
100
AcDbVisualStyle
  2
Facepattern
 70
    15
 71
     2
 72
     2
 73
     0
 90
        0
 40
-0.6
 41
-30.0
 62
     5
 63
     7
 74
     1
 91
        4
 64
     7
 65
   257
 75
     1
175
     1
 42
1.0
 92
        8
 66
     7
 43
1.0
 76
     1
 77
     6
 78
     2
 67
     7
 79
     5
170
     0
171
     0
290
     0
174
     0
 93
        1
 44
0.0
173
     0
291
     1
 45
0.0
1001
ACAD
1000
AcDbSavedByObjectVersion
1070
     0
  0
VISUALSTYLE
  5
83D9
102
{ACAD_XDICTIONARY
360
879E
102
}
102
{ACAD_REACTORS
330
83D8
102
}
330
83D8
100
AcDbVisualStyle
  2
Flat
 70
     0
 71
     2
 72
     1
 73
     1
 90
        2
 40
-0.6
 41
30.0
 62
     5
 63
     7
 74
     0
 91
        0
 64
     7
 65
   257
 75
     1
175
     1
 42
1.0
 92
        8
 66
     7
 43
1.0
 76
     1
 77
     6
 78
     2
 67
     7
 79
     5
170
     0
171
     0
290
     0
174
     0
 93
       13
 44
0.0
173
     0
291
     1
 45
0.0
1001
ACAD
1000
AcDbSavedByObjectVersion
1070
     0
  0
VISUALSTYLE
  5
83DA
102
{ACAD_XDICTIONARY
360
87A0
102
}
102
{ACAD_REACTORS
330
83D8
102
}
330
83D8
100
AcDbVisualStyle
  2
FlatWithEdges
 70
     1
 71
     2
 72
     1
 73
     1
 90
        2
 40
-0.6
 41
30.0
 62
     5
 63
     7
 74
     1
 91
        0
 64
     7
 65
   257
 75
     1
175
     1
 42
1.0
 92
        0
 66
   257
 43
1.0
 76
     1
 77
     6
 78
     2
 67
     7
 79
     5
170
     0
171
     0
290
     0
174
     0
 93
       13
 44
0.0
173
     0
291
     1
 45
0.0
1001
ACAD
1000
AcDbSavedByObjectVersion
1070
     0
  0
VISUALSTYLE
  5
83DB
102
{ACAD_XDICTIONARY
360
87A2
102
}
102
{ACAD_REACTORS
330
83D8
102
}
330
83D8
100
AcDbVisualStyle
  2
Gouraud
 70
     2
 71
     2
 72
     2
 73
     1
 90
        2
 40
-0.6
 41
30.0
 62
     5
 63
     7
 74
     0
 91
        0
 64
     7
 65
   257
 75
     1
175
     1
 42
1.0
 92
        0
 66
     7
 43
1.0
 76
     1
 77
     6
 78
     2
 67
     7
 79
     5
170
     0
171
     0
290
     0
174
     0
 93
       13
 44
0.0
173
     0
291
     1
 45
0.0
1001
ACAD
1000
AcDbSavedByObjectVersion
1070
     0
  0
VISUALSTYLE
  5
83DC
102
{ACAD_XDICTIONARY
360
87A4
102
}
102
{ACAD_REACTORS
330
83D8
102
}
330
83D8
100
AcDbVisualStyle
  2
GouraudWithEdges
 70
     3
 71
     2
 72
     2
 73
     1
 90
        2
 40
-0.6
 41
30.0
 62
     5
 63
     7
 74
     1
 91
        0
 64
     7
 65
   257
 75
     1
175
     1
 42
1.0
 92
        0
 66
   257
 43
1.0
 76
     1
 77
     6
 78
     2
 67
     7
 79
     5
170
     0
171
     0
290
     0
174
     0
 93
       13
 44
0.0
173
     0
291
     1
 45
0.0
1001
ACAD
1000
AcDbSavedByObjectVersion
1070
     0
  0
VISUALSTYLE
  5
83E0
102
{ACAD_XDICTIONARY
360
87AC
102
}
102
{ACAD_REACTORS
330
83D8
102
}
330
83D8
100
AcDbVisualStyle
  2
Hidden
 70
     6
 71
     1
 72
     2
 73
     2
 90
        0
 40
-0.6
 41
-30.0
 62
     5
 63
     7
 74
     2
 91
        2
 64
     7
 65
   257
 75
     2
175
     1
 42
40.0
 92
        0
 66
   257
 43
1.0
 76
     1
 77
     6
 78
     2
 67
     7
 79
     3
170
     0
171
     0
290
     0
174
     0
 93
        1
 44
0.0
173
     0
291
     0
 45
0.0
1001
ACAD
1000
AcDbSavedByObjectVersion
1070
     0
  0
VISUALSTYLE
  5
83EE
102
{ACAD_XDICTIONARY
360
87C8
102
}
102
{ACAD_REACTORS
330
83D8
102
}
330
83D8
100
AcDbVisualStyle
  2
JitterOff
 70
    20
 71
     2
 72
     2
 73
     0
 90
        0
 40
-0.6
 41
-30.0
 62
     5
 63
     7
 74
     1
 91
        4
 64
     7
 65
   257
 75
     1
175
     1
 42
1.0
 92
       10
 66
     7
 43
1.0
 76
     1
 77
     6
 78
     2
 67
     7
 79
     5
170
     0
171
     0
290
     0
174
     0
 93
        1
 44
0.0
173
     0
291
     1
 45
0.0
1001
ACAD
1000
AcDbSavedByObjectVersion
1070
     0
  0
VISUALSTYLE
  5
83E6
102
{ACAD_XDICTIONARY
360
87B8
102
}
102
{ACAD_REACTORS
330
83D8
102
}
330
83D8
100
AcDbVisualStyle
  2
Linepattern
 70
    14
 71
     2
 72
     2
 73
     0
 90
        0
 40
-0.6
 41
-30.0
 62
     5
 63
     7
 74
     1
 91
        4
 64
     7
 65
   257
 75
     7
175
     7
 42
1.0
 92
        8
 66
     7
 43
1.0
 76
     1
 77
     6
 78
     2
 67
     7
 79
     5
170
     0
171
     0
290
     0
174
     0
 93
        1
 44
0.0
173
     0
291
     1
 45
0.0
1001
ACAD
1000
AcDbSavedByObjectVersion
1070
     0
  0
VISUALSTYLE
  5
83EF
102
{ACAD_XDICTIONARY
360
87CA
102
}
102
{ACAD_REACTORS
330
83D8
102
}
330
83D8
100
AcDbVisualStyle
  2
OverhangOff
 70
    21
 71
     2
 72
     2
 73
     0
 90
        0
 40
-0.6
 41
-30.0
 62
     5
 63
     7
 74
     1
 91
        4
 64
     7
 65
   257
 75
     1
175
     1
 42
1.0
 92
        9
 66
     7
 43
1.0
 76
     1
 77
     6
 78
     2
 67
     7
 79
     5
170
     0
171
     0
290
     0
174
     0
 93
        1
 44
0.0
173
     0
291
     1
 45
0.0
1001
ACAD
1000
AcDbSavedByObjectVersion
1070
     0
  0
VISUALSTYLE
  5
83E2
102
{ACAD_XDICTIONARY
360
87B0
102
}
102
{ACAD_REACTORS
330
83D8
102
}
330
83D8
100
AcDbVisualStyle
  2
Realistic
 70
     8
 71
     2
 72
     3
 73
     0
 90
        2
 40
-0.6
 41
30.0
 62
     5
 63
     7
 74
     0
 91
        0
 64
     7
 65
   257
 75
     1
175
     1
 42
1.0
 92
        8
 66
   257
 43
1.0
 76
     1
 77
     6
 78
     2
 67
     7
 79
     3
170
     0
171
     0
290
     0
174
     0
 93
       13
 44
0.0
173
     0
291
     0
 45
0.0
1001
ACAD
1000
AcDbSavedByObjectVersion
1070
     0
  0
VISUALSTYLE
  5
83ED
102
{ACAD_XDICTIONARY
360
87C6
102
}
102
{ACAD_REACTORS
330
83D8
102
}
330
83D8
100
AcDbVisualStyle
  2
Shaded
 70
    27
 71
     2
 72
     2
 73
     1
 90
        2
 40
-0.6
 41
30.0
 62
     5
 63
     7
 74
     0
 91
        4
 64
     7
 65
   257
 75
     1
175
     1
 42
1.0
 92
        8
 66
   257
 43
1.0
 76
     1
 77
     6
 78
     2
 67
     8
 79
     3
170
     0
171
     0
290
     0
174
     0
 93
        5
 44
0.0
173
     0
291
     0
 45
0.0
1001
ACAD
1000
AcDbSavedByObjectVersion
1070
     0
  0
VISUALSTYLE
  5
83EC
102
{ACAD_XDICTIONARY
360
87C4
102
}
102
{ACAD_REACTORS
330
83D8
102
}
330
83D8
100
AcDbVisualStyle
  2
Shaded with edges
 70
    26
 71
     2
 72
     2
 73
     1
 90
        2
 40
-0.6
 41
30.0
 62
     5
 63
     7
 74
     1
 91
       10
 64
     7
 65
   257
 75
     2
175
     1
 42
1.0
 92
        8
 66
   257
 43
1.0
 76
     1
 77
     6
 78
     2
 67
     7
 79
     3
170
     0
171
     0
290
     0
174
     0
 93
        5
 44
0.0
173
     0
291
     0
 45
0.0
1001
ACAD
1000
AcDbSavedByObjectVersion
1070
     0
  0
VISUALSTYLE
  5
83E9
102
{ACAD_XDICTIONARY
360
87BE
102
}
102
{ACAD_REACTORS
330
83D8
102
}
330
83D8
100
AcDbVisualStyle
  2
Shades of Gray
 70
    23
 71
     2
 72
     2
 73
     3
 90
        0
 40
-0.6
 41
-30.0
 62
     5
 63
     7
 74
     2
 91
        2
 64
     7
 65
     7
 75
     1
175
     1
 42
40.0
 92
        8
 66
     7
 43
1.0
 76
     1
 77
     6
 78
     2
 67
     7
 79
     3
170
     0
171
     0
290
     0
174
     0
 93
        1
 44
0.0
173
     0
291
     0
 45
0.0
1001
ACAD
1000
AcDbSavedByObjectVersion
1070
     0
  0
VISUALSTYLE
  5
83EA
102
{ACAD_XDICTIONARY
360
87C0
102
}
102
{ACAD_REACTORS
330
83D8
102
}
330
83D8
100
AcDbVisualStyle
  2
Sketchy
 70
    24
 71
     1
 72
     2
 73
     2
 90
        0
 40
-0.6
 41
-30.0
 62
     5
 63
     7
 74
     2
 91
        2
 64
     7
 65
     7
 75
     1
175
     1
 42
40.0
 92
       11
 66
     7
 43
1.0
 76
     1
 77
     6
 78
     2
 67
     7
 79
     6
170
     0
171
     0
290
     0
174
     0
 93
        1
 44
0.0
173
     0
291
     0
 45
0.0
1001
ACAD
1000
AcDbSavedByObjectVersion
1070
     0
  0
VISUALSTYLE
  5
83E5
102
{ACAD_XDICTIONARY
360
87B6
102
}
102
{ACAD_REACTORS
330
83D8
102
}
330
83D8
100
AcDbVisualStyle
  2
Thicken
 70
    13
 71
     2
 72
     2
 73
     0
 90
        0
 40
-0.6
 41
-30.0
 62
     5
 63
     7
 74
     1
 91
        4
 64
     7
 65
   257
 75
     1
175
     1
 42
1.0
 92
       12
 66
     7
 43
1.0
 76
     1
 77
     6
 78
     2
 67
     7
 79
     5
170
     0
171
     0
290
     0
174
     0
 93
        1
 44
0.0
173
     0
291
     1
 45
0.0
1001
ACAD
1000
AcDbSavedByObjectVersion
1070
     0
  0
VISUALSTYLE
  5
83DF
102
{ACAD_XDICTIONARY
360
87AA
102
}
102
{ACAD_REACTORS
330
83D8
102
}
330
83D8
100
AcDbVisualStyle
  2
Wireframe
 70
     5
 71
     0
 72
     2
 73
     0
 90
        0
 40
-0.6
 41
-30.0
 62
     5
 63
     7
 74
     1
 91
        4
 64
     7
 65
   257
 75
     1
175
     1
 42
1.0
 92
        0
 66
   257
 43
1.0
 76
     1
 77
     6
 78
     2
 67
     7
 79
     3
170
     0
171
     0
290
     0
174
     0
 93
        1
 44
0.0
173
     0
291
     0
 45
0.0
1001
ACAD
1000
AcDbSavedByObjectVersion
1070
     0
  0
VISUALSTYLE
  5
83EB
102
{ACAD_XDICTIONARY
360
87C2
102
}
102
{ACAD_REACTORS
330
83D8
102
}
330
83D8
100
AcDbVisualStyle
  2
X-Ray
 70
    25
 71
     2
 72
     2
 73
     1
 90
        1
 40
0.5
 41
-30.0
 62
     5
 63
     7
 74
     1
 91
        0
 64
     7
 65
   257
 75
     1
175
     1
 42
1.0
 92
        8
 66
     7
 43
1.0
 76
     1
 77
     6
 78
     2
 67
     7
 79
     3
170
     0
171
     0
290
     0
174
     0
 93
       13
 44
0.0
173
     0
291
     0
 45
0.0
1001
ACAD
1000
AcDbSavedByObjectVersion
1070
     0
  0
DICTIONARYVAR
  5
8475
102
{ACAD_REACTORS
330
8470
102
}
330
8470
100
DictionaryVariables
280
     0
  1
1:1
  0
DICTIONARYVAR
  5
8472
102
{ACAD_REACTORS
330
8470
102
}
330
8470
100
DictionaryVariables
280
     0
  1
STANDARD
  0
DICTIONARYVAR
  5
8471
102
{ACAD_REACTORS
330
8470
102
}
330
8470
100
DictionaryVariables
280
     0
  1
STANDARD
  0
DICTIONARYVAR
  5
8473
102
{ACAD_REACTORS
330
8470
102
}
330
8470
100
DictionaryVariables
280
     0
  1
Imperial24
  0
DICTIONARYVAR
  5
8474
102
{ACAD_REACTORS
330
8470
102
}
330
8470
100
DictionaryVariables
280
     0
  1
Imperial24
  0
DICTIONARYVAR
  5
8478
102
{ACAD_REACTORS
330
8470
102
}
330
8470
100
DictionaryVariables
280
     0
  1
1
  0
DICTIONARYVAR
  5
8477
102
{ACAD_REACTORS
330
8470
102
}
330
8470
100
DictionaryVariables
280
     0
  1
0
  0
DICTIONARYVAR
  5
8476
102
{ACAD_REACTORS
330
8470
102
}
330
8470
100
DictionaryVariables
280
     0
  1
127
  0
DICTIONARYVAR
  5
8479
102
{ACAD_REACTORS
330
8470
102
}
330
8470
100
DictionaryVariables
280
     0
  1
2
  0
DICTIONARY
  5
87D2
330
8419
100
AcDbDictionary
280
     1
281
     1
  3
ACAD_XREC_ROUNDTRIP
360
87D3
  0
DICTIONARY
  5
87D6
330
8421
100
AcDbDictionary
280
     1
281
     1
  3
ACAD_XREC_ROUNDTRIP
360
87D7
  0
DICTIONARY
  5
87D4
330
841D
100
AcDbDictionary
280
     1
281
     1
  3
ACAD_XREC_ROUNDTRIP
360
87D5
  0
DICTIONARY
  5
83C9
330
83C8
100
AcDbDictionary
280
     1
281
     1
  3
ACAD_XREC_ROUNDTRIP
360
879C
  3
BUMPTILE
360
83CB
  3
DIFFUSETILE
360
83CA
  3
OPACITYTILE
360
83CE
  3
REFLECTIONTILE
360
83CD
  3
REFRACTIONTILE
360
83CF
  3
SPECULARTILE
360
83CC
  0
DICTIONARY
  5
83C1
330
83C0
100
AcDbDictionary
280
     1
281
     1
  3
ACAD_XREC_ROUNDTRIP
360
879B
  3
BUMPTILE
360
83C3
  3
DIFFUSETILE
360
83C2
  3
OPACITYTILE
360
83C6
  3
REFLECTIONTILE
360
83C5
  3
REFRACTIONTILE
360
83C7
  3
SPECULARTILE
360
83C4
  0
DICTIONARY
  5
83D1
330
83D0
100
AcDbDictionary
280
     1
281
     1
  3
ACAD_XREC_ROUNDTRIP
360
879D
  3
BUMPTILE
360
83D3
  3
DIFFUSETILE
360
83D2
  3
FBXASSET
360
84C0
  3
OPACITYTILE
360
83D6
  3
REFLECTIONTILE
360
83D5
  3
REFRACTIONTILE
360
83D7
  3
SPECULARTILE
360
83D4
  0
DICTIONARY
  5
87D0
330
8417
100
AcDbDictionary
280
     1
281
     1
  3
ACAD_XREC_ROUNDTRIP
360
87D1
  0
DICTIONARY
  5
8797
330
8413
100
AcDbDictionary
280
     1
281
     1
  3
ACAD_ROUNDTRIP_2008_TABLESTYLE_CELLSTYLEMAP
360
8798
  3
ACAD_XREC_ROUNDTRIP
360
87CE
  0
DICTIONARY
  5
87A8
330
83DE
100
AcDbDictionary
280
     1
281
     1
  3
ACAD_XREC_ROUNDTRIP
360
87A9
  0
DICTIONARY
  5
87A6
330
83DD
100
AcDbDictionary
280
     1
281
     1
  3
ACAD_XREC_ROUNDTRIP
360
87A7
  0
DICTIONARY
  5
87B4
330
83E4
100
AcDbDictionary
280
     1
281
     1
  3
ACAD_XREC_ROUNDTRIP
360
87B5
  0
DICTIONARY
  5
87BC
330
83E8
100
AcDbDictionary
280
     1
281
     1
  3
ACAD_XREC_ROUNDTRIP
360
87BD
  0
DICTIONARY
  5
87AE
330
83E1
100
AcDbDictionary
280
     1
281
     1
  3
ACAD_XREC_ROUNDTRIP
360
87AF
  0
DICTIONARY
  5
87B2
330
83E3
100
AcDbDictionary
280
     1
281
     1
  3
ACAD_XREC_ROUNDTRIP
360
87B3
  0
DICTIONARY
  5
87CC
330
83F0
100
AcDbDictionary
280
     1
281
     1
  3
ACAD_XREC_ROUNDTRIP
360
87CD
  0
DICTIONARY
  5
87BA
330
83E7
100
AcDbDictionary
280
     1
281
     1
  3
ACAD_XREC_ROUNDTRIP
360
87BB
  0
DICTIONARY
  5
879E
330
83D9
100
AcDbDictionary
280
     1
281
     1
  3
ACAD_XREC_ROUNDTRIP
360
879F
  0
DICTIONARY
  5
87A0
330
83DA
100
AcDbDictionary
280
     1
281
     1
  3
ACAD_XREC_ROUNDTRIP
360
87A1
  0
DICTIONARY
  5
87A2
330
83DB
100
AcDbDictionary
280
     1
281
     1
  3
ACAD_XREC_ROUNDTRIP
360
87A3
  0
DICTIONARY
  5
87A4
330
83DC
100
AcDbDictionary
280
     1
281
     1
  3
ACAD_XREC_ROUNDTRIP
360
87A5
  0
DICTIONARY
  5
87AC
330
83E0
100
AcDbDictionary
280
     1
281
     1
  3
ACAD_XREC_ROUNDTRIP
360
87AD
  0
DICTIONARY
  5
87C8
330
83EE
100
AcDbDictionary
280
     1
281
     1
  3
ACAD_XREC_ROUNDTRIP
360
87C9
  0
DICTIONARY
  5
87B8
330
83E6
100
AcDbDictionary
280
     1
281
     1
  3
ACAD_XREC_ROUNDTRIP
360
87B9
  0
DICTIONARY
  5
87CA
330
83EF
100
AcDbDictionary
280
     1
281
     1
  3
ACAD_XREC_ROUNDTRIP
360
87CB
  0
DICTIONARY
  5
87B0
330
83E2
100
AcDbDictionary
280
     1
281
     1
  3
ACAD_XREC_ROUNDTRIP
360
87B1
  0
DICTIONARY
  5
87C6
330
83ED
100
AcDbDictionary
280
     1
281
     1
  3
ACAD_XREC_ROUNDTRIP
360
87C7
  0
DICTIONARY
  5
87C4
330
83EC
100
AcDbDictionary
280
     1
281
     1
  3
ACAD_XREC_ROUNDTRIP
360
87C5
  0
DICTIONARY
  5
87BE
330
83E9
100
AcDbDictionary
280
     1
281
     1
  3
ACAD_XREC_ROUNDTRIP
360
87BF
  0
DICTIONARY
  5
87C0
330
83EA
100
AcDbDictionary
280
     1
281
     1
  3
ACAD_XREC_ROUNDTRIP
360
87C1
  0
DICTIONARY
  5
87B6
330
83E5
100
AcDbDictionary
280
     1
281
     1
  3
ACAD_XREC_ROUNDTRIP
360
87B7
  0
DICTIONARY
  5
87AA
330
83DF
100
AcDbDictionary
280
     1
281
     1
  3
ACAD_XREC_ROUNDTRIP
360
87AB
  0
DICTIONARY
  5
87C2
330
83EB
100
AcDbDictionary
280
     1
281
     1
  3
ACAD_XREC_ROUNDTRIP
360
87C3
  0
XRECORD
  5
87D3
102
{ACAD_REACTORS
330
87D2
102
}
330
87D2
100
AcDbXrecord
280
     1
102
DISPLAYNAME
  1
Imperial24
102
FLAGS
 90
        0
  0
XRECORD
  5
87D7
102
{ACAD_REACTORS
330
87D6
102
}
330
87D6
100
AcDbXrecord
280
     1
102
SHADEPLOT
 70
     0
102
SHADEPLOTRESLEVEL
 70
     2
102
SHADEPLOTCUSTOMDPI
 70
   300
  0
XRECORD
  5
87D5
102
{ACAD_REACTORS
330
87D4
102
}
330
87D4
100
AcDbXrecord
280
     1
102
SHADEPLOT
 70
     0
102
SHADEPLOTRESLEVEL
 70
     2
102
SHADEPLOTCUSTOMDPI
 70
   300
  0
XRECORD
  5
879C
102
{ACAD_REACTORS
330
83C9
102
}
330
83C9
100
AcDbXrecord
280
     1
102
MATERIAL
148
0.0
149
0.0
149
0.0
 93
        0
 94
      127
282
     0
 72
     0
 77
     0
171
     0
175
     0
179
     0
273
     0
  0
XRECORD
  5
83CB
102
{ACAD_REACTORS
330
83C9
102
}
330
83C9
100
AcDbXrecord
280
     1
270
     1
271
     1
  0
XRECORD
  5
83CA
102
{ACAD_REACTORS
330
83C9
102
}
330
83C9
100
AcDbXrecord
280
     1
270
     1
271
     1
  0
XRECORD
  5
83CE
102
{ACAD_REACTORS
330
83C9
102
}
330
83C9
100
AcDbXrecord
280
     1
270
     1
271
     1
  0
XRECORD
  5
83CD
102
{ACAD_REACTORS
330
83C9
102
}
330
83C9
100
AcDbXrecord
280
     1
270
     1
271
     1
  0
XRECORD
  5
83CF
102
{ACAD_REACTORS
330
83C9
102
}
330
83C9
100
AcDbXrecord
280
     1
270
     1
271
     1
  0
XRECORD
  5
83CC
102
{ACAD_REACTORS
330
83C9
102
}
330
83C9
100
AcDbXrecord
280
     1
270
     1
271
     1
  0
XRECORD
  5
879B
102
{ACAD_REACTORS
330
83C1
102
}
330
83C1
100
AcDbXrecord
280
     1
102
MATERIAL
148
0.0
149
0.0
149
0.0
 93
        0
 94
      127
282
     0
 72
     0
 77
     0
171
     0
175
     0
179
     0
273
     0
  0
XRECORD
  5
83C3
102
{ACAD_REACTORS
330
83C1
102
}
330
83C1
100
AcDbXrecord
280
     1
270
     1
271
     1
  0
XRECORD
  5
83C2
102
{ACAD_REACTORS
330
83C1
102
}
330
83C1
100
AcDbXrecord
280
     1
270
     1
271
     1
  0
XRECORD
  5
83C6
102
{ACAD_REACTORS
330
83C1
102
}
330
83C1
100
AcDbXrecord
280
     1
270
     1
271
     1
  0
XRECORD
  5
83C5
102
{ACAD_REACTORS
330
83C1
102
}
330
83C1
100
AcDbXrecord
280
     1
270
     1
271
     1
  0
XRECORD
  5
83C7
102
{ACAD_REACTORS
330
83C1
102
}
330
83C1
100
AcDbXrecord
280
     1
270
     1
271
     1
  0
XRECORD
  5
83C4
102
{ACAD_REACTORS
330
83C1
102
}
330
83C1
100
AcDbXrecord
280
     1
270
     1
271
     1
  0
XRECORD
  5
879D
102
{ACAD_REACTORS
330
83D1
102
}
330
83D1
100
AcDbXrecord
280
     1
102
MATERIAL
148
0.0
149
0.0
149
0.0
 93
        0
 94
      127
282
     0
 72
     0
 77
     0
171
     0
175
     0
179
     0
273
     0
  0
XRECORD
  5
83D3
102
{ACAD_REACTORS
330
83D1
102
}
330
83D1
100
AcDbXrecord
280
     1
270
     1
271
     1
  0
XRECORD
  5
83D2
102
{ACAD_REACTORS
330
83D1
102
}
330
83D1
100
AcDbXrecord
280
     1
270
     1
271
     1
  0
XRECORD
  5
84C0
102
{ACAD_REACTORS
330
83D1
102
}
330
83D1
100
AcDbXrecord
280
     1
 70
     1
 90
1959938040
 71
     1
  1
4DE0BC69-B271-422D-8A89-F8A31A78A519
311
504B0304140006080800978E81576B8389B3BF000000200100004F00000035324233443843302D363736462D343536372D413732392D3542374430343530314535302F4173736574446174612F446566696E6974696F6E4974657261746F7250726F706572746965732E62696EEB606060F80F0540260323103700495E20ED
311
9E9A975A94991C9C9C919A9BC8C00612C9C94F4ACC6147C831019920AE4B6A5A62694E0948976F6671726A4E4E625E6A7E69B12042A9426E6209D0B8C41C3D90264E20860914834C48875806B2DF0F88414E02D189290556F689C5C5A925B6FA694915FA064E868E2ECEAE8EBA46A66616BA26CEE696BA8E66CECEBA96A6E6
311
46AE962E962606CE8EFA45A9C5F9A545C9A9C5FA46FA06F15093E30BF2D219182C0A8ABBE6012D01B90184090100504B0304140006080800978E8157A120F94BEF000000300200004500000035324233443843302D363736462D343536372D413732392D3542374430343530314535302F4173736574446174612F496E7374
311
616E636550726F706572746965732E62696EEB606060F80F0540260323103700495E20ED9E9A975A94991C9C9C919A9BA8021430717135707236B3D475323237D435313272D1B570B4B0D475B37034367434B7703435B464476804693136046A3232B5D435353131D635313332D475727372D13534373670367376B67474B5
311
042A03DBCBA019D37FE8ABC6157B20CD04146B0062181F4C03F940F0C11EA29A8141C08141002C0426541C106CAC2CA046088033B02A030AC2157C6006F21A8018AAF50194E6010A610250382264E08660284CD9E98021862280A91564B406929A0FF62C401E28B6F88038B83CB1243943D7A928312F25350524131B1BFB9F
311
161800504B0304140006080800978E815728BB58AF800100009E0500003D00000035324233443843302D363736462D343536372D413732392D3542374430343530314535302F536368656D61732F436F6D6D6F6E536368656D612E786D6CBD544D4FC23018BEFB2B96DE15493C78601010A34B880709DEDFB52FD0D8B54BD7
311
0DF6EFED3AC0B12E6442E2716BFB3CEFF3D18E26FB440405EA8C2B1992E1C323095052C5B8DC842437EBFB673219DF8DA659866649B798C078B48AE6410122242F2A4994AC7F93815DF85C049C8564CA0A901499DD886B2EB9B1E02448F358701A9235880C49A0119892A20C89D1B9FD768815CAD268CB5E0355B40B1E47F3
311
E37A2020464BED06AA57CE8FCC20C3C3446D46761A2632A8C1283D07031EFF2AE7CCB1BFEEE916E406DFAC8E36FFD99A9D60A6944090EEDC3B670C7DC13DE86B6B2C5C240D6E503BB85ACD579D513F1B9F9A69DC9CC22AFA80C426D40AF0B21EA168559156B6276F0F726A6BFF04DCD513A87A62CAD41FB24FCB2858B3952E
311
3D852084DA25B9303C15687973CC8E8AAE11DF2836C38C6A9E765E8C1BA1BFB1DC29CDFE518C8B5A7655A4ED7E77291ABEB80DBD82EC866ADE1B8D05AF9E35CF09D7A061F38A986D9EC412B8F0F65E5D81534D9B231D1E5A8FE577A241F3A5FD01504B0304140006080800978E81572CCEBD668A040000E01200003E000000
311
35324233443843302D363736462D343536372D413732392D3542374430343530314535302F536368656D61732F47656E65726963536368656D612E786D6CD5586D6FDB380CFE7EBF42F0F7A649B70E1B90744856B4970F450FCD7A5F05459613EDE4174872DADCAF3F522F8ED3B88D2F1D06AC4050DBA2493EE4438AF2F8EB
311
73AEC8466823CB62928C06C384888297A92C5693A4B6D9D9E7E4EBD51FE3A931C22EF85AE4EC6AFC38BF261BA626C9AD288496DC3F4FCEAFC63366845F7A10452AF41DB320C0D44EC26EAB20918735565582695670811A6A49643A49A6E9069FA4604A64B29016DC4B48552F95E4932463CA888468C1D2B250DB4962750DF7
311
CE273069CE8363F1FF4EDB00E0A21999574AE4A2B00C353B93F3BD4777B8A61ED8F604ABFEDD79CE56A2B7BDFBDBC50996E0ADDE16FED26223C5D30956C29BDF4A55EA686E5E58B112DA45CE67F76F4FA27EFA3FB672FD7372FC388FAECDCA5209E693CAD167BADCD272F943701B3812F8A3D852008B1D2E32DB927B2F833C
311
6EA95879925356D254582695095A3CE982924720BE5774A3CB9CDCDB350427D2DF20DA1B5532EBE2D5D6288D75D4F7E4FD9890A0EF8E3D93EBB8F8BA4758158EF6FB90A6F9520281C93DE7AAC6D24607DA296BB96018123F821A7D6A5C5884050C475DA4865442732C8B95684A50165CBB3A32F25F783A4A480ED59AD7F924
311
B968AEA50131F46303223E6A397B0E52976030DC1DCA81D7E7C1EDEEA42C19FF27635C505E2BD5198A599020DF50A2330FCB3AAF28CB0124108429553EF1B228802E2265D8F7CC2401042B155BCC7070F1E5C55F13B4A9577362CCCE46C32174E010C3C378C44841A4BDA00FE3A12006CE11EE6AEC59894D3526DDE1CD59D5
311
03ECC324017F8061B7F162162FA62EDD81AE3308617770796DCBDAD2B2625C5AE8A63DE20B2C8AA5E95E76E5730823955956E33E705425A2187C185D36489A1B44D3DCEC2172F6BA2105C3546287A7194B2331768EBBE64F6E70A9930ABE0ADEA89E9E2C38523B810287AD67A54A039C1606EAFE68F8304610BB9093DBDDAB
311
C0B2AE4E290DCDA15376D7E39F72B556F0B32EAB5D3D498B4C41ABADEC3A1434C422D87E8025A84BDCB2B1417ED750FAE4DA8976863974C577C7F902D3F156AD354DEA3540DE6BEAE2BEA52F7A2EB4CA43802ECE5BF2CE2EDC9347179FFB023CE412E60BE16DA0BE29B374988A553F561DC04615DD35F7D2C8979F60E5955C
311
E93DF29DED8AFA1EE6642D53418086C03C47C377910F75F7E8F5EF665F70B60FFB22AEDF897D119E8423C773E819A3C1E55E550599EE6EDCA34D0C86FD72057DF2CD46F16A470682471C164E4346D5306BF12D7D12D82CFF673D41636C347443FEB51B50D72EA171A8E4A58623A4A16E0FA2B8B10A0D23268D87C33896EE8F
311
B73305A74BF224EDBADFA0BD674AB354D63DB7BD5D83426761C077DE767728235446A552754EB93B755891C3C4CC6CADE37CF0E912A7BB38DBA010F9DE1282EDF470CA69A9CDA482E334C4A6EA4107987980B17E72F31730EBF88BBD39E7C629F56797A3C0009C2C5AE7951D9A05A02773440F02EEB4DE396A3B6A570C72CC
311
FBCD823B0B8ED3F1D5CEDDFED772FA70236C83FB7D86C385D570B87107535572A60A96035F8F7C6A7192F13007246BBE0521855E6AC46F3E27689CEE7D186A6FD679D98CDCAD13333E04EBE7ED6F55FF01504B0304140006080800978E81576180134D5F0100006B0300004500000035324233443843302D363736462D3435
311
36372D413732392D3542374430343530314535302F536368656D61732F52656E6465724D6174657269616C536368656D612E786D6CA5934D6FC2300C86EFFB1551EEE343DBA41D1A103009551ADAD40EAE28A4A68D9426284961FCFBE5A340113B2071746D3F765EBF4DC6BFB5407BD0862B49F0B037C0082453059725C18D
311
DD3EBFE3F1E829991803366715D474942CD30FB4A782E00C64017A412D684E454CE3FE28995203B162A6EA5AC94B66997D225E109CD63B0135484BAD1B3C07E9080CA35DB3119C11BCA5C200461A68A1A438126C75E3E230D40FF81FB3F03C91D1E3A3A0AF79FE28E25BC39EC3E17E4C2A2D94A0833A51AF55BCCA7D88572F
311
CBAC529C4140B020FC3AAFA886621DCED7EAD7664CC86024E806DC297DA1BB393E4156543457A4537DB8817349A70F8ACBF09B3EEE2CB2F33E91B65D60786E4E3B39B77E3FEEEF5650424525DA657FB8B46BE6BF064646F0A0F7327C0BC1BC1B4CBBC1C419FA3CCB23500007872A2580CAAE5461865565294E4EDB4617B62F
311
F579DF9A5B2F54E834076A597573A020912FED777F9B3F504B0304140006080800978E81573E522C3051000000570000004700000035324233443843302D363736462D343536372D413732392D3542374430343530314535302F4173736574446174612F41737365745461626C654F66436F6E74656E74732E62696E536160
311
6030717135707236B3D475323237D435313272D1B570B4B0D475B37034367434B7703435B41402AACB4D2C492DCA4CCC492C28484D2C4ACC4B4E050A82012F90744FCD03CA26072767A4E6260200504B0304140006080800978E8157F865834058000000680000004500000035324233443843302D363736462D343536372D
311
413732392D3542374430343530314535302F4173736574446174612F53747265616D56657273696F6E5461626C652E696E66558CBD0A80300C06F73E4B117FB66E451741D041DC5BF98480A492E4FDD18EAEC7DD4555D89EF28DF51A0B1BD8340C4DE7DD848B988C0ACF0649566493F2408C508DDEBB99D5129FF8F1AF8CF5
311
B9503E20FAE5A16B5AF702504B0304140006080800978E8157770A6FD5350100009A0400003600000035324233443843302D363736462D343536372D413732392D3542374430343530314535302F4173736574446174612F636E782E786D6CCD943F6FC32010C5BF8AC56EB0DDBF8A3051D52E995AA951876E177C4E503058
311
70AEDA6F5F483CB44AD52943D6E3DDF1F8897772F939D8E2034334DEB5ACE6152BD069DF19B76DD9447D79CF8AA592C17BFA21638583015B96CB4CC96DF0D338973AEC61B2B96A8DDBCFC5871891D6B0B1F8DC3F7A47E828B2425B88B16551EF70000E13F90EE39E7740C06B1E30FA29684C93C80C384FD20181B063AAA99A
311
ABB26ECAAA5ED7778B9B66717DFB2E45562AB9F1DECE7A932E0B7E2CF4F156A62A29F2B1925330B326BF85A9BF3CF28D715224A5929142623277D0D7983A601CADD140099DF09A90CA244218A4388A951499C12F124FD81B6772CB2A1903F2E125D9C340062F8EC87F5ECF4F66E52281D378B93C4E1D9E9FC2EBE107BD1D03
311
7948CCA5E5E4D42137AE3F434AC4618DA4D0E4ADA2BE01504B0304140006080800978E8157155E313A080100004F0300003400000035324233443843302D363736462D343536372D413732392D3542374430343530314535302F536368656D61732F636E782E786D6CCD933B6FC3201485FF8AC56EB0DDA7224C860E9DBAB4
311
9DBA51B84950806BF1A8DA7F5F701912A95B3B6483C32774CEE1C2B79FCE761F10A2413F93910EA403AF501BBF9F494EBBFE9E745BC103623AC148E7A58399549908BE0F98972669D8C96CAB6A8D3F36F1019D43FFA20EE024E9949531CE24AE5B2A73420DF148B54C928E3440C41C14941B9271D06E500164024DC4344C57
311
FD38F5C3F83ADE6D6EA6CDF5ED1B679514FC1DD136DEF80401974E6159F86267E0AC1E0B9E83694CCD40C4A9375ADAE0AC1082C7144A078D4C5F4B21E5B258A3642A55B115FC61046735EA59E047F0108CBACCC467E6FE2DF233780DE1A9BC5230D25E66F2DF3CFEAD00B6CE7E1981FA15C437504B0304140006080800978E
311
8157410A3D5871000000A40000002C00000035324233443843302D363736462D343536372D413732392D3542374430343530314535302F636E782E786D6C55CC4D0E82301086E1AB34B31774E7A22D31F1069E60020334B633A63FC6E34B0909B07DDE2F9FEE7EC1AB2FC5E4840DDC9A2B28E25E06C7938192C7CB1D546775
311
14C9871928C640062A83D55394F2D968A0118BAFEA1DBF377CA444F98919176EAB9FEAAB9F2960DA5BBB1E2ED3FA6FFF504B0304140006080800978E815772911D8D7F000000A300000007000000636E782E786D6C4D8CD10E822018465F85FDF7189A806D80CBACF770898E89D0505A8F1F342FBAFAB6B3EF1CD17E568BDE
311
3A6CC63B0965410069F7F4A371B384B84FB801D42A11BCDFFF6E80DCB06A0919831273F0F175A0514F43B4995AE39603D2AA3BF7CD8D60C6D903D794717CE5D505D38EF7A4A6A4BC53928C5356D2FC7A69735E7D01504B0304140006080800978E815716E99B5DA600000035010000130000005B436F6E74656E745F547970
311
65735D2E786D6C9590410E82301045AFD2740F4517C6180A0BF5065E60AC53688469D30E066F6F91AD9AB89CF9FFFD3F99BA9DC7413C3026E749CB4D59498164FCCD51A7E5C4B6D84BD136F5E5193089ECA5A465CF1C0E4A25D3E308A9F401292BD6C711388FB15301CC1D3A54DBAADA29E38991B8E0254336F5092D4C038B
311
F39CD76B6FC6A538AEBEA54A4B08617006389FA516557DE4AE8E7E70DE30729138228C5F021CD93F02D4FB0DCD0B504B0304140006080800978E81573DEE336E64000000790000001B0000006175746F6465736B2D64657369676E2D7061636B6167652E786D6C35CBC10E83200C00D05F21DCA56CA76D41FC96062B120735
311
B69A7DBE268BB7777961F8D5AF396893C2ADB70FE7ADA196782C2DF776D7A97B5933C430F15651E5469C55D70F80A4992A3ADC954792C525AE70A1E4D6AD9816CC044FEFDF01FE3FDE907802504B0304140006080800978E81579A6924C0F9000000960100003700000035324233443843302D363736462D343536372D4137
311
32392D3542374430343530314535302F4173736574446174612F636F72652E786D6C8550CB6E833010FC15B47703360F2791719450FEA0A7DE2C70889560233FAA7E7EED40A5F6D4D3AE66676677879DBF9667F629AD53467780F31232A94733293D7710FC0D1D203B73668DF1BF689069B1C80E120C9CCDD684758746A3BD
311
D409D566923B289C931EB2F1199B0EDC78978BC845F091E11EF92AC68798658EF38DC759086ADAA56A8A6EEAA6A4054E87637D68CA0BEAE991A2BAAD083A36F88A06DAF7437D6D869650562431675E2D3FDB472B8597137052920A61824AFC8EE9A921A7BAFD60456272E6BC8D3FEF4BD377C02FE9EA37E1052BB6E91FD7B0
311
4EFFBB06A57D4576D74DE180E378E46BC05991528AE51561AC2951FE0D504B0304140006080800978E8157E5A8D94CF7000000940100003500000035324233443843302D363736462D343536372D413732392D3542374430343530314535302F536368656D61732F636F72652E786D6C8550CB6E833010FC15B47703360F27
311
9171D420BEA03DF5668143AD041BF951F5F36B0395DA534FBB9A9D99DD1D76FD5A9ED9A7B44E19DD01CE4BC8A41ECDA4F4DC41F0777482ECCA9935C6FFA241A6C5223B483070365B13D6031A8DF65227549B491EA0704E7AC8C6676C3A70E3875C442E828F0CF7C857313EC42C739CEF3CCE4250D3215553745377252D703A
311
9CEB5353BEA09E9E29AADB8AA073836F68A07D3FD4B766680965451273E6D5F2B37DB4527839012725A91026A8C46F985E1A72A9DB7756242667CEDBF8F3B1347D07FC75BBD3B1629FFDF10CEBF4BF6750DA57E4F0DC150E388E276E03CE8A94512C5B80B1A63CF937504B0304140006080800978E8157E0493E9601010000
311
D70100002D00000035324233443843302D363736462D343536372D413732392D3542374430343530314535302F636F72652E786D6C9591DD52C32010855F25C33D099090D40EA163AD3E8157DE61D8A64C1BC8F0E3F8F8121347BDD32B98C3777639BBE2F03EDD8A37F0C138DB235A1254801D9C3676EC518A67BC43C5410A
311
EF5CFC81A1C2AA097AB4C8488AD1BB346FD2E06C04BBA8D669D844150244540CB77CE951182E30A952A59889702D67355CD508252D574E8A68A62FEBE04145D04832C26A4C1926F499767BCEF64DFB22AA859422191B6BB63583E91574E1E6982321C945B5BE662A19BD3146E73F9AB3019F0976AC4FBB0782DBAE7DC20D6F
311
3B7CDFB13BCC8FDD89349CD0474E72916C9622449F27B3155966F057FB6AFC952CCDFA9FC9564740927E87AA96314B517DEE209FCB4AE407504B0304140006080800978E8157FA58F1E307010000B201000008000000636F72652E786D6C8D504D6F842014FC2BE4DD51C1AF75836CBAC67FD0536F54584B56C1086EDA7F5F
311
586DD2DE7A7A6466DE9B61D8E5739ED043AD4E5BD302493240CA0C566A33B6B0F91B3E01BA70B65AEB7FC9001931AB16220C9C8DABDD96031AACF1CA44D458A90E5038A73CA0610A8F16DCF0A1669188CD0785BB278B18EE62540949761D675ECF3FABC3AA84571238CD688E09C5197925F5B9A4E7A27A63695472B66D5A1E
311
565A06777DD36A055EF74D712AB317DCD54D8D8B2AA7B829C915F775D7F5C5B5EC2B5AB3342E73E6FC1AFE7C1C09393D72E2117D59BA539CBD5B3B1D82104A226BA62FE0194B23F127F4B6C87F84D6C6E7F438B86F38E024047A12C1383618C6B3DE3063DBFC1B504B01021400140006080800978E81576B8389B3BF000000
311
200100004F000000000000000000000000000000000035324233443843302D363736462D343536372D413732392D3542374430343530314535302F4173736574446174612F446566696E6974696F6E4974657261746F7250726F706572746965732E62696E504B01021400140006080800978E8157A120F94BEF0000003002
311
000045000000000000000000000000002C01000035324233443843302D363736462D343536372D413732392D3542374430343530314535302F4173736574446174612F496E7374616E636550726F706572746965732E62696E504B01021400140006080800978E815728BB58AF800100009E0500003D000000000000000000
311
000000007E02000035324233443843302D363736462D343536372D413732392D3542374430343530314535302F536368656D61732F436F6D6D6F6E536368656D612E786D6C504B01021400140006080800978E81572CCEBD668A040000E01200003E000000000000000000000000005904000035324233443843302D363736
311
462D343536372D413732392D3542374430343530314535302F536368656D61732F47656E65726963536368656D612E786D6C504B01021400140006080800978E81576180134D5F0100006B03000045000000000000000000000000003F09000035324233443843302D363736462D343536372D413732392D35423744303435
311
30314535302F536368656D61732F52656E6465724D6174657269616C536368656D612E786D6C504B01021400140006080800978E81573E522C3051000000570000004700000000000000000000000000010B000035324233443843302D363736462D343536372D413732392D3542374430343530314535302F417373657444
311
6174612F41737365745461626C654F66436F6E74656E74732E62696E504B01021400140006080800978E8157F865834058000000680000004500000000000000000000000000B70B000035324233443843302D363736462D343536372D413732392D3542374430343530314535302F4173736574446174612F53747265616D
311
56657273696F6E5461626C652E696E66504B01021400140006080800978E8157770A6FD5350100009A0400003600000000000000000000000000720C000035324233443843302D363736462D343536372D413732392D3542374430343530314535302F4173736574446174612F636E782E786D6C504B010214001400060808
311
00978E8157155E313A080100004F0300003400000000000000000000000000FB0D000035324233443843302D363736462D343536372D413732392D3542374430343530314535302F536368656D61732F636E782E786D6C504B01021400140006080800978E8157410A3D5871000000A40000002C0000000000000000000000
311
0000550F000035324233443843302D363736462D343536372D413732392D3542374430343530314535302F636E782E786D6C504B01021400140006080800978E815772911D8D7F000000A3000000070000000000000000000000000010100000636E782E786D6C504B01021400140006080800978E815716E99B5DA6000000
311
350100001300000000000000000000000000B41000005B436F6E74656E745F54797065735D2E786D6C504B01021400140006080800978E81573DEE336E64000000790000001B000000000000000000000000008B1100006175746F6465736B2D64657369676E2D7061636B6167652E786D6C504B0102140014000608080097
311
8E81579A6924C0F90000009601000037000000000000000000000000002812000035324233443843302D363736462D343536372D413732392D3542374430343530314535302F4173736574446174612F636F72652E786D6C504B01021400140006080800978E8157E5A8D94CF7000000940100003500000000000000000000
311
0000007613000035324233443843302D363736462D343536372D413732392D3542374430343530314535302F536368656D61732F636F72652E786D6C504B01021400140006080800978E8157E0493E9601010000D70100002D00000000000000000000000000C014000035324233443843302D363736462D343536372D4137
311
32392D3542374430343530314535302F636F72652E786D6C504B01021400140006080800978E8157FA58F1E307010000B201000008000000000000000000000000000C160000636F72652E786D6C504B050600000000110011005A060000391700000000
310
504B0304140006080800978E8157000000000000000000000000370000006662782F30323539313246332D464641322D343042302D384145462D3439363631414143423146432F617474726962757465732E62696E504B0304140006080800978E8157000000000000000000000000350000006662782F3032353931324633
310
2D464641322D343042302D384145462D3439363631414143423146432F76657274696365732E62696E504B0304140006080800978E8157F270F1330600000004000000360000006662782F30323539313246332D464641322D343042302D384145462D3439363631414143423146432F747269616E676C65732E62696E6366
310
60600000504B0304140006080800978E815751464CB48900000043010000360000006662782F30323539313246332D464641322D343042302D384145462D3439363631414143423146432F6469726563746F72792E786D6C9D8F310EC2300C45AF127987122606C71DD918B841D4B851A43646695A717C52A85029031293A5
310
A76FBF6FACEF7DA7264E43906840EF0FA03836E242F406C6DCEE4EA06AC22492573150D1F66C60C640E8938CB705396EEDD86DE9B5042FE27813D640EA63BB001C722AF6E55CB61E4863F58284D5D3F53DD715CE1C3985E63FD7F1B7EBDD617E9F1E504B0304140006080800978E81573819738941070000201C0000340000
310
006662782F30323539313246332D464641322D343042302D384145462D3439363631414143423146432F6F626A656374732E786D6CDD595B6FE23814FE2B56F665F721376E85116544A11DA15167468366B56F9109867AEB5CE4242DDD5FBFC78E1DE234403A1769B55482D4718ECFF9CEFD64FAFE1031F444784693F8DAF2
310
1DCF42240E932D8DF7D75691EFECB185DECFD09427495EDB67A11847E4DA12CBD66CBAE74991AAA52DD9E1823557EF6EFE4259486262A190E12CBBB6B2F08144D8C1459E6C49F6E86C718E9DFDEEE0F84EB9D124BBE7387D681C95624EE21C5885F518A8280E7CF35F10C99D4D5DB1C1D8D6EFB6AD77669B2B053719A57196
310
E3387CC555E3B8DE09AE1AC7F5FDC1F2B6379CD8C3C1A06F0F463DDFBEB9BB59DAFE55DF5B8C168BC9FC7662A1D9749324AC52404AE22D68F1C59AF95357DCA9C45728B4F11D26714C428566DB862D517429C99A9818C0FA52B49A424A596B0BFD8EC29FD8D609148325036D2D9CFEAD5B6FB2F91B40C8BA5829CF88B0F22C
310
E7A06B857DE90FDED42D570DBDD00C4538279C628618DD70CC4141B0B554904146788B20850466528B9A5E9D5730ECCBBED4C6E5AE604CF8AF35939E16803F923C939CD17F083F725F3F0D7802690B1AE763256CFE920289C9D4958BE5BD7E4FDD2C81443B86F7602D20A6D8D4EF35F05A8858B05A5AB38F779BC35AC487F6
310
C3539EA484E7C2F2A4332BBFD31AAC9916185F07504A5C4DDD1D51F90AD07F02E42B5ED01434C7E961701868D9398EB35DC223D00EF290EDC19787C4E5ABABA95B3D3C43C88895A73005B7FD49981A621867D7209D4D9FC0E813DE57C2AD43CCC0A6EF692CFC1C0C05B1049620DEEF36076BB682600A8BF01466203DFC4D5D
310
7189E0A7A403F1A6A1A1B6F0DB4151DA619A7E76D4D507B0194EC34A55868CA7F01DFE147CE7CBF5C775C1773824F7CAB1976447639A43326D67C800DD70F96FAB4FD2233FB06483D9F169635308C7EC1311375AD4B2566A41522FC08948C3A566E4CA3D056F670CC7242932B5DE16A7C284253CD8BC04A50BB79EF5A7B681
310
F2306500ADB10C927BC8692A30B1664A5B5520746A82828561AE2C705F6A35D814511AE0282962116A5F9B62930F8833C21281AAA4A60D5B7BAD26BBA5BB5D9141F06A25B9308054FEAC0997163E8038D6C62F273B8E2189267140210783B3B49E601C5081779EE78CB05D40192BA2604719E49120C2E909FA1D25A867AE47
310
F2F29CF06D2B41D3B2B44F6A1B12802B6035483A5B95315FE99493272ACA4C99CF74363076A83AD49A0D4EA40B91295A00D5C628CD1CEA25EF66319AD837BD2BDF1EF47A4B7B3C1F4FECBBF1BCEFCFAFC6F3A10F294B598944E018ADEAF90E5429CA1CC3FFF28722DAC49832B82128E06DFAEEBDCC9ED72E8446D7BBF1E7CB
310
C5EDDCEE0D47637BB0B89AD87328D2ECC9F0AA773B594E06DE62EE729225050F49E6F65C2FD02699C6FB535C55B154642D901FBE15A450D65C4E765A5F4D61FEC731B499130C25FE57836815BB5A0AC2AE41543CDA0CA1387C14292A08A1EA6B759F46106DF2D116E7DE18973DA7EFC98FEF4F7ADEA4379E8C2A633F1BA8E5
310
393F1CE7DA2408A1EF2CF220497148F3F684DAC0A5639C7E536E71FAFE10013AD57775C8F93CA30E096884F724D861D125B404C64B12B4E6B03D4BB28CC624935DDEABEAAF41D373A09832736E8B11D22C88488EBFC7FE64DBD0B06988CD2C807E341713818B554165D0AA0339455174BF90B8A5FC2F4186A394959DEE250C
310
FC9E8640F7386D16279816473C81BD05380FBC2D91838B4BD42BF6757DD0AAB526F5C977933F018FAE6B7E213CFA88EEA59303C95C7CC610544643BF7FA51571092B7D542EFA385640E719BE04CF84EE1F3A159ADD74522BD9CAA23A2711B4B1382F78277F1D0DBD5707A9B8D07088DA496F2C0E65FFA63B38404F3670A7CA
310
DBDA315087D218E65C9D04792545AB094B5DC8999E185DBDC1AFCF2ABB4EF587E3E52FAF98EBCE1741A1D70507A896CB00ACA28F5153B756DD463D943DE33C8440BA96BFF60D78C4966C8F8D9941AEAD44D7F5E9A5EA7925026A04135B2CE2ECBDB8605F31A81ABAE7CCFD50166D6EB9BE1289CD81E1F4910F836993D6E70F
310
EB061558E9FCF4178111796E5050AB0BD10D9F21F56D75ECF91B149444DF56671EFF4F74145A81B5CE02A6C159C2280CE5C916ED4902D91BC60E1DBA0D1E914C66E56397A2DF087478FAA99CA9E678C3748F133E60184C33D58B15210C4521635E5B6A1DFD066350318994C329E711DA3015C32C54707A6D81C5E614BA2D67
310
03E32C393C94D41BE34A706C1CEF45BE2F9FAAFE3F3EF6AAFBAAF674C1454966381314B6A97C4F00555F796336FD7ED1353B08E770B929F24A98E3C2511A05827E21500A0753BF4705EF010A8AF372F98EDC6334A49D26F367EDA0A46AE798EFE578BD6693F3E517574CC6579F51CA8ABD50E7B9EED7A0648BAE9B15E5146A
310
0A86A1C44CB1A82117EFDC2F3C81574C11BAA36004E8F7C378F487BB48A22889CB2577AE5E54A1F503BC76DABA7AE4076DBCE70F5D39055063FD608333E2E06DF6080BA05A4EC56CB484D830802A9AD60C406B44E8021E33F6AF9648D546B509493DEC0A78E44C1F8123897739C26DEA1B6A0348F005E04ADE3C5EE885A9CB
310
61083EFB17504B0304140006080800978E81579E83BCE93F01000046050000300000006662782F30323539313246332D464641322D343042302D384145462D3439363631414143423146432F636E782E786D6CCD944D4EC3301085AF12799F3809BFAA1C5762C1095820768E334D4D1D4F644F10BD3D76490B0815B1A8D4EE
310
ACF11BE97D334F2396EF83CDDEC00783AE615551B20C9CC6CEB8BE6113ADF27B962DA5F088F44DC632A70668582A33297A8FD338973A58A9C9A6AA356E3317159137ED441058A6AD0AA16141AF6150859A083B089BA253A48AAAF01070F21A623F9901E67EED4111744CD6657D9557755E564FD5DDE2A65E5CDFBE089E9452
310
B48876D61B47E071CC34C6878B664AC1D3B7149337B3261130F9E5AC688D133CFE4B11A25BD7CF3ADA8E49378ED66845714C1C3501E551046A10FC532C054FBC3FA81F1F9EF70EB2CE78D0847E7BA60154C706703056C424FC8F7F27FC1B1BDBD7887BAE6D1F859D6D9D0C759FD610E3FA7BFF3145CAF5F6F2427F3076FACC
310
C75342465F1EF2DED78988F9EEE4C5A5A70B283F00504B0304140006080800978E8157D1F257A77E000000A30000000B0000006662782F636E782E786D6C4D8CD10A832018465F45FE7B37752D0AD4B098EF11CB42663A5C468F3F1D5DECEA83C3770EEF8ED5A1DDC48F0D5E00BD1040C63FC364FD22206D336E007592C710
310
B6BF1B203FAE4640C120F912437A9F6832F3985CA1CEFAD70909BBB794E91BD65A315C919EE0463D34AEDABAA64A0D3DD54336AE45C9F3EBE52D79F905504B0304140006080800978E8157A6D797065F0000008200000007000000636E782E786D6C4DCB3B0E80201045D1AD90E9FD7516806B51190811670C8A61F982B1B0
310
BAC9C97B72CA7B1037C6D3332918DA1E04D2CAC69353902EDB8C20262D23F3F59B81A079470595414B17391D1F19B4730A5583A7ED43BBE4025D9592775E5ADFFA01504B0304140006080800978E81574FEB6A7CA0000000F4000000130000005B436F6E74656E745F54797065735D2E786D6C7D8F4B0EC2300C44AF1279DF
310
A6B0400835ED02B8011730C16D239A8F121795DB93D02D6269CFBC19BBED573B8B17C564BC53B0AB1B10E4B47F18372A5878A88E20FAAEBDBD032591BD2E299898C349CAA427B2986A1FC86565F0D122E7318E32A07EE24872DF3407A9BD63725C71C980AEBDD080CBCCE2BAE6F5D69B7110E7CD57AA146008B3D1C8F92C59
310
54F993BB1BF787F39A89ABC491D09600F9FDA2FB00504B0304140006080800978E81573DEE336E64000000790000001B0000006175746F6465736B2D64657369676E2D7061636B6167652E786D6C35CBC10E83200C00D05F21DCA56CA76D41FC96062B120735B69A7DBE268BB7777961F8D5AF396893C2ADB70FE7ADA19678
310
2C2DF776D7A97B5933C430F15651E5469C55D70F80A4992A3ADC954792C525AE70A1E4D6AD9816CC044FEFDF01FE3FDE907802504B0304140006080800978E815778D89F90F9000000960100003B0000006662782F30323539313246332D464641322D343042302D384145462D3439363631414143423146432F7265736F75
310
726365732F636F72652E786D6C8550CB6EC32010FC156BEFD8401CA78E30511CB95FD0536F086F529418221E553FBF90B8527BEA6957B333B3BB230E5FCBADFA441F8CB303B09A428556BBD9D8CB00299EC90B540729BC73F1170D2AAB161CA0C020C5C5BB745F21ED6C445B50EB665C41150246A8F42D370304FD818BAA55
310
8A9911AEF55DE9ABBA60CDEA274F8A94CCBC4ACD9CDDCCD9A007D99DD834B6AF3DA1BB899296779CF4DDD891D3B4EDC7537F3C4E948AA688A58866F9D9AE3DAA8833484EF986304E287B63BBFD96EFDBEE5D34852945883EFFBC2E2DDF81F4185CF21A83689ED33FAEE93EFFEF9A8C8D1BBEBA3E150124CB473E06523425A5
310
5C1E11E65A1295DF504B0304140006080800978E81578EA6BB25F2000000B1010000310000006662782F30323539313246332D464641322D343042302D384145462D3439363631414143423146432F636F72652E786D6C8D50CB6EC32010FC156BEFD8801D3789309113D55FD0536F08130725068B47D5CF2FC4AED4DE725A
310
343BC3CC0E3B7DCF8FE24B39AFADE98094180A65A41DB5993A88E18AF6509C3873D6863F34288C9855071906CE2667E3B241D29AA04C468D1DD5060AEF5580423ED2A3032F6F6A16A5882131FCBD5C84BC8B4995A45C799C053DFF4AA55322A81138C5B44684224C3EC8DB71478F4DFBC9AACCE42C463D6E567A4CEEFAAA95
310
038EE9EE40E850A361E8296AF019A37DFF3EA0E6D0B6A4EF2F67325C5895C59CF9E0D2CDDB27F9BA57E5ABF05FE6B88C2F64D626D474335C151E3849799E0BCEAA5C601ACF76D3CC65F31F504B0304140006080800978E8157BB777C9D54010000DD0200000C0000006662782F636F72652E786D6C8D525D6F832014FD2B86
310
7714A9B5B3419AB671BF604F7BA34A1DA9824130FDF9033FE27C58B7982039F7DE73EE39819C9E6D130C5CF742C91CC421020197A5AA84AC7360CD1DBE81E0448956CAFC680381642DCF81870125B556B69BA15249C3A547A5AAF80CB2BEE7060465E32E39E8CB2FDEB29059E33AFA47D8B1F2C16A1EC6E1D44789B5A29A47
310
45E5D8C45D700D687A8D8B4BF29E417428104C708A61965E52782DF6D9E59A9DCF054224F2C39418D12EEAA5E6CCF00A508CF00EC618A2F8233E1CF7F898A49F24F29D94F4463BCFB3A87707E8FDF624D1846FF86C57FDCD6785343B3CF34D133DA0B15B6F2C5012F97CDC6F0C6F9BA11376F919766B160B0F070DBC344A27
310
AE5229BB9606D658EEA851307E249AAA8E7924F88D07BFE079CDE18262B276AB31E3AE376BBCFA76A78E6B38986720956E59B32E37ADB89EABD0C6D2325EAA46E9FF4C2F56973023FF30E937504B0304140006080800978E8157D908AE7306010000B201000008000000636F72652E786D6C8D50DD6E8320147E1572EE51A0
310
D6CE0669AA714FB0ABDD31A19654C10836DBDB0F5A976C77BB3AE43BDF1F879F3EA711DDF5E28DB335D08C00D2B677CAD8A186355CF00BA093E08B73E1170D909593AE21C120F8B0B875DEA0DED9A06D42AD537A03A5F73A00EAC7F8A8C1F7573DC94CAE2132FC2D9B657F9383CE68F6E4091ECCF423ED172D83562018613B
310
4C1926F48D1E8E7B762CCA779E27A6E0EB6AD41665544C3717A31710654BBBA678AD3039740417AC64B82A9B12B7DDBE6ADAEA7CEE08E179120BEEC312FFBC99C49E0179794FB93C7FAE04FF706EDC08B19442CE8E5F20A2435AFC29BDCEEA1FA58D0D3BB6193E151E048D851E8B189C2E18C7E3BC71A66B8B6F504B010214
310
00140006080800978E81570000000000000000000000003700000000000000000000000000000000006662782F30323539313246332D464641322D343042302D384145462D3439363631414143423146432F617474726962757465732E62696E504B01021400140006080800978E8157000000000000000000000000350000
310
0000000000000000000000550000006662782F30323539313246332D464641322D343042302D384145462D3439363631414143423146432F76657274696365732E62696E504B01021400140006080800978E8157F270F13306000000040000003600000000000000000000000000A80000006662782F30323539313246332D
310
464641322D343042302D384145462D3439363631414143423146432F747269616E676C65732E62696E504B01021400140006080800978E815751464CB489000000430100003600000000000000000000000000020100006662782F30323539313246332D464641322D343042302D384145462D343936363141414342314643
310
2F6469726563746F72792E786D6C504B01021400140006080800978E81573819738941070000201C00003400000000000000000000000000DF0100006662782F30323539313246332D464641322D343042302D384145462D3439363631414143423146432F6F626A656374732E786D6C504B01021400140006080800978E81
310
579E83BCE93F010000460500003000000000000000000000000000720900006662782F30323539313246332D464641322D343042302D384145462D3439363631414143423146432F636E782E786D6C504B01021400140006080800978E8157D1F257A77E000000A30000000B00000000000000000000000000FF0A00006662
310
782F636E782E786D6C504B01021400140006080800978E8157A6D797065F000000820000000700000000000000000000000000A60B0000636E782E786D6C504B01021400140006080800978E81574FEB6A7CA0000000F400000013000000000000000000000000002A0C00005B436F6E74656E745F54797065735D2E786D6C
310
504B01021400140006080800978E81573DEE336E64000000790000001B00000000000000000000000000FB0C00006175746F6465736B2D64657369676E2D7061636B6167652E786D6C504B01021400140006080800978E815778D89F90F9000000960100003B00000000000000000000000000980D00006662782F30323539
310
313246332D464641322D343042302D384145462D3439363631414143423146432F7265736F75726365732F636F72652E786D6C504B01021400140006080800978E81578EA6BB25F2000000B10100003100000000000000000000000000EA0E00006662782F30323539313246332D464641322D343042302D384145462D3439
310
363631414143423146432F636F72652E786D6C504B01021400140006080800978E8157BB777C9D54010000DD0200000C000000000000000000000000002B1000006662782F636F72652E786D6C504B01021400140006080800978E8157D908AE7306010000B20100000800000000000000000000000000A9110000636F7265
310
2E786D6C504B0506000000000E000E0080040000D51200000000
  0
XRECORD
  5
83D6
102
{ACAD_REACTORS
330
83D1
102
}
330
83D1
100
AcDbXrecord
280
     1
270
     1
271
     1
  0
XRECORD
  5
83D5
102
{ACAD_REACTORS
330
83D1
102
}
330
83D1
100
AcDbXrecord
280
     1
270
     1
271
     1
  0
XRECORD
  5
83D7
102
{ACAD_REACTORS
330
83D1
102
}
330
83D1
100
AcDbXrecord
280
     1
270
     1
271
     1
  0
XRECORD
  5
83D4
102
{ACAD_REACTORS
330
83D1
102
}
330
83D1
100
AcDbXrecord
280
     1
270
     1
271
     1
  0
XRECORD
  5
87D1
102
{ACAD_REACTORS
330
87D0
102
}
330
87D0
100
AcDbXrecord
280
     1
102
DISPLAYNAME
  1
Imperial24
102
FLAGS
 90
        0
  0
CELLSTYLEMAP
  5
8798
102
{ACAD_REACTORS
330
8797
102
}
330
8797
100
AcDbCellStyleMap
 90
        3
300
CELLSTYLE
  1
TABLEFORMAT_BEGIN
 90
        5
170
     1
 91
        0
 92
    32768
 62
   257
 93
        1
300
CONTENTFORMAT
  1
CONTENTFORMAT_BEGIN
 90
        0
 91
        0
 92
      512
 93
        0
300

 40
0.0
140
1.0
 94
        5
 62
     0
340
8404
144
0.25
309
CONTENTFORMAT_END
171
     0
 94
        0
309
TABLEFORMAT_END
  1
CELLSTYLE_BEGIN
 90
        1
 91
        1
300
_TITLE
309
CELLSTYLE_END
300
CELLSTYLE
  1
TABLEFORMAT_BEGIN
 90
        5
170
     1
 91
        0
 92
        0
 62
   257
 93
        1
300
CONTENTFORMAT
  1
CONTENTFORMAT_BEGIN
 90
        0
 91
        0
 92
      512
 93
        0
300

 40
0.0
140
1.0
 94
        5
 62
     0
340
8404
144
0.18
309
CONTENTFORMAT_END
171
     0
 94
        0
309
TABLEFORMAT_END
  1
CELLSTYLE_BEGIN
 90
        2
 91
        1
300
_HEADER
309
CELLSTYLE_END
300
CELLSTYLE
  1
TABLEFORMAT_BEGIN
 90
        5
170
     1
 91
        0
 92
        0
 62
   257
 93
        1
300
CONTENTFORMAT
  1
CONTENTFORMAT_BEGIN
 90
        0
 91
        0
 92
      512
 93
        0
300

 40
0.0
140
1.0
 94
        2
 62
     0
340
8404
144
0.18
309
CONTENTFORMAT_END
171
     0
 94
        0
309
TABLEFORMAT_END
  1
CELLSTYLE_BEGIN
 90
        3
 91
        2
300
_DATA
309
CELLSTYLE_END
  0
XRECORD
  5
87CE
102
{ACAD_REACTORS
330
8797
102
}
330
8797
100
AcDbXrecord
280
     1
102
ACAD_ROUNDTRIP_PRE2007_TABLESTYLE
 90
      512
 91
        0
  1

 92
      512
 93
        0
  2

 94
      512
 95
        0
  3

  0
XRECORD
  5
87A9
102
{ACAD_REACTORS
330
87A8
102
}
330
87A8
100
AcDbXrecord
280
     1
102
RTVSPost2010Prop28
280
     1
102
RTVSPost2010PropOp28
 70
     1
102
RTVSPost2010Prop29
280
     1
102
RTVSPost2010PropOp29
 70
     1
102
RTVSPost2010Prop30
280
     0
102
RTVSPost2010PropOp30
 70
     1
102
RTVSPost2010Prop31
280
     0
102
RTVSPost2010PropOp31
 70
     1
102
RTVSPost2010Prop32
280
     0
102
RTVSPost2010PropOp32
 70
     1
102
RTVSPost2010Prop33
280
     0
102
RTVSPost2010PropOp33
 70
     1
102
RTVSPost2010Prop34
280
     0
102
RTVSPost2010PropOp34
 70
     1
102
RTVSPost2010Prop35
280
     0
102
RTVSPost2010PropOp35
 70
     1
102
RTVSPost2010Prop36
280
     0
102
RTVSPost2010PropOp36
 70
     1
102
RTVSPost2010Prop37
 90
       50
102
RTVSPost2010PropOp37
 70
     1
102
RTVSPost2010Prop38
140
0.0
102
RTVSPost2010PropOp38
 70
     1
102
RTVSPost2010Prop39
140
1.0
102
RTVSPost2010PropOp39
 70
     1
102
RTVSPost2010Prop40
 90
        0
102
RTVSPost2010PropOp40
 70
     1
102
RTVSPost2010Prop41ColorIndex
 90
       18
102
RTVSPost2010Prop41ColorRGB
 90
        0
102
RTVSPost2010PropOp41
 70
     1
102
RTVSPost2010Prop42
 90
       50
102
RTVSPost2010PropOp42
 70
     1
102
RTVSPost2010Prop43
 90
        3
102
RTVSPost2010PropOp43
 70
     1
102
RTVSPost2010Prop44ColorIndex
 90
        5
102
RTVSPost2010Prop44ColorRGB
 90
      255
102
RTVSPost2010PropOp44
 70
     1
102
RTVSPost2010Prop45
280
     0
102
RTVSPost2010PropOp45
 70
     1
102
RTVSPost2010Prop46
 90
       50
102
RTVSPost2010PropOp46
 70
     1
102
RTVSPost2010Prop47
 90
       50
102
RTVSPost2010PropOp47
 70
     1
102
RTVSPost2010Prop48
 90
       50
102
RTVSPost2010PropOp48
 70
     1
102
RTVSPost2010Prop49
280
     0
102
RTVSPost2010PropOp49
 70
     1
102
RTVSPost2010Prop50
 90
       50
102
RTVSPost2010PropOp50
 70
     1
102
RTVSPost2010Prop51ColorIndex
 90
      256
102
RTVSPost2010Prop51ColorRGB
 90
-16777216
102
RTVSPost2010PropOp51
 70
     0
102
RTVSPost2010Prop52
140
1.0
102
RTVSPost2010PropOp52
 70
     0
102
RTVSPost2010Prop53
 90
        2
102
RTVSPost2010PropOp53
 70
     1
102
RTVSPost2010Prop54
  1
strokes_ogs.tif
102
RTVSPost2010PropOp54
 70
     1
102
RTVSPost2010Prop55
280
     0
102
RTVSPost2010PropOp55
 70
     1
102
RTVSPost2010Prop56
140
1.0
102
RTVSPost2010PropOp56
 70
     1
102
RTVSPost2010Prop57
140
1.0
102
RTVSPost2010PropOp57
 70
     1
102
RTVSPropertyOp0
 70
     1
102
RTVSPropertyOp1
 70
     1
102
RTVSPropertyOp2
 70
     1
102
RTVSPropertyOp3
 70
     1
102
RTVSPropertyOp4
 70
     1
102
RTVSPropertyOp5
 70
     1
102
RTVSPropertyOp6
 70
     1
102
RTVSPropertyOp7
 70
     1
102
RTVSPropertyOp8
 70
     1
102
RTVSPropertyOp9
 70
     1
102
RTVSPropertyOp10
 70
     1
102
RTVSPropertyOp11
 70
     1
102
RTVSPropertyOp12
 70
     1
102
RTVSPropertyOp13
 70
     1
102
RTVSPropertyOp14
 70
     1
102
RTVSPropertyOp15
 70
     1
102
RTVSPropertyOp16
 70
     1
102
RTVSPropertyOp17
 70
     1
102
RTVSPropertyOp18
 70
     1
102
RTVSPropertyOp19
 70
     1
102
RTVSPropertyOp20
 70
     1
102
RTVSPropertyOp21
 70
     1
102
RTVSPropertyOp22
 70
     1
102
RTVSPropertyOp23
 70
     1
102
RTVSPropertyOp24
 70
     1
102
RTVSPropertyOp25
 70
     1
102
RTVSPropertyOp26
 70
     1
102
RTVSPropertyOp27
 70
     1
102
RTVSPropertyOp28
 70
     1
102
RTVSPropertyOp29
 70
     1
102
RTVSPropertyOp30
 70
     1
102
RTVSPropertyOp31
 70
     1
102
RTVSPropertyOp32
 70
     1
102
RTVSPropertyOp33
 70
     1
102
RTVSPropertyOp34
 70
     1
102
RTVSPropertyOp35
 70
     1
102
RTVSPropertyOp36
 70
     1
102
RTVSPropertyOp37
 70
     1
102
RTVSPropertyOp38
 70
     1
102
RTVSPropertyOp39
 70
     1
102
RTVSPropertyOp40
 70
     1
102
RTVSPropertyOp41
 70
     1
102
RTVSPropertyOp42
 70
     1
102
RTVSPropertyOp43
 70
     1
102
RTVSPropertyOp44
 70
     1
102
RTVSPropertyOp45
 70
     1
102
RTVSPropertyOp46
 70
     1
102
RTVSPropertyOp47
 70
     1
102
RTVSPropertyOp48
 70
     1
102
RTVSPropertyOp49
 70
     1
102
RTVSPropertyOp50
 70
     1
102
RTVSPropertyOp51
 70
     0
102
RTVSPropertyOp52
 70
     0
102
RTVSPropertyOp53
 70
     1
102
RTVSPropertyOp54
 70
     1
102
RTVSPropertyOp55
 70
     1
102
RTVSPropertyOp56
 70
     1
102
RTVSPropertyOp57
 70
     1
102
RTVSPropertyOp58
 70
     1
102
RTVSPropertyOp59
 70
     1
102
RTVSPropertyOp60
 70
     1
102
RTVSPropertyOp61
 70
     1
102
RTVSPropertyOp62
 70
     1
  0
XRECORD
  5
87A7
102
{ACAD_REACTORS
330
87A6
102
}
330
87A6
100
AcDbXrecord
280
     1
102
RTVSPost2010Prop28
280
     0
102
RTVSPost2010PropOp28
 70
     1
102
RTVSPost2010Prop29
280
     1
102
RTVSPost2010PropOp29
 70
     1
102
RTVSPost2010Prop30
280
     1
102
RTVSPost2010PropOp30
 70
     1
102
RTVSPost2010Prop31
280
     0
102
RTVSPost2010PropOp31
 70
     1
102
RTVSPost2010Prop32
280
     0
102
RTVSPost2010PropOp32
 70
     1
102
RTVSPost2010Prop33
280
     0
102
RTVSPost2010PropOp33
 70
     1
102
RTVSPost2010Prop34
280
     0
102
RTVSPost2010PropOp34
 70
     1
102
RTVSPost2010Prop35
280
     0
102
RTVSPost2010PropOp35
 70
     1
102
RTVSPost2010Prop36
280
     0
102
RTVSPost2010PropOp36
 70
     1
102
RTVSPost2010Prop37
 90
       50
102
RTVSPost2010PropOp37
 70
     1
102
RTVSPost2010Prop38
140
0.0
102
RTVSPost2010PropOp38
 70
     1
102
RTVSPost2010Prop39
140
1.0
102
RTVSPost2010PropOp39
 70
     1
102
RTVSPost2010Prop40
 90
        0
102
RTVSPost2010PropOp40
 70
     1
102
RTVSPost2010Prop41ColorIndex
 90
       18
102
RTVSPost2010Prop41ColorRGB
 90
        0
102
RTVSPost2010PropOp41
 70
     1
102
RTVSPost2010Prop42
 90
       50
102
RTVSPost2010PropOp42
 70
     1
102
RTVSPost2010Prop43
 90
        3
102
RTVSPost2010PropOp43
 70
     1
102
RTVSPost2010Prop44ColorIndex
 90
        5
102
RTVSPost2010Prop44ColorRGB
 90
      255
102
RTVSPost2010PropOp44
 70
     1
102
RTVSPost2010Prop45
280
     0
102
RTVSPost2010PropOp45
 70
     1
102
RTVSPost2010Prop46
 90
       50
102
RTVSPost2010PropOp46
 70
     1
102
RTVSPost2010Prop47
 90
       50
102
RTVSPost2010PropOp47
 70
     1
102
RTVSPost2010Prop48
 90
       50
102
RTVSPost2010PropOp48
 70
     1
102
RTVSPost2010Prop49
280
     0
102
RTVSPost2010PropOp49
 70
     1
102
RTVSPost2010Prop50
 90
       50
102
RTVSPost2010PropOp50
 70
     1
102
RTVSPost2010Prop51ColorIndex
 90
      256
102
RTVSPost2010Prop51ColorRGB
 90
-16777216
102
RTVSPost2010PropOp51
 70
     0
102
RTVSPost2010Prop52
140
1.0
102
RTVSPost2010PropOp52
 70
     0
102
RTVSPost2010Prop53
 90
        2
102
RTVSPost2010PropOp53
 70
     1
102
RTVSPost2010Prop54
  1
strokes_ogs.tif
102
RTVSPost2010PropOp54
 70
     1
102
RTVSPost2010Prop55
280
     0
102
RTVSPost2010PropOp55
 70
     1
102
RTVSPost2010Prop56
140
1.0
102
RTVSPost2010PropOp56
 70
     1
102
RTVSPost2010Prop57
140
1.0
102
RTVSPost2010PropOp57
 70
     1
102
RTVSPropertyOp0
 70
     1
102
RTVSPropertyOp1
 70
     1
102
RTVSPropertyOp2
 70
     1
102
RTVSPropertyOp3
 70
     1
102
RTVSPropertyOp4
 70
     1
102
RTVSPropertyOp5
 70
     1
102
RTVSPropertyOp6
 70
     1
102
RTVSPropertyOp7
 70
     1
102
RTVSPropertyOp8
 70
     1
102
RTVSPropertyOp9
 70
     1
102
RTVSPropertyOp10
 70
     1
102
RTVSPropertyOp11
 70
     1
102
RTVSPropertyOp12
 70
     1
102
RTVSPropertyOp13
 70
     1
102
RTVSPropertyOp14
 70
     1
102
RTVSPropertyOp15
 70
     1
102
RTVSPropertyOp16
 70
     1
102
RTVSPropertyOp17
 70
     1
102
RTVSPropertyOp18
 70
     1
102
RTVSPropertyOp19
 70
     1
102
RTVSPropertyOp20
 70
     1
102
RTVSPropertyOp21
 70
     1
102
RTVSPropertyOp22
 70
     1
102
RTVSPropertyOp23
 70
     1
102
RTVSPropertyOp24
 70
     1
102
RTVSPropertyOp25
 70
     1
102
RTVSPropertyOp26
 70
     1
102
RTVSPropertyOp27
 70
     1
102
RTVSPropertyOp28
 70
     1
102
RTVSPropertyOp29
 70
     1
102
RTVSPropertyOp30
 70
     1
102
RTVSPropertyOp31
 70
     1
102
RTVSPropertyOp32
 70
     1
102
RTVSPropertyOp33
 70
     1
102
RTVSPropertyOp34
 70
     1
102
RTVSPropertyOp35
 70
     1
102
RTVSPropertyOp36
 70
     1
102
RTVSPropertyOp37
 70
     1
102
RTVSPropertyOp38
 70
     1
102
RTVSPropertyOp39
 70
     1
102
RTVSPropertyOp40
 70
     1
102
RTVSPropertyOp41
 70
     1
102
RTVSPropertyOp42
 70
     1
102
RTVSPropertyOp43
 70
     1
102
RTVSPropertyOp44
 70
     1
102
RTVSPropertyOp45
 70
     1
102
RTVSPropertyOp46
 70
     1
102
RTVSPropertyOp47
 70
     1
102
RTVSPropertyOp48
 70
     1
102
RTVSPropertyOp49
 70
     1
102
RTVSPropertyOp50
 70
     1
102
RTVSPropertyOp51
 70
     0
102
RTVSPropertyOp52
 70
     0
102
RTVSPropertyOp53
 70
     1
102
RTVSPropertyOp54
 70
     1
102
RTVSPropertyOp55
 70
     1
102
RTVSPropertyOp56
 70
     1
102
RTVSPropertyOp57
 70
     1
102
RTVSPropertyOp58
 70
     1
102
RTVSPropertyOp59
 70
     1
102
RTVSPropertyOp60
 70
     1
102
RTVSPropertyOp61
 70
     1
102
RTVSPropertyOp62
 70
     1
  0
XRECORD
  5
87B5
102
{ACAD_REACTORS
330
87B4
102
}
330
87B4
100
AcDbXrecord
280
     1
102
RTVSPost2010Prop28
280
     0
102
RTVSPost2010PropOp28
 70
     1
102
RTVSPost2010Prop29
280
     1
102
RTVSPost2010PropOp29
 70
     1
102
RTVSPost2010Prop30
280
     1
102
RTVSPost2010PropOp30
 70
     1
102
RTVSPost2010Prop31
280
     0
102
RTVSPost2010PropOp31
 70
     1
102
RTVSPost2010Prop32
280
     0
102
RTVSPost2010PropOp32
 70
     1
102
RTVSPost2010Prop33
280
     0
102
RTVSPost2010PropOp33
 70
     1
102
RTVSPost2010Prop34
280
     0
102
RTVSPost2010PropOp34
 70
     1
102
RTVSPost2010Prop35
280
     0
102
RTVSPost2010PropOp35
 70
     1
102
RTVSPost2010Prop36
280
     0
102
RTVSPost2010PropOp36
 70
     1
102
RTVSPost2010Prop37
 90
       50
102
RTVSPost2010PropOp37
 70
     1
102
RTVSPost2010Prop38
140
0.0
102
RTVSPost2010PropOp38
 70
     1
102
RTVSPost2010Prop39
140
1.0
102
RTVSPost2010PropOp39
 70
     1
102
RTVSPost2010Prop40
 90
        0
102
RTVSPost2010PropOp40
 70
     1
102
RTVSPost2010Prop41ColorIndex
 90
       18
102
RTVSPost2010Prop41ColorRGB
 90
        0
102
RTVSPost2010PropOp41
 70
     1
102
RTVSPost2010Prop42
 90
       50
102
RTVSPost2010PropOp42
 70
     1
102
RTVSPost2010Prop43
 90
        3
102
RTVSPost2010PropOp43
 70
     1
102
RTVSPost2010Prop44ColorIndex
 90
        5
102
RTVSPost2010Prop44ColorRGB
 90
      255
102
RTVSPost2010PropOp44
 70
     1
102
RTVSPost2010Prop45
280
     0
102
RTVSPost2010PropOp45
 70
     1
102
RTVSPost2010Prop46
 90
       50
102
RTVSPost2010PropOp46
 70
     1
102
RTVSPost2010Prop47
 90
       50
102
RTVSPost2010PropOp47
 70
     1
102
RTVSPost2010Prop48
 90
       50
102
RTVSPost2010PropOp48
 70
     1
102
RTVSPost2010Prop49
280
     0
102
RTVSPost2010PropOp49
 70
     1
102
RTVSPost2010Prop50
 90
       50
102
RTVSPost2010PropOp50
 70
     1
102
RTVSPost2010Prop51ColorIndex
 90
      256
102
RTVSPost2010Prop51ColorRGB
 90
-16777216
102
RTVSPost2010PropOp51
 70
     0
102
RTVSPost2010Prop52
140
1.0
102
RTVSPost2010PropOp52
 70
     0
102
RTVSPost2010Prop53
 90
        2
102
RTVSPost2010PropOp53
 70
     1
102
RTVSPost2010Prop54
  1
strokes_ogs.tif
102
RTVSPost2010PropOp54
 70
     1
102
RTVSPost2010Prop55
280
     0
102
RTVSPost2010PropOp55
 70
     1
102
RTVSPost2010Prop56
140
1.0
102
RTVSPost2010PropOp56
 70
     1
102
RTVSPost2010Prop57
140
1.0
102
RTVSPost2010PropOp57
 70
     1
102
RTVSPropertyOp0
 70
     1
102
RTVSPropertyOp1
 70
     1
102
RTVSPropertyOp2
 70
     1
102
RTVSPropertyOp3
 70
     1
102
RTVSPropertyOp4
 70
     1
102
RTVSPropertyOp5
 70
     1
102
RTVSPropertyOp6
 70
     1
102
RTVSPropertyOp7
 70
     1
102
RTVSPropertyOp8
 70
     1
102
RTVSPropertyOp9
 70
     1
102
RTVSPropertyOp10
 70
     1
102
RTVSPropertyOp11
 70
     1
102
RTVSPropertyOp12
 70
     1
102
RTVSPropertyOp13
 70
     1
102
RTVSPropertyOp14
 70
     1
102
RTVSPropertyOp15
 70
     1
102
RTVSPropertyOp16
 70
     1
102
RTVSPropertyOp17
 70
     1
102
RTVSPropertyOp18
 70
     1
102
RTVSPropertyOp19
 70
     1
102
RTVSPropertyOp20
 70
     1
102
RTVSPropertyOp21
 70
     1
102
RTVSPropertyOp22
 70
     1
102
RTVSPropertyOp23
 70
     1
102
RTVSPropertyOp24
 70
     1
102
RTVSPropertyOp25
 70
     1
102
RTVSPropertyOp26
 70
     1
102
RTVSPropertyOp27
 70
     1
102
RTVSPropertyOp28
 70
     1
102
RTVSPropertyOp29
 70
     1
102
RTVSPropertyOp30
 70
     1
102
RTVSPropertyOp31
 70
     1
102
RTVSPropertyOp32
 70
     1
102
RTVSPropertyOp33
 70
     1
102
RTVSPropertyOp34
 70
     1
102
RTVSPropertyOp35
 70
     1
102
RTVSPropertyOp36
 70
     1
102
RTVSPropertyOp37
 70
     1
102
RTVSPropertyOp38
 70
     1
102
RTVSPropertyOp39
 70
     1
102
RTVSPropertyOp40
 70
     1
102
RTVSPropertyOp41
 70
     1
102
RTVSPropertyOp42
 70
     1
102
RTVSPropertyOp43
 70
     1
102
RTVSPropertyOp44
 70
     1
102
RTVSPropertyOp45
 70
     1
102
RTVSPropertyOp46
 70
     1
102
RTVSPropertyOp47
 70
     1
102
RTVSPropertyOp48
 70
     1
102
RTVSPropertyOp49
 70
     1
102
RTVSPropertyOp50
 70
     1
102
RTVSPropertyOp51
 70
     0
102
RTVSPropertyOp52
 70
     0
102
RTVSPropertyOp53
 70
     1
102
RTVSPropertyOp54
 70
     1
102
RTVSPropertyOp55
 70
     1
102
RTVSPropertyOp56
 70
     1
102
RTVSPropertyOp57
 70
     1
102
RTVSPropertyOp58
 70
     1
102
RTVSPropertyOp59
 70
     1
102
RTVSPropertyOp60
 70
     1
102
RTVSPropertyOp61
 70
     1
102
RTVSPropertyOp62
 70
     1
  0
XRECORD
  5
87BD
102
{ACAD_REACTORS
330
87BC
102
}
330
87BC
100
AcDbXrecord
280
     1
102
RTVSPost2010Prop28
280
     0
102
RTVSPost2010PropOp28
 70
     1
102
RTVSPost2010Prop29
280
     1
102
RTVSPost2010PropOp29
 70
     1
102
RTVSPost2010Prop30
280
     1
102
RTVSPost2010PropOp30
 70
     1
102
RTVSPost2010Prop31
280
     0
102
RTVSPost2010PropOp31
 70
     1
102
RTVSPost2010Prop32
280
     0
102
RTVSPost2010PropOp32
 70
     1
102
RTVSPost2010Prop33
280
     0
102
RTVSPost2010PropOp33
 70
     1
102
RTVSPost2010Prop34
280
     0
102
RTVSPost2010PropOp34
 70
     1
102
RTVSPost2010Prop35
280
     0
102
RTVSPost2010PropOp35
 70
     1
102
RTVSPost2010Prop36
280
     0
102
RTVSPost2010PropOp36
 70
     1
102
RTVSPost2010Prop37
 90
       50
102
RTVSPost2010PropOp37
 70
     1
102
RTVSPost2010Prop38
140
0.0
102
RTVSPost2010PropOp38
 70
     1
102
RTVSPost2010Prop39
140
1.0
102
RTVSPost2010PropOp39
 70
     1
102
RTVSPost2010Prop40
 90
        0
102
RTVSPost2010PropOp40
 70
     1
102
RTVSPost2010Prop41ColorIndex
 90
       18
102
RTVSPost2010Prop41ColorRGB
 90
        0
102
RTVSPost2010PropOp41
 70
     1
102
RTVSPost2010Prop42
 90
       50
102
RTVSPost2010PropOp42
 70
     1
102
RTVSPost2010Prop43
 90
        3
102
RTVSPost2010PropOp43
 70
     1
102
RTVSPost2010Prop44ColorIndex
 90
        5
102
RTVSPost2010Prop44ColorRGB
 90
      255
102
RTVSPost2010PropOp44
 70
     1
102
RTVSPost2010Prop45
280
     0
102
RTVSPost2010PropOp45
 70
     1
102
RTVSPost2010Prop46
 90
       50
102
RTVSPost2010PropOp46
 70
     1
102
RTVSPost2010Prop47
 90
       50
102
RTVSPost2010PropOp47
 70
     1
102
RTVSPost2010Prop48
 90
       50
102
RTVSPost2010PropOp48
 70
     1
102
RTVSPost2010Prop49
280
     0
102
RTVSPost2010PropOp49
 70
     1
102
RTVSPost2010Prop50
 90
       50
102
RTVSPost2010PropOp50
 70
     1
102
RTVSPost2010Prop51ColorIndex
 90
      256
102
RTVSPost2010Prop51ColorRGB
 90
-16777216
102
RTVSPost2010PropOp51
 70
     0
102
RTVSPost2010Prop52
140
1.0
102
RTVSPost2010PropOp52
 70
     0
102
RTVSPost2010Prop53
 90
        2
102
RTVSPost2010PropOp53
 70
     1
102
RTVSPost2010Prop54
  1
strokes_ogs.tif
102
RTVSPost2010PropOp54
 70
     1
102
RTVSPost2010Prop55
280
     0
102
RTVSPost2010PropOp55
 70
     1
102
RTVSPost2010Prop56
140
1.0
102
RTVSPost2010PropOp56
 70
     1
102
RTVSPost2010Prop57
140
1.0
102
RTVSPost2010PropOp57
 70
     1
102
RTVSPropertyOp0
 70
     1
102
RTVSPropertyOp1
 70
     1
102
RTVSPropertyOp2
 70
     1
102
RTVSPropertyOp3
 70
     1
102
RTVSPropertyOp4
 70
     1
102
RTVSPropertyOp5
 70
     1
102
RTVSPropertyOp6
 70
     1
102
RTVSPropertyOp7
 70
     1
102
RTVSPropertyOp8
 70
     1
102
RTVSPropertyOp9
 70
     1
102
RTVSPropertyOp10
 70
     1
102
RTVSPropertyOp11
 70
     1
102
RTVSPropertyOp12
 70
     1
102
RTVSPropertyOp13
 70
     1
102
RTVSPropertyOp14
 70
     1
102
RTVSPropertyOp15
 70
     1
102
RTVSPropertyOp16
 70
     1
102
RTVSPropertyOp17
 70
     1
102
RTVSPropertyOp18
 70
     1
102
RTVSPropertyOp19
 70
     1
102
RTVSPropertyOp20
 70
     1
102
RTVSPropertyOp21
 70
     1
102
RTVSPropertyOp22
 70
     1
102
RTVSPropertyOp23
 70
     1
102
RTVSPropertyOp24
 70
     1
102
RTVSPropertyOp25
 70
     1
102
RTVSPropertyOp26
 70
     1
102
RTVSPropertyOp27
 70
     1
102
RTVSPropertyOp28
 70
     1
102
RTVSPropertyOp29
 70
     1
102
RTVSPropertyOp30
 70
     1
102
RTVSPropertyOp31
 70
     1
102
RTVSPropertyOp32
 70
     1
102
RTVSPropertyOp33
 70
     1
102
RTVSPropertyOp34
 70
     1
102
RTVSPropertyOp35
 70
     1
102
RTVSPropertyOp36
 70
     1
102
RTVSPropertyOp37
 70
     1
102
RTVSPropertyOp38
 70
     1
102
RTVSPropertyOp39
 70
     1
102
RTVSPropertyOp40
 70
     1
102
RTVSPropertyOp41
 70
     1
102
RTVSPropertyOp42
 70
     1
102
RTVSPropertyOp43
 70
     1
102
RTVSPropertyOp44
 70
     1
102
RTVSPropertyOp45
 70
     1
102
RTVSPropertyOp46
 70
     1
102
RTVSPropertyOp47
 70
     1
102
RTVSPropertyOp48
 70
     1
102
RTVSPropertyOp49
 70
     1
102
RTVSPropertyOp50
 70
     1
102
RTVSPropertyOp51
 70
     0
102
RTVSPropertyOp52
 70
     0
102
RTVSPropertyOp53
 70
     1
102
RTVSPropertyOp54
 70
     1
102
RTVSPropertyOp55
 70
     1
102
RTVSPropertyOp56
 70
     1
102
RTVSPropertyOp57
 70
     1
102
RTVSPropertyOp58
 70
     1
102
RTVSPropertyOp59
 70
     1
102
RTVSPropertyOp60
 70
     1
102
RTVSPropertyOp61
 70
     1
102
RTVSPropertyOp62
 70
     1
  0
XRECORD
  5
87AF
102
{ACAD_REACTORS
330
87AE
102
}
330
87AE
100
AcDbXrecord
280
     1
102
RTVSPost2010Prop28
280
     0
102
RTVSPost2010PropOp28
 70
     1
102
RTVSPost2010Prop29
280
     1
102
RTVSPost2010PropOp29
 70
     1
102
RTVSPost2010Prop30
280
     1
102
RTVSPost2010PropOp30
 70
     1
102
RTVSPost2010Prop31
280
     0
102
RTVSPost2010PropOp31
 70
     1
102
RTVSPost2010Prop32
280
     0
102
RTVSPost2010PropOp32
 70
     1
102
RTVSPost2010Prop33
280
     0
102
RTVSPost2010PropOp33
 70
     1
102
RTVSPost2010Prop34
280
     0
102
RTVSPost2010PropOp34
 70
     1
102
RTVSPost2010Prop35
280
     0
102
RTVSPost2010PropOp35
 70
     1
102
RTVSPost2010Prop36
280
     0
102
RTVSPost2010PropOp36
 70
     1
102
RTVSPost2010Prop37
 90
       50
102
RTVSPost2010PropOp37
 70
     1
102
RTVSPost2010Prop38
140
0.0
102
RTVSPost2010PropOp38
 70
     1
102
RTVSPost2010Prop39
140
1.0
102
RTVSPost2010PropOp39
 70
     1
102
RTVSPost2010Prop40
 90
        0
102
RTVSPost2010PropOp40
 70
     1
102
RTVSPost2010Prop41ColorIndex
 90
       18
102
RTVSPost2010Prop41ColorRGB
 90
        0
102
RTVSPost2010PropOp41
 70
     1
102
RTVSPost2010Prop42
 90
       50
102
RTVSPost2010PropOp42
 70
     1
102
RTVSPost2010Prop43
 90
        3
102
RTVSPost2010PropOp43
 70
     1
102
RTVSPost2010Prop44ColorIndex
 90
        5
102
RTVSPost2010Prop44ColorRGB
 90
      255
102
RTVSPost2010PropOp44
 70
     1
102
RTVSPost2010Prop45
280
     0
102
RTVSPost2010PropOp45
 70
     1
102
RTVSPost2010Prop46
 90
       50
102
RTVSPost2010PropOp46
 70
     1
102
RTVSPost2010Prop47
 90
       50
102
RTVSPost2010PropOp47
 70
     1
102
RTVSPost2010Prop48
 90
       50
102
RTVSPost2010PropOp48
 70
     1
102
RTVSPost2010Prop49
280
     0
102
RTVSPost2010PropOp49
 70
     1
102
RTVSPost2010Prop50
 90
       50
102
RTVSPost2010PropOp50
 70
     1
102
RTVSPost2010Prop51ColorIndex
 90
      256
102
RTVSPost2010Prop51ColorRGB
 90
-16777216
102
RTVSPost2010PropOp51
 70
     0
102
RTVSPost2010Prop52
140
1.0
102
RTVSPost2010PropOp52
 70
     0
102
RTVSPost2010Prop53
 90
        2
102
RTVSPost2010PropOp53
 70
     1
102
RTVSPost2010Prop54
  1
strokes_ogs.tif
102
RTVSPost2010PropOp54
 70
     1
102
RTVSPost2010Prop55
280
     0
102
RTVSPost2010PropOp55
 70
     1
102
RTVSPost2010Prop56
140
1.0
102
RTVSPost2010PropOp56
 70
     1
102
RTVSPost2010Prop57
140
1.0
102
RTVSPost2010PropOp57
 70
     1
102
RTVSPropertyOp0
 70
     1
102
RTVSPropertyOp1
 70
     1
102
RTVSPropertyOp2
 70
     1
102
RTVSPropertyOp3
 70
     1
102
RTVSPropertyOp4
 70
     1
102
RTVSPropertyOp5
 70
     1
102
RTVSPropertyOp6
 70
     1
102
RTVSPropertyOp7
 70
     1
102
RTVSPropertyOp8
 70
     1
102
RTVSPropertyOp9
 70
     1
102
RTVSPropertyOp10
 70
     1
102
RTVSPropertyOp11
 70
     1
102
RTVSPropertyOp12
 70
     1
102
RTVSPropertyOp13
 70
     1
102
RTVSPropertyOp14
 70
     1
102
RTVSPropertyOp15
 70
     1
102
RTVSPropertyOp16
 70
     1
102
RTVSPropertyOp17
 70
     1
102
RTVSPropertyOp18
 70
     1
102
RTVSPropertyOp19
 70
     1
102
RTVSPropertyOp20
 70
     1
102
RTVSPropertyOp21
 70
     1
102
RTVSPropertyOp22
 70
     1
102
RTVSPropertyOp23
 70
     1
102
RTVSPropertyOp24
 70
     1
102
RTVSPropertyOp25
 70
     1
102
RTVSPropertyOp26
 70
     1
102
RTVSPropertyOp27
 70
     1
102
RTVSPropertyOp28
 70
     1
102
RTVSPropertyOp29
 70
     1
102
RTVSPropertyOp30
 70
     1
102
RTVSPropertyOp31
 70
     1
102
RTVSPropertyOp32
 70
     1
102
RTVSPropertyOp33
 70
     1
102
RTVSPropertyOp34
 70
     1
102
RTVSPropertyOp35
 70
     1
102
RTVSPropertyOp36
 70
     1
102
RTVSPropertyOp37
 70
     1
102
RTVSPropertyOp38
 70
     1
102
RTVSPropertyOp39
 70
     1
102
RTVSPropertyOp40
 70
     1
102
RTVSPropertyOp41
 70
     1
102
RTVSPropertyOp42
 70
     1
102
RTVSPropertyOp43
 70
     1
102
RTVSPropertyOp44
 70
     1
102
RTVSPropertyOp45
 70
     1
102
RTVSPropertyOp46
 70
     1
102
RTVSPropertyOp47
 70
     1
102
RTVSPropertyOp48
 70
     1
102
RTVSPropertyOp49
 70
     1
102
RTVSPropertyOp50
 70
     1
102
RTVSPropertyOp51
 70
     0
102
RTVSPropertyOp52
 70
     0
102
RTVSPropertyOp53
 70
     1
102
RTVSPropertyOp54
 70
     1
102
RTVSPropertyOp55
 70
     1
102
RTVSPropertyOp56
 70
     1
102
RTVSPropertyOp57
 70
     1
102
RTVSPropertyOp58
 70
     1
102
RTVSPropertyOp59
 70
     1
102
RTVSPropertyOp60
 70
     1
102
RTVSPropertyOp61
 70
     1
102
RTVSPropertyOp62
 70
     1
  0
XRECORD
  5
87B3
102
{ACAD_REACTORS
330
87B2
102
}
330
87B2
100
AcDbXrecord
280
     1
102
RTVSPost2010Prop28
280
     0
102
RTVSPost2010PropOp28
 70
     1
102
RTVSPost2010Prop29
280
     1
102
RTVSPost2010PropOp29
 70
     1
102
RTVSPost2010Prop30
280
     1
102
RTVSPost2010PropOp30
 70
     1
102
RTVSPost2010Prop31
280
     0
102
RTVSPost2010PropOp31
 70
     1
102
RTVSPost2010Prop32
280
     0
102
RTVSPost2010PropOp32
 70
     1
102
RTVSPost2010Prop33
280
     0
102
RTVSPost2010PropOp33
 70
     1
102
RTVSPost2010Prop34
280
     0
102
RTVSPost2010PropOp34
 70
     1
102
RTVSPost2010Prop35
280
     0
102
RTVSPost2010PropOp35
 70
     1
102
RTVSPost2010Prop36
280
     0
102
RTVSPost2010PropOp36
 70
     1
102
RTVSPost2010Prop37
 90
       50
102
RTVSPost2010PropOp37
 70
     1
102
RTVSPost2010Prop38
140
0.0
102
RTVSPost2010PropOp38
 70
     1
102
RTVSPost2010Prop39
140
1.0
102
RTVSPost2010PropOp39
 70
     1
102
RTVSPost2010Prop40
 90
        0
102
RTVSPost2010PropOp40
 70
     1
102
RTVSPost2010Prop41ColorIndex
 90
       18
102
RTVSPost2010Prop41ColorRGB
 90
        0
102
RTVSPost2010PropOp41
 70
     1
102
RTVSPost2010Prop42
 90
       50
102
RTVSPost2010PropOp42
 70
     1
102
RTVSPost2010Prop43
 90
        3
102
RTVSPost2010PropOp43
 70
     1
102
RTVSPost2010Prop44ColorIndex
 90
        5
102
RTVSPost2010Prop44ColorRGB
 90
      255
102
RTVSPost2010PropOp44
 70
     1
102
RTVSPost2010Prop45
280
     0
102
RTVSPost2010PropOp45
 70
     1
102
RTVSPost2010Prop46
 90
       50
102
RTVSPost2010PropOp46
 70
     1
102
RTVSPost2010Prop47
 90
       50
102
RTVSPost2010PropOp47
 70
     1
102
RTVSPost2010Prop48
 90
       50
102
RTVSPost2010PropOp48
 70
     1
102
RTVSPost2010Prop49
280
     0
102
RTVSPost2010PropOp49
 70
     1
102
RTVSPost2010Prop50
 90
       50
102
RTVSPost2010PropOp50
 70
     1
102
RTVSPost2010Prop51ColorIndex
 90
      256
102
RTVSPost2010Prop51ColorRGB
 90
-16777216
102
RTVSPost2010PropOp51
 70
     0
102
RTVSPost2010Prop52
140
1.0
102
RTVSPost2010PropOp52
 70
     0
102
RTVSPost2010Prop53
 90
        2
102
RTVSPost2010PropOp53
 70
     1
102
RTVSPost2010Prop54
  1
strokes_ogs.tif
102
RTVSPost2010PropOp54
 70
     1
102
RTVSPost2010Prop55
280
     0
102
RTVSPost2010PropOp55
 70
     1
102
RTVSPost2010Prop56
140
1.0
102
RTVSPost2010PropOp56
 70
     1
102
RTVSPost2010Prop57
140
1.0
102
RTVSPost2010PropOp57
 70
     1
102
RTVSPropertyOp0
 70
     1
102
RTVSPropertyOp1
 70
     1
102
RTVSPropertyOp2
 70
     1
102
RTVSPropertyOp3
 70
     1
102
RTVSPropertyOp4
 70
     1
102
RTVSPropertyOp5
 70
     1
102
RTVSPropertyOp6
 70
     1
102
RTVSPropertyOp7
 70
     1
102
RTVSPropertyOp8
 70
     1
102
RTVSPropertyOp9
 70
     1
102
RTVSPropertyOp10
 70
     1
102
RTVSPropertyOp11
 70
     1
102
RTVSPropertyOp12
 70
     1
102
RTVSPropertyOp13
 70
     1
102
RTVSPropertyOp14
 70
     1
102
RTVSPropertyOp15
 70
     1
102
RTVSPropertyOp16
 70
     1
102
RTVSPropertyOp17
 70
     1
102
RTVSPropertyOp18
 70
     1
102
RTVSPropertyOp19
 70
     1
102
RTVSPropertyOp20
 70
     1
102
RTVSPropertyOp21
 70
     1
102
RTVSPropertyOp22
 70
     1
102
RTVSPropertyOp23
 70
     1
102
RTVSPropertyOp24
 70
     1
102
RTVSPropertyOp25
 70
     1
102
RTVSPropertyOp26
 70
     1
102
RTVSPropertyOp27
 70
     1
102
RTVSPropertyOp28
 70
     1
102
RTVSPropertyOp29
 70
     1
102
RTVSPropertyOp30
 70
     1
102
RTVSPropertyOp31
 70
     1
102
RTVSPropertyOp32
 70
     1
102
RTVSPropertyOp33
 70
     1
102
RTVSPropertyOp34
 70
     1
102
RTVSPropertyOp35
 70
     1
102
RTVSPropertyOp36
 70
     1
102
RTVSPropertyOp37
 70
     1
102
RTVSPropertyOp38
 70
     1
102
RTVSPropertyOp39
 70
     1
102
RTVSPropertyOp40
 70
     1
102
RTVSPropertyOp41
 70
     1
102
RTVSPropertyOp42
 70
     1
102
RTVSPropertyOp43
 70
     1
102
RTVSPropertyOp44
 70
     1
102
RTVSPropertyOp45
 70
     1
102
RTVSPropertyOp46
 70
     1
102
RTVSPropertyOp47
 70
     1
102
RTVSPropertyOp48
 70
     1
102
RTVSPropertyOp49
 70
     1
102
RTVSPropertyOp50
 70
     1
102
RTVSPropertyOp51
 70
     0
102
RTVSPropertyOp52
 70
     0
102
RTVSPropertyOp53
 70
     1
102
RTVSPropertyOp54
 70
     1
102
RTVSPropertyOp55
 70
     1
102
RTVSPropertyOp56
 70
     1
102
RTVSPropertyOp57
 70
     1
102
RTVSPropertyOp58
 70
     1
102
RTVSPropertyOp59
 70
     1
102
RTVSPropertyOp60
 70
     1
102
RTVSPropertyOp61
 70
     1
102
RTVSPropertyOp62
 70
     1
  0
XRECORD
  5
87CD
102
{ACAD_REACTORS
330
87CC
102
}
330
87CC
100
AcDbXrecord
280
     1
102
RTVSPost2010Prop28
280
     0
102
RTVSPost2010PropOp28
 70
     1
102
RTVSPost2010Prop29
280
     1
102
RTVSPost2010PropOp29
 70
     1
102
RTVSPost2010Prop30
280
     1
102
RTVSPost2010PropOp30
 70
     1
102
RTVSPost2010Prop31
280
     0
102
RTVSPost2010PropOp31
 70
     1
102
RTVSPost2010Prop32
280
     0
102
RTVSPost2010PropOp32
 70
     1
102
RTVSPost2010Prop33
280
     0
102
RTVSPost2010PropOp33
 70
     1
102
RTVSPost2010Prop34
280
     0
102
RTVSPost2010PropOp34
 70
     1
102
RTVSPost2010Prop35
280
     0
102
RTVSPost2010PropOp35
 70
     1
102
RTVSPost2010Prop36
280
     0
102
RTVSPost2010PropOp36
 70
     1
102
RTVSPost2010Prop37
 90
       50
102
RTVSPost2010PropOp37
 70
     0
102
RTVSPost2010Prop38
140
0.0
102
RTVSPost2010PropOp38
 70
     0
102
RTVSPost2010Prop39
140
1.0
102
RTVSPost2010PropOp39
 70
     0
102
RTVSPost2010Prop40
 90
        0
102
RTVSPost2010PropOp40
 70
     0
102
RTVSPost2010Prop41ColorIndex
 90
       18
102
RTVSPost2010Prop41ColorRGB
 90
        0
102
RTVSPost2010PropOp41
 70
     0
102
RTVSPost2010Prop42
 90
       50
102
RTVSPost2010PropOp42
 70
     0
102
RTVSPost2010Prop43
 90
        3
102
RTVSPost2010PropOp43
 70
     0
102
RTVSPost2010Prop44ColorIndex
 90
        5
102
RTVSPost2010Prop44ColorRGB
 90
      255
102
RTVSPost2010PropOp44
 70
     0
102
RTVSPost2010Prop45
280
     0
102
RTVSPost2010PropOp45
 70
     1
102
RTVSPost2010Prop46
 90
       50
102
RTVSPost2010PropOp46
 70
     0
102
RTVSPost2010Prop47
 90
       50
102
RTVSPost2010PropOp47
 70
     0
102
RTVSPost2010Prop48
 90
       50
102
RTVSPost2010PropOp48
 70
     0
102
RTVSPost2010Prop49
280
     0
102
RTVSPost2010PropOp49
 70
     1
102
RTVSPost2010Prop50
 90
       50
102
RTVSPost2010PropOp50
 70
     0
102
RTVSPost2010Prop51ColorIndex
 90
      256
102
RTVSPost2010Prop51ColorRGB
 90
-16777216
102
RTVSPost2010PropOp51
 70
     0
102
RTVSPost2010Prop52
140
1.0
102
RTVSPost2010PropOp52
 70
     0
102
RTVSPost2010Prop53
 90
        2
102
RTVSPost2010PropOp53
 70
     0
102
RTVSPost2010Prop54
  1
strokes_ogs.tif
102
RTVSPost2010PropOp54
 70
     0
102
RTVSPost2010Prop55
280
     0
102
RTVSPost2010PropOp55
 70
     1
102
RTVSPost2010Prop56
140
1.0
102
RTVSPost2010PropOp56
 70
     0
102
RTVSPost2010Prop57
140
1.0
102
RTVSPost2010PropOp57
 70
     0
102
RTVSPropertyOp0
 70
     0
102
RTVSPropertyOp1
 70
     0
102
RTVSPropertyOp2
 70
     0
102
RTVSPropertyOp3
 70
     0
102
RTVSPropertyOp4
 70
     0
102
RTVSPropertyOp5
 70
     0
102
RTVSPropertyOp6
 70
     0
102
RTVSPropertyOp7
 70
     0
102
RTVSPropertyOp8
 70
     0
102
RTVSPropertyOp9
 70
     0
102
RTVSPropertyOp10
 70
     0
102
RTVSPropertyOp11
 70
     0
102
RTVSPropertyOp12
 70
     0
102
RTVSPropertyOp13
 70
     0
102
RTVSPropertyOp14
 70
     2
102
RTVSPropertyOp15
 70
     0
102
RTVSPropertyOp16
 70
     0
102
RTVSPropertyOp17
 70
     0
102
RTVSPropertyOp18
 70
     0
102
RTVSPropertyOp19
 70
     0
102
RTVSPropertyOp20
 70
     0
102
RTVSPropertyOp21
 70
     0
102
RTVSPropertyOp22
 70
     0
102
RTVSPropertyOp23
 70
     0
102
RTVSPropertyOp24
 70
     0
102
RTVSPropertyOp25
 70
     0
102
RTVSPropertyOp26
 70
     0
102
RTVSPropertyOp27
 70
     0
102
RTVSPropertyOp28
 70
     1
102
RTVSPropertyOp29
 70
     1
102
RTVSPropertyOp30
 70
     1
102
RTVSPropertyOp31
 70
     1
102
RTVSPropertyOp32
 70
     1
102
RTVSPropertyOp33
 70
     1
102
RTVSPropertyOp34
 70
     1
102
RTVSPropertyOp35
 70
     1
102
RTVSPropertyOp36
 70
     1
102
RTVSPropertyOp37
 70
     0
102
RTVSPropertyOp38
 70
     0
102
RTVSPropertyOp39
 70
     0
102
RTVSPropertyOp40
 70
     0
102
RTVSPropertyOp41
 70
     0
102
RTVSPropertyOp42
 70
     0
102
RTVSPropertyOp43
 70
     0
102
RTVSPropertyOp44
 70
     0
102
RTVSPropertyOp45
 70
     1
102
RTVSPropertyOp46
 70
     0
102
RTVSPropertyOp47
 70
     0
102
RTVSPropertyOp48
 70
     0
102
RTVSPropertyOp49
 70
     1
102
RTVSPropertyOp50
 70
     0
102
RTVSPropertyOp51
 70
     0
102
RTVSPropertyOp52
 70
     0
102
RTVSPropertyOp53
 70
     0
102
RTVSPropertyOp54
 70
     0
102
RTVSPropertyOp55
 70
     1
102
RTVSPropertyOp56
 70
     0
102
RTVSPropertyOp57
 70
     0
102
RTVSPropertyOp58
 70
     0
102
RTVSPropertyOp59
 70
     0
102
RTVSPropertyOp60
 70
     0
102
RTVSPropertyOp61
 70
     0
102
RTVSPropertyOp62
 70
     0
  0
XRECORD
  5
87BB
102
{ACAD_REACTORS
330
87BA
102
}
330
87BA
100
AcDbXrecord
280
     1
102
RTVSPost2010Prop28
280
     0
102
RTVSPost2010PropOp28
 70
     1
102
RTVSPost2010Prop29
280
     1
102
RTVSPost2010PropOp29
 70
     1
102
RTVSPost2010Prop30
280
     1
102
RTVSPost2010PropOp30
 70
     1
102
RTVSPost2010Prop31
280
     0
102
RTVSPost2010PropOp31
 70
     1
102
RTVSPost2010Prop32
280
     0
102
RTVSPost2010PropOp32
 70
     1
102
RTVSPost2010Prop33
280
     0
102
RTVSPost2010PropOp33
 70
     1
102
RTVSPost2010Prop34
280
     0
102
RTVSPost2010PropOp34
 70
     1
102
RTVSPost2010Prop35
280
     0
102
RTVSPost2010PropOp35
 70
     1
102
RTVSPost2010Prop36
280
     0
102
RTVSPost2010PropOp36
 70
     1
102
RTVSPost2010Prop37
 90
       50
102
RTVSPost2010PropOp37
 70
     1
102
RTVSPost2010Prop38
140
0.0
102
RTVSPost2010PropOp38
 70
     1
102
RTVSPost2010Prop39
140
1.0
102
RTVSPost2010PropOp39
 70
     1
102
RTVSPost2010Prop40
 90
        0
102
RTVSPost2010PropOp40
 70
     1
102
RTVSPost2010Prop41ColorIndex
 90
       18
102
RTVSPost2010Prop41ColorRGB
 90
        0
102
RTVSPost2010PropOp41
 70
     1
102
RTVSPost2010Prop42
 90
       50
102
RTVSPost2010PropOp42
 70
     1
102
RTVSPost2010Prop43
 90
        3
102
RTVSPost2010PropOp43
 70
     1
102
RTVSPost2010Prop44ColorIndex
 90
        5
102
RTVSPost2010Prop44ColorRGB
 90
      255
102
RTVSPost2010PropOp44
 70
     1
102
RTVSPost2010Prop45
280
     0
102
RTVSPost2010PropOp45
 70
     1
102
RTVSPost2010Prop46
 90
       50
102
RTVSPost2010PropOp46
 70
     1
102
RTVSPost2010Prop47
 90
       50
102
RTVSPost2010PropOp47
 70
     1
102
RTVSPost2010Prop48
 90
       50
102
RTVSPost2010PropOp48
 70
     1
102
RTVSPost2010Prop49
280
     0
102
RTVSPost2010PropOp49
 70
     1
102
RTVSPost2010Prop50
 90
       50
102
RTVSPost2010PropOp50
 70
     1
102
RTVSPost2010Prop51ColorIndex
 90
      256
102
RTVSPost2010Prop51ColorRGB
 90
-16777216
102
RTVSPost2010PropOp51
 70
     0
102
RTVSPost2010Prop52
140
1.0
102
RTVSPost2010PropOp52
 70
     0
102
RTVSPost2010Prop53
 90
        2
102
RTVSPost2010PropOp53
 70
     1
102
RTVSPost2010Prop54
  1
strokes_ogs.tif
102
RTVSPost2010PropOp54
 70
     1
102
RTVSPost2010Prop55
280
     0
102
RTVSPost2010PropOp55
 70
     1
102
RTVSPost2010Prop56
140
1.0
102
RTVSPost2010PropOp56
 70
     1
102
RTVSPost2010Prop57
140
1.0
102
RTVSPost2010PropOp57
 70
     1
102
RTVSPropertyOp0
 70
     1
102
RTVSPropertyOp1
 70
     1
102
RTVSPropertyOp2
 70
     1
102
RTVSPropertyOp3
 70
     1
102
RTVSPropertyOp4
 70
     1
102
RTVSPropertyOp5
 70
     1
102
RTVSPropertyOp6
 70
     1
102
RTVSPropertyOp7
 70
     1
102
RTVSPropertyOp8
 70
     1
102
RTVSPropertyOp9
 70
     1
102
RTVSPropertyOp10
 70
     1
102
RTVSPropertyOp11
 70
     1
102
RTVSPropertyOp12
 70
     1
102
RTVSPropertyOp13
 70
     1
102
RTVSPropertyOp14
 70
     1
102
RTVSPropertyOp15
 70
     1
102
RTVSPropertyOp16
 70
     1
102
RTVSPropertyOp17
 70
     1
102
RTVSPropertyOp18
 70
     1
102
RTVSPropertyOp19
 70
     1
102
RTVSPropertyOp20
 70
     1
102
RTVSPropertyOp21
 70
     1
102
RTVSPropertyOp22
 70
     1
102
RTVSPropertyOp23
 70
     1
102
RTVSPropertyOp24
 70
     1
102
RTVSPropertyOp25
 70
     1
102
RTVSPropertyOp26
 70
     1
102
RTVSPropertyOp27
 70
     1
102
RTVSPropertyOp28
 70
     1
102
RTVSPropertyOp29
 70
     1
102
RTVSPropertyOp30
 70
     1
102
RTVSPropertyOp31
 70
     1
102
RTVSPropertyOp32
 70
     1
102
RTVSPropertyOp33
 70
     1
102
RTVSPropertyOp34
 70
     1
102
RTVSPropertyOp35
 70
     1
102
RTVSPropertyOp36
 70
     1
102
RTVSPropertyOp37
 70
     1
102
RTVSPropertyOp38
 70
     1
102
RTVSPropertyOp39
 70
     1
102
RTVSPropertyOp40
 70
     1
102
RTVSPropertyOp41
 70
     1
102
RTVSPropertyOp42
 70
     1
102
RTVSPropertyOp43
 70
     1
102
RTVSPropertyOp44
 70
     1
102
RTVSPropertyOp45
 70
     1
102
RTVSPropertyOp46
 70
     1
102
RTVSPropertyOp47
 70
     1
102
RTVSPropertyOp48
 70
     1
102
RTVSPropertyOp49
 70
     1
102
RTVSPropertyOp50
 70
     1
102
RTVSPropertyOp51
 70
     0
102
RTVSPropertyOp52
 70
     0
102
RTVSPropertyOp53
 70
     1
102
RTVSPropertyOp54
 70
     1
102
RTVSPropertyOp55
 70
     1
102
RTVSPropertyOp56
 70
     1
102
RTVSPropertyOp57
 70
     1
102
RTVSPropertyOp58
 70
     1
102
RTVSPropertyOp59
 70
     1
102
RTVSPropertyOp60
 70
     1
102
RTVSPropertyOp61
 70
     1
102
RTVSPropertyOp62
 70
     1
  0
XRECORD
  5
879F
102
{ACAD_REACTORS
330
879E
102
}
330
879E
100
AcDbXrecord
280
     1
102
RTVSPost2010Prop28
280
     0
102
RTVSPost2010PropOp28
 70
     1
102
RTVSPost2010Prop29
280
     1
102
RTVSPost2010PropOp29
 70
     1
102
RTVSPost2010Prop30
280
     1
102
RTVSPost2010PropOp30
 70
     1
102
RTVSPost2010Prop31
280
     0
102
RTVSPost2010PropOp31
 70
     1
102
RTVSPost2010Prop32
280
     0
102
RTVSPost2010PropOp32
 70
     1
102
RTVSPost2010Prop33
280
     0
102
RTVSPost2010PropOp33
 70
     1
102
RTVSPost2010Prop34
280
     0
102
RTVSPost2010PropOp34
 70
     1
102
RTVSPost2010Prop35
280
     0
102
RTVSPost2010PropOp35
 70
     1
102
RTVSPost2010Prop36
280
     0
102
RTVSPost2010PropOp36
 70
     1
102
RTVSPost2010Prop37
 90
       50
102
RTVSPost2010PropOp37
 70
     1
102
RTVSPost2010Prop38
140
0.0
102
RTVSPost2010PropOp38
 70
     1
102
RTVSPost2010Prop39
140
1.0
102
RTVSPost2010PropOp39
 70
     1
102
RTVSPost2010Prop40
 90
        0
102
RTVSPost2010PropOp40
 70
     1
102
RTVSPost2010Prop41ColorIndex
 90
       18
102
RTVSPost2010Prop41ColorRGB
 90
        0
102
RTVSPost2010PropOp41
 70
     1
102
RTVSPost2010Prop42
 90
       50
102
RTVSPost2010PropOp42
 70
     1
102
RTVSPost2010Prop43
 90
        3
102
RTVSPost2010PropOp43
 70
     1
102
RTVSPost2010Prop44ColorIndex
 90
        5
102
RTVSPost2010Prop44ColorRGB
 90
      255
102
RTVSPost2010PropOp44
 70
     1
102
RTVSPost2010Prop45
280
     0
102
RTVSPost2010PropOp45
 70
     1
102
RTVSPost2010Prop46
 90
       50
102
RTVSPost2010PropOp46
 70
     1
102
RTVSPost2010Prop47
 90
       50
102
RTVSPost2010PropOp47
 70
     1
102
RTVSPost2010Prop48
 90
       50
102
RTVSPost2010PropOp48
 70
     1
102
RTVSPost2010Prop49
280
     0
102
RTVSPost2010PropOp49
 70
     1
102
RTVSPost2010Prop50
 90
       50
102
RTVSPost2010PropOp50
 70
     1
102
RTVSPost2010Prop51ColorIndex
 90
      256
102
RTVSPost2010Prop51ColorRGB
 90
-16777216
102
RTVSPost2010PropOp51
 70
     0
102
RTVSPost2010Prop52
140
1.0
102
RTVSPost2010PropOp52
 70
     0
102
RTVSPost2010Prop53
 90
        2
102
RTVSPost2010PropOp53
 70
     1
102
RTVSPost2010Prop54
  1
strokes_ogs.tif
102
RTVSPost2010PropOp54
 70
     1
102
RTVSPost2010Prop55
280
     0
102
RTVSPost2010PropOp55
 70
     1
102
RTVSPost2010Prop56
140
1.0
102
RTVSPost2010PropOp56
 70
     1
102
RTVSPost2010Prop57
140
1.0
102
RTVSPost2010PropOp57
 70
     1
102
RTVSPropertyOp0
 70
     1
102
RTVSPropertyOp1
 70
     1
102
RTVSPropertyOp2
 70
     1
102
RTVSPropertyOp3
 70
     1
102
RTVSPropertyOp4
 70
     1
102
RTVSPropertyOp5
 70
     1
102
RTVSPropertyOp6
 70
     1
102
RTVSPropertyOp7
 70
     1
102
RTVSPropertyOp8
 70
     1
102
RTVSPropertyOp9
 70
     1
102
RTVSPropertyOp10
 70
     1
102
RTVSPropertyOp11
 70
     1
102
RTVSPropertyOp12
 70
     1
102
RTVSPropertyOp13
 70
     1
102
RTVSPropertyOp14
 70
     1
102
RTVSPropertyOp15
 70
     1
102
RTVSPropertyOp16
 70
     1
102
RTVSPropertyOp17
 70
     1
102
RTVSPropertyOp18
 70
     1
102
RTVSPropertyOp19
 70
     1
102
RTVSPropertyOp20
 70
     1
102
RTVSPropertyOp21
 70
     1
102
RTVSPropertyOp22
 70
     1
102
RTVSPropertyOp23
 70
     1
102
RTVSPropertyOp24
 70
     1
102
RTVSPropertyOp25
 70
     1
102
RTVSPropertyOp26
 70
     1
102
RTVSPropertyOp27
 70
     1
102
RTVSPropertyOp28
 70
     1
102
RTVSPropertyOp29
 70
     1
102
RTVSPropertyOp30
 70
     1
102
RTVSPropertyOp31
 70
     1
102
RTVSPropertyOp32
 70
     1
102
RTVSPropertyOp33
 70
     1
102
RTVSPropertyOp34
 70
     1
102
RTVSPropertyOp35
 70
     1
102
RTVSPropertyOp36
 70
     1
102
RTVSPropertyOp37
 70
     1
102
RTVSPropertyOp38
 70
     1
102
RTVSPropertyOp39
 70
     1
102
RTVSPropertyOp40
 70
     1
102
RTVSPropertyOp41
 70
     1
102
RTVSPropertyOp42
 70
     1
102
RTVSPropertyOp43
 70
     1
102
RTVSPropertyOp44
 70
     1
102
RTVSPropertyOp45
 70
     1
102
RTVSPropertyOp46
 70
     1
102
RTVSPropertyOp47
 70
     1
102
RTVSPropertyOp48
 70
     1
102
RTVSPropertyOp49
 70
     1
102
RTVSPropertyOp50
 70
     1
102
RTVSPropertyOp51
 70
     0
102
RTVSPropertyOp52
 70
     0
102
RTVSPropertyOp53
 70
     1
102
RTVSPropertyOp54
 70
     1
102
RTVSPropertyOp55
 70
     1
102
RTVSPropertyOp56
 70
     1
102
RTVSPropertyOp57
 70
     1
102
RTVSPropertyOp58
 70
     1
102
RTVSPropertyOp59
 70
     1
102
RTVSPropertyOp60
 70
     1
102
RTVSPropertyOp61
 70
     1
102
RTVSPropertyOp62
 70
     1
  0
XRECORD
  5
87A1
102
{ACAD_REACTORS
330
87A0
102
}
330
87A0
100
AcDbXrecord
280
     1
102
RTVSPost2010Prop28
280
     0
102
RTVSPost2010PropOp28
 70
     1
102
RTVSPost2010Prop29
280
     1
102
RTVSPost2010PropOp29
 70
     1
102
RTVSPost2010Prop30
280
     1
102
RTVSPost2010PropOp30
 70
     1
102
RTVSPost2010Prop31
280
     0
102
RTVSPost2010PropOp31
 70
     1
102
RTVSPost2010Prop32
280
     0
102
RTVSPost2010PropOp32
 70
     1
102
RTVSPost2010Prop33
280
     0
102
RTVSPost2010PropOp33
 70
     1
102
RTVSPost2010Prop34
280
     0
102
RTVSPost2010PropOp34
 70
     1
102
RTVSPost2010Prop35
280
     0
102
RTVSPost2010PropOp35
 70
     1
102
RTVSPost2010Prop36
280
     0
102
RTVSPost2010PropOp36
 70
     1
102
RTVSPost2010Prop37
 90
       50
102
RTVSPost2010PropOp37
 70
     1
102
RTVSPost2010Prop38
140
0.0
102
RTVSPost2010PropOp38
 70
     1
102
RTVSPost2010Prop39
140
1.0
102
RTVSPost2010PropOp39
 70
     1
102
RTVSPost2010Prop40
 90
        0
102
RTVSPost2010PropOp40
 70
     1
102
RTVSPost2010Prop41ColorIndex
 90
       18
102
RTVSPost2010Prop41ColorRGB
 90
        0
102
RTVSPost2010PropOp41
 70
     1
102
RTVSPost2010Prop42
 90
       50
102
RTVSPost2010PropOp42
 70
     1
102
RTVSPost2010Prop43
 90
        3
102
RTVSPost2010PropOp43
 70
     1
102
RTVSPost2010Prop44ColorIndex
 90
        5
102
RTVSPost2010Prop44ColorRGB
 90
      255
102
RTVSPost2010PropOp44
 70
     1
102
RTVSPost2010Prop45
280
     0
102
RTVSPost2010PropOp45
 70
     1
102
RTVSPost2010Prop46
 90
       50
102
RTVSPost2010PropOp46
 70
     1
102
RTVSPost2010Prop47
 90
       50
102
RTVSPost2010PropOp47
 70
     1
102
RTVSPost2010Prop48
 90
       50
102
RTVSPost2010PropOp48
 70
     1
102
RTVSPost2010Prop49
280
     0
102
RTVSPost2010PropOp49
 70
     1
102
RTVSPost2010Prop50
 90
       50
102
RTVSPost2010PropOp50
 70
     1
102
RTVSPost2010Prop51ColorIndex
 90
      256
102
RTVSPost2010Prop51ColorRGB
 90
-16777216
102
RTVSPost2010PropOp51
 70
     0
102
RTVSPost2010Prop52
140
1.0
102
RTVSPost2010PropOp52
 70
     0
102
RTVSPost2010Prop53
 90
        2
102
RTVSPost2010PropOp53
 70
     1
102
RTVSPost2010Prop54
  1
strokes_ogs.tif
102
RTVSPost2010PropOp54
 70
     1
102
RTVSPost2010Prop55
280
     0
102
RTVSPost2010PropOp55
 70
     1
102
RTVSPost2010Prop56
140
1.0
102
RTVSPost2010PropOp56
 70
     1
102
RTVSPost2010Prop57
140
1.0
102
RTVSPost2010PropOp57
 70
     1
102
RTVSPropertyOp0
 70
     1
102
RTVSPropertyOp1
 70
     1
102
RTVSPropertyOp2
 70
     1
102
RTVSPropertyOp3
 70
     1
102
RTVSPropertyOp4
 70
     1
102
RTVSPropertyOp5
 70
     1
102
RTVSPropertyOp6
 70
     1
102
RTVSPropertyOp7
 70
     1
102
RTVSPropertyOp8
 70
     1
102
RTVSPropertyOp9
 70
     1
102
RTVSPropertyOp10
 70
     1
102
RTVSPropertyOp11
 70
     1
102
RTVSPropertyOp12
 70
     1
102
RTVSPropertyOp13
 70
     1
102
RTVSPropertyOp14
 70
     1
102
RTVSPropertyOp15
 70
     1
102
RTVSPropertyOp16
 70
     1
102
RTVSPropertyOp17
 70
     1
102
RTVSPropertyOp18
 70
     1
102
RTVSPropertyOp19
 70
     1
102
RTVSPropertyOp20
 70
     1
102
RTVSPropertyOp21
 70
     1
102
RTVSPropertyOp22
 70
     1
102
RTVSPropertyOp23
 70
     1
102
RTVSPropertyOp24
 70
     1
102
RTVSPropertyOp25
 70
     1
102
RTVSPropertyOp26
 70
     1
102
RTVSPropertyOp27
 70
     1
102
RTVSPropertyOp28
 70
     1
102
RTVSPropertyOp29
 70
     1
102
RTVSPropertyOp30
 70
     1
102
RTVSPropertyOp31
 70
     1
102
RTVSPropertyOp32
 70
     1
102
RTVSPropertyOp33
 70
     1
102
RTVSPropertyOp34
 70
     1
102
RTVSPropertyOp35
 70
     1
102
RTVSPropertyOp36
 70
     1
102
RTVSPropertyOp37
 70
     1
102
RTVSPropertyOp38
 70
     1
102
RTVSPropertyOp39
 70
     1
102
RTVSPropertyOp40
 70
     1
102
RTVSPropertyOp41
 70
     1
102
RTVSPropertyOp42
 70
     1
102
RTVSPropertyOp43
 70
     1
102
RTVSPropertyOp44
 70
     1
102
RTVSPropertyOp45
 70
     1
102
RTVSPropertyOp46
 70
     1
102
RTVSPropertyOp47
 70
     1
102
RTVSPropertyOp48
 70
     1
102
RTVSPropertyOp49
 70
     1
102
RTVSPropertyOp50
 70
     1
102
RTVSPropertyOp51
 70
     0
102
RTVSPropertyOp52
 70
     0
102
RTVSPropertyOp53
 70
     1
102
RTVSPropertyOp54
 70
     1
102
RTVSPropertyOp55
 70
     1
102
RTVSPropertyOp56
 70
     1
102
RTVSPropertyOp57
 70
     1
102
RTVSPropertyOp58
 70
     1
102
RTVSPropertyOp59
 70
     1
102
RTVSPropertyOp60
 70
     1
102
RTVSPropertyOp61
 70
     1
102
RTVSPropertyOp62
 70
     1
  0
XRECORD
  5
87A3
102
{ACAD_REACTORS
330
87A2
102
}
330
87A2
100
AcDbXrecord
280
     1
102
RTVSPost2010Prop28
280
     0
102
RTVSPost2010PropOp28
 70
     1
102
RTVSPost2010Prop29
280
     1
102
RTVSPost2010PropOp29
 70
     1
102
RTVSPost2010Prop30
280
     1
102
RTVSPost2010PropOp30
 70
     1
102
RTVSPost2010Prop31
280
     0
102
RTVSPost2010PropOp31
 70
     1
102
RTVSPost2010Prop32
280
     0
102
RTVSPost2010PropOp32
 70
     1
102
RTVSPost2010Prop33
280
     0
102
RTVSPost2010PropOp33
 70
     1
102
RTVSPost2010Prop34
280
     0
102
RTVSPost2010PropOp34
 70
     1
102
RTVSPost2010Prop35
280
     0
102
RTVSPost2010PropOp35
 70
     1
102
RTVSPost2010Prop36
280
     0
102
RTVSPost2010PropOp36
 70
     1
102
RTVSPost2010Prop37
 90
       50
102
RTVSPost2010PropOp37
 70
     1
102
RTVSPost2010Prop38
140
0.0
102
RTVSPost2010PropOp38
 70
     1
102
RTVSPost2010Prop39
140
1.0
102
RTVSPost2010PropOp39
 70
     1
102
RTVSPost2010Prop40
 90
        0
102
RTVSPost2010PropOp40
 70
     1
102
RTVSPost2010Prop41ColorIndex
 90
       18
102
RTVSPost2010Prop41ColorRGB
 90
        0
102
RTVSPost2010PropOp41
 70
     1
102
RTVSPost2010Prop42
 90
       50
102
RTVSPost2010PropOp42
 70
     1
102
RTVSPost2010Prop43
 90
        3
102
RTVSPost2010PropOp43
 70
     1
102
RTVSPost2010Prop44ColorIndex
 90
        5
102
RTVSPost2010Prop44ColorRGB
 90
      255
102
RTVSPost2010PropOp44
 70
     1
102
RTVSPost2010Prop45
280
     0
102
RTVSPost2010PropOp45
 70
     1
102
RTVSPost2010Prop46
 90
       50
102
RTVSPost2010PropOp46
 70
     1
102
RTVSPost2010Prop47
 90
       50
102
RTVSPost2010PropOp47
 70
     1
102
RTVSPost2010Prop48
 90
       50
102
RTVSPost2010PropOp48
 70
     1
102
RTVSPost2010Prop49
280
     0
102
RTVSPost2010PropOp49
 70
     1
102
RTVSPost2010Prop50
 90
       50
102
RTVSPost2010PropOp50
 70
     1
102
RTVSPost2010Prop51ColorIndex
 90
      256
102
RTVSPost2010Prop51ColorRGB
 90
-16777216
102
RTVSPost2010PropOp51
 70
     0
102
RTVSPost2010Prop52
140
1.0
102
RTVSPost2010PropOp52
 70
     0
102
RTVSPost2010Prop53
 90
        2
102
RTVSPost2010PropOp53
 70
     1
102
RTVSPost2010Prop54
  1
strokes_ogs.tif
102
RTVSPost2010PropOp54
 70
     1
102
RTVSPost2010Prop55
280
     0
102
RTVSPost2010PropOp55
 70
     1
102
RTVSPost2010Prop56
140
1.0
102
RTVSPost2010PropOp56
 70
     1
102
RTVSPost2010Prop57
140
1.0
102
RTVSPost2010PropOp57
 70
     1
102
RTVSPropertyOp0
 70
     1
102
RTVSPropertyOp1
 70
     1
102
RTVSPropertyOp2
 70
     1
102
RTVSPropertyOp3
 70
     1
102
RTVSPropertyOp4
 70
     1
102
RTVSPropertyOp5
 70
     1
102
RTVSPropertyOp6
 70
     1
102
RTVSPropertyOp7
 70
     1
102
RTVSPropertyOp8
 70
     1
102
RTVSPropertyOp9
 70
     1
102
RTVSPropertyOp10
 70
     1
102
RTVSPropertyOp11
 70
     1
102
RTVSPropertyOp12
 70
     1
102
RTVSPropertyOp13
 70
     1
102
RTVSPropertyOp14
 70
     1
102
RTVSPropertyOp15
 70
     1
102
RTVSPropertyOp16
 70
     1
102
RTVSPropertyOp17
 70
     1
102
RTVSPropertyOp18
 70
     1
102
RTVSPropertyOp19
 70
     1
102
RTVSPropertyOp20
 70
     1
102
RTVSPropertyOp21
 70
     1
102
RTVSPropertyOp22
 70
     1
102
RTVSPropertyOp23
 70
     1
102
RTVSPropertyOp24
 70
     1
102
RTVSPropertyOp25
 70
     1
102
RTVSPropertyOp26
 70
     1
102
RTVSPropertyOp27
 70
     1
102
RTVSPropertyOp28
 70
     1
102
RTVSPropertyOp29
 70
     1
102
RTVSPropertyOp30
 70
     1
102
RTVSPropertyOp31
 70
     1
102
RTVSPropertyOp32
 70
     1
102
RTVSPropertyOp33
 70
     1
102
RTVSPropertyOp34
 70
     1
102
RTVSPropertyOp35
 70
     1
102
RTVSPropertyOp36
 70
     1
102
RTVSPropertyOp37
 70
     1
102
RTVSPropertyOp38
 70
     1
102
RTVSPropertyOp39
 70
     1
102
RTVSPropertyOp40
 70
     1
102
RTVSPropertyOp41
 70
     1
102
RTVSPropertyOp42
 70
     1
102
RTVSPropertyOp43
 70
     1
102
RTVSPropertyOp44
 70
     1
102
RTVSPropertyOp45
 70
     1
102
RTVSPropertyOp46
 70
     1
102
RTVSPropertyOp47
 70
     1
102
RTVSPropertyOp48
 70
     1
102
RTVSPropertyOp49
 70
     1
102
RTVSPropertyOp50
 70
     1
102
RTVSPropertyOp51
 70
     0
102
RTVSPropertyOp52
 70
     0
102
RTVSPropertyOp53
 70
     1
102
RTVSPropertyOp54
 70
     1
102
RTVSPropertyOp55
 70
     1
102
RTVSPropertyOp56
 70
     1
102
RTVSPropertyOp57
 70
     1
102
RTVSPropertyOp58
 70
     1
102
RTVSPropertyOp59
 70
     1
102
RTVSPropertyOp60
 70
     1
102
RTVSPropertyOp61
 70
     1
102
RTVSPropertyOp62
 70
     1
  0
XRECORD
  5
87A5
102
{ACAD_REACTORS
330
87A4
102
}
330
87A4
100
AcDbXrecord
280
     1
102
RTVSPost2010Prop28
280
     0
102
RTVSPost2010PropOp28
 70
     1
102
RTVSPost2010Prop29
280
     1
102
RTVSPost2010PropOp29
 70
     1
102
RTVSPost2010Prop30
280
     1
102
RTVSPost2010PropOp30
 70
     1
102
RTVSPost2010Prop31
280
     0
102
RTVSPost2010PropOp31
 70
     1
102
RTVSPost2010Prop32
280
     0
102
RTVSPost2010PropOp32
 70
     1
102
RTVSPost2010Prop33
280
     0
102
RTVSPost2010PropOp33
 70
     1
102
RTVSPost2010Prop34
280
     0
102
RTVSPost2010PropOp34
 70
     1
102
RTVSPost2010Prop35
280
     0
102
RTVSPost2010PropOp35
 70
     1
102
RTVSPost2010Prop36
280
     0
102
RTVSPost2010PropOp36
 70
     1
102
RTVSPost2010Prop37
 90
       50
102
RTVSPost2010PropOp37
 70
     1
102
RTVSPost2010Prop38
140
0.0
102
RTVSPost2010PropOp38
 70
     1
102
RTVSPost2010Prop39
140
1.0
102
RTVSPost2010PropOp39
 70
     1
102
RTVSPost2010Prop40
 90
        0
102
RTVSPost2010PropOp40
 70
     1
102
RTVSPost2010Prop41ColorIndex
 90
       18
102
RTVSPost2010Prop41ColorRGB
 90
        0
102
RTVSPost2010PropOp41
 70
     1
102
RTVSPost2010Prop42
 90
       50
102
RTVSPost2010PropOp42
 70
     1
102
RTVSPost2010Prop43
 90
        3
102
RTVSPost2010PropOp43
 70
     1
102
RTVSPost2010Prop44ColorIndex
 90
        5
102
RTVSPost2010Prop44ColorRGB
 90
      255
102
RTVSPost2010PropOp44
 70
     1
102
RTVSPost2010Prop45
280
     0
102
RTVSPost2010PropOp45
 70
     1
102
RTVSPost2010Prop46
 90
       50
102
RTVSPost2010PropOp46
 70
     1
102
RTVSPost2010Prop47
 90
       50
102
RTVSPost2010PropOp47
 70
     1
102
RTVSPost2010Prop48
 90
       50
102
RTVSPost2010PropOp48
 70
     1
102
RTVSPost2010Prop49
280
     0
102
RTVSPost2010PropOp49
 70
     1
102
RTVSPost2010Prop50
 90
       50
102
RTVSPost2010PropOp50
 70
     1
102
RTVSPost2010Prop51ColorIndex
 90
      256
102
RTVSPost2010Prop51ColorRGB
 90
-16777216
102
RTVSPost2010PropOp51
 70
     0
102
RTVSPost2010Prop52
140
1.0
102
RTVSPost2010PropOp52
 70
     0
102
RTVSPost2010Prop53
 90
        2
102
RTVSPost2010PropOp53
 70
     1
102
RTVSPost2010Prop54
  1
strokes_ogs.tif
102
RTVSPost2010PropOp54
 70
     1
102
RTVSPost2010Prop55
280
     0
102
RTVSPost2010PropOp55
 70
     1
102
RTVSPost2010Prop56
140
1.0
102
RTVSPost2010PropOp56
 70
     1
102
RTVSPost2010Prop57
140
1.0
102
RTVSPost2010PropOp57
 70
     1
102
RTVSPropertyOp0
 70
     1
102
RTVSPropertyOp1
 70
     1
102
RTVSPropertyOp2
 70
     1
102
RTVSPropertyOp3
 70
     1
102
RTVSPropertyOp4
 70
     1
102
RTVSPropertyOp5
 70
     1
102
RTVSPropertyOp6
 70
     1
102
RTVSPropertyOp7
 70
     1
102
RTVSPropertyOp8
 70
     1
102
RTVSPropertyOp9
 70
     1
102
RTVSPropertyOp10
 70
     1
102
RTVSPropertyOp11
 70
     1
102
RTVSPropertyOp12
 70
     1
102
RTVSPropertyOp13
 70
     1
102
RTVSPropertyOp14
 70
     1
102
RTVSPropertyOp15
 70
     1
102
RTVSPropertyOp16
 70
     1
102
RTVSPropertyOp17
 70
     1
102
RTVSPropertyOp18
 70
     1
102
RTVSPropertyOp19
 70
     1
102
RTVSPropertyOp20
 70
     1
102
RTVSPropertyOp21
 70
     1
102
RTVSPropertyOp22
 70
     1
102
RTVSPropertyOp23
 70
     1
102
RTVSPropertyOp24
 70
     1
102
RTVSPropertyOp25
 70
     1
102
RTVSPropertyOp26
 70
     1
102
RTVSPropertyOp27
 70
     1
102
RTVSPropertyOp28
 70
     1
102
RTVSPropertyOp29
 70
     1
102
RTVSPropertyOp30
 70
     1
102
RTVSPropertyOp31
 70
     1
102
RTVSPropertyOp32
 70
     1
102
RTVSPropertyOp33
 70
     1
102
RTVSPropertyOp34
 70
     1
102
RTVSPropertyOp35
 70
     1
102
RTVSPropertyOp36
 70
     1
102
RTVSPropertyOp37
 70
     1
102
RTVSPropertyOp38
 70
     1
102
RTVSPropertyOp39
 70
     1
102
RTVSPropertyOp40
 70
     1
102
RTVSPropertyOp41
 70
     1
102
RTVSPropertyOp42
 70
     1
102
RTVSPropertyOp43
 70
     1
102
RTVSPropertyOp44
 70
     1
102
RTVSPropertyOp45
 70
     1
102
RTVSPropertyOp46
 70
     1
102
RTVSPropertyOp47
 70
     1
102
RTVSPropertyOp48
 70
     1
102
RTVSPropertyOp49
 70
     1
102
RTVSPropertyOp50
 70
     1
102
RTVSPropertyOp51
 70
     0
102
RTVSPropertyOp52
 70
     0
102
RTVSPropertyOp53
 70
     1
102
RTVSPropertyOp54
 70
     1
102
RTVSPropertyOp55
 70
     1
102
RTVSPropertyOp56
 70
     1
102
RTVSPropertyOp57
 70
     1
102
RTVSPropertyOp58
 70
     1
102
RTVSPropertyOp59
 70
     1
102
RTVSPropertyOp60
 70
     1
102
RTVSPropertyOp61
 70
     1
102
RTVSPropertyOp62
 70
     1
  0
XRECORD
  5
87AD
102
{ACAD_REACTORS
330
87AC
102
}
330
87AC
100
AcDbXrecord
280
     1
102
RTVSPost2010Prop28
280
     0
102
RTVSPost2010PropOp28
 70
     1
102
RTVSPost2010Prop29
280
     1
102
RTVSPost2010PropOp29
 70
     1
102
RTVSPost2010Prop30
280
     1
102
RTVSPost2010PropOp30
 70
     1
102
RTVSPost2010Prop31
280
     0
102
RTVSPost2010PropOp31
 70
     1
102
RTVSPost2010Prop32
280
     0
102
RTVSPost2010PropOp32
 70
     1
102
RTVSPost2010Prop33
280
     0
102
RTVSPost2010PropOp33
 70
     1
102
RTVSPost2010Prop34
280
     0
102
RTVSPost2010PropOp34
 70
     1
102
RTVSPost2010Prop35
280
     0
102
RTVSPost2010PropOp35
 70
     1
102
RTVSPost2010Prop36
280
     0
102
RTVSPost2010PropOp36
 70
     1
102
RTVSPost2010Prop37
 90
       50
102
RTVSPost2010PropOp37
 70
     1
102
RTVSPost2010Prop38
140
0.0
102
RTVSPost2010PropOp38
 70
     1
102
RTVSPost2010Prop39
140
1.0
102
RTVSPost2010PropOp39
 70
     1
102
RTVSPost2010Prop40
 90
        0
102
RTVSPost2010PropOp40
 70
     1
102
RTVSPost2010Prop41ColorIndex
 90
       18
102
RTVSPost2010Prop41ColorRGB
 90
        0
102
RTVSPost2010PropOp41
 70
     1
102
RTVSPost2010Prop42
 90
       50
102
RTVSPost2010PropOp42
 70
     1
102
RTVSPost2010Prop43
 90
        3
102
RTVSPost2010PropOp43
 70
     1
102
RTVSPost2010Prop44ColorIndex
 90
        5
102
RTVSPost2010Prop44ColorRGB
 90
      255
102
RTVSPost2010PropOp44
 70
     1
102
RTVSPost2010Prop45
280
     0
102
RTVSPost2010PropOp45
 70
     1
102
RTVSPost2010Prop46
 90
       50
102
RTVSPost2010PropOp46
 70
     1
102
RTVSPost2010Prop47
 90
       50
102
RTVSPost2010PropOp47
 70
     1
102
RTVSPost2010Prop48
 90
       50
102
RTVSPost2010PropOp48
 70
     1
102
RTVSPost2010Prop49
280
     0
102
RTVSPost2010PropOp49
 70
     1
102
RTVSPost2010Prop50
 90
       50
102
RTVSPost2010PropOp50
 70
     1
102
RTVSPost2010Prop51ColorIndex
 90
      256
102
RTVSPost2010Prop51ColorRGB
 90
-16777216
102
RTVSPost2010PropOp51
 70
     0
102
RTVSPost2010Prop52
140
1.0
102
RTVSPost2010PropOp52
 70
     0
102
RTVSPost2010Prop53
 90
        2
102
RTVSPost2010PropOp53
 70
     1
102
RTVSPost2010Prop54
  1
strokes_ogs.tif
102
RTVSPost2010PropOp54
 70
     1
102
RTVSPost2010Prop55
280
     0
102
RTVSPost2010PropOp55
 70
     1
102
RTVSPost2010Prop56
140
1.0
102
RTVSPost2010PropOp56
 70
     1
102
RTVSPost2010Prop57
140
1.0
102
RTVSPost2010PropOp57
 70
     1
102
RTVSPropertyOp0
 70
     1
102
RTVSPropertyOp1
 70
     1
102
RTVSPropertyOp2
 70
     1
102
RTVSPropertyOp3
 70
     1
102
RTVSPropertyOp4
 70
     1
102
RTVSPropertyOp5
 70
     1
102
RTVSPropertyOp6
 70
     1
102
RTVSPropertyOp7
 70
     1
102
RTVSPropertyOp8
 70
     1
102
RTVSPropertyOp9
 70
     1
102
RTVSPropertyOp10
 70
     1
102
RTVSPropertyOp11
 70
     1
102
RTVSPropertyOp12
 70
     1
102
RTVSPropertyOp13
 70
     1
102
RTVSPropertyOp14
 70
     1
102
RTVSPropertyOp15
 70
     1
102
RTVSPropertyOp16
 70
     1
102
RTVSPropertyOp17
 70
     1
102
RTVSPropertyOp18
 70
     1
102
RTVSPropertyOp19
 70
     1
102
RTVSPropertyOp20
 70
     1
102
RTVSPropertyOp21
 70
     1
102
RTVSPropertyOp22
 70
     1
102
RTVSPropertyOp23
 70
     1
102
RTVSPropertyOp24
 70
     1
102
RTVSPropertyOp25
 70
     1
102
RTVSPropertyOp26
 70
     1
102
RTVSPropertyOp27
 70
     1
102
RTVSPropertyOp28
 70
     1
102
RTVSPropertyOp29
 70
     1
102
RTVSPropertyOp30
 70
     1
102
RTVSPropertyOp31
 70
     1
102
RTVSPropertyOp32
 70
     1
102
RTVSPropertyOp33
 70
     1
102
RTVSPropertyOp34
 70
     1
102
RTVSPropertyOp35
 70
     1
102
RTVSPropertyOp36
 70
     1
102
RTVSPropertyOp37
 70
     1
102
RTVSPropertyOp38
 70
     1
102
RTVSPropertyOp39
 70
     1
102
RTVSPropertyOp40
 70
     1
102
RTVSPropertyOp41
 70
     1
102
RTVSPropertyOp42
 70
     1
102
RTVSPropertyOp43
 70
     1
102
RTVSPropertyOp44
 70
     1
102
RTVSPropertyOp45
 70
     1
102
RTVSPropertyOp46
 70
     1
102
RTVSPropertyOp47
 70
     1
102
RTVSPropertyOp48
 70
     1
102
RTVSPropertyOp49
 70
     1
102
RTVSPropertyOp50
 70
     1
102
RTVSPropertyOp51
 70
     0
102
RTVSPropertyOp52
 70
     0
102
RTVSPropertyOp53
 70
     1
102
RTVSPropertyOp54
 70
     1
102
RTVSPropertyOp55
 70
     1
102
RTVSPropertyOp56
 70
     1
102
RTVSPropertyOp57
 70
     1
102
RTVSPropertyOp58
 70
     1
102
RTVSPropertyOp59
 70
     1
102
RTVSPropertyOp60
 70
     1
102
RTVSPropertyOp61
 70
     1
102
RTVSPropertyOp62
 70
     1
  0
XRECORD
  5
87C9
102
{ACAD_REACTORS
330
87C8
102
}
330
87C8
100
AcDbXrecord
280
     1
102
RTVSPost2010Prop28
280
     0
102
RTVSPost2010PropOp28
 70
     1
102
RTVSPost2010Prop29
280
     1
102
RTVSPost2010PropOp29
 70
     1
102
RTVSPost2010Prop30
280
     1
102
RTVSPost2010PropOp30
 70
     1
102
RTVSPost2010Prop31
280
     0
102
RTVSPost2010PropOp31
 70
     1
102
RTVSPost2010Prop32
280
     0
102
RTVSPost2010PropOp32
 70
     1
102
RTVSPost2010Prop33
280
     0
102
RTVSPost2010PropOp33
 70
     1
102
RTVSPost2010Prop34
280
     0
102
RTVSPost2010PropOp34
 70
     1
102
RTVSPost2010Prop35
280
     0
102
RTVSPost2010PropOp35
 70
     1
102
RTVSPost2010Prop36
280
     0
102
RTVSPost2010PropOp36
 70
     1
102
RTVSPost2010Prop37
 90
       50
102
RTVSPost2010PropOp37
 70
     0
102
RTVSPost2010Prop38
140
0.0
102
RTVSPost2010PropOp38
 70
     0
102
RTVSPost2010Prop39
140
1.0
102
RTVSPost2010PropOp39
 70
     0
102
RTVSPost2010Prop40
 90
        0
102
RTVSPost2010PropOp40
 70
     0
102
RTVSPost2010Prop41ColorIndex
 90
       18
102
RTVSPost2010Prop41ColorRGB
 90
        0
102
RTVSPost2010PropOp41
 70
     0
102
RTVSPost2010Prop42
 90
       50
102
RTVSPost2010PropOp42
 70
     0
102
RTVSPost2010Prop43
 90
        3
102
RTVSPost2010PropOp43
 70
     0
102
RTVSPost2010Prop44ColorIndex
 90
        5
102
RTVSPost2010Prop44ColorRGB
 90
      255
102
RTVSPost2010PropOp44
 70
     0
102
RTVSPost2010Prop45
280
     0
102
RTVSPost2010PropOp45
 70
     1
102
RTVSPost2010Prop46
 90
       50
102
RTVSPost2010PropOp46
 70
     0
102
RTVSPost2010Prop47
 90
       50
102
RTVSPost2010PropOp47
 70
     0
102
RTVSPost2010Prop48
 90
       50
102
RTVSPost2010PropOp48
 70
     0
102
RTVSPost2010Prop49
280
     0
102
RTVSPost2010PropOp49
 70
     1
102
RTVSPost2010Prop50
 90
       50
102
RTVSPost2010PropOp50
 70
     0
102
RTVSPost2010Prop51ColorIndex
 90
      256
102
RTVSPost2010Prop51ColorRGB
 90
-16777216
102
RTVSPost2010PropOp51
 70
     0
102
RTVSPost2010Prop52
140
1.0
102
RTVSPost2010PropOp52
 70
     0
102
RTVSPost2010Prop53
 90
        2
102
RTVSPost2010PropOp53
 70
     0
102
RTVSPost2010Prop54
  1
strokes_ogs.tif
102
RTVSPost2010PropOp54
 70
     0
102
RTVSPost2010Prop55
280
     0
102
RTVSPost2010PropOp55
 70
     1
102
RTVSPost2010Prop56
140
1.0
102
RTVSPost2010PropOp56
 70
     0
102
RTVSPost2010Prop57
140
1.0
102
RTVSPost2010PropOp57
 70
     0
102
RTVSPropertyOp0
 70
     0
102
RTVSPropertyOp1
 70
     0
102
RTVSPropertyOp2
 70
     0
102
RTVSPropertyOp3
 70
     0
102
RTVSPropertyOp4
 70
     0
102
RTVSPropertyOp5
 70
     0
102
RTVSPropertyOp6
 70
     0
102
RTVSPropertyOp7
 70
     0
102
RTVSPropertyOp8
 70
     0
102
RTVSPropertyOp9
 70
     0
102
RTVSPropertyOp10
 70
     0
102
RTVSPropertyOp11
 70
     0
102
RTVSPropertyOp12
 70
     0
102
RTVSPropertyOp13
 70
     0
102
RTVSPropertyOp14
 70
     2
102
RTVSPropertyOp15
 70
     0
102
RTVSPropertyOp16
 70
     0
102
RTVSPropertyOp17
 70
     0
102
RTVSPropertyOp18
 70
     0
102
RTVSPropertyOp19
 70
     0
102
RTVSPropertyOp20
 70
     0
102
RTVSPropertyOp21
 70
     0
102
RTVSPropertyOp22
 70
     0
102
RTVSPropertyOp23
 70
     0
102
RTVSPropertyOp24
 70
     0
102
RTVSPropertyOp25
 70
     0
102
RTVSPropertyOp26
 70
     0
102
RTVSPropertyOp27
 70
     0
102
RTVSPropertyOp28
 70
     1
102
RTVSPropertyOp29
 70
     1
102
RTVSPropertyOp30
 70
     1
102
RTVSPropertyOp31
 70
     1
102
RTVSPropertyOp32
 70
     1
102
RTVSPropertyOp33
 70
     1
102
RTVSPropertyOp34
 70
     1
102
RTVSPropertyOp35
 70
     1
102
RTVSPropertyOp36
 70
     1
102
RTVSPropertyOp37
 70
     0
102
RTVSPropertyOp38
 70
     0
102
RTVSPropertyOp39
 70
     0
102
RTVSPropertyOp40
 70
     0
102
RTVSPropertyOp41
 70
     0
102
RTVSPropertyOp42
 70
     0
102
RTVSPropertyOp43
 70
     0
102
RTVSPropertyOp44
 70
     0
102
RTVSPropertyOp45
 70
     1
102
RTVSPropertyOp46
 70
     0
102
RTVSPropertyOp47
 70
     0
102
RTVSPropertyOp48
 70
     0
102
RTVSPropertyOp49
 70
     1
102
RTVSPropertyOp50
 70
     0
102
RTVSPropertyOp51
 70
     0
102
RTVSPropertyOp52
 70
     0
102
RTVSPropertyOp53
 70
     0
102
RTVSPropertyOp54
 70
     0
102
RTVSPropertyOp55
 70
     1
102
RTVSPropertyOp56
 70
     0
102
RTVSPropertyOp57
 70
     0
102
RTVSPropertyOp58
 70
     0
102
RTVSPropertyOp59
 70
     0
102
RTVSPropertyOp60
 70
     0
102
RTVSPropertyOp61
 70
     0
102
RTVSPropertyOp62
 70
     0
  0
XRECORD
  5
87B9
102
{ACAD_REACTORS
330
87B8
102
}
330
87B8
100
AcDbXrecord
280
     1
102
RTVSPost2010Prop28
280
     0
102
RTVSPost2010PropOp28
 70
     1
102
RTVSPost2010Prop29
280
     1
102
RTVSPost2010PropOp29
 70
     1
102
RTVSPost2010Prop30
280
     1
102
RTVSPost2010PropOp30
 70
     1
102
RTVSPost2010Prop31
280
     0
102
RTVSPost2010PropOp31
 70
     1
102
RTVSPost2010Prop32
280
     0
102
RTVSPost2010PropOp32
 70
     1
102
RTVSPost2010Prop33
280
     0
102
RTVSPost2010PropOp33
 70
     1
102
RTVSPost2010Prop34
280
     0
102
RTVSPost2010PropOp34
 70
     1
102
RTVSPost2010Prop35
280
     0
102
RTVSPost2010PropOp35
 70
     1
102
RTVSPost2010Prop36
280
     0
102
RTVSPost2010PropOp36
 70
     1
102
RTVSPost2010Prop37
 90
       50
102
RTVSPost2010PropOp37
 70
     1
102
RTVSPost2010Prop38
140
0.0
102
RTVSPost2010PropOp38
 70
     1
102
RTVSPost2010Prop39
140
1.0
102
RTVSPost2010PropOp39
 70
     1
102
RTVSPost2010Prop40
 90
        0
102
RTVSPost2010PropOp40
 70
     1
102
RTVSPost2010Prop41ColorIndex
 90
       18
102
RTVSPost2010Prop41ColorRGB
 90
        0
102
RTVSPost2010PropOp41
 70
     1
102
RTVSPost2010Prop42
 90
       50
102
RTVSPost2010PropOp42
 70
     1
102
RTVSPost2010Prop43
 90
        3
102
RTVSPost2010PropOp43
 70
     1
102
RTVSPost2010Prop44ColorIndex
 90
        5
102
RTVSPost2010Prop44ColorRGB
 90
      255
102
RTVSPost2010PropOp44
 70
     1
102
RTVSPost2010Prop45
280
     0
102
RTVSPost2010PropOp45
 70
     1
102
RTVSPost2010Prop46
 90
       50
102
RTVSPost2010PropOp46
 70
     1
102
RTVSPost2010Prop47
 90
       50
102
RTVSPost2010PropOp47
 70
     1
102
RTVSPost2010Prop48
 90
       50
102
RTVSPost2010PropOp48
 70
     1
102
RTVSPost2010Prop49
280
     0
102
RTVSPost2010PropOp49
 70
     1
102
RTVSPost2010Prop50
 90
       50
102
RTVSPost2010PropOp50
 70
     1
102
RTVSPost2010Prop51ColorIndex
 90
      256
102
RTVSPost2010Prop51ColorRGB
 90
-16777216
102
RTVSPost2010PropOp51
 70
     0
102
RTVSPost2010Prop52
140
1.0
102
RTVSPost2010PropOp52
 70
     0
102
RTVSPost2010Prop53
 90
        2
102
RTVSPost2010PropOp53
 70
     1
102
RTVSPost2010Prop54
  1
strokes_ogs.tif
102
RTVSPost2010PropOp54
 70
     1
102
RTVSPost2010Prop55
280
     0
102
RTVSPost2010PropOp55
 70
     1
102
RTVSPost2010Prop56
140
1.0
102
RTVSPost2010PropOp56
 70
     1
102
RTVSPost2010Prop57
140
1.0
102
RTVSPost2010PropOp57
 70
     1
102
RTVSPropertyOp0
 70
     1
102
RTVSPropertyOp1
 70
     1
102
RTVSPropertyOp2
 70
     1
102
RTVSPropertyOp3
 70
     1
102
RTVSPropertyOp4
 70
     1
102
RTVSPropertyOp5
 70
     1
102
RTVSPropertyOp6
 70
     1
102
RTVSPropertyOp7
 70
     1
102
RTVSPropertyOp8
 70
     1
102
RTVSPropertyOp9
 70
     1
102
RTVSPropertyOp10
 70
     1
102
RTVSPropertyOp11
 70
     1
102
RTVSPropertyOp12
 70
     1
102
RTVSPropertyOp13
 70
     1
102
RTVSPropertyOp14
 70
     1
102
RTVSPropertyOp15
 70
     1
102
RTVSPropertyOp16
 70
     1
102
RTVSPropertyOp17
 70
     1
102
RTVSPropertyOp18
 70
     1
102
RTVSPropertyOp19
 70
     1
102
RTVSPropertyOp20
 70
     1
102
RTVSPropertyOp21
 70
     1
102
RTVSPropertyOp22
 70
     1
102
RTVSPropertyOp23
 70
     1
102
RTVSPropertyOp24
 70
     1
102
RTVSPropertyOp25
 70
     1
102
RTVSPropertyOp26
 70
     1
102
RTVSPropertyOp27
 70
     1
102
RTVSPropertyOp28
 70
     1
102
RTVSPropertyOp29
 70
     1
102
RTVSPropertyOp30
 70
     1
102
RTVSPropertyOp31
 70
     1
102
RTVSPropertyOp32
 70
     1
102
RTVSPropertyOp33
 70
     1
102
RTVSPropertyOp34
 70
     1
102
RTVSPropertyOp35
 70
     1
102
RTVSPropertyOp36
 70
     1
102
RTVSPropertyOp37
 70
     1
102
RTVSPropertyOp38
 70
     1
102
RTVSPropertyOp39
 70
     1
102
RTVSPropertyOp40
 70
     1
102
RTVSPropertyOp41
 70
     1
102
RTVSPropertyOp42
 70
     1
102
RTVSPropertyOp43
 70
     1
102
RTVSPropertyOp44
 70
     1
102
RTVSPropertyOp45
 70
     1
102
RTVSPropertyOp46
 70
     1
102
RTVSPropertyOp47
 70
     1
102
RTVSPropertyOp48
 70
     1
102
RTVSPropertyOp49
 70
     1
102
RTVSPropertyOp50
 70
     1
102
RTVSPropertyOp51
 70
     0
102
RTVSPropertyOp52
 70
     0
102
RTVSPropertyOp53
 70
     1
102
RTVSPropertyOp54
 70
     1
102
RTVSPropertyOp55
 70
     1
102
RTVSPropertyOp56
 70
     1
102
RTVSPropertyOp57
 70
     1
102
RTVSPropertyOp58
 70
     1
102
RTVSPropertyOp59
 70
     1
102
RTVSPropertyOp60
 70
     1
102
RTVSPropertyOp61
 70
     1
102
RTVSPropertyOp62
 70
     1
  0
XRECORD
  5
87CB
102
{ACAD_REACTORS
330
87CA
102
}
330
87CA
100
AcDbXrecord
280
     1
102
RTVSPost2010Prop28
280
     0
102
RTVSPost2010PropOp28
 70
     1
102
RTVSPost2010Prop29
280
     1
102
RTVSPost2010PropOp29
 70
     1
102
RTVSPost2010Prop30
280
     1
102
RTVSPost2010PropOp30
 70
     1
102
RTVSPost2010Prop31
280
     0
102
RTVSPost2010PropOp31
 70
     1
102
RTVSPost2010Prop32
280
     0
102
RTVSPost2010PropOp32
 70
     1
102
RTVSPost2010Prop33
280
     0
102
RTVSPost2010PropOp33
 70
     1
102
RTVSPost2010Prop34
280
     0
102
RTVSPost2010PropOp34
 70
     1
102
RTVSPost2010Prop35
280
     0
102
RTVSPost2010PropOp35
 70
     1
102
RTVSPost2010Prop36
280
     0
102
RTVSPost2010PropOp36
 70
     1
102
RTVSPost2010Prop37
 90
       50
102
RTVSPost2010PropOp37
 70
     0
102
RTVSPost2010Prop38
140
0.0
102
RTVSPost2010PropOp38
 70
     0
102
RTVSPost2010Prop39
140
1.0
102
RTVSPost2010PropOp39
 70
     0
102
RTVSPost2010Prop40
 90
        0
102
RTVSPost2010PropOp40
 70
     0
102
RTVSPost2010Prop41ColorIndex
 90
       18
102
RTVSPost2010Prop41ColorRGB
 90
        0
102
RTVSPost2010PropOp41
 70
     0
102
RTVSPost2010Prop42
 90
       50
102
RTVSPost2010PropOp42
 70
     0
102
RTVSPost2010Prop43
 90
        3
102
RTVSPost2010PropOp43
 70
     0
102
RTVSPost2010Prop44ColorIndex
 90
        5
102
RTVSPost2010Prop44ColorRGB
 90
      255
102
RTVSPost2010PropOp44
 70
     0
102
RTVSPost2010Prop45
280
     0
102
RTVSPost2010PropOp45
 70
     1
102
RTVSPost2010Prop46
 90
       50
102
RTVSPost2010PropOp46
 70
     0
102
RTVSPost2010Prop47
 90
       50
102
RTVSPost2010PropOp47
 70
     0
102
RTVSPost2010Prop48
 90
       50
102
RTVSPost2010PropOp48
 70
     0
102
RTVSPost2010Prop49
280
     0
102
RTVSPost2010PropOp49
 70
     1
102
RTVSPost2010Prop50
 90
       50
102
RTVSPost2010PropOp50
 70
     0
102
RTVSPost2010Prop51ColorIndex
 90
      256
102
RTVSPost2010Prop51ColorRGB
 90
-16777216
102
RTVSPost2010PropOp51
 70
     0
102
RTVSPost2010Prop52
140
1.0
102
RTVSPost2010PropOp52
 70
     0
102
RTVSPost2010Prop53
 90
        2
102
RTVSPost2010PropOp53
 70
     0
102
RTVSPost2010Prop54
  1
strokes_ogs.tif
102
RTVSPost2010PropOp54
 70
     0
102
RTVSPost2010Prop55
280
     0
102
RTVSPost2010PropOp55
 70
     1
102
RTVSPost2010Prop56
140
1.0
102
RTVSPost2010PropOp56
 70
     0
102
RTVSPost2010Prop57
140
1.0
102
RTVSPost2010PropOp57
 70
     0
102
RTVSPropertyOp0
 70
     0
102
RTVSPropertyOp1
 70
     0
102
RTVSPropertyOp2
 70
     0
102
RTVSPropertyOp3
 70
     0
102
RTVSPropertyOp4
 70
     0
102
RTVSPropertyOp5
 70
     0
102
RTVSPropertyOp6
 70
     0
102
RTVSPropertyOp7
 70
     0
102
RTVSPropertyOp8
 70
     0
102
RTVSPropertyOp9
 70
     0
102
RTVSPropertyOp10
 70
     0
102
RTVSPropertyOp11
 70
     0
102
RTVSPropertyOp12
 70
     0
102
RTVSPropertyOp13
 70
     0
102
RTVSPropertyOp14
 70
     2
102
RTVSPropertyOp15
 70
     0
102
RTVSPropertyOp16
 70
     0
102
RTVSPropertyOp17
 70
     0
102
RTVSPropertyOp18
 70
     0
102
RTVSPropertyOp19
 70
     0
102
RTVSPropertyOp20
 70
     0
102
RTVSPropertyOp21
 70
     0
102
RTVSPropertyOp22
 70
     0
102
RTVSPropertyOp23
 70
     0
102
RTVSPropertyOp24
 70
     0
102
RTVSPropertyOp25
 70
     0
102
RTVSPropertyOp26
 70
     0
102
RTVSPropertyOp27
 70
     0
102
RTVSPropertyOp28
 70
     1
102
RTVSPropertyOp29
 70
     1
102
RTVSPropertyOp30
 70
     1
102
RTVSPropertyOp31
 70
     1
102
RTVSPropertyOp32
 70
     1
102
RTVSPropertyOp33
 70
     1
102
RTVSPropertyOp34
 70
     1
102
RTVSPropertyOp35
 70
     1
102
RTVSPropertyOp36
 70
     1
102
RTVSPropertyOp37
 70
     0
102
RTVSPropertyOp38
 70
     0
102
RTVSPropertyOp39
 70
     0
102
RTVSPropertyOp40
 70
     0
102
RTVSPropertyOp41
 70
     0
102
RTVSPropertyOp42
 70
     0
102
RTVSPropertyOp43
 70
     0
102
RTVSPropertyOp44
 70
     0
102
RTVSPropertyOp45
 70
     1
102
RTVSPropertyOp46
 70
     0
102
RTVSPropertyOp47
 70
     0
102
RTVSPropertyOp48
 70
     0
102
RTVSPropertyOp49
 70
     1
102
RTVSPropertyOp50
 70
     0
102
RTVSPropertyOp51
 70
     0
102
RTVSPropertyOp52
 70
     0
102
RTVSPropertyOp53
 70
     0
102
RTVSPropertyOp54
 70
     0
102
RTVSPropertyOp55
 70
     1
102
RTVSPropertyOp56
 70
     0
102
RTVSPropertyOp57
 70
     0
102
RTVSPropertyOp58
 70
     0
102
RTVSPropertyOp59
 70
     0
102
RTVSPropertyOp60
 70
     0
102
RTVSPropertyOp61
 70
     0
102
RTVSPropertyOp62
 70
     0
  0
XRECORD
  5
87B1
102
{ACAD_REACTORS
330
87B0
102
}
330
87B0
100
AcDbXrecord
280
     1
102
RTVSPost2010Prop28
280
     0
102
RTVSPost2010PropOp28
 70
     1
102
RTVSPost2010Prop29
280
     1
102
RTVSPost2010PropOp29
 70
     1
102
RTVSPost2010Prop30
280
     1
102
RTVSPost2010PropOp30
 70
     1
102
RTVSPost2010Prop31
280
     0
102
RTVSPost2010PropOp31
 70
     1
102
RTVSPost2010Prop32
280
     0
102
RTVSPost2010PropOp32
 70
     1
102
RTVSPost2010Prop33
280
     0
102
RTVSPost2010PropOp33
 70
     1
102
RTVSPost2010Prop34
280
     0
102
RTVSPost2010PropOp34
 70
     1
102
RTVSPost2010Prop35
280
     0
102
RTVSPost2010PropOp35
 70
     1
102
RTVSPost2010Prop36
280
     0
102
RTVSPost2010PropOp36
 70
     1
102
RTVSPost2010Prop37
 90
       50
102
RTVSPost2010PropOp37
 70
     1
102
RTVSPost2010Prop38
140
0.0
102
RTVSPost2010PropOp38
 70
     1
102
RTVSPost2010Prop39
140
1.0
102
RTVSPost2010PropOp39
 70
     1
102
RTVSPost2010Prop40
 90
        0
102
RTVSPost2010PropOp40
 70
     1
102
RTVSPost2010Prop41ColorIndex
 90
       18
102
RTVSPost2010Prop41ColorRGB
 90
        0
102
RTVSPost2010PropOp41
 70
     1
102
RTVSPost2010Prop42
 90
       50
102
RTVSPost2010PropOp42
 70
     1
102
RTVSPost2010Prop43
 90
        3
102
RTVSPost2010PropOp43
 70
     1
102
RTVSPost2010Prop44ColorIndex
 90
        5
102
RTVSPost2010Prop44ColorRGB
 90
      255
102
RTVSPost2010PropOp44
 70
     1
102
RTVSPost2010Prop45
280
     0
102
RTVSPost2010PropOp45
 70
     1
102
RTVSPost2010Prop46
 90
       50
102
RTVSPost2010PropOp46
 70
     1
102
RTVSPost2010Prop47
 90
       50
102
RTVSPost2010PropOp47
 70
     1
102
RTVSPost2010Prop48
 90
       50
102
RTVSPost2010PropOp48
 70
     1
102
RTVSPost2010Prop49
280
     0
102
RTVSPost2010PropOp49
 70
     1
102
RTVSPost2010Prop50
 90
       50
102
RTVSPost2010PropOp50
 70
     1
102
RTVSPost2010Prop51ColorIndex
 90
      256
102
RTVSPost2010Prop51ColorRGB
 90
-16777216
102
RTVSPost2010PropOp51
 70
     0
102
RTVSPost2010Prop52
140
1.0
102
RTVSPost2010PropOp52
 70
     0
102
RTVSPost2010Prop53
 90
        2
102
RTVSPost2010PropOp53
 70
     1
102
RTVSPost2010Prop54
  1
strokes_ogs.tif
102
RTVSPost2010PropOp54
 70
     1
102
RTVSPost2010Prop55
280
     0
102
RTVSPost2010PropOp55
 70
     1
102
RTVSPost2010Prop56
140
1.0
102
RTVSPost2010PropOp56
 70
     1
102
RTVSPost2010Prop57
140
1.0
102
RTVSPost2010PropOp57
 70
     1
102
RTVSPropertyOp0
 70
     1
102
RTVSPropertyOp1
 70
     1
102
RTVSPropertyOp2
 70
     1
102
RTVSPropertyOp3
 70
     1
102
RTVSPropertyOp4
 70
     1
102
RTVSPropertyOp5
 70
     1
102
RTVSPropertyOp6
 70
     1
102
RTVSPropertyOp7
 70
     1
102
RTVSPropertyOp8
 70
     1
102
RTVSPropertyOp9
 70
     1
102
RTVSPropertyOp10
 70
     1
102
RTVSPropertyOp11
 70
     1
102
RTVSPropertyOp12
 70
     1
102
RTVSPropertyOp13
 70
     1
102
RTVSPropertyOp14
 70
     1
102
RTVSPropertyOp15
 70
     1
102
RTVSPropertyOp16
 70
     1
102
RTVSPropertyOp17
 70
     1
102
RTVSPropertyOp18
 70
     1
102
RTVSPropertyOp19
 70
     1
102
RTVSPropertyOp20
 70
     1
102
RTVSPropertyOp21
 70
     1
102
RTVSPropertyOp22
 70
     1
102
RTVSPropertyOp23
 70
     1
102
RTVSPropertyOp24
 70
     1
102
RTVSPropertyOp25
 70
     1
102
RTVSPropertyOp26
 70
     1
102
RTVSPropertyOp27
 70
     1
102
RTVSPropertyOp28
 70
     1
102
RTVSPropertyOp29
 70
     1
102
RTVSPropertyOp30
 70
     1
102
RTVSPropertyOp31
 70
     1
102
RTVSPropertyOp32
 70
     1
102
RTVSPropertyOp33
 70
     1
102
RTVSPropertyOp34
 70
     1
102
RTVSPropertyOp35
 70
     1
102
RTVSPropertyOp36
 70
     1
102
RTVSPropertyOp37
 70
     1
102
RTVSPropertyOp38
 70
     1
102
RTVSPropertyOp39
 70
     1
102
RTVSPropertyOp40
 70
     1
102
RTVSPropertyOp41
 70
     1
102
RTVSPropertyOp42
 70
     1
102
RTVSPropertyOp43
 70
     1
102
RTVSPropertyOp44
 70
     1
102
RTVSPropertyOp45
 70
     1
102
RTVSPropertyOp46
 70
     1
102
RTVSPropertyOp47
 70
     1
102
RTVSPropertyOp48
 70
     1
102
RTVSPropertyOp49
 70
     1
102
RTVSPropertyOp50
 70
     1
102
RTVSPropertyOp51
 70
     0
102
RTVSPropertyOp52
 70
     0
102
RTVSPropertyOp53
 70
     1
102
RTVSPropertyOp54
 70
     1
102
RTVSPropertyOp55
 70
     1
102
RTVSPropertyOp56
 70
     1
102
RTVSPropertyOp57
 70
     1
102
RTVSPropertyOp58
 70
     1
102
RTVSPropertyOp59
 70
     1
102
RTVSPropertyOp60
 70
     1
102
RTVSPropertyOp61
 70
     1
102
RTVSPropertyOp62
 70
     1
  0
XRECORD
  5
87C7
102
{ACAD_REACTORS
330
87C6
102
}
330
87C6
100
AcDbXrecord
280
     1
102
RTVSPost2010Prop28
280
     0
102
RTVSPost2010PropOp28
 70
     1
102
RTVSPost2010Prop29
280
     1
102
RTVSPost2010PropOp29
 70
     1
102
RTVSPost2010Prop30
280
     1
102
RTVSPost2010PropOp30
 70
     1
102
RTVSPost2010Prop31
280
     0
102
RTVSPost2010PropOp31
 70
     1
102
RTVSPost2010Prop32
280
     0
102
RTVSPost2010PropOp32
 70
     1
102
RTVSPost2010Prop33
280
     0
102
RTVSPost2010PropOp33
 70
     1
102
RTVSPost2010Prop34
280
     0
102
RTVSPost2010PropOp34
 70
     1
102
RTVSPost2010Prop35
280
     0
102
RTVSPost2010PropOp35
 70
     1
102
RTVSPost2010Prop36
280
     0
102
RTVSPost2010PropOp36
 70
     1
102
RTVSPost2010Prop37
 90
       50
102
RTVSPost2010PropOp37
 70
     1
102
RTVSPost2010Prop38
140
0.0
102
RTVSPost2010PropOp38
 70
     1
102
RTVSPost2010Prop39
140
1.0
102
RTVSPost2010PropOp39
 70
     1
102
RTVSPost2010Prop40
 90
        0
102
RTVSPost2010PropOp40
 70
     1
102
RTVSPost2010Prop41ColorIndex
 90
       18
102
RTVSPost2010Prop41ColorRGB
 90
        0
102
RTVSPost2010PropOp41
 70
     1
102
RTVSPost2010Prop42
 90
       50
102
RTVSPost2010PropOp42
 70
     1
102
RTVSPost2010Prop43
 90
        3
102
RTVSPost2010PropOp43
 70
     1
102
RTVSPost2010Prop44ColorIndex
 90
        5
102
RTVSPost2010Prop44ColorRGB
 90
      255
102
RTVSPost2010PropOp44
 70
     1
102
RTVSPost2010Prop45
280
     0
102
RTVSPost2010PropOp45
 70
     1
102
RTVSPost2010Prop46
 90
       50
102
RTVSPost2010PropOp46
 70
     1
102
RTVSPost2010Prop47
 90
       50
102
RTVSPost2010PropOp47
 70
     1
102
RTVSPost2010Prop48
 90
       50
102
RTVSPost2010PropOp48
 70
     1
102
RTVSPost2010Prop49
280
     0
102
RTVSPost2010PropOp49
 70
     1
102
RTVSPost2010Prop50
 90
       50
102
RTVSPost2010PropOp50
 70
     1
102
RTVSPost2010Prop51ColorIndex
 90
      256
102
RTVSPost2010Prop51ColorRGB
 90
-16777216
102
RTVSPost2010PropOp51
 70
     0
102
RTVSPost2010Prop52
140
1.0
102
RTVSPost2010PropOp52
 70
     0
102
RTVSPost2010Prop53
 90
        2
102
RTVSPost2010PropOp53
 70
     1
102
RTVSPost2010Prop54
  1
strokes_ogs.tif
102
RTVSPost2010PropOp54
 70
     1
102
RTVSPost2010Prop55
280
     0
102
RTVSPost2010PropOp55
 70
     1
102
RTVSPost2010Prop56
140
1.0
102
RTVSPost2010PropOp56
 70
     1
102
RTVSPost2010Prop57
140
1.0
102
RTVSPost2010PropOp57
 70
     1
102
RTVSPropertyOp0
 70
     1
102
RTVSPropertyOp1
 70
     1
102
RTVSPropertyOp2
 70
     1
102
RTVSPropertyOp3
 70
     1
102
RTVSPropertyOp4
 70
     1
102
RTVSPropertyOp5
 70
     1
102
RTVSPropertyOp6
 70
     1
102
RTVSPropertyOp7
 70
     1
102
RTVSPropertyOp8
 70
     1
102
RTVSPropertyOp9
 70
     1
102
RTVSPropertyOp10
 70
     1
102
RTVSPropertyOp11
 70
     1
102
RTVSPropertyOp12
 70
     1
102
RTVSPropertyOp13
 70
     1
102
RTVSPropertyOp14
 70
     1
102
RTVSPropertyOp15
 70
     1
102
RTVSPropertyOp16
 70
     1
102
RTVSPropertyOp17
 70
     1
102
RTVSPropertyOp18
 70
     1
102
RTVSPropertyOp19
 70
     1
102
RTVSPropertyOp20
 70
     1
102
RTVSPropertyOp21
 70
     1
102
RTVSPropertyOp22
 70
     1
102
RTVSPropertyOp23
 70
     1
102
RTVSPropertyOp24
 70
     1
102
RTVSPropertyOp25
 70
     1
102
RTVSPropertyOp26
 70
     1
102
RTVSPropertyOp27
 70
     1
102
RTVSPropertyOp28
 70
     1
102
RTVSPropertyOp29
 70
     1
102
RTVSPropertyOp30
 70
     1
102
RTVSPropertyOp31
 70
     1
102
RTVSPropertyOp32
 70
     1
102
RTVSPropertyOp33
 70
     1
102
RTVSPropertyOp34
 70
     1
102
RTVSPropertyOp35
 70
     1
102
RTVSPropertyOp36
 70
     1
102
RTVSPropertyOp37
 70
     1
102
RTVSPropertyOp38
 70
     1
102
RTVSPropertyOp39
 70
     1
102
RTVSPropertyOp40
 70
     1
102
RTVSPropertyOp41
 70
     1
102
RTVSPropertyOp42
 70
     1
102
RTVSPropertyOp43
 70
     1
102
RTVSPropertyOp44
 70
     1
102
RTVSPropertyOp45
 70
     1
102
RTVSPropertyOp46
 70
     1
102
RTVSPropertyOp47
 70
     1
102
RTVSPropertyOp48
 70
     1
102
RTVSPropertyOp49
 70
     1
102
RTVSPropertyOp50
 70
     1
102
RTVSPropertyOp51
 70
     0
102
RTVSPropertyOp52
 70
     0
102
RTVSPropertyOp53
 70
     1
102
RTVSPropertyOp54
 70
     1
102
RTVSPropertyOp55
 70
     1
102
RTVSPropertyOp56
 70
     1
102
RTVSPropertyOp57
 70
     1
102
RTVSPropertyOp58
 70
     1
102
RTVSPropertyOp59
 70
     1
102
RTVSPropertyOp60
 70
     1
102
RTVSPropertyOp61
 70
     1
102
RTVSPropertyOp62
 70
     1
  0
XRECORD
  5
87C5
102
{ACAD_REACTORS
330
87C4
102
}
330
87C4
100
AcDbXrecord
280
     1
102
RTVSPost2010Prop28
280
     0
102
RTVSPost2010PropOp28
 70
     1
102
RTVSPost2010Prop29
280
     1
102
RTVSPost2010PropOp29
 70
     1
102
RTVSPost2010Prop30
280
     1
102
RTVSPost2010PropOp30
 70
     1
102
RTVSPost2010Prop31
280
     0
102
RTVSPost2010PropOp31
 70
     1
102
RTVSPost2010Prop32
280
     0
102
RTVSPost2010PropOp32
 70
     1
102
RTVSPost2010Prop33
280
     0
102
RTVSPost2010PropOp33
 70
     1
102
RTVSPost2010Prop34
280
     0
102
RTVSPost2010PropOp34
 70
     1
102
RTVSPost2010Prop35
280
     0
102
RTVSPost2010PropOp35
 70
     1
102
RTVSPost2010Prop36
280
     0
102
RTVSPost2010PropOp36
 70
     1
102
RTVSPost2010Prop37
 90
       50
102
RTVSPost2010PropOp37
 70
     1
102
RTVSPost2010Prop38
140
0.0
102
RTVSPost2010PropOp38
 70
     1
102
RTVSPost2010Prop39
140
1.0
102
RTVSPost2010PropOp39
 70
     1
102
RTVSPost2010Prop40
 90
        0
102
RTVSPost2010PropOp40
 70
     1
102
RTVSPost2010Prop41ColorIndex
 90
       18
102
RTVSPost2010Prop41ColorRGB
 90
        0
102
RTVSPost2010PropOp41
 70
     1
102
RTVSPost2010Prop42
 90
       50
102
RTVSPost2010PropOp42
 70
     1
102
RTVSPost2010Prop43
 90
        3
102
RTVSPost2010PropOp43
 70
     1
102
RTVSPost2010Prop44ColorIndex
 90
        5
102
RTVSPost2010Prop44ColorRGB
 90
      255
102
RTVSPost2010PropOp44
 70
     1
102
RTVSPost2010Prop45
280
     0
102
RTVSPost2010PropOp45
 70
     1
102
RTVSPost2010Prop46
 90
       50
102
RTVSPost2010PropOp46
 70
     1
102
RTVSPost2010Prop47
 90
       50
102
RTVSPost2010PropOp47
 70
     1
102
RTVSPost2010Prop48
 90
       50
102
RTVSPost2010PropOp48
 70
     1
102
RTVSPost2010Prop49
280
     0
102
RTVSPost2010PropOp49
 70
     1
102
RTVSPost2010Prop50
 90
       50
102
RTVSPost2010PropOp50
 70
     1
102
RTVSPost2010Prop51ColorIndex
 90
      256
102
RTVSPost2010Prop51ColorRGB
 90
-16777216
102
RTVSPost2010PropOp51
 70
     0
102
RTVSPost2010Prop52
140
1.0
102
RTVSPost2010PropOp52
 70
     0
102
RTVSPost2010Prop53
 90
        2
102
RTVSPost2010PropOp53
 70
     1
102
RTVSPost2010Prop54
  1
strokes_ogs.tif
102
RTVSPost2010PropOp54
 70
     1
102
RTVSPost2010Prop55
280
     0
102
RTVSPost2010PropOp55
 70
     1
102
RTVSPost2010Prop56
140
1.0
102
RTVSPost2010PropOp56
 70
     1
102
RTVSPost2010Prop57
140
1.0
102
RTVSPost2010PropOp57
 70
     1
102
RTVSPropertyOp0
 70
     1
102
RTVSPropertyOp1
 70
     1
102
RTVSPropertyOp2
 70
     1
102
RTVSPropertyOp3
 70
     1
102
RTVSPropertyOp4
 70
     1
102
RTVSPropertyOp5
 70
     1
102
RTVSPropertyOp6
 70
     1
102
RTVSPropertyOp7
 70
     1
102
RTVSPropertyOp8
 70
     1
102
RTVSPropertyOp9
 70
     1
102
RTVSPropertyOp10
 70
     1
102
RTVSPropertyOp11
 70
     1
102
RTVSPropertyOp12
 70
     1
102
RTVSPropertyOp13
 70
     1
102
RTVSPropertyOp14
 70
     1
102
RTVSPropertyOp15
 70
     1
102
RTVSPropertyOp16
 70
     1
102
RTVSPropertyOp17
 70
     1
102
RTVSPropertyOp18
 70
     1
102
RTVSPropertyOp19
 70
     1
102
RTVSPropertyOp20
 70
     1
102
RTVSPropertyOp21
 70
     1
102
RTVSPropertyOp22
 70
     1
102
RTVSPropertyOp23
 70
     1
102
RTVSPropertyOp24
 70
     1
102
RTVSPropertyOp25
 70
     1
102
RTVSPropertyOp26
 70
     1
102
RTVSPropertyOp27
 70
     1
102
RTVSPropertyOp28
 70
     1
102
RTVSPropertyOp29
 70
     1
102
RTVSPropertyOp30
 70
     1
102
RTVSPropertyOp31
 70
     1
102
RTVSPropertyOp32
 70
     1
102
RTVSPropertyOp33
 70
     1
102
RTVSPropertyOp34
 70
     1
102
RTVSPropertyOp35
 70
     1
102
RTVSPropertyOp36
 70
     1
102
RTVSPropertyOp37
 70
     1
102
RTVSPropertyOp38
 70
     1
102
RTVSPropertyOp39
 70
     1
102
RTVSPropertyOp40
 70
     1
102
RTVSPropertyOp41
 70
     1
102
RTVSPropertyOp42
 70
     1
102
RTVSPropertyOp43
 70
     1
102
RTVSPropertyOp44
 70
     1
102
RTVSPropertyOp45
 70
     1
102
RTVSPropertyOp46
 70
     1
102
RTVSPropertyOp47
 70
     1
102
RTVSPropertyOp48
 70
     1
102
RTVSPropertyOp49
 70
     1
102
RTVSPropertyOp50
 70
     1
102
RTVSPropertyOp51
 70
     0
102
RTVSPropertyOp52
 70
     0
102
RTVSPropertyOp53
 70
     1
102
RTVSPropertyOp54
 70
     1
102
RTVSPropertyOp55
 70
     1
102
RTVSPropertyOp56
 70
     1
102
RTVSPropertyOp57
 70
     1
102
RTVSPropertyOp58
 70
     1
102
RTVSPropertyOp59
 70
     1
102
RTVSPropertyOp60
 70
     1
102
RTVSPropertyOp61
 70
     1
102
RTVSPropertyOp62
 70
     1
  0
XRECORD
  5
87BF
102
{ACAD_REACTORS
330
87BE
102
}
330
87BE
100
AcDbXrecord
280
     1
102
RTVSPost2010Prop28
280
     0
102
RTVSPost2010PropOp28
 70
     1
102
RTVSPost2010Prop29
280
     1
102
RTVSPost2010PropOp29
 70
     1
102
RTVSPost2010Prop30
280
     1
102
RTVSPost2010PropOp30
 70
     1
102
RTVSPost2010Prop31
280
     0
102
RTVSPost2010PropOp31
 70
     1
102
RTVSPost2010Prop32
280
     0
102
RTVSPost2010PropOp32
 70
     1
102
RTVSPost2010Prop33
280
     0
102
RTVSPost2010PropOp33
 70
     1
102
RTVSPost2010Prop34
280
     0
102
RTVSPost2010PropOp34
 70
     1
102
RTVSPost2010Prop35
280
     0
102
RTVSPost2010PropOp35
 70
     1
102
RTVSPost2010Prop36
280
     0
102
RTVSPost2010PropOp36
 70
     1
102
RTVSPost2010Prop37
 90
       50
102
RTVSPost2010PropOp37
 70
     1
102
RTVSPost2010Prop38
140
0.0
102
RTVSPost2010PropOp38
 70
     1
102
RTVSPost2010Prop39
140
1.0
102
RTVSPost2010PropOp39
 70
     1
102
RTVSPost2010Prop40
 90
        0
102
RTVSPost2010PropOp40
 70
     1
102
RTVSPost2010Prop41ColorIndex
 90
       18
102
RTVSPost2010Prop41ColorRGB
 90
        0
102
RTVSPost2010PropOp41
 70
     1
102
RTVSPost2010Prop42
 90
       50
102
RTVSPost2010PropOp42
 70
     1
102
RTVSPost2010Prop43
 90
        3
102
RTVSPost2010PropOp43
 70
     1
102
RTVSPost2010Prop44ColorIndex
 90
        5
102
RTVSPost2010Prop44ColorRGB
 90
      255
102
RTVSPost2010PropOp44
 70
     1
102
RTVSPost2010Prop45
280
     0
102
RTVSPost2010PropOp45
 70
     1
102
RTVSPost2010Prop46
 90
       50
102
RTVSPost2010PropOp46
 70
     1
102
RTVSPost2010Prop47
 90
       50
102
RTVSPost2010PropOp47
 70
     1
102
RTVSPost2010Prop48
 90
       50
102
RTVSPost2010PropOp48
 70
     1
102
RTVSPost2010Prop49
280
     0
102
RTVSPost2010PropOp49
 70
     1
102
RTVSPost2010Prop50
 90
       50
102
RTVSPost2010PropOp50
 70
     1
102
RTVSPost2010Prop51ColorIndex
 90
      256
102
RTVSPost2010Prop51ColorRGB
 90
-16777216
102
RTVSPost2010PropOp51
 70
     0
102
RTVSPost2010Prop52
140
1.0
102
RTVSPost2010PropOp52
 70
     0
102
RTVSPost2010Prop53
 90
        2
102
RTVSPost2010PropOp53
 70
     1
102
RTVSPost2010Prop54
  1
strokes_ogs.tif
102
RTVSPost2010PropOp54
 70
     1
102
RTVSPost2010Prop55
280
     0
102
RTVSPost2010PropOp55
 70
     1
102
RTVSPost2010Prop56
140
1.0
102
RTVSPost2010PropOp56
 70
     1
102
RTVSPost2010Prop57
140
1.0
102
RTVSPost2010PropOp57
 70
     1
102
RTVSPropertyOp0
 70
     1
102
RTVSPropertyOp1
 70
     1
102
RTVSPropertyOp2
 70
     1
102
RTVSPropertyOp3
 70
     1
102
RTVSPropertyOp4
 70
     1
102
RTVSPropertyOp5
 70
     1
102
RTVSPropertyOp6
 70
     1
102
RTVSPropertyOp7
 70
     1
102
RTVSPropertyOp8
 70
     1
102
RTVSPropertyOp9
 70
     1
102
RTVSPropertyOp10
 70
     1
102
RTVSPropertyOp11
 70
     1
102
RTVSPropertyOp12
 70
     1
102
RTVSPropertyOp13
 70
     1
102
RTVSPropertyOp14
 70
     1
102
RTVSPropertyOp15
 70
     1
102
RTVSPropertyOp16
 70
     1
102
RTVSPropertyOp17
 70
     1
102
RTVSPropertyOp18
 70
     1
102
RTVSPropertyOp19
 70
     1
102
RTVSPropertyOp20
 70
     1
102
RTVSPropertyOp21
 70
     1
102
RTVSPropertyOp22
 70
     1
102
RTVSPropertyOp23
 70
     1
102
RTVSPropertyOp24
 70
     1
102
RTVSPropertyOp25
 70
     1
102
RTVSPropertyOp26
 70
     1
102
RTVSPropertyOp27
 70
     1
102
RTVSPropertyOp28
 70
     1
102
RTVSPropertyOp29
 70
     1
102
RTVSPropertyOp30
 70
     1
102
RTVSPropertyOp31
 70
     1
102
RTVSPropertyOp32
 70
     1
102
RTVSPropertyOp33
 70
     1
102
RTVSPropertyOp34
 70
     1
102
RTVSPropertyOp35
 70
     1
102
RTVSPropertyOp36
 70
     1
102
RTVSPropertyOp37
 70
     1
102
RTVSPropertyOp38
 70
     1
102
RTVSPropertyOp39
 70
     1
102
RTVSPropertyOp40
 70
     1
102
RTVSPropertyOp41
 70
     1
102
RTVSPropertyOp42
 70
     1
102
RTVSPropertyOp43
 70
     1
102
RTVSPropertyOp44
 70
     1
102
RTVSPropertyOp45
 70
     1
102
RTVSPropertyOp46
 70
     1
102
RTVSPropertyOp47
 70
     1
102
RTVSPropertyOp48
 70
     1
102
RTVSPropertyOp49
 70
     1
102
RTVSPropertyOp50
 70
     1
102
RTVSPropertyOp51
 70
     0
102
RTVSPropertyOp52
 70
     0
102
RTVSPropertyOp53
 70
     1
102
RTVSPropertyOp54
 70
     1
102
RTVSPropertyOp55
 70
     1
102
RTVSPropertyOp56
 70
     1
102
RTVSPropertyOp57
 70
     1
102
RTVSPropertyOp58
 70
     1
102
RTVSPropertyOp59
 70
     1
102
RTVSPropertyOp60
 70
     1
102
RTVSPropertyOp61
 70
     1
102
RTVSPropertyOp62
 70
     1
  0
XRECORD
  5
87C1
102
{ACAD_REACTORS
330
87C0
102
}
330
87C0
100
AcDbXrecord
280
     1
102
RTVSPost2010Prop28
280
     0
102
RTVSPost2010PropOp28
 70
     1
102
RTVSPost2010Prop29
280
     1
102
RTVSPost2010PropOp29
 70
     1
102
RTVSPost2010Prop30
280
     1
102
RTVSPost2010PropOp30
 70
     1
102
RTVSPost2010Prop31
280
     0
102
RTVSPost2010PropOp31
 70
     1
102
RTVSPost2010Prop32
280
     0
102
RTVSPost2010PropOp32
 70
     1
102
RTVSPost2010Prop33
280
     0
102
RTVSPost2010PropOp33
 70
     1
102
RTVSPost2010Prop34
280
     0
102
RTVSPost2010PropOp34
 70
     1
102
RTVSPost2010Prop35
280
     0
102
RTVSPost2010PropOp35
 70
     1
102
RTVSPost2010Prop36
280
     0
102
RTVSPost2010PropOp36
 70
     1
102
RTVSPost2010Prop37
 90
       50
102
RTVSPost2010PropOp37
 70
     1
102
RTVSPost2010Prop38
140
0.0
102
RTVSPost2010PropOp38
 70
     1
102
RTVSPost2010Prop39
140
1.0
102
RTVSPost2010PropOp39
 70
     1
102
RTVSPost2010Prop40
 90
        0
102
RTVSPost2010PropOp40
 70
     1
102
RTVSPost2010Prop41ColorIndex
 90
       18
102
RTVSPost2010Prop41ColorRGB
 90
        0
102
RTVSPost2010PropOp41
 70
     1
102
RTVSPost2010Prop42
 90
       50
102
RTVSPost2010PropOp42
 70
     1
102
RTVSPost2010Prop43
 90
        3
102
RTVSPost2010PropOp43
 70
     1
102
RTVSPost2010Prop44ColorIndex
 90
        5
102
RTVSPost2010Prop44ColorRGB
 90
      255
102
RTVSPost2010PropOp44
 70
     1
102
RTVSPost2010Prop45
280
     0
102
RTVSPost2010PropOp45
 70
     1
102
RTVSPost2010Prop46
 90
       50
102
RTVSPost2010PropOp46
 70
     1
102
RTVSPost2010Prop47
 90
       50
102
RTVSPost2010PropOp47
 70
     1
102
RTVSPost2010Prop48
 90
       50
102
RTVSPost2010PropOp48
 70
     1
102
RTVSPost2010Prop49
280
     0
102
RTVSPost2010PropOp49
 70
     1
102
RTVSPost2010Prop50
 90
       50
102
RTVSPost2010PropOp50
 70
     1
102
RTVSPost2010Prop51ColorIndex
 90
      256
102
RTVSPost2010Prop51ColorRGB
 90
-16777216
102
RTVSPost2010PropOp51
 70
     0
102
RTVSPost2010Prop52
140
1.0
102
RTVSPost2010PropOp52
 70
     0
102
RTVSPost2010Prop53
 90
        2
102
RTVSPost2010PropOp53
 70
     1
102
RTVSPost2010Prop54
  1
strokes_ogs.tif
102
RTVSPost2010PropOp54
 70
     1
102
RTVSPost2010Prop55
280
     0
102
RTVSPost2010PropOp55
 70
     1
102
RTVSPost2010Prop56
140
1.0
102
RTVSPost2010PropOp56
 70
     1
102
RTVSPost2010Prop57
140
1.0
102
RTVSPost2010PropOp57
 70
     1
102
RTVSPropertyOp0
 70
     1
102
RTVSPropertyOp1
 70
     1
102
RTVSPropertyOp2
 70
     1
102
RTVSPropertyOp3
 70
     1
102
RTVSPropertyOp4
 70
     1
102
RTVSPropertyOp5
 70
     1
102
RTVSPropertyOp6
 70
     1
102
RTVSPropertyOp7
 70
     1
102
RTVSPropertyOp8
 70
     1
102
RTVSPropertyOp9
 70
     1
102
RTVSPropertyOp10
 70
     1
102
RTVSPropertyOp11
 70
     1
102
RTVSPropertyOp12
 70
     1
102
RTVSPropertyOp13
 70
     1
102
RTVSPropertyOp14
 70
     1
102
RTVSPropertyOp15
 70
     1
102
RTVSPropertyOp16
 70
     1
102
RTVSPropertyOp17
 70
     1
102
RTVSPropertyOp18
 70
     1
102
RTVSPropertyOp19
 70
     1
102
RTVSPropertyOp20
 70
     1
102
RTVSPropertyOp21
 70
     1
102
RTVSPropertyOp22
 70
     1
102
RTVSPropertyOp23
 70
     1
102
RTVSPropertyOp24
 70
     1
102
RTVSPropertyOp25
 70
     1
102
RTVSPropertyOp26
 70
     1
102
RTVSPropertyOp27
 70
     1
102
RTVSPropertyOp28
 70
     1
102
RTVSPropertyOp29
 70
     1
102
RTVSPropertyOp30
 70
     1
102
RTVSPropertyOp31
 70
     1
102
RTVSPropertyOp32
 70
     1
102
RTVSPropertyOp33
 70
     1
102
RTVSPropertyOp34
 70
     1
102
RTVSPropertyOp35
 70
     1
102
RTVSPropertyOp36
 70
     1
102
RTVSPropertyOp37
 70
     1
102
RTVSPropertyOp38
 70
     1
102
RTVSPropertyOp39
 70
     1
102
RTVSPropertyOp40
 70
     1
102
RTVSPropertyOp41
 70
     1
102
RTVSPropertyOp42
 70
     1
102
RTVSPropertyOp43
 70
     1
102
RTVSPropertyOp44
 70
     1
102
RTVSPropertyOp45
 70
     1
102
RTVSPropertyOp46
 70
     1
102
RTVSPropertyOp47
 70
     1
102
RTVSPropertyOp48
 70
     1
102
RTVSPropertyOp49
 70
     1
102
RTVSPropertyOp50
 70
     1
102
RTVSPropertyOp51
 70
     0
102
RTVSPropertyOp52
 70
     0
102
RTVSPropertyOp53
 70
     1
102
RTVSPropertyOp54
 70
     1
102
RTVSPropertyOp55
 70
     1
102
RTVSPropertyOp56
 70
     1
102
RTVSPropertyOp57
 70
     1
102
RTVSPropertyOp58
 70
     1
102
RTVSPropertyOp59
 70
     1
102
RTVSPropertyOp60
 70
     1
102
RTVSPropertyOp61
 70
     1
102
RTVSPropertyOp62
 70
     1
  0
XRECORD
  5
87B7
102
{ACAD_REACTORS
330
87B6
102
}
330
87B6
100
AcDbXrecord
280
     1
102
RTVSPost2010Prop28
280
     0
102
RTVSPost2010PropOp28
 70
     1
102
RTVSPost2010Prop29
280
     1
102
RTVSPost2010PropOp29
 70
     1
102
RTVSPost2010Prop30
280
     1
102
RTVSPost2010PropOp30
 70
     1
102
RTVSPost2010Prop31
280
     0
102
RTVSPost2010PropOp31
 70
     1
102
RTVSPost2010Prop32
280
     0
102
RTVSPost2010PropOp32
 70
     1
102
RTVSPost2010Prop33
280
     0
102
RTVSPost2010PropOp33
 70
     1
102
RTVSPost2010Prop34
280
     0
102
RTVSPost2010PropOp34
 70
     1
102
RTVSPost2010Prop35
280
     0
102
RTVSPost2010PropOp35
 70
     1
102
RTVSPost2010Prop36
280
     0
102
RTVSPost2010PropOp36
 70
     1
102
RTVSPost2010Prop37
 90
       50
102
RTVSPost2010PropOp37
 70
     1
102
RTVSPost2010Prop38
140
0.0
102
RTVSPost2010PropOp38
 70
     1
102
RTVSPost2010Prop39
140
1.0
102
RTVSPost2010PropOp39
 70
     1
102
RTVSPost2010Prop40
 90
        0
102
RTVSPost2010PropOp40
 70
     1
102
RTVSPost2010Prop41ColorIndex
 90
       18
102
RTVSPost2010Prop41ColorRGB
 90
        0
102
RTVSPost2010PropOp41
 70
     1
102
RTVSPost2010Prop42
 90
       50
102
RTVSPost2010PropOp42
 70
     1
102
RTVSPost2010Prop43
 90
        3
102
RTVSPost2010PropOp43
 70
     1
102
RTVSPost2010Prop44ColorIndex
 90
        5
102
RTVSPost2010Prop44ColorRGB
 90
      255
102
RTVSPost2010PropOp44
 70
     1
102
RTVSPost2010Prop45
280
     0
102
RTVSPost2010PropOp45
 70
     1
102
RTVSPost2010Prop46
 90
       50
102
RTVSPost2010PropOp46
 70
     1
102
RTVSPost2010Prop47
 90
       50
102
RTVSPost2010PropOp47
 70
     1
102
RTVSPost2010Prop48
 90
       50
102
RTVSPost2010PropOp48
 70
     1
102
RTVSPost2010Prop49
280
     0
102
RTVSPost2010PropOp49
 70
     1
102
RTVSPost2010Prop50
 90
       50
102
RTVSPost2010PropOp50
 70
     1
102
RTVSPost2010Prop51ColorIndex
 90
      256
102
RTVSPost2010Prop51ColorRGB
 90
-16777216
102
RTVSPost2010PropOp51
 70
     0
102
RTVSPost2010Prop52
140
1.0
102
RTVSPost2010PropOp52
 70
     0
102
RTVSPost2010Prop53
 90
        2
102
RTVSPost2010PropOp53
 70
     1
102
RTVSPost2010Prop54
  1
strokes_ogs.tif
102
RTVSPost2010PropOp54
 70
     1
102
RTVSPost2010Prop55
280
     0
102
RTVSPost2010PropOp55
 70
     1
102
RTVSPost2010Prop56
140
1.0
102
RTVSPost2010PropOp56
 70
     1
102
RTVSPost2010Prop57
140
1.0
102
RTVSPost2010PropOp57
 70
     1
102
RTVSPropertyOp0
 70
     1
102
RTVSPropertyOp1
 70
     1
102
RTVSPropertyOp2
 70
     1
102
RTVSPropertyOp3
 70
     1
102
RTVSPropertyOp4
 70
     1
102
RTVSPropertyOp5
 70
     1
102
RTVSPropertyOp6
 70
     1
102
RTVSPropertyOp7
 70
     1
102
RTVSPropertyOp8
 70
     1
102
RTVSPropertyOp9
 70
     1
102
RTVSPropertyOp10
 70
     1
102
RTVSPropertyOp11
 70
     1
102
RTVSPropertyOp12
 70
     1
102
RTVSPropertyOp13
 70
     1
102
RTVSPropertyOp14
 70
     1
102
RTVSPropertyOp15
 70
     1
102
RTVSPropertyOp16
 70
     1
102
RTVSPropertyOp17
 70
     1
102
RTVSPropertyOp18
 70
     1
102
RTVSPropertyOp19
 70
     1
102
RTVSPropertyOp20
 70
     1
102
RTVSPropertyOp21
 70
     1
102
RTVSPropertyOp22
 70
     1
102
RTVSPropertyOp23
 70
     1
102
RTVSPropertyOp24
 70
     1
102
RTVSPropertyOp25
 70
     1
102
RTVSPropertyOp26
 70
     1
102
RTVSPropertyOp27
 70
     1
102
RTVSPropertyOp28
 70
     1
102
RTVSPropertyOp29
 70
     1
102
RTVSPropertyOp30
 70
     1
102
RTVSPropertyOp31
 70
     1
102
RTVSPropertyOp32
 70
     1
102
RTVSPropertyOp33
 70
     1
102
RTVSPropertyOp34
 70
     1
102
RTVSPropertyOp35
 70
     1
102
RTVSPropertyOp36
 70
     1
102
RTVSPropertyOp37
 70
     1
102
RTVSPropertyOp38
 70
     1
102
RTVSPropertyOp39
 70
     1
102
RTVSPropertyOp40
 70
     1
102
RTVSPropertyOp41
 70
     1
102
RTVSPropertyOp42
 70
     1
102
RTVSPropertyOp43
 70
     1
102
RTVSPropertyOp44
 70
     1
102
RTVSPropertyOp45
 70
     1
102
RTVSPropertyOp46
 70
     1
102
RTVSPropertyOp47
 70
     1
102
RTVSPropertyOp48
 70
     1
102
RTVSPropertyOp49
 70
     1
102
RTVSPropertyOp50
 70
     1
102
RTVSPropertyOp51
 70
     0
102
RTVSPropertyOp52
 70
     0
102
RTVSPropertyOp53
 70
     1
102
RTVSPropertyOp54
 70
     1
102
RTVSPropertyOp55
 70
     1
102
RTVSPropertyOp56
 70
     1
102
RTVSPropertyOp57
 70
     1
102
RTVSPropertyOp58
 70
     1
102
RTVSPropertyOp59
 70
     1
102
RTVSPropertyOp60
 70
     1
102
RTVSPropertyOp61
 70
     1
102
RTVSPropertyOp62
 70
     1
  0
XRECORD
  5
87AB
102
{ACAD_REACTORS
330
87AA
102
}
330
87AA
100
AcDbXrecord
280
     1
102
RTVSPost2010Prop28
280
     0
102
RTVSPost2010PropOp28
 70
     1
102
RTVSPost2010Prop29
280
     1
102
RTVSPost2010PropOp29
 70
     1
102
RTVSPost2010Prop30
280
     1
102
RTVSPost2010PropOp30
 70
     1
102
RTVSPost2010Prop31
280
     0
102
RTVSPost2010PropOp31
 70
     1
102
RTVSPost2010Prop32
280
     0
102
RTVSPost2010PropOp32
 70
     1
102
RTVSPost2010Prop33
280
     0
102
RTVSPost2010PropOp33
 70
     1
102
RTVSPost2010Prop34
280
     0
102
RTVSPost2010PropOp34
 70
     1
102
RTVSPost2010Prop35
280
     0
102
RTVSPost2010PropOp35
 70
     1
102
RTVSPost2010Prop36
280
     0
102
RTVSPost2010PropOp36
 70
     1
102
RTVSPost2010Prop37
 90
       50
102
RTVSPost2010PropOp37
 70
     1
102
RTVSPost2010Prop38
140
0.0
102
RTVSPost2010PropOp38
 70
     1
102
RTVSPost2010Prop39
140
1.0
102
RTVSPost2010PropOp39
 70
     1
102
RTVSPost2010Prop40
 90
        0
102
RTVSPost2010PropOp40
 70
     1
102
RTVSPost2010Prop41ColorIndex
 90
       18
102
RTVSPost2010Prop41ColorRGB
 90
        0
102
RTVSPost2010PropOp41
 70
     1
102
RTVSPost2010Prop42
 90
       50
102
RTVSPost2010PropOp42
 70
     1
102
RTVSPost2010Prop43
 90
        3
102
RTVSPost2010PropOp43
 70
     1
102
RTVSPost2010Prop44ColorIndex
 90
        5
102
RTVSPost2010Prop44ColorRGB
 90
      255
102
RTVSPost2010PropOp44
 70
     1
102
RTVSPost2010Prop45
280
     0
102
RTVSPost2010PropOp45
 70
     1
102
RTVSPost2010Prop46
 90
       50
102
RTVSPost2010PropOp46
 70
     1
102
RTVSPost2010Prop47
 90
       50
102
RTVSPost2010PropOp47
 70
     1
102
RTVSPost2010Prop48
 90
       50
102
RTVSPost2010PropOp48
 70
     1
102
RTVSPost2010Prop49
280
     0
102
RTVSPost2010PropOp49
 70
     1
102
RTVSPost2010Prop50
 90
       50
102
RTVSPost2010PropOp50
 70
     1
102
RTVSPost2010Prop51ColorIndex
 90
      256
102
RTVSPost2010Prop51ColorRGB
 90
-16777216
102
RTVSPost2010PropOp51
 70
     0
102
RTVSPost2010Prop52
140
1.0
102
RTVSPost2010PropOp52
 70
     0
102
RTVSPost2010Prop53
 90
        2
102
RTVSPost2010PropOp53
 70
     1
102
RTVSPost2010Prop54
  1
strokes_ogs.tif
102
RTVSPost2010PropOp54
 70
     1
102
RTVSPost2010Prop55
280
     0
102
RTVSPost2010PropOp55
 70
     1
102
RTVSPost2010Prop56
140
1.0
102
RTVSPost2010PropOp56
 70
     1
102
RTVSPost2010Prop57
140
1.0
102
RTVSPost2010PropOp57
 70
     1
102
RTVSPropertyOp0
 70
     1
102
RTVSPropertyOp1
 70
     1
102
RTVSPropertyOp2
 70
     1
102
RTVSPropertyOp3
 70
     1
102
RTVSPropertyOp4
 70
     1
102
RTVSPropertyOp5
 70
     1
102
RTVSPropertyOp6
 70
     1
102
RTVSPropertyOp7
 70
     1
102
RTVSPropertyOp8
 70
     1
102
RTVSPropertyOp9
 70
     1
102
RTVSPropertyOp10
 70
     1
102
RTVSPropertyOp11
 70
     1
102
RTVSPropertyOp12
 70
     1
102
RTVSPropertyOp13
 70
     1
102
RTVSPropertyOp14
 70
     1
102
RTVSPropertyOp15
 70
     1
102
RTVSPropertyOp16
 70
     1
102
RTVSPropertyOp17
 70
     1
102
RTVSPropertyOp18
 70
     1
102
RTVSPropertyOp19
 70
     1
102
RTVSPropertyOp20
 70
     1
102
RTVSPropertyOp21
 70
     1
102
RTVSPropertyOp22
 70
     1
102
RTVSPropertyOp23
 70
     1
102
RTVSPropertyOp24
 70
     1
102
RTVSPropertyOp25
 70
     1
102
RTVSPropertyOp26
 70
     1
102
RTVSPropertyOp27
 70
     1
102
RTVSPropertyOp28
 70
     1
102
RTVSPropertyOp29
 70
     1
102
RTVSPropertyOp30
 70
     1
102
RTVSPropertyOp31
 70
     1
102
RTVSPropertyOp32
 70
     1
102
RTVSPropertyOp33
 70
     1
102
RTVSPropertyOp34
 70
     1
102
RTVSPropertyOp35
 70
     1
102
RTVSPropertyOp36
 70
     1
102
RTVSPropertyOp37
 70
     1
102
RTVSPropertyOp38
 70
     1
102
RTVSPropertyOp39
 70
     1
102
RTVSPropertyOp40
 70
     1
102
RTVSPropertyOp41
 70
     1
102
RTVSPropertyOp42
 70
     1
102
RTVSPropertyOp43
 70
     1
102
RTVSPropertyOp44
 70
     1
102
RTVSPropertyOp45
 70
     1
102
RTVSPropertyOp46
 70
     1
102
RTVSPropertyOp47
 70
     1
102
RTVSPropertyOp48
 70
     1
102
RTVSPropertyOp49
 70
     1
102
RTVSPropertyOp50
 70
     1
102
RTVSPropertyOp51
 70
     0
102
RTVSPropertyOp52
 70
     0
102
RTVSPropertyOp53
 70
     1
102
RTVSPropertyOp54
 70
     1
102
RTVSPropertyOp55
 70
     1
102
RTVSPropertyOp56
 70
     1
102
RTVSPropertyOp57
 70
     1
102
RTVSPropertyOp58
 70
     1
102
RTVSPropertyOp59
 70
     1
102
RTVSPropertyOp60
 70
     1
102
RTVSPropertyOp61
 70
     1
102
RTVSPropertyOp62
 70
     1
  0
XRECORD
  5
87C3
102
{ACAD_REACTORS
330
87C2
102
}
330
87C2
100
AcDbXrecord
280
     1
102
RTVSPost2010Prop28
280
     0
102
RTVSPost2010PropOp28
 70
     1
102
RTVSPost2010Prop29
280
     1
102
RTVSPost2010PropOp29
 70
     1
102
RTVSPost2010Prop30
280
     1
102
RTVSPost2010PropOp30
 70
     1
102
RTVSPost2010Prop31
280
     0
102
RTVSPost2010PropOp31
 70
     1
102
RTVSPost2010Prop32
280
     0
102
RTVSPost2010PropOp32
 70
     1
102
RTVSPost2010Prop33
280
     0
102
RTVSPost2010PropOp33
 70
     1
102
RTVSPost2010Prop34
280
     0
102
RTVSPost2010PropOp34
 70
     1
102
RTVSPost2010Prop35
280
     0
102
RTVSPost2010PropOp35
 70
     1
102
RTVSPost2010Prop36
280
     0
102
RTVSPost2010PropOp36
 70
     1
102
RTVSPost2010Prop37
 90
       50
102
RTVSPost2010PropOp37
 70
     1
102
RTVSPost2010Prop38
140
0.0
102
RTVSPost2010PropOp38
 70
     1
102
RTVSPost2010Prop39
140
1.0
102
RTVSPost2010PropOp39
 70
     1
102
RTVSPost2010Prop40
 90
        0
102
RTVSPost2010PropOp40
 70
     1
102
RTVSPost2010Prop41ColorIndex
 90
       18
102
RTVSPost2010Prop41ColorRGB
 90
        0
102
RTVSPost2010PropOp41
 70
     1
102
RTVSPost2010Prop42
 90
       50
102
RTVSPost2010PropOp42
 70
     1
102
RTVSPost2010Prop43
 90
        3
102
RTVSPost2010PropOp43
 70
     1
102
RTVSPost2010Prop44ColorIndex
 90
        5
102
RTVSPost2010Prop44ColorRGB
 90
      255
102
RTVSPost2010PropOp44
 70
     1
102
RTVSPost2010Prop45
280
     0
102
RTVSPost2010PropOp45
 70
     1
102
RTVSPost2010Prop46
 90
       50
102
RTVSPost2010PropOp46
 70
     1
102
RTVSPost2010Prop47
 90
       50
102
RTVSPost2010PropOp47
 70
     1
102
RTVSPost2010Prop48
 90
       50
102
RTVSPost2010PropOp48
 70
     1
102
RTVSPost2010Prop49
280
     0
102
RTVSPost2010PropOp49
 70
     1
102
RTVSPost2010Prop50
 90
       50
102
RTVSPost2010PropOp50
 70
     1
102
RTVSPost2010Prop51ColorIndex
 90
      256
102
RTVSPost2010Prop51ColorRGB
 90
-16777216
102
RTVSPost2010PropOp51
 70
     0
102
RTVSPost2010Prop52
140
1.0
102
RTVSPost2010PropOp52
 70
     0
102
RTVSPost2010Prop53
 90
        2
102
RTVSPost2010PropOp53
 70
     1
102
RTVSPost2010Prop54
  1
strokes_ogs.tif
102
RTVSPost2010PropOp54
 70
     1
102
RTVSPost2010Prop55
280
     0
102
RTVSPost2010PropOp55
 70
     1
102
RTVSPost2010Prop56
140
1.0
102
RTVSPost2010PropOp56
 70
     1
102
RTVSPost2010Prop57
140
1.0
102
RTVSPost2010PropOp57
 70
     1
102
RTVSPropertyOp0
 70
     1
102
RTVSPropertyOp1
 70
     1
102
RTVSPropertyOp2
 70
     1
102
RTVSPropertyOp3
 70
     1
102
RTVSPropertyOp4
 70
     1
102
RTVSPropertyOp5
 70
     1
102
RTVSPropertyOp6
 70
     1
102
RTVSPropertyOp7
 70
     1
102
RTVSPropertyOp8
 70
     1
102
RTVSPropertyOp9
 70
     1
102
RTVSPropertyOp10
 70
     1
102
RTVSPropertyOp11
 70
     1
102
RTVSPropertyOp12
 70
     1
102
RTVSPropertyOp13
 70
     1
102
RTVSPropertyOp14
 70
     1
102
RTVSPropertyOp15
 70
     1
102
RTVSPropertyOp16
 70
     1
102
RTVSPropertyOp17
 70
     1
102
RTVSPropertyOp18
 70
     1
102
RTVSPropertyOp19
 70
     1
102
RTVSPropertyOp20
 70
     1
102
RTVSPropertyOp21
 70
     1
102
RTVSPropertyOp22
 70
     1
102
RTVSPropertyOp23
 70
     1
102
RTVSPropertyOp24
 70
     1
102
RTVSPropertyOp25
 70
     1
102
RTVSPropertyOp26
 70
     1
102
RTVSPropertyOp27
 70
     1
102
RTVSPropertyOp28
 70
     1
102
RTVSPropertyOp29
 70
     1
102
RTVSPropertyOp30
 70
     1
102
RTVSPropertyOp31
 70
     1
102
RTVSPropertyOp32
 70
     1
102
RTVSPropertyOp33
 70
     1
102
RTVSPropertyOp34
 70
     1
102
RTVSPropertyOp35
 70
     1
102
RTVSPropertyOp36
 70
     1
102
RTVSPropertyOp37
 70
     1
102
RTVSPropertyOp38
 70
     1
102
RTVSPropertyOp39
 70
     1
102
RTVSPropertyOp40
 70
     1
102
RTVSPropertyOp41
 70
     1
102
RTVSPropertyOp42
 70
     1
102
RTVSPropertyOp43
 70
     1
102
RTVSPropertyOp44
 70
     1
102
RTVSPropertyOp45
 70
     1
102
RTVSPropertyOp46
 70
     1
102
RTVSPropertyOp47
 70
     1
102
RTVSPropertyOp48
 70
     1
102
RTVSPropertyOp49
 70
     1
102
RTVSPropertyOp50
 70
     1
102
RTVSPropertyOp51
 70
     0
102
RTVSPropertyOp52
 70
     0
102
RTVSPropertyOp53
 70
     1
102
RTVSPropertyOp54
 70
     1
102
RTVSPropertyOp55
 70
     1
102
RTVSPropertyOp56
 70
     1
102
RTVSPropertyOp57
 70
     1
102
RTVSPropertyOp58
 70
     1
102
RTVSPropertyOp59
 70
     1
102
RTVSPropertyOp60
 70
     1
102
RTVSPropertyOp61
 70
     1
102
RTVSPropertyOp62
 70
     1
  0
ENDSEC
  0
EOF
