  0
SECTION
  2
HEADER
  9
$ACADVER
  1
AC1015
  9
$ACADMAINTVER
 70
    20
  9
$DWGCODEPAGE
  3
ANSI_932
  9
$INSBASE
 10
0.0
 20
0.0
 30
0.0
  9
$EXTMIN
 10
-0.2563280987742473
 20
-0.3600799482810544
 30
-0.0015258207003583
  9
$EXTMAX
 10
8400.256367214323
 20
11800.3601348963
 30
0.0000000349246037
  9
$LIMMIN
 10
0.0
 20
0.0
  9
$LIMMAX
 10
297.0
 20
210.0
  9
$ORTHOMODE
 70
     1
  9
$REGENMODE
 70
     1
  9
$FILLMODE
 70
     0
  9
$QTEXTMODE
 70
     0
  9
$MIRRTEXT
 70
     1
  9
$LTSCALE
 40
100.0
  9
$ATTMODE
 70
     1
  9
$TEXTSIZE
 40
180.0
  9
$TRACEWID
 40
0.05
  9
$TEXTSTYLE
  7
STANDARD
  9
$CLAYER
  8
3
  9
$CELTYPE
  6
ByLayer
  9
$CECOLOR
 62
   256
  9
$CELTSCALE
 40
1.0
  9
$DISPSILH
 70
     0
  9
$DIMSCALE
 40
40.0
  9
$DIMASZ
 40
2.0
  9
$DIMEXO
 40
0.5
  9
$DIMDLI
 40
10.0
  9
$DIMRND
 40
0.0
  9
$DIMDLE
 40
0.0
  9
$DIMEXE
 40
1.0
  9
$DIMTP
 40
1.0
  9
$DIMTM
 40
1.0
  9
$DIMTXT
 40
3.0
  9
$DIMCEN
 40
0.0
  9
$DIMTSZ
 40
0.0
  9
$DIMTOL
 70
     0
  9
$DIMLIM
 70
     0
  9
$DIMTIH
 70
     0
  9
$DIMTOH
 70
     0
  9
$DIMSE1
 70
     0
  9
$DIMSE2
 70
     0
  9
$DIMTAD
 70
     1
  9
$DIMZIN
 70
     8
  9
$DIMBLK
  1

  9
$DIMASO
 70
     1
  9
$DIMSHO
 70
     1
  9
$DIMPOST
  1

  9
$DIMAPOST
  1

  9
$DIMALT
 70
     0
  9
$DIMALTD
 70
     2
  9
$DIMALTF
 40
0.039
  9
$DIMLFAC
 40
1.0
  9
$DIMTOFL
 70
     1
  9
$DIMTVP
 40
0.0
  9
$DIMTIX
 70
     0
  9
$DIMSOXD
 70
     0
  9
$DIMSAH
 70
     1
  9
$DIMBLK1
  1
OPEN
  9
$DIMBLK2
  1
OPEN
  9
$DIMSTYLE
  2
IGA
  9
$DIMCLRD
 70
     0
  9
$DIMCLRE
 70
     0
  9
$DIMCLRT
 70
     0
  9
$DIMTFAC
 40
10.0
  9
$DIMGAP
 40
1.0
  9
$DIMJUST
 70
     0
  9
$DIMSD1
 70
     0
  9
$DIMSD2
 70
     0
  9
$DIMTOLJ
 70
     1
  9
$DIMTZIN
 70
     0
  9
$DIMALTZ
 70
     0
  9
$DIMALTTZ
 70
     0
  9
$DIMUPT
 70
     0
  9
$DIMDEC
 70
     4
  9
$DIMTDEC
 70
     4
  9
$DIMALTU
 70
     2
  9
$DIMALTTD
 70
     2
  9
$DIMTXSTY
  7
STANDARD
  9
$DIMAUNIT
 70
     0
  9
$DIMADEC
 70
     0
  9
$DIMALTRND
 40
0.0
  9
$DIMAZIN
 70
     0
  9
$DIMDSEP
 70
    46
  9
$DIMATFIT
 70
     3
  9
$DIMFRAC
 70
     0
  9
$DIMLDRBLK
  1
OPEN
  9
$DIMLUNIT
 70
     2
  9
$DIMLWD
 70
    -2
  9
$DIMLWE
 70
    -2
  9
$DIMTMOVE
 70
     0
  9
$LUNITS
 70
     2
  9
$LUPREC
 70
     3
  9
$SKETCHINC
 40
0.1
  9
$FILLETRAD
 40
50.0
  9
$AUNITS
 70
     0
  9
$AUPREC
 70
     0
  9
$MENU
  1
acad
  9
$ELEVATION
 40
0.0
  9
$PELEVATION
 40
0.0
  9
$THICKNESS
 40
0.0
  9
$LIMCHECK
 70
     0
  9
$CHAMFERA
 40
0.5
  9
$CHAMFERB
 40
0.5
  9
$CHAMFERC
 40
0.0
  9
$CHAMFERD
 40
0.0
  9
$SKPOLY
 70
     0
  9
$TDCREATE
 40
2451897.649359722
  9
$TDUCREATE
 40
2451897.274359722
  9
$TDUPDATE
 40
2460280.743968310
  9
$TDUUPDATE
 40
2460280.368968311
  9
$TDINDWG
 40
0.0567755440
  9
$TDUSRTIMER
 40
0.0567752894
  9
$USRTIMER
 70
     1
  9
$ANGBASE
 50
0.0
  9
$ANGDIR
 70
     0
  9
$PDMODE
 70
     0
  9
$PDSIZE
 40
0.0
  9
$PLINEWID
 40
0.0
  9
$SPLFRAME
 70
     0
  9
$SPLINETYPE
 70
     6
  9
$SPLINESEGS
 70
     8
  9
$HANDSEED
  5
86EE
  9
$SURFTAB1
 70
     6
  9
$SURFTAB2
 70
     6
  9
$SURFTYPE
 70
     6
  9
$SURFU
 70
     6
  9
$SURFV
 70
     6
  9
$UCSBASE
  2

  9
$UCSNAME
  2

  9
$UCSORG
 10
0.0
 20
0.0
 30
0.0
  9
$UCSXDIR
 10
1.0
 20
0.0
 30
0.0
  9
$UCSYDIR
 10
0.0
 20
1.0
 30
0.0
  9
$UCSORTHOREF
  2

  9
$UCSORTHOVIEW
 70
     0
  9
$UCSORGTOP
 10
0.0
 20
0.0
 30
0.0
  9
$UCSORGBOTTOM
 10
0.0
 20
0.0
 30
0.0
  9
$UCSORGLEFT
 10
0.0
 20
0.0
 30
0.0
  9
$UCSORGRIGHT
 10
0.0
 20
0.0
 30
0.0
  9
$UCSORGFRONT
 10
0.0
 20
0.0
 30
0.0
  9
$UCSORGBACK
 10
0.0
 20
0.0
 30
0.0
  9
$PUCSBASE
  2

  9
$PUCSNAME
  2

  9
$PUCSORG
 10
0.0
 20
0.0
 30
0.0
  9
$PUCSXDIR
 10
1.0
 20
0.0
 30
0.0
  9
$PUCSYDIR
 10
0.0
 20
1.0
 30
0.0
  9
$PUCSORTHOREF
  2

  9
$PUCSORTHOVIEW
 70
     0
  9
$PUCSORGTOP
 10
0.0
 20
0.0
 30
0.0
  9
$PUCSORGBOTTOM
 10
0.0
 20
0.0
 30
0.0
  9
$PUCSORGLEFT
 10
0.0
 20
0.0
 30
0.0
  9
$PUCSORGRIGHT
 10
0.0
 20
0.0
 30
0.0
  9
$PUCSORGFRONT
 10
0.0
 20
0.0
 30
0.0
  9
$PUCSORGBACK
 10
0.0
 20
0.0
 30
0.0
  9
$USERI1
 70
     0
  9
$USERI2
 70
     0
  9
$USERI3
 70
     0
  9
$USERI4
 70
     0
  9
$USERI5
 70
     0
  9
$USERR1
 40
0.0
  9
$USERR2
 40
0.0
  9
$USERR3
 40
0.0
  9
$USERR4
 40
0.0
  9
$USERR5
 40
0.0
  9
$WORLDVIEW
 70
     1
  9
$SHADEDGE
 70
     3
  9
$SHADEDIF
 70
    70
  9
$TILEMODE
 70
     1
  9
$MAXACTVP
 70
    16
  9
$PINSBASE
 10
0.0
 20
0.0
 30
0.0
  9
$PLIMCHECK
 70
     0
  9
$PEXTMIN
 10
1.000000000000000E+20
 20
1.000000000000000E+20
 30
1.000000000000000E+20
  9
$PEXTMAX
 10
-1.000000000000000E+20
 20
-1.000000000000000E+20
 30
-1.000000000000000E+20
  9
$PLIMMIN
 10
0.0
 20
0.0
  9
$PLIMMAX
 10
12.0
 20
9.0
  9
$UNITMODE
 70
     0
  9
$VISRETAIN
 70
     0
  9
$PLINEGEN
 70
     0
  9
$PSLTSCALE
 70
     1
  9
$TREEDEPTH
 70
  3020
  9
$CMLSTYLE
  2
Standard
  9
$CMLJUST
 70
     0
  9
$CMLSCALE
 40
1.0
  9
$PROXYGRAPHICS
 70
     1
  9
$MEASUREMENT
 70
     0
  9
$CELWEIGHT
370
    -1
  9
$ENDCAPS
280
     0
  9
$JOINSTYLE
280
     0
  9
$LWDISPLAY
290
     0
  9
$INSUNITS
 70
     0
  9
$HYPERLINKBASE
  1

  9
$STYLESHEET
  1

  9
$XEDIT
290
     1
  9
$CEPSNTYPE
380
     0
  9
$PSTYLEMODE
290
     1
  9
$FINGERPRINTGUID
  2
{BE6D7A93-9B64-49E7-B671-EA6386B3E1A2}
  9
$VERSIONGUID
  2
{26A46F4B-BC61-4B5F-9BE6-0A7FD5B095FC}
  9
$EXTNAMES
290
     1
  9
$PSVPSCALE
 40
0.0
  9
$OLESTARTUP
290
     0
  0
ENDSEC
  0
SECTION
  2
CLASSES
  0
CLASS
  1
ACDBDICTIONARYWDFLT
  2
AcDbDictionaryWithDefault
  3
ObjectDBX Classes
 90
        0
280
     0
281
     0
  0
CLASS
  1
MATERIAL
  2
AcDbMaterial
  3
ObjectDBX Classes
 90
     1153
280
     0
281
     0
  0
CLASS
  1
VISUALSTYLE
  2
AcDbVisualStyle
  3
ObjectDBX Classes
 90
     4095
280
     0
281
     0
  0
CLASS
  1
SCALE
  2
AcDbScale
  3
ObjectDBX Classes
 90
     1153
280
     0
281
     0
  0
CLASS
  1
TABLESTYLE
  2
AcDbTableStyle
  3
ObjectDBX Classes
 90
     4095
280
     0
281
     0
  0
CLASS
  1
MLEADERSTYLE
  2
AcDbMLeaderStyle
  3
ACDB_MLEADERSTYLE_CLASS
 90
     4095
280
     0
281
     0
  0
CLASS
  1
ACDBSECTIONVIEWSTYLE
  2
AcDbSectionViewStyle
  3
ObjectDBX Classes
 90
     1025
280
     0
281
     0
  0
CLASS
  1
ACDBDETAILVIEWSTYLE
  2
AcDbDetailViewStyle
  3
ObjectDBX Classes
 90
     1025
280
     0
281
     0
  0
CLASS
  1
DICTIONARYVAR
  2
AcDbDictionaryVar
  3
ObjectDBX Classes
 90
        0
280
     0
281
     0
  0
CLASS
  1
CELLSTYLEMAP
  2
AcDbCellStyleMap
  3
ObjectDBX Classes
 90
     1152
280
     0
281
     0
  0
CLASS
  1
SORTENTSTABLE
  2
AcDbSortentsTable
  3
ObjectDBX Classes
 90
        0
280
     0
281
     0
  0
CLASS
  1
ACDBPLACEHOLDER
  2
AcDbPlaceHolder
  3
ObjectDBX Classes
 90
        0
280
     0
281
     0
  0
CLASS
  1
LAYOUT
  2
AcDbLayout
  3
ObjectDBX Classes
 90
        0
280
     0
281
     0
  0
ENDSEC
  0
SECTION
  2
TABLES
  0
TABLE
  2
VPORT
  5
8335
330
0
100
AcDbSymbolTable
 70
     1
  0
VPORT
  5
83A1
330
8335
100
AcDbSymbolTableRecord
100
AcDbViewportTableRecord
  2
*ACTIVE
 70
     0
 10
0.0
 20
0.0
 11
1.0
 21
1.0
 12
4200.000019557773
 22
5900.000027474012
 13
0.0
 23
0.0
 14
10.0
 24
10.0
 15
10.0
 25
10.0
 16
0.0
 26
0.0
 36
1.0
 17
0.0
 27
0.0
 37
0.0
 40
11876.28512550527
 41
2.050213675213675
 42
50.0
 43
0.0
 44
0.0
 50
0.0
 51
0.0
 71
     0
 72
   100
 73
     1
 74
     0
 75
     0
 76
     0
 77
     0
 78
     0
281
     0
 65
     1
110
0.0
120
0.0
130
0.0
111
1.0
121
0.0
131
0.0
112
0.0
122
1.0
132
0.0
 79
     0
146
0.0
1001
ACAD_NAV_VCDISPLAY
1070
     3
  0
ENDTAB
  0
TABLE
  2
LTYPE
  5
8332
330
0
100
AcDbSymbolTable
 70
     3
  0
LTYPE
  5
8387
330
8332
100
AcDbSymbolTableRecord
100
AcDbLinetypeTableRecord
  2
ByBlock
 70
     0
  3

 72
    65
 73
     0
 40
0.0
  0
LTYPE
  5
8388
330
8332
100
AcDbSymbolTableRecord
100
AcDbLinetypeTableRecord
  2
ByLayer
 70
     0
  3

 72
    65
 73
     0
 40
0.0
  0
LTYPE
  5
8389
330
8332
100
AcDbSymbolTableRecord
100
AcDbLinetypeTableRecord
  2
CONTINUOUS
 70
     0
  3
Solid line
 72
    65
 73
     0
 40
0.0
  0
LTYPE
  5
83A2
330
8332
100
AcDbSymbolTableRecord
100
AcDbLinetypeTableRecord
  2
CENTER
 70
     0
  3
____ _ ____ _ ____ _ ____ _ ____ _ ____ _ ____ 
 72
    65
 73
     4
 40
2.0
 49
1.25
 74
     0
 49
-0.25
 74
     0
 49
0.25
 74
     0
 49
-0.25
 74
     0
  0
ENDTAB
  0
TABLE
  2
LAYER
  5
832F
330
0
100
AcDbSymbolTable
 70
     6
  0
LAYER
  5
8381
102
{ACAD_XDICTIONARY
360
83E4
102
}
330
832F
100
AcDbSymbolTableRecord
100
AcDbLayerTableRecord
  2
0
 70
     0
 62
     7
  6
CONTINUOUS
370
    -3
390
833C
  0
LAYER
  5
83A0
102
{ACAD_XDICTIONARY
360
83E6
102
}
330
832F
100
AcDbSymbolTableRecord
100
AcDbLayerTableRecord
  2
3
 70
     0
 62
     2
  6
CONTINUOUS
370
    -3
390
833C
  0
LAYER
  5
83A3
102
{ACAD_XDICTIONARY
360
83E8
102
}
330
832F
100
AcDbSymbolTableRecord
100
AcDbLayerTableRecord
  2
2
 70
     0
 62
     3
  6
CENTER
370
    -3
390
833C
  0
LAYER
  5
83A4
102
{ACAD_XDICTIONARY
360
83EA
102
}
330
832F
100
AcDbSymbolTableRecord
100
AcDbLayerTableRecord
  2
1
 70
     0
 62
     4
  6
CONTINUOUS
370
    -3
390
833C
  0
LAYER
  5
83A5
102
{ACAD_XDICTIONARY
360
83EC
102
}
330
832F
100
AcDbSymbolTableRecord
100
AcDbLayerTableRecord
  2
4
 70
     0
 62
     7
  6
CONTINUOUS
370
    -3
390
833C
  0
LAYER
  5
83A6
330
832F
100
AcDbSymbolTableRecord
100
AcDbLayerTableRecord
  2
DEFPOINTS
 70
     0
 62
     7
  6
CONTINUOUS
290
     0
370
    -3
390
833C
  0
ENDTAB
  0
TABLE
  2
STYLE
  5
8330
330
0
100
AcDbSymbolTable
 70
     2
  0
STYLE
  5
8382
330
8330
100
AcDbSymbolTableRecord
100
AcDbTextStyleTableRecord
  2
STANDARD
 70
     0
 40
0.0
 41
1.0
 50
0.0
 71
     0
 42
180.0
  3
simplex.shx
  4
extfont.shx
  0
STYLE
  5
8386
330
8330
100
AcDbSymbolTableRecord
100
AcDbTextStyleTableRecord
  2
Annotative
 70
     0
 40
0.0
 41
1.0
 50
0.0
 71
     0
 42
0.2
  3
txt
  4

1001
AcadAnnotative
1000
AnnotativeData
1002
{
1070
     1
1070
     1
1002
}
  0
ENDTAB
  0
TABLE
  2
VIEW
  5
8333
330
0
100
AcDbSymbolTable
 70
     0
  0
ENDTAB
  0
TABLE
  2
UCS
  5
8334
330
0
100
AcDbSymbolTable
 70
     0
  0
ENDTAB
  0
TABLE
  2
APPID
  5
8336
330
0
100
AcDbSymbolTable
 70
     8
  0
APPID
  5
8383
330
8336
100
AcDbSymbolTableRecord
100
AcDbRegAppTableRecord
  2
ACAD
 70
     0
  0
APPID
  5
838A
330
8336
100
AcDbSymbolTableRecord
100
AcDbRegAppTableRecord
  2
AcadAnnotative
 70
     0
  0
APPID
  5
83F8
330
8336
100
AcDbSymbolTableRecord
100
AcDbRegAppTableRecord
  2
ACAD_NAV_VCDISPLAY
 70
     0
  0
APPID
  5
843B
330
8336
100
AcDbSymbolTableRecord
100
AcDbRegAppTableRecord
  2
ACAD_DSTYLE_DIMJAG
 70
     0
  0
APPID
  5
843C
330
8336
100
AcDbSymbolTableRecord
100
AcDbRegAppTableRecord
  2
ACAD_DSTYLE_DIMTALN
 70
     0
  0
APPID
  5
8490
330
8336
100
AcDbSymbolTableRecord
100
AcDbRegAppTableRecord
  2
AcadAnnoMonitorAlertIconDisabled
 70
     0
  0
APPID
  5
8491
330
8336
100
AcDbSymbolTableRecord
100
AcDbRegAppTableRecord
  2
ACAD_EXEMPT_FROM_CAD_STANDARDS
 70
     0
  0
APPID
  5
86E5
330
8336
100
AcDbSymbolTableRecord
100
AcDbRegAppTableRecord
  2
ACAD_MLEADERVER
 70
     0
  0
ENDTAB
  0
TABLE
  2
DIMSTYLE
  5
8337
330
0
100
AcDbSymbolTable
 70
     3
100
AcDbDimStyleTable
 71
     1
340
83A7
  0
DIMSTYLE
105
8384
102
{ACAD_REACTORS
330
814B
330
8158
330
8165
330
8172
102
}
330
8337
100
AcDbSymbolTableRecord
100
AcDbDimStyleTableRecord
  2
Standard
 70
     0
340
8382
  0
DIMSTYLE
105
8385
330
8337
100
AcDbSymbolTableRecord
100
AcDbDimStyleTableRecord
  2
Annotative
 70
     0
340
8382
1001
AcadAnnotative
1000
AnnotativeData
1002
{
1070
     1
1070
     1
1002
}
  0
DIMSTYLE
105
83A7
102
{ACAD_REACTORS
330
8441
330
844E
330
845B
330
8468
330
84D2
330
84DF
330
84EC
330
84F9
330
8506
330
8513
330
8520
330
852D
330
853A
330
8547
330
8554
330
8561
330
8573
330
8585
102
}
330
8337
100
AcDbSymbolTableRecord
100
AcDbDimStyleTableRecord
  2
IGA
 70
     0
 40
2.0
 41
2.0
 42
0.5
 43
10.0
 44
1.0
 47
1.0
 48
1.0
 73
     0
 74
     0
 77
     1
 78
     8
140
3.0
141
0.0
143
0.03937
146
10.0
147
1.0
173
     1
271
     3
272
     3
279
     2
284
     8
285
     8
286
     8
340
8382
  0
ENDTAB
  0
TABLE
  2
BLOCK_RECORD
  5
832E
330
0
100
AcDbSymbolTable
 70
    48
  0
BLOCK_RECORD
  5
839C
102
{ACAD_XDICTIONARY
360
843E
102
}
330
832E
100
AcDbSymbolTableRecord
100
AcDbBlockTableRecord
  2
*Model_Space
340
839F
  0
BLOCK_RECORD
  5
8398
330
832E
100
AcDbSymbolTableRecord
100
AcDbBlockTableRecord
  2
*Paper_Space
340
839B
  0
BLOCK_RECORD
  5
83AB
330
832E
100
AcDbSymbolTableRecord
100
AcDbBlockTableRecord
  2
$MODEL_SPACE
340
0
  0
BLOCK_RECORD
  5
83AD
330
832E
100
AcDbSymbolTableRecord
100
AcDbBlockTableRecord
  2
$PAPER_SPACE
340
0
  0
BLOCK_RECORD
  5
83AF
330
832E
100
AcDbSymbolTableRecord
100
AcDbBlockTableRecord
  2
YA_N
340
0
102
{BLKREFS
331
7C23
331
7C50
331
7C77
331
7CCF
102
}
  0
BLOCK_RECORD
  5
83B1
330
832E
100
AcDbSymbolTableRecord
100
AcDbBlockTableRecord
  2
*D3
340
0
  0
BLOCK_RECORD
  5
83B3
330
832E
100
AcDbSymbolTableRecord
100
AcDbBlockTableRecord
  2
_OPEN
340
0
102
{BLKREFS
331
82F8
331
854E
331
854F
331
855B
331
855C
331
859E
331
859F
331
8300
331
8301
331
84E6
331
84E7
331
84F3
331
84F4
331
8500
331
8501
331
850D
331
850E
331
851A
331
851B
331
8527
331
8528
331
8534
331
8535
331
8541
331
8542
331
8309
331
830A
331
84B1
331
84B2
331
84C3
331
84C4
331
84CC
331
84CD
331
84D9
331
84DA
331
8187
331
8188
331
8455
331
8456
331
8315
331
8144
331
8145
331
8151
331
8152
331
815E
331
815F
331
816B
331
816C
331
828B
331
828C
331
8294
331
8295
331
829D
331
829E
331
82A6
331
82A7
331
82AF
331
82B0
331
82B8
331
82B9
331
82C1
331
82C2
331
82CA
331
82CB
331
82D3
331
82D4
331
82DC
331
82DD
331
82E5
331
82E6
331
8693
331
86A7
331
86A8
331
82EE
331
82EF
331
8639
331
82F7
102
}
  0
BLOCK_RECORD
  5
83B4
330
832E
100
AcDbSymbolTableRecord
100
AcDbBlockTableRecord
  2
*D5
340
0
  0
BLOCK_RECORD
  5
83B6
330
832E
100
AcDbSymbolTableRecord
100
AcDbBlockTableRecord
  2
*D6
340
0
  0
BLOCK_RECORD
  5
83B8
330
832E
100
AcDbSymbolTableRecord
100
AcDbBlockTableRecord
  2
*D7
340
0
  0
BLOCK_RECORD
  5
83BA
330
832E
100
AcDbSymbolTableRecord
100
AcDbBlockTableRecord
  2
*D8
340
0
  0
BLOCK_RECORD
  5
83BC
330
832E
100
AcDbSymbolTableRecord
100
AcDbBlockTableRecord
  2
*D9
340
0
  0
BLOCK_RECORD
  5
83BE
330
832E
100
AcDbSymbolTableRecord
100
AcDbBlockTableRecord
  2
*D10
340
0
  0
BLOCK_RECORD
  5
83C0
330
832E
100
AcDbSymbolTableRecord
100
AcDbBlockTableRecord
  2
*D11
340
0
  0
BLOCK_RECORD
  5
83C2
330
832E
100
AcDbSymbolTableRecord
100
AcDbBlockTableRecord
  2
*D12
340
0
  0
BLOCK_RECORD
  5
83C4
330
832E
100
AcDbSymbolTableRecord
100
AcDbBlockTableRecord
  2
*D13
340
0
  0
BLOCK_RECORD
  5
83C6
330
832E
100
AcDbSymbolTableRecord
100
AcDbBlockTableRecord
  2
*D14
340
0
  0
BLOCK_RECORD
  5
83C8
330
832E
100
AcDbSymbolTableRecord
100
AcDbBlockTableRecord
  2
*D15
340
0
  0
BLOCK_RECORD
  5
83CA
330
832E
100
AcDbSymbolTableRecord
100
AcDbBlockTableRecord
  2
*D16
340
0
  0
BLOCK_RECORD
  5
83CC
330
832E
100
AcDbSymbolTableRecord
100
AcDbBlockTableRecord
  2
*D17
340
0
  0
BLOCK_RECORD
  5
83CE
330
832E
100
AcDbSymbolTableRecord
100
AcDbBlockTableRecord
  2
*D18
340
0
  0
BLOCK_RECORD
  5
83D1
330
832E
100
AcDbSymbolTableRecord
100
AcDbBlockTableRecord
  2
*D19
340
0
  0
BLOCK_RECORD
  5
83D3
330
832E
100
AcDbSymbolTableRecord
100
AcDbBlockTableRecord
  2
_DOT
340
0
102
{BLKREFS
331
8314
102
}
  0
BLOCK_RECORD
  5
83D5
330
832E
100
AcDbSymbolTableRecord
100
AcDbBlockTableRecord
  2
*D21
340
0
  0
BLOCK_RECORD
  5
83D7
330
832E
100
AcDbSymbolTableRecord
100
AcDbBlockTableRecord
  2
*D22
340
0
  0
BLOCK_RECORD
  5
83D9
330
832E
100
AcDbSymbolTableRecord
100
AcDbBlockTableRecord
  2
*D23
340
0
  0
BLOCK_RECORD
  5
83DB
330
832E
100
AcDbSymbolTableRecord
100
AcDbBlockTableRecord
  2
*D24
340
0
  0
BLOCK_RECORD
  5
83DD
330
832E
100
AcDbSymbolTableRecord
100
AcDbBlockTableRecord
  2
_NONE
340
0
  0
BLOCK_RECORD
  5
83DF
330
832E
100
AcDbSymbolTableRecord
100
AcDbBlockTableRecord
  2
*D26
340
0
  0
BLOCK_RECORD
  5
83E1
330
832E
100
AcDbSymbolTableRecord
100
AcDbBlockTableRecord
  2
*D27
340
0
  0
BLOCK_RECORD
  5
8442
330
832E
100
AcDbSymbolTableRecord
100
AcDbBlockTableRecord
  2
*D28
340
0
  0
BLOCK_RECORD
  5
844F
330
832E
100
AcDbSymbolTableRecord
100
AcDbBlockTableRecord
  2
*D29
340
0
  0
BLOCK_RECORD
  5
845C
330
832E
100
AcDbSymbolTableRecord
100
AcDbBlockTableRecord
  2
*D30
340
0
  0
BLOCK_RECORD
  5
8469
330
832E
100
AcDbSymbolTableRecord
100
AcDbBlockTableRecord
  2
*D31
340
0
  0
BLOCK_RECORD
  5
84D3
330
832E
100
AcDbSymbolTableRecord
100
AcDbBlockTableRecord
  2
*D32
340
0
  0
BLOCK_RECORD
  5
84E0
330
832E
100
AcDbSymbolTableRecord
100
AcDbBlockTableRecord
  2
*D33
340
0
  0
BLOCK_RECORD
  5
84ED
330
832E
100
AcDbSymbolTableRecord
100
AcDbBlockTableRecord
  2
*D34
340
0
  0
BLOCK_RECORD
  5
84FA
330
832E
100
AcDbSymbolTableRecord
100
AcDbBlockTableRecord
  2
*D35
340
0
  0
BLOCK_RECORD
  5
8507
330
832E
100
AcDbSymbolTableRecord
100
AcDbBlockTableRecord
  2
*D36
340
0
  0
BLOCK_RECORD
  5
8514
330
832E
100
AcDbSymbolTableRecord
100
AcDbBlockTableRecord
  2
*D37
340
0
  0
BLOCK_RECORD
  5
8521
330
832E
100
AcDbSymbolTableRecord
100
AcDbBlockTableRecord
  2
*D38
340
0
  0
BLOCK_RECORD
  5
852E
330
832E
100
AcDbSymbolTableRecord
100
AcDbBlockTableRecord
  2
*D39
340
0
  0
BLOCK_RECORD
  5
853B
330
832E
100
AcDbSymbolTableRecord
100
AcDbBlockTableRecord
  2
*D40
340
0
  0
BLOCK_RECORD
  5
8548
330
832E
100
AcDbSymbolTableRecord
100
AcDbBlockTableRecord
  2
*D41
340
0
  0
BLOCK_RECORD
  5
8555
330
832E
100
AcDbSymbolTableRecord
100
AcDbBlockTableRecord
  2
*D42
340
0
  0
BLOCK_RECORD
  5
8562
330
832E
100
AcDbSymbolTableRecord
100
AcDbBlockTableRecord
  2
*D43
340
0
  0
BLOCK_RECORD
  5
8574
330
832E
100
AcDbSymbolTableRecord
100
AcDbBlockTableRecord
  2
*D44
340
0
  0
BLOCK_RECORD
  5
8586
330
832E
100
AcDbSymbolTableRecord
100
AcDbBlockTableRecord
  2
*D45
340
0
  0
BLOCK_RECORD
  5
862C
330
832E
100
AcDbSymbolTableRecord
100
AcDbBlockTableRecord
  2
_DotSmall
340
0
102
{BLKREFS
331
8692
331
863A
102
}
  0
BLOCK_RECORD
  5
8698
330
832E
100
AcDbSymbolTableRecord
100
AcDbBlockTableRecord
  2
*D47
340
0
  0
ENDTAB
  0
ENDSEC
  0
SECTION
  2
BLOCKS
  0
BLOCK
  5
839D
330
839C
100
AcDbEntity
  8
0
100
AcDbBlockBegin
  2
*Model_Space
 70
     0
 10
0.0
 20
0.0
 30
0.0
  3
*Model_Space
  1

  0
ENDBLK
  5
839E
330
839C
100
AcDbEntity
  8
0
100
AcDbBlockEnd
  0
BLOCK
  5
8399
330
8398
100
AcDbEntity
 67
     1
  8
0
100
AcDbBlockBegin
  2
*Paper_Space
 70
     0
 10
0.0
 20
0.0
 30
0.0
  3
*Paper_Space
  1

  0
ENDBLK
  5
839A
330
8398
100
AcDbEntity
 67
     1
  8
0
100
AcDbBlockEnd
  0
BLOCK
  5
83AC
330
83AB
100
AcDbEntity
  8
0
100
AcDbBlockBegin
  2
$MODEL_SPACE
 70
     0
 10
0.0
 20
0.0
 30
0.0
  3
$MODEL_SPACE
  1

  0
ENDBLK
  5
1B
330
83AB
100
AcDbEntity
  8
0
100
AcDbBlockEnd
  0
BLOCK
  5
83AE
330
83AD
100
AcDbEntity
  8
0
100
AcDbBlockBegin
  2
$PAPER_SPACE
 70
     0
 10
0.0
 20
0.0
 30
0.0
  3
$PAPER_SPACE
  1

  0
ENDBLK
  5
18
330
83AD
100
AcDbEntity
  8
0
100
AcDbBlockEnd
  0
BLOCK
  5
83B0
330
83AF
100
AcDbEntity
  8
0
100
AcDbBlockBegin
  2
YA_N
 70
     0
 10
0.0
 20
0.0
 30
0.0
  3
YA_N
  1

  0
ENDBLK
  5
79FE
330
83AF
100
AcDbEntity
  8
0
100
AcDbBlockEnd
  0
BLOCK
  5
83B2
330
83B1
100
AcDbEntity
  8
0
100
AcDbBlockBegin
  2
*D3
 70
     1
 10
0.0
 20
0.0
 30
0.0
  3
*D3
  1

  0
LINE
  5
8288
330
83B1
100
AcDbEntity
  8
3
 62
     0
100
AcDbLine
 10
3691.156955993245
 20
5080.144075523783
 30
0.0
 11
3964.167988683202
 21
5080.144075523783
 31
0.0
  0
LINE
  5
8289
330
83B1
100
AcDbEntity
  8
3
 62
     0
100
AcDbLine
 10
3691.156955993245
 20
3800.144075523784
 30
0.0
 11
3964.167988683202
 21
3800.144075523784
 31
0.0
  0
LINE
  5
828A
330
83B1
100
AcDbEntity
  8
3
 62
     0
100
AcDbLine
 10
3924.167988683201
 20
5000.144075523785
 30
0.0
 11
3924.167988683201
 21
3880.144075523784
 31
0.0
  0
INSERT
  5
828B
330
83B1
100
AcDbEntity
  8
3
 62
     0
100
AcDbBlockReference
  2
_OPEN
 10
3924.167988683201
 20
5080.144075523783
 30
0.0
 41
80.0
 42
80.0
 43
80.0
 50
90.0
  0
INSERT
  5
828C
330
83B1
100
AcDbEntity
  8
3
 62
     0
100
AcDbBlockReference
  2
_OPEN
 10
3924.167988683201
 20
3800.144075523784
 30
0.0
 41
80.0
 42
80.0
 43
80.0
 50
270.0
  0
TEXT
  5
831D
330
83B1
100
AcDbEntity
  8
3
 62
     0
100
AcDbText
 10
3584.17
 20
4227.739999999999
 30
0.0
 40
120.0
  1
1280
100
AcDbText
  0
POINT
  5
828E
330
83B1
100
AcDbEntity
  8
DEFPOINTS
 62
     0
100
AcDbPoint
 10
3671.156955993246
 20
5080.144075523783
 30
0.0
  0
POINT
  5
828F
330
83B1
100
AcDbEntity
  8
DEFPOINTS
 62
     0
100
AcDbPoint
 10
3671.156955993246
 20
3800.144075523784
 30
0.0
  0
POINT
  5
8290
330
83B1
100
AcDbEntity
  8
DEFPOINTS
 62
     0
100
AcDbPoint
 10
3924.167988683201
 20
3800.144075523784
 30
0.0
  0
ENDBLK
  5
801D
330
83B1
100
AcDbEntity
  8
0
100
AcDbBlockEnd
  0
BLOCK
  5
83D0
330
83B3
100
AcDbEntity
  8
0
100
AcDbBlockBegin
  2
_OPEN
 70
     0
 10
0.0
 20
0.0
 30
0.0
  3
_OPEN
  1

  0
LINE
  5
7F33
330
83B3
100
AcDbEntity
  8
0
  6
ByBlock
 62
     0
100
AcDbLine
 10
-1.0
 20
0.1666666666666666
 30
0.0
 11
0.0
 21
0.0
 31
0.0
  0
LINE
  5
7F34
330
83B3
100
AcDbEntity
  8
0
  6
ByBlock
 62
     0
100
AcDbLine
 10
0.0
 20
0.0
 30
0.0
 11
-1.0
 21
-0.1666666666666666
 31
0.0
  0
LINE
  5
7F35
330
83B3
100
AcDbEntity
  8
0
  6
ByBlock
 62
     0
100
AcDbLine
 10
0.0
 20
0.0
 30
0.0
 11
-1.0
 21
0.0
 31
0.0
  0
ENDBLK
  5
7F36
330
83B3
100
AcDbEntity
  8
0
100
AcDbBlockEnd
  0
BLOCK
  5
83B5
330
83B4
100
AcDbEntity
  8
0
100
AcDbBlockBegin
  2
*D5
 70
     1
 10
0.0
 20
0.0
 30
0.0
  3
*D5
  1

  0
LINE
  5
8291
330
83B4
100
AcDbEntity
  8
3
 62
     0
100
AcDbLine
 10
3691.156955993245
 20
5080.144075523783
 30
0.0
 11
4211.230831139732
 21
5080.144075523783
 31
0.0
  0
LINE
  5
8292
330
83B4
100
AcDbEntity
  8
3
 62
     0
100
AcDbLine
 10
3769.593494242098
 20
3746.144075523783
 30
0.0
 11
4211.230831139732
 21
3746.144075523783
 31
0.0
  0
LINE
  5
8293
330
83B4
100
AcDbEntity
  8
3
 62
     0
100
AcDbLine
 10
4171.230831139732
 20
5000.144075523785
 30
0.0
 11
4171.230831139732
 21
3826.144075523784
 31
0.0
  0
INSERT
  5
8294
330
83B4
100
AcDbEntity
  8
3
 62
     0
100
AcDbBlockReference
  2
_OPEN
 10
4171.230831139732
 20
5080.144075523783
 30
0.0
 41
80.0
 42
80.0
 43
80.0
 50
90.0
  0
INSERT
  5
8295
330
83B4
100
AcDbEntity
  8
3
 62
     0
100
AcDbBlockReference
  2
_OPEN
 10
4171.230831139732
 20
3746.144075523783
 30
0.0
 41
80.0
 42
80.0
 43
80.0
 50
270.0
  0
TEXT
  5
831E
330
83B4
100
AcDbEntity
  8
3
 62
     0
100
AcDbText
 10
3831.23
 20
4200.739999999999
 30
0.0
 40
120.0
  1
1334
100
AcDbText
  0
POINT
  5
8297
330
83B4
100
AcDbEntity
  8
DEFPOINTS
 62
     0
100
AcDbPoint
 10
3671.156955993246
 20
5080.144075523783
 30
0.0
  0
POINT
  5
8298
330
83B4
100
AcDbEntity
  8
DEFPOINTS
 62
     0
100
AcDbPoint
 10
3749.593494242097
 20
3746.144075523783
 30
0.0
  0
POINT
  5
8299
330
83B4
100
AcDbEntity
  8
DEFPOINTS
 62
     0
100
AcDbPoint
 10
4171.230831139732
 20
3746.144075523783
 30
0.0
  0
ENDBLK
  5
8012
330
83B4
100
AcDbEntity
  8
0
100
AcDbBlockEnd
  0
BLOCK
  5
83B7
330
83B6
100
AcDbEntity
  8
0
100
AcDbBlockBegin
  2
*D6
 70
     1
 10
0.0
 20
0.0
 30
0.0
  3
*D6
  1

  0
LINE
  5
829A
330
83B6
100
AcDbEntity
  8
3
 62
     0
100
AcDbLine
 10
3671.156955993246
 20
5153.144075523783
 30
0.0
 11
3671.156955993246
 21
5422.667020841307
 31
0.0
  0
LINE
  5
829B
330
83B6
100
AcDbEntity
  8
3
 62
     0
100
AcDbLine
 10
2846.156955993246
 20
5121.429794629097
 30
0.0
 11
2846.156955993246
 21
5422.667020841307
 31
0.0
  0
LINE
  5
829C
330
83B6
100
AcDbEntity
  8
3
 62
     0
100
AcDbLine
 10
3591.156955993245
 20
5382.667020841306
 30
0.0
 11
2926.156955993246
 21
5382.667020841306
 31
0.0
  0
INSERT
  5
829D
330
83B6
100
AcDbEntity
  8
3
 62
     0
100
AcDbBlockReference
  2
_OPEN
 10
3671.156955993246
 20
5382.667020841306
 30
0.0
 41
80.0
 42
80.0
 43
80.0
  0
INSERT
  5
829E
330
83B6
100
AcDbEntity
  8
3
 62
     0
100
AcDbBlockReference
  2
_OPEN
 10
2846.156955993246
 20
5382.667020841306
 30
0.0
 41
80.0
 42
80.0
 43
80.0
 50
180.0
  0
TEXT
  5
831F
330
83B6
100
AcDbEntity
  8
3
 62
     0
100
AcDbText
 10
3018.66
 20
5270.27
 30
0.0
 40
120.0
  1
825
100
AcDbText
  0
POINT
  5
82A0
330
83B6
100
AcDbEntity
  8
DEFPOINTS
 62
     0
100
AcDbPoint
 10
3671.156955993246
 20
5133.144075523785
 30
0.0
  0
POINT
  5
82A1
330
83B6
100
AcDbEntity
  8
DEFPOINTS
 62
     0
100
AcDbPoint
 10
2846.156955993246
 20
5101.429794629098
 30
0.0
  0
POINT
  5
82A2
330
83B6
100
AcDbEntity
  8
DEFPOINTS
 62
     0
100
AcDbPoint
 10
2846.156955993246
 20
5382.667020841306
 30
0.0
  0
ENDBLK
  5
8007
330
83B6
100
AcDbEntity
  8
0
100
AcDbBlockEnd
  0
BLOCK
  5
83B9
330
83B8
100
AcDbEntity
  8
0
100
AcDbBlockBegin
  2
*D7
 70
     1
 10
0.0
 20
0.0
 30
0.0
  3
*D7
  1

  0
LINE
  5
82A3
330
83B8
100
AcDbEntity
  8
3
 62
     0
100
AcDbLine
 10
2846.156955993246
 20
5121.429794629097
 30
0.0
 11
2846.156955993246
 21
5422.667020841307
 31
0.0
  0
LINE
  5
82A4
330
83B8
100
AcDbEntity
  8
3
 62
     0
100
AcDbLine
 10
1771.356671382593
 20
3766.144075523783
 30
0.0
 11
1771.356671382593
 21
5422.667020841307
 31
0.0
  0
LINE
  5
82A5
330
83B8
100
AcDbEntity
  8
3
 62
     0
100
AcDbLine
 10
2766.156955993246
 20
5382.667020841306
 30
0.0
 11
1851.356671382593
 21
5382.667020841306
 31
0.0
  0
INSERT
  5
82A6
330
83B8
100
AcDbEntity
  8
3
 62
     0
100
AcDbBlockReference
  2
_OPEN
 10
2846.156955993246
 20
5382.667020841306
 30
0.0
 41
80.0
 42
80.0
 43
80.0
  0
INSERT
  5
82A7
330
83B8
100
AcDbEntity
  8
3
 62
     0
100
AcDbBlockReference
  2
_OPEN
 10
1771.356671382593
 20
5382.667020841306
 30
0.0
 41
80.0
 42
80.0
 43
80.0
 50
180.0
  0
TEXT
  5
8320
330
83B8
100
AcDbEntity
  8
3
 62
     0
100
AcDbText
 10
2068.760000000001
 20
5270.27
 30
0.0
 40
120.0
  1
1079
100
AcDbText
  0
POINT
  5
82A9
330
83B8
100
AcDbEntity
  8
DEFPOINTS
 62
     0
100
AcDbPoint
 10
2846.156955993246
 20
5101.429794629098
 30
0.0
  0
POINT
  5
82AA
330
83B8
100
AcDbEntity
  8
DEFPOINTS
 62
     0
100
AcDbPoint
 10
1771.356671382593
 20
3746.144075523783
 30
0.0
  0
POINT
  5
82AB
330
83B8
100
AcDbEntity
  8
DEFPOINTS
 62
     0
100
AcDbPoint
 10
1771.356671382593
 20
5382.667020841306
 30
0.0
  0
ENDBLK
  5
7FFC
330
83B8
100
AcDbEntity
  8
0
100
AcDbBlockEnd
  0
BLOCK
  5
83BB
330
83BA
100
AcDbEntity
  8
0
100
AcDbBlockBegin
  2
*D8
 70
     1
 10
0.0
 20
0.0
 30
0.0
  3
*D8
  1

  0
LINE
  5
82AC
330
83BA
100
AcDbEntity
  8
3
 62
     0
100
AcDbLine
 10
5476.500975653525
 20
5153.144075523783
 30
0.0
 11
5476.500975653525
 21
5421.543861990349
 31
0.0
  0
LINE
  5
82AD
330
83BA
100
AcDbEntity
  8
3
 62
     0
100
AcDbLine
 10
7176.500975653526
 20
5153.144075523783
 30
0.0
 11
7176.500975653526
 21
5421.543861990349
 31
0.0
  0
LINE
  5
82AE
330
83BA
100
AcDbEntity
  8
3
 62
     0
100
AcDbLine
 10
5556.500975653525
 20
5381.543861990349
 30
0.0
 11
7096.500975653525
 21
5381.543861990349
 31
0.0
  0
INSERT
  5
82AF
330
83BA
100
AcDbEntity
  8
3
 62
     0
100
AcDbBlockReference
  2
_OPEN
 10
5476.500975653525
 20
5381.543861990349
 30
0.0
 41
80.0
 42
80.0
 43
80.0
 50
180.0
  0
INSERT
  5
82B0
330
83BA
100
AcDbEntity
  8
3
 62
     0
100
AcDbBlockReference
  2
_OPEN
 10
7176.500975653526
 20
5381.543861990349
 30
0.0
 41
80.0
 42
80.0
 43
80.0
  0
TEXT
  5
8321
330
83BA
100
AcDbEntity
  8
3
 62
     0
100
AcDbText
 10
6086.5
 20
5269.14
 30
0.0
 40
120.0
  1
1700
100
AcDbText
  0
POINT
  5
82B2
330
83BA
100
AcDbEntity
  8
DEFPOINTS
 62
     0
100
AcDbPoint
 10
5476.500975653525
 20
5133.144075523785
 30
0.0
  0
POINT
  5
82B3
330
83BA
100
AcDbEntity
  8
DEFPOINTS
 62
     0
100
AcDbPoint
 10
7176.500975653526
 20
5133.144075523785
 30
0.0
  0
POINT
  5
82B4
330
83BA
100
AcDbEntity
  8
DEFPOINTS
 62
     0
100
AcDbPoint
 10
7176.500975653526
 20
5381.543861990349
 30
0.0
  0
ENDBLK
  5
7FF1
330
83BA
100
AcDbEntity
  8
0
100
AcDbBlockEnd
  0
BLOCK
  5
83BD
330
83BC
100
AcDbEntity
  8
0
100
AcDbBlockBegin
  2
*D9
 70
     1
 10
0.0
 20
0.0
 30
0.0
  3
*D9
  1

  0
LINE
  5
82B5
330
83BC
100
AcDbEntity
  8
3
 62
     0
100
AcDbLine
 10
5091.500975653526
 20
4046.144075523783
 30
0.0
 11
5091.500975653526
 21
5674.894753954436
 31
0.0
  0
LINE
  5
82B6
330
83BC
100
AcDbEntity
  8
3
 62
     0
100
AcDbLine
 10
6326.500975653526
 20
5570.201656594394
 30
0.0
 11
6326.500975653526
 21
5674.894753954436
 31
0.0
  0
LINE
  5
82B7
330
83BC
100
AcDbEntity
  8
3
 62
     0
100
AcDbLine
 10
5171.500975653526
 20
5634.894753954437
 30
0.0
 11
6246.500975653526
 21
5634.894753954437
 31
0.0
  0
INSERT
  5
82B8
330
83BC
100
AcDbEntity
  8
3
 62
     0
100
AcDbBlockReference
  2
_OPEN
 10
5091.500975653526
 20
5634.894753954437
 30
0.0
 41
80.0
 42
80.0
 43
80.0
 50
180.0
  0
INSERT
  5
82B9
330
83BC
100
AcDbEntity
  8
3
 62
     0
100
AcDbBlockReference
  2
_OPEN
 10
6326.500975653526
 20
5634.894753954437
 30
0.0
 41
80.0
 42
80.0
 43
80.0
  0
TEXT
  5
8322
330
83BC
100
AcDbEntity
  8
3
 62
     0
100
AcDbText
 10
5469.0
 20
5622.489999999999
 30
0.0
 40
120.0
  1
MAX
100
AcDbText
  0
TEXT
  5
8323
330
83BC
100
AcDbEntity
  8
3
 62
     0
100
AcDbText
 10
5469.0
 20
5466.49
 30
0.0
 40
120.0
  1
1280
100
AcDbText
  0
POINT
  5
82BB
330
83BC
100
AcDbEntity
  8
DEFPOINTS
 62
     0
100
AcDbPoint
 10
5091.500975653526
 20
4026.144075523784
 30
0.0
  0
POINT
  5
82BC
330
83BC
100
AcDbEntity
  8
DEFPOINTS
 62
     0
100
AcDbPoint
 10
6326.500975653526
 20
5550.201656594396
 30
0.0
  0
POINT
  5
82BD
330
83BC
100
AcDbEntity
  8
DEFPOINTS
 62
     0
100
AcDbPoint
 10
6326.500975653526
 20
5634.894753954437
 30
0.0
  0
ENDBLK
  5
8131
330
83BC
100
AcDbEntity
  8
0
100
AcDbBlockEnd
  0
BLOCK
  5
83BF
330
83BE
100
AcDbEntity
  8
0
100
AcDbBlockBegin
  2
*D10
 70
     1
 10
0.0
 20
0.0
 30
0.0
  3
*D10
  1

  0
LINE
  5
82BE
330
83BE
100
AcDbEntity
  8
3
 62
     0
100
AcDbLine
 10
6326.500975653526
 20
5619.504550509097
 30
0.0
 11
6326.500975653526
 21
5674.50716684925
 31
0.0
  0
LINE
  5
82BF
330
83BE
100
AcDbEntity
  8
3
 62
     0
100
AcDbLine
 10
7336.500975653523
 20
3661.48200662605
 30
0.0
 11
7336.500975653523
 21
5674.50716684925
 31
0.0
  0
LINE
  5
82C0
330
83BE
100
AcDbEntity
  8
3
 62
     0
100
AcDbLine
 10
6406.500975653526
 20
5634.50716684925
 30
0.0
 11
7256.500975653526
 21
5634.50716684925
 31
0.0
  0
INSERT
  5
82C1
330
83BE
100
AcDbEntity
  8
3
 62
     0
100
AcDbBlockReference
  2
_OPEN
 10
6326.500975653526
 20
5634.50716684925
 30
0.0
 41
80.0
 42
80.0
 43
80.0
 50
180.0
  0
INSERT
  5
82C2
330
83BE
100
AcDbEntity
  8
3
 62
     0
100
AcDbBlockReference
  2
_OPEN
 10
7336.500975653523
 20
5634.50716684925
 30
0.0
 41
80.0
 42
80.0
 43
80.0
  0
TEXT
  5
8324
330
83BE
100
AcDbEntity
  8
3
 62
     0
100
AcDbText
 10
6591.5
 20
5553.54
 30
0.0
 40
120.0
  1
(1020)
100
AcDbText
  0
POINT
  5
82C4
330
83BE
100
AcDbEntity
  8
DEFPOINTS
 62
     0
100
AcDbPoint
 10
6326.500975653526
 20
5599.504550509099
 30
0.0
  0
POINT
  5
82C5
330
83BE
100
AcDbEntity
  8
DEFPOINTS
 62
     0
100
AcDbPoint
 10
7336.500975653523
 20
3641.482006626051
 30
0.0
  0
POINT
  5
82C6
330
83BE
100
AcDbEntity
  8
DEFPOINTS
 62
     0
100
AcDbPoint
 10
7336.500975653523
 20
5634.50716684925
 30
0.0
  0
ENDBLK
  5
8126
330
83BE
100
AcDbEntity
  8
0
100
AcDbBlockEnd
  0
BLOCK
  5
83C1
330
83C0
100
AcDbEntity
  8
0
100
AcDbBlockBegin
  2
*D11
 70
     1
 10
0.0
 20
0.0
 30
0.0
  3
*D11
  1

  0
LINE
  5
82C7
330
83C0
100
AcDbEntity
  8
3
 62
     0
100
AcDbLine
 10
7198.800975653526
 20
4371.144075523782
 30
0.0
 11
7627.770600566029
 21
4371.144075523782
 31
0.0
  0
LINE
  5
82C8
330
83C0
100
AcDbEntity
  8
3
 62
     0
100
AcDbLine
 10
7198.800975653526
 20
3121.144075523782
 30
0.0
 11
7627.770600566029
 21
3121.144075523782
 31
0.0
  0
LINE
  5
82C9
330
83C0
100
AcDbEntity
  8
3
 62
     0
100
AcDbLine
 10
7587.77060056603
 20
4291.144075523782
 30
0.0
 11
7587.77060056603
 21
3201.144075523782
 31
0.0
  0
INSERT
  5
82CA
330
83C0
100
AcDbEntity
  8
3
 62
     0
100
AcDbBlockReference
  2
_OPEN
 10
7587.77060056603
 20
4371.144075523782
 30
0.0
 41
80.0
 42
80.0
 43
80.0
 50
90.0
  0
INSERT
  5
82CB
330
83C0
100
AcDbEntity
  8
3
 62
     0
100
AcDbBlockReference
  2
_OPEN
 10
7587.77060056603
 20
3121.144075523782
 30
0.0
 41
80.0
 42
80.0
 43
80.0
 50
270.0
  0
TEXT
  5
8325
330
83C0
100
AcDbEntity
  8
3
 62
     0
100
AcDbText
 10
7247.770000000001
 20
3533.74
 30
0.0
 40
120.0
  1
\U+03C61250
100
AcDbText
  0
POINT
  5
82CD
330
83C0
100
AcDbEntity
  8
DEFPOINTS
 62
     0
100
AcDbPoint
 10
7178.800975653527
 20
4371.144075523782
 30
0.0
  0
POINT
  5
82CE
330
83C0
100
AcDbEntity
  8
DEFPOINTS
 62
     0
100
AcDbPoint
 10
7178.800975653527
 20
3121.144075523782
 30
0.0
  0
POINT
  5
82CF
330
83C0
100
AcDbEntity
  8
DEFPOINTS
 62
     0
100
AcDbPoint
 10
7587.77060056603
 20
3121.144075523782
 30
0.0
  0
ENDBLK
  5
7FD0
330
83C0
100
AcDbEntity
  8
0
100
AcDbBlockEnd
  0
BLOCK
  5
83C3
330
83C2
100
AcDbEntity
  8
0
100
AcDbBlockBegin
  2
*D12
 70
     1
 10
0.0
 20
0.0
 30
0.0
  3
*D12
  1

  0
LINE
  5
82D0
330
83C2
100
AcDbEntity
  8
3
 62
     0
100
AcDbLine
 10
3769.593494242098
 20
3746.144075523783
 30
0.0
 11
4210.578222735581
 21
3746.144075523783
 31
0.0
  0
LINE
  5
82D1
330
83C2
100
AcDbEntity
  8
3
 62
     0
100
AcDbLine
 10
3616.156955993246
 20
2821.144075523783
 30
0.0
 11
4210.578222735581
 21
2821.144075523783
 31
0.0
  0
LINE
  5
82D2
330
83C2
100
AcDbEntity
  8
3
 62
     0
100
AcDbLine
 10
4170.57822273558
 20
3666.144075523784
 30
0.0
 11
4170.57822273558
 21
2901.144075523783
 31
0.0
  0
INSERT
  5
82D3
330
83C2
100
AcDbEntity
  8
3
 62
     0
100
AcDbBlockReference
  2
_OPEN
 10
4170.57822273558
 20
3746.144075523783
 30
0.0
 41
80.0
 42
80.0
 43
80.0
 50
90.0
  0
INSERT
  5
82D4
330
83C2
100
AcDbEntity
  8
3
 62
     0
100
AcDbBlockReference
  2
_OPEN
 10
4170.57822273558
 20
2821.144075523783
 30
0.0
 41
80.0
 42
80.0
 43
80.0
 50
270.0
  0
TEXT
  5
8326
330
83C2
100
AcDbEntity
  8
3
 62
     0
100
AcDbText
 10
3830.58
 20
3071.24
 30
0.0
 40
120.0
  1
925
100
AcDbText
  0
POINT
  5
82D6
330
83C2
100
AcDbEntity
  8
DEFPOINTS
 62
     0
100
AcDbPoint
 10
3749.593494242097
 20
3746.144075523783
 30
0.0
  0
POINT
  5
82D7
330
83C2
100
AcDbEntity
  8
DEFPOINTS
 62
     0
100
AcDbPoint
 10
3596.156955993246
 20
2821.144075523783
 30
0.0
  0
POINT
  5
82D8
330
83C2
100
AcDbEntity
  8
DEFPOINTS
 62
     0
100
AcDbPoint
 10
4170.57822273558
 20
2821.144075523783
 30
0.0
  0
ENDBLK
  5
7FAF
330
83C2
100
AcDbEntity
  8
0
100
AcDbBlockEnd
  0
BLOCK
  5
83C5
330
83C4
100
AcDbEntity
  8
0
100
AcDbBlockBegin
  2
*D13
 70
     1
 10
0.0
 20
0.0
 30
0.0
  3
*D13
  1

  0
LINE
  5
82D9
330
83C4
100
AcDbEntity
  8
3
 62
     0
100
AcDbLine
 10
3616.156955993246
 20
8525.027814553499
 30
0.0
 11
4085.17309722908
 21
8525.027814553499
 31
0.0
  0
LINE
  5
82DA
330
83C4
100
AcDbEntity
  8
3
 62
     0
100
AcDbLine
 10
3616.156955993246
 20
6405.027814553498
 30
0.0
 11
4085.173097229079
 21
6405.027814553498
 31
0.0
  0
LINE
  5
82DB
330
83C4
100
AcDbEntity
  8
3
 62
     0
100
AcDbLine
 10
4045.17309722908
 20
8445.027814553499
 30
0.0
 11
4045.173097229079
 21
6485.027814553497
 31
0.0
  0
INSERT
  5
82DC
330
83C4
100
AcDbEntity
  8
3
 62
     0
100
AcDbBlockReference
  2
_OPEN
 10
4045.17309722908
 20
8525.027814553499
 30
0.0
 41
80.0
 42
80.0
 43
80.0
 50
90.0
  0
INSERT
  5
82DD
330
83C4
100
AcDbEntity
  8
3
 62
     0
100
AcDbBlockReference
  2
_OPEN
 10
4045.173097229079
 20
6405.027814553498
 30
0.0
 41
80.0
 42
80.0
 43
80.0
 50
270.0
  0
TEXT
  5
8327
330
83C4
100
AcDbEntity
  8
3
 62
     0
100
AcDbText
 10
3705.170000000001
 20
7252.63
 30
0.0
 40
120.0
  1
2120
100
AcDbText
  0
POINT
  5
82DF
330
83C4
100
AcDbEntity
  8
DEFPOINTS
 62
     0
100
AcDbPoint
 10
3596.156955993246
 20
8525.027814553499
 30
0.0
  0
POINT
  5
82E0
330
83C4
100
AcDbEntity
  8
DEFPOINTS
 62
     0
100
AcDbPoint
 10
3596.156955993246
 20
6405.027814553498
 30
0.0
  0
POINT
  5
82E1
330
83C4
100
AcDbEntity
  8
DEFPOINTS
 62
     0
100
AcDbPoint
 10
4045.173097229079
 20
6405.027814553498
 30
0.0
  0
ENDBLK
  5
7F83
330
83C4
100
AcDbEntity
  8
0
100
AcDbBlockEnd
  0
BLOCK
  5
83C7
330
83C6
100
AcDbEntity
  8
0
100
AcDbBlockBegin
  2
*D14
 70
     1
 10
0.0
 20
0.0
 30
0.0
  3
*D14
  1

  0
LINE
  5
82E2
330
83C6
100
AcDbEntity
  8
3
 62
     0
100
AcDbLine
 10
3596.156955993246
 20
8545.027814553499
 30
0.0
 11
3596.156955993246
 21
8769.663953058682
 31
0.0
  0
LINE
  5
82E3
330
83C6
100
AcDbEntity
  8
3
 62
     0
100
AcDbLine
 10
2096.156955993245
 20
8545.027814553499
 30
0.0
 11
2096.156955993245
 21
8769.663953058682
 31
0.0
  0
LINE
  5
82E4
330
83C6
100
AcDbEntity
  8
3
 62
     0
100
AcDbLine
 10
3516.156955993245
 20
8729.663953058681
 30
0.0
 11
2176.156955993245
 21
8729.663953058681
 31
0.0
  0
INSERT
  5
82E5
330
83C6
100
AcDbEntity
  8
3
 62
     0
100
AcDbBlockReference
  2
_OPEN
 10
3596.156955993246
 20
8729.663953058681
 30
0.0
 41
80.0
 42
80.0
 43
80.0
  0
INSERT
  5
82E6
330
83C6
100
AcDbEntity
  8
3
 62
     0
100
AcDbBlockReference
  2
_OPEN
 10
2096.156955993245
 20
8729.663953058681
 30
0.0
 41
80.0
 42
80.0
 43
80.0
 50
180.0
  0
TEXT
  5
8328
330
83C6
100
AcDbEntity
  8
3
 62
     0
100
AcDbText
 10
2606.16
 20
8617.259999999999
 30
0.0
 40
120.0
  1
1500
100
AcDbText
  0
POINT
  5
82E8
330
83C6
100
AcDbEntity
  8
DEFPOINTS
 62
     0
100
AcDbPoint
 10
3596.156955993246
 20
8525.027814553499
 30
0.0
  0
POINT
  5
82E9
330
83C6
100
AcDbEntity
  8
DEFPOINTS
 62
     0
100
AcDbPoint
 10
2096.156955993245
 20
8525.027814553499
 30
0.0
  0
POINT
  5
82EA
330
83C6
100
AcDbEntity
  8
DEFPOINTS
 62
     0
100
AcDbPoint
 10
2096.156955993245
 20
8729.663953058681
 30
0.0
  0
ENDBLK
  5
7F78
330
83C6
100
AcDbEntity
  8
0
100
AcDbBlockEnd
  0
BLOCK
  5
83C9
330
83C8
100
AcDbEntity
  8
0
100
AcDbBlockBegin
  2
*D15
 70
     1
 10
0.0
 20
0.0
 30
0.0
  3
*D15
  1

  0
LINE
  5
82EB
330
83C8
100
AcDbEntity
  8
3
 62
     0
100
AcDbLine
 10
2096.156955993245
 20
8545.027814553499
 30
0.0
 11
2096.156955993245
 21
8769.663953058682
 31
0.0
  0
LINE
  5
82EC
330
83C8
100
AcDbEntity
  8
3
 62
     0
100
AcDbLine
 10
1146.156955993244
 20
7425.027814553499
 30
0.0
 11
1146.156955993244
 21
8769.663953058682
 31
0.0
  0
LINE
  5
82ED
330
83C8
100
AcDbEntity
  8
3
 62
     0
100
AcDbLine
 10
2016.156955993245
 20
8729.663953058681
 30
0.0
 11
1226.156955993245
 21
8729.663953058681
 31
0.0
  0
INSERT
  5
82EE
330
83C8
100
AcDbEntity
  8
3
 62
     0
100
AcDbBlockReference
  2
_OPEN
 10
2096.156955993245
 20
8729.663953058681
 30
0.0
 41
80.0
 42
80.0
 43
80.0
  0
INSERT
  5
82EF
330
83C8
100
AcDbEntity
  8
3
 62
     0
100
AcDbBlockReference
  2
_OPEN
 10
1146.156955993244
 20
8729.663953058681
 30
0.0
 41
80.0
 42
80.0
 43
80.0
 50
180.0
  0
TEXT
  5
8329
330
83C8
100
AcDbEntity
  8
3
 62
     0
100
AcDbText
 10
1381.16
 20
8617.259999999999
 30
0.0
 40
120.0
  1
950
100
AcDbText
  0
POINT
  5
82F1
330
83C8
100
AcDbEntity
  8
DEFPOINTS
 62
     0
100
AcDbPoint
 10
2096.156955993245
 20
8525.027814553499
 30
0.0
  0
POINT
  5
82F2
330
83C8
100
AcDbEntity
  8
DEFPOINTS
 62
     0
100
AcDbPoint
 10
1146.156955993244
 20
7405.027814553498
 30
0.0
  0
POINT
  5
82F3
330
83C8
100
AcDbEntity
  8
DEFPOINTS
 62
     0
100
AcDbPoint
 10
1146.156955993244
 20
8729.663953058681
 30
0.0
  0
ENDBLK
  5
7F6D
330
83C8
100
AcDbEntity
  8
0
100
AcDbBlockEnd
  0
BLOCK
  5
83CB
330
83CA
100
AcDbEntity
  8
0
100
AcDbBlockBegin
  2
*D16
 70
     1
 10
0.0
 20
0.0
 30
0.0
  3
*D16
  1

  0
LINE
  5
82F4
330
83CA
100
AcDbEntity
  8
3
 62
     0
100
AcDbLine
 10
1126.156955993245
 20
7405.027814553498
 30
0.0
 11
839.8305548856662
 21
7405.027814553498
 31
0.0
  0
LINE
  5
82F5
330
83CA
100
AcDbEntity
  8
3
 62
     0
100
AcDbLine
 10
1126.156955993245
 20
6405.027814553498
 30
0.0
 11
839.830554885666
 21
6405.027814553498
 31
0.0
  0
LINE
  5
82F6
330
83CA
100
AcDbEntity
  8
3
 62
     0
100
AcDbLine
 10
879.8305548856662
 20
7325.027814553497
 30
0.0
 11
879.8305548856658
 21
6485.027814553497
 31
0.0
  0
INSERT
  5
82F7
330
83CA
100
AcDbEntity
  8
3
 62
     0
100
AcDbBlockReference
  2
_OPEN
 10
879.8305548856662
 20
7405.027814553498
 30
0.0
 41
80.0
 42
80.0
 43
80.0
 50
90.0
  0
INSERT
  5
82F8
330
83CA
100
AcDbEntity
  8
3
 62
     0
100
AcDbBlockReference
  2
_OPEN
 10
879.8305548856658
 20
6405.027814553498
 30
0.0
 41
80.0
 42
80.0
 43
80.0
 50
270.0
  0
TEXT
  5
832A
330
83CA
100
AcDbEntity
  8
3
 62
     0
100
AcDbText
 10
539.831
 20
6692.63
 30
0.0
 40
120.0
  1
1000
100
AcDbText
  0
POINT
  5
82FA
330
83CA
100
AcDbEntity
  8
DEFPOINTS
 62
     0
100
AcDbPoint
 10
1146.156955993244
 20
7405.027814553498
 30
0.0
  0
POINT
  5
82FB
330
83CA
100
AcDbEntity
  8
DEFPOINTS
 62
     0
100
AcDbPoint
 10
1146.156955993244
 20
6405.027814553498
 30
0.0
  0
POINT
  5
82FC
330
83CA
100
AcDbEntity
  8
DEFPOINTS
 62
     0
100
AcDbPoint
 10
879.8305548856658
 20
6405.027814553498
 30
0.0
  0
ENDBLK
  5
7F62
330
83CA
100
AcDbEntity
  8
0
100
AcDbBlockEnd
  0
BLOCK
  5
83CD
330
83CC
100
AcDbEntity
  8
0
100
AcDbBlockBegin
  2
*D17
 70
     1
 10
0.0
 20
0.0
 30
0.0
  3
*D17
  1

  0
LINE
  5
82FD
330
83CC
100
AcDbEntity
  8
3
 62
     0
100
AcDbLine
 10
1146.156955993244
 20
6385.027814553499
 30
0.0
 11
1146.156955993244
 21
6000.273936363845
 31
0.0
  0
LINE
  5
82FE
330
83CC
100
AcDbEntity
  8
3
 62
     0
100
AcDbLine
 10
3596.156955993246
 20
6385.027814553495
 30
0.0
 11
3596.156955993246
 21
6000.273936363845
 31
0.0
  0
LINE
  5
82FF
330
83CC
100
AcDbEntity
  8
3
 62
     0
100
AcDbLine
 10
1226.156955993245
 20
6040.273936363845
 30
0.0
 11
3516.156955993245
 21
6040.273936363845
 31
0.0
  0
INSERT
  5
8300
330
83CC
100
AcDbEntity
  8
3
 62
     0
100
AcDbBlockReference
  2
_OPEN
 10
1146.156955993244
 20
6040.273936363845
 30
0.0
 41
80.0
 42
80.0
 43
80.0
 50
180.0
  0
INSERT
  5
8301
330
83CC
100
AcDbEntity
  8
3
 62
     0
100
AcDbBlockReference
  2
_OPEN
 10
3596.156955993246
 20
6040.273936363845
 30
0.0
 41
80.0
 42
80.0
 43
80.0
  0
TEXT
  5
832B
330
83CC
100
AcDbEntity
  8
3
 62
     0
100
AcDbText
 10
2131.16
 20
5927.87
 30
0.0
 40
120.0
  1
2450
100
AcDbText
  0
POINT
  5
8303
330
83CC
100
AcDbEntity
  8
DEFPOINTS
 62
     0
100
AcDbPoint
 10
1146.156955993244
 20
6405.027814553498
 30
0.0
  0
POINT
  5
8304
330
83CC
100
AcDbEntity
  8
DEFPOINTS
 62
     0
100
AcDbPoint
 10
3596.156955993246
 20
6405.027814553498
 30
0.0
  0
POINT
  5
8305
330
83CC
100
AcDbEntity
  8
DEFPOINTS
 62
     0
100
AcDbPoint
 10
3596.156955993246
 20
6040.273936363845
 30
0.0
  0
ENDBLK
  5
7F57
330
83CC
100
AcDbEntity
  8
0
100
AcDbBlockEnd
  0
BLOCK
  5
83CF
330
83CE
100
AcDbEntity
  8
0
100
AcDbBlockBegin
  2
*D18
 70
     1
 10
0.0
 20
0.0
 30
0.0
  3
*D18
  1

  0
LINE
  5
8306
330
83CE
100
AcDbEntity
  8
3
 62
     0
100
AcDbLine
 10
3671.156955993246
 20
5153.144075523783
 30
0.0
 11
3671.156955993246
 21
5647.120238149416
 31
0.0
  0
LINE
  5
8307
330
83CE
100
AcDbEntity
  8
3
 62
     0
100
AcDbLine
 10
1146.156955993244
 20
2966.144075523784
 30
0.0
 11
1146.156955993245
 21
5647.120238149416
 31
0.0
  0
LINE
  5
8308
330
83CE
100
AcDbEntity
  8
3
 62
     0
100
AcDbLine
 10
3591.156955993245
 20
5607.120238149416
 30
0.0
 11
1226.156955993245
 21
5607.120238149416
 31
0.0
  0
INSERT
  5
8309
330
83CE
100
AcDbEntity
  8
3
 62
     0
100
AcDbBlockReference
  2
_OPEN
 10
3671.156955993246
 20
5607.120238149416
 30
0.0
 41
80.0
 42
80.0
 43
80.0
  0
INSERT
  5
830A
330
83CE
100
AcDbEntity
  8
3
 62
     0
100
AcDbBlockReference
  2
_OPEN
 10
1146.156955993245
 20
5607.120238149416
 30
0.0
 41
80.0
 42
80.0
 43
80.0
 50
180.0
  0
TEXT
  5
832C
330
83CE
100
AcDbEntity
  8
3
 62
     0
100
AcDbText
 10
2168.66
 20
5494.72
 30
0.0
 40
120.0
  1
2525
100
AcDbText
  0
POINT
  5
830C
330
83CE
100
AcDbEntity
  8
DEFPOINTS
 62
     0
100
AcDbPoint
 10
3671.156955993246
 20
5133.144075523785
 30
0.0
  0
POINT
  5
830D
330
83CE
100
AcDbEntity
  8
DEFPOINTS
 62
     0
100
AcDbPoint
 10
1146.156955993244
 20
2946.144075523783
 30
0.0
  0
POINT
  5
830E
330
83CE
100
AcDbEntity
  8
DEFPOINTS
 62
     0
100
AcDbPoint
 10
1146.156955993245
 20
5607.120238149416
 30
0.0
  0
ENDBLK
  5
7F4C
330
83CE
100
AcDbEntity
  8
0
100
AcDbBlockEnd
  0
BLOCK
  5
83D2
330
83D1
100
AcDbEntity
  8
0
100
AcDbBlockBegin
  2
*D19
 70
     1
 10
0.0
 20
0.0
 30
0.0
  3
*D19
  1

  0
LINE
  5
830F
330
83D1
100
AcDbEntity
  8
3
 62
     0
100
AcDbLine
 10
3616.156955993246
 20
2801.144075523783
 30
0.0
 11
4210.578222735581
 21
2801.144075523783
 31
0.0
  0
LINE
  5
8310
330
83D1
100
AcDbEntity
  8
3
 62
     0
100
AcDbLine
 10
3616.156955993246
 20
2736.144075523784
 30
0.0
 11
4210.578222735581
 21
2736.144075523784
 31
0.0
  0
LINE
  5
8311
330
83D1
100
AcDbEntity
  8
3
 62
     0
100
AcDbLine
 10
4170.57822273558
 20
2881.144075523783
 30
0.0
 11
4170.57822273558
 21
2961.144075523784
 31
0.0
  0
LINE
  5
8312
330
83D1
100
AcDbEntity
  8
3
 62
     0
100
AcDbLine
 10
4170.57822273558
 20
2656.144075523783
 30
0.0
 11
4170.57822273558
 21
2301.858361238069
 31
0.0
  0
LINE
  5
8313
330
83D1
100
AcDbEntity
  8
3
 62
     0
100
AcDbLine
 10
4170.57822273558
 20
2801.144075523783
 30
0.0
 11
4170.57822273558
 21
2736.144075523784
 31
0.0
  0
INSERT
  5
8314
330
83D1
100
AcDbEntity
  8
3
 62
     0
100
AcDbBlockReference
  2
_DOT
 10
4170.57822273558
 20
2801.144075523783
 30
0.0
 41
80.0
 42
80.0
 43
80.0
 50
270.0
  0
INSERT
  5
8315
330
83D1
100
AcDbEntity
  8
3
 62
     0
100
AcDbBlockReference
  2
_OPEN
 10
4170.57822273558
 20
2736.144075523784
 30
0.0
 41
80.0
 42
80.0
 43
80.0
 50
90.0
  0
TEXT
  5
832D
330
83D1
100
AcDbEntity
  8
3
 62
     0
100
AcDbText
 10
3830.58
 20
2226.6
 30
0.0
 40
120.0
  1
65
100
AcDbText
  0
POINT
  5
8317
330
83D1
100
AcDbEntity
  8
DEFPOINTS
 62
     0
100
AcDbPoint
 10
3596.156955993246
 20
2801.144075523783
 30
0.0
  0
POINT
  5
8318
330
83D1
100
AcDbEntity
  8
DEFPOINTS
 62
     0
100
AcDbPoint
 10
3596.156955993246
 20
2736.144075523784
 30
0.0
  0
POINT
  5
8319
330
83D1
100
AcDbEntity
  8
DEFPOINTS
 62
     0
100
AcDbPoint
 10
4170.57822273558
 20
2736.144075523784
 30
0.0
  0
ENDBLK
  5
80D1
330
83D1
100
AcDbEntity
  8
0
100
AcDbBlockEnd
  0
BLOCK
  5
83D4
330
83D3
100
AcDbEntity
  8
0
100
AcDbBlockBegin
  2
_DOT
 70
     0
 10
0.0
 20
0.0
 30
0.0
  3
_DOT
  1

  0
LINE
  5
80D2
330
83D3
100
AcDbEntity
  8
0
  6
ByBlock
 62
     0
100
AcDbLine
 10
0.0
 20
0.0
 30
0.0
 11
-1.0
 21
-0.0000000000000284
 31
0.0
  0
LWPOLYLINE
  5
80D3
330
83D3
100
AcDbEntity
  8
0
  6
ByBlock
 62
     0
100
AcDbPolyline
 90
        2
 70
     1
 43
0.1666666666666666
 10
-0.0833333333333286
 20
-0.0000000000000284
 42
1.0
 10
0.0833333333333286
 20
-0.0000000000000284
 42
1.0
  0
ENDBLK
  5
80B8
330
83D3
100
AcDbEntity
  8
0
100
AcDbBlockEnd
  0
BLOCK
  5
83D6
330
83D5
100
AcDbEntity
  8
0
100
AcDbBlockBegin
  2
*D21
 70
     1
 10
0.0
 20
0.0
 30
0.0
  3
*D21
  1

  0
LINE
  5
8141
330
83D5
100
AcDbEntity
  8
0
  6
ByBlock
 62
     0
100
AcDbLine
 10
1146.156955993244
 20
2716.144075523784
 30
0.0
 11
1146.156955993244
 21
2452.132715361301
 31
0.0
  0
LINE
  5
8142
330
83D5
100
AcDbEntity
  8
0
  6
ByBlock
 62
     0
100
AcDbLine
 10
2846.156955993244
 20
2716.144075523784
 30
0.0
 11
2846.156955993244
 21
2452.132715361301
 31
0.0
  0
LINE
  5
8143
330
83D5
100
AcDbEntity
  8
0
  6
ByBlock
 62
     0
100
AcDbLine
 10
1226.156955993245
 20
2492.132715361302
 30
0.0
 11
2766.156955993244
 21
2492.132715361302
 31
0.0
  0
INSERT
  5
8144
330
83D5
100
AcDbEntity
  8
0
  6
ByBlock
 62
     0
100
AcDbBlockReference
  2
_OPEN
 10
1146.156955993244
 20
2492.132715361302
 30
0.0
 41
80.0
 42
80.0
 43
80.0
 50
180.0
  0
INSERT
  5
8145
330
83D5
100
AcDbEntity
  8
0
  6
ByBlock
 62
     0
100
AcDbBlockReference
  2
_OPEN
 10
2846.156955993244
 20
2492.132715361302
 30
0.0
 41
80.0
 42
80.0
 43
80.0
  0
TEXT
  5
8146
330
83D5
100
AcDbEntity
  8
3
 62
     0
100
AcDbText
 10
1796.156955993245
 20
2532.132715361302
 30
0.0
 40
120.0
  1
1700
100
AcDbText
  0
POINT
  5
8147
330
83D5
100
AcDbEntity
  8
DEFPOINTS
  6
ByBlock
 62
     0
100
AcDbPoint
 10
1146.156955993244
 20
2736.144075523784
 30
0.0
  0
POINT
  5
8148
330
83D5
100
AcDbEntity
  8
DEFPOINTS
  6
ByBlock
 62
     0
100
AcDbPoint
 10
2846.156955993244
 20
2736.144075523784
 30
0.0
  0
POINT
  5
8149
330
83D5
100
AcDbEntity
  8
DEFPOINTS
  6
ByBlock
 62
     0
100
AcDbPoint
 10
2846.156955993244
 20
2492.132715361302
 30
0.0
  0
ENDBLK
  5
814A
330
83D5
100
AcDbEntity
  8
0
100
AcDbBlockEnd
  0
BLOCK
  5
83D8
330
83D7
100
AcDbEntity
  8
0
100
AcDbBlockBegin
  2
*D22
 70
     1
 10
0.0
 20
0.0
 30
0.0
  3
*D22
  1

  0
LINE
  5
814E
330
83D7
100
AcDbEntity
  8
0
  6
ByBlock
 62
     0
100
AcDbLine
 10
2846.156955993244
 20
2716.144075523784
 30
0.0
 11
2846.156955993244
 21
2452.132715361301
 31
0.0
  0
LINE
  5
814F
330
83D7
100
AcDbEntity
  8
0
  6
ByBlock
 62
     0
100
AcDbLine
 10
3596.156955993246
 20
2716.144075523784
 30
0.0
 11
3596.156955993246
 21
2452.132715361301
 31
0.0
  0
LINE
  5
8150
330
83D7
100
AcDbEntity
  8
0
  6
ByBlock
 62
     0
100
AcDbLine
 10
2926.156955993244
 20
2492.132715361302
 30
0.0
 11
3516.156955993245
 21
2492.132715361302
 31
0.0
  0
INSERT
  5
8151
330
83D7
100
AcDbEntity
  8
0
  6
ByBlock
 62
     0
100
AcDbBlockReference
  2
_OPEN
 10
2846.156955993244
 20
2492.132715361302
 30
0.0
 41
80.0
 42
80.0
 43
80.0
 50
180.0
  0
INSERT
  5
8152
330
83D7
100
AcDbEntity
  8
0
  6
ByBlock
 62
     0
100
AcDbBlockReference
  2
_OPEN
 10
3596.156955993246
 20
2492.132715361302
 30
0.0
 41
80.0
 42
80.0
 43
80.0
  0
TEXT
  5
8153
330
83D7
100
AcDbEntity
  8
3
 62
     0
100
AcDbText
 10
3066.871241707531
 20
2532.132715361302
 30
0.0
 40
120.0
  1
750
100
AcDbText
  0
POINT
  5
8154
330
83D7
100
AcDbEntity
  8
DEFPOINTS
  6
ByBlock
 62
     0
100
AcDbPoint
 10
2846.156955993244
 20
2736.144075523784
 30
0.0
  0
POINT
  5
8155
330
83D7
100
AcDbEntity
  8
DEFPOINTS
  6
ByBlock
 62
     0
100
AcDbPoint
 10
3596.156955993246
 20
2736.144075523784
 30
0.0
  0
POINT
  5
8156
330
83D7
100
AcDbEntity
  8
DEFPOINTS
  6
ByBlock
 62
     0
100
AcDbPoint
 10
3596.156955993246
 20
2492.132715361302
 30
0.0
  0
ENDBLK
  5
8157
330
83D7
100
AcDbEntity
  8
0
100
AcDbBlockEnd
  0
BLOCK
  5
83DA
330
83D9
100
AcDbEntity
  8
0
100
AcDbBlockBegin
  2
*D23
 70
     1
 10
0.0
 20
0.0
 30
0.0
  3
*D23
  1

  0
LINE
  5
815B
330
83D9
100
AcDbEntity
  8
0
  6
ByBlock
 62
     0
100
AcDbLine
 10
5124.500975653525
 20
2716.144075523784
 30
0.0
 11
5124.500975653525
 21
2452.132715361301
 31
0.0
  0
LINE
  5
815C
330
83D9
100
AcDbEntity
  8
0
  6
ByBlock
 62
     0
100
AcDbLine
 10
6326.500975653526
 20
2716.144075523784
 30
0.0
 11
6326.500975653526
 21
2452.132715361301
 31
0.0
  0
LINE
  5
815D
330
83D9
100
AcDbEntity
  8
0
  6
ByBlock
 62
     0
100
AcDbLine
 10
5204.500975653525
 20
2492.132715361302
 30
0.0
 11
6246.500975653526
 21
2492.132715361302
 31
0.0
  0
INSERT
  5
815E
330
83D9
100
AcDbEntity
  8
0
  6
ByBlock
 62
     0
100
AcDbBlockReference
  2
_OPEN
 10
5124.500975653525
 20
2492.132715361302
 30
0.0
 41
80.0
 42
80.0
 43
80.0
 50
180.0
  0
INSERT
  5
815F
330
83D9
100
AcDbEntity
  8
0
  6
ByBlock
 62
     0
100
AcDbBlockReference
  2
_OPEN
 10
6326.500975653526
 20
2492.132715361302
 30
0.0
 41
80.0
 42
80.0
 43
80.0
  0
TEXT
  5
8160
330
83D9
100
AcDbEntity
  8
3
 62
     0
100
AcDbText
 10
5525.500975653526
 20
2532.132715361302
 30
0.0
 40
120.0
  1
1202
100
AcDbText
  0
POINT
  5
8161
330
83D9
100
AcDbEntity
  8
DEFPOINTS
  6
ByBlock
 62
     0
100
AcDbPoint
 10
5124.500975653525
 20
2736.144075523784
 30
0.0
  0
POINT
  5
8162
330
83D9
100
AcDbEntity
  8
DEFPOINTS
  6
ByBlock
 62
     0
100
AcDbPoint
 10
6326.500975653526
 20
2736.144075523784
 30
0.0
  0
POINT
  5
8163
330
83D9
100
AcDbEntity
  8
DEFPOINTS
  6
ByBlock
 62
     0
100
AcDbPoint
 10
6326.500975653526
 20
2492.132715361302
 30
0.0
  0
ENDBLK
  5
8164
330
83D9
100
AcDbEntity
  8
0
100
AcDbBlockEnd
  0
BLOCK
  5
83DC
330
83DB
100
AcDbEntity
  8
0
100
AcDbBlockBegin
  2
*D24
 70
     1
 10
0.0
 20
0.0
 30
0.0
  3
*D24
  1

  0
LINE
  5
8168
330
83DB
100
AcDbEntity
  8
0
  6
ByBlock
 62
     0
100
AcDbLine
 10
6326.500975653526
 20
2716.144075523784
 30
0.0
 11
6326.500975653526
 21
2452.132715361301
 31
0.0
  0
LINE
  5
8169
330
83DB
100
AcDbEntity
  8
0
  6
ByBlock
 62
     0
100
AcDbLine
 10
7244.500975653526
 20
2716.144075523784
 30
0.0
 11
7244.500975653526
 21
2452.132715361301
 31
0.0
  0
LINE
  5
816A
330
83DB
100
AcDbEntity
  8
0
  6
ByBlock
 62
     0
100
AcDbLine
 10
6406.500975653526
 20
2492.132715361302
 30
0.0
 11
7164.500975653526
 21
2492.132715361302
 31
0.0
  0
INSERT
  5
816B
330
83DB
100
AcDbEntity
  8
0
  6
ByBlock
 62
     0
100
AcDbBlockReference
  2
_OPEN
 10
6326.500975653526
 20
2492.132715361302
 30
0.0
 41
80.0
 42
80.0
 43
80.0
 50
180.0
  0
INSERT
  5
816C
330
83DB
100
AcDbEntity
  8
0
  6
ByBlock
 62
     0
100
AcDbBlockReference
  2
_OPEN
 10
7244.500975653526
 20
2492.132715361302
 30
0.0
 41
80.0
 42
80.0
 43
80.0
  0
TEXT
  5
816D
330
83DB
100
AcDbEntity
  8
3
 62
     0
100
AcDbText
 10
6642.643832796382
 20
2532.132715361302
 30
0.0
 40
120.0
  1
918
100
AcDbText
  0
POINT
  5
816E
330
83DB
100
AcDbEntity
  8
DEFPOINTS
  6
ByBlock
 62
     0
100
AcDbPoint
 10
6326.500975653526
 20
2736.144075523784
 30
0.0
  0
POINT
  5
816F
330
83DB
100
AcDbEntity
  8
DEFPOINTS
  6
ByBlock
 62
     0
100
AcDbPoint
 10
7244.500975653526
 20
2736.144075523784
 30
0.0
  0
POINT
  5
8170
330
83DB
100
AcDbEntity
  8
DEFPOINTS
  6
ByBlock
 62
     0
100
AcDbPoint
 10
7244.500975653526
 20
2492.132715361302
 30
0.0
  0
ENDBLK
  5
8171
330
83DB
100
AcDbEntity
  8
0
100
AcDbBlockEnd
  0
BLOCK
  5
83DE
330
83DD
100
AcDbEntity
  8
0
100
AcDbBlockBegin
  2
_NONE
 70
     0
 10
0.0
 20
0.0
 30
0.0
  3
_NONE
  1

  0
CIRCLE
  5
8175
330
83DD
100
AcDbEntity
  8
0
  6
ByBlock
 62
     0
100
AcDbCircle
 10
0.0
 20
0.0
 30
0.0
 40
0.25
  0
ENDBLK
  5
8176
330
83DD
100
AcDbEntity
  8
0
100
AcDbBlockEnd
  0
BLOCK
  5
83E0
330
83DF
100
AcDbEntity
  8
0
100
AcDbBlockBegin
  2
*D26
 70
     1
 10
0.0
 20
0.0
 30
0.0
  3
*D26
  1

  0
LINE
  5
81A2
330
83DF
100
AcDbEntity
  8
0
  6
ByBlock
 62
     0
100
AcDbLine
 10
4167.316197205626
 20
2801.144075523783
 30
0.0
 11
4167.316197205626
 21
2801.144075523783
 31
0.0
  0
LINE
  5
81A3
330
83DF
100
AcDbEntity
  8
0
  6
ByBlock
 62
     0
100
AcDbLine
 10
4167.316197205626
 20
2821.144075523783
 30
0.0
 11
4167.316197205626
 21
2981.144075523783
 31
0.0
  0
TEXT
  5
81A4
330
83DF
100
AcDbEntity
  8
3
 62
     0
100
AcDbText
 10
4398.744768634196
 20
2528.858361238069
 30
0.0
 40
120.0
  1
   (20)
 50
90.0
100
AcDbText
  0
LINE
  5
81A5
330
83DF
100
AcDbEntity
  8
0
  6
ByBlock
 62
     0
100
AcDbLine
 10
4167.316197205626
 20
2801.144075523783
 30
0.0
 11
4167.316197205626
 21
2821.144075523783
 31
0.0
  0
POINT
  5
81A6
330
83DF
100
AcDbEntity
  8
DEFPOINTS
  6
ByBlock
 62
     0
100
AcDbPoint
 10
3596.156955993246
 20
2801.144075523783
 30
0.0
  0
POINT
  5
81A7
330
83DF
100
AcDbEntity
  8
DEFPOINTS
  6
ByBlock
 62
     0
100
AcDbPoint
 10
3596.156955993246
 20
2821.144075523783
 30
0.0
  0
POINT
  5
81A8
330
83DF
100
AcDbEntity
  8
DEFPOINTS
  6
ByBlock
 62
     0
100
AcDbPoint
 10
4167.316197205626
 20
2821.144075523783
 30
0.0
  0
ENDBLK
  5
81A9
330
83DF
100
AcDbEntity
  8
0
100
AcDbBlockEnd
  0
BLOCK
  5
83E2
330
83E1
100
AcDbEntity
  8
0
100
AcDbBlockBegin
  2
*D27
 70
     1
 10
0.0
 20
0.0
 30
0.0
  3
*D27
  1

  0
LINE
  5
8184
330
83E1
100
AcDbEntity
  8
0
  6
ByBlock
 62
     0
100
AcDbLine
 10
3616.156955993246
 20
2736.144075523784
 30
0.0
 11
4529.261706084288
 21
2736.144075523784
 31
0.0
  0
LINE
  5
8185
330
83E1
100
AcDbEntity
  8
0
  6
ByBlock
 62
     0
100
AcDbLine
 10
3711.156955993244
 20
5080.144075523783
 30
0.0
 11
4529.261706084288
 21
5080.144075523783
 31
0.0
  0
LINE
  5
8186
330
83E1
100
AcDbEntity
  8
0
  6
ByBlock
 62
     0
100
AcDbLine
 10
4489.261706084288
 20
2816.144075523784
 30
0.0
 11
4489.261706084288
 21
5000.144075523785
 31
0.0
  0
INSERT
  5
8187
330
83E1
100
AcDbEntity
  8
0
  6
ByBlock
 62
     0
100
AcDbBlockReference
  2
_OPEN
 10
4489.261706084288
 20
2736.144075523784
 30
0.0
 41
80.0
 42
80.0
 43
80.0
 50
270.0
  0
INSERT
  5
8188
330
83E1
100
AcDbEntity
  8
0
  6
ByBlock
 62
     0
100
AcDbBlockReference
  2
_OPEN
 10
4489.261706084288
 20
5080.144075523783
 30
0.0
 41
80.0
 42
80.0
 43
80.0
 50
90.0
  0
TEXT
  5
8189
330
83E1
100
AcDbEntity
  8
3
 62
     0
100
AcDbText
 10
4397.833134655718
 20
3619.572646952355
 30
0.0
 40
120.0
  1
(2344)
 50
90.0
100
AcDbText
  0
POINT
  5
818A
330
83E1
100
AcDbEntity
  8
DEFPOINTS
  6
ByBlock
 62
     0
100
AcDbPoint
 10
3596.156955993246
 20
2736.144075523784
 30
0.0
  0
POINT
  5
818B
330
83E1
100
AcDbEntity
  8
DEFPOINTS
  6
ByBlock
 62
     0
100
AcDbPoint
 10
3691.156955993245
 20
5080.144075523783
 30
0.0
  0
POINT
  5
818C
330
83E1
100
AcDbEntity
  8
DEFPOINTS
  6
ByBlock
 62
     0
100
AcDbPoint
 10
4489.261706084288
 20
5080.144075523783
 30
0.0
  0
ENDBLK
  5
818D
330
83E1
100
AcDbEntity
  8
0
100
AcDbBlockEnd
  0
BLOCK
  5
8443
330
8442
100
AcDbEntity
  8
0
100
AcDbBlockBegin
  2
*D28
 70
     1
 10
0.0
 20
0.0
 30
0.0
  3
*D28
  1

  0
LINE
  5
84C0
330
8442
100
AcDbEntity
  8
3
 62
     0
370
    -2
100
AcDbLine
 10
7196.500975653525
 20
4371.144075523783
 30
0.0
 11
7627.77060056603
 21
4371.144075523783
 31
0.0
  0
LINE
  5
84C1
330
8442
100
AcDbEntity
  8
3
 62
     0
370
    -2
100
AcDbLine
 10
7196.500975653525
 20
3121.144075523783
 30
0.0
 11
7627.77060056603
 21
3121.144075523783
 31
0.0
  0
LINE
  5
84C2
330
8442
100
AcDbEntity
  8
3
 62
     0
370
    -2
100
AcDbLine
 10
7587.77060056603
 20
4291.144075523783
 30
0.0
 11
7587.77060056603
 21
3201.144075523784
 31
0.0
  0
INSERT
  5
84C3
330
8442
100
AcDbEntity
  8
3
 62
     0
370
    -2
100
AcDbBlockReference
  2
_OPEN
 10
7587.77060056603
 20
4371.144075523783
 30
0.0
 41
80.0
 42
80.0
 43
80.0
 50
90.0
  0
INSERT
  5
84C4
330
8442
100
AcDbEntity
  8
3
 62
     0
370
    -2
100
AcDbBlockReference
  2
_OPEN
 10
7587.77060056603
 20
3121.144075523783
 30
0.0
 41
80.0
 42
80.0
 43
80.0
 50
270.0
  0
MTEXT
  5
84C5
330
8442
100
AcDbEntity
  8
3
 62
     0
100
AcDbMText
 10
7487.77060056603
 20
3746.144075523786
 30
0.0
 40
120.0
 41
0.0
 71
     5
 72
     1
  1
\A1;\U+03C61250
 11
0.0000000000000001
 21
1.0
 31
0.0
 73
     1
 44
1.0
1001
ACAD
1000
MTEXTBEGIN
1070
    73
1070
     1
1070
    44
1040
1.0
1070
    74
1070
     0
1000
MTEXTEND
  0
POINT
  5
84C6
330
8442
100
AcDbEntity
  8
DEFPOINTS
 62
     0
100
AcDbPoint
 10
7176.500975653526
 20
4371.144075523783
 30
0.0
  0
POINT
  5
84C7
330
8442
100
AcDbEntity
  8
DEFPOINTS
 62
     0
100
AcDbPoint
 10
7176.500975653526
 20
3121.144075523783
 30
0.0
  0
POINT
  5
84C8
330
8442
100
AcDbEntity
  8
DEFPOINTS
 62
     0
100
AcDbPoint
 10
7587.77060056603
 20
3121.144075523783
 30
0.0
  0
ENDBLK
  5
8444
330
8442
100
AcDbEntity
  8
0
100
AcDbBlockEnd
  0
BLOCK
  5
8450
330
844F
100
AcDbEntity
  8
0
100
AcDbBlockBegin
  2
*D29
 70
     1
 10
0.0
 20
0.0
 30
0.0
  3
*D29
  1

  0
LINE
  5
8452
330
844F
100
AcDbEntity
  8
3
 62
     0
370
    -2
100
AcDbLine
 10
5476.500975653525
 20
5100.144075523783
 30
0.0
 11
5476.500975653525
 21
5421.543861990349
 31
0.0
  0
LINE
  5
8453
330
844F
100
AcDbEntity
  8
3
 62
     0
370
    -2
100
AcDbLine
 10
7176.500975653526
 20
5100.144075523783
 30
0.0
 11
7176.500975653526
 21
5421.543861990349
 31
0.0
  0
LINE
  5
8454
330
844F
100
AcDbEntity
  8
3
 62
     0
370
    -2
100
AcDbLine
 10
5556.500975653524
 20
5381.543861990349
 30
0.0
 11
7096.500975653525
 21
5381.543861990349
 31
0.0
  0
INSERT
  5
8455
330
844F
100
AcDbEntity
  8
3
 62
     0
370
    -2
100
AcDbBlockReference
  2
_OPEN
 10
5476.500975653525
 20
5381.543861990349
 30
0.0
 41
80.0
 42
80.0
 43
80.0
 50
180.0
  0
INSERT
  5
8456
330
844F
100
AcDbEntity
  8
3
 62
     0
370
    -2
100
AcDbBlockReference
  2
_OPEN
 10
7176.500975653526
 20
5381.543861990349
 30
0.0
 41
80.0
 42
80.0
 43
80.0
  0
MTEXT
  5
8457
330
844F
100
AcDbEntity
  8
3
 62
     0
100
AcDbMText
 10
6326.500975653526
 20
5481.543861990349
 30
0.0
 40
120.0
 41
0.0
 71
     5
 72
     1
  1
\A1;1700
 73
     1
 44
1.0
1001
ACAD
1000
MTEXTBEGIN
1070
    73
1070
     1
1070
    44
1040
1.0
1070
    74
1070
     0
1000
MTEXTEND
  0
POINT
  5
8458
330
844F
100
AcDbEntity
  8
DEFPOINTS
 62
     0
100
AcDbPoint
 10
5476.500975653525
 20
5080.144075523783
 30
0.0
  0
POINT
  5
8459
330
844F
100
AcDbEntity
  8
DEFPOINTS
 62
     0
100
AcDbPoint
 10
7176.500975653526
 20
5080.144075523783
 30
0.0
  0
POINT
  5
845A
330
844F
100
AcDbEntity
  8
DEFPOINTS
 62
     0
100
AcDbPoint
 10
7176.500975653526
 20
5381.543861990349
 30
0.0
  0
ENDBLK
  5
8451
330
844F
100
AcDbEntity
  8
0
100
AcDbBlockEnd
  0
BLOCK
  5
845D
330
845C
100
AcDbEntity
  8
0
100
AcDbBlockBegin
  2
*D30
 70
     1
 10
0.0
 20
0.0
 30
0.0
  3
*D30
  1

  0
LINE
  5
84C9
330
845C
100
AcDbEntity
  8
3
 62
     0
370
    -2
100
AcDbLine
 10
5046.500975653526
 20
4146.144075523783
 30
0.0
 11
5046.500975653526
 21
5674.50716684925
 31
0.0
  0
LINE
  5
84CA
330
845C
100
AcDbEntity
  8
3
 62
     0
370
    -2
100
AcDbLine
 10
6326.500975653526
 20
5561.543861990349
 30
0.0
 11
6326.500975653526
 21
5674.50716684925
 31
0.0
  0
LINE
  5
84CB
330
845C
100
AcDbEntity
  8
3
 62
     0
370
    -2
100
AcDbLine
 10
5126.500975653526
 20
5634.50716684925
 30
0.0
 11
6246.500975653526
 21
5634.50716684925
 31
0.0
  0
INSERT
  5
84CC
330
845C
100
AcDbEntity
  8
3
 62
     0
370
    -2
100
AcDbBlockReference
  2
_OPEN
 10
5046.500975653526
 20
5634.50716684925
 30
0.0
 41
80.0
 42
80.0
 43
80.0
 50
180.0
  0
INSERT
  5
84CD
330
845C
100
AcDbEntity
  8
3
 62
     0
370
    -2
100
AcDbBlockReference
  2
_OPEN
 10
6326.500975653526
 20
5634.50716684925
 30
0.0
 41
80.0
 42
80.0
 43
80.0
  0
MTEXT
  5
84CE
330
845C
100
AcDbEntity
  8
3
 62
     0
100
AcDbMText
 10
5686.500975653526
 20
5765.935738277821
 30
0.0
 40
120.0
 41
0.0
 71
     5
 72
     1
  1
\A1;(1280)
 73
     1
 44
1.0
1001
ACAD
1000
MTEXTBEGIN
1070
    73
1070
     1
1070
    44
1040
1.0
1070
    74
1070
     0
1000
MTEXTEND
  0
POINT
  5
84CF
330
845C
100
AcDbEntity
  8
DEFPOINTS
 62
     0
100
AcDbPoint
 10
5046.500975653526
 20
4126.144075523782
 30
0.0
  0
POINT
  5
84D0
330
845C
100
AcDbEntity
  8
DEFPOINTS
 62
     0
100
AcDbPoint
 10
6326.500975653526
 20
5541.543861990349
 30
0.0
  0
POINT
  5
84D1
330
845C
100
AcDbEntity
  8
DEFPOINTS
 62
     0
100
AcDbPoint
 10
6326.500975653526
 20
5634.50716684925
 30
0.0
  0
ENDBLK
  5
845E
330
845C
100
AcDbEntity
  8
0
100
AcDbBlockEnd
  0
BLOCK
  5
846A
330
8469
100
AcDbEntity
  8
0
100
AcDbBlockBegin
  2
*D31
 70
     1
 10
0.0
 20
0.0
 30
0.0
  3
*D31
  1

  0
LINE
  5
84AE
330
8469
100
AcDbEntity
  8
3
 62
     0
370
    -2
100
AcDbLine
 10
6326.500975653526
 20
5561.543861990349
 30
0.0
 11
6326.500975653526
 21
5674.50716684925
 31
0.0
  0
LINE
  5
84AF
330
8469
100
AcDbEntity
  8
3
 62
     0
370
    -2
100
AcDbLine
 10
7346.500975653523
 20
3690.144075523785
 30
0.0
 11
7346.500975653523
 21
5674.50716684925
 31
0.0
  0
LINE
  5
84B0
330
8469
100
AcDbEntity
  8
3
 62
     0
370
    -2
100
AcDbLine
 10
6406.500975653526
 20
5634.50716684925
 30
0.0
 11
7266.500975653523
 21
5634.50716684925
 31
0.0
  0
INSERT
  5
84B1
330
8469
100
AcDbEntity
  8
3
 62
     0
370
    -2
100
AcDbBlockReference
  2
_OPEN
 10
6326.500975653526
 20
5634.50716684925
 30
0.0
 41
80.0
 42
80.0
 43
80.0
 50
180.0
  0
INSERT
  5
84B2
330
8469
100
AcDbEntity
  8
3
 62
     0
370
    -2
100
AcDbBlockReference
  2
_OPEN
 10
7346.500975653523
 20
5634.50716684925
 30
0.0
 41
80.0
 42
80.0
 43
80.0
  0
MTEXT
  5
84B3
330
8469
100
AcDbEntity
  8
3
 62
     0
100
AcDbMText
 10
6836.500975653525
 20
5765.935738277821
 30
0.0
 40
120.0
 41
0.0
 71
     5
 72
     1
  1
\A1;(1020)
 73
     1
 44
1.0
1001
ACAD
1000
MTEXTBEGIN
1070
    73
1070
     1
1070
    44
1040
1.0
1070
    74
1070
     0
1000
MTEXTEND
  0
POINT
  5
84B4
330
8469
100
AcDbEntity
  8
DEFPOINTS
 62
     0
100
AcDbPoint
 10
6326.500975653526
 20
5541.543861990349
 30
0.0
  0
POINT
  5
84B5
330
8469
100
AcDbEntity
  8
DEFPOINTS
 62
     0
100
AcDbPoint
 10
7346.500975653523
 20
3670.144075523784
 30
0.0
  0
POINT
  5
84B6
330
8469
100
AcDbEntity
  8
DEFPOINTS
 62
     0
100
AcDbPoint
 10
7346.500975653523
 20
5634.50716684925
 30
0.0
  0
ENDBLK
  5
846B
330
8469
100
AcDbEntity
  8
0
100
AcDbBlockEnd
  0
BLOCK
  5
84D4
330
84D3
100
AcDbEntity
  8
0
100
AcDbBlockBegin
  2
*D32
 70
     1
 10
0.0
 20
0.0
 30
0.0
  3
*D32
  1

  0
LINE
  5
84D6
330
84D3
100
AcDbEntity
  8
3
 62
     0
370
    -2
100
AcDbLine
 10
1146.156955993244
 20
7425.027814553499
 30
0.0
 11
1146.156955993244
 21
8769.663953058682
 31
0.0
  0
LINE
  5
84D7
330
84D3
100
AcDbEntity
  8
3
 62
     0
370
    -2
100
AcDbLine
 10
2096.156955993245
 20
8545.027814553499
 30
0.0
 11
2096.156955993245
 21
8769.663953058682
 31
0.0
  0
LINE
  5
84D8
330
84D3
100
AcDbEntity
  8
3
 62
     0
370
    -2
100
AcDbLine
 10
1226.156955993244
 20
8729.663953058681
 30
0.0
 11
2016.156955993245
 21
8729.663953058681
 31
0.0
  0
INSERT
  5
84D9
330
84D3
100
AcDbEntity
  8
3
 62
     0
370
    -2
100
AcDbBlockReference
  2
_OPEN
 10
1146.156955993244
 20
8729.663953058681
 30
0.0
 41
80.0
 42
80.0
 43
80.0
 50
180.0
  0
INSERT
  5
84DA
330
84D3
100
AcDbEntity
  8
3
 62
     0
370
    -2
100
AcDbBlockReference
  2
_OPEN
 10
2096.156955993245
 20
8729.663953058681
 30
0.0
 41
80.0
 42
80.0
 43
80.0
  0
MTEXT
  5
84DB
330
84D3
100
AcDbEntity
  8
3
 62
     0
100
AcDbMText
 10
1621.156955993244
 20
8829.663953058682
 30
0.0
 40
120.0
 41
0.0
 71
     5
 72
     1
  1
\A1;950
 73
     1
 44
1.0
1001
ACAD
1000
MTEXTBEGIN
1070
    73
1070
     1
1070
    44
1040
1.0
1070
    74
1070
     0
1000
MTEXTEND
  0
POINT
  5
84DC
330
84D3
100
AcDbEntity
  8
DEFPOINTS
 62
     0
100
AcDbPoint
 10
1146.156955993244
 20
7405.027814553498
 30
0.0
  0
POINT
  5
84DD
330
84D3
100
AcDbEntity
  8
DEFPOINTS
 62
     0
100
AcDbPoint
 10
2096.156955993245
 20
8525.027814553499
 30
0.0
  0
POINT
  5
84DE
330
84D3
100
AcDbEntity
  8
DEFPOINTS
 62
     0
100
AcDbPoint
 10
2096.156955993245
 20
8729.663953058681
 30
0.0
  0
ENDBLK
  5
84D5
330
84D3
100
AcDbEntity
  8
0
100
AcDbBlockEnd
  0
BLOCK
  5
84E1
330
84E0
100
AcDbEntity
  8
0
100
AcDbBlockBegin
  2
*D33
 70
     1
 10
0.0
 20
0.0
 30
0.0
  3
*D33
  1

  0
LINE
  5
84E3
330
84E0
100
AcDbEntity
  8
3
 62
     0
370
    -2
100
AcDbLine
 10
2096.156955993245
 20
8545.027814553499
 30
0.0
 11
2096.156955993245
 21
8769.663953058682
 31
0.0
  0
LINE
  5
84E4
330
84E0
100
AcDbEntity
  8
3
 62
     0
370
    -2
100
AcDbLine
 10
3596.156955993246
 20
8545.027814553494
 30
0.0
 11
3596.156955993246
 21
8769.663953058682
 31
0.0
  0
LINE
  5
84E5
330
84E0
100
AcDbEntity
  8
3
 62
     0
370
    -2
100
AcDbLine
 10
2176.156955993245
 20
8729.663953058681
 30
0.0
 11
3516.156955993245
 21
8729.663953058681
 31
0.0
  0
INSERT
  5
84E6
330
84E0
100
AcDbEntity
  8
3
 62
     0
370
    -2
100
AcDbBlockReference
  2
_OPEN
 10
2096.156955993245
 20
8729.663953058681
 30
0.0
 41
80.0
 42
80.0
 43
80.0
 50
180.0
  0
INSERT
  5
84E7
330
84E0
100
AcDbEntity
  8
3
 62
     0
370
    -2
100
AcDbBlockReference
  2
_OPEN
 10
3596.156955993246
 20
8729.663953058681
 30
0.0
 41
80.0
 42
80.0
 43
80.0
  0
MTEXT
  5
84E8
330
84E0
100
AcDbEntity
  8
3
 62
     0
100
AcDbMText
 10
2846.156955993245
 20
8829.663953058682
 30
0.0
 40
120.0
 41
0.0
 71
     5
 72
     1
  1
\A1;1500
 73
     1
 44
1.0
1001
ACAD
1000
MTEXTBEGIN
1070
    73
1070
     1
1070
    44
1040
1.0
1070
    74
1070
     0
1000
MTEXTEND
  0
POINT
  5
84E9
330
84E0
100
AcDbEntity
  8
DEFPOINTS
 62
     0
100
AcDbPoint
 10
2096.156955993245
 20
8525.027814553499
 30
0.0
  0
POINT
  5
84EA
330
84E0
100
AcDbEntity
  8
DEFPOINTS
 62
     0
100
AcDbPoint
 10
3596.156955993246
 20
8525.027814553494
 30
0.0
  0
POINT
  5
84EB
330
84E0
100
AcDbEntity
  8
DEFPOINTS
 62
     0
100
AcDbPoint
 10
3596.156955993246
 20
8729.663953058681
 30
0.0
  0
ENDBLK
  5
84E2
330
84E0
100
AcDbEntity
  8
0
100
AcDbBlockEnd
  0
BLOCK
  5
84EE
330
84ED
100
AcDbEntity
  8
0
100
AcDbBlockBegin
  2
*D34
 70
     1
 10
0.0
 20
0.0
 30
0.0
  3
*D34
  1

  0
LINE
  5
84F0
330
84ED
100
AcDbEntity
  8
3
 62
     0
370
    -2
100
AcDbLine
 10
3616.156955993246
 20
8525.027814553494
 30
0.0
 11
4085.17309722908
 21
8525.027814553494
 31
0.0
  0
LINE
  5
84F1
330
84ED
100
AcDbEntity
  8
3
 62
     0
370
    -2
100
AcDbLine
 10
3616.156955993246
 20
6405.027814553498
 30
0.0
 11
4085.173097229079
 21
6405.027814553498
 31
0.0
  0
LINE
  5
84F2
330
84ED
100
AcDbEntity
  8
3
 62
     0
370
    -2
100
AcDbLine
 10
4045.17309722908
 20
8445.027814553494
 30
0.0
 11
4045.173097229079
 21
6485.027814553498
 31
0.0
  0
INSERT
  5
84F3
330
84ED
100
AcDbEntity
  8
3
 62
     0
370
    -2
100
AcDbBlockReference
  2
_OPEN
 10
4045.17309722908
 20
8525.027814553494
 30
0.0
 41
80.0
 42
80.0
 43
80.0
 50
90.0
  0
INSERT
  5
84F4
330
84ED
100
AcDbEntity
  8
3
 62
     0
370
    -2
100
AcDbBlockReference
  2
_OPEN
 10
4045.173097229079
 20
6405.027814553498
 30
0.0
 41
80.0
 42
80.0
 43
80.0
 50
270.0
  0
MTEXT
  5
84F5
330
84ED
100
AcDbEntity
  8
3
 62
     0
100
AcDbMText
 10
3945.173097229078
 20
7465.027814553497
 30
0.0
 40
120.0
 41
0.0
 71
     5
 72
     1
  1
\A1;2120
 11
0.0000000000000001
 21
1.0
 31
0.0
 73
     1
 44
1.0
1001
ACAD
1000
MTEXTBEGIN
1070
    73
1070
     1
1070
    44
1040
1.0
1070
    74
1070
     0
1000
MTEXTEND
  0
POINT
  5
84F6
330
84ED
100
AcDbEntity
  8
DEFPOINTS
 62
     0
100
AcDbPoint
 10
3596.156955993246
 20
8525.027814553494
 30
0.0
  0
POINT
  5
84F7
330
84ED
100
AcDbEntity
  8
DEFPOINTS
 62
     0
100
AcDbPoint
 10
3596.156955993246
 20
6405.027814553498
 30
0.0
  0
POINT
  5
84F8
330
84ED
100
AcDbEntity
  8
DEFPOINTS
 62
     0
100
AcDbPoint
 10
4045.173097229079
 20
6405.027814553498
 30
0.0
  0
ENDBLK
  5
84EF
330
84ED
100
AcDbEntity
  8
0
100
AcDbBlockEnd
  0
BLOCK
  5
84FB
330
84FA
100
AcDbEntity
  8
0
100
AcDbBlockBegin
  2
*D35
 70
     1
 10
0.0
 20
0.0
 30
0.0
  3
*D35
  1

  0
LINE
  5
84FD
330
84FA
100
AcDbEntity
  8
3
 62
     0
370
    -2
100
AcDbLine
 10
1126.156955993244
 20
7405.027814553498
 30
0.0
 11
839.830554885666
 21
7405.027814553498
 31
0.0
  0
LINE
  5
84FE
330
84FA
100
AcDbEntity
  8
3
 62
     0
370
    -2
100
AcDbLine
 10
1126.156955993244
 20
6405.027814553498
 30
0.0
 11
839.830554885666
 21
6405.027814553498
 31
0.0
  0
LINE
  5
84FF
330
84FA
100
AcDbEntity
  8
3
 62
     0
370
    -2
100
AcDbLine
 10
879.830554885666
 20
7325.027814553499
 30
0.0
 11
879.8305548856658
 21
6485.027814553498
 31
0.0
  0
INSERT
  5
8500
330
84FA
100
AcDbEntity
  8
3
 62
     0
370
    -2
100
AcDbBlockReference
  2
_OPEN
 10
879.830554885666
 20
7405.027814553498
 30
0.0
 41
80.0
 42
80.0
 43
80.0
 50
90.0
  0
INSERT
  5
8501
330
84FA
100
AcDbEntity
  8
3
 62
     0
370
    -2
100
AcDbBlockReference
  2
_OPEN
 10
879.8305548856658
 20
6405.027814553498
 30
0.0
 41
80.0
 42
80.0
 43
80.0
 50
270.0
  0
MTEXT
  5
8502
330
84FA
100
AcDbEntity
  8
3
 62
     0
100
AcDbMText
 10
779.8305548856649
 20
6905.027814553498
 30
0.0
 40
120.0
 41
0.0
 71
     5
 72
     1
  1
\A1;1000
 11
0.0000000000000001
 21
1.0
 31
0.0
 73
     1
 44
1.0
1001
ACAD
1000
MTEXTBEGIN
1070
    73
1070
     1
1070
    44
1040
1.0
1070
    74
1070
     0
1000
MTEXTEND
  0
POINT
  5
8503
330
84FA
100
AcDbEntity
  8
DEFPOINTS
 62
     0
100
AcDbPoint
 10
1146.156955993244
 20
7405.027814553498
 30
0.0
  0
POINT
  5
8504
330
84FA
100
AcDbEntity
  8
DEFPOINTS
 62
     0
100
AcDbPoint
 10
1146.156955993244
 20
6405.027814553498
 30
0.0
  0
POINT
  5
8505
330
84FA
100
AcDbEntity
  8
DEFPOINTS
 62
     0
100
AcDbPoint
 10
879.8305548856658
 20
6405.027814553498
 30
0.0
  0
ENDBLK
  5
84FC
330
84FA
100
AcDbEntity
  8
0
100
AcDbBlockEnd
  0
BLOCK
  5
8508
330
8507
100
AcDbEntity
  8
0
100
AcDbBlockBegin
  2
*D36
 70
     1
 10
0.0
 20
0.0
 30
0.0
  3
*D36
  1

  0
LINE
  5
850A
330
8507
100
AcDbEntity
  8
3
 62
     0
370
    -2
100
AcDbLine
 10
1146.156955993244
 20
6385.027814553499
 30
0.0
 11
1146.156955993244
 21
6000.273936363845
 31
0.0
  0
LINE
  5
850B
330
8507
100
AcDbEntity
  8
3
 62
     0
370
    -2
100
AcDbLine
 10
3596.156955993246
 20
6385.027814553499
 30
0.0
 11
3596.156955993246
 21
6000.273936363845
 31
0.0
  0
LINE
  5
850C
330
8507
100
AcDbEntity
  8
3
 62
     0
370
    -2
100
AcDbLine
 10
1226.156955993244
 20
6040.273936363845
 30
0.0
 11
3516.156955993245
 21
6040.273936363845
 31
0.0
  0
INSERT
  5
850D
330
8507
100
AcDbEntity
  8
3
 62
     0
370
    -2
100
AcDbBlockReference
  2
_OPEN
 10
1146.156955993244
 20
6040.273936363845
 30
0.0
 41
80.0
 42
80.0
 43
80.0
 50
180.0
  0
INSERT
  5
850E
330
8507
100
AcDbEntity
  8
3
 62
     0
370
    -2
100
AcDbBlockReference
  2
_OPEN
 10
3596.156955993246
 20
6040.273936363845
 30
0.0
 41
80.0
 42
80.0
 43
80.0
  0
MTEXT
  5
850F
330
8507
100
AcDbEntity
  8
3
 62
     0
100
AcDbMText
 10
2371.156955993245
 20
6140.273936363844
 30
0.0
 40
120.0
 41
0.0
 71
     5
 72
     1
  1
\A1;2450
 73
     1
 44
1.0
1001
ACAD
1000
MTEXTBEGIN
1070
    73
1070
     1
1070
    44
1040
1.0
1070
    74
1070
     0
1000
MTEXTEND
  0
POINT
  5
8510
330
8507
100
AcDbEntity
  8
DEFPOINTS
 62
     0
100
AcDbPoint
 10
1146.156955993244
 20
6405.027814553498
 30
0.0
  0
POINT
  5
8511
330
8507
100
AcDbEntity
  8
DEFPOINTS
 62
     0
100
AcDbPoint
 10
3596.156955993246
 20
6405.027814553498
 30
0.0
  0
POINT
  5
8512
330
8507
100
AcDbEntity
  8
DEFPOINTS
 62
     0
100
AcDbPoint
 10
3596.156955993246
 20
6040.273936363845
 30
0.0
  0
ENDBLK
  5
8509
330
8507
100
AcDbEntity
  8
0
100
AcDbBlockEnd
  0
BLOCK
  5
8515
330
8514
100
AcDbEntity
  8
0
100
AcDbBlockBegin
  2
*D37
 70
     1
 10
0.0
 20
0.0
 30
0.0
  3
*D37
  1

  0
LINE
  5
8517
330
8514
100
AcDbEntity
  8
3
 62
     0
370
    -2
100
AcDbLine
 10
3671.156955993246
 20
5153.144075523784
 30
0.0
 11
3671.156955993246
 21
5647.120238149416
 31
0.0
  0
LINE
  5
8518
330
8514
100
AcDbEntity
  8
3
 62
     0
370
    -2
100
AcDbLine
 10
1146.156955993244
 20
2966.144075523784
 30
0.0
 11
1146.156955993244
 21
5647.120238149416
 31
0.0
  0
LINE
  5
8519
330
8514
100
AcDbEntity
  8
3
 62
     0
370
    -2
100
AcDbLine
 10
3591.156955993245
 20
5607.120238149416
 30
0.0
 11
1226.156955993244
 21
5607.120238149416
 31
0.0
  0
INSERT
  5
851A
330
8514
100
AcDbEntity
  8
3
 62
     0
370
    -2
100
AcDbBlockReference
  2
_OPEN
 10
3671.156955993246
 20
5607.120238149416
 30
0.0
 41
80.0
 42
80.0
 43
80.0
  0
INSERT
  5
851B
330
8514
100
AcDbEntity
  8
3
 62
     0
370
    -2
100
AcDbBlockReference
  2
_OPEN
 10
1146.156955993244
 20
5607.120238149416
 30
0.0
 41
80.0
 42
80.0
 43
80.0
 50
180.0
  0
MTEXT
  5
851C
330
8514
100
AcDbEntity
  8
3
 62
     0
100
AcDbMText
 10
2408.656955993245
 20
5707.120238149417
 30
0.0
 40
120.0
 41
0.0
 71
     5
 72
     1
  1
\A1;2525
 73
     1
 44
1.0
1001
ACAD
1000
MTEXTBEGIN
1070
    73
1070
     1
1070
    44
1040
1.0
1070
    74
1070
     0
1000
MTEXTEND
  0
POINT
  5
851D
330
8514
100
AcDbEntity
  8
DEFPOINTS
 62
     0
100
AcDbPoint
 10
3671.156955993246
 20
5133.144075523785
 30
0.0
  0
POINT
  5
851E
330
8514
100
AcDbEntity
  8
DEFPOINTS
 62
     0
100
AcDbPoint
 10
1146.156955993244
 20
2946.144075523783
 30
0.0
  0
POINT
  5
851F
330
8514
100
AcDbEntity
  8
DEFPOINTS
 62
     0
100
AcDbPoint
 10
1146.156955993244
 20
5607.120238149416
 30
0.0
  0
ENDBLK
  5
8516
330
8514
100
AcDbEntity
  8
0
100
AcDbBlockEnd
  0
BLOCK
  5
8522
330
8521
100
AcDbEntity
  8
0
100
AcDbBlockBegin
  2
*D38
 70
     1
 10
0.0
 20
0.0
 30
0.0
  3
*D38
  1

  0
LINE
  5
8524
330
8521
100
AcDbEntity
  8
3
 62
     0
370
    -2
100
AcDbLine
 10
3671.156955993246
 20
5153.144075523784
 30
0.0
 11
3671.156955993246
 21
5422.667020841306
 31
0.0
  0
LINE
  5
8525
330
8521
100
AcDbEntity
  8
3
 62
     0
370
    -2
100
AcDbLine
 10
2846.156955993246
 20
5121.429794629098
 30
0.0
 11
2846.156955993246
 21
5422.667020841306
 31
0.0
  0
LINE
  5
8526
330
8521
100
AcDbEntity
  8
3
 62
     0
370
    -2
100
AcDbLine
 10
3591.156955993245
 20
5382.667020841306
 30
0.0
 11
2926.156955993246
 21
5382.667020841306
 31
0.0
  0
INSERT
  5
8527
330
8521
100
AcDbEntity
  8
3
 62
     0
370
    -2
100
AcDbBlockReference
  2
_OPEN
 10
3671.156955993246
 20
5382.667020841306
 30
0.0
 41
80.0
 42
80.0
 43
80.0
  0
INSERT
  5
8528
330
8521
100
AcDbEntity
  8
3
 62
     0
370
    -2
100
AcDbBlockReference
  2
_OPEN
 10
2846.156955993246
 20
5382.667020841306
 30
0.0
 41
80.0
 42
80.0
 43
80.0
 50
180.0
  0
MTEXT
  5
8529
330
8521
100
AcDbEntity
  8
3
 62
     0
100
AcDbMText
 10
3258.656955993246
 20
5482.667020841306
 30
0.0
 40
120.0
 41
0.0
 71
     5
 72
     1
  1
\A1;825
 73
     1
 44
1.0
1001
ACAD
1000
MTEXTBEGIN
1070
    73
1070
     1
1070
    44
1040
1.0
1070
    74
1070
     0
1000
MTEXTEND
  0
POINT
  5
852A
330
8521
100
AcDbEntity
  8
DEFPOINTS
 62
     0
100
AcDbPoint
 10
3671.156955993246
 20
5133.144075523785
 30
0.0
  0
POINT
  5
852B
330
8521
100
AcDbEntity
  8
DEFPOINTS
 62
     0
100
AcDbPoint
 10
2846.156955993246
 20
5101.429794629098
 30
0.0
  0
POINT
  5
852C
330
8521
100
AcDbEntity
  8
DEFPOINTS
 62
     0
100
AcDbPoint
 10
2846.156955993246
 20
5382.667020841306
 30
0.0
  0
ENDBLK
  5
8523
330
8521
100
AcDbEntity
  8
0
100
AcDbBlockEnd
  0
BLOCK
  5
852F
330
852E
100
AcDbEntity
  8
0
100
AcDbBlockBegin
  2
*D39
 70
     1
 10
0.0
 20
0.0
 30
0.0
  3
*D39
  1

  0
LINE
  5
8531
330
852E
100
AcDbEntity
  8
3
 62
     0
370
    -2
100
AcDbLine
 10
2846.156955993246
 20
5121.429794629098
 30
0.0
 11
2846.156955993246
 21
5422.667020841306
 31
0.0
  0
LINE
  5
8532
330
852E
100
AcDbEntity
  8
3
 62
     0
370
    -2
100
AcDbLine
 10
1767.156955993245
 20
3857.144075523783
 30
0.0
 11
1767.156955993245
 21
5422.667020841306
 31
0.0
  0
LINE
  5
8533
330
852E
100
AcDbEntity
  8
3
 62
     0
370
    -2
100
AcDbLine
 10
2766.156955993246
 20
5382.667020841306
 30
0.0
 11
1847.156955993245
 21
5382.667020841306
 31
0.0
  0
INSERT
  5
8534
330
852E
100
AcDbEntity
  8
3
 62
     0
370
    -2
100
AcDbBlockReference
  2
_OPEN
 10
2846.156955993246
 20
5382.667020841306
 30
0.0
 41
80.0
 42
80.0
 43
80.0
  0
INSERT
  5
8535
330
852E
100
AcDbEntity
  8
3
 62
     0
370
    -2
100
AcDbBlockReference
  2
_OPEN
 10
1767.156955993245
 20
5382.667020841306
 30
0.0
 41
80.0
 42
80.0
 43
80.0
 50
180.0
  0
MTEXT
  5
8536
330
852E
100
AcDbEntity
  8
3
 62
     0
100
AcDbMText
 10
2306.656955993245
 20
5482.667020841306
 30
0.0
 40
120.0
 41
0.0
 71
     5
 72
     1
  1
\A1;1079
 73
     1
 44
1.0
1001
ACAD
1000
MTEXTBEGIN
1070
    73
1070
     1
1070
    44
1040
1.0
1070
    74
1070
     0
1000
MTEXTEND
  0
POINT
  5
8537
330
852E
100
AcDbEntity
  8
DEFPOINTS
 62
     0
100
AcDbPoint
 10
2846.156955993246
 20
5101.429794629098
 30
0.0
  0
POINT
  5
8538
330
852E
100
AcDbEntity
  8
DEFPOINTS
 62
     0
100
AcDbPoint
 10
1767.156955993245
 20
3837.144075523784
 30
0.0
  0
POINT
  5
8539
330
852E
100
AcDbEntity
  8
DEFPOINTS
 62
     0
100
AcDbPoint
 10
1767.156955993245
 20
5382.667020841306
 30
0.0
  0
ENDBLK
  5
8530
330
852E
100
AcDbEntity
  8
0
100
AcDbBlockEnd
  0
BLOCK
  5
853C
330
853B
100
AcDbEntity
  8
0
100
AcDbBlockBegin
  2
*D40
 70
     1
 10
0.0
 20
0.0
 30
0.0
  3
*D40
  1

  0
LINE
  5
853E
330
853B
100
AcDbEntity
  8
3
 62
     0
370
    -2
100
AcDbLine
 10
3691.156955993245
 20
5080.144075523783
 30
0.0
 11
3964.167988683202
 21
5080.144075523783
 31
0.0
  0
LINE
  5
853F
330
853B
100
AcDbEntity
  8
3
 62
     0
370
    -2
100
AcDbLine
 10
3691.156955993245
 20
3800.144075523784
 30
0.0
 11
3964.167988683202
 21
3800.144075523784
 31
0.0
  0
LINE
  5
8540
330
853B
100
AcDbEntity
  8
3
 62
     0
370
    -2
100
AcDbLine
 10
3924.167988683201
 20
5000.144075523783
 30
0.0
 11
3924.167988683201
 21
3880.144075523784
 31
0.0
  0
INSERT
  5
8541
330
853B
100
AcDbEntity
  8
3
 62
     0
370
    -2
100
AcDbBlockReference
  2
_OPEN
 10
3924.167988683201
 20
5080.144075523783
 30
0.0
 41
80.0
 42
80.0
 43
80.0
 50
90.0
  0
INSERT
  5
8542
330
853B
100
AcDbEntity
  8
3
 62
     0
370
    -2
100
AcDbBlockReference
  2
_OPEN
 10
3924.167988683201
 20
3800.144075523784
 30
0.0
 41
80.0
 42
80.0
 43
80.0
 50
270.0
  0
MTEXT
  5
8543
330
853B
100
AcDbEntity
  8
3
 62
     0
100
AcDbMText
 10
3824.167988683201
 20
4440.144075523784
 30
0.0
 40
120.0
 41
0.0
 71
     5
 72
     1
  1
\A1;1280
 11
0.0000000000000001
 21
1.0
 31
0.0
 73
     1
 44
1.0
1001
ACAD
1000
MTEXTBEGIN
1070
    73
1070
     1
1070
    44
1040
1.0
1070
    74
1070
     0
1000
MTEXTEND
  0
POINT
  5
8544
330
853B
100
AcDbEntity
  8
DEFPOINTS
 62
     0
100
AcDbPoint
 10
3671.156955993246
 20
5080.144075523783
 30
0.0
  0
POINT
  5
8545
330
853B
100
AcDbEntity
  8
DEFPOINTS
 62
     0
100
AcDbPoint
 10
3671.156955993246
 20
3800.144075523784
 30
0.0
  0
POINT
  5
8546
330
853B
100
AcDbEntity
  8
DEFPOINTS
 62
     0
100
AcDbPoint
 10
3924.167988683201
 20
3800.144075523784
 30
0.0
  0
ENDBLK
  5
853D
330
853B
100
AcDbEntity
  8
0
100
AcDbBlockEnd
  0
BLOCK
  5
8549
330
8548
100
AcDbEntity
  8
0
100
AcDbBlockBegin
  2
*D41
 70
     1
 10
0.0
 20
0.0
 30
0.0
  3
*D41
  1

  0
LINE
  5
854B
330
8548
100
AcDbEntity
  8
3
 62
     0
370
    -2
100
AcDbLine
 10
3691.156955993245
 20
5080.144075523783
 30
0.0
 11
4210.57822273558
 21
5080.144075523783
 31
0.0
  0
LINE
  5
854C
330
8548
100
AcDbEntity
  8
3
 62
     0
370
    -2
100
AcDbLine
 10
3769.593494242098
 20
3746.144075523783
 30
0.0
 11
4210.57822273558
 21
3746.144075523783
 31
0.0
  0
LINE
  5
854D
330
8548
100
AcDbEntity
  8
3
 62
     0
370
    -2
100
AcDbLine
 10
4170.57822273558
 20
5000.144075523783
 30
0.0
 11
4170.57822273558
 21
3826.144075523784
 31
0.0
  0
INSERT
  5
854E
330
8548
100
AcDbEntity
  8
3
 62
     0
370
    -2
100
AcDbBlockReference
  2
_OPEN
 10
4170.57822273558
 20
5080.144075523783
 30
0.0
 41
80.0
 42
80.0
 43
80.0
 50
90.0
  0
INSERT
  5
854F
330
8548
100
AcDbEntity
  8
3
 62
     0
370
    -2
100
AcDbBlockReference
  2
_OPEN
 10
4170.57822273558
 20
3746.144075523783
 30
0.0
 41
80.0
 42
80.0
 43
80.0
 50
270.0
  0
MTEXT
  5
8550
330
8548
100
AcDbEntity
  8
3
 62
     0
100
AcDbMText
 10
4070.578222735579
 20
4413.144075523784
 30
0.0
 40
120.0
 41
0.0
 71
     5
 72
     1
  1
\A1;1334
 11
0.0000000000000001
 21
1.0
 31
0.0
 73
     1
 44
1.0
1001
ACAD
1000
MTEXTBEGIN
1070
    73
1070
     1
1070
    44
1040
1.0
1070
    74
1070
     0
1000
MTEXTEND
  0
POINT
  5
8551
330
8548
100
AcDbEntity
  8
DEFPOINTS
 62
     0
100
AcDbPoint
 10
3671.156955993246
 20
5080.144075523783
 30
0.0
  0
POINT
  5
8552
330
8548
100
AcDbEntity
  8
DEFPOINTS
 62
     0
100
AcDbPoint
 10
3749.593494242097
 20
3746.144075523783
 30
0.0
  0
POINT
  5
8553
330
8548
100
AcDbEntity
  8
DEFPOINTS
 62
     0
100
AcDbPoint
 10
4170.57822273558
 20
3746.144075523783
 30
0.0
  0
ENDBLK
  5
854A
330
8548
100
AcDbEntity
  8
0
100
AcDbBlockEnd
  0
BLOCK
  5
8556
330
8555
100
AcDbEntity
  8
0
100
AcDbBlockBegin
  2
*D42
 70
     1
 10
0.0
 20
0.0
 30
0.0
  3
*D42
  1

  0
LINE
  5
8558
330
8555
100
AcDbEntity
  8
3
 62
     0
370
    -2
100
AcDbLine
 10
3769.593494242098
 20
3746.144075523783
 30
0.0
 11
4210.57822273558
 21
3746.144075523783
 31
0.0
  0
LINE
  5
8559
330
8555
100
AcDbEntity
  8
3
 62
     0
370
    -2
100
AcDbLine
 10
3616.156955993246
 20
2821.144075523783
 30
0.0
 11
4210.57822273558
 21
2821.144075523783
 31
0.0
  0
LINE
  5
855A
330
8555
100
AcDbEntity
  8
3
 62
     0
370
    -2
100
AcDbLine
 10
4170.57822273558
 20
3666.144075523784
 30
0.0
 11
4170.57822273558
 21
2901.144075523783
 31
0.0
  0
INSERT
  5
855B
330
8555
100
AcDbEntity
  8
3
 62
     0
370
    -2
100
AcDbBlockReference
  2
_OPEN
 10
4170.57822273558
 20
3746.144075523783
 30
0.0
 41
80.0
 42
80.0
 43
80.0
 50
90.0
  0
INSERT
  5
855C
330
8555
100
AcDbEntity
  8
3
 62
     0
370
    -2
100
AcDbBlockReference
  2
_OPEN
 10
4170.57822273558
 20
2821.144075523783
 30
0.0
 41
80.0
 42
80.0
 43
80.0
 50
270.0
  0
MTEXT
  5
855D
330
8555
100
AcDbEntity
  8
3
 62
     0
100
AcDbMText
 10
4070.578222735578
 20
3283.644075523784
 30
0.0
 40
120.0
 41
0.0
 71
     5
 72
     1
  1
\A1;925
 11
0.0000000000000001
 21
1.0
 31
0.0
 73
     1
 44
1.0
1001
ACAD
1000
MTEXTBEGIN
1070
    73
1070
     1
1070
    44
1040
1.0
1070
    74
1070
     0
1000
MTEXTEND
  0
POINT
  5
855E
330
8555
100
AcDbEntity
  8
DEFPOINTS
 62
     0
100
AcDbPoint
 10
3749.593494242097
 20
3746.144075523783
 30
0.0
  0
POINT
  5
855F
330
8555
100
AcDbEntity
  8
DEFPOINTS
 62
     0
100
AcDbPoint
 10
3596.156955993246
 20
2821.144075523783
 30
0.0
  0
POINT
  5
8560
330
8555
100
AcDbEntity
  8
DEFPOINTS
 62
     0
100
AcDbPoint
 10
4170.57822273558
 20
2821.144075523783
 30
0.0
  0
ENDBLK
  5
8557
330
8555
100
AcDbEntity
  8
0
100
AcDbBlockEnd
  0
BLOCK
  5
8563
330
8562
100
AcDbEntity
  8
0
100
AcDbBlockBegin
  2
*D43
 70
     1
 10
0.0
 20
0.0
 30
0.0
  3
*D43
  1

  0
LINE
  5
8630
330
8562
100
AcDbEntity
  8
3
 62
     0
370
    -2
100
AcDbLine
 10
3616.156955993246
 20
2821.144075523783
 30
0.0
 11
4210.57822273558
 21
2821.144075523783
 31
0.0
  0
LINE
  5
8631
330
8562
100
AcDbEntity
  8
3
 62
     0
370
    -2
100
AcDbLine
 10
3616.156955993246
 20
2801.144075523783
 30
0.0
 11
4210.57822273558
 21
2801.144075523783
 31
0.0
  0
LINE
  5
8632
330
8562
100
AcDbEntity
  8
3
 62
     0
370
    -2
100
AcDbLine
 10
4170.57822273558
 20
2901.144075523783
 30
0.0
 11
4170.57822273558
 21
2981.144075523783
 31
0.0
  0
LINE
  5
8633
330
8562
100
AcDbEntity
  8
3
 62
     0
370
    -2
100
AcDbLine
 10
4170.57822273558
 20
2801.144075523783
 30
0.0
 11
4170.57822273558
 21
2721.144075523783
 31
0.0
  0
LINE
  5
8634
330
8562
100
AcDbEntity
  8
3
 62
     0
370
    -2
100
AcDbLine
 10
4170.57822273558
 20
2811.144075523783
 30
0.0
 11
4544.863937021294
 21
2923.429789809498
 31
0.0
  0
LINE
  5
8635
330
8562
100
AcDbEntity
  8
3
 62
     0
370
    -2
100
AcDbLine
 10
4544.863937021294
 20
2923.429789809498
 30
0.0
 11
4544.863937021294
 21
3352.001218380926
 31
0.0
  0
MTEXT
  5
8636
330
8562
100
AcDbEntity
  8
3
 62
     0
100
AcDbMText
 10
4413.435365592721
 20
3137.715504095212
 30
0.0
 40
120.0
 41
0.0
 71
     5
 72
     1
  1
\A1;(20)
 11
0.0000000000000001
 21
1.0
 31
0.0
 73
     1
 44
1.0
1001
ACAD
1000
MTEXTBEGIN
1070
    73
1070
     1
1070
    44
1040
1.0
1070
    74
1070
     0
1000
MTEXTEND
  0
LINE
  5
8637
330
8562
100
AcDbEntity
  8
3
 62
     0
370
    -2
100
AcDbLine
 10
4170.57822273558
 20
2821.144075523783
 30
0.0
 11
4170.57822273558
 21
2801.144075523783
 31
0.0
  0
LINE
  5
8638
330
8562
100
AcDbEntity
  8
3
 62
     0
370
    -2
100
AcDbLine
 10
4170.57822273558
 20
2821.144075523783
 30
0.0
 11
4170.57822273558
 21
2801.144075523783
 31
0.0
  0
INSERT
  5
8639
330
8562
100
AcDbEntity
  8
3
 62
     0
370
    -2
100
AcDbBlockReference
  2
_OPEN
 10
4170.57822273558
 20
2821.144075523783
 30
0.0
 41
80.0
 42
80.0
 43
80.0
 50
270.0
  0
INSERT
  5
863A
330
8562
100
AcDbEntity
  8
3
 62
     0
370
    -2
100
AcDbBlockReference
  2
_DotSmall
 10
4170.57822273558
 20
2801.144075523783
 30
0.0
 41
80.0
 42
80.0
 43
80.0
 50
90.0
  0
POINT
  5
863B
330
8562
100
AcDbEntity
  8
DEFPOINTS
 62
     0
100
AcDbPoint
 10
3596.156955993246
 20
2821.144075523783
 30
0.0
  0
POINT
  5
863C
330
8562
100
AcDbEntity
  8
DEFPOINTS
 62
     0
100
AcDbPoint
 10
3596.156955993246
 20
2801.144075523783
 30
0.0
  0
POINT
  5
863D
330
8562
100
AcDbEntity
  8
DEFPOINTS
 62
     0
100
AcDbPoint
 10
4170.57822273558
 20
2801.144075523783
 30
0.0
  0
ENDBLK
  5
8564
330
8562
100
AcDbEntity
  8
0
100
AcDbBlockEnd
  0
BLOCK
  5
8575
330
8574
100
AcDbEntity
  8
0
100
AcDbBlockBegin
  2
*D44
 70
     1
 10
0.0
 20
0.0
 30
0.0
  3
*D44
  1

  0
LINE
  5
868C
330
8574
100
AcDbEntity
  8
3
 62
     0
370
    -2
100
AcDbLine
 10
3616.156955993246
 20
2801.144075523783
 30
0.0
 11
4210.57822273558
 21
2801.144075523783
 31
0.0
  0
LINE
  5
868D
330
8574
100
AcDbEntity
  8
3
 62
     0
370
    -2
100
AcDbLine
 10
3616.156955993246
 20
2736.144075523784
 30
0.0
 11
4210.57822273558
 21
2736.144075523784
 31
0.0
  0
LINE
  5
868E
330
8574
100
AcDbEntity
  8
3
 62
     0
370
    -2
100
AcDbLine
 10
4170.57822273558
 20
2801.144075523783
 30
0.0
 11
4170.57822273558
 21
2881.144075523783
 31
0.0
  0
LINE
  5
868F
330
8574
100
AcDbEntity
  8
3
 62
     0
370
    -2
100
AcDbLine
 10
4170.57822273558
 20
2656.144075523784
 30
0.0
 11
4170.57822273558
 21
2576.144075523784
 31
0.0
  0
MTEXT
  5
8690
330
8574
100
AcDbEntity
  8
3
 62
     0
100
AcDbMText
 10
4042.659520052897
 20
2558.809890495995
 30
0.0
 40
120.0
 41
0.0
 71
     5
 72
     1
  1
\A1;65
 11
0.0000000000000001
 21
1.0
 31
0.0
 73
     1
 44
1.0
1001
ACAD
1000
MTEXTBEGIN
1070
    73
1070
     1
1070
    44
1040
1.0
1070
    74
1070
     0
1000
MTEXTEND
  0
LINE
  5
8691
330
8574
100
AcDbEntity
  8
3
 62
     0
370
    -2
100
AcDbLine
 10
4170.57822273558
 20
2801.144075523783
 30
0.0
 11
4170.57822273558
 21
2736.144075523784
 31
0.0
  0
INSERT
  5
8692
330
8574
100
AcDbEntity
  8
3
 62
     0
370
    -2
100
AcDbBlockReference
  2
_DotSmall
 10
4170.57822273558
 20
2801.144075523783
 30
0.0
 41
80.0
 42
80.0
 43
80.0
 50
270.0
  0
INSERT
  5
8693
330
8574
100
AcDbEntity
  8
3
 62
     0
370
    -2
100
AcDbBlockReference
  2
_OPEN
 10
4170.57822273558
 20
2736.144075523784
 30
0.0
 41
80.0
 42
80.0
 43
80.0
 50
90.0
  0
POINT
  5
8694
330
8574
100
AcDbEntity
  8
DEFPOINTS
 62
     0
100
AcDbPoint
 10
3596.156955993246
 20
2801.144075523783
 30
0.0
  0
POINT
  5
8695
330
8574
100
AcDbEntity
  8
DEFPOINTS
 62
     0
100
AcDbPoint
 10
3596.156955993246
 20
2736.144075523784
 30
0.0
  0
POINT
  5
8696
330
8574
100
AcDbEntity
  8
DEFPOINTS
 62
     0
100
AcDbPoint
 10
4170.57822273558
 20
2736.144075523784
 30
0.0
  0
ENDBLK
  5
8576
330
8574
100
AcDbEntity
  8
0
100
AcDbBlockEnd
  0
BLOCK
  5
8587
330
8586
100
AcDbEntity
  8
0
100
AcDbBlockBegin
  2
*D45
 70
     1
 10
0.0
 20
0.0
 30
0.0
  3
*D45
  1

  0
LINE
  5
859B
330
8586
100
AcDbEntity
  8
3
 62
     0
370
    -2
100
AcDbLine
 10
3691.156955993245
 20
5080.144075523783
 30
0.0
 11
4697.918060353069
 21
5080.144075523783
 31
0.0
  0
LINE
  5
859C
330
8586
100
AcDbEntity
  8
3
 62
     0
370
    -2
100
AcDbLine
 10
3616.156955993246
 20
2736.144075523784
 30
0.0
 11
4697.918060353069
 21
2736.144075523784
 31
0.0
  0
LINE
  5
859D
330
8586
100
AcDbEntity
  8
3
 62
     0
370
    -2
100
AcDbLine
 10
4657.918060353069
 20
5000.144075523783
 30
0.0
 11
4657.918060353069
 21
2816.144075523784
 31
0.0
  0
INSERT
  5
859E
330
8586
100
AcDbEntity
  8
3
 62
     0
370
    -2
100
AcDbBlockReference
  2
_OPEN
 10
4657.918060353069
 20
5080.144075523783
 30
0.0
 41
80.0
 42
80.0
 43
80.0
 50
90.0
  0
INSERT
  5
859F
330
8586
100
AcDbEntity
  8
3
 62
     0
370
    -2
100
AcDbBlockReference
  2
_OPEN
 10
4657.918060353069
 20
2736.144075523784
 30
0.0
 41
80.0
 42
80.0
 43
80.0
 50
270.0
  0
MTEXT
  5
85A0
330
8586
100
AcDbEntity
  8
3
 62
     0
100
AcDbMText
 10
4526.489488924497
 20
3908.144075523784
 30
0.0
 40
120.0
 41
0.0
 71
     5
 72
     1
  1
\A1;(2344)
 11
0.0000000000000001
 21
1.0
 31
0.0
 73
     1
 44
1.0
1001
ACAD
1000
MTEXTBEGIN
1070
    73
1070
     1
1070
    44
1040
1.0
1070
    74
1070
     0
1000
MTEXTEND
  0
POINT
  5
85A1
330
8586
100
AcDbEntity
  8
DEFPOINTS
 62
     0
100
AcDbPoint
 10
3671.156955993246
 20
5080.144075523783
 30
0.0
  0
POINT
  5
85A2
330
8586
100
AcDbEntity
  8
DEFPOINTS
 62
     0
100
AcDbPoint
 10
3596.156955993246
 20
2736.144075523784
 30
0.0
  0
POINT
  5
85A3
330
8586
100
AcDbEntity
  8
DEFPOINTS
 62
     0
100
AcDbPoint
 10
4657.918060353069
 20
2736.144075523784
 30
0.0
  0
ENDBLK
  5
8588
330
8586
100
AcDbEntity
  8
0
100
AcDbBlockEnd
  0
BLOCK
  5
862E
330
862C
100
AcDbEntity
  8
0
100
AcDbBlockBegin
  2
_DotSmall
 70
     0
 10
0.0
 20
0.0
 30
0.0
  3
_DotSmall
  1

  0
LWPOLYLINE
  5
862D
330
862C
100
AcDbEntity
  8
0
  6
ByBlock
 62
     0
100
AcDbPolyline
 90
        2
 70
     1
 43
0.5
 10
-0.0625
 20
0.0
 42
1.0
 10
0.0625
 20
0.0
 42
1.0
  0
ENDBLK
  5
862F
330
862C
100
AcDbEntity
  8
0
100
AcDbBlockEnd
  0
BLOCK
  5
8699
330
8698
100
AcDbEntity
  8
0
100
AcDbBlockBegin
  2
*D47
 70
     1
 10
0.0
 20
0.0
 30
0.0
  3
*D47
  1

  0
LINE
  5
86A4
330
8698
100
AcDbEntity
  8
3
 62
     0
370
    -2
100
AcDbLine
 10
3841.984076714965
 20
7607.027814553496
 30
0.0
 11
4964.500500589624
 21
7607.027814553496
 31
0.0
  0
LINE
  5
86A5
330
8698
100
AcDbEntity
  8
3
 62
     0
370
    -2
100
AcDbLine
 10
3246.156955993246
 20
6327.027814553499
 30
0.0
 11
4964.500500589624
 21
6327.027814553499
 31
0.0
  0
LINE
  5
86A6
330
8698
100
AcDbEntity
  8
3
 62
     0
370
    -2
100
AcDbLine
 10
4924.500500589624
 20
7527.027814553496
 30
0.0
 11
4924.500500589624
 21
6407.027814553498
 31
0.0
  0
INSERT
  5
86A7
330
8698
100
AcDbEntity
  8
3
 62
     0
370
    -2
100
AcDbBlockReference
  2
_OPEN
 10
4924.500500589624
 20
7607.027814553496
 30
0.0
 41
80.0
 42
80.0
 43
80.0
 50
90.0
  0
INSERT
  5
86A8
330
8698
100
AcDbEntity
  8
3
 62
     0
370
    -2
100
AcDbBlockReference
  2
_OPEN
 10
4924.500500589624
 20
6327.027814553499
 30
0.0
 41
80.0
 42
80.0
 43
80.0
 50
270.0
  0
MTEXT
  5
86A9
330
8698
100
AcDbEntity
  8
3
 62
     0
100
AcDbMText
 10
4824.500500589621
 20
6967.027814553498
 30
0.0
 40
120.0
 41
0.0
 71
     5
 72
     1
  1
\A1;1280
 11
0.0000000000000001
 21
1.0
 31
0.0
 73
     1
 44
1.0
1001
ACAD
1000
MTEXTBEGIN
1070
    73
1070
     1
1070
    44
1040
1.0
1070
    74
1070
     0
1000
MTEXTEND
  0
POINT
  5
86AA
330
8698
100
AcDbEntity
  8
DEFPOINTS
 62
     0
100
AcDbPoint
 10
3821.984076714965
 20
7607.027814553496
 30
0.0
  0
POINT
  5
86AB
330
8698
100
AcDbEntity
  8
DEFPOINTS
 62
     0
100
AcDbPoint
 10
3226.156955993245
 20
6327.027814553499
 30
0.0
  0
POINT
  5
86AC
330
8698
100
AcDbEntity
  8
DEFPOINTS
 62
     0
100
AcDbPoint
 10
4924.500500589624
 20
6327.027814553499
 30
0.0
  0
ENDBLK
  5
869A
330
8698
100
AcDbEntity
  8
0
100
AcDbBlockEnd
  0
ENDSEC
  0
SECTION
  2
ENTITIES
  0
INSERT
  5
7C23
330
839C
100
AcDbEntity
  8
0
100
AcDbBlockReference
  2
YA_N
 10
6.0
 20
5.0
 30
0.0
  0
LINE
  5
7C24
330
839C
100
AcDbEntity
  8
2
100
AcDbLine
 10
2846.156955993246
 20
5101.429794629098
 30
0.0
 11
2846.156955993244
 21
2736.144075523784
 31
0.0
  0
ARC
  5
7C25
330
839C
100
AcDbEntity
  8
1
100
AcDbCircle
 10
2937.156955993245
 20
3837.144075523784
 30
0.0
 40
1170.0
100
AcDbArc
 50
94.46084369787396
 51
184.4608436978738
  0
ARC
  5
7C26
330
839C
100
AcDbEntity
  8
1
100
AcDbCircle
 10
2755.156955993244
 20
3837.144075523784
 30
0.0
 40
988.0
100
AcDbArc
 50
185.2847329545344
 51
244.3985859526253
  0
ARC
  5
7C27
330
839C
100
AcDbEntity
  8
1
100
AcDbCircle
 10
2769.156955993246
 20
3669.144075523784
 30
0.0
 40
820.0
100
AcDbArc
 50
298.150993129518
 51
2.7575147557921
  0
LINE
  5
7C28
330
839C
100
AcDbEntity
  8
1
100
AcDbLine
 10
2846.156955993246
 20
5003.599818361891
 30
0.0
 11
3671.156955993246
 21
5080.144075523783
 31
0.0
  0
LINE
  5
7C29
330
839C
100
AcDbEntity
  8
1
100
AcDbLine
 10
3596.156955993246
 20
2821.144075523783
 30
0.0
 11
1146.156955993244
 21
2821.144075523783
 31
0.0
1001
ACAD
1000
ASC_BOUNDS
1002
{
1070
    19
1002
}
  0
LINE
  5
7C2A
330
839C
100
AcDbEntity
  8
1
100
AcDbLine
 10
3596.156955993246
 20
2946.144075523783
 30
0.0
 11
1146.156955993244
 21
2946.144075523783
 31
0.0
  0
LINE
  5
7C2B
330
839C
100
AcDbEntity
  8
1
100
AcDbLine
 10
3596.156955993246
 20
2946.144075523783
 30
0.0
 11
3596.156955993246
 21
2821.144075523783
 31
0.0
  0
LINE
  5
7C2C
330
839C
100
AcDbEntity
  8
1
100
AcDbLine
 10
1146.156955993244
 20
2946.144075523783
 30
0.0
 11
1146.156955993244
 21
2821.144075523783
 31
0.0
  0
LINE
  5
7C2D
330
839C
100
AcDbEntity
  8
2
100
AcDbLine
 10
1426.156955993245
 20
3496.998592129495
 30
0.0
 11
1426.156955993245
 21
2736.144075523784
 31
0.0
  0
LINE
  5
7C2E
330
839C
100
AcDbEntity
  8
2
100
AcDbLine
 10
1706.471172751396
 20
3206.144075523784
 30
0.0
 11
1018.992477698529
 21
3206.144075523784
 31
0.0
  0
LINE
  5
7C2F
330
839C
100
AcDbEntity
  8
1
100
AcDbLine
 10
3671.156955993246
 20
3800.144075523784
 30
0.0
 11
3587.192042881849
 21
3800.144075523784
 31
0.0
  0
LINE
  5
7C30
330
839C
100
AcDbEntity
  8
1
100
AcDbLine
 10
3621.156955993246
 20
5075.505029635184
 30
0.0
 11
3621.156955993246
 21
3800.144075523784
 31
0.0
  0
LINE
  5
7C31
330
839C
100
AcDbEntity
  8
1
100
AcDbLine
 10
3671.156955993246
 20
5133.144075523785
 30
0.0
 11
3671.156955993246
 21
3747.144075523783
 31
0.0
  0
LINE
  5
7C32
330
839C
100
AcDbEntity
  8
1
100
AcDbLine
 10
5124.500975653525
 20
2821.144075523783
 30
0.0
 11
7244.500975653522
 21
2821.144075523783
 31
0.0
1001
ACAD
1000
ASC_BOUNDS
1002
{
1070
    19
1005
0
1005
0
1002
}
  0
LINE
  5
7C33
330
839C
100
AcDbEntity
  8
1
100
AcDbLine
 10
5124.500975653525
 20
2946.144075523783
 30
0.0
 11
7244.500975653526
 21
2946.144075523783
 31
0.0
  0
LINE
  5
7C39
330
839C
100
AcDbEntity
  8
2
100
AcDbLine
 10
3749.593494242097
 20
3746.144075523783
 30
0.0
 11
1686.001718075196
 21
3746.144075523783
 31
0.0
  0
LINE
  5
7C3A
330
839C
100
AcDbEntity
  8
2
100
AcDbLine
 10
5111.200975653527
 20
3746.144075523783
 30
0.0
 11
7360.011461892764
 21
3746.144075523783
 31
0.0
  0
LINE
  5
7C3B
330
839C
100
AcDbEntity
  8
2
100
AcDbLine
 10
5054.998249057149
 20
3206.144075523784
 30
0.0
 11
5643.702211210475
 21
3206.144075523784
 31
0.0
  0
LINE
  5
7C3C
330
839C
100
AcDbEntity
  8
1
100
AcDbLine
 10
5131.500975653526
 20
3312.144075523784
 30
0.0
 11
5209.400975653525
 21
3312.144075523784
 31
0.0
  0
LINE
  5
7C3D
330
839C
100
AcDbEntity
  8
1
100
AcDbLine
 10
5131.500975653526
 20
3100.144075523783
 30
0.0
 11
5209.400975653526
 21
3100.144075523783
 31
0.0
  0
LINE
  5
7C3E
330
839C
100
AcDbEntity
  8
1
100
AcDbLine
 10
5229.500975653526
 20
3816.144075523784
 30
0.0
 11
5229.500975653526
 21
3676.144075523783
 31
0.0
  0
LINE
  5
7C3F
330
839C
100
AcDbEntity
  8
1
100
AcDbLine
 10
5209.400975653526
 20
4000.144075523784
 30
0.0
 11
5209.400975653526
 21
3816.144075523784
 31
0.0
  0
LINE
  5
7C40
330
839C
100
AcDbEntity
  8
1
100
AcDbLine
 10
5209.400975653526
 20
3816.144075523784
 30
0.0
 11
5229.500975653526
 21
3816.144075523784
 31
0.0
  0
LINE
  5
7C41
330
839C
100
AcDbEntity
  8
1
100
AcDbLine
 10
5209.400975653525
 20
3676.144075523783
 30
0.0
 11
5229.500975653526
 21
3676.144075523783
 31
0.0
  0
LINE
  5
7C42
330
839C
100
AcDbEntity
  8
1
100
AcDbLine
 10
5209.400975653526
 20
3676.144075523783
 30
0.0
 11
5209.400975653526
 21
3266.144075523783
 31
0.0
  0
LINE
  5
7C43
330
839C
100
AcDbEntity
  8
1
100
AcDbLine
 10
5131.500975653526
 20
4000.144075523784
 30
0.0
 11
5131.500975653526
 21
3100.144075523783
 31
0.0
  0
LINE
  5
7C44
330
839C
100
AcDbEntity
  8
1
100
AcDbLine
 10
5224.500975653526
 20
3266.144075523783
 30
0.0
 11
5224.500975653526
 21
3146.144075523784
 31
0.0
  0
LINE
  5
7C45
330
839C
100
AcDbEntity
  8
1
100
AcDbLine
 10
5209.400975653526
 20
3266.144075523783
 30
0.0
 11
5224.500975653526
 21
3266.144075523783
 31
0.0
  0
LINE
  5
7C46
330
839C
100
AcDbEntity
  8
1
100
AcDbLine
 10
5209.400975653526
 20
3146.144075523784
 30
0.0
 11
5224.500975653526
 21
3146.144075523784
 31
0.0
  0
LINE
  5
7C47
330
839C
100
AcDbEntity
  8
1
100
AcDbLine
 10
5209.400975653526
 20
3146.144075523784
 30
0.0
 11
5209.400975653526
 21
3100.144075523783
 31
0.0
  0
LINE
  5
7C48
330
839C
100
AcDbEntity
  8
1
100
AcDbLine
 10
5046.500975653526
 20
2986.144075523784
 30
0.0
 11
5291.500975653526
 21
2986.144075523784
 31
0.0
  0
LINE
  5
7C49
330
839C
100
AcDbEntity
  8
1
100
AcDbLine
 10
5046.500975653526
 20
4126.144075523782
 30
0.0
 11
5046.500975653526
 21
2986.144075523784
 31
0.0
  0
LINE
  5
7C4A
330
839C
100
AcDbEntity
  8
1
100
AcDbLine
 10
5291.500975653526
 20
4126.144075523782
 30
0.0
 11
5291.500975653526
 21
4106.144075523785
 31
0.0
  0
LINE
  5
7C4B
330
839C
100
AcDbEntity
  8
2
100
AcDbLine
 10
2846.156955993246
 20
8624.712157279262
 30
0.0
 11
2846.156955993246
 21
6244.534480010957
 31
0.0
  0
LINE
  5
7C4C
330
839C
100
AcDbEntity
  8
2
100
AcDbLine
 10
1426.156955993245
 20
7279.845033676823
 30
0.0
 11
1426.156955993245
 21
6231.415501442675
 31
0.0
  0
LINE
  5
7C4D
330
839C
100
AcDbEntity
  8
2
100
AcDbLine
 10
6326.500975653526
 20
5316.500490070367
 30
0.0
 11
6326.500975653526
 21
2736.144075523784
 31
0.0
  0
POINT
  5
7C4E
330
839C
100
AcDbEntity
  8
1
100
AcDbPoint
 10
2846.156955993246
 20
5101.429794629098
 30
0.0
  0
POINT
  5
7C4F
330
839C
100
AcDbEntity
  8
1
100
AcDbPoint
 10
1771.356671382593
 20
3746.144075523783
 30
0.0
  0
INSERT
  5
7C50
330
839C
100
AcDbEntity
  8
0
100
AcDbBlockReference
  2
YA_N
 10
-1757.227407310314
 20
-1218.78641745778
 30
0.0
 41
30.0
 42
30.0
 43
30.0
  0
LINE
  5
7C51
330
839C
100
AcDbEntity
  8
1
100
AcDbLine
 10
3596.156955993246
 20
2801.144075523783
 30
0.0
 11
1146.156955993244
 21
2801.144075523783
 31
0.0
1001
ACAD
1000
ASC_BOUNDS
1002
{
1070
    19
1002
}
  0
LINE
  5
7C52
330
839C
100
AcDbEntity
  8
1
100
AcDbLine
 10
3596.156955993246
 20
2736.144075523784
 30
0.0
 11
1146.156955993244
 21
2736.144075523784
 31
0.0
  0
LINE
  5
7C53
330
839C
100
AcDbEntity
  8
1
100
AcDbLine
 10
3596.156955993246
 20
2801.144075523783
 30
0.0
 11
3596.156955993246
 21
2736.144075523784
 31
0.0
  0
LINE
  5
7C54
330
839C
100
AcDbEntity
  8
1
100
AcDbLine
 10
1146.156955993244
 20
2801.144075523783
 30
0.0
 11
1146.156955993244
 21
2736.144075523784
 31
0.0
  0
ARC
  5
7C55
330
839C
100
AcDbEntity
  8
1
100
AcDbCircle
 10
1426.156955993245
 20
3206.144075523784
 30
0.0
 40
203.5
100
AcDbArc
 50
285.603699
 51
254.39624
  0
LINE
  5
7C56
330
839C
100
AcDbEntity
  8
1
100
AcDbLine
 10
1371.418918993245
 20
3010.144075523783
 30
0.0
 11
1480.894992993245
 21
3010.144075523783
 31
0.0
  0
ARC
  5
7C57
330
839C
100
AcDbEntity
  8
1
100
AcDbCircle
 10
1612.156955993245
 20
3023.144075523783
 30
0.0
 40
3.0
100
AcDbArc
 50
0.0
 51
90.0
  0
ARC
  5
7C58
330
839C
100
AcDbEntity
  8
1
100
AcDbCircle
 10
1610.156955993245
 20
3080.470736523784
 30
0.0
 40
5.000066999999999
100
AcDbArc
 50
0.0
 51
55.056335
  0
LINE
  5
7C59
330
839C
100
AcDbEntity
  8
1
100
AcDbLine
 10
1615.156955993245
 20
3080.470736523784
 30
0.0
 11
1615.156955993245
 21
3006.144075523784
 31
0.0
  0
LINE
  5
7C5D
330
839C
100
AcDbEntity
  8
1
100
AcDbLine
 10
1530.259525993245
 20
3031.287264523784
 30
0.0
 11
1535.656955993245
 21
3011.144075523783
 31
0.0
  0
LINE
  5
7C5E
330
839C
100
AcDbEntity
  8
1
100
AcDbLine
 10
1535.656955993245
 20
3023.144075523783
 30
0.0
 11
1535.656955993245
 21
3006.144075523784
 31
0.0
  0
LINE
  5
7C5F
330
839C
100
AcDbEntity
  8
1
100
AcDbLine
 10
1538.656955993245
 20
3026.144075523783
 30
0.0
 11
1612.156955993245
 21
3026.144075523783
 31
0.0
  0
ARC
  5
7C60
330
839C
100
AcDbEntity
  8
1
100
AcDbCircle
 10
1538.656955993245
 20
3023.144075523783
 30
0.0
 40
3.0
100
AcDbArc
 50
90.0
 51
180.0
  0
LINE
  5
7C61
330
839C
100
AcDbEntity
  8
1
100
AcDbLine
 10
1613.020725993244
 20
3084.569368523784
 30
0.0
 11
1597.082859993244
 21
3095.705843523783
 31
0.0
  0
LINE
  5
7C62
330
839C
100
AcDbEntity
  8
1
100
AcDbLine
 10
1237.156955993245
 20
3080.470736523784
 30
0.0
 11
1237.156955993245
 21
3006.144075523784
 31
0.0
  0
LINE
  5
7C66
330
839C
100
AcDbEntity
  8
1
100
AcDbLine
 10
1322.054172993244
 20
3031.287386523783
 30
0.0
 11
1316.656955993245
 21
3011.144075523783
 31
0.0
  0
LINE
  5
7C67
330
839C
100
AcDbEntity
  8
1
100
AcDbLine
 10
1316.656955993245
 20
3023.144075523783
 30
0.0
 11
1316.656955993245
 21
3006.144075523784
 31
0.0
  0
LINE
  5
7C68
330
839C
100
AcDbEntity
  8
1
100
AcDbLine
 10
1313.656955993245
 20
3026.144075523783
 30
0.0
 11
1240.156955993245
 21
3026.144075523783
 31
0.0
  0
ARC
  5
7C69
330
839C
100
AcDbEntity
  8
1
100
AcDbCircle
 10
1313.656955993245
 20
3023.144075523783
 30
0.0
 40
3.0
100
AcDbArc
 50
0.0
 51
90.0
  0
ARC
  5
7C6A
330
839C
100
AcDbEntity
  8
1
100
AcDbCircle
 10
1240.156955993245
 20
3023.144075523783
 30
0.0
 40
3.0
100
AcDbArc
 50
90.0
 51
180.0
  0
LINE
  5
7C6B
330
839C
100
AcDbEntity
  8
1
100
AcDbLine
 10
1239.293064993245
 20
3084.569368523784
 30
0.0
 11
1255.230930993245
 21
3095.705843523783
 31
0.0
  0
ARC
  5
7C6C
330
839C
100
AcDbEntity
  8
1
100
AcDbCircle
 10
1242.156955993245
 20
3080.470736523784
 30
0.0
 40
5.0
100
AcDbArc
 50
124.943661
 51
180.0
  0
LINE
  5
7C6D
330
839C
100
AcDbEntity
  8
1
100
AcDbLine
 10
1669.579981035854
 20
3006.144075523784
 30
0.0
 11
1496.156955993245
 21
3006.144075523784
 31
0.0
  0
LINE
  5
7C6E
330
839C
100
AcDbEntity
  8
1
100
AcDbLine
 10
1686.156955993245
 20
2946.144075523783
 30
0.0
 11
1669.579981035854
 21
3006.144075523784
 31
0.0
  0
LINE
  5
7C6F
330
839C
100
AcDbEntity
  8
1
100
AcDbLine
 10
1166.156955993245
 20
2946.144075523783
 30
0.0
 11
1182.337912538363
 21
3006.144075523784
 31
0.0
  0
LINE
  5
7C70
330
839C
100
AcDbEntity
  8
1
100
AcDbLine
 10
1496.156955993245
 20
2996.144075523783
 30
0.0
 11
1356.156955993245
 21
2996.144075523783
 31
0.0
  0
LINE
  5
7C72
330
839C
100
AcDbEntity
  8
1
100
AcDbLine
 10
1356.156955993245
 20
3006.144075523784
 30
0.0
 11
1356.156955993245
 21
2996.144075523783
 31
0.0
  0
LINE
  5
7C73
330
839C
100
AcDbEntity
  8
1
100
AcDbLine
 10
1496.156955993245
 20
3006.144075523784
 30
0.0
 11
1496.156955993245
 21
2996.144075523783
 31
0.0
  0
LINE
  5
7C76
330
839C
100
AcDbEntity
  8
1
100
AcDbLine
 10
1356.156955993245
 20
3006.144075523784
 30
0.0
 11
1182.337912538363
 21
3006.144075523784
 31
0.0
  0
INSERT
  5
7C77
330
839C
100
AcDbEntity
  8
0
100
AcDbBlockReference
  2
YA_N
 10
-755.2436758818473
 20
-538.554984833856
 30
0.0
 41
30.0
 42
30.0
 43
30.0
  0
LINE
  5
7C78
330
839C
100
AcDbEntity
  8
1
100
AcDbLine
 10
5124.500975653525
 20
2801.144075523783
 30
0.0
 11
7244.500975653526
 21
2801.144075523783
 31
0.0
1001
ACAD
1000
ASC_BOUNDS
1002
{
1070
    19
1005
0
1005
0
1002
}
  0
LINE
  5
7C79
330
839C
100
AcDbEntity
  8
1
100
AcDbLine
 10
5124.500975653525
 20
2736.144075523784
 30
0.0
 11
7244.500975653526
 21
2736.144075523784
 31
0.0
  0
LINE
  5
7C7A
330
839C
100
AcDbEntity
  8
1
100
AcDbLine
 10
7244.500975653526
 20
2801.144075523783
 30
0.0
 11
7244.500975653526
 21
2736.144075523784
 31
0.0
  0
POINT
  5
7C7E
330
839C
100
AcDbEntity
  8
1
100
AcDbPoint
 10
3596.156955993246
 20
2726.144075523783
 30
0.0
  0
CIRCLE
  5
7C81
330
839C
100
AcDbEntity
  8
1
100
AcDbCircle
 10
1426.156955993245
 20
3206.144075523784
 30
0.0
 40
107.0
  0
POINT
  5
7C82
330
839C
100
AcDbEntity
  8
1
100
AcDbPoint
 10
3596.156955993246
 20
2801.144075523783
 30
0.0
  0
POINT
  5
7C83
330
839C
100
AcDbEntity
  8
1
100
AcDbPoint
 10
3596.156955993246
 20
2821.144075523783
 30
0.0
  0
POINT
  5
7C84
330
839C
100
AcDbEntity
  8
1
100
AcDbPoint
 10
3596.156955993246
 20
2801.144075523783
 30
0.0
  0
POINT
  5
7C85
330
839C
100
AcDbEntity
  8
1
100
AcDbPoint
 10
3596.156955993246
 20
2726.144075523783
 30
0.0
  0
LINE
  5
7C87
330
839C
100
AcDbEntity
  8
1
100
AcDbLine
 10
5476.500975653525
 20
3800.144075523784
 30
0.0
 11
7176.500975653526
 21
3800.144075523784
 31
0.0
  0
LINE
  5
7C88
330
839C
100
AcDbEntity
  8
1
100
AcDbLine
 10
5476.500975653525
 20
5080.144075523783
 30
0.0
 11
7176.500975653526
 21
5080.144075523783
 31
0.0
  0
LINE
  5
7C89
330
839C
100
AcDbEntity
  8
1
100
AcDbLine
 10
7176.500975653526
 20
5080.144075523783
 30
0.0
 11
7176.500975653526
 21
2946.144075523783
 31
0.0
  0
LINE
  5
7C8A
330
839C
100
AcDbEntity
  8
1
100
AcDbLine
 10
5476.500975653525
 20
5080.144075523783
 30
0.0
 11
5476.500975653525
 21
2946.144075523783
 31
0.0
  0
ARC
  5
7C8B
330
839C
100
AcDbEntity
  8
1
100
AcDbCircle
 10
2846.156955993246
 20
3746.144075523783
 30
0.0
 40
625.0
100
AcDbArc
 50
0.0
 51
180.0
  0
ARC
  5
7C8C
330
839C
100
AcDbEntity
  8
1
100
AcDbCircle
 10
2846.156955993246
 20
3746.144075523783
 30
0.0
 40
675.0
100
AcDbArc
 50
0.0
 51
180.0
  0
LINE
  5
7C8D
330
839C
100
AcDbEntity
  8
1
100
AcDbLine
 10
2511.156955993245
 20
2948.144075523783
 30
0.0
 11
2511.156955993245
 21
2946.144075523783
 31
0.0
  0
ARC
  5
7C8E
330
839C
100
AcDbEntity
  8
1
100
AcDbCircle
 10
2846.156955993246
 20
3746.144075523783
 30
0.0
 40
625.0
100
AcDbArc
 50
180.0
 51
270.0
  0
ARC
  5
7C8F
330
839C
100
AcDbEntity
  8
1
100
AcDbCircle
 10
2846.156955993246
 20
3746.144075523783
 30
0.0
 40
675.0
100
AcDbArc
 50
180.0
 51
270.0
  0
LINE
  5
7C90
330
839C
100
AcDbEntity
  8
1
100
AcDbLine
 10
3596.156955993246
 20
8525.027814553499
 30
0.0
 11
2096.156955993245
 21
8525.027814553499
 31
0.0
  0
LINE
  5
7C91
330
839C
100
AcDbEntity
  8
1
100
AcDbLine
 10
3596.156955993246
 20
6405.027814553498
 30
0.0
 11
1146.156955993244
 21
6405.027814553498
 31
0.0
  0
LINE
  5
7C92
330
839C
100
AcDbEntity
  8
1
100
AcDbLine
 10
3596.156955993246
 20
8525.027814553494
 30
0.0
 11
3596.156955993246
 21
8457.027814553494
 31
0.0
  0
LINE
  5
7C93
330
839C
100
AcDbEntity
  8
1
100
AcDbLine
 10
1146.156955993244
 20
7405.027814553498
 30
0.0
 11
1146.156955993244
 21
6405.027814553498
 31
0.0
  0
LINE
  5
7C94
330
839C
100
AcDbEntity
  8
1
100
AcDbLine
 10
2096.156955993245
 20
8525.027814553499
 30
0.0
 11
2096.156955993245
 21
8457.0278145535
 31
0.0
  0
LINE
  5
7C95
330
839C
100
AcDbEntity
  8
1
100
AcDbLine
 10
1767.156955993245
 20
7405.027814553498
 30
0.0
 11
1146.156955993244
 21
7405.027814553498
 31
0.0
  0
LINE
  5
7C97
330
839C
100
AcDbEntity
  8
1
100
AcDbLine
 10
5319.000975653525
 20
3670.144075523784
 30
0.0
 11
5319.000975653525
 21
3540.144075523784
 31
0.0
  0
LINE
  5
7C98
330
839C
100
AcDbEntity
  8
1
100
AcDbLine
 10
5459.000975653527
 20
3680.144075523783
 30
0.0
 11
5459.000975653527
 21
3530.144075523784
 31
0.0
  0
LINE
  5
7C99
330
839C
100
AcDbEntity
  8
1
100
AcDbLine
 10
5329.000975653526
 20
3680.144075523783
 30
0.0
 11
5399.200975653528
 21
3680.144075523783
 31
0.0
  0
LINE
  5
7C9A
330
839C
100
AcDbEntity
  8
1
100
AcDbLine
 10
5329.000975653526
 20
3530.144075523784
 30
0.0
 11
5399.200975653528
 21
3530.144075523784
 31
0.0
  0
ARC
  5
7C9B
330
839C
100
AcDbEntity
  8
1
100
AcDbCircle
 10
5329.000975653526
 20
3670.144075523784
 30
0.0
 40
10.0
100
AcDbArc
 50
90.0
 51
180.0
  0
ARC
  5
7C9C
330
839C
100
AcDbEntity
  8
1
100
AcDbCircle
 10
5329.000975653526
 20
3540.144075523784
 30
0.0
 40
10.0
100
AcDbArc
 50
180.0
 51
270.0
  0
LINE
  5
7C9D
330
839C
100
AcDbEntity
  8
1
100
AcDbLine
 10
5399.200975653526
 20
3530.144075523784
 30
0.0
 11
5459.000975653527
 21
3530.144075523784
 31
0.0
  0
LINE
  5
7C9E
330
839C
100
AcDbEntity
  8
1
100
AcDbLine
 10
5399.200975653526
 20
3680.144075523783
 30
0.0
 11
5459.000975653527
 21
3680.144075523783
 31
0.0
  0
LINE
  5
7C9F
330
839C
100
AcDbEntity
  8
1
100
AcDbLine
 10
7346.500975653523
 20
3670.144075523784
 30
0.0
 11
7346.500975653523
 21
3540.144075523784
 31
0.0
  0
LINE
  5
7CA0
330
839C
100
AcDbEntity
  8
1
100
AcDbLine
 10
7194.000975653526
 20
3680.144075523783
 30
0.0
 11
7194.000975653526
 21
3530.144075523784
 31
0.0
  0
LINE
  5
7CA1
330
839C
100
AcDbEntity
  8
1
100
AcDbLine
 10
7336.500975653523
 20
3530.144075523784
 30
0.0
 11
7253.800975653523
 21
3530.144075523784
 31
0.0
  0
ARC
  5
7CA2
330
839C
100
AcDbEntity
  8
1
100
AcDbCircle
 10
7336.500975653523
 20
3540.144075523784
 30
0.0
 40
10.0
100
AcDbArc
 50
270.0
 51
0.0
  0
LINE
  5
7CA3
330
839C
100
AcDbEntity
  8
1
100
AcDbLine
 10
7253.800975653523
 20
3530.144075523784
 30
0.0
 11
7194.000975653526
 21
3530.144075523784
 31
0.0
  0
LINE
  5
7CA4
330
839C
100
AcDbEntity
  8
1
100
AcDbLine
 10
7336.500975653523
 20
3680.144075523783
 30
0.0
 11
7253.800975653523
 21
3680.144075523783
 31
0.0
  0
ARC
  5
7CA5
330
839C
100
AcDbEntity
  8
1
100
AcDbCircle
 10
7336.500975653523
 20
3670.144075523784
 30
0.0
 40
10.0
100
AcDbArc
 50
0.0
 51
90.0
  0
LINE
  5
7CA6
330
839C
100
AcDbEntity
  8
1
100
AcDbLine
 10
7253.800975653523
 20
3680.144075523783
 30
0.0
 11
7194.000975653526
 21
3680.144075523783
 31
0.0
  0
ARC
  5
7CAA
330
839C
100
AcDbEntity
  8
1
100
AcDbCircle
 10
2846.156955993246
 20
3746.144075523783
 30
0.0
 40
675.0
100
AcDbArc
 50
270.0
 51
0.0
  0
ARC
  5
7CAB
330
839C
100
AcDbEntity
  8
1
100
AcDbCircle
 10
2846.156955993246
 20
3746.144075523783
 30
0.0
 40
625.0
100
AcDbArc
 50
270.0
 51
0.0
  0
CIRCLE
  5
7CAF
330
839C
100
AcDbEntity
  8
1
100
AcDbCircle
 10
2846.156955993246
 20
3746.144075523783
 30
0.0
 40
254.0
  0
ARC
  5
7CB0
330
839C
100
AcDbEntity
  8
1
100
AcDbCircle
 10
2846.156955993246
 20
3746.144075523783
 30
0.0
 40
380.0
100
AcDbArc
 50
284.7754119540463
 51
116.8663737525752
  0
ARC
  5
7CB1
330
839C
100
AcDbEntity
  8
1
100
AcDbCircle
 10
1426.156955993245
 20
3206.144075523784
 30
0.0
 40
220.0
100
AcDbArc
 50
116.8663737525752
 51
284.7754119540463
  0
LINE
  5
7CB2
330
839C
100
AcDbEntity
  8
1
100
AcDbLine
 10
2674.430682702501
 20
4085.127979362407
 30
0.0
 11
1326.736481982814
 21
3402.397914588249
 31
0.0
  0
LINE
  5
7CB3
330
839C
100
AcDbEntity
  8
1
100
AcDbLine
 10
2733.324597712614
 20
3973.706943595074
 30
0.0
 11
1378.625214512822
 21
3302.007173490823
 31
0.0
  0
LINE
  5
7CB4
330
839C
100
AcDbEntity
  8
1
100
AcDbLine
 10
2913.044808208018
 20
3501.109353033082
 30
0.0
 11
1454.33412208372
 21
3102.920786915496
 31
0.0
  0
LINE
  5
7CB5
330
839C
100
AcDbEntity
  8
1
100
AcDbLine
 10
2943.068671225063
 20
3378.709565099372
 30
0.0
 11
1482.263738495876
 21
2993.418832646492
 31
0.0
  0
POINT
  5
7CBD
330
839C
100
AcDbEntity
  8
1
100
AcDbPoint
 10
3596.156955993246
 20
2801.144075523783
 30
0.0
  0
POINT
  5
7CBE
330
839C
100
AcDbEntity
  8
1
100
AcDbPoint
 10
3596.156955993246
 20
2736.144075523784
 30
0.0
  0
POINT
  5
7CC5
330
839C
100
AcDbEntity
  8
1
100
AcDbPoint
 10
3596.156955993246
 20
2801.144075523783
 30
0.0
  0
POINT
  5
7CC6
330
839C
100
AcDbEntity
  8
1
100
AcDbPoint
 10
3596.156955993246
 20
2821.144075523783
 30
0.0
  0
ARC
  5
7CCA
330
839C
100
AcDbEntity
  8
1
100
AcDbCircle
 10
2846.156955993246
 20
3746.144075523783
 30
0.0
 40
743.0
100
AcDbArc
 50
357.103091958974
 51
4.167836322161878
  0
LINE
  5
7CCB
330
839C
100
AcDbEntity
  8
1
100
AcDbLine
 10
5131.500975653526
 20
4000.144075523784
 30
0.0
 11
5209.400975653525
 21
4000.144075523784
 31
0.0
  0
LINE
  5
7CCC
330
839C
100
AcDbEntity
  8
1
100
AcDbLine
 10
5131.500975653526
 20
3492.144075523784
 30
0.0
 11
5209.400975653525
 21
3492.144075523784
 31
0.0
  0
LINE
  5
7CCD
330
839C
100
AcDbEntity
  8
1
100
AcDbLine
 10
5046.500975653525
 20
4126.144075523782
 30
0.0
 11
5291.500975653525
 21
4126.144075523782
 31
0.0
  0
LINE
  5
7CCE
330
839C
100
AcDbEntity
  8
1
100
AcDbLine
 10
5291.500975653526
 20
3006.144075523784
 30
0.0
 11
5291.500975653526
 21
2986.144075523784
 31
0.0
  0
INSERT
  5
7CCF
330
839C
100
AcDbEntity
  8
0
100
AcDbBlockReference
  2
YA_N
 10
4767.943419715615
 20
-1494.695868425496
 30
0.0
  0
LINE
  5
7CD0
330
839C
100
AcDbEntity
  8
1
100
AcDbLine
 10
7244.500975653526
 20
2946.144075523783
 30
0.0
 11
7244.500975653522
 21
2821.144075523783
 31
0.0
  0
LINE
  5
7CD1
330
839C
100
AcDbEntity
  8
1
100
AcDbLine
 10
5124.500975653525
 20
2801.144075523783
 30
0.0
 11
5124.500975653528
 21
2736.144075523784
 31
0.0
  0
LINE
  5
7CD2
330
839C
100
AcDbEntity
  8
1
100
AcDbLine
 10
5124.500975653525
 20
2946.144075523783
 30
0.0
 11
5124.500975653525
 21
2821.144075523783
 31
0.0
  0
LINE
  5
7CD6
330
839C
100
AcDbEntity
  8
1
100
AcDbLine
 10
5229.500975653526
 20
3783.644075523783
 30
0.0
 11
5476.500975653525
 21
3783.644075523783
 31
0.0
  0
LINE
  5
7CD7
330
839C
100
AcDbEntity
  8
1
100
AcDbLine
 10
5229.500975653526
 20
3708.644075523784
 30
0.0
 11
5476.500975653525
 21
3708.644075523784
 31
0.0
  0
LINE
  5
7CD8
330
839C
100
AcDbEntity
  8
1
100
AcDbLine
 10
7176.500975653524
 20
5080.144075523783
 30
0.0
 11
5476.500975653525
 21
3800.144075523784
 31
0.0
  0
LINE
  5
7CD9
330
839C
100
AcDbEntity
  8
1
100
AcDbLine
 10
5476.500975653525
 20
5080.144075523783
 30
0.0
 11
7176.500975653528
 21
3800.144075523784
 31
0.0
  0
LINE
  5
7CDA
330
839C
100
AcDbEntity
  8
1
100
AcDbLine
 10
5320.450975653527
 20
3006.144075523784
 30
0.0
 11
5320.450975653526
 21
3206.144075523784
 31
0.0
  0
LINE
  5
7CDB
330
839C
100
AcDbEntity
  8
1
100
AcDbLine
 10
5320.450975653528
 20
3006.144075523784
 30
0.0
 11
5476.500975653525
 21
3006.144075523785
 31
0.0
  0
LINE
  5
7CDC
330
839C
100
AcDbEntity
  8
1
100
AcDbLine
 10
5476.500975653525
 20
3416.144075523785
 30
0.0
 11
5320.450975653525
 21
3416.144075523785
 31
0.0
  0
LINE
  5
7CDD
330
839C
100
AcDbEntity
  8
1
100
AcDbLine
 10
5310.450975653527
 20
3176.144075523784
 30
0.0
 11
5224.500975653526
 21
3176.144075523784
 31
0.0
  0
LINE
  5
7CDE
330
839C
100
AcDbEntity
  8
1
100
AcDbLine
 10
5310.450975653527
 20
3236.144075523784
 30
0.0
 11
5224.500975653526
 21
3236.144075523784
 31
0.0
  0
LINE
  5
7CDF
330
839C
100
AcDbEntity
  8
1
100
AcDbLine
 10
5320.450975653526
 20
3416.144075523785
 30
0.0
 11
5320.450975653526
 21
3206.144075523784
 31
0.0
  0
LINE
  5
7CE0
330
839C
100
AcDbEntity
  8
1
100
AcDbLine
 10
5310.450975653527
 20
3173.644075523784
 30
0.0
 11
5310.450975653527
 21
3238.644075523784
 31
0.0
  0
LINE
  5
7CE1
330
839C
100
AcDbEntity
  8
1
100
AcDbLine
 10
5310.450975653527
 20
3173.644075523784
 30
0.0
 11
5320.450975653526
 21
3173.644075523784
 31
0.0
  0
LINE
  5
7CE2
330
839C
100
AcDbEntity
  8
1
100
AcDbLine
 10
5310.450975653527
 20
3238.644075523784
 30
0.0
 11
5320.450975653526
 21
3238.644075523784
 31
0.0
  0
LINE
  5
7CF1
330
839C
100
AcDbEntity
  8
2
100
AcDbLine
 10
3821.984076714965
 20
7607.027814553496
 30
0.0
 11
1837.156955993244
 21
7607.027814553496
 31
0.0
  0
LINE
  5
7CF2
330
839C
100
AcDbEntity
  8
1
100
AcDbLine
 10
3226.156955993245
 20
6327.027814553499
 30
0.0
 11
1206.156955993245
 21
6327.027814553499
 31
0.0
  0
LINE
  5
7CF3
330
839C
100
AcDbEntity
  8
1
100
AcDbLine
 10
3100.156955993246
 20
6412.0278145535
 30
0.0
 11
2592.156955993245
 21
6412.0278145535
 31
0.0
  0
LINE
  5
7CF4
330
839C
100
AcDbEntity
  8
1
100
AcDbLine
 10
2776.156955993246
 20
6489.927814553498
 30
0.0
 11
2592.156955993245
 21
6489.927814553498
 31
0.0
  0
LINE
  5
7CF5
330
839C
100
AcDbEntity
  8
1
100
AcDbLine
 10
1396.156955993244
 20
6590.9778145535
 30
0.0
 11
1396.156955993244
 21
6505.027814553499
 31
0.0
  0
LINE
  5
7CF6
330
839C
100
AcDbEntity
  8
1
100
AcDbLine
 10
1456.156955993245
 20
6590.9778145535
 30
0.0
 11
1456.156955993245
 21
6505.027814553499
 31
0.0
  0
LINE
  5
7CF7
330
839C
100
AcDbEntity
  8
1
100
AcDbLine
 10
1206.156955993245
 20
6327.027814553499
 30
0.0
 11
1206.156955993245
 21
6572.027814553499
 31
0.0
  0
LINE
  5
7CF8
330
839C
100
AcDbEntity
  8
1
100
AcDbLine
 10
2046.156955993244
 20
6405.027814553498
 30
0.0
 11
1921.156955993245
 21
6405.027814553498
 31
0.0
  0
LINE
  5
7CF9
330
839C
100
AcDbEntity
  8
1
100
AcDbLine
 10
1902.156955993245
 20
6405.027814553498
 30
0.0
 11
1837.156955993244
 21
6405.027814553498
 31
0.0
  0
LINE
  5
7CFA
330
839C
100
AcDbEntity
  8
1
100
AcDbLine
 10
1486.156955993244
 20
6505.027814553499
 30
0.0
 11
1366.156955993245
 21
6505.027814553499
 31
0.0
  0
LINE
  5
7CFB
330
839C
100
AcDbEntity
  8
1
100
AcDbLine
 10
1366.156955993245
 20
6489.927814553498
 30
0.0
 11
1320.156955993245
 21
6489.927814553498
 31
0.0
  0
LINE
  5
7CFC
330
839C
100
AcDbEntity
  8
1
100
AcDbLine
 10
1320.156955993245
 20
6412.0278145535
 30
0.0
 11
1320.156955993245
 21
6489.927814553498
 31
0.0
  0
LINE
  5
7CFD
330
839C
100
AcDbEntity
  8
1
100
AcDbLine
 10
1366.156955993245
 20
6489.927814553498
 30
0.0
 11
1366.156955993245
 21
6505.027814553499
 31
0.0
  0
LINE
  5
7CFE
330
839C
100
AcDbEntity
  8
1
100
AcDbLine
 10
1532.156955993245
 20
6412.0278145535
 30
0.0
 11
1532.156955993245
 21
6489.927814553498
 31
0.0
  0
LINE
  5
7CFF
330
839C
100
AcDbEntity
  8
1
100
AcDbLine
 10
1486.156955993244
 20
6489.927814553498
 30
0.0
 11
1486.156955993244
 21
6505.027814553499
 31
0.0
  0
LINE
  5
7D00
330
839C
100
AcDbEntity
  8
1
100
AcDbLine
 10
2592.156955993245
 20
6412.0278145535
 30
0.0
 11
2592.156955993245
 21
6489.927814553498
 31
0.0
  0
LINE
  5
7D01
330
839C
100
AcDbEntity
  8
1
100
AcDbLine
 10
1636.156955993245
 20
6600.977814553498
 30
0.0
 11
1426.156955993245
 21
6600.977814553498
 31
0.0
  0
LINE
  5
7D02
330
839C
100
AcDbEntity
  8
1
100
AcDbLine
 10
1393.656955993245
 20
6590.9778145535
 30
0.0
 11
1458.656955993244
 21
6590.9778145535
 31
0.0
  0
LINE
  5
7D03
330
839C
100
AcDbEntity
  8
1
100
AcDbLine
 10
1226.156955993245
 20
6600.977814553501
 30
0.0
 11
1226.156955993252
 21
7250.477814553502
 31
0.0
  0
LINE
  5
7D04
330
839C
100
AcDbEntity
  8
1
100
AcDbLine
 10
1226.156955993245
 20
6600.977814553501
 30
0.0
 11
1426.156955993245
 21
6600.977814553498
 31
0.0
  0
LINE
  5
7D05
330
839C
100
AcDbEntity
  8
1
100
AcDbLine
 10
1393.656955993245
 20
6590.9778145535
 30
0.0
 11
1393.656955993245
 21
6600.977814553498
 31
0.0
  0
LINE
  5
7D06
330
839C
100
AcDbEntity
  8
1
100
AcDbLine
 10
1226.156955993246
 20
6776.4778145535
 30
0.0
 11
1227.156955993246
 21
6776.4778145535
 31
0.0
  0
LINE
  5
7D07
330
839C
100
AcDbEntity
  8
1
100
AcDbLine
 10
1636.156955993252
 20
7250.477814553498
 30
0.0
 11
1636.156955993245
 21
6600.977814553498
 31
0.0
  0
LINE
  5
7D08
330
839C
100
AcDbEntity
  8
1
100
AcDbLine
 10
1458.656955993244
 20
6590.9778145535
 30
0.0
 11
1458.656955993244
 21
6600.977814553498
 31
0.0
  0
LINE
  5
7D09
330
839C
100
AcDbEntity
  8
1
100
AcDbLine
 10
2808.656955993244
 20
6510.0278145535
 30
0.0
 11
2808.656955993244
 21
6757.027814553497
 31
0.0
  0
LINE
  5
7D0A
330
839C
100
AcDbEntity
  8
1
100
AcDbLine
 10
2883.656955993246
 20
6510.0278145535
 30
0.0
 11
2883.656955993246
 21
6757.027814553499
 31
0.0
  0
LINE
  5
7D0B
330
839C
100
AcDbEntity
  8
1
100
AcDbLine
 10
3226.156955993245
 20
6327.027814553499
 30
0.0
 11
3226.156955993245
 21
6572.027814553497
 31
0.0
  0
LINE
  5
7D0C
330
839C
100
AcDbEntity
  8
1
100
AcDbLine
 10
2916.156955993244
 20
6510.0278145535
 30
0.0
 11
2776.156955993246
 21
6510.0278145535
 31
0.0
  0
LINE
  5
7D0D
330
839C
100
AcDbEntity
  8
1
100
AcDbLine
 10
2776.156955993246
 20
6489.927814553498
 30
0.0
 11
2776.156955993246
 21
6510.0278145535
 31
0.0
  0
LINE
  5
7D0E
330
839C
100
AcDbEntity
  8
1
100
AcDbLine
 10
3100.156955993246
 20
6489.927814553498
 30
0.0
 11
2916.156955993244
 21
6489.927814553498
 31
0.0
  0
LINE
  5
7D0F
330
839C
100
AcDbEntity
  8
1
100
AcDbLine
 10
2916.156955993244
 20
6489.927814553498
 30
0.0
 11
2916.156955993244
 21
6510.0278145535
 31
0.0
  0
LINE
  5
7D10
330
839C
100
AcDbEntity
  8
1
100
AcDbLine
 10
3100.156955993246
 20
6412.0278145535
 30
0.0
 11
3100.156955993246
 21
6489.927814553498
 31
0.0
  0
LINE
  5
7D11
330
839C
100
AcDbEntity
  8
1
100
AcDbLine
 10
3226.156955993245
 20
6572.027814553499
 30
0.0
 11
1206.156955993245
 21
6572.02781455359
 31
0.0
  0
LINE
  5
7D13
330
839C
100
AcDbEntity
  8
1
100
AcDbLine
 10
1226.156955993247
 20
7250.477814553502
 30
0.0
 11
1636.156955993252
 21
7250.477814553498
 31
0.0
  0
LINE
  5
7D14
330
839C
100
AcDbEntity
  8
1
100
AcDbLine
 10
3671.156955993246
 20
8457.027814553494
 30
0.0
 11
1767.156955993246
 21
8457.027814553494
 31
0.0
  0
LINE
  5
7D15
330
839C
100
AcDbEntity
  8
1
100
AcDbLine
 10
3671.156955993246
 20
6757.027814553497
 30
0.0
 11
1767.156955993245
 21
6757.027814553497
 31
0.0
  0
LINE
  5
7D16
330
839C
100
AcDbEntity
  8
1
100
AcDbLine
 10
3671.156955993246
 20
8507.0278145535
 30
0.0
 11
3671.156955993246
 21
6707.027814553497
 31
0.0
  0
LINE
  5
7D17
330
839C
100
AcDbEntity
  8
1
100
AcDbLine
 10
1767.156955993245
 20
8457.027814553494
 30
0.0
 11
1767.156955993245
 21
6757.027814553497
 31
0.0
  0
LINE
  5
7D18
330
839C
100
AcDbEntity
  8
1
100
AcDbLine
 10
3596.156955993246
 20
6757.027814553497
 30
0.0
 11
3596.156955993246
 21
6405.027814553496
 31
0.0
  0
LINE
  5
7D19
330
839C
100
AcDbEntity
  8
1
100
AcDbLine
 10
1532.156955993245
 20
6489.927814553498
 30
0.0
 11
1486.156955993244
 21
6489.927814553498
 31
0.0
  0
LINE
  5
7D1A
330
839C
100
AcDbEntity
  8
1
100
AcDbLine
 10
1532.156955993245
 20
6412.0278145535
 30
0.0
 11
1320.156955993245
 21
6412.0278145535
 31
0.0
  0
LINE
  5
8092
330
839C
100
AcDbEntity
  8
4
100
AcDbLine
 10
7400.0
 20
2000.0
 30
0.0
 11
7400.0
 21
1200.0
 31
0.0
  0
LINE
  5
8093
330
839C
100
AcDbEntity
  8
4
100
AcDbLine
 10
4600.0
 20
2000.0
 30
0.0
 11
4600.0
 21
1200.0
 31
0.0
  0
LINE
  5
8094
330
839C
100
AcDbEntity
  8
4
100
AcDbLine
 10
2600.0
 20
2000.0
 30
0.0
 11
2600.0
 21
1200.0
 31
0.0
  0
LINE
  5
8097
330
839C
100
AcDbEntity
  8
4
100
AcDbLine
 10
2600.0
 20
1200.0
 30
0.0
 11
7400.0
 21
1200.0
 31
0.0
  0
LINE
  5
8098
330
839C
100
AcDbEntity
  8
4
100
AcDbLine
 10
2600.0
 20
1600.0
 30
0.0
 11
7400.0
 21
1600.0
 31
0.0
  0
TEXT
  5
8099
330
839C
100
AcDbEntity
  8
4
100
AcDbText
 10
2754.008323387607
 20
1726.172103466451
 30
0.0
 40
200.0
  1
機器名称
100
AcDbText
  0
TEXT
  5
809A
330
839C
100
AcDbEntity
  8
4
100
AcDbText
 10
2745.03242409919
 20
1286.580626928043
 30
0.0
 40
200.0
  1
機器型番
100
AcDbText
  0
TEXT
  5
809B
330
839C
100
AcDbEntity
  8
4
100
AcDbText
 10
4710.714981950659
 20
1690.287075830274
 30
0.0
 40
200.0
  1
ミツヤ多翼送風機
100
AcDbText
  0
TEXT
  5
809C
330
839C
100
AcDbEntity
  8
4
100
AcDbText
 10
4746.617982341923
 20
1268.638337119773
 30
0.0
 40
200.0
  1
MF#8-5
100
AcDbText
  0
TEXT
  5
809E
330
839C
100
AcDbEntity
  8
4
100
AcDbText
 10
2904.810751349723
 20
9533.715365330063
 30
0.0
 40
215.9999999999999
  1
床置防振ベット
100
AcDbText
  0
TEXT
  5
809F
330
839C
100
AcDbEntity
  8
4
100
AcDbText
 10
1264.670373317785
 20
10135.52390479719
 30
0.0
 40
288.0
  1
遠心式両吸込両持多翼ファン
100
AcDbText
  0
LINE
  5
80A0
330
839C
100
AcDbEntity
  8
4
100
AcDbLine
 10
1000.0
 20
9877.635017059219
 30
0.0
 11
7400.0
 21
9877.635017059219
 31
0.0
  0
LINE
  5
80A1
330
839C
100
AcDbEntity
  8
4
100
AcDbLine
 10
1000.0
 20
10677.63501705921
 30
0.0
 11
7400.0
 21
10677.63501705921
 31
0.0
  0
LINE
  5
80A2
330
839C
100
AcDbEntity
  8
4
100
AcDbLine
 10
2600.0
 20
2000.0
 30
0.0
 11
7400.0
 21
2000.0
 31
0.0
  0
LINE
  5
80A3
330
839C
100
AcDbEntity
  8
4
100
AcDbLine
 10
1000.0
 20
10677.63501705921
 30
0.0
 11
1000.0
 21
9877.635017059219
 31
0.0
  0
TEXT
  5
80A4
330
839C
100
AcDbEntity
  8
4
100
AcDbText
 10
1161.375422378914
 20
9529.277910185374
 30
0.0
 40
215.9999999999999
  1
右回転右横向
100
AcDbText
  0
TEXT
  5
80A5
330
839C
100
AcDbEntity
  8
4
100
AcDbText
 10
5875.878236997159
 20
10824.24432598123
 30
0.0
 40
224.0
  1
No.
100
AcDbText
  0
TEXT
  5
80A6
330
839C
100
AcDbEntity
  8
4
100
AcDbText
 10
5245.184250400053
 20
9533.715365330063
 30
0.0
 40
215.9999999999999
  1
縮尺：1/40
100
AcDbText
  0
LINE
  5
80A7
330
839C
100
AcDbEntity
  8
4
100
AcDbLine
 10
7400.0
 20
10677.63501705921
 30
0.0
 11
7400.0
 21
9877.635017059219
 31
0.0
  0
LINE
  5
80A8
330
839C
100
AcDbEntity
  8
4
100
AcDbLine
 10
8400.0
 20
11800.0
 30
0.0
 11
8400.0
 21
11800.0
 31
0.0
  0
LINE
  5
80A9
330
839C
100
AcDbEntity
  8
4
100
AcDbLine
 10
5762.469689439458
 20
10725.0543325016
 30
0.0
 11
5762.469689439458
 21
11146.609046199
 31
0.0
  0
LINE
  5
80AA
330
839C
100
AcDbEntity
  8
4
100
AcDbLine
 10
5762.469689439458
 20
11146.609046199
 30
0.0
 11
7400.0
 21
11146.609046199
 31
0.0
  0
LINE
  5
80AB
330
839C
100
AcDbEntity
  8
4
100
AcDbLine
 10
7400.0
 20
11146.609046199
 30
0.0
 11
7400.0
 21
10725.0543325016
 31
0.0
  0
LINE
  5
80AC
330
839C
100
AcDbEntity
  8
4
100
AcDbLine
 10
7400.0
 20
10725.0543325016
 30
0.0
 11
5762.469689439458
 21
10725.0543325016
 31
0.0
  0
LINE
  5
80AD
330
839C
100
AcDbEntity
  8
4
100
AcDbLine
 10
0.0
 20
0.0
 30
0.0
 11
0.0
 21
11800.0
 31
0.0
  0
LINE
  5
80AE
330
839C
100
AcDbEntity
  8
4
100
AcDbLine
 10
0.0
 20
11800.0
 30
0.0
 11
8400.0
 21
11800.0
 31
0.0
  0
LINE
  5
80AF
330
839C
100
AcDbEntity
  8
4
100
AcDbLine
 10
8400.0
 20
11800.0
 30
0.0
 11
8400.0
 21
0.0
 31
0.0
  0
LINE
  5
80B0
330
839C
100
AcDbEntity
  8
4
100
AcDbLine
 10
8400.0
 20
0.0
 30
0.0
 11
0.0
 21
0.0
 31
0.0
  0
DIMENSION
  5
814B
330
839C
100
AcDbEntity
  8
3
100
AcDbDimension
  2
*D21
 10
2846.156955993244
 20
2492.132715361302
 30
0.0
 11
1996.156955993244
 21
2592.132715361302
 31
0.0
 71
     5
 42
-1.0
  3
Standard
100
AcDbAlignedDimension
 13
1146.156955993244
 23
2736.144075523784
 33
0.0
 14
2846.156955993244
 24
2736.144075523784
 34
0.0
100
AcDbRotatedDimension
1001
ACAD
1000
DSTYLE
1002
{
1070
   172
1070
     1
1070
    40
1040
40.0
1070
   271
1070
     0
1070
   143
1040
0.039
1002
}
  0
DIMENSION
  5
8158
330
839C
100
AcDbEntity
  8
3
100
AcDbDimension
  2
*D22
 10
3596.156955993246
 20
2492.132715361302
 30
0.0
 11
3221.156955993246
 21
2592.132715361302
 31
0.0
 71
     5
 42
-1.0
  3
Standard
100
AcDbAlignedDimension
 13
2846.156955993244
 23
2736.144075523784
 33
0.0
 14
3596.156955993246
 24
2736.144075523784
 34
0.0
100
AcDbRotatedDimension
1001
ACAD
1000
DSTYLE
1002
{
1070
   172
1070
     1
1070
    40
1040
40.0
1070
   271
1070
     0
1070
   143
1040
0.039
1002
}
  0
DIMENSION
  5
8165
330
839C
100
AcDbEntity
  8
3
100
AcDbDimension
  2
*D23
 10
6326.500975653526
 20
2492.132715361302
 30
0.0
 11
5725.500975653524
 21
2592.132715361302
 31
0.0
 71
     5
 42
-1.0
  3
Standard
100
AcDbAlignedDimension
 13
5124.500975653525
 23
2736.144075523784
 33
0.0
 14
6326.500975653526
 24
2736.144075523784
 34
0.0
100
AcDbRotatedDimension
1001
ACAD
1000
DSTYLE
1002
{
1070
   172
1070
     1
1070
    40
1040
40.0
1070
   271
1070
     0
1070
   143
1040
0.039
1002
}
  0
DIMENSION
  5
8172
330
839C
100
AcDbEntity
  8
3
100
AcDbDimension
  2
*D24
 10
7244.500975653526
 20
2492.132715361302
 30
0.0
 11
6785.500975653525
 21
2592.132715361302
 31
0.0
 71
     5
 42
-1.0
  3
Standard
100
AcDbAlignedDimension
 13
6326.500975653526
 23
2736.144075523784
 33
0.0
 14
7244.500975653526
 24
2736.144075523784
 34
0.0
100
AcDbRotatedDimension
1001
ACAD
1000
DSTYLE
1002
{
1070
   172
1070
     1
1070
    40
1040
40.0
1070
   271
1070
     0
1070
   143
1040
0.039
1002
}
  0
DIMENSION
  5
8441
330
839C
100
AcDbEntity
  8
3
100
AcDbDimension
  2
*D28
 10
7587.77060056603
 20
3121.144075523783
 30
0.0
 11
7487.77060056603
 21
3746.144075523786
 31
0.0
 70
    32
  1
\U+03C6<>
 71
     5
 42
1250.0
  3
IGA
100
AcDbAlignedDimension
 13
7176.500975653526
 23
4371.144075523783
 33
0.0
 14
7176.500975653526
 24
3121.144075523783
 34
0.0
 50
90.0
100
AcDbRotatedDimension
1001
ACAD
1000
DSTYLE
1002
{
1070
    40
1040
40.0
1070
   143
1040
0.039
1070
   172
1070
     1
1070
   271
1070
     4
1070
   272
1070
     4
1070
   279
1070
     0
1070
   284
1070
     0
1070
   285
1070
     0
1070
   286
1070
     0
1070
   341
1005
83B3
1070
   343
1005
83B3
1070
   344
1005
83B3
1002
}
  0
DIMENSION
  5
844E
330
839C
100
AcDbEntity
  8
3
100
AcDbDimension
  2
*D29
 10
7176.500975653526
 20
5381.543861990349
 30
0.0
 11
6326.500975653526
 21
5481.543861990349
 31
0.0
 70
    32
 71
     5
 42
1700.000000000001
  3
IGA
100
AcDbAlignedDimension
 13
5476.500975653525
 23
5080.144075523783
 33
0.0
 14
7176.500975653526
 24
5080.144075523783
 34
0.0
100
AcDbRotatedDimension
1001
ACAD
1000
DSTYLE
1002
{
1070
    40
1040
40.0
1070
   143
1040
0.039
1070
   172
1070
     1
1070
   271
1070
     4
1070
   272
1070
     4
1070
   279
1070
     0
1070
   284
1070
     0
1070
   285
1070
     0
1070
   286
1070
     0
1070
   341
1005
83B3
1070
   343
1005
83B3
1070
   344
1005
83B3
1002
}
  0
DIMENSION
  5
845B
330
839C
100
AcDbEntity
  8
3
100
AcDbDimension
  2
*D30
 10
6326.500975653526
 20
5634.50716684925
 30
0.0
 11
5686.500975653526
 21
5765.935738277821
 31
0.0
 70
    32
  1
(<>)
 71
     5
 42
1279.999999999999
  3
IGA
100
AcDbAlignedDimension
 13
5046.500975653526
 23
4126.144075523782
 33
0.0
 14
6326.500975653526
 24
5541.543861990349
 34
0.0
100
AcDbRotatedDimension
1001
ACAD
1000
DSTYLE
1002
{
1070
    40
1040
40.0
1070
   143
1040
0.039
1070
   172
1070
     1
1070
   271
1070
     4
1070
   272
1070
     4
1070
   279
1070
     0
1070
   284
1070
     0
1070
   285
1070
     0
1070
   286
1070
     0
1070
   341
1005
83B3
1070
   343
1005
83B3
1070
   344
1005
83B3
1002
}
  0
DIMENSION
  5
8468
330
839C
100
AcDbEntity
  8
3
100
AcDbDimension
  2
*D31
 10
7346.500975653523
 20
5634.50716684925
 30
0.0
 11
6836.500975653525
 21
5765.935738277821
 31
0.0
 70
    32
  1
(<>)
 71
     5
 42
1019.999999999997
  3
IGA
100
AcDbAlignedDimension
 13
6326.500975653526
 23
5541.543861990349
 33
0.0
 14
7346.500975653523
 24
3670.144075523784
 34
0.0
100
AcDbRotatedDimension
1001
ACAD
1000
DSTYLE
1002
{
1070
    40
1040
40.0
1070
   143
1040
0.039
1070
   172
1070
     1
1070
   271
1070
     4
1070
   272
1070
     4
1070
   279
1070
     1
1070
   284
1070
     0
1070
   285
1070
     0
1070
   286
1070
     0
1070
   341
1005
83B3
1070
   343
1005
83B3
1070
   344
1005
83B3
1002
}
  0
DIMENSION
  5
84D2
330
839C
100
AcDbEntity
  8
3
100
AcDbDimension
  2
*D32
 10
2096.156955993245
 20
8729.663953058681
 30
0.0
 11
1621.156955993244
 21
8829.663953058682
 31
0.0
 70
    32
 71
     5
 42
950.0000000000008
  3
IGA
100
AcDbAlignedDimension
 13
1146.156955993244
 23
7405.027814553498
 33
0.0
 14
2096.156955993245
 24
8525.027814553499
 34
0.0
100
AcDbRotatedDimension
1001
ACAD
1000
DSTYLE
1002
{
1070
    40
1040
40.0
1070
   143
1040
0.039
1070
   172
1070
     1
1070
   271
1070
     4
1070
   272
1070
     4
1070
   279
1070
     0
1070
   284
1070
     0
1070
   285
1070
     0
1070
   286
1070
     0
1070
   341
1005
83B3
1070
   343
1005
83B3
1070
   344
1005
83B3
1002
}
  0
DIMENSION
  5
84DF
330
839C
100
AcDbEntity
  8
3
100
AcDbDimension
  2
*D33
 10
3596.156955993246
 20
8729.663953058681
 30
0.0
 11
2846.156955993245
 21
8829.663953058682
 31
0.0
 70
    32
 71
     5
 42
1500.0
  3
IGA
100
AcDbAlignedDimension
 13
2096.156955993245
 23
8525.027814553499
 33
0.0
 14
3596.156955993246
 24
8525.027814553494
 34
0.0
100
AcDbRotatedDimension
1001
ACAD
1000
DSTYLE
1002
{
1070
    40
1040
40.0
1070
   143
1040
0.039
1070
   172
1070
     1
1070
   271
1070
     4
1070
   272
1070
     4
1070
   279
1070
     1
1070
   284
1070
     0
1070
   285
1070
     0
1070
   286
1070
     0
1070
   341
1005
83B3
1070
   343
1005
83B3
1070
   344
1005
83B3
1002
}
  0
DIMENSION
  5
84EC
330
839C
100
AcDbEntity
  8
3
100
AcDbDimension
  2
*D34
 10
4045.173097229079
 20
6405.027814553498
 30
0.0
 11
3945.173097229078
 21
7465.027814553497
 31
0.0
 70
    32
 71
     5
 42
2119.999999999995
  3
IGA
100
AcDbAlignedDimension
 13
3596.156955993246
 23
8525.027814553494
 33
0.0
 14
3596.156955993246
 24
6405.027814553498
 34
0.0
 50
90.0
100
AcDbRotatedDimension
1001
ACAD
1000
DSTYLE
1002
{
1070
    40
1040
40.0
1070
   143
1040
0.039
1070
   172
1070
     1
1070
   271
1070
     4
1070
   272
1070
     4
1070
   279
1070
     0
1070
   284
1070
     0
1070
   285
1070
     0
1070
   286
1070
     0
1070
   341
1005
83B3
1070
   343
1005
83B3
1070
   344
1005
83B3
1002
}
  0
DIMENSION
  5
84F9
330
839C
100
AcDbEntity
  8
3
100
AcDbDimension
  2
*D35
 10
879.8305548856658
 20
6405.027814553498
 30
0.0
 11
779.8305548856649
 21
6905.027814553498
 31
0.0
 70
    32
 71
     5
 42
1000.0
  3
IGA
100
AcDbAlignedDimension
 13
1146.156955993244
 23
7405.027814553498
 33
0.0
 14
1146.156955993244
 24
6405.027814553498
 34
0.0
 50
90.0
100
AcDbRotatedDimension
1001
ACAD
1000
DSTYLE
1002
{
1070
    40
1040
40.0
1070
   143
1040
0.039
1070
   172
1070
     1
1070
   271
1070
     4
1070
   272
1070
     4
1070
   279
1070
     0
1070
   284
1070
     0
1070
   285
1070
     0
1070
   286
1070
     0
1070
   341
1005
83B3
1070
   343
1005
83B3
1070
   344
1005
83B3
1002
}
  0
DIMENSION
  5
8506
330
839C
100
AcDbEntity
  8
3
100
AcDbDimension
  2
*D36
 10
3596.156955993246
 20
6040.273936363845
 30
0.0
 11
2371.156955993245
 21
6140.273936363844
 31
0.0
 70
    32
 71
     5
 42
2450.000000000001
  3
IGA
100
AcDbAlignedDimension
 13
1146.156955993244
 23
6405.027814553498
 33
0.0
 14
3596.156955993246
 24
6405.027814553498
 34
0.0
100
AcDbRotatedDimension
1001
ACAD
1000
DSTYLE
1002
{
1070
    40
1040
40.0
1070
   143
1040
0.039
1070
   172
1070
     1
1070
   271
1070
     4
1070
   272
1070
     4
1070
   279
1070
     0
1070
   284
1070
     0
1070
   285
1070
     0
1070
   286
1070
     0
1070
   341
1005
83B3
1070
   343
1005
83B3
1070
   344
1005
83B3
1002
}
  0
DIMENSION
  5
8513
330
839C
100
AcDbEntity
  8
3
100
AcDbDimension
  2
*D37
 10
1146.156955993244
 20
5607.120238149416
 30
0.0
 11
2408.656955993245
 21
5707.120238149417
 31
0.0
 70
    32
 71
     5
 42
2525.000000000002
  3
IGA
100
AcDbAlignedDimension
 13
3671.156955993246
 23
5133.144075523785
 33
0.0
 14
1146.156955993244
 24
2946.144075523783
 34
0.0
100
AcDbRotatedDimension
1001
ACAD
1000
DSTYLE
1002
{
1070
    40
1040
40.0
1070
   143
1040
0.039
1070
   172
1070
     1
1070
   271
1070
     4
1070
   272
1070
     4
1070
   279
1070
     0
1070
   284
1070
     0
1070
   285
1070
     0
1070
   286
1070
     0
1070
   341
1005
83B3
1070
   343
1005
83B3
1070
   344
1005
83B3
1002
}
  0
DIMENSION
  5
8520
330
839C
100
AcDbEntity
  8
3
100
AcDbDimension
  2
*D38
 10
2846.156955993246
 20
5382.667020841306
 30
0.0
 11
3258.656955993246
 21
5482.667020841306
 31
0.0
 70
    32
 71
     5
 42
825.0
  3
IGA
100
AcDbAlignedDimension
 13
3671.156955993246
 23
5133.144075523785
 33
0.0
 14
2846.156955993246
 24
5101.429794629098
 34
0.0
100
AcDbRotatedDimension
1001
ACAD
1000
DSTYLE
1002
{
1070
    40
1040
40.0
1070
   143
1040
0.039
1070
   172
1070
     1
1070
   271
1070
     4
1070
   272
1070
     4
1070
   279
1070
     0
1070
   284
1070
     0
1070
   285
1070
     0
1070
   286
1070
     0
1070
   341
1005
83B3
1070
   343
1005
83B3
1070
   344
1005
83B3
1002
}
  0
DIMENSION
  5
852D
330
839C
100
AcDbEntity
  8
3
100
AcDbDimension
  2
*D39
 10
1767.156955993245
 20
5382.667020841306
 30
0.0
 11
2306.656955993245
 21
5482.667020841306
 31
0.0
 70
    32
 71
     5
 42
1079.0
  3
IGA
100
AcDbAlignedDimension
 13
2846.156955993246
 23
5101.429794629098
 33
0.0
 14
1767.156955993245
 24
3837.144075523784
 34
0.0
100
AcDbRotatedDimension
1001
ACAD
1000
DSTYLE
1002
{
1070
    40
1040
40.0
1070
   143
1040
0.039
1070
   172
1070
     1
1070
   271
1070
     4
1070
   272
1070
     4
1070
   279
1070
     1
1070
   284
1070
     0
1070
   285
1070
     0
1070
   286
1070
     0
1070
   341
1005
83B3
1070
   343
1005
83B3
1070
   344
1005
83B3
1002
}
  0
DIMENSION
  5
853A
330
839C
100
AcDbEntity
  8
3
100
AcDbDimension
  2
*D40
 10
3924.167988683201
 20
3800.144075523784
 30
0.0
 11
3824.167988683201
 21
4440.144075523784
 31
0.0
 70
    32
 71
     5
 42
1279.999999999998
  3
IGA
100
AcDbAlignedDimension
 13
3671.156955993246
 23
5080.144075523783
 33
0.0
 14
3671.156955993246
 24
3800.144075523784
 34
0.0
 50
90.0
100
AcDbRotatedDimension
1001
ACAD
1000
DSTYLE
1002
{
1070
    40
1040
40.0
1070
   143
1040
0.039
1070
   172
1070
     1
1070
   271
1070
     4
1070
   272
1070
     4
1070
   279
1070
     0
1070
   284
1070
     0
1070
   285
1070
     0
1070
   286
1070
     0
1070
   341
1005
83B3
1070
   343
1005
83B3
1070
   344
1005
83B3
1002
}
  0
DIMENSION
  5
8547
330
839C
100
AcDbEntity
  8
3
100
AcDbDimension
  2
*D41
 10
4170.57822273558
 20
3746.144075523783
 30
0.0
 11
4070.578222735579
 21
4413.144075523784
 31
0.0
 70
    32
 71
     5
 42
1333.999999999999
  3
IGA
100
AcDbAlignedDimension
 13
3671.156955993246
 23
5080.144075523783
 33
0.0
 14
3749.593494242097
 24
3746.144075523783
 34
0.0
 50
90.0
100
AcDbRotatedDimension
1001
ACAD
1000
DSTYLE
1002
{
1070
    40
1040
40.0
1070
   143
1040
0.039
1070
   172
1070
     1
1070
   271
1070
     4
1070
   272
1070
     4
1070
   279
1070
     0
1070
   284
1070
     0
1070
   285
1070
     0
1070
   286
1070
     0
1070
   341
1005
83B3
1070
   343
1005
83B3
1070
   344
1005
83B3
1002
}
  0
DIMENSION
  5
8554
330
839C
100
AcDbEntity
  8
3
100
AcDbDimension
  2
*D42
 10
4170.57822273558
 20
2821.144075523783
 30
0.0
 11
4070.578222735578
 21
3283.644075523784
 31
0.0
 70
    32
 71
     5
 42
925.0
  3
IGA
100
AcDbAlignedDimension
 13
3749.593494242097
 23
3746.144075523783
 33
0.0
 14
3596.156955993246
 24
2821.144075523783
 34
0.0
 50
90.0
100
AcDbRotatedDimension
1001
ACAD
1000
DSTYLE
1002
{
1070
    40
1040
40.0
1070
   143
1040
0.039
1070
   172
1070
     1
1070
   271
1070
     4
1070
   272
1070
     4
1070
   279
1070
     1
1070
   284
1070
     0
1070
   285
1070
     0
1070
   286
1070
     0
1070
   341
1005
83B3
1070
   343
1005
83B3
1070
   344
1005
83B3
1002
}
  0
DIMENSION
  5
8561
330
839C
100
AcDbEntity
  8
3
100
AcDbDimension
  2
*D43
 10
4170.57822273558
 20
2801.144075523783
 30
0.0
 11
4413.435365592721
 21
2963.429789809498
 31
0.0
 70
    32
  1
(<>)
 71
     5
 42
20.0
  3
IGA
100
AcDbAlignedDimension
 13
3596.156955993246
 23
2821.144075523783
 33
0.0
 14
3596.156955993246
 24
2801.144075523783
 34
0.0
 50
90.0
100
AcDbRotatedDimension
1001
ACAD
1000
DSTYLE
1002
{
1070
    40
1040
40.0
1070
   143
1040
0.039
1070
   172
1070
     1
1070
   271
1070
     4
1070
   272
1070
     4
1070
   279
1070
     1
1070
   284
1070
     0
1070
   285
1070
     0
1070
   286
1070
     0
1070
   341
1005
83B3
1070
   343
1005
83B3
1070
   344
1005
862C
1002
}
  0
DIMENSION
  5
8573
330
839C
100
AcDbEntity
  8
3
100
AcDbDimension
  2
*D44
 10
4170.57822273558
 20
2736.144075523784
 30
0.0
 11
4142.659520052897
 21
2558.809890495995
 31
0.0
 70
   160
 71
     5
 42
64.99999999999909
  3
IGA
100
AcDbAlignedDimension
 13
3596.156955993246
 23
2801.144075523783
 33
0.0
 14
3596.156955993246
 24
2736.144075523784
 34
0.0
 50
90.0
100
AcDbRotatedDimension
1001
ACAD
1000
DSTYLE
1002
{
1070
    40
1040
40.0
1070
   143
1040
0.039
1070
   172
1070
     1
1070
   271
1070
     4
1070
   272
1070
     4
1070
   279
1070
     1
1070
   284
1070
     0
1070
   285
1070
     0
1070
   286
1070
     0
1070
   341
1005
83B3
1070
   343
1005
862C
1070
   344
1005
83B3
1002
}
  0
DIMENSION
  5
8585
330
839C
100
AcDbEntity
  8
3
100
AcDbDimension
  2
*D45
 10
4657.918060353069
 20
2736.144075523784
 30
0.0
 11
4526.489488924497
 21
3908.144075523784
 31
0.0
 70
    32
  1
(<>)
 71
     5
 42
2343.999999999999
  3
IGA
100
AcDbAlignedDimension
 13
3671.156955993246
 23
5080.144075523783
 33
0.0
 14
3596.156955993246
 24
2736.144075523784
 34
0.0
 50
90.0
100
AcDbRotatedDimension
1001
ACAD
1000
DSTYLE
1002
{
1070
    40
1040
40.0
1070
   143
1040
0.039
1070
   172
1070
     1
1070
   271
1070
     4
1070
   272
1070
     4
1070
   279
1070
     0
1070
   284
1070
     0
1070
   285
1070
     0
1070
   286
1070
     0
1070
   341
1005
83B3
1070
   343
1005
83B3
1070
   344
1005
83B3
1002
}
  0
ENDSEC
  0
SECTION
  2
OBJECTS
  0
DICTIONARY
  5
8339
330
0
100
AcDbDictionary
281
     1
  3
ACAD_CIP_PREVIOUS_PRODUCT_INFO
350
83E3
  3
ACAD_COLOR
350
838F
  3
ACAD_DETAILVIEWSTYLE
350
8396
  3
ACAD_GROUP
350
833A
  3
ACAD_LAYOUT
350
838E
  3
ACAD_MATERIAL
350
833D
  3
ACAD_MLEADERSTYLE
350
8392
  3
ACAD_MLINESTYLE
350
838B
  3
ACAD_PLOTSETTINGS
350
838D
  3
ACAD_PLOTSTYLENAME
350
833B
  3
ACAD_SCALELIST
350
836F
  3
ACAD_SECTIONVIEWSTYLE
350
8394
  3
ACAD_TABLESTYLE
350
8390
  3
ACAD_VISUALSTYLE
350
8356
  3
ACDB_RECOMPOSE_DATA
350
86AF
  3
AcDbVariableDictionary
350
83EE
  3
DWGPROPS
350
86B0
  0
DICTIONARY
  5
83E4
330
8381
100
AcDbDictionary
280
     1
281
     1
  3
ADSK_XREC_LAYER_RECONCILED
360
83E5
  0
DICTIONARY
  5
83E6
330
83A0
100
AcDbDictionary
280
     1
281
     1
  3
ADSK_XREC_LAYER_RECONCILED
360
83E7
  0
DICTIONARY
  5
83E8
330
83A3
100
AcDbDictionary
280
     1
281
     1
  3
ADSK_XREC_LAYER_RECONCILED
360
83E9
  0
DICTIONARY
  5
83EA
330
83A4
100
AcDbDictionary
280
     1
281
     1
  3
ADSK_XREC_LAYER_RECONCILED
360
83EB
  0
DICTIONARY
  5
83EC
330
83A5
100
AcDbDictionary
280
     1
281
     1
  3
ADSK_XREC_LAYER_RECONCILED
360
83ED
  0
DICTIONARY
  5
843E
330
839C
100
AcDbDictionary
280
     1
281
     1
  3
ACAD_SORTENTS
360
843F
  0
XRECORD
  5
83E3
102
{ACAD_REACTORS
330
8339
102
}
330
8339
100
AcDbXrecord
280
     1
300
ACDLT
300
2015
300
INVLTS_F_S
  0
DICTIONARY
  5
838F
102
{ACAD_REACTORS
330
8339
102
}
330
8339
100
AcDbDictionary
281
     1
  0
DICTIONARY
  5
8396
102
{ACAD_REACTORS
330
8339
102
}
330
8339
100
AcDbDictionary
281
     1
  3
Imperial24
350
8397
  0
DICTIONARY
  5
833A
102
{ACAD_REACTORS
330
8339
102
}
330
8339
100
AcDbDictionary
281
     1
  0
DICTIONARY
  5
838E
102
{ACAD_REACTORS
330
8339
102
}
330
8339
100
AcDbDictionary
281
     1
  3
Model
350
839F
  3
レイアウト1
350
839B
  0
DICTIONARY
  5
833D
102
{ACAD_REACTORS
330
8339
102
}
330
8339
100
AcDbDictionary
281
     1
  3
ByBlock
350
8346
  3
ByLayer
350
833E
  3
Global
350
834E
  0
DICTIONARY
  5
8392
102
{ACAD_REACTORS
330
8339
102
}
330
8339
100
AcDbDictionary
281
     1
  3
Standard
350
8393
  0
DICTIONARY
  5
838B
102
{ACAD_REACTORS
330
8339
102
}
330
8339
100
AcDbDictionary
281
     1
  3
Standard
350
838C
  0
DICTIONARY
  5
838D
102
{ACAD_REACTORS
330
8339
102
}
330
8339
100
AcDbDictionary
281
     1
  0
ACDBDICTIONARYWDFLT
  5
833B
102
{ACAD_REACTORS
330
8339
102
}
330
8339
100
AcDbDictionary
281
     1
  3
Normal
350
833C
100
AcDbDictionaryWithDefault
340
833C
  0
DICTIONARY
  5
836F
102
{ACAD_REACTORS
330
8339
102
}
330
8339
100
AcDbDictionary
281
     1
  3
A0
350
8370
  3
A1
350
8371
  3
A2
350
8372
  3
A3
350
8373
  3
A4
350
8374
  3
A5
350
8375
  3
A6
350
8376
  3
A7
350
8377
  3
A8
350
8378
  3
A9
350
8379
  3
B0
350
837A
  3
B1
350
837B
  3
B2
350
837C
  3
B3
350
837D
  3
B4
350
837E
  3
B5
350
837F
  3
B6
350
8380
  0
DICTIONARY
  5
8394
102
{ACAD_REACTORS
330
8339
102
}
330
8339
100
AcDbDictionary
281
     1
  3
Imperial24
350
8395
  0
DICTIONARY
  5
8390
102
{ACAD_REACTORS
330
8339
102
}
330
8339
100
AcDbDictionary
281
     1
  3
Standard
350
8391
  0
DICTIONARY
  5
8356
102
{ACAD_REACTORS
330
8339
102
}
330
8339
100
AcDbDictionary
281
     1
  3
2dWireframe
350
835C
  3
Basic
350
835B
  3
Brighten
350
8362
  3
ColorChange
350
8366
  3
Conceptual
350
835F
  3
Dim
350
8361
  3
EdgeColorOff
350
836E
  3
Facepattern
350
8365
  3
Flat
350
8357
  3
FlatWithEdges
350
8358
  3
Gouraud
350
8359
  3
GouraudWithEdges
350
835A
  3
Hidden
350
835E
  3
JitterOff
350
836C
  3
Linepattern
350
8364
  3
OverhangOff
350
836D
  3
Realistic
350
8360
  3
Shaded
350
836B
  3
Shaded with edges
350
836A
  3
Shades of Gray
350
8367
  3
Sketchy
350
8368
  3
Thicken
350
8363
  3
Wireframe
350
835D
  3
X-Ray
350
8369
  0
XRECORD
  5
86AF
102
{ACAD_REACTORS
330
8339
102
}
330
8339
100
AcDbXrecord
280
     1
 90
        1
330
8391
  0
DICTIONARY
  5
83EE
102
{ACAD_REACTORS
330
8339
102
}
330
8339
100
AcDbDictionary
281
     1
  3
CANNOSCALE
350
83F3
  3
CMLEADERSTYLE
350
83F0
  3
CTABLESTYLE
350
83EF
  3
CVIEWDETAILSTYLE
350
83F1
  3
CVIEWSECTIONSTYLE
350
83F2
  3
DIMASSOC
350
83F6
  3
INDEXCTL
350
83F5
  3
SORTENTS
350
83F4
  3
XCLIPFRAME
350
83F7
  0
XRECORD
  5
86B0
102
{ACAD_REACTORS
330
8339
102
}
330
8339
100
AcDbXrecord
280
     1
  1
DWGPROPS COOKIE
  2

  3

  4

  6

  7

  8
yasukiyo.ogawa
  9

300
=
301
=
302
=
303
=
304
=
305
=
306
=
307
=
308
=
309
=
 40
0.0567747222222222
 41
2451897.649359722
 42
2460280.74396831
  1

 90
        0
  0
XRECORD
  5
83E5
102
{ACAD_REACTORS
330
83E4
102
}
330
83E4
100
AcDbXrecord
280
     1
290
     1
  0
XRECORD
  5
83E7
102
{ACAD_REACTORS
330
83E6
102
}
330
83E6
100
AcDbXrecord
280
     1
290
     1
  0
XRECORD
  5
83E9
102
{ACAD_REACTORS
330
83E8
102
}
330
83E8
100
AcDbXrecord
280
     1
290
     1
  0
XRECORD
  5
83EB
102
{ACAD_REACTORS
330
83EA
102
}
330
83EA
100
AcDbXrecord
280
     1
290
     1
  0
XRECORD
  5
83ED
102
{ACAD_REACTORS
330
83EC
102
}
330
83EC
100
AcDbXrecord
280
     1
290
     1
  0
SORTENTSTABLE
  5
843F
102
{ACAD_REACTORS
330
843E
102
}
330
843E
100
AcDbSortentsTable
330
839C
331
7C98
  5
7C9A
331
7CCB
  5
7CCD
331
7CDC
  5
7CDE
331
7C43
  5
7C45
331
7D06
  5
7D08
331
7CF5
  5
7CF7
331
7C54
  5
7C56
331
7D17
  5
7D19
331
80A2
  5
80A4
331
7C87
  5
7C89
331
7C76
  5
7C78
331
7C32
  5
7C32
331
7CAA
  5
7CAC
331
7C99
  5
7C9B
331
7CCC
  5
7CCE
331
7CDD
  5
7CDF
331
7C44
  5
7C46
331
7CF6
  5
7CF8
331
7C55
  5
7C57
331
7D07
  5
7D09
331
80A3
  5
80A5
331
8092
  5
8094
331
7C88
  5
7C8A
331
7C77
  5
7C79
331
7C66
  5
7C68
331
7C33
  5
7C33
331
7CAB
  5
7CAF
331
7C9A
  5
7C9C
331
7CCD
  5
7CCF
331
7CDE
  5
7CE0
331
7C45
  5
7C47
331
7CF7
  5
7CF9
331
7C56
  5
7C58
331
7D08
  5
7D0A
331
80A4
  5
80A6
331
8093
  5
8097
331
7C89
  5
7C8B
331
7C78
  5
7C7A
331
7C67
  5
7C69
331
7C23
  5
7C23
331
8158
  5
8172
331
7C9B
  5
7C9D
331
7CCE
  5
7CD0
331
7CBD
  5
7CC5
331
7CDF
  5
7CE1
331
7C46
  5
7C48
331
7CF8
  5
7CFA
331
7C57
  5
7C59
331
7D09
  5
7D0B
331
80A5
  5
80A7
331
8094
  5
8098
331
7C8A
  5
7C8C
331
7C79
  5
7C7C
331
7C68
  5
7C6A
331
7C24
  5
7C24
331
7C9C
  5
7C9E
331
7CCF
  5
7CD1
331
7CBE
  5
7CC6
331
7CE0
  5
7CE2
331
7C47
  5
7C49
331
7CF9
  5
7CFB
331
7C58
  5
7C5D
331
7D0A
  5
7D0C
331
80A6
  5
80A8
331
7C8B
  5
7C8D
331
7C7A
  5
7C7D
331
7C69
  5
7C6B
331
7C25
  5
7C25
331
7C9D
  5
7C9F
331
7CD0
  5
7CD2
331
7CE1
  5
7CF1
331
7C48
  5
7C4A
331
7CFA
  5
7CFC
331
7C59
  5
7C5E
331
7D0B
  5
7D0D
331
80A7
  5
80A9
331
7C8C
  5
7C8E
331
7C6A
  5
7C6C
331
7C26
  5
7C26
331
80A8
  5
80AA
331
7CAF
  5
7CB1
331
7C9E
  5
7CA0
331
7CD1
  5
7CD6
331
7CFB
  5
7CFD
331
7CE2
  5
7CF2
331
7C49
  5
7C4B
331
7D0C
  5
7D0E
331
7C6B
  5
7C6D
331
8097
  5
8099
331
7C8D
  5
7C8F
331
7C27
  5
7C27
331
80A9
  5
80AB
331
8098
  5
809A
331
7CB0
  5
7CB2
331
7C9F
  5
7CA1
331
7CD2
  5
7CD7
331
7CFC
  5
7CFE
331
7C4A
  5
7C4C
331
7D0D
  5
7D0F
331
7C6C
  5
7C6E
331
7C8E
  5
7C90
331
7C39
  5
7C39
331
7C28
  5
7C28
331
80AA
  5
80AC
331
8099
  5
809B
331
7CB1
  5
7CB3
331
7CA0
  5
7CA2
331
7CFD
  5
7CFF
331
7C4B
  5
7C4D
331
7D0E
  5
7D10
331
7C6D
  5
7C6F
331
7C8F
  5
7C91
331
7C7E
  5
7C80
331
7C3A
  5
7C3A
331
7C29
  5
7C29
331
7D18
  5
7D1A
331
80AB
  5
80AD
331
809A
  5
809C
331
7C90
  5
7C92
331
7CB2
  5
7CB4
331
7CA1
  5
7CA3
331
7CFE
  5
7D00
331
7C5D
  5
7C5F
331
7C4C
  5
7C4E
331
7C3B
  5
7C3D
331
7D0F
  5
7D11
331
7C6E
  5
7C70
331
7C2A
  5
7C2A
331
7D10
  5
7D13
331
7D19
  5
7D1B
331
80AC
  5
80AE
331
809B
  5
809E
331
7C91
  5
7C93
331
7CB3
  5
7CB5
331
7CA2
  5
7CA4
331
7CFF
  5
7D01
331
7C5E
  5
7C60
331
7C4D
  5
7C4F
331
7C3C
  5
7C3E
331
7C6F
  5
7C72
331
7C2B
  5
7C2B
331
7D00
  5
7D02
331
7D11
  5
7D14
331
7C70
  5
7C73
331
7D1A
  5
7D1C
331
7C81
  5
7C83
331
80AD
  5
80AF
331
809C
  5
809F
331
7CB4
  5
7CB6
331
7CA3
  5
7CA5
331
7C92
  5
7C94
331
7CC5
  5
7CCA
331
7CD6
  5
7CD8
331
7C3D
  5
7C3F
331
7C5F
  5
7C61
331
7C4E
  5
7C50
331
7C2C
  5
7C2C
331
7D01
  5
7D03
331
7C60
  5
7C62
331
7C82
  5
7C84
331
8172
  5
818E
331
80AE
  5
80B0
331
7C93
  5
7C95
331
7CB5
  5
7CBD
331
7CA4
  5
7CA6
331
7CC6
  5
7CCB
331
7CD7
  5
7CD9
331
7C3E
  5
7C40
331
7C4F
  5
7C51
331
7C2D
  5
7C2D
331
7CD8
  5
7CDA
331
7CF1
  5
7CF3
331
7C50
  5
7C52
331
7D02
  5
7D04
331
7C61
  5
7C66
331
7D13
  5
7D15
331
7C83
  5
7C85
331
80AF
  5
814B
331
809E
  5
80A0
331
7CA5
  5
7CA8
331
7C94
  5
7C96
331
7C72
  5
7C76
331
7C3F
  5
7C41
331
7C2E
  5
7C2E
331
7CD9
  5
7CDB
331
7C40
  5
7C42
331
7CF2
  5
7CF4
331
7C51
  5
7C53
331
7D03
  5
7D05
331
7C62
  5
7C67
331
7D14
  5
7D16
331
7C84
  5
7C87
331
80B0
  5
8158
331
809F
  5
80A1
331
7CA6
  5
7CA9
331
7C95
  5
7C97
331
7C73
  5
7C77
331
7C2F
  5
7C2F
331
7CDA
  5
7CDC
331
7C41
  5
7C43
331
7D15
  5
7D17
331
7D04
  5
7D06
331
7CF3
  5
7CF5
331
7C52
  5
7C54
331
80A0
  5
80A2
331
7C85
  5
7C88
331
7C30
  5
7C30
331
7CCA
  5
7CCC
331
7CDB
  5
7CDD
331
7C42
  5
7C44
331
7D16
  5
7D18
331
7D05
  5
7D07
331
7CF4
  5
7CF6
331
7C53
  5
7C55
331
8165
  5
8181
331
814B
  5
8165
331
80A1
  5
80A3
331
7C97
  5
7C99
331
7C31
  5
7C31
  0
ACDBDETAILVIEWSTYLE
  5
8397
102
{ACAD_XDICTIONARY
360
86E8
102
}
102
{ACAD_REACTORS
330
8396
102
}
330
8396
100
AcDbModelDocViewStyle
 70
     0
  3
Imperial24
290
     0
100
AcDbDetailViewStyle
 70
     0
 71
     0
 90
        3
 71
     1
340
8382
 40
0.24
340
0
 40
0.24
300

 40
0.36
280
     3
 71
     2
340
8389
 90
       25
 71
     3
340
8382
 40
0.24
 90
        1
 40
0.75
 90
        1
300
%<\AcVar ViewType \f "%tc1">% %<\AcVar ViewDetailId>%\PSCALE %<\AcVar ViewScale \f "%sn">%
 71
     4
340
8389
 90
       25
340
8389
 90
       25
280
     0
  0
LAYOUT
  5
839F
102
{ACAD_XDICTIONARY
360
86EC
102
}
102
{ACAD_REACTORS
330
838E
102
}
330
838E
100
AcDbPlotSettings
  1

  2
RICOH imagio MP W3600 RPCS
  4

  6

 40
0.0
 41
0.0
 42
0.0
 43
0.0
 44
0.0
 45
0.0
 46
0.0
 47
0.0
 48
0.0
 49
0.0
140
0.0
141
0.0
142
1.0
143
1.0
 70
  1712
 72
     0
 73
     0
 74
     0
  7

 75
     0
147
1.0
148
0.0
149
0.0
100
AcDbLayout
  1
Model
 70
     1
 71
     0
 10
0.0
 20
0.0
 11
12.0
 21
9.0
 12
0.0
 22
0.0
 32
0.0
 14
0.0
 24
0.0
 34
0.0
 15
0.0
 25
0.0
 35
0.0
146
0.0
 13
0.0
 23
0.0
 33
0.0
 16
1.0
 26
0.0
 36
0.0
 17
0.0
 27
1.0
 37
0.0
 76
     0
330
839C
331
83A1
  0
LAYOUT
  5
839B
102
{ACAD_XDICTIONARY
360
86EA
102
}
102
{ACAD_REACTORS
330
838E
102
}
330
838E
100
AcDbPlotSettings
  1

  2
RICOH imagio MP W3600 RPCS
  4

  6

 40
0.0
 41
0.0
 42
0.0
 43
0.0
 44
0.0
 45
0.0
 46
0.0
 47
0.0
 48
0.0
 49
0.0
140
0.0
141
0.0
142
1.0
143
1.0
 70
   688
 72
     0
 73
     0
 74
     5
  7

 75
    16
147
1.0
148
0.0
149
0.0
100
AcDbLayout
  1
レイアウト1
 70
     1
 71
     1
 10
0.0
 20
0.0
 11
12.0
 21
9.0
 12
0.0
 22
0.0
 32
0.0
 14
1.000000000000000E+20
 24
1.000000000000000E+20
 34
1.000000000000000E+20
 15
-1.000000000000000E+20
 25
-1.000000000000000E+20
 35
-1.000000000000000E+20
146
0.0
 13
0.0
 23
0.0
 33
0.0
 16
1.0
 26
0.0
 36
0.0
 17
0.0
 27
1.0
 37
0.0
 76
     0
330
8398
  0
MATERIAL
  5
8346
102
{ACAD_XDICTIONARY
360
8347
102
}
102
{ACAD_REACTORS
330
833D
102
}
330
833D
100
AcDbMaterial
  1
ByBlock
 72
     0
 43
0.0208333333333333
 43
0.0
 43
0.0
 43
0.0
 43
0.0
 43
0.0208333333333333
 43
0.0
 43
0.0
 43
0.0
 43
0.0
 43
1.0
 43
0.0
 43
0.0
 43
0.0
 43
0.0
 43
1.0
 77
     0
 47
0.0208333333333333
 47
0.0
 47
0.0
 47
0.0
 47
0.0
 47
0.0208333333333333
 47
0.0
 47
0.0
 47
0.0
 47
0.0
 47
1.0
 47
0.0
 47
0.0
 47
0.0
 47
0.0
 47
1.0
171
     0
 49
0.0208333333333333
 49
0.0
 49
0.0
 49
0.0
 49
0.0
 49
0.0208333333333333
 49
0.0
 49
0.0
 49
0.0
 49
0.0
 49
1.0
 49
0.0
 49
0.0
 49
0.0
 49
0.0
 49
1.0
175
     0
142
0.0208333333333333
142
0.0
142
0.0
142
0.0
142
0.0
142
0.0208333333333333
142
0.0
142
0.0
142
0.0
142
0.0
142
1.0
142
0.0
142
0.0
142
0.0
142
0.0
142
1.0
179
     0
144
0.0208333333333333
144
0.0
144
0.0
144
0.0
144
0.0
144
0.0208333333333333
144
0.0
144
0.0
144
0.0
144
0.0
144
1.0
144
0.0
144
0.0
144
0.0
144
0.0
144
1.0
147
0.0208333333333333
147
0.0
147
0.0
147
0.0
147
0.0
147
0.0208333333333333
147
0.0
147
0.0
147
0.0
147
0.0
147
1.0
147
0.0
147
0.0
147
0.0
147
0.0
147
1.0
  0
MATERIAL
  5
833E
102
{ACAD_XDICTIONARY
360
833F
102
}
102
{ACAD_REACTORS
330
833D
102
}
330
833D
100
AcDbMaterial
  1
ByLayer
 72
     0
 43
0.0208333333333333
 43
0.0
 43
0.0
 43
0.0
 43
0.0
 43
0.0208333333333333
 43
0.0
 43
0.0
 43
0.0
 43
0.0
 43
1.0
 43
0.0
 43
0.0
 43
0.0
 43
0.0
 43
1.0
 77
     0
 47
0.0208333333333333
 47
0.0
 47
0.0
 47
0.0
 47
0.0
 47
0.0208333333333333
 47
0.0
 47
0.0
 47
0.0
 47
0.0
 47
1.0
 47
0.0
 47
0.0
 47
0.0
 47
0.0
 47
1.0
171
     0
 49
0.0208333333333333
 49
0.0
 49
0.0
 49
0.0
 49
0.0
 49
0.0208333333333333
 49
0.0
 49
0.0
 49
0.0
 49
0.0
 49
1.0
 49
0.0
 49
0.0
 49
0.0
 49
0.0
 49
1.0
175
     0
142
0.0208333333333333
142
0.0
142
0.0
142
0.0
142
0.0
142
0.0208333333333333
142
0.0
142
0.0
142
0.0
142
0.0
142
1.0
142
0.0
142
0.0
142
0.0
142
0.0
142
1.0
179
     0
144
0.0208333333333333
144
0.0
144
0.0
144
0.0
144
0.0
144
0.0208333333333333
144
0.0
144
0.0
144
0.0
144
0.0
144
1.0
144
0.0
144
0.0
144
0.0
144
0.0
144
1.0
147
0.0208333333333333
147
0.0
147
0.0
147
0.0
147
0.0
147
0.0208333333333333
147
0.0
147
0.0
147
0.0
147
0.0
147
1.0
147
0.0
147
0.0
147
0.0
147
0.0
147
1.0
  0
MATERIAL
  5
834E
102
{ACAD_XDICTIONARY
360
834F
102
}
102
{ACAD_REACTORS
330
833D
102
}
330
833D
100
AcDbMaterial
  1
Global
 72
     0
 43
0.0208333333333333
 43
0.0
 43
0.0
 43
0.0
 43
0.0
 43
0.0208333333333333
 43
0.0
 43
0.0
 43
0.0
 43
0.0
 43
1.0
 43
0.0
 43
0.0
 43
0.0
 43
0.0
 43
1.0
 77
     0
 47
0.0208333333333333
 47
0.0
 47
0.0
 47
0.0
 47
0.0
 47
0.0208333333333333
 47
0.0
 47
0.0
 47
0.0
 47
0.0
 47
1.0
 47
0.0
 47
0.0
 47
0.0
 47
0.0
 47
1.0
171
     0
 49
0.0208333333333333
 49
0.0
 49
0.0
 49
0.0
 49
0.0
 49
0.0208333333333333
 49
0.0
 49
0.0
 49
0.0
 49
0.0
 49
1.0
 49
0.0
 49
0.0
 49
0.0
 49
0.0
 49
1.0
175
     0
142
0.0208333333333333
142
0.0
142
0.0
142
0.0
142
0.0
142
0.0208333333333333
142
0.0
142
0.0
142
0.0
142
0.0
142
1.0
142
0.0
142
0.0
142
0.0
142
0.0
142
1.0
179
     0
144
0.0208333333333333
144
0.0
144
0.0
144
0.0
144
0.0
144
0.0208333333333333
144
0.0
144
0.0
144
0.0
144
0.0
144
1.0
144
0.0
144
0.0
144
0.0
144
0.0
144
1.0
147
0.0208333333333333
147
0.0
147
0.0
147
0.0
147
0.0
147
0.0208333333333333
147
0.0
147
0.0
147
0.0
147
0.0
147
1.0
147
0.0
147
0.0
147
0.0
147
0.0
147
1.0
  0
MLEADERSTYLE
  5
8393
102
{ACAD_REACTORS
330
8392
102
}
330
8392
100
AcDbMLeaderStyle
170
     2
171
     1
172
     0
 90
        2
 40
0.0
 41
0.0
173
     1
 91
-1056964608
340
8387
 92
       -2
290
     1
 42
0.09
291
     1
 43
0.36
  3
Standard
 44
0.18
300

342
8382
174
     1
178
     6
175
     1
176
     0
 93
-1056964608
 45
0.18
292
     0
297
     0
 46
0.18
 94
-1056964608
 47
1.0
 49
1.0
140
1.0
293
     1
141
0.0
294
     1
177
     0
142
1.0
295
     0
296
     0
143
0.125
1001
ACAD_MLEADERVER
1070
     2
  0
MLINESTYLE
  5
838C
102
{ACAD_REACTORS
330
838B
102
}
330
838B
100
AcDbMlineStyle
  2
STANDARD
 70
     0
  3

 62
   256
 51
90.0
 52
90.0
 71
     2
 49
0.5
 62
   256
  6
BYLAYER
 49
-0.5
 62
   256
  6
BYLAYER
  0
ACDBPLACEHOLDER
  5
833C
102
{ACAD_REACTORS
330
833B
102
}
330
833B
  0
SCALE
  5
8370
102
{ACAD_REACTORS
330
836F
102
}
330
836F
100
AcDbScale
 70
     0
300
1:1
140
1.0
141
1.0
290
     1
  0
SCALE
  5
8371
102
{ACAD_REACTORS
330
836F
102
}
330
836F
100
AcDbScale
 70
     0
300
1/128" = 1'-0"
140
0.0078125
141
12.0
290
     0
  0
SCALE
  5
8372
102
{ACAD_REACTORS
330
836F
102
}
330
836F
100
AcDbScale
 70
     0
300
1/64" = 1'-0"
140
0.015625
141
12.0
290
     0
  0
SCALE
  5
8373
102
{ACAD_REACTORS
330
836F
102
}
330
836F
100
AcDbScale
 70
     0
300
1/32" = 1'-0"
140
0.03125
141
12.0
290
     0
  0
SCALE
  5
8374
102
{ACAD_REACTORS
330
836F
102
}
330
836F
100
AcDbScale
 70
     0
300
1/16" = 1'-0"
140
0.0625
141
12.0
290
     0
  0
SCALE
  5
8375
102
{ACAD_REACTORS
330
836F
102
}
330
836F
100
AcDbScale
 70
     0
300
3/32" = 1'-0"
140
0.09375
141
12.0
290
     0
  0
SCALE
  5
8376
102
{ACAD_REACTORS
330
836F
102
}
330
836F
100
AcDbScale
 70
     0
300
1/8" = 1'-0"
140
0.125
141
12.0
290
     0
  0
SCALE
  5
8377
102
{ACAD_REACTORS
330
836F
102
}
330
836F
100
AcDbScale
 70
     0
300
3/16" = 1'-0"
140
0.1875
141
12.0
290
     0
  0
SCALE
  5
8378
102
{ACAD_REACTORS
330
836F
102
}
330
836F
100
AcDbScale
 70
     0
300
1/4" = 1'-0"
140
0.25
141
12.0
290
     0
  0
SCALE
  5
8379
102
{ACAD_REACTORS
330
836F
102
}
330
836F
100
AcDbScale
 70
     0
300
3/8" = 1'-0"
140
0.375
141
12.0
290
     0
  0
SCALE
  5
837A
102
{ACAD_REACTORS
330
836F
102
}
330
836F
100
AcDbScale
 70
     0
300
1/2" = 1'-0"
140
0.5
141
12.0
290
     0
  0
SCALE
  5
837B
102
{ACAD_REACTORS
330
836F
102
}
330
836F
100
AcDbScale
 70
     0
300
3/4" = 1'-0"
140
0.75
141
12.0
290
     0
  0
SCALE
  5
837C
102
{ACAD_REACTORS
330
836F
102
}
330
836F
100
AcDbScale
 70
     0
300
1" = 1'-0"
140
1.0
141
12.0
290
     0
  0
SCALE
  5
837D
102
{ACAD_REACTORS
330
836F
102
}
330
836F
100
AcDbScale
 70
     0
300
1-1/2" = 1'-0"
140
1.5
141
12.0
290
     0
  0
SCALE
  5
837E
102
{ACAD_REACTORS
330
836F
102
}
330
836F
100
AcDbScale
 70
     0
300
3" = 1'-0"
140
3.0
141
12.0
290
     0
  0
SCALE
  5
837F
102
{ACAD_REACTORS
330
836F
102
}
330
836F
100
AcDbScale
 70
     0
300
6" = 1'-0"
140
6.0
141
12.0
290
     0
  0
SCALE
  5
8380
102
{ACAD_REACTORS
330
836F
102
}
330
836F
100
AcDbScale
 70
     0
300
1'-0" = 1'-0"
140
12.0
141
12.0
290
     0
  0
ACDBSECTIONVIEWSTYLE
  5
8395
102
{ACAD_XDICTIONARY
360
86E6
102
}
102
{ACAD_REACTORS
330
8394
102
}
330
8394
100
AcDbModelDocViewStyle
 70
     0
  3
Imperial24
290
     0
100
AcDbSectionViewStyle
 70
     0
 71
     0
 90
       78
 71
     1
340
8382
 40
0.24
340
0
340
0
 40
0.24
300
I, O, Q, S, X, Z
 40
0.48
 90
        3
 40
0.18
 90
        1
 71
     2
340
8389
 90
       25
340
8389
 90
       50
 40
0.24
 40
0.0
 40
0.24
 71
     3
340
8382
 40
0.24
 90
        1
 40
0.75
 90
        1
300
%<\AcVar ViewType \f "%tc1">% %<\AcVar ViewSectionStartId>%-%<\AcVar ViewSectionEndId>%\PSCALE %<\AcVar ViewScale \f "%sn">%
 71
     4
300
ANSI31
 40
1.0
 90
        0
290
     0
290
     0
 90
        6
 40
0.0
 40
1.570796326794896
 40
0.2617993877991494
 40
1.308996938995747
 40
-0.2617993877991494
 40
1.832595714594046
  0
TABLESTYLE
  5
8391
102
{ACAD_XDICTIONARY
360
86AD
102
}
102
{ACAD_REACTORS
330
8390
102
}
330
8390
100
AcDbTableStyle
  3
Standard
 70
     0
 71
     0
 40
0.06
 41
0.06
280
     0
281
     0
  7
STANDARD
140
0.18
170
     2
 62
     0
 63
     7
283
     0
274
    -2
284
     1
 64
     0
275
    -2
285
     1
 65
     0
276
    -2
286
     1
 66
     0
277
    -2
287
     1
 67
     0
278
    -2
288
     1
 68
     0
279
    -2
289
     1
 69
     0
  7
STANDARD
140
0.25
170
     5
 62
     0
 63
     7
283
     0
274
    -2
284
     1
 64
     0
275
    -2
285
     1
 65
     0
276
    -2
286
     1
 66
     0
277
    -2
287
     1
 67
     0
278
    -2
288
     1
 68
     0
279
    -2
289
     1
 69
     0
  7
STANDARD
140
0.18
170
     5
 62
     0
 63
     7
283
     0
274
    -2
284
     1
 64
     0
275
    -2
285
     1
 65
     0
276
    -2
286
     1
 66
     0
277
    -2
287
     1
 67
     0
278
    -2
288
     1
 68
     0
279
    -2
289
     1
 69
     0
  0
VISUALSTYLE
  5
835C
102
{ACAD_XDICTIONARY
360
86BE
102
}
102
{ACAD_REACTORS
330
8356
102
}
330
8356
100
AcDbVisualStyle
  2
2dWireframe
 70
     4
 71
     0
 72
     2
 73
     0
 90
        0
 40
-0.6
 41
-30.0
 62
     5
 63
     7
 74
     1
 91
        4
 64
     7
 65
   257
 75
     1
175
     1
 42
1.0
 92
        0
 66
   257
 43
1.0
 76
     1
 77
     6
 78
     2
 67
     7
 79
     5
170
     0
171
     0
290
     0
174
     0
 93
        1
 44
0.0
173
     0
291
     0
 45
0.0
1001
ACAD
1000
AcDbSavedByObjectVersion
1070
     0
  0
VISUALSTYLE
  5
835B
102
{ACAD_XDICTIONARY
360
86BC
102
}
102
{ACAD_REACTORS
330
8356
102
}
330
8356
100
AcDbVisualStyle
  2
Basic
 70
     7
 71
     1
 72
     0
 73
     1
 90
        0
 40
-0.6
 41
-30.0
 62
     5
 63
     7
 74
     0
 91
        4
 64
     7
 65
   257
 75
     1
175
     1
 42
1.0
 92
        8
 66
     7
 43
1.0
 76
     1
 77
     6
 78
     2
 67
     7
 79
     5
170
     0
171
     0
290
     0
174
     0
 93
        1
 44
0.0
173
     0
291
     1
 45
0.0
1001
ACAD
1000
AcDbSavedByObjectVersion
1070
     0
  0
VISUALSTYLE
  5
8362
102
{ACAD_XDICTIONARY
360
86CA
102
}
102
{ACAD_REACTORS
330
8356
102
}
330
8356
100
AcDbVisualStyle
  2
Brighten
 70
    12
 71
     2
 72
     2
 73
     0
 90
        0
 40
-0.6
 41
-30.0
 62
     5
 63
     7
 74
     1
 91
        4
 64
     7
 65
   257
 75
     1
175
     1
 42
1.0
 92
        8
 66
     7
 43
1.0
 76
     1
 77
     6
 78
     2
 67
     7
 79
     5
170
     0
171
     0
290
     0
174
     0
 93
        1
 44
50.0
173
     0
291
     1
 45
0.0
1001
ACAD
1000
AcDbSavedByObjectVersion
1070
     0
  0
VISUALSTYLE
  5
8366
102
{ACAD_XDICTIONARY
360
86D2
102
}
102
{ACAD_REACTORS
330
8356
102
}
330
8356
100
AcDbVisualStyle
  2
ColorChange
 70
    16
 71
     2
 72
     2
 73
     3
 90
        0
 40
-0.6
 41
-30.0
 62
     5
 63
     8
 74
     1
 91
        4
 64
     7
 65
   257
 75
     1
175
     1
 42
1.0
 92
        8
 66
     8
 43
1.0
 76
     1
 77
     6
 78
     2
 67
     7
 79
     5
170
     0
171
     0
290
     0
174
     0
 93
        1
 44
0.0
173
     0
291
     1
 45
0.0
1001
ACAD
1000
AcDbSavedByObjectVersion
1070
     0
  0
VISUALSTYLE
  5
835F
102
{ACAD_XDICTIONARY
360
86C4
102
}
102
{ACAD_REACTORS
330
8356
102
}
330
8356
100
AcDbVisualStyle
  2
Conceptual
 70
     9
 71
     3
 72
     2
 73
     0
 90
        0
 40
-0.6
 41
-30.0
 62
     5
 63
     7
 74
     2
 91
        2
 64
     7
 65
   257
 75
     1
175
     1
 42
179.0
 92
        8
 66
     7
 43
1.0
 76
     1
 77
     6
 78
     2
 67
     7
 79
     3
170
     0
171
     0
290
     0
174
     0
 93
        1
 44
0.0
173
     0
291
     0
 45
0.0
1001
ACAD
1000
AcDbSavedByObjectVersion
1070
     0
  0
VISUALSTYLE
  5
8361
102
{ACAD_XDICTIONARY
360
86C8
102
}
102
{ACAD_REACTORS
330
8356
102
}
330
8356
100
AcDbVisualStyle
  2
Dim
 70
    11
 71
     2
 72
     2
 73
     0
 90
        0
 40
-0.6
 41
-30.0
 62
     5
 63
     7
 74
     1
 91
        4
 64
     7
 65
   257
 75
     1
175
     1
 42
1.0
 92
        8
 66
     7
 43
1.0
 76
     1
 77
     6
 78
     2
 67
     7
 79
     5
170
     0
171
     0
290
     0
174
     0
 93
        1
 44
-50.0
173
     0
291
     1
 45
0.0
1001
ACAD
1000
AcDbSavedByObjectVersion
1070
     0
  0
VISUALSTYLE
  5
836E
102
{ACAD_XDICTIONARY
360
86E2
102
}
102
{ACAD_REACTORS
330
8356
102
}
330
8356
100
AcDbVisualStyle
  2
EdgeColorOff
 70
    22
 71
     2
 72
     2
 73
     0
 90
        0
 40
-0.6
 41
-30.0
 62
     5
 63
     7
 74
     1
 91
        4
 64
     7
 65
   257
 75
     1
175
     1
 42
1.0
 92
        8
 66
     7
 43
1.0
 76
     1
 77
     6
 78
     2
 67
     7
 79
     5
170
     0
171
     0
290
     0
174
     0
 93
        1
 44
0.0
173
     0
291
     1
 45
0.0
1001
ACAD
1000
AcDbSavedByObjectVersion
1070
     0
  0
VISUALSTYLE
  5
8365
102
{ACAD_XDICTIONARY
360
86D0
102
}
102
{ACAD_REACTORS
330
8356
102
}
330
8356
100
AcDbVisualStyle
  2
Facepattern
 70
    15
 71
     2
 72
     2
 73
     0
 90
        0
 40
-0.6
 41
-30.0
 62
     5
 63
     7
 74
     1
 91
        4
 64
     7
 65
   257
 75
     1
175
     1
 42
1.0
 92
        8
 66
     7
 43
1.0
 76
     1
 77
     6
 78
     2
 67
     7
 79
     5
170
     0
171
     0
290
     0
174
     0
 93
        1
 44
0.0
173
     0
291
     1
 45
0.0
1001
ACAD
1000
AcDbSavedByObjectVersion
1070
     0
  0
VISUALSTYLE
  5
8357
102
{ACAD_XDICTIONARY
360
86B4
102
}
102
{ACAD_REACTORS
330
8356
102
}
330
8356
100
AcDbVisualStyle
  2
Flat
 70
     0
 71
     2
 72
     1
 73
     1
 90
        2
 40
-0.6
 41
30.0
 62
     5
 63
     7
 74
     0
 91
        0
 64
     7
 65
   257
 75
     1
175
     1
 42
1.0
 92
        8
 66
     7
 43
1.0
 76
     1
 77
     6
 78
     2
 67
     7
 79
     5
170
     0
171
     0
290
     0
174
     0
 93
       13
 44
0.0
173
     0
291
     1
 45
0.0
1001
ACAD
1000
AcDbSavedByObjectVersion
1070
     0
  0
VISUALSTYLE
  5
8358
102
{ACAD_XDICTIONARY
360
86B6
102
}
102
{ACAD_REACTORS
330
8356
102
}
330
8356
100
AcDbVisualStyle
  2
FlatWithEdges
 70
     1
 71
     2
 72
     1
 73
     1
 90
        2
 40
-0.6
 41
30.0
 62
     5
 63
     7
 74
     1
 91
        0
 64
     7
 65
   257
 75
     1
175
     1
 42
1.0
 92
        0
 66
   257
 43
1.0
 76
     1
 77
     6
 78
     2
 67
     7
 79
     5
170
     0
171
     0
290
     0
174
     0
 93
       13
 44
0.0
173
     0
291
     1
 45
0.0
1001
ACAD
1000
AcDbSavedByObjectVersion
1070
     0
  0
VISUALSTYLE
  5
8359
102
{ACAD_XDICTIONARY
360
86B8
102
}
102
{ACAD_REACTORS
330
8356
102
}
330
8356
100
AcDbVisualStyle
  2
Gouraud
 70
     2
 71
     2
 72
     2
 73
     1
 90
        2
 40
-0.6
 41
30.0
 62
     5
 63
     7
 74
     0
 91
        0
 64
     7
 65
   257
 75
     1
175
     1
 42
1.0
 92
        0
 66
     7
 43
1.0
 76
     1
 77
     6
 78
     2
 67
     7
 79
     5
170
     0
171
     0
290
     0
174
     0
 93
       13
 44
0.0
173
     0
291
     1
 45
0.0
1001
ACAD
1000
AcDbSavedByObjectVersion
1070
     0
  0
VISUALSTYLE
  5
835A
102
{ACAD_XDICTIONARY
360
86BA
102
}
102
{ACAD_REACTORS
330
8356
102
}
330
8356
100
AcDbVisualStyle
  2
GouraudWithEdges
 70
     3
 71
     2
 72
     2
 73
     1
 90
        2
 40
-0.6
 41
30.0
 62
     5
 63
     7
 74
     1
 91
        0
 64
     7
 65
   257
 75
     1
175
     1
 42
1.0
 92
        0
 66
   257
 43
1.0
 76
     1
 77
     6
 78
     2
 67
     7
 79
     5
170
     0
171
     0
290
     0
174
     0
 93
       13
 44
0.0
173
     0
291
     1
 45
0.0
1001
ACAD
1000
AcDbSavedByObjectVersion
1070
     0
  0
VISUALSTYLE
  5
835E
102
{ACAD_XDICTIONARY
360
86C2
102
}
102
{ACAD_REACTORS
330
8356
102
}
330
8356
100
AcDbVisualStyle
  2
Hidden
 70
     6
 71
     1
 72
     2
 73
     2
 90
        0
 40
-0.6
 41
-30.0
 62
     5
 63
     7
 74
     2
 91
        2
 64
     7
 65
   257
 75
     2
175
     1
 42
40.0
 92
        0
 66
   257
 43
1.0
 76
     1
 77
     6
 78
     2
 67
     7
 79
     3
170
     0
171
     0
290
     0
174
     0
 93
        1
 44
0.0
173
     0
291
     0
 45
0.0
1001
ACAD
1000
AcDbSavedByObjectVersion
1070
     0
  0
VISUALSTYLE
  5
836C
102
{ACAD_XDICTIONARY
360
86DE
102
}
102
{ACAD_REACTORS
330
8356
102
}
330
8356
100
AcDbVisualStyle
  2
JitterOff
 70
    20
 71
     2
 72
     2
 73
     0
 90
        0
 40
-0.6
 41
-30.0
 62
     5
 63
     7
 74
     1
 91
        4
 64
     7
 65
   257
 75
     1
175
     1
 42
1.0
 92
       10
 66
     7
 43
1.0
 76
     1
 77
     6
 78
     2
 67
     7
 79
     5
170
     0
171
     0
290
     0
174
     0
 93
        1
 44
0.0
173
     0
291
     1
 45
0.0
1001
ACAD
1000
AcDbSavedByObjectVersion
1070
     0
  0
VISUALSTYLE
  5
8364
102
{ACAD_XDICTIONARY
360
86CE
102
}
102
{ACAD_REACTORS
330
8356
102
}
330
8356
100
AcDbVisualStyle
  2
Linepattern
 70
    14
 71
     2
 72
     2
 73
     0
 90
        0
 40
-0.6
 41
-30.0
 62
     5
 63
     7
 74
     1
 91
        4
 64
     7
 65
   257
 75
     7
175
     7
 42
1.0
 92
        8
 66
     7
 43
1.0
 76
     1
 77
     6
 78
     2
 67
     7
 79
     5
170
     0
171
     0
290
     0
174
     0
 93
        1
 44
0.0
173
     0
291
     1
 45
0.0
1001
ACAD
1000
AcDbSavedByObjectVersion
1070
     0
  0
VISUALSTYLE
  5
836D
102
{ACAD_XDICTIONARY
360
86E0
102
}
102
{ACAD_REACTORS
330
8356
102
}
330
8356
100
AcDbVisualStyle
  2
OverhangOff
 70
    21
 71
     2
 72
     2
 73
     0
 90
        0
 40
-0.6
 41
-30.0
 62
     5
 63
     7
 74
     1
 91
        4
 64
     7
 65
   257
 75
     1
175
     1
 42
1.0
 92
        9
 66
     7
 43
1.0
 76
     1
 77
     6
 78
     2
 67
     7
 79
     5
170
     0
171
     0
290
     0
174
     0
 93
        1
 44
0.0
173
     0
291
     1
 45
0.0
1001
ACAD
1000
AcDbSavedByObjectVersion
1070
     0
  0
VISUALSTYLE
  5
8360
102
{ACAD_XDICTIONARY
360
86C6
102
}
102
{ACAD_REACTORS
330
8356
102
}
330
8356
100
AcDbVisualStyle
  2
Realistic
 70
     8
 71
     2
 72
     3
 73
     0
 90
        2
 40
-0.6
 41
30.0
 62
     5
 63
     7
 74
     0
 91
        0
 64
     7
 65
   257
 75
     1
175
     1
 42
1.0
 92
        8
 66
   257
 43
1.0
 76
     1
 77
     6
 78
     2
 67
     7
 79
     3
170
     0
171
     0
290
     0
174
     0
 93
       13
 44
0.0
173
     0
291
     0
 45
0.0
1001
ACAD
1000
AcDbSavedByObjectVersion
1070
     0
  0
VISUALSTYLE
  5
836B
102
{ACAD_XDICTIONARY
360
86DC
102
}
102
{ACAD_REACTORS
330
8356
102
}
330
8356
100
AcDbVisualStyle
  2
Shaded
 70
    27
 71
     2
 72
     2
 73
     1
 90
        2
 40
-0.6
 41
30.0
 62
     5
 63
     7
 74
     0
 91
        4
 64
     7
 65
   257
 75
     1
175
     1
 42
1.0
 92
        8
 66
   257
 43
1.0
 76
     1
 77
     6
 78
     2
 67
     8
 79
     3
170
     0
171
     0
290
     0
174
     0
 93
        5
 44
0.0
173
     0
291
     0
 45
0.0
1001
ACAD
1000
AcDbSavedByObjectVersion
1070
     0
  0
VISUALSTYLE
  5
836A
102
{ACAD_XDICTIONARY
360
86DA
102
}
102
{ACAD_REACTORS
330
8356
102
}
330
8356
100
AcDbVisualStyle
  2
Shaded with edges
 70
    26
 71
     2
 72
     2
 73
     1
 90
        2
 40
-0.6
 41
30.0
 62
     5
 63
     7
 74
     1
 91
       10
 64
     7
 65
   257
 75
     2
175
     1
 42
1.0
 92
        8
 66
   257
 43
1.0
 76
     1
 77
     6
 78
     2
 67
     7
 79
     3
170
     0
171
     0
290
     0
174
     0
 93
        5
 44
0.0
173
     0
291
     0
 45
0.0
1001
ACAD
1000
AcDbSavedByObjectVersion
1070
     0
  0
VISUALSTYLE
  5
8367
102
{ACAD_XDICTIONARY
360
86D4
102
}
102
{ACAD_REACTORS
330
8356
102
}
330
8356
100
AcDbVisualStyle
  2
Shades of Gray
 70
    23
 71
     2
 72
     2
 73
     3
 90
        0
 40
-0.6
 41
-30.0
 62
     5
 63
     7
 74
     2
 91
        2
 64
     7
 65
     7
 75
     1
175
     1
 42
40.0
 92
        8
 66
     7
 43
1.0
 76
     1
 77
     6
 78
     2
 67
     7
 79
     3
170
     0
171
     0
290
     0
174
     0
 93
        1
 44
0.0
173
     0
291
     0
 45
0.0
1001
ACAD
1000
AcDbSavedByObjectVersion
1070
     0
  0
VISUALSTYLE
  5
8368
102
{ACAD_XDICTIONARY
360
86D6
102
}
102
{ACAD_REACTORS
330
8356
102
}
330
8356
100
AcDbVisualStyle
  2
Sketchy
 70
    24
 71
     1
 72
     2
 73
     2
 90
        0
 40
-0.6
 41
-30.0
 62
     5
 63
     7
 74
     2
 91
        2
 64
     7
 65
     7
 75
     1
175
     1
 42
40.0
 92
       11
 66
     7
 43
1.0
 76
     1
 77
     6
 78
     2
 67
     7
 79
     6
170
     0
171
     0
290
     0
174
     0
 93
        1
 44
0.0
173
     0
291
     0
 45
0.0
1001
ACAD
1000
AcDbSavedByObjectVersion
1070
     0
  0
VISUALSTYLE
  5
8363
102
{ACAD_XDICTIONARY
360
86CC
102
}
102
{ACAD_REACTORS
330
8356
102
}
330
8356
100
AcDbVisualStyle
  2
Thicken
 70
    13
 71
     2
 72
     2
 73
     0
 90
        0
 40
-0.6
 41
-30.0
 62
     5
 63
     7
 74
     1
 91
        4
 64
     7
 65
   257
 75
     1
175
     1
 42
1.0
 92
       12
 66
     7
 43
1.0
 76
     1
 77
     6
 78
     2
 67
     7
 79
     5
170
     0
171
     0
290
     0
174
     0
 93
        1
 44
0.0
173
     0
291
     1
 45
0.0
1001
ACAD
1000
AcDbSavedByObjectVersion
1070
     0
  0
VISUALSTYLE
  5
835D
102
{ACAD_XDICTIONARY
360
86C0
102
}
102
{ACAD_REACTORS
330
8356
102
}
330
8356
100
AcDbVisualStyle
  2
Wireframe
 70
     5
 71
     0
 72
     2
 73
     0
 90
        0
 40
-0.6
 41
-30.0
 62
     5
 63
     7
 74
     1
 91
        4
 64
     7
 65
   257
 75
     1
175
     1
 42
1.0
 92
        0
 66
   257
 43
1.0
 76
     1
 77
     6
 78
     2
 67
     7
 79
     3
170
     0
171
     0
290
     0
174
     0
 93
        1
 44
0.0
173
     0
291
     0
 45
0.0
1001
ACAD
1000
AcDbSavedByObjectVersion
1070
     0
  0
VISUALSTYLE
  5
8369
102
{ACAD_XDICTIONARY
360
86D8
102
}
102
{ACAD_REACTORS
330
8356
102
}
330
8356
100
AcDbVisualStyle
  2
X-Ray
 70
    25
 71
     2
 72
     2
 73
     1
 90
        1
 40
0.5
 41
-30.0
 62
     5
 63
     7
 74
     1
 91
        0
 64
     7
 65
   257
 75
     1
175
     1
 42
1.0
 92
        8
 66
     7
 43
1.0
 76
     1
 77
     6
 78
     2
 67
     7
 79
     3
170
     0
171
     0
290
     0
174
     0
 93
       13
 44
0.0
173
     0
291
     0
 45
0.0
1001
ACAD
1000
AcDbSavedByObjectVersion
1070
     0
  0
DICTIONARYVAR
  5
83F3
102
{ACAD_REACTORS
330
83EE
102
}
330
83EE
100
DictionaryVariables
280
     0
  1
1:1
  0
DICTIONARYVAR
  5
83F0
102
{ACAD_REACTORS
330
83EE
102
}
330
83EE
100
DictionaryVariables
280
     0
  1
STANDARD
  0
DICTIONARYVAR
  5
83EF
102
{ACAD_REACTORS
330
83EE
102
}
330
83EE
100
DictionaryVariables
280
     0
  1
STANDARD
  0
DICTIONARYVAR
  5
83F1
102
{ACAD_REACTORS
330
83EE
102
}
330
83EE
100
DictionaryVariables
280
     0
  1
Imperial24
  0
DICTIONARYVAR
  5
83F2
102
{ACAD_REACTORS
330
83EE
102
}
330
83EE
100
DictionaryVariables
280
     0
  1
Imperial24
  0
DICTIONARYVAR
  5
83F6
102
{ACAD_REACTORS
330
83EE
102
}
330
83EE
100
DictionaryVariables
280
     0
  1
1
  0
DICTIONARYVAR
  5
83F5
102
{ACAD_REACTORS
330
83EE
102
}
330
83EE
100
DictionaryVariables
280
     0
  1
0
  0
DICTIONARYVAR
  5
83F4
102
{ACAD_REACTORS
330
83EE
102
}
330
83EE
100
DictionaryVariables
280
     0
  1
127
  0
DICTIONARYVAR
  5
83F7
102
{ACAD_REACTORS
330
83EE
102
}
330
83EE
100
DictionaryVariables
280
     0
  1
2
  0
DICTIONARY
  5
86E8
330
8397
100
AcDbDictionary
280
     1
281
     1
  3
ACAD_XREC_ROUNDTRIP
360
86E9
  0
DICTIONARY
  5
86EC
330
839F
100
AcDbDictionary
280
     1
281
     1
  3
ACAD_XREC_ROUNDTRIP
360
86ED
  0
DICTIONARY
  5
86EA
330
839B
100
AcDbDictionary
280
     1
281
     1
  3
ACAD_XREC_ROUNDTRIP
360
86EB
  0
DICTIONARY
  5
8347
330
8346
100
AcDbDictionary
280
     1
281
     1
  3
ACAD_XREC_ROUNDTRIP
360
86B2
  3
BUMPTILE
360
8349
  3
DIFFUSETILE
360
8348
  3
OPACITYTILE
360
834C
  3
REFLECTIONTILE
360
834B
  3
REFRACTIONTILE
360
834D
  3
SPECULARTILE
360
834A
  0
DICTIONARY
  5
833F
330
833E
100
AcDbDictionary
280
     1
281
     1
  3
ACAD_XREC_ROUNDTRIP
360
86B1
  3
BUMPTILE
360
8341
  3
DIFFUSETILE
360
8340
  3
OPACITYTILE
360
8344
  3
REFLECTIONTILE
360
8343
  3
REFRACTIONTILE
360
8345
  3
SPECULARTILE
360
8342
  0
DICTIONARY
  5
834F
330
834E
100
AcDbDictionary
280
     1
281
     1
  3
ACAD_XREC_ROUNDTRIP
360
86B3
  3
BUMPTILE
360
8351
  3
DIFFUSETILE
360
8350
  3
FBXASSET
360
843A
  3
OPACITYTILE
360
8354
  3
REFLECTIONTILE
360
8353
  3
REFRACTIONTILE
360
8355
  3
SPECULARTILE
360
8352
  0
DICTIONARY
  5
86E6
330
8395
100
AcDbDictionary
280
     1
281
     1
  3
ACAD_XREC_ROUNDTRIP
360
86E7
  0
DICTIONARY
  5
86AD
330
8391
100
AcDbDictionary
280
     1
281
     1
  3
ACAD_ROUNDTRIP_2008_TABLESTYLE_CELLSTYLEMAP
360
86AE
  3
ACAD_XREC_ROUNDTRIP
360
86E4
  0
DICTIONARY
  5
86BE
330
835C
100
AcDbDictionary
280
     1
281
     1
  3
ACAD_XREC_ROUNDTRIP
360
86BF
  0
DICTIONARY
  5
86BC
330
835B
100
AcDbDictionary
280
     1
281
     1
  3
ACAD_XREC_ROUNDTRIP
360
86BD
  0
DICTIONARY
  5
86CA
330
8362
100
AcDbDictionary
280
     1
281
     1
  3
ACAD_XREC_ROUNDTRIP
360
86CB
  0
DICTIONARY
  5
86D2
330
8366
100
AcDbDictionary
280
     1
281
     1
  3
ACAD_XREC_ROUNDTRIP
360
86D3
  0
DICTIONARY
  5
86C4
330
835F
100
AcDbDictionary
280
     1
281
     1
  3
ACAD_XREC_ROUNDTRIP
360
86C5
  0
DICTIONARY
  5
86C8
330
8361
100
AcDbDictionary
280
     1
281
     1
  3
ACAD_XREC_ROUNDTRIP
360
86C9
  0
DICTIONARY
  5
86E2
330
836E
100
AcDbDictionary
280
     1
281
     1
  3
ACAD_XREC_ROUNDTRIP
360
86E3
  0
DICTIONARY
  5
86D0
330
8365
100
AcDbDictionary
280
     1
281
     1
  3
ACAD_XREC_ROUNDTRIP
360
86D1
  0
DICTIONARY
  5
86B4
330
8357
100
AcDbDictionary
280
     1
281
     1
  3
ACAD_XREC_ROUNDTRIP
360
86B5
  0
DICTIONARY
  5
86B6
330
8358
100
AcDbDictionary
280
     1
281
     1
  3
ACAD_XREC_ROUNDTRIP
360
86B7
  0
DICTIONARY
  5
86B8
330
8359
100
AcDbDictionary
280
     1
281
     1
  3
ACAD_XREC_ROUNDTRIP
360
86B9
  0
DICTIONARY
  5
86BA
330
835A
100
AcDbDictionary
280
     1
281
     1
  3
ACAD_XREC_ROUNDTRIP
360
86BB
  0
DICTIONARY
  5
86C2
330
835E
100
AcDbDictionary
280
     1
281
     1
  3
ACAD_XREC_ROUNDTRIP
360
86C3
  0
DICTIONARY
  5
86DE
330
836C
100
AcDbDictionary
280
     1
281
     1
  3
ACAD_XREC_ROUNDTRIP
360
86DF
  0
DICTIONARY
  5
86CE
330
8364
100
AcDbDictionary
280
     1
281
     1
  3
ACAD_XREC_ROUNDTRIP
360
86CF
  0
DICTIONARY
  5
86E0
330
836D
100
AcDbDictionary
280
     1
281
     1
  3
ACAD_XREC_ROUNDTRIP
360
86E1
  0
DICTIONARY
  5
86C6
330
8360
100
AcDbDictionary
280
     1
281
     1
  3
ACAD_XREC_ROUNDTRIP
360
86C7
  0
DICTIONARY
  5
86DC
330
836B
100
AcDbDictionary
280
     1
281
     1
  3
ACAD_XREC_ROUNDTRIP
360
86DD
  0
DICTIONARY
  5
86DA
330
836A
100
AcDbDictionary
280
     1
281
     1
  3
ACAD_XREC_ROUNDTRIP
360
86DB
  0
DICTIONARY
  5
86D4
330
8367
100
AcDbDictionary
280
     1
281
     1
  3
ACAD_XREC_ROUNDTRIP
360
86D5
  0
DICTIONARY
  5
86D6
330
8368
100
AcDbDictionary
280
     1
281
     1
  3
ACAD_XREC_ROUNDTRIP
360
86D7
  0
DICTIONARY
  5
86CC
330
8363
100
AcDbDictionary
280
     1
281
     1
  3
ACAD_XREC_ROUNDTRIP
360
86CD
  0
DICTIONARY
  5
86C0
330
835D
100
AcDbDictionary
280
     1
281
     1
  3
ACAD_XREC_ROUNDTRIP
360
86C1
  0
DICTIONARY
  5
86D8
330
8369
100
AcDbDictionary
280
     1
281
     1
  3
ACAD_XREC_ROUNDTRIP
360
86D9
  0
XRECORD
  5
86E9
102
{ACAD_REACTORS
330
86E8
102
}
330
86E8
100
AcDbXrecord
280
     1
102
DISPLAYNAME
  1
Imperial24
102
FLAGS
 90
        0
  0
XRECORD
  5
86ED
102
{ACAD_REACTORS
330
86EC
102
}
330
86EC
100
AcDbXrecord
280
     1
102
SHADEPLOT
 70
     0
102
SHADEPLOTRESLEVEL
 70
     2
102
SHADEPLOTCUSTOMDPI
 70
   300
  0
XRECORD
  5
86EB
102
{ACAD_REACTORS
330
86EA
102
}
330
86EA
100
AcDbXrecord
280
     1
102
SHADEPLOT
 70
     0
102
SHADEPLOTRESLEVEL
 70
     2
102
SHADEPLOTCUSTOMDPI
 70
   300
  0
XRECORD
  5
86B2
102
{ACAD_REACTORS
330
8347
102
}
330
8347
100
AcDbXrecord
280
     1
102
MATERIAL
148
0.0
149
0.0
149
0.0
 93
        0
 94
      127
282
     0
 72
     0
 77
     0
171
     0
175
     0
179
     0
273
     0
  0
XRECORD
  5
8349
102
{ACAD_REACTORS
330
8347
102
}
330
8347
100
AcDbXrecord
280
     1
270
     1
271
     1
  0
XRECORD
  5
8348
102
{ACAD_REACTORS
330
8347
102
}
330
8347
100
AcDbXrecord
280
     1
270
     1
271
     1
  0
XRECORD
  5
834C
102
{ACAD_REACTORS
330
8347
102
}
330
8347
100
AcDbXrecord
280
     1
270
     1
271
     1
  0
XRECORD
  5
834B
102
{ACAD_REACTORS
330
8347
102
}
330
8347
100
AcDbXrecord
280
     1
270
     1
271
     1
  0
XRECORD
  5
834D
102
{ACAD_REACTORS
330
8347
102
}
330
8347
100
AcDbXrecord
280
     1
270
     1
271
     1
  0
XRECORD
  5
834A
102
{ACAD_REACTORS
330
8347
102
}
330
8347
100
AcDbXrecord
280
     1
270
     1
271
     1
  0
XRECORD
  5
86B1
102
{ACAD_REACTORS
330
833F
102
}
330
833F
100
AcDbXrecord
280
     1
102
MATERIAL
148
0.0
149
0.0
149
0.0
 93
        0
 94
      127
282
     0
 72
     0
 77
     0
171
     0
175
     0
179
     0
273
     0
  0
XRECORD
  5
8341
102
{ACAD_REACTORS
330
833F
102
}
330
833F
100
AcDbXrecord
280
     1
270
     1
271
     1
  0
XRECORD
  5
8340
102
{ACAD_REACTORS
330
833F
102
}
330
833F
100
AcDbXrecord
280
     1
270
     1
271
     1
  0
XRECORD
  5
8344
102
{ACAD_REACTORS
330
833F
102
}
330
833F
100
AcDbXrecord
280
     1
270
     1
271
     1
  0
XRECORD
  5
8343
102
{ACAD_REACTORS
330
833F
102
}
330
833F
100
AcDbXrecord
280
     1
270
     1
271
     1
  0
XRECORD
  5
8345
102
{ACAD_REACTORS
330
833F
102
}
330
833F
100
AcDbXrecord
280
     1
270
     1
271
     1
  0
XRECORD
  5
8342
102
{ACAD_REACTORS
330
833F
102
}
330
833F
100
AcDbXrecord
280
     1
270
     1
271
     1
  0
XRECORD
  5
86B3
102
{ACAD_REACTORS
330
834F
102
}
330
834F
100
AcDbXrecord
280
     1
102
MATERIAL
148
0.0
149
0.0
149
0.0
 93
        0
 94
      127
282
     0
 72
     0
 77
     0
171
     0
175
     0
179
     0
273
     0
  0
XRECORD
  5
8351
102
{ACAD_REACTORS
330
834F
102
}
330
834F
100
AcDbXrecord
280
     1
270
     1
271
     1
  0
XRECORD
  5
8350
102
{ACAD_REACTORS
330
834F
102
}
330
834F
100
AcDbXrecord
280
     1
270
     1
271
     1
  0
XRECORD
  5
843A
102
{ACAD_REACTORS
330
834F
102
}
330
834F
100
AcDbXrecord
280
     1
 70
     1
 90
1959938040
 71
     1
  1
31EFAE32-A777-4E7A-9226-08C99E5EB0EF
311
504B0304140006080800C98D8157F829C888DA000000200100004F00000037413838433939462D314233362D344632462D383043422D3041453237353333363844322F4173736574446174612F446566696E6974696F6E4974657261746F7250726F706572746965732E62696E454E4D4FC240105D3C403C78F01F10EEEB7E
311
585ADA00A66E8927BDE8C90B19B60334D9B6A4DB261E3DFAAF75366098E4CD9BCF37F3C318FBBD18856C44F8267F47FC820D76957DB747AC818D43C5B53B70936BEF86C29016B887C1F561EBB5F2169D8306DBC1DF5F47A735F42407EE212CDD12FE0B3E281CCEC7C2FD374278293094A7EC09BCC77E25F6BB2F219F555E98
311
4DCEF53C5EF0C82429CF6363783A4FF4262DD2489A5C74E8DBA1B3E88516727B51DE9E9A4355AE977D55E3B4811A5733DB21FD54CED65AEA47AE3497EA43255914676AF1B91461F20F504B0304140006080800C98D81575706AC4EEE000000300200004500000037413838433939462D314233362D344632462D383043422D
311
3041453237353333363844322F4173736574446174612F496E7374616E636550726F706572746965732E62696EEB606060F80F0540260323103700495E20ED9E9A975A94991C9C9C919A9BA802143036747573743536D275343737D735713577D4B5343232D335B070B6B47435757532707563476884683171713532B5D435
311
353131D635313332D475727372D13534373670367376B67474B504EA00DBCBA019D37FE8ABC6157B20CD04146B0062181F4C03F940F0C11EA29A8141C08141002C0426541C106CAC2CA046088033B02A030AC2157C6006F21A8018AAF50194E6010A610250382264E08660284CD9E98021862280A91564B406929A0FF62C40
311
1E28B6F88038B83CB1243943D7A928312F25350524131B1BFB9F161800504B0304140006080800C98D815728BB58AF800100009E0500003D00000037413838433939462D314233362D344632462D383043422D3041453237353333363844322F536368656D61732F436F6D6D6F6E536368656D612E786D6CBD544D4FC23018
311
BEFB2B96DE15493C78601010A34B880709DEDFB52FD0D8B54BD70DF6EFED3AC0B12E6442E2716BFB3CEFF3D18E26FB440405EA8C2B1992E1C323095052C5B8DC842437EBFB673219DF8DA659866649B798C078B48AE6410122242F2A4994AC7F93815DF85C049C8564CA0A901499DD886B2EB9B1E02448F358701A9235880C
311
49A0119892A20C89D1B9FD768815CAD268CB5E0355B40B1E47F3E37A2020464BED06AA57CE8FCC20C3C3446D46761A2632A8C1283D07031EFF2AE7CCB1BFEEE916E406DFAC8E36FFD99A9D60A6944090EEDC3B670C7DC13DE86B6B2C5C240D6E503BB85ACD579D513F1B9F9A69DC9CC22AFA80C426D40AF0B21EA168559156
311
B6276F0F726A6BFF04DCD513A87A62CAD41FB24FCB2858B3952E3D852084DA25B9303C15687973CC8E8AAE11DF2836C38C6A9E765E8C1BA1BFB1DC29CDFE518C8B5A7655A4ED7E77291ABEB80DBD82EC866ADE1B8D05AF9E35CF09D7A061F38A986D9EC412B8F0F65E5D81534D9B231D1E5A8FE577A241F3A5FD01504B0304
311
140006080800C98D81572CCEBD668A040000E01200003E00000037413838433939462D314233362D344632462D383043422D3041453237353333363844322F536368656D61732F47656E65726963536368656D612E786D6CD5586D6FDB380CFE7EBF42F0F7A649B70E1B90744856B4970F450FCD7A5F05459613EDE4174872
311
DADCAF3F522F8ED3B88D2F1D06AC4050DBA2493EE4438AF2F8EB73AEC8466823CB62928C06C384888297A92C5693A4B6D9D9E7E4EBD51FE3A931C22EF85AE4EC6AFC38BF261BA626C9AD288496DC3F4FCEAFC63366845F7A10452AF41DB320C0D44EC26EAB20918735565582695670811A6A49643A49A6E9069FA4604A64B2
311
9016DC4B48552F95E4932463CA888468C1D2B250DB4962750DF7CE273069CE8363F1FF4EDB00E0A21999574AE4A2B00C353B93F3BD4777B8A61ED8F604ABFEDD79CE56A2B7BDFBDBC50996E0ADDE16FED26223C5D30956C29BDF4A55EA686E5E58B112DA45CE67F76F4FA27EFA3FB672FD7372FC388FAECDCA5209E693CAD1
311
67BADCD272F943701B3812F8A3D852008B1D2E32DB927B2F833C6EA95879925356D254582695095A3CE982924720BE5774A3CB9CDCDB350427D2DF20DA1B5532EBE2D5D6288D75D4F7E4FD9890A0EF8E3D93EBB8F8BA4758158EF6FB90A6F9520281C93DE7AAC6D24607DA296BB96018123F821A7D6A5C5884050C475DA486
311
5442732C8B95684A50165CBB3A32F25F783A4A480ED59AD7F924B968AEA50131F46303223E6A397B0E52976030DC1DCA81D7E7C1EDEEA42C19FF27635C505E2BD5198A599020DF50A2330FCB3AAF28CB0124108429553EF1B228802E2265D8F7CC2401042B155BCC7070F1E5C55F13B4A9577362CCCE46C32174E010C3C378
311
C44841A4BDA00FE3A12006CE11EE6AEC59894D3526DDE1CD59D503ECC324017F8061B7F162162FA62EDD81AE3308617770796DCBDAD2B2625C5AE8A63DE20B2C8AA5E95E76E5730823955956E33E705425A2187C185D36489A1B44D3DCEC2172F6BA2105C3546287A7194B2331768EBBE64F6E70A9930ABE0ADEA89E9E2C38
311
523B810287AD67A54A039C1606EAFE68F8304610BB9093DBDDABC0B2AE4E290DCDA15376D7E39F72B556F0B32EAB5D3D498B4C41ABADEC3A1434C422D87E8025A84BDCB2B1417ED750FAE4DA8976863974C577C7F902D3F156AD354DEA3540DE6BEAE2BEA52F7A2EB4CA43802ECE5BF2CE2EDC9347179FFB023CE412E60BE1
311
6DA0BE29B374988A553F561DC04615DD35F7D2C8979F60E5955CE93DF29DED8AFA1EE6642D53418086C03C47C377910F75F7E8F5EF665F70B60FFB22AEDF897D119E8423C773E819A3C1E55E550599EE6EDCA34D0C86FD72057DF2CD46F16A470682471C164E4346D5306BF12D7D12D82CFF673D41636C347443FEB51B50D7
311
2EA171A8E4A58623A4A16E0FA2B8B10A0D23268D87C33896EE8FB73305A74BF224EDBADFA0BD674AB354D63DB7BD5D83426761C077DE767728235446A552754EB93B755891C3C4CC6CADE37CF0E912A7BB38DBA010F9DE1282EDF470CA69A9CDA482E334C4A6EA4107987980B17E72F31730EBF88BBD39E7C629F56797A3C0
311
009C2C5AE7951D9A05A02773440F02EEB4DE396A3B6A570C72CCFBCD823B0B8ED3F1D5CEDDFED772FA70236C83FB7D86C385D570B87107535572A60A96035F8F7C6A7192F13007246BBE0521855E6AC46F3E27689CEE7D186A6FD679D98CDCAD13333E04EBE7ED6F55FF01504B0304140006080800C98D81576180134D5F01
311
00006B0300004500000037413838433939462D314233362D344632462D383043422D3041453237353333363844322F536368656D61732F52656E6465724D6174657269616C536368656D612E786D6CA5934D6FC2300C86EFFB1551EEE343DBA41D1A103009551ADAD40EAE28A4A68D9426284961FCFBE5A340113B2071746D
311
3F765EBF4DC6BFB5407BD0862B49F0B037C0082453059725C18DDD3EBFE3F1E829991803366715D474942CD30FB4A782E00C64017A412D684E454CE3FE28995203B162A6EA5AC94B66997D225E109CD63B0135484BAD1B3C07E9080CA35DB3119C11BCA5C200461A68A1A438126C75E3E230D40FF81FB3F03C91D1E3A3A0AF
311
79FE28E25BC39EC3E17E4C2A2D94A0833A51AF55BCCA7D88572FCBAC529C4140B020FC3AAFA886621DCED7EAD7664CC86024E806DC297DA1BB393E4156543457A4537DB8817349A70F8ACBF09B3EEE2CB2F33E91B65D60786E4E3B39B77E3FEEEF5650424525DA657FB8B46BE6BF064646F0A0F7327C0BC1BC1B4CBBC1C419
311
FA3CCB23500007872A2580CAAE5461865565294E4EDB4617B62FF579DF9A5B2F54E834076A597573A020912FED777F9B3F504B0304140006080800C98D8157A3DF212151000000570000004700000037413838433939462D314233362D344632462D383043422D3041453237353333363844322F4173736574446174612F41
311
737365745461626C654F66436F6E74656E74732E62696E536160603036747573743536D275343737D735713577D4B5343232D335B070B6B4743575753270751302AACB4D2C492DCA4CCC492C28484D2C4ACC4B4E050A82012F90744FCD03CA26072767A4E6260200504B0304140006080800C98D8157F86583405800000068
311
0000004500000037413838433939462D314233362D344632462D383043422D3041453237353333363844322F4173736574446174612F53747265616D56657273696F6E5461626C652E696E66558CBD0A80300C06F73E4B117FB66E451741D041DC5BF98480A492E4FDD18EAEC7DD4555D89EF28DF51A0B1BD8340C4DE7DD84
311
8B988C0ACF0649566493F2408C508DDEBB99D5129FF8F1AF8CF5B9503E20FAE5A16B5AF702504B0304140006080800C98D8157BC66A64B350100009A0400003600000037413838433939462D314233362D344632462D383043422D3041453237353333363844322F4173736574446174612F636E782E786D6CCD94314FC330
311
1085FF4AE43D7612105495E30AC1D209242A06B6AB7369AD3A76645F10FC7BEC3603A888A943D7F3BBF3F327BF93ABCFC1161F18A2F1AE6535AF58814EFBCEB85DCB26EACB052B564A06EFE9878C150E066C592E332577C14FE35CEAB087C9E6AA35EE30171F6244DAC0D6E273FFE81DA1A3C80A6D21C69645BDC701384CE4
311
3B8C07DE0101AF79C0E8A7A0314D2233E03C490704C28EA9A66A6ECABA29AB7A53DF2F6FEF96F5E25D8AAC5472EBBD9DF5265D16FC58E8D3AD4C5552E46325A760664D7E0B537F79E45BE3A4484A252385C464EEA0AF3175C0385AA381123AE13521954984304871122B2932835F249EB037CEE496753206E4C34BB287810C
311
5E1D91FFBC5E9ECCDA4502A7F17A799C3BBC3C85D7E30F7A3B05F298986BCBC9B9436E5C7F819488E31A49A1C95B457D03504B0304140006080800C98D8157D4EBF13B080100004F0300003400000037413838433939462D314233362D344632462D383043422D3041453237353333363844322F536368656D61732F636E78
311
2E786D6CCD93314F04211484FFCA867E61598D5E2E2C575858D9A8951DC2BB3B72C0DB006BF4DF0B2BC55D62A7C575307C2133C343EC3EBDEB3E20268B61229C0EA483A0D1D87098C892F7FD86743B2922623EC348179487895499487188B8CC4D32B0578BABAAB3E1D4C407F41EC38B3E8257A4D34EA53491B46EA95A321A
311
48276A545694D3080997A8A1DC90AD8776838EA0321822C761BCE9F9D80FFC95DF6F6FEFB67CF3265825A57847748DB72143C4B9D35816A1D81904ABC7522CD136A66620F2DC1B2D6D08560829528EA58346E6AFB9906A9E9DD52A97AAD80AFE3052B01AF522F0230488565F67E20B73FF16F9198281F8545E295AE5AE33F9
311
6F1EFF56005B67BF8C40FD0AF21B504B0304140006080800C98D8157410A3D5871000000A40000002C00000037413838433939462D314233362D344632462D383043422D3041453237353333363844322F636E782E786D6C55CC4D0E82301086E1AB34B31774E7A22D31F1069E60020334B633A63FC6E34B0909B07DDE2F9F
311
EE7EC1AB2FC5E4840DDC9A2B28E25E06C7938192C7CB1D54677514C9871928C640062A83D55394F2D968A0118BAFEA1DBF377CA444F98919176EAB9FEAAB9F2960DA5BBB1E2ED3FA6FFF504B0304140006080800C98D8157297CEE1F7F000000A300000007000000636E782E786D6C4D8CD10E822018465F85FDF71442296E
311
80538BF77089CE89D0485A8F1F342FBAFAB6B3EF1CD17C368BDE26BC16EF24142702C8B8871F17374B88FB8439A04689E0FDFE7703E486CD48C8189498838FCF038D661AA2CDD42E6E3D60D572DED7B5C645C74A7CD154634EFA0E93F64EAB2B6325BFD1649CB392E6D74B9BF3EA0B504B0304140006080800C98D815716E9
311
9B5DA600000035010000130000005B436F6E74656E745F54797065735D2E786D6C9590410E82301045AFD2740F4517C6180A0BF5065E60AC53688469D30E066F6F91AD9AB89CF9FFFD3F99BA9DC7413C3026E749CB4D59498164FCCD51A7E5C4B6D84BD136F5E5193089ECA5A465CF1C0E4A25D3E308A9F401292BD6C71138
311
8FB15301CC1D3A54DBAADA29E38991B8E0254336F5092D4C038BF39CD76B6FC6A538AEBEA54A4B08617006389FA516557DE4AE8E7E70DE30729138228C5F021CD93F02D4FB0DCD0B504B0304140006080800C98D81573DEE336E64000000790000001B0000006175746F6465736B2D64657369676E2D7061636B6167652E78
311
6D6C35CBC10E83200C00D05F21DCA56CA76D41FC96062B120735B69A7DBE268BB7777961F8D5AF396893C2ADB70FE7ADA196782C2DF776D7A97B5933C430F15651E5469C55D70F80A4992A3ADC954792C525AE70A1E4D6AD9816CC044FEFDF01FE3FDE907802504B0304140006080800C98D815727A8EFB6FA000000960100
311
003700000037413838433939462D314233362D344632462D383043422D3041453237353333363844322F4173736574446174612F636F72652E786D6C8550CB6E833010FC15B47703E61127917114207C414FBD59C6A156828DB05DF5F36B072AB5A79E76353B33BB3BF4F2353F934FB95A65740338CD21915A9851E9A901EF
311
EEE808C985D1D518F78B0689E6B36C20C2C0E8B41ABFEC9030DA491D516D46B983DC5AE92011CFD03460C5879C79CABD0B0CFB48172E1E7C92294E371EA3DEAB7197AA31B8A9BB922B3032D4A4AEBA16B5FDED80AABE3CA113B9D568E8EAAAADBBFA4A0642B32866D4A9F967BB582577720456E44589708172FC86C9B93A9C
311
F1F19D6691C9A8756BF8795F1ABF03768D57F7DC719A6DD33FAE7E19FF77F54ABBB2D85D37850586C391AF01A3594C29945784A1C644D937504B0304140006080800C98D8157D9550EC2F9000000940100003500000037413838433939462D314233362D344632462D383043422D3041453237353333363844322F53636865
311
6D61732F636F72652E786D6C8550CB6E833010FC15B47703061C92C8382A24FC407BEACD02875A0936F2A3EAE7D7062AB5A79E76353B33BB3BF4F2353F934F61ACD4AA019CE6900835E851AAA901EFEEE808C98551A3B5FB458344F159341061607432DA2F3B3468E5848AA8D2A3D8416EAD70900CCFD03460870F31F3947B
311
1718F6912E7C78F049A438DD788C7A2FC75D2AC7E026EF521860754F6A52752D6AAFB703AAAEE5099DEA1B417D47AA9674E4A5EE6B9A4531A34ECE3FDB0723B81323B0222F4A840B94E3375C9FABC3191FDF6916998C5A67C2CFFBD2F81DB0D7F54E4BB36DF6C7D32FE3FF9E5E2A5716BBE7A6B0C07038711D309AC58C4259
311
030C35E6C9BE01504B0304140006080800C98D8157A1C6F1A702010000D70100002D00000037413838433939462D314233362D344632462D383043422D3041453237353333363844322F636F72652E786D6C9591C152C32010865F25B3779240DA34ED103A6D354FE0C91B866D64DA400688E3E30B268E7AD313CCCFF7EFF2
311
EFF2E3FB78CFDED0796D4D0B342F2143D35BA5CDD0C21CAEA481EC28B8B336FCC0203372C416920C820FCECED32AF5D60434493556E12A4AEF3140D6DFE3A505DFBFE22873398748F85B3EC9FE2607CC69BE7082073D7E597B8732A002C14A5611CA48499FE8EEB0A90FB479E64522059FB509155B9BE1F8822AB353889140
311
6C79B1BC466AD66A65B48A7FD4578D0EC4EED43497FDBE23F45CD564D3B18E34E5E54CCAD323DB6DABAA6E1E582C12CD82FBE0E264D62269067FB52FC65FC9E649FD33D9E2F020E877A8228D59F0E27307F14C2B111F504B0304140006080800C98D8157A670A66E09010000B201000008000000636F72652E786D6C8D50CB
311
6EC32010FC15B4776CE3479C4498A876E22FE8A9376A888B628305386AFFBE90B8527BEB69D1CCECCE30F4F4394FE82EAD53463740920C90D483114A8F0DACFE8AF7804E8C5A63FC2F1920CD67D9408481D1D19A75D9A0C1682F7544B5117203B973D2031AA6F068C00D1F72E6095F7D50B85BB2F0E1C6479990E4A963D4AB
311
F96775B0927B2980E5595E6092E38CBC92FA58EE8E64FF46D3A864745D95D8AC9408EEEAAAA40556F7555D955D8BDBF36587CB7371C087FA52E1BEABCAB6EAAA97BAAF691A971975DE863F6F47424E8F1CBF475F9A3E2946DF8D993641082590D1D317B08CA691F8137A5DC43F422BED8B7C3BF8DC70C04808F42082716C30
311
8C47BD61C6B6D937504B01021400140006080800C98D8157F829C888DA000000200100004F000000000000000000000000000000000037413838433939462D314233362D344632462D383043422D3041453237353333363844322F4173736574446174612F446566696E6974696F6E4974657261746F7250726F7065727469
311
65732E62696E504B01021400140006080800C98D81575706AC4EEE0000003002000045000000000000000000000000004701000037413838433939462D314233362D344632462D383043422D3041453237353333363844322F4173736574446174612F496E7374616E636550726F706572746965732E62696E504B01021400
311
140006080800C98D815728BB58AF800100009E0500003D000000000000000000000000009802000037413838433939462D314233362D344632462D383043422D3041453237353333363844322F536368656D61732F436F6D6D6F6E536368656D612E786D6C504B01021400140006080800C98D81572CCEBD668A040000E012
311
00003E000000000000000000000000007304000037413838433939462D314233362D344632462D383043422D3041453237353333363844322F536368656D61732F47656E65726963536368656D612E786D6C504B01021400140006080800C98D81576180134D5F0100006B0300004500000000000000000000000000590900
311
0037413838433939462D314233362D344632462D383043422D3041453237353333363844322F536368656D61732F52656E6465724D6174657269616C536368656D612E786D6C504B01021400140006080800C98D8157A3DF2121510000005700000047000000000000000000000000001B0B000037413838433939462D3142
311
33362D344632462D383043422D3041453237353333363844322F4173736574446174612F41737365745461626C654F66436F6E74656E74732E62696E504B01021400140006080800C98D8157F865834058000000680000004500000000000000000000000000D10B000037413838433939462D314233362D344632462D3830
311
43422D3041453237353333363844322F4173736574446174612F53747265616D56657273696F6E5461626C652E696E66504B01021400140006080800C98D8157BC66A64B350100009A04000036000000000000000000000000008C0C000037413838433939462D314233362D344632462D383043422D304145323735333336
311
3844322F4173736574446174612F636E782E786D6C504B01021400140006080800C98D8157D4EBF13B080100004F0300003400000000000000000000000000150E000037413838433939462D314233362D344632462D383043422D3041453237353333363844322F536368656D61732F636E782E786D6C504B010214001400
311
06080800C98D8157410A3D5871000000A40000002C000000000000000000000000006F0F000037413838433939462D314233362D344632462D383043422D3041453237353333363844322F636E782E786D6C504B01021400140006080800C98D8157297CEE1F7F000000A300000007000000000000000000000000002A1000
311
00636E782E786D6C504B01021400140006080800C98D815716E99B5DA6000000350100001300000000000000000000000000CE1000005B436F6E74656E745F54797065735D2E786D6C504B01021400140006080800C98D81573DEE336E64000000790000001B00000000000000000000000000A51100006175746F6465736B
311
2D64657369676E2D7061636B6167652E786D6C504B01021400140006080800C98D815727A8EFB6FA0000009601000037000000000000000000000000004212000037413838433939462D314233362D344632462D383043422D3041453237353333363844322F4173736574446174612F636F72652E786D6C504B0102140014
311
0006080800C98D8157D9550EC2F90000009401000035000000000000000000000000009113000037413838433939462D314233362D344632462D383043422D3041453237353333363844322F536368656D61732F636F72652E786D6C504B01021400140006080800C98D8157A1C6F1A702010000D70100002D000000000000
311
00000000000000DD14000037413838433939462D314233362D344632462D383043422D3041453237353333363844322F636F72652E786D6C504B01021400140006080800C98D8157A670A66E09010000B201000008000000000000000000000000002A160000636F72652E786D6C504B050600000000110011005A06000059
311
1700000000
310
504B0304140006080800C98D8157000000000000000000000000370000006662782F31303042394545312D303635372D344646302D394644332D3330343042433044314645322F617474726962757465732E62696E504B0304140006080800C98D8157000000000000000000000000350000006662782F3130304239454531
310
2D303635372D344646302D394644332D3330343042433044314645322F76657274696365732E62696E504B0304140006080800C98D8157F270F1330600000004000000360000006662782F31303042394545312D303635372D344646302D394644332D3330343042433044314645322F747269616E676C65732E62696E6366
310
60600000504B0304140006080800C98D815751464CB48900000043010000360000006662782F31303042394545312D303635372D344646302D394644332D3330343042433044314645322F6469726563746F72792E786D6C9D8F310EC2300C45AF127987122606C71DD918B841D4B851A43646695A717C52A85029031293A5
310
A76FBF6FACEF7DA7264E43906840EF0FA03836E242F406C6DCEE4EA06AC22492573150D1F66C60C640E8938CB705396EEDD86DE9B5042FE27813D640EA63BB001C722AF6E55CB61E4863F58284D5D3F53DD715CE1C3985E63FD7F1B7EBDD617E9F1E504B0304140006080800C98D81573B5DCACD38070000201C0000340000
310
006662782F31303042394545312D303635372D344646302D394644332D3330343042433044314645322F6F626A656374732E786D6CDD59DB6EDB3810FD1542FBB2FBA09BAF51E1B8706CA7308AB4458D2EF64DA065DAE146379052E2ECD7EF90226549966DA5DB02C52640E230D470E6CCCC99E168F2FE1085E899304E93F8
310
D6702DC740240E922D8DF7B7469EEDCC1B03BD9FA2094B92ACB2CF40318EC8AD21968DE964CF923C554B5BB2C379D85CBDBFFB0BF180C4C440418839BF3578F048226CE13C4BB6843F595B9C616BBF3B58AE556CAC8BDD339C3E368E4A31237106AAC27A0C5294066EFD4F30C99E4E6CB1A1B6ADD76D5BFFC2365B1A5E5794
310
C63CC37170A255434EAF9B567D77B058F6869E391C0CFAE660D473CDBBFBBB85E98EFBCE7C349F7BB3A567A0E964932461E98094C45BF0E2AB317527B6F84F69BE42A14DEF208963122834DB366C89924B096F625203D695A6551C52D85A59E87734FECCB64EA0D454AAA1AD8DD3BFABD19B6CFE0610789728659C8828E719
310
035F2BEC8B7C702676B15AF30BE528C21961148728A41B86193808B6160EAA8911D92244218199F4A29657D51502FB7A2EB569B9CBC350E4AF319599E6433E928C4BCDE83F841DB5AF9E063A81B5398DB31B656CF69A82086F62CBC5E27FFD9EFA670124DA85780FD102668A4DFD5E03AFB9E082D5C2987EBCDF1CD6821FDA
310
0F4F5992129689C893C9ACF24E7BB0125A107C1D402970ADFBEE88CA5780FE13205FEA8226E039460F83C340DBCE70CC77098BC03BC841A6033F1C243E9E7C9AD8E5C353846A5C790E5348DB1F8469CD8CDAD91548A7936708FA84F59571EB008710D30F3416790E8182C2049680EF779B83315D0199C2223C8543B01EBE27
310
B6F888E0572107F8A6E1A136FAEDE0289D30CD3C3BFAEA03C40CA341E9AA9A8DE7F01DFE107C678BF5C775CE7638200F2AB1176447639A41316D57A8067A2DE5BFAD3EC98C3CB1A7B62B8073F689208E16BFAC955F90740CA822EA70E11AB9F24021DDC310C724C9B95A6F23AA200913E66F5EFD22875BCFFA5307417118E4
310
B78880563283EA1E309A0A508CA932AF6442EB8893E0411580FBC2A9FE06074F025E3F00C6FA1E3D206A316B0ACDA3D4C75192C782BE4FC3BB699AD577E497EB7A3DC7EBDD78236D2C97E275F6686A289517E744383D73C8BCE62DC51A5A7291470360CB360B02E899F2CC4F521CD0AC3D161A46A80C05B02FAABCA5BB5DCE
310
81D45B6169686CF5DD21722A3FCB432E6BAF0EF16984F7C4DF6151E15ACFAB01540AD716B422B30F13CE694CB8EC504E98AB818A6301111471ABA5B60421E57E4432FC3DF1274B5E23FC18D9853EF45299E866AF479F565055CF731245E796C4BEB4FFD5E7384AC3A24BBB8681DB6B9CD08AAB505A1CF10CF1E6E3CC77B644
310
36DDD7A497BCA0F1ED24DDFB6EF167E061F8A7C3A38FA0D07A438DBCEE59D71ABA9EF8BA0152190DDDFE583BE21A56FAA84CF420610E5D53F0EABF10BA7FEC46689DCEE124DCF9340CF3C82FEA41462268C17096B34EF93A1A3A27CE57BCD04888CA493B1A4283DC993465EFA1BB0FB04A361FE748B3720C184563B8A37532
310
E4C48AD61096BE90F75171EDBAEEFDB74BFDCF7C59BDA73C91D797846D5B35ADB711BA03D30D83A04B55E1CA389292A7936AF245F2E2721D878116A2F8ADB825A80861E4998AC184BC01B5DE1FF80BCE0220D2B5FC6DDE41466CC9F6D853D4C4A93187318543B534DDA7566F3A4076A27CD41AAF9520D408A60D58F0EC83F8
310
107EC5E06AE8FCB8ADBA1ABB585F89C266C160E5A8C705599F3FAC1B5260A5F3D35F0446E4A52141ADCE45237741D4B7D5B15F6D4850167D5B5D783C7BCCA34D8CA9A88C222CF0367DF75EDE256F6DB828D8CE9D3B5BCC9733B3371CDD9883F9D8336730B230BDE1B8B7F416DEC099CF6C467892B38070BB673BBEEE9DD278
310
AF03A380AECB8D02A60AD7AF7E3A9E9B0EFE1FDF28C26483CFC5E2AF7AA128DB3DD1903572B1EB85A295A8376FEBFEDD13A26E2F626FEA9C8B59810EF0CB650BC848D7FBEEAD8516AD3B89769D2B15F18D85F7EC6DE5A7D7981AA1B7D687DA8E36CAAF7331CC9E5AAA94BEDD4A5EEBBBCBFBD9B2DF3367E3F1D81C2CC733D3
310
EBF546A67333F7BCE57079E72CEF4BC4552DEC5A577E090ED5CA56C668300DE6494861284FB6684F12B801C1D4A103BFB2887079B38106409571FD46A0C3D3CFC54C35C39B503F1D3C62184C87AA22E7010C45E1D6716BA875F41B8C41C524520EA7AC27283C2ADA0D94337A6B40086414EA8BB58171961C1E4AE98D7125B8
310
0DC77B71672A9E2AFF3E3E26D0815839DA55EEE9828BB2AC169D301C48E57B02603BDD907CBFE95A1D8433F8B8C9B3D298E3C2D11A05827E2150180753BF2705EF0188E7B25DAE25F7D420E93499BF1807855433C36C2FC7EB15BC678B2FB6988CAF3EA334CCF7C29D97EA7D4D9229FA8C302F865013080C65668AC53D7CFE
310
CEFEC21278C514A17B0A41807E3FDC8CFEB0E749142571B164CFD48B2AB47E84D74E5B5B8FFCA07171DCA12DFB1E35D687B9152716DEF2275800D7322A66A305C4B50028E9A91200DA23C217F0586DFF6A815411A8B4B0D5D655C02367FA081249BCCB116953DD501940422E8056C59CB6FCA01726368321F8F45F504B0304
310
140006080800C98D81575203791F3E01000046050000300000006662782F31303042394545312D303635372D344646302D394644332D3330343042433044314645322F636E782E786D6CCD94C14EC3300C865F25CABD693B104C539A491C78020E885B9A7A25AC8DABC445ECED494636406888C324768B9CDFD2FFD9BF2CD7
310
6FE3C05EC1078BAEE1B5A8380367B0B3AE6FF84C9B62C9D95A498F485F649C393D42C353992BD97B9CA75CEA60A3E7215507EBB6B9A889BC6D6782C0991974080D0FE619462DF44CD841D88A4E9316B5F01070F606623FD91172BFF1A0093AAE16D5E2AAA81745553FD4B7ABEB9B55BD7C9265522AD9220E596F1D81C78919
310
8C0F17CD54B24CDF4ACEDE664D22E0EAD39968AD9365FC573244B7AECF3ADA4D49374D83359AE2984A3404544411E851961F6225CBC4FB8DFAFEEEF1E08075D68321F4BB7F1A407D6A0047632226E16FFC7BE1EFD8D8BE44DCFFDAF649D86CEB6CA887B48618D79FFB8F29D2AE1F2E2FF44763E7CF7C3C2564CDE5211F7C9D
310
89B8DC9FBCB8F47401D53B504B0304140006080800C98D81571A8B53287F000000A30000000B0000006662782F636E782E786D6C4D8CCB0E832014057F85DC3DEDA5DA8709606285FF30150D11A1A1D2F4F30B8D8BAE4E323933BCFDAC8EBC4D7CD9E005B0030231FE1146EB6701699BE80D482B790C61FBBB01F1C36A0414
310
0C92CF31A4E78E46330DC915EAAC5F76C810BB462946F172BED25A6BA48DEE2B5A618DDD1D7BA6D5291BC7A2E4F9F5F296BCFC02504B0304140006080800C98D8157A6D797065F0000008200000007000000636E782E786D6C4DCB3B0E80201045D1AD90E9FD7516806B51190811670C8A61F982B1B0BAC9C97B72CA7B1037
310
C6D3332918DA1E04D2CAC69353902EDB8C20262D23F3F59B81A079470595414B17391D1F19B4730A5583A7ED43BBE4025D9592775E5ADFFA01504B0304140006080800C98D81574FEB6A7CA0000000F4000000130000005B436F6E74656E745F54797065735D2E786D6C7D8F4B0EC2300C44AF1279DFA6B0400835ED02B801
310
1730C16D239A8F121795DB93D02D6269CFBC19BBED573B8B17C564BC53B0AB1B10E4B47F18372A5878A88E20FAAEBDBD032591BD2E299898C349CAA427B2986A1FC86565F0D122E7318E32A07EE24872DF3407A9BD63725C71C980AEBDD080CBCCE2BAE6F5D69B7110E7CD57AA146008B3D1C8F92C5954F993BB1BF787F39A
310
89ABC491D09600F9FDA2FB00504B0304140006080800C98D81573DEE336E64000000790000001B0000006175746F6465736B2D64657369676E2D7061636B6167652E786D6C35CBC10E83200C00D05F21DCA56CA76D41FC96062B120735B69A7DBE268BB7777961F8D5AF396893C2ADB70FE7ADA196782C2DF776D7A97B5933
310
C430F15651E5469C55D70F80A4992A3ADC954792C525AE70A1E4D6AD9816CC044FEFDF01FE3FDE907802504B0304140006080800C98D8157365073CAFA000000960100003B0000006662782F31303042394545312D303635372D344646302D394644332D3330343042433044314645322F7265736F75726365732F636F7265
310
2E786D6C8550CB6EC32010FC156BEFD806E7E14498286D922FE8A937041B1725068B47D5CF2F24AED49E7ADAD5ECCCECEEF0C3D774AF3ED107E3EC00B46EA142AB9C36761C20C52BE9A13A08EE9D8BBF68505939E1000506C147EFD2BC40CAD988B6A0D6695C40190246A8D43D370304F58193AC658A99116EF52CD54D8E58
310
D3FAC9133C25A317A9D1D9CD5C0D7A10BBEDEA78617443D6E71746566DFF4A76977347DAD3FAD8337AEADBCB9A37452C7834D3CF76E55146D42058CB3A421969E91BDDEE579B3DEDDF7953988287E8F3CFCBD2F21D088FC125AF30F0E639FDE39A66FDBF6B3236766C717D2A02089A8F7C0C046F4A4AB93C22CCB5242ABE01
310
504B0304140006080800C98D8157FD678F5CF1000000B1010000310000006662782F31303042394545312D303635372D344646302D394644332D3330343042433044314645322F636F72652E786D6C8D50CB6EC32010FC156BEFD860BB7909132989FD053DF58680382831583CA27E7E2176A5F696D3A2D9196676E8F17B7A
310
144FE5BCB6A6035262289411566A337610C315EDA03832EAAC0D7F6850183EA90E320C8C8ECEC67985843541998C1A2BD50A72EF5580423CD2A3032F6E6AE2258F2131FCBD9CB9B8F35195A45C788C063DFD4A85533C2809ACC67583488D30F924DB43BB3990DD17AD3293D118B55CADB44CEEFAAA950346303EEDFB9E20BC
310
F9D8A2761830DA0F970635B8C5A733BE90A1AF6995C58CFAE0D2CDEB27F9BA77E58BF05FE638CB37326B139A7A355C143E79A63CAF05A3552E308D57BB69E6B2D90F504B0304140006080800C98D8157D00094C755010000DD0200000C0000006662782F636F72652E786D6C8D525D6F832014FD2B867754A86D6D8334DDDA
310
FE823DED8D2275A40A06C1F4E70FFC88EBC3BAC504C9B9F79E73CF09E4F068EAA817A6935A1500C5298884E2BA94AA2A80B3379883E84089D1DAFE680391628D284080012595D1AE9D20AE95152AA04A97620259D7090B225EFB4B013AFE251A1633677D47778F5BC6EFAC12318AC73E4A9C93E5342A4BCF266F52184077DB
310
EC78C16803D7E7370CB3347F87BBCB7905D3D3FA986374CAD3CB9A246198122B9B599D1BC1AC2801C5295E4184618A3ED0769F6DF628FF2449E8A4A4B3C67B9E44833B406FD7074946FC89CFB5E5DF7C4E2ABBC213DF38D1018AFC7A43819224E4E37F4378CF197A619F9F65D77AB670F7502FB8D526F39552BBA5D4B3DA09
310
4F9D46C34792B1EA990782DF78F00B9ED71C3E28A62ABF1AB3FE7A7536A83FEFD40A037BFB8894360DAB97E5C6159773117AB2348F735D6BF39FE9D9EA1C66121E26FD06504B0304140006080800C98D81573BAECA5808010000B201000008000000636F72652E786D6C8D50416EC32010FC0ADA3B36603B71224C9436C90B
310
7AEA8D1AE2A0D860191CB5BF2FC4AED4DE7A5A3433BB330C3F7C0E3D7AE8C91B671BA01901A46DEB94B15D0373B8E21AD041F0C9B9F04B06C8CA4137906010BC9BDC3CAE50EB6CD036A1D629BD82D27B1D00B57D7C34E0DB9B1E6426E71015FE9E8DB2BDCB4E67345B74820733FCACB69396412B108CB0025386097DA3DB7D
310
B9D9D3FA9DE74929F83C1BB55A1915DDCDD5E809C46E5B1E2F8C6E70757E61B824F52BDE5DCE0526A7EA58337AAAC9A5E2795A16DC8729FE793D127306E4E523F9F27CA104FF70AE5F05319442CEF65F2008CF13F127F43CAA7F843636146C3DB86C781034067A12D1383518C7B3DE3853DBE21B504B010214001400060808
310
00C98D81570000000000000000000000003700000000000000000000000000000000006662782F31303042394545312D303635372D344646302D394644332D3330343042433044314645322F617474726962757465732E62696E504B01021400140006080800C98D8157000000000000000000000000350000000000000000
310
0000000000550000006662782F31303042394545312D303635372D344646302D394644332D3330343042433044314645322F76657274696365732E62696E504B01021400140006080800C98D8157F270F13306000000040000003600000000000000000000000000A80000006662782F31303042394545312D303635372D34
310
4646302D394644332D3330343042433044314645322F747269616E676C65732E62696E504B01021400140006080800C98D815751464CB489000000430100003600000000000000000000000000020100006662782F31303042394545312D303635372D344646302D394644332D3330343042433044314645322F6469726563
310
746F72792E786D6C504B01021400140006080800C98D81573B5DCACD38070000201C00003400000000000000000000000000DF0100006662782F31303042394545312D303635372D344646302D394644332D3330343042433044314645322F6F626A656374732E786D6C504B01021400140006080800C98D81575203791F3E
310
010000460500003000000000000000000000000000690900006662782F31303042394545312D303635372D344646302D394644332D3330343042433044314645322F636E782E786D6C504B01021400140006080800C98D81571A8B53287F000000A30000000B00000000000000000000000000F50A00006662782F636E782E
310
786D6C504B01021400140006080800C98D8157A6D797065F0000008200000007000000000000000000000000009D0B0000636E782E786D6C504B01021400140006080800C98D81574FEB6A7CA0000000F40000001300000000000000000000000000210C00005B436F6E74656E745F54797065735D2E786D6C504B01021400
310
140006080800C98D81573DEE336E64000000790000001B00000000000000000000000000F20C00006175746F6465736B2D64657369676E2D7061636B6167652E786D6C504B01021400140006080800C98D8157365073CAFA000000960100003B000000000000000000000000008F0D00006662782F31303042394545312D30
310
3635372D344646302D394644332D3330343042433044314645322F7265736F75726365732F636F72652E786D6C504B01021400140006080800C98D8157FD678F5CF1000000B10100003100000000000000000000000000E20E00006662782F31303042394545312D303635372D344646302D394644332D3330343042433044
310
314645322F636F72652E786D6C504B01021400140006080800C98D8157D00094C755010000DD0200000C00000000000000000000000000221000006662782F636F72652E786D6C504B01021400140006080800C98D81573BAECA5808010000B20100000800000000000000000000000000A1110000636F72652E786D6C504B
310
0506000000000E000E0080040000CF1200000000
  0
XRECORD
  5
8354
102
{ACAD_REACTORS
330
834F
102
}
330
834F
100
AcDbXrecord
280
     1
270
     1
271
     1
  0
XRECORD
  5
8353
102
{ACAD_REACTORS
330
834F
102
}
330
834F
100
AcDbXrecord
280
     1
270
     1
271
     1
  0
XRECORD
  5
8355
102
{ACAD_REACTORS
330
834F
102
}
330
834F
100
AcDbXrecord
280
     1
270
     1
271
     1
  0
XRECORD
  5
8352
102
{ACAD_REACTORS
330
834F
102
}
330
834F
100
AcDbXrecord
280
     1
270
     1
271
     1
  0
XRECORD
  5
86E7
102
{ACAD_REACTORS
330
86E6
102
}
330
86E6
100
AcDbXrecord
280
     1
102
DISPLAYNAME
  1
Imperial24
102
FLAGS
 90
        0
  0
CELLSTYLEMAP
  5
86AE
102
{ACAD_REACTORS
330
86AD
102
}
330
86AD
100
AcDbCellStyleMap
 90
        3
300
CELLSTYLE
  1
TABLEFORMAT_BEGIN
 90
        5
170
     1
 91
        0
 92
    32768
 62
   257
 93
        1
300
CONTENTFORMAT
  1
CONTENTFORMAT_BEGIN
 90
        0
 91
        0
 92
      512
 93
        0
300

 40
0.0
140
1.0
 94
        5
 62
     0
340
8382
144
0.25
309
CONTENTFORMAT_END
171
     0
 94
        0
309
TABLEFORMAT_END
  1
CELLSTYLE_BEGIN
 90
        1
 91
        1
300
_TITLE
309
CELLSTYLE_END
300
CELLSTYLE
  1
TABLEFORMAT_BEGIN
 90
        5
170
     1
 91
        0
 92
        0
 62
   257
 93
        1
300
CONTENTFORMAT
  1
CONTENTFORMAT_BEGIN
 90
        0
 91
        0
 92
      512
 93
        0
300

 40
0.0
140
1.0
 94
        5
 62
     0
340
8382
144
0.18
309
CONTENTFORMAT_END
171
     0
 94
        0
309
TABLEFORMAT_END
  1
CELLSTYLE_BEGIN
 90
        2
 91
        1
300
_HEADER
309
CELLSTYLE_END
300
CELLSTYLE
  1
TABLEFORMAT_BEGIN
 90
        5
170
     1
 91
        0
 92
        0
 62
   257
 93
        1
300
CONTENTFORMAT
  1
CONTENTFORMAT_BEGIN
 90
        0
 91
        0
 92
      512
 93
        0
300

 40
0.0
140
1.0
 94
        2
 62
     0
340
8382
144
0.18
309
CONTENTFORMAT_END
171
     0
 94
        0
309
TABLEFORMAT_END
  1
CELLSTYLE_BEGIN
 90
        3
 91
        2
300
_DATA
309
CELLSTYLE_END
  0
XRECORD
  5
86E4
102
{ACAD_REACTORS
330
86AD
102
}
330
86AD
100
AcDbXrecord
280
     1
102
ACAD_ROUNDTRIP_PRE2007_TABLESTYLE
 90
      512
 91
        0
  1

 92
      512
 93
        0
  2

 94
      512
 95
        0
  3

  0
XRECORD
  5
86BF
102
{ACAD_REACTORS
330
86BE
102
}
330
86BE
100
AcDbXrecord
280
     1
102
RTVSPost2010Prop28
280
     1
102
RTVSPost2010PropOp28
 70
     1
102
RTVSPost2010Prop29
280
     1
102
RTVSPost2010PropOp29
 70
     1
102
RTVSPost2010Prop30
280
     0
102
RTVSPost2010PropOp30
 70
     1
102
RTVSPost2010Prop31
280
     0
102
RTVSPost2010PropOp31
 70
     1
102
RTVSPost2010Prop32
280
     0
102
RTVSPost2010PropOp32
 70
     1
102
RTVSPost2010Prop33
280
     0
102
RTVSPost2010PropOp33
 70
     1
102
RTVSPost2010Prop34
280
     0
102
RTVSPost2010PropOp34
 70
     1
102
RTVSPost2010Prop35
280
     0
102
RTVSPost2010PropOp35
 70
     1
102
RTVSPost2010Prop36
280
     0
102
RTVSPost2010PropOp36
 70
     1
102
RTVSPost2010Prop37
 90
       50
102
RTVSPost2010PropOp37
 70
     1
102
RTVSPost2010Prop38
140
0.0
102
RTVSPost2010PropOp38
 70
     1
102
RTVSPost2010Prop39
140
1.0
102
RTVSPost2010PropOp39
 70
     1
102
RTVSPost2010Prop40
 90
        0
102
RTVSPost2010PropOp40
 70
     1
102
RTVSPost2010Prop41ColorIndex
 90
       18
102
RTVSPost2010Prop41ColorRGB
 90
        0
102
RTVSPost2010PropOp41
 70
     1
102
RTVSPost2010Prop42
 90
       50
102
RTVSPost2010PropOp42
 70
     1
102
RTVSPost2010Prop43
 90
        3
102
RTVSPost2010PropOp43
 70
     1
102
RTVSPost2010Prop44ColorIndex
 90
        5
102
RTVSPost2010Prop44ColorRGB
 90
      255
102
RTVSPost2010PropOp44
 70
     1
102
RTVSPost2010Prop45
280
     0
102
RTVSPost2010PropOp45
 70
     1
102
RTVSPost2010Prop46
 90
       50
102
RTVSPost2010PropOp46
 70
     1
102
RTVSPost2010Prop47
 90
       50
102
RTVSPost2010PropOp47
 70
     1
102
RTVSPost2010Prop48
 90
       50
102
RTVSPost2010PropOp48
 70
     1
102
RTVSPost2010Prop49
280
     0
102
RTVSPost2010PropOp49
 70
     1
102
RTVSPost2010Prop50
 90
       50
102
RTVSPost2010PropOp50
 70
     1
102
RTVSPost2010Prop51ColorIndex
 90
      256
102
RTVSPost2010Prop51ColorRGB
 90
-16777216
102
RTVSPost2010PropOp51
 70
     0
102
RTVSPost2010Prop52
140
1.0
102
RTVSPost2010PropOp52
 70
     0
102
RTVSPost2010Prop53
 90
        2
102
RTVSPost2010PropOp53
 70
     1
102
RTVSPost2010Prop54
  1
strokes_ogs.tif
102
RTVSPost2010PropOp54
 70
     1
102
RTVSPost2010Prop55
280
     0
102
RTVSPost2010PropOp55
 70
     1
102
RTVSPost2010Prop56
140
1.0
102
RTVSPost2010PropOp56
 70
     1
102
RTVSPost2010Prop57
140
1.0
102
RTVSPost2010PropOp57
 70
     1
102
RTVSPropertyOp0
 70
     1
102
RTVSPropertyOp1
 70
     1
102
RTVSPropertyOp2
 70
     1
102
RTVSPropertyOp3
 70
     1
102
RTVSPropertyOp4
 70
     1
102
RTVSPropertyOp5
 70
     1
102
RTVSPropertyOp6
 70
     1
102
RTVSPropertyOp7
 70
     1
102
RTVSPropertyOp8
 70
     1
102
RTVSPropertyOp9
 70
     1
102
RTVSPropertyOp10
 70
     1
102
RTVSPropertyOp11
 70
     1
102
RTVSPropertyOp12
 70
     1
102
RTVSPropertyOp13
 70
     1
102
RTVSPropertyOp14
 70
     1
102
RTVSPropertyOp15
 70
     1
102
RTVSPropertyOp16
 70
     1
102
RTVSPropertyOp17
 70
     1
102
RTVSPropertyOp18
 70
     1
102
RTVSPropertyOp19
 70
     1
102
RTVSPropertyOp20
 70
     1
102
RTVSPropertyOp21
 70
     1
102
RTVSPropertyOp22
 70
     1
102
RTVSPropertyOp23
 70
     1
102
RTVSPropertyOp24
 70
     1
102
RTVSPropertyOp25
 70
     1
102
RTVSPropertyOp26
 70
     1
102
RTVSPropertyOp27
 70
     1
102
RTVSPropertyOp28
 70
     1
102
RTVSPropertyOp29
 70
     1
102
RTVSPropertyOp30
 70
     1
102
RTVSPropertyOp31
 70
     1
102
RTVSPropertyOp32
 70
     1
102
RTVSPropertyOp33
 70
     1
102
RTVSPropertyOp34
 70
     1
102
RTVSPropertyOp35
 70
     1
102
RTVSPropertyOp36
 70
     1
102
RTVSPropertyOp37
 70
     1
102
RTVSPropertyOp38
 70
     1
102
RTVSPropertyOp39
 70
     1
102
RTVSPropertyOp40
 70
     1
102
RTVSPropertyOp41
 70
     1
102
RTVSPropertyOp42
 70
     1
102
RTVSPropertyOp43
 70
     1
102
RTVSPropertyOp44
 70
     1
102
RTVSPropertyOp45
 70
     1
102
RTVSPropertyOp46
 70
     1
102
RTVSPropertyOp47
 70
     1
102
RTVSPropertyOp48
 70
     1
102
RTVSPropertyOp49
 70
     1
102
RTVSPropertyOp50
 70
     1
102
RTVSPropertyOp51
 70
     0
102
RTVSPropertyOp52
 70
     0
102
RTVSPropertyOp53
 70
     1
102
RTVSPropertyOp54
 70
     1
102
RTVSPropertyOp55
 70
     1
102
RTVSPropertyOp56
 70
     1
102
RTVSPropertyOp57
 70
     1
102
RTVSPropertyOp58
 70
     1
102
RTVSPropertyOp59
 70
     1
102
RTVSPropertyOp60
 70
     1
102
RTVSPropertyOp61
 70
     1
102
RTVSPropertyOp62
 70
     1
  0
XRECORD
  5
86BD
102
{ACAD_REACTORS
330
86BC
102
}
330
86BC
100
AcDbXrecord
280
     1
102
RTVSPost2010Prop28
280
     0
102
RTVSPost2010PropOp28
 70
     1
102
RTVSPost2010Prop29
280
     1
102
RTVSPost2010PropOp29
 70
     1
102
RTVSPost2010Prop30
280
     1
102
RTVSPost2010PropOp30
 70
     1
102
RTVSPost2010Prop31
280
     0
102
RTVSPost2010PropOp31
 70
     1
102
RTVSPost2010Prop32
280
     0
102
RTVSPost2010PropOp32
 70
     1
102
RTVSPost2010Prop33
280
     0
102
RTVSPost2010PropOp33
 70
     1
102
RTVSPost2010Prop34
280
     0
102
RTVSPost2010PropOp34
 70
     1
102
RTVSPost2010Prop35
280
     0
102
RTVSPost2010PropOp35
 70
     1
102
RTVSPost2010Prop36
280
     0
102
RTVSPost2010PropOp36
 70
     1
102
RTVSPost2010Prop37
 90
       50
102
RTVSPost2010PropOp37
 70
     1
102
RTVSPost2010Prop38
140
0.0
102
RTVSPost2010PropOp38
 70
     1
102
RTVSPost2010Prop39
140
1.0
102
RTVSPost2010PropOp39
 70
     1
102
RTVSPost2010Prop40
 90
        0
102
RTVSPost2010PropOp40
 70
     1
102
RTVSPost2010Prop41ColorIndex
 90
       18
102
RTVSPost2010Prop41ColorRGB
 90
        0
102
RTVSPost2010PropOp41
 70
     1
102
RTVSPost2010Prop42
 90
       50
102
RTVSPost2010PropOp42
 70
     1
102
RTVSPost2010Prop43
 90
        3
102
RTVSPost2010PropOp43
 70
     1
102
RTVSPost2010Prop44ColorIndex
 90
        5
102
RTVSPost2010Prop44ColorRGB
 90
      255
102
RTVSPost2010PropOp44
 70
     1
102
RTVSPost2010Prop45
280
     0
102
RTVSPost2010PropOp45
 70
     1
102
RTVSPost2010Prop46
 90
       50
102
RTVSPost2010PropOp46
 70
     1
102
RTVSPost2010Prop47
 90
       50
102
RTVSPost2010PropOp47
 70
     1
102
RTVSPost2010Prop48
 90
       50
102
RTVSPost2010PropOp48
 70
     1
102
RTVSPost2010Prop49
280
     0
102
RTVSPost2010PropOp49
 70
     1
102
RTVSPost2010Prop50
 90
       50
102
RTVSPost2010PropOp50
 70
     1
102
RTVSPost2010Prop51ColorIndex
 90
      256
102
RTVSPost2010Prop51ColorRGB
 90
-16777216
102
RTVSPost2010PropOp51
 70
     0
102
RTVSPost2010Prop52
140
1.0
102
RTVSPost2010PropOp52
 70
     0
102
RTVSPost2010Prop53
 90
        2
102
RTVSPost2010PropOp53
 70
     1
102
RTVSPost2010Prop54
  1
strokes_ogs.tif
102
RTVSPost2010PropOp54
 70
     1
102
RTVSPost2010Prop55
280
     0
102
RTVSPost2010PropOp55
 70
     1
102
RTVSPost2010Prop56
140
1.0
102
RTVSPost2010PropOp56
 70
     1
102
RTVSPost2010Prop57
140
1.0
102
RTVSPost2010PropOp57
 70
     1
102
RTVSPropertyOp0
 70
     1
102
RTVSPropertyOp1
 70
     1
102
RTVSPropertyOp2
 70
     1
102
RTVSPropertyOp3
 70
     1
102
RTVSPropertyOp4
 70
     1
102
RTVSPropertyOp5
 70
     1
102
RTVSPropertyOp6
 70
     1
102
RTVSPropertyOp7
 70
     1
102
RTVSPropertyOp8
 70
     1
102
RTVSPropertyOp9
 70
     1
102
RTVSPropertyOp10
 70
     1
102
RTVSPropertyOp11
 70
     1
102
RTVSPropertyOp12
 70
     1
102
RTVSPropertyOp13
 70
     1
102
RTVSPropertyOp14
 70
     1
102
RTVSPropertyOp15
 70
     1
102
RTVSPropertyOp16
 70
     1
102
RTVSPropertyOp17
 70
     1
102
RTVSPropertyOp18
 70
     1
102
RTVSPropertyOp19
 70
     1
102
RTVSPropertyOp20
 70
     1
102
RTVSPropertyOp21
 70
     1
102
RTVSPropertyOp22
 70
     1
102
RTVSPropertyOp23
 70
     1
102
RTVSPropertyOp24
 70
     1
102
RTVSPropertyOp25
 70
     1
102
RTVSPropertyOp26
 70
     1
102
RTVSPropertyOp27
 70
     1
102
RTVSPropertyOp28
 70
     1
102
RTVSPropertyOp29
 70
     1
102
RTVSPropertyOp30
 70
     1
102
RTVSPropertyOp31
 70
     1
102
RTVSPropertyOp32
 70
     1
102
RTVSPropertyOp33
 70
     1
102
RTVSPropertyOp34
 70
     1
102
RTVSPropertyOp35
 70
     1
102
RTVSPropertyOp36
 70
     1
102
RTVSPropertyOp37
 70
     1
102
RTVSPropertyOp38
 70
     1
102
RTVSPropertyOp39
 70
     1
102
RTVSPropertyOp40
 70
     1
102
RTVSPropertyOp41
 70
     1
102
RTVSPropertyOp42
 70
     1
102
RTVSPropertyOp43
 70
     1
102
RTVSPropertyOp44
 70
     1
102
RTVSPropertyOp45
 70
     1
102
RTVSPropertyOp46
 70
     1
102
RTVSPropertyOp47
 70
     1
102
RTVSPropertyOp48
 70
     1
102
RTVSPropertyOp49
 70
     1
102
RTVSPropertyOp50
 70
     1
102
RTVSPropertyOp51
 70
     0
102
RTVSPropertyOp52
 70
     0
102
RTVSPropertyOp53
 70
     1
102
RTVSPropertyOp54
 70
     1
102
RTVSPropertyOp55
 70
     1
102
RTVSPropertyOp56
 70
     1
102
RTVSPropertyOp57
 70
     1
102
RTVSPropertyOp58
 70
     1
102
RTVSPropertyOp59
 70
     1
102
RTVSPropertyOp60
 70
     1
102
RTVSPropertyOp61
 70
     1
102
RTVSPropertyOp62
 70
     1
  0
XRECORD
  5
86CB
102
{ACAD_REACTORS
330
86CA
102
}
330
86CA
100
AcDbXrecord
280
     1
102
RTVSPost2010Prop28
280
     0
102
RTVSPost2010PropOp28
 70
     1
102
RTVSPost2010Prop29
280
     1
102
RTVSPost2010PropOp29
 70
     1
102
RTVSPost2010Prop30
280
     1
102
RTVSPost2010PropOp30
 70
     1
102
RTVSPost2010Prop31
280
     0
102
RTVSPost2010PropOp31
 70
     1
102
RTVSPost2010Prop32
280
     0
102
RTVSPost2010PropOp32
 70
     1
102
RTVSPost2010Prop33
280
     0
102
RTVSPost2010PropOp33
 70
     1
102
RTVSPost2010Prop34
280
     0
102
RTVSPost2010PropOp34
 70
     1
102
RTVSPost2010Prop35
280
     0
102
RTVSPost2010PropOp35
 70
     1
102
RTVSPost2010Prop36
280
     0
102
RTVSPost2010PropOp36
 70
     1
102
RTVSPost2010Prop37
 90
       50
102
RTVSPost2010PropOp37
 70
     1
102
RTVSPost2010Prop38
140
0.0
102
RTVSPost2010PropOp38
 70
     1
102
RTVSPost2010Prop39
140
1.0
102
RTVSPost2010PropOp39
 70
     1
102
RTVSPost2010Prop40
 90
        0
102
RTVSPost2010PropOp40
 70
     1
102
RTVSPost2010Prop41ColorIndex
 90
       18
102
RTVSPost2010Prop41ColorRGB
 90
        0
102
RTVSPost2010PropOp41
 70
     1
102
RTVSPost2010Prop42
 90
       50
102
RTVSPost2010PropOp42
 70
     1
102
RTVSPost2010Prop43
 90
        3
102
RTVSPost2010PropOp43
 70
     1
102
RTVSPost2010Prop44ColorIndex
 90
        5
102
RTVSPost2010Prop44ColorRGB
 90
      255
102
RTVSPost2010PropOp44
 70
     1
102
RTVSPost2010Prop45
280
     0
102
RTVSPost2010PropOp45
 70
     1
102
RTVSPost2010Prop46
 90
       50
102
RTVSPost2010PropOp46
 70
     1
102
RTVSPost2010Prop47
 90
       50
102
RTVSPost2010PropOp47
 70
     1
102
RTVSPost2010Prop48
 90
       50
102
RTVSPost2010PropOp48
 70
     1
102
RTVSPost2010Prop49
280
     0
102
RTVSPost2010PropOp49
 70
     1
102
RTVSPost2010Prop50
 90
       50
102
RTVSPost2010PropOp50
 70
     1
102
RTVSPost2010Prop51ColorIndex
 90
      256
102
RTVSPost2010Prop51ColorRGB
 90
-16777216
102
RTVSPost2010PropOp51
 70
     0
102
RTVSPost2010Prop52
140
1.0
102
RTVSPost2010PropOp52
 70
     0
102
RTVSPost2010Prop53
 90
        2
102
RTVSPost2010PropOp53
 70
     1
102
RTVSPost2010Prop54
  1
strokes_ogs.tif
102
RTVSPost2010PropOp54
 70
     1
102
RTVSPost2010Prop55
280
     0
102
RTVSPost2010PropOp55
 70
     1
102
RTVSPost2010Prop56
140
1.0
102
RTVSPost2010PropOp56
 70
     1
102
RTVSPost2010Prop57
140
1.0
102
RTVSPost2010PropOp57
 70
     1
102
RTVSPropertyOp0
 70
     1
102
RTVSPropertyOp1
 70
     1
102
RTVSPropertyOp2
 70
     1
102
RTVSPropertyOp3
 70
     1
102
RTVSPropertyOp4
 70
     1
102
RTVSPropertyOp5
 70
     1
102
RTVSPropertyOp6
 70
     1
102
RTVSPropertyOp7
 70
     1
102
RTVSPropertyOp8
 70
     1
102
RTVSPropertyOp9
 70
     1
102
RTVSPropertyOp10
 70
     1
102
RTVSPropertyOp11
 70
     1
102
RTVSPropertyOp12
 70
     1
102
RTVSPropertyOp13
 70
     1
102
RTVSPropertyOp14
 70
     1
102
RTVSPropertyOp15
 70
     1
102
RTVSPropertyOp16
 70
     1
102
RTVSPropertyOp17
 70
     1
102
RTVSPropertyOp18
 70
     1
102
RTVSPropertyOp19
 70
     1
102
RTVSPropertyOp20
 70
     1
102
RTVSPropertyOp21
 70
     1
102
RTVSPropertyOp22
 70
     1
102
RTVSPropertyOp23
 70
     1
102
RTVSPropertyOp24
 70
     1
102
RTVSPropertyOp25
 70
     1
102
RTVSPropertyOp26
 70
     1
102
RTVSPropertyOp27
 70
     1
102
RTVSPropertyOp28
 70
     1
102
RTVSPropertyOp29
 70
     1
102
RTVSPropertyOp30
 70
     1
102
RTVSPropertyOp31
 70
     1
102
RTVSPropertyOp32
 70
     1
102
RTVSPropertyOp33
 70
     1
102
RTVSPropertyOp34
 70
     1
102
RTVSPropertyOp35
 70
     1
102
RTVSPropertyOp36
 70
     1
102
RTVSPropertyOp37
 70
     1
102
RTVSPropertyOp38
 70
     1
102
RTVSPropertyOp39
 70
     1
102
RTVSPropertyOp40
 70
     1
102
RTVSPropertyOp41
 70
     1
102
RTVSPropertyOp42
 70
     1
102
RTVSPropertyOp43
 70
     1
102
RTVSPropertyOp44
 70
     1
102
RTVSPropertyOp45
 70
     1
102
RTVSPropertyOp46
 70
     1
102
RTVSPropertyOp47
 70
     1
102
RTVSPropertyOp48
 70
     1
102
RTVSPropertyOp49
 70
     1
102
RTVSPropertyOp50
 70
     1
102
RTVSPropertyOp51
 70
     0
102
RTVSPropertyOp52
 70
     0
102
RTVSPropertyOp53
 70
     1
102
RTVSPropertyOp54
 70
     1
102
RTVSPropertyOp55
 70
     1
102
RTVSPropertyOp56
 70
     1
102
RTVSPropertyOp57
 70
     1
102
RTVSPropertyOp58
 70
     1
102
RTVSPropertyOp59
 70
     1
102
RTVSPropertyOp60
 70
     1
102
RTVSPropertyOp61
 70
     1
102
RTVSPropertyOp62
 70
     1
  0
XRECORD
  5
86D3
102
{ACAD_REACTORS
330
86D2
102
}
330
86D2
100
AcDbXrecord
280
     1
102
RTVSPost2010Prop28
280
     0
102
RTVSPost2010PropOp28
 70
     1
102
RTVSPost2010Prop29
280
     1
102
RTVSPost2010PropOp29
 70
     1
102
RTVSPost2010Prop30
280
     1
102
RTVSPost2010PropOp30
 70
     1
102
RTVSPost2010Prop31
280
     0
102
RTVSPost2010PropOp31
 70
     1
102
RTVSPost2010Prop32
280
     0
102
RTVSPost2010PropOp32
 70
     1
102
RTVSPost2010Prop33
280
     0
102
RTVSPost2010PropOp33
 70
     1
102
RTVSPost2010Prop34
280
     0
102
RTVSPost2010PropOp34
 70
     1
102
RTVSPost2010Prop35
280
     0
102
RTVSPost2010PropOp35
 70
     1
102
RTVSPost2010Prop36
280
     0
102
RTVSPost2010PropOp36
 70
     1
102
RTVSPost2010Prop37
 90
       50
102
RTVSPost2010PropOp37
 70
     1
102
RTVSPost2010Prop38
140
0.0
102
RTVSPost2010PropOp38
 70
     1
102
RTVSPost2010Prop39
140
1.0
102
RTVSPost2010PropOp39
 70
     1
102
RTVSPost2010Prop40
 90
        0
102
RTVSPost2010PropOp40
 70
     1
102
RTVSPost2010Prop41ColorIndex
 90
       18
102
RTVSPost2010Prop41ColorRGB
 90
        0
102
RTVSPost2010PropOp41
 70
     1
102
RTVSPost2010Prop42
 90
       50
102
RTVSPost2010PropOp42
 70
     1
102
RTVSPost2010Prop43
 90
        3
102
RTVSPost2010PropOp43
 70
     1
102
RTVSPost2010Prop44ColorIndex
 90
        5
102
RTVSPost2010Prop44ColorRGB
 90
      255
102
RTVSPost2010PropOp44
 70
     1
102
RTVSPost2010Prop45
280
     0
102
RTVSPost2010PropOp45
 70
     1
102
RTVSPost2010Prop46
 90
       50
102
RTVSPost2010PropOp46
 70
     1
102
RTVSPost2010Prop47
 90
       50
102
RTVSPost2010PropOp47
 70
     1
102
RTVSPost2010Prop48
 90
       50
102
RTVSPost2010PropOp48
 70
     1
102
RTVSPost2010Prop49
280
     0
102
RTVSPost2010PropOp49
 70
     1
102
RTVSPost2010Prop50
 90
       50
102
RTVSPost2010PropOp50
 70
     1
102
RTVSPost2010Prop51ColorIndex
 90
      256
102
RTVSPost2010Prop51ColorRGB
 90
-16777216
102
RTVSPost2010PropOp51
 70
     0
102
RTVSPost2010Prop52
140
1.0
102
RTVSPost2010PropOp52
 70
     0
102
RTVSPost2010Prop53
 90
        2
102
RTVSPost2010PropOp53
 70
     1
102
RTVSPost2010Prop54
  1
strokes_ogs.tif
102
RTVSPost2010PropOp54
 70
     1
102
RTVSPost2010Prop55
280
     0
102
RTVSPost2010PropOp55
 70
     1
102
RTVSPost2010Prop56
140
1.0
102
RTVSPost2010PropOp56
 70
     1
102
RTVSPost2010Prop57
140
1.0
102
RTVSPost2010PropOp57
 70
     1
102
RTVSPropertyOp0
 70
     1
102
RTVSPropertyOp1
 70
     1
102
RTVSPropertyOp2
 70
     1
102
RTVSPropertyOp3
 70
     1
102
RTVSPropertyOp4
 70
     1
102
RTVSPropertyOp5
 70
     1
102
RTVSPropertyOp6
 70
     1
102
RTVSPropertyOp7
 70
     1
102
RTVSPropertyOp8
 70
     1
102
RTVSPropertyOp9
 70
     1
102
RTVSPropertyOp10
 70
     1
102
RTVSPropertyOp11
 70
     1
102
RTVSPropertyOp12
 70
     1
102
RTVSPropertyOp13
 70
     1
102
RTVSPropertyOp14
 70
     1
102
RTVSPropertyOp15
 70
     1
102
RTVSPropertyOp16
 70
     1
102
RTVSPropertyOp17
 70
     1
102
RTVSPropertyOp18
 70
     1
102
RTVSPropertyOp19
 70
     1
102
RTVSPropertyOp20
 70
     1
102
RTVSPropertyOp21
 70
     1
102
RTVSPropertyOp22
 70
     1
102
RTVSPropertyOp23
 70
     1
102
RTVSPropertyOp24
 70
     1
102
RTVSPropertyOp25
 70
     1
102
RTVSPropertyOp26
 70
     1
102
RTVSPropertyOp27
 70
     1
102
RTVSPropertyOp28
 70
     1
102
RTVSPropertyOp29
 70
     1
102
RTVSPropertyOp30
 70
     1
102
RTVSPropertyOp31
 70
     1
102
RTVSPropertyOp32
 70
     1
102
RTVSPropertyOp33
 70
     1
102
RTVSPropertyOp34
 70
     1
102
RTVSPropertyOp35
 70
     1
102
RTVSPropertyOp36
 70
     1
102
RTVSPropertyOp37
 70
     1
102
RTVSPropertyOp38
 70
     1
102
RTVSPropertyOp39
 70
     1
102
RTVSPropertyOp40
 70
     1
102
RTVSPropertyOp41
 70
     1
102
RTVSPropertyOp42
 70
     1
102
RTVSPropertyOp43
 70
     1
102
RTVSPropertyOp44
 70
     1
102
RTVSPropertyOp45
 70
     1
102
RTVSPropertyOp46
 70
     1
102
RTVSPropertyOp47
 70
     1
102
RTVSPropertyOp48
 70
     1
102
RTVSPropertyOp49
 70
     1
102
RTVSPropertyOp50
 70
     1
102
RTVSPropertyOp51
 70
     0
102
RTVSPropertyOp52
 70
     0
102
RTVSPropertyOp53
 70
     1
102
RTVSPropertyOp54
 70
     1
102
RTVSPropertyOp55
 70
     1
102
RTVSPropertyOp56
 70
     1
102
RTVSPropertyOp57
 70
     1
102
RTVSPropertyOp58
 70
     1
102
RTVSPropertyOp59
 70
     1
102
RTVSPropertyOp60
 70
     1
102
RTVSPropertyOp61
 70
     1
102
RTVSPropertyOp62
 70
     1
  0
XRECORD
  5
86C5
102
{ACAD_REACTORS
330
86C4
102
}
330
86C4
100
AcDbXrecord
280
     1
102
RTVSPost2010Prop28
280
     0
102
RTVSPost2010PropOp28
 70
     1
102
RTVSPost2010Prop29
280
     1
102
RTVSPost2010PropOp29
 70
     1
102
RTVSPost2010Prop30
280
     1
102
RTVSPost2010PropOp30
 70
     1
102
RTVSPost2010Prop31
280
     0
102
RTVSPost2010PropOp31
 70
     1
102
RTVSPost2010Prop32
280
     0
102
RTVSPost2010PropOp32
 70
     1
102
RTVSPost2010Prop33
280
     0
102
RTVSPost2010PropOp33
 70
     1
102
RTVSPost2010Prop34
280
     0
102
RTVSPost2010PropOp34
 70
     1
102
RTVSPost2010Prop35
280
     0
102
RTVSPost2010PropOp35
 70
     1
102
RTVSPost2010Prop36
280
     0
102
RTVSPost2010PropOp36
 70
     1
102
RTVSPost2010Prop37
 90
       50
102
RTVSPost2010PropOp37
 70
     1
102
RTVSPost2010Prop38
140
0.0
102
RTVSPost2010PropOp38
 70
     1
102
RTVSPost2010Prop39
140
1.0
102
RTVSPost2010PropOp39
 70
     1
102
RTVSPost2010Prop40
 90
        0
102
RTVSPost2010PropOp40
 70
     1
102
RTVSPost2010Prop41ColorIndex
 90
       18
102
RTVSPost2010Prop41ColorRGB
 90
        0
102
RTVSPost2010PropOp41
 70
     1
102
RTVSPost2010Prop42
 90
       50
102
RTVSPost2010PropOp42
 70
     1
102
RTVSPost2010Prop43
 90
        3
102
RTVSPost2010PropOp43
 70
     1
102
RTVSPost2010Prop44ColorIndex
 90
        5
102
RTVSPost2010Prop44ColorRGB
 90
      255
102
RTVSPost2010PropOp44
 70
     1
102
RTVSPost2010Prop45
280
     0
102
RTVSPost2010PropOp45
 70
     1
102
RTVSPost2010Prop46
 90
       50
102
RTVSPost2010PropOp46
 70
     1
102
RTVSPost2010Prop47
 90
       50
102
RTVSPost2010PropOp47
 70
     1
102
RTVSPost2010Prop48
 90
       50
102
RTVSPost2010PropOp48
 70
     1
102
RTVSPost2010Prop49
280
     0
102
RTVSPost2010PropOp49
 70
     1
102
RTVSPost2010Prop50
 90
       50
102
RTVSPost2010PropOp50
 70
     1
102
RTVSPost2010Prop51ColorIndex
 90
      256
102
RTVSPost2010Prop51ColorRGB
 90
-16777216
102
RTVSPost2010PropOp51
 70
     0
102
RTVSPost2010Prop52
140
1.0
102
RTVSPost2010PropOp52
 70
     0
102
RTVSPost2010Prop53
 90
        2
102
RTVSPost2010PropOp53
 70
     1
102
RTVSPost2010Prop54
  1
strokes_ogs.tif
102
RTVSPost2010PropOp54
 70
     1
102
RTVSPost2010Prop55
280
     0
102
RTVSPost2010PropOp55
 70
     1
102
RTVSPost2010Prop56
140
1.0
102
RTVSPost2010PropOp56
 70
     1
102
RTVSPost2010Prop57
140
1.0
102
RTVSPost2010PropOp57
 70
     1
102
RTVSPropertyOp0
 70
     1
102
RTVSPropertyOp1
 70
     1
102
RTVSPropertyOp2
 70
     1
102
RTVSPropertyOp3
 70
     1
102
RTVSPropertyOp4
 70
     1
102
RTVSPropertyOp5
 70
     1
102
RTVSPropertyOp6
 70
     1
102
RTVSPropertyOp7
 70
     1
102
RTVSPropertyOp8
 70
     1
102
RTVSPropertyOp9
 70
     1
102
RTVSPropertyOp10
 70
     1
102
RTVSPropertyOp11
 70
     1
102
RTVSPropertyOp12
 70
     1
102
RTVSPropertyOp13
 70
     1
102
RTVSPropertyOp14
 70
     1
102
RTVSPropertyOp15
 70
     1
102
RTVSPropertyOp16
 70
     1
102
RTVSPropertyOp17
 70
     1
102
RTVSPropertyOp18
 70
     1
102
RTVSPropertyOp19
 70
     1
102
RTVSPropertyOp20
 70
     1
102
RTVSPropertyOp21
 70
     1
102
RTVSPropertyOp22
 70
     1
102
RTVSPropertyOp23
 70
     1
102
RTVSPropertyOp24
 70
     1
102
RTVSPropertyOp25
 70
     1
102
RTVSPropertyOp26
 70
     1
102
RTVSPropertyOp27
 70
     1
102
RTVSPropertyOp28
 70
     1
102
RTVSPropertyOp29
 70
     1
102
RTVSPropertyOp30
 70
     1
102
RTVSPropertyOp31
 70
     1
102
RTVSPropertyOp32
 70
     1
102
RTVSPropertyOp33
 70
     1
102
RTVSPropertyOp34
 70
     1
102
RTVSPropertyOp35
 70
     1
102
RTVSPropertyOp36
 70
     1
102
RTVSPropertyOp37
 70
     1
102
RTVSPropertyOp38
 70
     1
102
RTVSPropertyOp39
 70
     1
102
RTVSPropertyOp40
 70
     1
102
RTVSPropertyOp41
 70
     1
102
RTVSPropertyOp42
 70
     1
102
RTVSPropertyOp43
 70
     1
102
RTVSPropertyOp44
 70
     1
102
RTVSPropertyOp45
 70
     1
102
RTVSPropertyOp46
 70
     1
102
RTVSPropertyOp47
 70
     1
102
RTVSPropertyOp48
 70
     1
102
RTVSPropertyOp49
 70
     1
102
RTVSPropertyOp50
 70
     1
102
RTVSPropertyOp51
 70
     0
102
RTVSPropertyOp52
 70
     0
102
RTVSPropertyOp53
 70
     1
102
RTVSPropertyOp54
 70
     1
102
RTVSPropertyOp55
 70
     1
102
RTVSPropertyOp56
 70
     1
102
RTVSPropertyOp57
 70
     1
102
RTVSPropertyOp58
 70
     1
102
RTVSPropertyOp59
 70
     1
102
RTVSPropertyOp60
 70
     1
102
RTVSPropertyOp61
 70
     1
102
RTVSPropertyOp62
 70
     1
  0
XRECORD
  5
86C9
102
{ACAD_REACTORS
330
86C8
102
}
330
86C8
100
AcDbXrecord
280
     1
102
RTVSPost2010Prop28
280
     0
102
RTVSPost2010PropOp28
 70
     1
102
RTVSPost2010Prop29
280
     1
102
RTVSPost2010PropOp29
 70
     1
102
RTVSPost2010Prop30
280
     1
102
RTVSPost2010PropOp30
 70
     1
102
RTVSPost2010Prop31
280
     0
102
RTVSPost2010PropOp31
 70
     1
102
RTVSPost2010Prop32
280
     0
102
RTVSPost2010PropOp32
 70
     1
102
RTVSPost2010Prop33
280
     0
102
RTVSPost2010PropOp33
 70
     1
102
RTVSPost2010Prop34
280
     0
102
RTVSPost2010PropOp34
 70
     1
102
RTVSPost2010Prop35
280
     0
102
RTVSPost2010PropOp35
 70
     1
102
RTVSPost2010Prop36
280
     0
102
RTVSPost2010PropOp36
 70
     1
102
RTVSPost2010Prop37
 90
       50
102
RTVSPost2010PropOp37
 70
     1
102
RTVSPost2010Prop38
140
0.0
102
RTVSPost2010PropOp38
 70
     1
102
RTVSPost2010Prop39
140
1.0
102
RTVSPost2010PropOp39
 70
     1
102
RTVSPost2010Prop40
 90
        0
102
RTVSPost2010PropOp40
 70
     1
102
RTVSPost2010Prop41ColorIndex
 90
       18
102
RTVSPost2010Prop41ColorRGB
 90
        0
102
RTVSPost2010PropOp41
 70
     1
102
RTVSPost2010Prop42
 90
       50
102
RTVSPost2010PropOp42
 70
     1
102
RTVSPost2010Prop43
 90
        3
102
RTVSPost2010PropOp43
 70
     1
102
RTVSPost2010Prop44ColorIndex
 90
        5
102
RTVSPost2010Prop44ColorRGB
 90
      255
102
RTVSPost2010PropOp44
 70
     1
102
RTVSPost2010Prop45
280
     0
102
RTVSPost2010PropOp45
 70
     1
102
RTVSPost2010Prop46
 90
       50
102
RTVSPost2010PropOp46
 70
     1
102
RTVSPost2010Prop47
 90
       50
102
RTVSPost2010PropOp47
 70
     1
102
RTVSPost2010Prop48
 90
       50
102
RTVSPost2010PropOp48
 70
     1
102
RTVSPost2010Prop49
280
     0
102
RTVSPost2010PropOp49
 70
     1
102
RTVSPost2010Prop50
 90
       50
102
RTVSPost2010PropOp50
 70
     1
102
RTVSPost2010Prop51ColorIndex
 90
      256
102
RTVSPost2010Prop51ColorRGB
 90
-16777216
102
RTVSPost2010PropOp51
 70
     0
102
RTVSPost2010Prop52
140
1.0
102
RTVSPost2010PropOp52
 70
     0
102
RTVSPost2010Prop53
 90
        2
102
RTVSPost2010PropOp53
 70
     1
102
RTVSPost2010Prop54
  1
strokes_ogs.tif
102
RTVSPost2010PropOp54
 70
     1
102
RTVSPost2010Prop55
280
     0
102
RTVSPost2010PropOp55
 70
     1
102
RTVSPost2010Prop56
140
1.0
102
RTVSPost2010PropOp56
 70
     1
102
RTVSPost2010Prop57
140
1.0
102
RTVSPost2010PropOp57
 70
     1
102
RTVSPropertyOp0
 70
     1
102
RTVSPropertyOp1
 70
     1
102
RTVSPropertyOp2
 70
     1
102
RTVSPropertyOp3
 70
     1
102
RTVSPropertyOp4
 70
     1
102
RTVSPropertyOp5
 70
     1
102
RTVSPropertyOp6
 70
     1
102
RTVSPropertyOp7
 70
     1
102
RTVSPropertyOp8
 70
     1
102
RTVSPropertyOp9
 70
     1
102
RTVSPropertyOp10
 70
     1
102
RTVSPropertyOp11
 70
     1
102
RTVSPropertyOp12
 70
     1
102
RTVSPropertyOp13
 70
     1
102
RTVSPropertyOp14
 70
     1
102
RTVSPropertyOp15
 70
     1
102
RTVSPropertyOp16
 70
     1
102
RTVSPropertyOp17
 70
     1
102
RTVSPropertyOp18
 70
     1
102
RTVSPropertyOp19
 70
     1
102
RTVSPropertyOp20
 70
     1
102
RTVSPropertyOp21
 70
     1
102
RTVSPropertyOp22
 70
     1
102
RTVSPropertyOp23
 70
     1
102
RTVSPropertyOp24
 70
     1
102
RTVSPropertyOp25
 70
     1
102
RTVSPropertyOp26
 70
     1
102
RTVSPropertyOp27
 70
     1
102
RTVSPropertyOp28
 70
     1
102
RTVSPropertyOp29
 70
     1
102
RTVSPropertyOp30
 70
     1
102
RTVSPropertyOp31
 70
     1
102
RTVSPropertyOp32
 70
     1
102
RTVSPropertyOp33
 70
     1
102
RTVSPropertyOp34
 70
     1
102
RTVSPropertyOp35
 70
     1
102
RTVSPropertyOp36
 70
     1
102
RTVSPropertyOp37
 70
     1
102
RTVSPropertyOp38
 70
     1
102
RTVSPropertyOp39
 70
     1
102
RTVSPropertyOp40
 70
     1
102
RTVSPropertyOp41
 70
     1
102
RTVSPropertyOp42
 70
     1
102
RTVSPropertyOp43
 70
     1
102
RTVSPropertyOp44
 70
     1
102
RTVSPropertyOp45
 70
     1
102
RTVSPropertyOp46
 70
     1
102
RTVSPropertyOp47
 70
     1
102
RTVSPropertyOp48
 70
     1
102
RTVSPropertyOp49
 70
     1
102
RTVSPropertyOp50
 70
     1
102
RTVSPropertyOp51
 70
     0
102
RTVSPropertyOp52
 70
     0
102
RTVSPropertyOp53
 70
     1
102
RTVSPropertyOp54
 70
     1
102
RTVSPropertyOp55
 70
     1
102
RTVSPropertyOp56
 70
     1
102
RTVSPropertyOp57
 70
     1
102
RTVSPropertyOp58
 70
     1
102
RTVSPropertyOp59
 70
     1
102
RTVSPropertyOp60
 70
     1
102
RTVSPropertyOp61
 70
     1
102
RTVSPropertyOp62
 70
     1
  0
XRECORD
  5
86E3
102
{ACAD_REACTORS
330
86E2
102
}
330
86E2
100
AcDbXrecord
280
     1
102
RTVSPost2010Prop28
280
     0
102
RTVSPost2010PropOp28
 70
     1
102
RTVSPost2010Prop29
280
     1
102
RTVSPost2010PropOp29
 70
     1
102
RTVSPost2010Prop30
280
     1
102
RTVSPost2010PropOp30
 70
     1
102
RTVSPost2010Prop31
280
     0
102
RTVSPost2010PropOp31
 70
     1
102
RTVSPost2010Prop32
280
     0
102
RTVSPost2010PropOp32
 70
     1
102
RTVSPost2010Prop33
280
     0
102
RTVSPost2010PropOp33
 70
     1
102
RTVSPost2010Prop34
280
     0
102
RTVSPost2010PropOp34
 70
     1
102
RTVSPost2010Prop35
280
     0
102
RTVSPost2010PropOp35
 70
     1
102
RTVSPost2010Prop36
280
     0
102
RTVSPost2010PropOp36
 70
     1
102
RTVSPost2010Prop37
 90
       50
102
RTVSPost2010PropOp37
 70
     0
102
RTVSPost2010Prop38
140
0.0
102
RTVSPost2010PropOp38
 70
     0
102
RTVSPost2010Prop39
140
1.0
102
RTVSPost2010PropOp39
 70
     0
102
RTVSPost2010Prop40
 90
        0
102
RTVSPost2010PropOp40
 70
     0
102
RTVSPost2010Prop41ColorIndex
 90
       18
102
RTVSPost2010Prop41ColorRGB
 90
        0
102
RTVSPost2010PropOp41
 70
     0
102
RTVSPost2010Prop42
 90
       50
102
RTVSPost2010PropOp42
 70
     0
102
RTVSPost2010Prop43
 90
        3
102
RTVSPost2010PropOp43
 70
     0
102
RTVSPost2010Prop44ColorIndex
 90
        5
102
RTVSPost2010Prop44ColorRGB
 90
      255
102
RTVSPost2010PropOp44
 70
     0
102
RTVSPost2010Prop45
280
     0
102
RTVSPost2010PropOp45
 70
     1
102
RTVSPost2010Prop46
 90
       50
102
RTVSPost2010PropOp46
 70
     0
102
RTVSPost2010Prop47
 90
       50
102
RTVSPost2010PropOp47
 70
     0
102
RTVSPost2010Prop48
 90
       50
102
RTVSPost2010PropOp48
 70
     0
102
RTVSPost2010Prop49
280
     0
102
RTVSPost2010PropOp49
 70
     1
102
RTVSPost2010Prop50
 90
       50
102
RTVSPost2010PropOp50
 70
     0
102
RTVSPost2010Prop51ColorIndex
 90
      256
102
RTVSPost2010Prop51ColorRGB
 90
-16777216
102
RTVSPost2010PropOp51
 70
     0
102
RTVSPost2010Prop52
140
1.0
102
RTVSPost2010PropOp52
 70
     0
102
RTVSPost2010Prop53
 90
        2
102
RTVSPost2010PropOp53
 70
     0
102
RTVSPost2010Prop54
  1
strokes_ogs.tif
102
RTVSPost2010PropOp54
 70
     0
102
RTVSPost2010Prop55
280
     0
102
RTVSPost2010PropOp55
 70
     1
102
RTVSPost2010Prop56
140
1.0
102
RTVSPost2010PropOp56
 70
     0
102
RTVSPost2010Prop57
140
1.0
102
RTVSPost2010PropOp57
 70
     0
102
RTVSPropertyOp0
 70
     0
102
RTVSPropertyOp1
 70
     0
102
RTVSPropertyOp2
 70
     0
102
RTVSPropertyOp3
 70
     0
102
RTVSPropertyOp4
 70
     0
102
RTVSPropertyOp5
 70
     0
102
RTVSPropertyOp6
 70
     0
102
RTVSPropertyOp7
 70
     0
102
RTVSPropertyOp8
 70
     0
102
RTVSPropertyOp9
 70
     0
102
RTVSPropertyOp10
 70
     0
102
RTVSPropertyOp11
 70
     0
102
RTVSPropertyOp12
 70
     0
102
RTVSPropertyOp13
 70
     0
102
RTVSPropertyOp14
 70
     2
102
RTVSPropertyOp15
 70
     0
102
RTVSPropertyOp16
 70
     0
102
RTVSPropertyOp17
 70
     0
102
RTVSPropertyOp18
 70
     0
102
RTVSPropertyOp19
 70
     0
102
RTVSPropertyOp20
 70
     0
102
RTVSPropertyOp21
 70
     0
102
RTVSPropertyOp22
 70
     0
102
RTVSPropertyOp23
 70
     0
102
RTVSPropertyOp24
 70
     0
102
RTVSPropertyOp25
 70
     0
102
RTVSPropertyOp26
 70
     0
102
RTVSPropertyOp27
 70
     0
102
RTVSPropertyOp28
 70
     1
102
RTVSPropertyOp29
 70
     1
102
RTVSPropertyOp30
 70
     1
102
RTVSPropertyOp31
 70
     1
102
RTVSPropertyOp32
 70
     1
102
RTVSPropertyOp33
 70
     1
102
RTVSPropertyOp34
 70
     1
102
RTVSPropertyOp35
 70
     1
102
RTVSPropertyOp36
 70
     1
102
RTVSPropertyOp37
 70
     0
102
RTVSPropertyOp38
 70
     0
102
RTVSPropertyOp39
 70
     0
102
RTVSPropertyOp40
 70
     0
102
RTVSPropertyOp41
 70
     0
102
RTVSPropertyOp42
 70
     0
102
RTVSPropertyOp43
 70
     0
102
RTVSPropertyOp44
 70
     0
102
RTVSPropertyOp45
 70
     1
102
RTVSPropertyOp46
 70
     0
102
RTVSPropertyOp47
 70
     0
102
RTVSPropertyOp48
 70
     0
102
RTVSPropertyOp49
 70
     1
102
RTVSPropertyOp50
 70
     0
102
RTVSPropertyOp51
 70
     0
102
RTVSPropertyOp52
 70
     0
102
RTVSPropertyOp53
 70
     0
102
RTVSPropertyOp54
 70
     0
102
RTVSPropertyOp55
 70
     1
102
RTVSPropertyOp56
 70
     0
102
RTVSPropertyOp57
 70
     0
102
RTVSPropertyOp58
 70
     0
102
RTVSPropertyOp59
 70
     0
102
RTVSPropertyOp60
 70
     0
102
RTVSPropertyOp61
 70
     0
102
RTVSPropertyOp62
 70
     0
  0
XRECORD
  5
86D1
102
{ACAD_REACTORS
330
86D0
102
}
330
86D0
100
AcDbXrecord
280
     1
102
RTVSPost2010Prop28
280
     0
102
RTVSPost2010PropOp28
 70
     1
102
RTVSPost2010Prop29
280
     1
102
RTVSPost2010PropOp29
 70
     1
102
RTVSPost2010Prop30
280
     1
102
RTVSPost2010PropOp30
 70
     1
102
RTVSPost2010Prop31
280
     0
102
RTVSPost2010PropOp31
 70
     1
102
RTVSPost2010Prop32
280
     0
102
RTVSPost2010PropOp32
 70
     1
102
RTVSPost2010Prop33
280
     0
102
RTVSPost2010PropOp33
 70
     1
102
RTVSPost2010Prop34
280
     0
102
RTVSPost2010PropOp34
 70
     1
102
RTVSPost2010Prop35
280
     0
102
RTVSPost2010PropOp35
 70
     1
102
RTVSPost2010Prop36
280
     0
102
RTVSPost2010PropOp36
 70
     1
102
RTVSPost2010Prop37
 90
       50
102
RTVSPost2010PropOp37
 70
     1
102
RTVSPost2010Prop38
140
0.0
102
RTVSPost2010PropOp38
 70
     1
102
RTVSPost2010Prop39
140
1.0
102
RTVSPost2010PropOp39
 70
     1
102
RTVSPost2010Prop40
 90
        0
102
RTVSPost2010PropOp40
 70
     1
102
RTVSPost2010Prop41ColorIndex
 90
       18
102
RTVSPost2010Prop41ColorRGB
 90
        0
102
RTVSPost2010PropOp41
 70
     1
102
RTVSPost2010Prop42
 90
       50
102
RTVSPost2010PropOp42
 70
     1
102
RTVSPost2010Prop43
 90
        3
102
RTVSPost2010PropOp43
 70
     1
102
RTVSPost2010Prop44ColorIndex
 90
        5
102
RTVSPost2010Prop44ColorRGB
 90
      255
102
RTVSPost2010PropOp44
 70
     1
102
RTVSPost2010Prop45
280
     0
102
RTVSPost2010PropOp45
 70
     1
102
RTVSPost2010Prop46
 90
       50
102
RTVSPost2010PropOp46
 70
     1
102
RTVSPost2010Prop47
 90
       50
102
RTVSPost2010PropOp47
 70
     1
102
RTVSPost2010Prop48
 90
       50
102
RTVSPost2010PropOp48
 70
     1
102
RTVSPost2010Prop49
280
     0
102
RTVSPost2010PropOp49
 70
     1
102
RTVSPost2010Prop50
 90
       50
102
RTVSPost2010PropOp50
 70
     1
102
RTVSPost2010Prop51ColorIndex
 90
      256
102
RTVSPost2010Prop51ColorRGB
 90
-16777216
102
RTVSPost2010PropOp51
 70
     0
102
RTVSPost2010Prop52
140
1.0
102
RTVSPost2010PropOp52
 70
     0
102
RTVSPost2010Prop53
 90
        2
102
RTVSPost2010PropOp53
 70
     1
102
RTVSPost2010Prop54
  1
strokes_ogs.tif
102
RTVSPost2010PropOp54
 70
     1
102
RTVSPost2010Prop55
280
     0
102
RTVSPost2010PropOp55
 70
     1
102
RTVSPost2010Prop56
140
1.0
102
RTVSPost2010PropOp56
 70
     1
102
RTVSPost2010Prop57
140
1.0
102
RTVSPost2010PropOp57
 70
     1
102
RTVSPropertyOp0
 70
     1
102
RTVSPropertyOp1
 70
     1
102
RTVSPropertyOp2
 70
     1
102
RTVSPropertyOp3
 70
     1
102
RTVSPropertyOp4
 70
     1
102
RTVSPropertyOp5
 70
     1
102
RTVSPropertyOp6
 70
     1
102
RTVSPropertyOp7
 70
     1
102
RTVSPropertyOp8
 70
     1
102
RTVSPropertyOp9
 70
     1
102
RTVSPropertyOp10
 70
     1
102
RTVSPropertyOp11
 70
     1
102
RTVSPropertyOp12
 70
     1
102
RTVSPropertyOp13
 70
     1
102
RTVSPropertyOp14
 70
     1
102
RTVSPropertyOp15
 70
     1
102
RTVSPropertyOp16
 70
     1
102
RTVSPropertyOp17
 70
     1
102
RTVSPropertyOp18
 70
     1
102
RTVSPropertyOp19
 70
     1
102
RTVSPropertyOp20
 70
     1
102
RTVSPropertyOp21
 70
     1
102
RTVSPropertyOp22
 70
     1
102
RTVSPropertyOp23
 70
     1
102
RTVSPropertyOp24
 70
     1
102
RTVSPropertyOp25
 70
     1
102
RTVSPropertyOp26
 70
     1
102
RTVSPropertyOp27
 70
     1
102
RTVSPropertyOp28
 70
     1
102
RTVSPropertyOp29
 70
     1
102
RTVSPropertyOp30
 70
     1
102
RTVSPropertyOp31
 70
     1
102
RTVSPropertyOp32
 70
     1
102
RTVSPropertyOp33
 70
     1
102
RTVSPropertyOp34
 70
     1
102
RTVSPropertyOp35
 70
     1
102
RTVSPropertyOp36
 70
     1
102
RTVSPropertyOp37
 70
     1
102
RTVSPropertyOp38
 70
     1
102
RTVSPropertyOp39
 70
     1
102
RTVSPropertyOp40
 70
     1
102
RTVSPropertyOp41
 70
     1
102
RTVSPropertyOp42
 70
     1
102
RTVSPropertyOp43
 70
     1
102
RTVSPropertyOp44
 70
     1
102
RTVSPropertyOp45
 70
     1
102
RTVSPropertyOp46
 70
     1
102
RTVSPropertyOp47
 70
     1
102
RTVSPropertyOp48
 70
     1
102
RTVSPropertyOp49
 70
     1
102
RTVSPropertyOp50
 70
     1
102
RTVSPropertyOp51
 70
     0
102
RTVSPropertyOp52
 70
     0
102
RTVSPropertyOp53
 70
     1
102
RTVSPropertyOp54
 70
     1
102
RTVSPropertyOp55
 70
     1
102
RTVSPropertyOp56
 70
     1
102
RTVSPropertyOp57
 70
     1
102
RTVSPropertyOp58
 70
     1
102
RTVSPropertyOp59
 70
     1
102
RTVSPropertyOp60
 70
     1
102
RTVSPropertyOp61
 70
     1
102
RTVSPropertyOp62
 70
     1
  0
XRECORD
  5
86B5
102
{ACAD_REACTORS
330
86B4
102
}
330
86B4
100
AcDbXrecord
280
     1
102
RTVSPost2010Prop28
280
     0
102
RTVSPost2010PropOp28
 70
     1
102
RTVSPost2010Prop29
280
     1
102
RTVSPost2010PropOp29
 70
     1
102
RTVSPost2010Prop30
280
     1
102
RTVSPost2010PropOp30
 70
     1
102
RTVSPost2010Prop31
280
     0
102
RTVSPost2010PropOp31
 70
     1
102
RTVSPost2010Prop32
280
     0
102
RTVSPost2010PropOp32
 70
     1
102
RTVSPost2010Prop33
280
     0
102
RTVSPost2010PropOp33
 70
     1
102
RTVSPost2010Prop34
280
     0
102
RTVSPost2010PropOp34
 70
     1
102
RTVSPost2010Prop35
280
     0
102
RTVSPost2010PropOp35
 70
     1
102
RTVSPost2010Prop36
280
     0
102
RTVSPost2010PropOp36
 70
     1
102
RTVSPost2010Prop37
 90
       50
102
RTVSPost2010PropOp37
 70
     1
102
RTVSPost2010Prop38
140
0.0
102
RTVSPost2010PropOp38
 70
     1
102
RTVSPost2010Prop39
140
1.0
102
RTVSPost2010PropOp39
 70
     1
102
RTVSPost2010Prop40
 90
        0
102
RTVSPost2010PropOp40
 70
     1
102
RTVSPost2010Prop41ColorIndex
 90
       18
102
RTVSPost2010Prop41ColorRGB
 90
        0
102
RTVSPost2010PropOp41
 70
     1
102
RTVSPost2010Prop42
 90
       50
102
RTVSPost2010PropOp42
 70
     1
102
RTVSPost2010Prop43
 90
        3
102
RTVSPost2010PropOp43
 70
     1
102
RTVSPost2010Prop44ColorIndex
 90
        5
102
RTVSPost2010Prop44ColorRGB
 90
      255
102
RTVSPost2010PropOp44
 70
     1
102
RTVSPost2010Prop45
280
     0
102
RTVSPost2010PropOp45
 70
     1
102
RTVSPost2010Prop46
 90
       50
102
RTVSPost2010PropOp46
 70
     1
102
RTVSPost2010Prop47
 90
       50
102
RTVSPost2010PropOp47
 70
     1
102
RTVSPost2010Prop48
 90
       50
102
RTVSPost2010PropOp48
 70
     1
102
RTVSPost2010Prop49
280
     0
102
RTVSPost2010PropOp49
 70
     1
102
RTVSPost2010Prop50
 90
       50
102
RTVSPost2010PropOp50
 70
     1
102
RTVSPost2010Prop51ColorIndex
 90
      256
102
RTVSPost2010Prop51ColorRGB
 90
-16777216
102
RTVSPost2010PropOp51
 70
     0
102
RTVSPost2010Prop52
140
1.0
102
RTVSPost2010PropOp52
 70
     0
102
RTVSPost2010Prop53
 90
        2
102
RTVSPost2010PropOp53
 70
     1
102
RTVSPost2010Prop54
  1
strokes_ogs.tif
102
RTVSPost2010PropOp54
 70
     1
102
RTVSPost2010Prop55
280
     0
102
RTVSPost2010PropOp55
 70
     1
102
RTVSPost2010Prop56
140
1.0
102
RTVSPost2010PropOp56
 70
     1
102
RTVSPost2010Prop57
140
1.0
102
RTVSPost2010PropOp57
 70
     1
102
RTVSPropertyOp0
 70
     1
102
RTVSPropertyOp1
 70
     1
102
RTVSPropertyOp2
 70
     1
102
RTVSPropertyOp3
 70
     1
102
RTVSPropertyOp4
 70
     1
102
RTVSPropertyOp5
 70
     1
102
RTVSPropertyOp6
 70
     1
102
RTVSPropertyOp7
 70
     1
102
RTVSPropertyOp8
 70
     1
102
RTVSPropertyOp9
 70
     1
102
RTVSPropertyOp10
 70
     1
102
RTVSPropertyOp11
 70
     1
102
RTVSPropertyOp12
 70
     1
102
RTVSPropertyOp13
 70
     1
102
RTVSPropertyOp14
 70
     1
102
RTVSPropertyOp15
 70
     1
102
RTVSPropertyOp16
 70
     1
102
RTVSPropertyOp17
 70
     1
102
RTVSPropertyOp18
 70
     1
102
RTVSPropertyOp19
 70
     1
102
RTVSPropertyOp20
 70
     1
102
RTVSPropertyOp21
 70
     1
102
RTVSPropertyOp22
 70
     1
102
RTVSPropertyOp23
 70
     1
102
RTVSPropertyOp24
 70
     1
102
RTVSPropertyOp25
 70
     1
102
RTVSPropertyOp26
 70
     1
102
RTVSPropertyOp27
 70
     1
102
RTVSPropertyOp28
 70
     1
102
RTVSPropertyOp29
 70
     1
102
RTVSPropertyOp30
 70
     1
102
RTVSPropertyOp31
 70
     1
102
RTVSPropertyOp32
 70
     1
102
RTVSPropertyOp33
 70
     1
102
RTVSPropertyOp34
 70
     1
102
RTVSPropertyOp35
 70
     1
102
RTVSPropertyOp36
 70
     1
102
RTVSPropertyOp37
 70
     1
102
RTVSPropertyOp38
 70
     1
102
RTVSPropertyOp39
 70
     1
102
RTVSPropertyOp40
 70
     1
102
RTVSPropertyOp41
 70
     1
102
RTVSPropertyOp42
 70
     1
102
RTVSPropertyOp43
 70
     1
102
RTVSPropertyOp44
 70
     1
102
RTVSPropertyOp45
 70
     1
102
RTVSPropertyOp46
 70
     1
102
RTVSPropertyOp47
 70
     1
102
RTVSPropertyOp48
 70
     1
102
RTVSPropertyOp49
 70
     1
102
RTVSPropertyOp50
 70
     1
102
RTVSPropertyOp51
 70
     0
102
RTVSPropertyOp52
 70
     0
102
RTVSPropertyOp53
 70
     1
102
RTVSPropertyOp54
 70
     1
102
RTVSPropertyOp55
 70
     1
102
RTVSPropertyOp56
 70
     1
102
RTVSPropertyOp57
 70
     1
102
RTVSPropertyOp58
 70
     1
102
RTVSPropertyOp59
 70
     1
102
RTVSPropertyOp60
 70
     1
102
RTVSPropertyOp61
 70
     1
102
RTVSPropertyOp62
 70
     1
  0
XRECORD
  5
86B7
102
{ACAD_REACTORS
330
86B6
102
}
330
86B6
100
AcDbXrecord
280
     1
102
RTVSPost2010Prop28
280
     0
102
RTVSPost2010PropOp28
 70
     1
102
RTVSPost2010Prop29
280
     1
102
RTVSPost2010PropOp29
 70
     1
102
RTVSPost2010Prop30
280
     1
102
RTVSPost2010PropOp30
 70
     1
102
RTVSPost2010Prop31
280
     0
102
RTVSPost2010PropOp31
 70
     1
102
RTVSPost2010Prop32
280
     0
102
RTVSPost2010PropOp32
 70
     1
102
RTVSPost2010Prop33
280
     0
102
RTVSPost2010PropOp33
 70
     1
102
RTVSPost2010Prop34
280
     0
102
RTVSPost2010PropOp34
 70
     1
102
RTVSPost2010Prop35
280
     0
102
RTVSPost2010PropOp35
 70
     1
102
RTVSPost2010Prop36
280
     0
102
RTVSPost2010PropOp36
 70
     1
102
RTVSPost2010Prop37
 90
       50
102
RTVSPost2010PropOp37
 70
     1
102
RTVSPost2010Prop38
140
0.0
102
RTVSPost2010PropOp38
 70
     1
102
RTVSPost2010Prop39
140
1.0
102
RTVSPost2010PropOp39
 70
     1
102
RTVSPost2010Prop40
 90
        0
102
RTVSPost2010PropOp40
 70
     1
102
RTVSPost2010Prop41ColorIndex
 90
       18
102
RTVSPost2010Prop41ColorRGB
 90
        0
102
RTVSPost2010PropOp41
 70
     1
102
RTVSPost2010Prop42
 90
       50
102
RTVSPost2010PropOp42
 70
     1
102
RTVSPost2010Prop43
 90
        3
102
RTVSPost2010PropOp43
 70
     1
102
RTVSPost2010Prop44ColorIndex
 90
        5
102
RTVSPost2010Prop44ColorRGB
 90
      255
102
RTVSPost2010PropOp44
 70
     1
102
RTVSPost2010Prop45
280
     0
102
RTVSPost2010PropOp45
 70
     1
102
RTVSPost2010Prop46
 90
       50
102
RTVSPost2010PropOp46
 70
     1
102
RTVSPost2010Prop47
 90
       50
102
RTVSPost2010PropOp47
 70
     1
102
RTVSPost2010Prop48
 90
       50
102
RTVSPost2010PropOp48
 70
     1
102
RTVSPost2010Prop49
280
     0
102
RTVSPost2010PropOp49
 70
     1
102
RTVSPost2010Prop50
 90
       50
102
RTVSPost2010PropOp50
 70
     1
102
RTVSPost2010Prop51ColorIndex
 90
      256
102
RTVSPost2010Prop51ColorRGB
 90
-16777216
102
RTVSPost2010PropOp51
 70
     0
102
RTVSPost2010Prop52
140
1.0
102
RTVSPost2010PropOp52
 70
     0
102
RTVSPost2010Prop53
 90
        2
102
RTVSPost2010PropOp53
 70
     1
102
RTVSPost2010Prop54
  1
strokes_ogs.tif
102
RTVSPost2010PropOp54
 70
     1
102
RTVSPost2010Prop55
280
     0
102
RTVSPost2010PropOp55
 70
     1
102
RTVSPost2010Prop56
140
1.0
102
RTVSPost2010PropOp56
 70
     1
102
RTVSPost2010Prop57
140
1.0
102
RTVSPost2010PropOp57
 70
     1
102
RTVSPropertyOp0
 70
     1
102
RTVSPropertyOp1
 70
     1
102
RTVSPropertyOp2
 70
     1
102
RTVSPropertyOp3
 70
     1
102
RTVSPropertyOp4
 70
     1
102
RTVSPropertyOp5
 70
     1
102
RTVSPropertyOp6
 70
     1
102
RTVSPropertyOp7
 70
     1
102
RTVSPropertyOp8
 70
     1
102
RTVSPropertyOp9
 70
     1
102
RTVSPropertyOp10
 70
     1
102
RTVSPropertyOp11
 70
     1
102
RTVSPropertyOp12
 70
     1
102
RTVSPropertyOp13
 70
     1
102
RTVSPropertyOp14
 70
     1
102
RTVSPropertyOp15
 70
     1
102
RTVSPropertyOp16
 70
     1
102
RTVSPropertyOp17
 70
     1
102
RTVSPropertyOp18
 70
     1
102
RTVSPropertyOp19
 70
     1
102
RTVSPropertyOp20
 70
     1
102
RTVSPropertyOp21
 70
     1
102
RTVSPropertyOp22
 70
     1
102
RTVSPropertyOp23
 70
     1
102
RTVSPropertyOp24
 70
     1
102
RTVSPropertyOp25
 70
     1
102
RTVSPropertyOp26
 70
     1
102
RTVSPropertyOp27
 70
     1
102
RTVSPropertyOp28
 70
     1
102
RTVSPropertyOp29
 70
     1
102
RTVSPropertyOp30
 70
     1
102
RTVSPropertyOp31
 70
     1
102
RTVSPropertyOp32
 70
     1
102
RTVSPropertyOp33
 70
     1
102
RTVSPropertyOp34
 70
     1
102
RTVSPropertyOp35
 70
     1
102
RTVSPropertyOp36
 70
     1
102
RTVSPropertyOp37
 70
     1
102
RTVSPropertyOp38
 70
     1
102
RTVSPropertyOp39
 70
     1
102
RTVSPropertyOp40
 70
     1
102
RTVSPropertyOp41
 70
     1
102
RTVSPropertyOp42
 70
     1
102
RTVSPropertyOp43
 70
     1
102
RTVSPropertyOp44
 70
     1
102
RTVSPropertyOp45
 70
     1
102
RTVSPropertyOp46
 70
     1
102
RTVSPropertyOp47
 70
     1
102
RTVSPropertyOp48
 70
     1
102
RTVSPropertyOp49
 70
     1
102
RTVSPropertyOp50
 70
     1
102
RTVSPropertyOp51
 70
     0
102
RTVSPropertyOp52
 70
     0
102
RTVSPropertyOp53
 70
     1
102
RTVSPropertyOp54
 70
     1
102
RTVSPropertyOp55
 70
     1
102
RTVSPropertyOp56
 70
     1
102
RTVSPropertyOp57
 70
     1
102
RTVSPropertyOp58
 70
     1
102
RTVSPropertyOp59
 70
     1
102
RTVSPropertyOp60
 70
     1
102
RTVSPropertyOp61
 70
     1
102
RTVSPropertyOp62
 70
     1
  0
XRECORD
  5
86B9
102
{ACAD_REACTORS
330
86B8
102
}
330
86B8
100
AcDbXrecord
280
     1
102
RTVSPost2010Prop28
280
     0
102
RTVSPost2010PropOp28
 70
     1
102
RTVSPost2010Prop29
280
     1
102
RTVSPost2010PropOp29
 70
     1
102
RTVSPost2010Prop30
280
     1
102
RTVSPost2010PropOp30
 70
     1
102
RTVSPost2010Prop31
280
     0
102
RTVSPost2010PropOp31
 70
     1
102
RTVSPost2010Prop32
280
     0
102
RTVSPost2010PropOp32
 70
     1
102
RTVSPost2010Prop33
280
     0
102
RTVSPost2010PropOp33
 70
     1
102
RTVSPost2010Prop34
280
     0
102
RTVSPost2010PropOp34
 70
     1
102
RTVSPost2010Prop35
280
     0
102
RTVSPost2010PropOp35
 70
     1
102
RTVSPost2010Prop36
280
     0
102
RTVSPost2010PropOp36
 70
     1
102
RTVSPost2010Prop37
 90
       50
102
RTVSPost2010PropOp37
 70
     1
102
RTVSPost2010Prop38
140
0.0
102
RTVSPost2010PropOp38
 70
     1
102
RTVSPost2010Prop39
140
1.0
102
RTVSPost2010PropOp39
 70
     1
102
RTVSPost2010Prop40
 90
        0
102
RTVSPost2010PropOp40
 70
     1
102
RTVSPost2010Prop41ColorIndex
 90
       18
102
RTVSPost2010Prop41ColorRGB
 90
        0
102
RTVSPost2010PropOp41
 70
     1
102
RTVSPost2010Prop42
 90
       50
102
RTVSPost2010PropOp42
 70
     1
102
RTVSPost2010Prop43
 90
        3
102
RTVSPost2010PropOp43
 70
     1
102
RTVSPost2010Prop44ColorIndex
 90
        5
102
RTVSPost2010Prop44ColorRGB
 90
      255
102
RTVSPost2010PropOp44
 70
     1
102
RTVSPost2010Prop45
280
     0
102
RTVSPost2010PropOp45
 70
     1
102
RTVSPost2010Prop46
 90
       50
102
RTVSPost2010PropOp46
 70
     1
102
RTVSPost2010Prop47
 90
       50
102
RTVSPost2010PropOp47
 70
     1
102
RTVSPost2010Prop48
 90
       50
102
RTVSPost2010PropOp48
 70
     1
102
RTVSPost2010Prop49
280
     0
102
RTVSPost2010PropOp49
 70
     1
102
RTVSPost2010Prop50
 90
       50
102
RTVSPost2010PropOp50
 70
     1
102
RTVSPost2010Prop51ColorIndex
 90
      256
102
RTVSPost2010Prop51ColorRGB
 90
-16777216
102
RTVSPost2010PropOp51
 70
     0
102
RTVSPost2010Prop52
140
1.0
102
RTVSPost2010PropOp52
 70
     0
102
RTVSPost2010Prop53
 90
        2
102
RTVSPost2010PropOp53
 70
     1
102
RTVSPost2010Prop54
  1
strokes_ogs.tif
102
RTVSPost2010PropOp54
 70
     1
102
RTVSPost2010Prop55
280
     0
102
RTVSPost2010PropOp55
 70
     1
102
RTVSPost2010Prop56
140
1.0
102
RTVSPost2010PropOp56
 70
     1
102
RTVSPost2010Prop57
140
1.0
102
RTVSPost2010PropOp57
 70
     1
102
RTVSPropertyOp0
 70
     1
102
RTVSPropertyOp1
 70
     1
102
RTVSPropertyOp2
 70
     1
102
RTVSPropertyOp3
 70
     1
102
RTVSPropertyOp4
 70
     1
102
RTVSPropertyOp5
 70
     1
102
RTVSPropertyOp6
 70
     1
102
RTVSPropertyOp7
 70
     1
102
RTVSPropertyOp8
 70
     1
102
RTVSPropertyOp9
 70
     1
102
RTVSPropertyOp10
 70
     1
102
RTVSPropertyOp11
 70
     1
102
RTVSPropertyOp12
 70
     1
102
RTVSPropertyOp13
 70
     1
102
RTVSPropertyOp14
 70
     1
102
RTVSPropertyOp15
 70
     1
102
RTVSPropertyOp16
 70
     1
102
RTVSPropertyOp17
 70
     1
102
RTVSPropertyOp18
 70
     1
102
RTVSPropertyOp19
 70
     1
102
RTVSPropertyOp20
 70
     1
102
RTVSPropertyOp21
 70
     1
102
RTVSPropertyOp22
 70
     1
102
RTVSPropertyOp23
 70
     1
102
RTVSPropertyOp24
 70
     1
102
RTVSPropertyOp25
 70
     1
102
RTVSPropertyOp26
 70
     1
102
RTVSPropertyOp27
 70
     1
102
RTVSPropertyOp28
 70
     1
102
RTVSPropertyOp29
 70
     1
102
RTVSPropertyOp30
 70
     1
102
RTVSPropertyOp31
 70
     1
102
RTVSPropertyOp32
 70
     1
102
RTVSPropertyOp33
 70
     1
102
RTVSPropertyOp34
 70
     1
102
RTVSPropertyOp35
 70
     1
102
RTVSPropertyOp36
 70
     1
102
RTVSPropertyOp37
 70
     1
102
RTVSPropertyOp38
 70
     1
102
RTVSPropertyOp39
 70
     1
102
RTVSPropertyOp40
 70
     1
102
RTVSPropertyOp41
 70
     1
102
RTVSPropertyOp42
 70
     1
102
RTVSPropertyOp43
 70
     1
102
RTVSPropertyOp44
 70
     1
102
RTVSPropertyOp45
 70
     1
102
RTVSPropertyOp46
 70
     1
102
RTVSPropertyOp47
 70
     1
102
RTVSPropertyOp48
 70
     1
102
RTVSPropertyOp49
 70
     1
102
RTVSPropertyOp50
 70
     1
102
RTVSPropertyOp51
 70
     0
102
RTVSPropertyOp52
 70
     0
102
RTVSPropertyOp53
 70
     1
102
RTVSPropertyOp54
 70
     1
102
RTVSPropertyOp55
 70
     1
102
RTVSPropertyOp56
 70
     1
102
RTVSPropertyOp57
 70
     1
102
RTVSPropertyOp58
 70
     1
102
RTVSPropertyOp59
 70
     1
102
RTVSPropertyOp60
 70
     1
102
RTVSPropertyOp61
 70
     1
102
RTVSPropertyOp62
 70
     1
  0
XRECORD
  5
86BB
102
{ACAD_REACTORS
330
86BA
102
}
330
86BA
100
AcDbXrecord
280
     1
102
RTVSPost2010Prop28
280
     0
102
RTVSPost2010PropOp28
 70
     1
102
RTVSPost2010Prop29
280
     1
102
RTVSPost2010PropOp29
 70
     1
102
RTVSPost2010Prop30
280
     1
102
RTVSPost2010PropOp30
 70
     1
102
RTVSPost2010Prop31
280
     0
102
RTVSPost2010PropOp31
 70
     1
102
RTVSPost2010Prop32
280
     0
102
RTVSPost2010PropOp32
 70
     1
102
RTVSPost2010Prop33
280
     0
102
RTVSPost2010PropOp33
 70
     1
102
RTVSPost2010Prop34
280
     0
102
RTVSPost2010PropOp34
 70
     1
102
RTVSPost2010Prop35
280
     0
102
RTVSPost2010PropOp35
 70
     1
102
RTVSPost2010Prop36
280
     0
102
RTVSPost2010PropOp36
 70
     1
102
RTVSPost2010Prop37
 90
       50
102
RTVSPost2010PropOp37
 70
     1
102
RTVSPost2010Prop38
140
0.0
102
RTVSPost2010PropOp38
 70
     1
102
RTVSPost2010Prop39
140
1.0
102
RTVSPost2010PropOp39
 70
     1
102
RTVSPost2010Prop40
 90
        0
102
RTVSPost2010PropOp40
 70
     1
102
RTVSPost2010Prop41ColorIndex
 90
       18
102
RTVSPost2010Prop41ColorRGB
 90
        0
102
RTVSPost2010PropOp41
 70
     1
102
RTVSPost2010Prop42
 90
       50
102
RTVSPost2010PropOp42
 70
     1
102
RTVSPost2010Prop43
 90
        3
102
RTVSPost2010PropOp43
 70
     1
102
RTVSPost2010Prop44ColorIndex
 90
        5
102
RTVSPost2010Prop44ColorRGB
 90
      255
102
RTVSPost2010PropOp44
 70
     1
102
RTVSPost2010Prop45
280
     0
102
RTVSPost2010PropOp45
 70
     1
102
RTVSPost2010Prop46
 90
       50
102
RTVSPost2010PropOp46
 70
     1
102
RTVSPost2010Prop47
 90
       50
102
RTVSPost2010PropOp47
 70
     1
102
RTVSPost2010Prop48
 90
       50
102
RTVSPost2010PropOp48
 70
     1
102
RTVSPost2010Prop49
280
     0
102
RTVSPost2010PropOp49
 70
     1
102
RTVSPost2010Prop50
 90
       50
102
RTVSPost2010PropOp50
 70
     1
102
RTVSPost2010Prop51ColorIndex
 90
      256
102
RTVSPost2010Prop51ColorRGB
 90
-16777216
102
RTVSPost2010PropOp51
 70
     0
102
RTVSPost2010Prop52
140
1.0
102
RTVSPost2010PropOp52
 70
     0
102
RTVSPost2010Prop53
 90
        2
102
RTVSPost2010PropOp53
 70
     1
102
RTVSPost2010Prop54
  1
strokes_ogs.tif
102
RTVSPost2010PropOp54
 70
     1
102
RTVSPost2010Prop55
280
     0
102
RTVSPost2010PropOp55
 70
     1
102
RTVSPost2010Prop56
140
1.0
102
RTVSPost2010PropOp56
 70
     1
102
RTVSPost2010Prop57
140
1.0
102
RTVSPost2010PropOp57
 70
     1
102
RTVSPropertyOp0
 70
     1
102
RTVSPropertyOp1
 70
     1
102
RTVSPropertyOp2
 70
     1
102
RTVSPropertyOp3
 70
     1
102
RTVSPropertyOp4
 70
     1
102
RTVSPropertyOp5
 70
     1
102
RTVSPropertyOp6
 70
     1
102
RTVSPropertyOp7
 70
     1
102
RTVSPropertyOp8
 70
     1
102
RTVSPropertyOp9
 70
     1
102
RTVSPropertyOp10
 70
     1
102
RTVSPropertyOp11
 70
     1
102
RTVSPropertyOp12
 70
     1
102
RTVSPropertyOp13
 70
     1
102
RTVSPropertyOp14
 70
     1
102
RTVSPropertyOp15
 70
     1
102
RTVSPropertyOp16
 70
     1
102
RTVSPropertyOp17
 70
     1
102
RTVSPropertyOp18
 70
     1
102
RTVSPropertyOp19
 70
     1
102
RTVSPropertyOp20
 70
     1
102
RTVSPropertyOp21
 70
     1
102
RTVSPropertyOp22
 70
     1
102
RTVSPropertyOp23
 70
     1
102
RTVSPropertyOp24
 70
     1
102
RTVSPropertyOp25
 70
     1
102
RTVSPropertyOp26
 70
     1
102
RTVSPropertyOp27
 70
     1
102
RTVSPropertyOp28
 70
     1
102
RTVSPropertyOp29
 70
     1
102
RTVSPropertyOp30
 70
     1
102
RTVSPropertyOp31
 70
     1
102
RTVSPropertyOp32
 70
     1
102
RTVSPropertyOp33
 70
     1
102
RTVSPropertyOp34
 70
     1
102
RTVSPropertyOp35
 70
     1
102
RTVSPropertyOp36
 70
     1
102
RTVSPropertyOp37
 70
     1
102
RTVSPropertyOp38
 70
     1
102
RTVSPropertyOp39
 70
     1
102
RTVSPropertyOp40
 70
     1
102
RTVSPropertyOp41
 70
     1
102
RTVSPropertyOp42
 70
     1
102
RTVSPropertyOp43
 70
     1
102
RTVSPropertyOp44
 70
     1
102
RTVSPropertyOp45
 70
     1
102
RTVSPropertyOp46
 70
     1
102
RTVSPropertyOp47
 70
     1
102
RTVSPropertyOp48
 70
     1
102
RTVSPropertyOp49
 70
     1
102
RTVSPropertyOp50
 70
     1
102
RTVSPropertyOp51
 70
     0
102
RTVSPropertyOp52
 70
     0
102
RTVSPropertyOp53
 70
     1
102
RTVSPropertyOp54
 70
     1
102
RTVSPropertyOp55
 70
     1
102
RTVSPropertyOp56
 70
     1
102
RTVSPropertyOp57
 70
     1
102
RTVSPropertyOp58
 70
     1
102
RTVSPropertyOp59
 70
     1
102
RTVSPropertyOp60
 70
     1
102
RTVSPropertyOp61
 70
     1
102
RTVSPropertyOp62
 70
     1
  0
XRECORD
  5
86C3
102
{ACAD_REACTORS
330
86C2
102
}
330
86C2
100
AcDbXrecord
280
     1
102
RTVSPost2010Prop28
280
     0
102
RTVSPost2010PropOp28
 70
     1
102
RTVSPost2010Prop29
280
     1
102
RTVSPost2010PropOp29
 70
     1
102
RTVSPost2010Prop30
280
     1
102
RTVSPost2010PropOp30
 70
     1
102
RTVSPost2010Prop31
280
     0
102
RTVSPost2010PropOp31
 70
     1
102
RTVSPost2010Prop32
280
     0
102
RTVSPost2010PropOp32
 70
     1
102
RTVSPost2010Prop33
280
     0
102
RTVSPost2010PropOp33
 70
     1
102
RTVSPost2010Prop34
280
     0
102
RTVSPost2010PropOp34
 70
     1
102
RTVSPost2010Prop35
280
     0
102
RTVSPost2010PropOp35
 70
     1
102
RTVSPost2010Prop36
280
     0
102
RTVSPost2010PropOp36
 70
     1
102
RTVSPost2010Prop37
 90
       50
102
RTVSPost2010PropOp37
 70
     1
102
RTVSPost2010Prop38
140
0.0
102
RTVSPost2010PropOp38
 70
     1
102
RTVSPost2010Prop39
140
1.0
102
RTVSPost2010PropOp39
 70
     1
102
RTVSPost2010Prop40
 90
        0
102
RTVSPost2010PropOp40
 70
     1
102
RTVSPost2010Prop41ColorIndex
 90
       18
102
RTVSPost2010Prop41ColorRGB
 90
        0
102
RTVSPost2010PropOp41
 70
     1
102
RTVSPost2010Prop42
 90
       50
102
RTVSPost2010PropOp42
 70
     1
102
RTVSPost2010Prop43
 90
        3
102
RTVSPost2010PropOp43
 70
     1
102
RTVSPost2010Prop44ColorIndex
 90
        5
102
RTVSPost2010Prop44ColorRGB
 90
      255
102
RTVSPost2010PropOp44
 70
     1
102
RTVSPost2010Prop45
280
     0
102
RTVSPost2010PropOp45
 70
     1
102
RTVSPost2010Prop46
 90
       50
102
RTVSPost2010PropOp46
 70
     1
102
RTVSPost2010Prop47
 90
       50
102
RTVSPost2010PropOp47
 70
     1
102
RTVSPost2010Prop48
 90
       50
102
RTVSPost2010PropOp48
 70
     1
102
RTVSPost2010Prop49
280
     0
102
RTVSPost2010PropOp49
 70
     1
102
RTVSPost2010Prop50
 90
       50
102
RTVSPost2010PropOp50
 70
     1
102
RTVSPost2010Prop51ColorIndex
 90
      256
102
RTVSPost2010Prop51ColorRGB
 90
-16777216
102
RTVSPost2010PropOp51
 70
     0
102
RTVSPost2010Prop52
140
1.0
102
RTVSPost2010PropOp52
 70
     0
102
RTVSPost2010Prop53
 90
        2
102
RTVSPost2010PropOp53
 70
     1
102
RTVSPost2010Prop54
  1
strokes_ogs.tif
102
RTVSPost2010PropOp54
 70
     1
102
RTVSPost2010Prop55
280
     0
102
RTVSPost2010PropOp55
 70
     1
102
RTVSPost2010Prop56
140
1.0
102
RTVSPost2010PropOp56
 70
     1
102
RTVSPost2010Prop57
140
1.0
102
RTVSPost2010PropOp57
 70
     1
102
RTVSPropertyOp0
 70
     1
102
RTVSPropertyOp1
 70
     1
102
RTVSPropertyOp2
 70
     1
102
RTVSPropertyOp3
 70
     1
102
RTVSPropertyOp4
 70
     1
102
RTVSPropertyOp5
 70
     1
102
RTVSPropertyOp6
 70
     1
102
RTVSPropertyOp7
 70
     1
102
RTVSPropertyOp8
 70
     1
102
RTVSPropertyOp9
 70
     1
102
RTVSPropertyOp10
 70
     1
102
RTVSPropertyOp11
 70
     1
102
RTVSPropertyOp12
 70
     1
102
RTVSPropertyOp13
 70
     1
102
RTVSPropertyOp14
 70
     1
102
RTVSPropertyOp15
 70
     1
102
RTVSPropertyOp16
 70
     1
102
RTVSPropertyOp17
 70
     1
102
RTVSPropertyOp18
 70
     1
102
RTVSPropertyOp19
 70
     1
102
RTVSPropertyOp20
 70
     1
102
RTVSPropertyOp21
 70
     1
102
RTVSPropertyOp22
 70
     1
102
RTVSPropertyOp23
 70
     1
102
RTVSPropertyOp24
 70
     1
102
RTVSPropertyOp25
 70
     1
102
RTVSPropertyOp26
 70
     1
102
RTVSPropertyOp27
 70
     1
102
RTVSPropertyOp28
 70
     1
102
RTVSPropertyOp29
 70
     1
102
RTVSPropertyOp30
 70
     1
102
RTVSPropertyOp31
 70
     1
102
RTVSPropertyOp32
 70
     1
102
RTVSPropertyOp33
 70
     1
102
RTVSPropertyOp34
 70
     1
102
RTVSPropertyOp35
 70
     1
102
RTVSPropertyOp36
 70
     1
102
RTVSPropertyOp37
 70
     1
102
RTVSPropertyOp38
 70
     1
102
RTVSPropertyOp39
 70
     1
102
RTVSPropertyOp40
 70
     1
102
RTVSPropertyOp41
 70
     1
102
RTVSPropertyOp42
 70
     1
102
RTVSPropertyOp43
 70
     1
102
RTVSPropertyOp44
 70
     1
102
RTVSPropertyOp45
 70
     1
102
RTVSPropertyOp46
 70
     1
102
RTVSPropertyOp47
 70
     1
102
RTVSPropertyOp48
 70
     1
102
RTVSPropertyOp49
 70
     1
102
RTVSPropertyOp50
 70
     1
102
RTVSPropertyOp51
 70
     0
102
RTVSPropertyOp52
 70
     0
102
RTVSPropertyOp53
 70
     1
102
RTVSPropertyOp54
 70
     1
102
RTVSPropertyOp55
 70
     1
102
RTVSPropertyOp56
 70
     1
102
RTVSPropertyOp57
 70
     1
102
RTVSPropertyOp58
 70
     1
102
RTVSPropertyOp59
 70
     1
102
RTVSPropertyOp60
 70
     1
102
RTVSPropertyOp61
 70
     1
102
RTVSPropertyOp62
 70
     1
  0
XRECORD
  5
86DF
102
{ACAD_REACTORS
330
86DE
102
}
330
86DE
100
AcDbXrecord
280
     1
102
RTVSPost2010Prop28
280
     0
102
RTVSPost2010PropOp28
 70
     1
102
RTVSPost2010Prop29
280
     1
102
RTVSPost2010PropOp29
 70
     1
102
RTVSPost2010Prop30
280
     1
102
RTVSPost2010PropOp30
 70
     1
102
RTVSPost2010Prop31
280
     0
102
RTVSPost2010PropOp31
 70
     1
102
RTVSPost2010Prop32
280
     0
102
RTVSPost2010PropOp32
 70
     1
102
RTVSPost2010Prop33
280
     0
102
RTVSPost2010PropOp33
 70
     1
102
RTVSPost2010Prop34
280
     0
102
RTVSPost2010PropOp34
 70
     1
102
RTVSPost2010Prop35
280
     0
102
RTVSPost2010PropOp35
 70
     1
102
RTVSPost2010Prop36
280
     0
102
RTVSPost2010PropOp36
 70
     1
102
RTVSPost2010Prop37
 90
       50
102
RTVSPost2010PropOp37
 70
     0
102
RTVSPost2010Prop38
140
0.0
102
RTVSPost2010PropOp38
 70
     0
102
RTVSPost2010Prop39
140
1.0
102
RTVSPost2010PropOp39
 70
     0
102
RTVSPost2010Prop40
 90
        0
102
RTVSPost2010PropOp40
 70
     0
102
RTVSPost2010Prop41ColorIndex
 90
       18
102
RTVSPost2010Prop41ColorRGB
 90
        0
102
RTVSPost2010PropOp41
 70
     0
102
RTVSPost2010Prop42
 90
       50
102
RTVSPost2010PropOp42
 70
     0
102
RTVSPost2010Prop43
 90
        3
102
RTVSPost2010PropOp43
 70
     0
102
RTVSPost2010Prop44ColorIndex
 90
        5
102
RTVSPost2010Prop44ColorRGB
 90
      255
102
RTVSPost2010PropOp44
 70
     0
102
RTVSPost2010Prop45
280
     0
102
RTVSPost2010PropOp45
 70
     1
102
RTVSPost2010Prop46
 90
       50
102
RTVSPost2010PropOp46
 70
     0
102
RTVSPost2010Prop47
 90
       50
102
RTVSPost2010PropOp47
 70
     0
102
RTVSPost2010Prop48
 90
       50
102
RTVSPost2010PropOp48
 70
     0
102
RTVSPost2010Prop49
280
     0
102
RTVSPost2010PropOp49
 70
     1
102
RTVSPost2010Prop50
 90
       50
102
RTVSPost2010PropOp50
 70
     0
102
RTVSPost2010Prop51ColorIndex
 90
      256
102
RTVSPost2010Prop51ColorRGB
 90
-16777216
102
RTVSPost2010PropOp51
 70
     0
102
RTVSPost2010Prop52
140
1.0
102
RTVSPost2010PropOp52
 70
     0
102
RTVSPost2010Prop53
 90
        2
102
RTVSPost2010PropOp53
 70
     0
102
RTVSPost2010Prop54
  1
strokes_ogs.tif
102
RTVSPost2010PropOp54
 70
     0
102
RTVSPost2010Prop55
280
     0
102
RTVSPost2010PropOp55
 70
     1
102
RTVSPost2010Prop56
140
1.0
102
RTVSPost2010PropOp56
 70
     0
102
RTVSPost2010Prop57
140
1.0
102
RTVSPost2010PropOp57
 70
     0
102
RTVSPropertyOp0
 70
     0
102
RTVSPropertyOp1
 70
     0
102
RTVSPropertyOp2
 70
     0
102
RTVSPropertyOp3
 70
     0
102
RTVSPropertyOp4
 70
     0
102
RTVSPropertyOp5
 70
     0
102
RTVSPropertyOp6
 70
     0
102
RTVSPropertyOp7
 70
     0
102
RTVSPropertyOp8
 70
     0
102
RTVSPropertyOp9
 70
     0
102
RTVSPropertyOp10
 70
     0
102
RTVSPropertyOp11
 70
     0
102
RTVSPropertyOp12
 70
     0
102
RTVSPropertyOp13
 70
     0
102
RTVSPropertyOp14
 70
     2
102
RTVSPropertyOp15
 70
     0
102
RTVSPropertyOp16
 70
     0
102
RTVSPropertyOp17
 70
     0
102
RTVSPropertyOp18
 70
     0
102
RTVSPropertyOp19
 70
     0
102
RTVSPropertyOp20
 70
     0
102
RTVSPropertyOp21
 70
     0
102
RTVSPropertyOp22
 70
     0
102
RTVSPropertyOp23
 70
     0
102
RTVSPropertyOp24
 70
     0
102
RTVSPropertyOp25
 70
     0
102
RTVSPropertyOp26
 70
     0
102
RTVSPropertyOp27
 70
     0
102
RTVSPropertyOp28
 70
     1
102
RTVSPropertyOp29
 70
     1
102
RTVSPropertyOp30
 70
     1
102
RTVSPropertyOp31
 70
     1
102
RTVSPropertyOp32
 70
     1
102
RTVSPropertyOp33
 70
     1
102
RTVSPropertyOp34
 70
     1
102
RTVSPropertyOp35
 70
     1
102
RTVSPropertyOp36
 70
     1
102
RTVSPropertyOp37
 70
     0
102
RTVSPropertyOp38
 70
     0
102
RTVSPropertyOp39
 70
     0
102
RTVSPropertyOp40
 70
     0
102
RTVSPropertyOp41
 70
     0
102
RTVSPropertyOp42
 70
     0
102
RTVSPropertyOp43
 70
     0
102
RTVSPropertyOp44
 70
     0
102
RTVSPropertyOp45
 70
     1
102
RTVSPropertyOp46
 70
     0
102
RTVSPropertyOp47
 70
     0
102
RTVSPropertyOp48
 70
     0
102
RTVSPropertyOp49
 70
     1
102
RTVSPropertyOp50
 70
     0
102
RTVSPropertyOp51
 70
     0
102
RTVSPropertyOp52
 70
     0
102
RTVSPropertyOp53
 70
     0
102
RTVSPropertyOp54
 70
     0
102
RTVSPropertyOp55
 70
     1
102
RTVSPropertyOp56
 70
     0
102
RTVSPropertyOp57
 70
     0
102
RTVSPropertyOp58
 70
     0
102
RTVSPropertyOp59
 70
     0
102
RTVSPropertyOp60
 70
     0
102
RTVSPropertyOp61
 70
     0
102
RTVSPropertyOp62
 70
     0
  0
XRECORD
  5
86CF
102
{ACAD_REACTORS
330
86CE
102
}
330
86CE
100
AcDbXrecord
280
     1
102
RTVSPost2010Prop28
280
     0
102
RTVSPost2010PropOp28
 70
     1
102
RTVSPost2010Prop29
280
     1
102
RTVSPost2010PropOp29
 70
     1
102
RTVSPost2010Prop30
280
     1
102
RTVSPost2010PropOp30
 70
     1
102
RTVSPost2010Prop31
280
     0
102
RTVSPost2010PropOp31
 70
     1
102
RTVSPost2010Prop32
280
     0
102
RTVSPost2010PropOp32
 70
     1
102
RTVSPost2010Prop33
280
     0
102
RTVSPost2010PropOp33
 70
     1
102
RTVSPost2010Prop34
280
     0
102
RTVSPost2010PropOp34
 70
     1
102
RTVSPost2010Prop35
280
     0
102
RTVSPost2010PropOp35
 70
     1
102
RTVSPost2010Prop36
280
     0
102
RTVSPost2010PropOp36
 70
     1
102
RTVSPost2010Prop37
 90
       50
102
RTVSPost2010PropOp37
 70
     1
102
RTVSPost2010Prop38
140
0.0
102
RTVSPost2010PropOp38
 70
     1
102
RTVSPost2010Prop39
140
1.0
102
RTVSPost2010PropOp39
 70
     1
102
RTVSPost2010Prop40
 90
        0
102
RTVSPost2010PropOp40
 70
     1
102
RTVSPost2010Prop41ColorIndex
 90
       18
102
RTVSPost2010Prop41ColorRGB
 90
        0
102
RTVSPost2010PropOp41
 70
     1
102
RTVSPost2010Prop42
 90
       50
102
RTVSPost2010PropOp42
 70
     1
102
RTVSPost2010Prop43
 90
        3
102
RTVSPost2010PropOp43
 70
     1
102
RTVSPost2010Prop44ColorIndex
 90
        5
102
RTVSPost2010Prop44ColorRGB
 90
      255
102
RTVSPost2010PropOp44
 70
     1
102
RTVSPost2010Prop45
280
     0
102
RTVSPost2010PropOp45
 70
     1
102
RTVSPost2010Prop46
 90
       50
102
RTVSPost2010PropOp46
 70
     1
102
RTVSPost2010Prop47
 90
       50
102
RTVSPost2010PropOp47
 70
     1
102
RTVSPost2010Prop48
 90
       50
102
RTVSPost2010PropOp48
 70
     1
102
RTVSPost2010Prop49
280
     0
102
RTVSPost2010PropOp49
 70
     1
102
RTVSPost2010Prop50
 90
       50
102
RTVSPost2010PropOp50
 70
     1
102
RTVSPost2010Prop51ColorIndex
 90
      256
102
RTVSPost2010Prop51ColorRGB
 90
-16777216
102
RTVSPost2010PropOp51
 70
     0
102
RTVSPost2010Prop52
140
1.0
102
RTVSPost2010PropOp52
 70
     0
102
RTVSPost2010Prop53
 90
        2
102
RTVSPost2010PropOp53
 70
     1
102
RTVSPost2010Prop54
  1
strokes_ogs.tif
102
RTVSPost2010PropOp54
 70
     1
102
RTVSPost2010Prop55
280
     0
102
RTVSPost2010PropOp55
 70
     1
102
RTVSPost2010Prop56
140
1.0
102
RTVSPost2010PropOp56
 70
     1
102
RTVSPost2010Prop57
140
1.0
102
RTVSPost2010PropOp57
 70
     1
102
RTVSPropertyOp0
 70
     1
102
RTVSPropertyOp1
 70
     1
102
RTVSPropertyOp2
 70
     1
102
RTVSPropertyOp3
 70
     1
102
RTVSPropertyOp4
 70
     1
102
RTVSPropertyOp5
 70
     1
102
RTVSPropertyOp6
 70
     1
102
RTVSPropertyOp7
 70
     1
102
RTVSPropertyOp8
 70
     1
102
RTVSPropertyOp9
 70
     1
102
RTVSPropertyOp10
 70
     1
102
RTVSPropertyOp11
 70
     1
102
RTVSPropertyOp12
 70
     1
102
RTVSPropertyOp13
 70
     1
102
RTVSPropertyOp14
 70
     1
102
RTVSPropertyOp15
 70
     1
102
RTVSPropertyOp16
 70
     1
102
RTVSPropertyOp17
 70
     1
102
RTVSPropertyOp18
 70
     1
102
RTVSPropertyOp19
 70
     1
102
RTVSPropertyOp20
 70
     1
102
RTVSPropertyOp21
 70
     1
102
RTVSPropertyOp22
 70
     1
102
RTVSPropertyOp23
 70
     1
102
RTVSPropertyOp24
 70
     1
102
RTVSPropertyOp25
 70
     1
102
RTVSPropertyOp26
 70
     1
102
RTVSPropertyOp27
 70
     1
102
RTVSPropertyOp28
 70
     1
102
RTVSPropertyOp29
 70
     1
102
RTVSPropertyOp30
 70
     1
102
RTVSPropertyOp31
 70
     1
102
RTVSPropertyOp32
 70
     1
102
RTVSPropertyOp33
 70
     1
102
RTVSPropertyOp34
 70
     1
102
RTVSPropertyOp35
 70
     1
102
RTVSPropertyOp36
 70
     1
102
RTVSPropertyOp37
 70
     1
102
RTVSPropertyOp38
 70
     1
102
RTVSPropertyOp39
 70
     1
102
RTVSPropertyOp40
 70
     1
102
RTVSPropertyOp41
 70
     1
102
RTVSPropertyOp42
 70
     1
102
RTVSPropertyOp43
 70
     1
102
RTVSPropertyOp44
 70
     1
102
RTVSPropertyOp45
 70
     1
102
RTVSPropertyOp46
 70
     1
102
RTVSPropertyOp47
 70
     1
102
RTVSPropertyOp48
 70
     1
102
RTVSPropertyOp49
 70
     1
102
RTVSPropertyOp50
 70
     1
102
RTVSPropertyOp51
 70
     0
102
RTVSPropertyOp52
 70
     0
102
RTVSPropertyOp53
 70
     1
102
RTVSPropertyOp54
 70
     1
102
RTVSPropertyOp55
 70
     1
102
RTVSPropertyOp56
 70
     1
102
RTVSPropertyOp57
 70
     1
102
RTVSPropertyOp58
 70
     1
102
RTVSPropertyOp59
 70
     1
102
RTVSPropertyOp60
 70
     1
102
RTVSPropertyOp61
 70
     1
102
RTVSPropertyOp62
 70
     1
  0
XRECORD
  5
86E1
102
{ACAD_REACTORS
330
86E0
102
}
330
86E0
100
AcDbXrecord
280
     1
102
RTVSPost2010Prop28
280
     0
102
RTVSPost2010PropOp28
 70
     1
102
RTVSPost2010Prop29
280
     1
102
RTVSPost2010PropOp29
 70
     1
102
RTVSPost2010Prop30
280
     1
102
RTVSPost2010PropOp30
 70
     1
102
RTVSPost2010Prop31
280
     0
102
RTVSPost2010PropOp31
 70
     1
102
RTVSPost2010Prop32
280
     0
102
RTVSPost2010PropOp32
 70
     1
102
RTVSPost2010Prop33
280
     0
102
RTVSPost2010PropOp33
 70
     1
102
RTVSPost2010Prop34
280
     0
102
RTVSPost2010PropOp34
 70
     1
102
RTVSPost2010Prop35
280
     0
102
RTVSPost2010PropOp35
 70
     1
102
RTVSPost2010Prop36
280
     0
102
RTVSPost2010PropOp36
 70
     1
102
RTVSPost2010Prop37
 90
       50
102
RTVSPost2010PropOp37
 70
     0
102
RTVSPost2010Prop38
140
0.0
102
RTVSPost2010PropOp38
 70
     0
102
RTVSPost2010Prop39
140
1.0
102
RTVSPost2010PropOp39
 70
     0
102
RTVSPost2010Prop40
 90
        0
102
RTVSPost2010PropOp40
 70
     0
102
RTVSPost2010Prop41ColorIndex
 90
       18
102
RTVSPost2010Prop41ColorRGB
 90
        0
102
RTVSPost2010PropOp41
 70
     0
102
RTVSPost2010Prop42
 90
       50
102
RTVSPost2010PropOp42
 70
     0
102
RTVSPost2010Prop43
 90
        3
102
RTVSPost2010PropOp43
 70
     0
102
RTVSPost2010Prop44ColorIndex
 90
        5
102
RTVSPost2010Prop44ColorRGB
 90
      255
102
RTVSPost2010PropOp44
 70
     0
102
RTVSPost2010Prop45
280
     0
102
RTVSPost2010PropOp45
 70
     1
102
RTVSPost2010Prop46
 90
       50
102
RTVSPost2010PropOp46
 70
     0
102
RTVSPost2010Prop47
 90
       50
102
RTVSPost2010PropOp47
 70
     0
102
RTVSPost2010Prop48
 90
       50
102
RTVSPost2010PropOp48
 70
     0
102
RTVSPost2010Prop49
280
     0
102
RTVSPost2010PropOp49
 70
     1
102
RTVSPost2010Prop50
 90
       50
102
RTVSPost2010PropOp50
 70
     0
102
RTVSPost2010Prop51ColorIndex
 90
      256
102
RTVSPost2010Prop51ColorRGB
 90
-16777216
102
RTVSPost2010PropOp51
 70
     0
102
RTVSPost2010Prop52
140
1.0
102
RTVSPost2010PropOp52
 70
     0
102
RTVSPost2010Prop53
 90
        2
102
RTVSPost2010PropOp53
 70
     0
102
RTVSPost2010Prop54
  1
strokes_ogs.tif
102
RTVSPost2010PropOp54
 70
     0
102
RTVSPost2010Prop55
280
     0
102
RTVSPost2010PropOp55
 70
     1
102
RTVSPost2010Prop56
140
1.0
102
RTVSPost2010PropOp56
 70
     0
102
RTVSPost2010Prop57
140
1.0
102
RTVSPost2010PropOp57
 70
     0
102
RTVSPropertyOp0
 70
     0
102
RTVSPropertyOp1
 70
     0
102
RTVSPropertyOp2
 70
     0
102
RTVSPropertyOp3
 70
     0
102
RTVSPropertyOp4
 70
     0
102
RTVSPropertyOp5
 70
     0
102
RTVSPropertyOp6
 70
     0
102
RTVSPropertyOp7
 70
     0
102
RTVSPropertyOp8
 70
     0
102
RTVSPropertyOp9
 70
     0
102
RTVSPropertyOp10
 70
     0
102
RTVSPropertyOp11
 70
     0
102
RTVSPropertyOp12
 70
     0
102
RTVSPropertyOp13
 70
     0
102
RTVSPropertyOp14
 70
     2
102
RTVSPropertyOp15
 70
     0
102
RTVSPropertyOp16
 70
     0
102
RTVSPropertyOp17
 70
     0
102
RTVSPropertyOp18
 70
     0
102
RTVSPropertyOp19
 70
     0
102
RTVSPropertyOp20
 70
     0
102
RTVSPropertyOp21
 70
     0
102
RTVSPropertyOp22
 70
     0
102
RTVSPropertyOp23
 70
     0
102
RTVSPropertyOp24
 70
     0
102
RTVSPropertyOp25
 70
     0
102
RTVSPropertyOp26
 70
     0
102
RTVSPropertyOp27
 70
     0
102
RTVSPropertyOp28
 70
     1
102
RTVSPropertyOp29
 70
     1
102
RTVSPropertyOp30
 70
     1
102
RTVSPropertyOp31
 70
     1
102
RTVSPropertyOp32
 70
     1
102
RTVSPropertyOp33
 70
     1
102
RTVSPropertyOp34
 70
     1
102
RTVSPropertyOp35
 70
     1
102
RTVSPropertyOp36
 70
     1
102
RTVSPropertyOp37
 70
     0
102
RTVSPropertyOp38
 70
     0
102
RTVSPropertyOp39
 70
     0
102
RTVSPropertyOp40
 70
     0
102
RTVSPropertyOp41
 70
     0
102
RTVSPropertyOp42
 70
     0
102
RTVSPropertyOp43
 70
     0
102
RTVSPropertyOp44
 70
     0
102
RTVSPropertyOp45
 70
     1
102
RTVSPropertyOp46
 70
     0
102
RTVSPropertyOp47
 70
     0
102
RTVSPropertyOp48
 70
     0
102
RTVSPropertyOp49
 70
     1
102
RTVSPropertyOp50
 70
     0
102
RTVSPropertyOp51
 70
     0
102
RTVSPropertyOp52
 70
     0
102
RTVSPropertyOp53
 70
     0
102
RTVSPropertyOp54
 70
     0
102
RTVSPropertyOp55
 70
     1
102
RTVSPropertyOp56
 70
     0
102
RTVSPropertyOp57
 70
     0
102
RTVSPropertyOp58
 70
     0
102
RTVSPropertyOp59
 70
     0
102
RTVSPropertyOp60
 70
     0
102
RTVSPropertyOp61
 70
     0
102
RTVSPropertyOp62
 70
     0
  0
XRECORD
  5
86C7
102
{ACAD_REACTORS
330
86C6
102
}
330
86C6
100
AcDbXrecord
280
     1
102
RTVSPost2010Prop28
280
     0
102
RTVSPost2010PropOp28
 70
     1
102
RTVSPost2010Prop29
280
     1
102
RTVSPost2010PropOp29
 70
     1
102
RTVSPost2010Prop30
280
     1
102
RTVSPost2010PropOp30
 70
     1
102
RTVSPost2010Prop31
280
     0
102
RTVSPost2010PropOp31
 70
     1
102
RTVSPost2010Prop32
280
     0
102
RTVSPost2010PropOp32
 70
     1
102
RTVSPost2010Prop33
280
     0
102
RTVSPost2010PropOp33
 70
     1
102
RTVSPost2010Prop34
280
     0
102
RTVSPost2010PropOp34
 70
     1
102
RTVSPost2010Prop35
280
     0
102
RTVSPost2010PropOp35
 70
     1
102
RTVSPost2010Prop36
280
     0
102
RTVSPost2010PropOp36
 70
     1
102
RTVSPost2010Prop37
 90
       50
102
RTVSPost2010PropOp37
 70
     1
102
RTVSPost2010Prop38
140
0.0
102
RTVSPost2010PropOp38
 70
     1
102
RTVSPost2010Prop39
140
1.0
102
RTVSPost2010PropOp39
 70
     1
102
RTVSPost2010Prop40
 90
        0
102
RTVSPost2010PropOp40
 70
     1
102
RTVSPost2010Prop41ColorIndex
 90
       18
102
RTVSPost2010Prop41ColorRGB
 90
        0
102
RTVSPost2010PropOp41
 70
     1
102
RTVSPost2010Prop42
 90
       50
102
RTVSPost2010PropOp42
 70
     1
102
RTVSPost2010Prop43
 90
        3
102
RTVSPost2010PropOp43
 70
     1
102
RTVSPost2010Prop44ColorIndex
 90
        5
102
RTVSPost2010Prop44ColorRGB
 90
      255
102
RTVSPost2010PropOp44
 70
     1
102
RTVSPost2010Prop45
280
     0
102
RTVSPost2010PropOp45
 70
     1
102
RTVSPost2010Prop46
 90
       50
102
RTVSPost2010PropOp46
 70
     1
102
RTVSPost2010Prop47
 90
       50
102
RTVSPost2010PropOp47
 70
     1
102
RTVSPost2010Prop48
 90
       50
102
RTVSPost2010PropOp48
 70
     1
102
RTVSPost2010Prop49
280
     0
102
RTVSPost2010PropOp49
 70
     1
102
RTVSPost2010Prop50
 90
       50
102
RTVSPost2010PropOp50
 70
     1
102
RTVSPost2010Prop51ColorIndex
 90
      256
102
RTVSPost2010Prop51ColorRGB
 90
-16777216
102
RTVSPost2010PropOp51
 70
     0
102
RTVSPost2010Prop52
140
1.0
102
RTVSPost2010PropOp52
 70
     0
102
RTVSPost2010Prop53
 90
        2
102
RTVSPost2010PropOp53
 70
     1
102
RTVSPost2010Prop54
  1
strokes_ogs.tif
102
RTVSPost2010PropOp54
 70
     1
102
RTVSPost2010Prop55
280
     0
102
RTVSPost2010PropOp55
 70
     1
102
RTVSPost2010Prop56
140
1.0
102
RTVSPost2010PropOp56
 70
     1
102
RTVSPost2010Prop57
140
1.0
102
RTVSPost2010PropOp57
 70
     1
102
RTVSPropertyOp0
 70
     1
102
RTVSPropertyOp1
 70
     1
102
RTVSPropertyOp2
 70
     1
102
RTVSPropertyOp3
 70
     1
102
RTVSPropertyOp4
 70
     1
102
RTVSPropertyOp5
 70
     1
102
RTVSPropertyOp6
 70
     1
102
RTVSPropertyOp7
 70
     1
102
RTVSPropertyOp8
 70
     1
102
RTVSPropertyOp9
 70
     1
102
RTVSPropertyOp10
 70
     1
102
RTVSPropertyOp11
 70
     1
102
RTVSPropertyOp12
 70
     1
102
RTVSPropertyOp13
 70
     1
102
RTVSPropertyOp14
 70
     1
102
RTVSPropertyOp15
 70
     1
102
RTVSPropertyOp16
 70
     1
102
RTVSPropertyOp17
 70
     1
102
RTVSPropertyOp18
 70
     1
102
RTVSPropertyOp19
 70
     1
102
RTVSPropertyOp20
 70
     1
102
RTVSPropertyOp21
 70
     1
102
RTVSPropertyOp22
 70
     1
102
RTVSPropertyOp23
 70
     1
102
RTVSPropertyOp24
 70
     1
102
RTVSPropertyOp25
 70
     1
102
RTVSPropertyOp26
 70
     1
102
RTVSPropertyOp27
 70
     1
102
RTVSPropertyOp28
 70
     1
102
RTVSPropertyOp29
 70
     1
102
RTVSPropertyOp30
 70
     1
102
RTVSPropertyOp31
 70
     1
102
RTVSPropertyOp32
 70
     1
102
RTVSPropertyOp33
 70
     1
102
RTVSPropertyOp34
 70
     1
102
RTVSPropertyOp35
 70
     1
102
RTVSPropertyOp36
 70
     1
102
RTVSPropertyOp37
 70
     1
102
RTVSPropertyOp38
 70
     1
102
RTVSPropertyOp39
 70
     1
102
RTVSPropertyOp40
 70
     1
102
RTVSPropertyOp41
 70
     1
102
RTVSPropertyOp42
 70
     1
102
RTVSPropertyOp43
 70
     1
102
RTVSPropertyOp44
 70
     1
102
RTVSPropertyOp45
 70
     1
102
RTVSPropertyOp46
 70
     1
102
RTVSPropertyOp47
 70
     1
102
RTVSPropertyOp48
 70
     1
102
RTVSPropertyOp49
 70
     1
102
RTVSPropertyOp50
 70
     1
102
RTVSPropertyOp51
 70
     0
102
RTVSPropertyOp52
 70
     0
102
RTVSPropertyOp53
 70
     1
102
RTVSPropertyOp54
 70
     1
102
RTVSPropertyOp55
 70
     1
102
RTVSPropertyOp56
 70
     1
102
RTVSPropertyOp57
 70
     1
102
RTVSPropertyOp58
 70
     1
102
RTVSPropertyOp59
 70
     1
102
RTVSPropertyOp60
 70
     1
102
RTVSPropertyOp61
 70
     1
102
RTVSPropertyOp62
 70
     1
  0
XRECORD
  5
86DD
102
{ACAD_REACTORS
330
86DC
102
}
330
86DC
100
AcDbXrecord
280
     1
102
RTVSPost2010Prop28
280
     0
102
RTVSPost2010PropOp28
 70
     1
102
RTVSPost2010Prop29
280
     1
102
RTVSPost2010PropOp29
 70
     1
102
RTVSPost2010Prop30
280
     1
102
RTVSPost2010PropOp30
 70
     1
102
RTVSPost2010Prop31
280
     0
102
RTVSPost2010PropOp31
 70
     1
102
RTVSPost2010Prop32
280
     0
102
RTVSPost2010PropOp32
 70
     1
102
RTVSPost2010Prop33
280
     0
102
RTVSPost2010PropOp33
 70
     1
102
RTVSPost2010Prop34
280
     0
102
RTVSPost2010PropOp34
 70
     1
102
RTVSPost2010Prop35
280
     0
102
RTVSPost2010PropOp35
 70
     1
102
RTVSPost2010Prop36
280
     0
102
RTVSPost2010PropOp36
 70
     1
102
RTVSPost2010Prop37
 90
       50
102
RTVSPost2010PropOp37
 70
     1
102
RTVSPost2010Prop38
140
0.0
102
RTVSPost2010PropOp38
 70
     1
102
RTVSPost2010Prop39
140
1.0
102
RTVSPost2010PropOp39
 70
     1
102
RTVSPost2010Prop40
 90
        0
102
RTVSPost2010PropOp40
 70
     1
102
RTVSPost2010Prop41ColorIndex
 90
       18
102
RTVSPost2010Prop41ColorRGB
 90
        0
102
RTVSPost2010PropOp41
 70
     1
102
RTVSPost2010Prop42
 90
       50
102
RTVSPost2010PropOp42
 70
     1
102
RTVSPost2010Prop43
 90
        3
102
RTVSPost2010PropOp43
 70
     1
102
RTVSPost2010Prop44ColorIndex
 90
        5
102
RTVSPost2010Prop44ColorRGB
 90
      255
102
RTVSPost2010PropOp44
 70
     1
102
RTVSPost2010Prop45
280
     0
102
RTVSPost2010PropOp45
 70
     1
102
RTVSPost2010Prop46
 90
       50
102
RTVSPost2010PropOp46
 70
     1
102
RTVSPost2010Prop47
 90
       50
102
RTVSPost2010PropOp47
 70
     1
102
RTVSPost2010Prop48
 90
       50
102
RTVSPost2010PropOp48
 70
     1
102
RTVSPost2010Prop49
280
     0
102
RTVSPost2010PropOp49
 70
     1
102
RTVSPost2010Prop50
 90
       50
102
RTVSPost2010PropOp50
 70
     1
102
RTVSPost2010Prop51ColorIndex
 90
      256
102
RTVSPost2010Prop51ColorRGB
 90
-16777216
102
RTVSPost2010PropOp51
 70
     0
102
RTVSPost2010Prop52
140
1.0
102
RTVSPost2010PropOp52
 70
     0
102
RTVSPost2010Prop53
 90
        2
102
RTVSPost2010PropOp53
 70
     1
102
RTVSPost2010Prop54
  1
strokes_ogs.tif
102
RTVSPost2010PropOp54
 70
     1
102
RTVSPost2010Prop55
280
     0
102
RTVSPost2010PropOp55
 70
     1
102
RTVSPost2010Prop56
140
1.0
102
RTVSPost2010PropOp56
 70
     1
102
RTVSPost2010Prop57
140
1.0
102
RTVSPost2010PropOp57
 70
     1
102
RTVSPropertyOp0
 70
     1
102
RTVSPropertyOp1
 70
     1
102
RTVSPropertyOp2
 70
     1
102
RTVSPropertyOp3
 70
     1
102
RTVSPropertyOp4
 70
     1
102
RTVSPropertyOp5
 70
     1
102
RTVSPropertyOp6
 70
     1
102
RTVSPropertyOp7
 70
     1
102
RTVSPropertyOp8
 70
     1
102
RTVSPropertyOp9
 70
     1
102
RTVSPropertyOp10
 70
     1
102
RTVSPropertyOp11
 70
     1
102
RTVSPropertyOp12
 70
     1
102
RTVSPropertyOp13
 70
     1
102
RTVSPropertyOp14
 70
     1
102
RTVSPropertyOp15
 70
     1
102
RTVSPropertyOp16
 70
     1
102
RTVSPropertyOp17
 70
     1
102
RTVSPropertyOp18
 70
     1
102
RTVSPropertyOp19
 70
     1
102
RTVSPropertyOp20
 70
     1
102
RTVSPropertyOp21
 70
     1
102
RTVSPropertyOp22
 70
     1
102
RTVSPropertyOp23
 70
     1
102
RTVSPropertyOp24
 70
     1
102
RTVSPropertyOp25
 70
     1
102
RTVSPropertyOp26
 70
     1
102
RTVSPropertyOp27
 70
     1
102
RTVSPropertyOp28
 70
     1
102
RTVSPropertyOp29
 70
     1
102
RTVSPropertyOp30
 70
     1
102
RTVSPropertyOp31
 70
     1
102
RTVSPropertyOp32
 70
     1
102
RTVSPropertyOp33
 70
     1
102
RTVSPropertyOp34
 70
     1
102
RTVSPropertyOp35
 70
     1
102
RTVSPropertyOp36
 70
     1
102
RTVSPropertyOp37
 70
     1
102
RTVSPropertyOp38
 70
     1
102
RTVSPropertyOp39
 70
     1
102
RTVSPropertyOp40
 70
     1
102
RTVSPropertyOp41
 70
     1
102
RTVSPropertyOp42
 70
     1
102
RTVSPropertyOp43
 70
     1
102
RTVSPropertyOp44
 70
     1
102
RTVSPropertyOp45
 70
     1
102
RTVSPropertyOp46
 70
     1
102
RTVSPropertyOp47
 70
     1
102
RTVSPropertyOp48
 70
     1
102
RTVSPropertyOp49
 70
     1
102
RTVSPropertyOp50
 70
     1
102
RTVSPropertyOp51
 70
     0
102
RTVSPropertyOp52
 70
     0
102
RTVSPropertyOp53
 70
     1
102
RTVSPropertyOp54
 70
     1
102
RTVSPropertyOp55
 70
     1
102
RTVSPropertyOp56
 70
     1
102
RTVSPropertyOp57
 70
     1
102
RTVSPropertyOp58
 70
     1
102
RTVSPropertyOp59
 70
     1
102
RTVSPropertyOp60
 70
     1
102
RTVSPropertyOp61
 70
     1
102
RTVSPropertyOp62
 70
     1
  0
XRECORD
  5
86DB
102
{ACAD_REACTORS
330
86DA
102
}
330
86DA
100
AcDbXrecord
280
     1
102
RTVSPost2010Prop28
280
     0
102
RTVSPost2010PropOp28
 70
     1
102
RTVSPost2010Prop29
280
     1
102
RTVSPost2010PropOp29
 70
     1
102
RTVSPost2010Prop30
280
     1
102
RTVSPost2010PropOp30
 70
     1
102
RTVSPost2010Prop31
280
     0
102
RTVSPost2010PropOp31
 70
     1
102
RTVSPost2010Prop32
280
     0
102
RTVSPost2010PropOp32
 70
     1
102
RTVSPost2010Prop33
280
     0
102
RTVSPost2010PropOp33
 70
     1
102
RTVSPost2010Prop34
280
     0
102
RTVSPost2010PropOp34
 70
     1
102
RTVSPost2010Prop35
280
     0
102
RTVSPost2010PropOp35
 70
     1
102
RTVSPost2010Prop36
280
     0
102
RTVSPost2010PropOp36
 70
     1
102
RTVSPost2010Prop37
 90
       50
102
RTVSPost2010PropOp37
 70
     1
102
RTVSPost2010Prop38
140
0.0
102
RTVSPost2010PropOp38
 70
     1
102
RTVSPost2010Prop39
140
1.0
102
RTVSPost2010PropOp39
 70
     1
102
RTVSPost2010Prop40
 90
        0
102
RTVSPost2010PropOp40
 70
     1
102
RTVSPost2010Prop41ColorIndex
 90
       18
102
RTVSPost2010Prop41ColorRGB
 90
        0
102
RTVSPost2010PropOp41
 70
     1
102
RTVSPost2010Prop42
 90
       50
102
RTVSPost2010PropOp42
 70
     1
102
RTVSPost2010Prop43
 90
        3
102
RTVSPost2010PropOp43
 70
     1
102
RTVSPost2010Prop44ColorIndex
 90
        5
102
RTVSPost2010Prop44ColorRGB
 90
      255
102
RTVSPost2010PropOp44
 70
     1
102
RTVSPost2010Prop45
280
     0
102
RTVSPost2010PropOp45
 70
     1
102
RTVSPost2010Prop46
 90
       50
102
RTVSPost2010PropOp46
 70
     1
102
RTVSPost2010Prop47
 90
       50
102
RTVSPost2010PropOp47
 70
     1
102
RTVSPost2010Prop48
 90
       50
102
RTVSPost2010PropOp48
 70
     1
102
RTVSPost2010Prop49
280
     0
102
RTVSPost2010PropOp49
 70
     1
102
RTVSPost2010Prop50
 90
       50
102
RTVSPost2010PropOp50
 70
     1
102
RTVSPost2010Prop51ColorIndex
 90
      256
102
RTVSPost2010Prop51ColorRGB
 90
-16777216
102
RTVSPost2010PropOp51
 70
     0
102
RTVSPost2010Prop52
140
1.0
102
RTVSPost2010PropOp52
 70
     0
102
RTVSPost2010Prop53
 90
        2
102
RTVSPost2010PropOp53
 70
     1
102
RTVSPost2010Prop54
  1
strokes_ogs.tif
102
RTVSPost2010PropOp54
 70
     1
102
RTVSPost2010Prop55
280
     0
102
RTVSPost2010PropOp55
 70
     1
102
RTVSPost2010Prop56
140
1.0
102
RTVSPost2010PropOp56
 70
     1
102
RTVSPost2010Prop57
140
1.0
102
RTVSPost2010PropOp57
 70
     1
102
RTVSPropertyOp0
 70
     1
102
RTVSPropertyOp1
 70
     1
102
RTVSPropertyOp2
 70
     1
102
RTVSPropertyOp3
 70
     1
102
RTVSPropertyOp4
 70
     1
102
RTVSPropertyOp5
 70
     1
102
RTVSPropertyOp6
 70
     1
102
RTVSPropertyOp7
 70
     1
102
RTVSPropertyOp8
 70
     1
102
RTVSPropertyOp9
 70
     1
102
RTVSPropertyOp10
 70
     1
102
RTVSPropertyOp11
 70
     1
102
RTVSPropertyOp12
 70
     1
102
RTVSPropertyOp13
 70
     1
102
RTVSPropertyOp14
 70
     1
102
RTVSPropertyOp15
 70
     1
102
RTVSPropertyOp16
 70
     1
102
RTVSPropertyOp17
 70
     1
102
RTVSPropertyOp18
 70
     1
102
RTVSPropertyOp19
 70
     1
102
RTVSPropertyOp20
 70
     1
102
RTVSPropertyOp21
 70
     1
102
RTVSPropertyOp22
 70
     1
102
RTVSPropertyOp23
 70
     1
102
RTVSPropertyOp24
 70
     1
102
RTVSPropertyOp25
 70
     1
102
RTVSPropertyOp26
 70
     1
102
RTVSPropertyOp27
 70
     1
102
RTVSPropertyOp28
 70
     1
102
RTVSPropertyOp29
 70
     1
102
RTVSPropertyOp30
 70
     1
102
RTVSPropertyOp31
 70
     1
102
RTVSPropertyOp32
 70
     1
102
RTVSPropertyOp33
 70
     1
102
RTVSPropertyOp34
 70
     1
102
RTVSPropertyOp35
 70
     1
102
RTVSPropertyOp36
 70
     1
102
RTVSPropertyOp37
 70
     1
102
RTVSPropertyOp38
 70
     1
102
RTVSPropertyOp39
 70
     1
102
RTVSPropertyOp40
 70
     1
102
RTVSPropertyOp41
 70
     1
102
RTVSPropertyOp42
 70
     1
102
RTVSPropertyOp43
 70
     1
102
RTVSPropertyOp44
 70
     1
102
RTVSPropertyOp45
 70
     1
102
RTVSPropertyOp46
 70
     1
102
RTVSPropertyOp47
 70
     1
102
RTVSPropertyOp48
 70
     1
102
RTVSPropertyOp49
 70
     1
102
RTVSPropertyOp50
 70
     1
102
RTVSPropertyOp51
 70
     0
102
RTVSPropertyOp52
 70
     0
102
RTVSPropertyOp53
 70
     1
102
RTVSPropertyOp54
 70
     1
102
RTVSPropertyOp55
 70
     1
102
RTVSPropertyOp56
 70
     1
102
RTVSPropertyOp57
 70
     1
102
RTVSPropertyOp58
 70
     1
102
RTVSPropertyOp59
 70
     1
102
RTVSPropertyOp60
 70
     1
102
RTVSPropertyOp61
 70
     1
102
RTVSPropertyOp62
 70
     1
  0
XRECORD
  5
86D5
102
{ACAD_REACTORS
330
86D4
102
}
330
86D4
100
AcDbXrecord
280
     1
102
RTVSPost2010Prop28
280
     0
102
RTVSPost2010PropOp28
 70
     1
102
RTVSPost2010Prop29
280
     1
102
RTVSPost2010PropOp29
 70
     1
102
RTVSPost2010Prop30
280
     1
102
RTVSPost2010PropOp30
 70
     1
102
RTVSPost2010Prop31
280
     0
102
RTVSPost2010PropOp31
 70
     1
102
RTVSPost2010Prop32
280
     0
102
RTVSPost2010PropOp32
 70
     1
102
RTVSPost2010Prop33
280
     0
102
RTVSPost2010PropOp33
 70
     1
102
RTVSPost2010Prop34
280
     0
102
RTVSPost2010PropOp34
 70
     1
102
RTVSPost2010Prop35
280
     0
102
RTVSPost2010PropOp35
 70
     1
102
RTVSPost2010Prop36
280
     0
102
RTVSPost2010PropOp36
 70
     1
102
RTVSPost2010Prop37
 90
       50
102
RTVSPost2010PropOp37
 70
     1
102
RTVSPost2010Prop38
140
0.0
102
RTVSPost2010PropOp38
 70
     1
102
RTVSPost2010Prop39
140
1.0
102
RTVSPost2010PropOp39
 70
     1
102
RTVSPost2010Prop40
 90
        0
102
RTVSPost2010PropOp40
 70
     1
102
RTVSPost2010Prop41ColorIndex
 90
       18
102
RTVSPost2010Prop41ColorRGB
 90
        0
102
RTVSPost2010PropOp41
 70
     1
102
RTVSPost2010Prop42
 90
       50
102
RTVSPost2010PropOp42
 70
     1
102
RTVSPost2010Prop43
 90
        3
102
RTVSPost2010PropOp43
 70
     1
102
RTVSPost2010Prop44ColorIndex
 90
        5
102
RTVSPost2010Prop44ColorRGB
 90
      255
102
RTVSPost2010PropOp44
 70
     1
102
RTVSPost2010Prop45
280
     0
102
RTVSPost2010PropOp45
 70
     1
102
RTVSPost2010Prop46
 90
       50
102
RTVSPost2010PropOp46
 70
     1
102
RTVSPost2010Prop47
 90
       50
102
RTVSPost2010PropOp47
 70
     1
102
RTVSPost2010Prop48
 90
       50
102
RTVSPost2010PropOp48
 70
     1
102
RTVSPost2010Prop49
280
     0
102
RTVSPost2010PropOp49
 70
     1
102
RTVSPost2010Prop50
 90
       50
102
RTVSPost2010PropOp50
 70
     1
102
RTVSPost2010Prop51ColorIndex
 90
      256
102
RTVSPost2010Prop51ColorRGB
 90
-16777216
102
RTVSPost2010PropOp51
 70
     0
102
RTVSPost2010Prop52
140
1.0
102
RTVSPost2010PropOp52
 70
     0
102
RTVSPost2010Prop53
 90
        2
102
RTVSPost2010PropOp53
 70
     1
102
RTVSPost2010Prop54
  1
strokes_ogs.tif
102
RTVSPost2010PropOp54
 70
     1
102
RTVSPost2010Prop55
280
     0
102
RTVSPost2010PropOp55
 70
     1
102
RTVSPost2010Prop56
140
1.0
102
RTVSPost2010PropOp56
 70
     1
102
RTVSPost2010Prop57
140
1.0
102
RTVSPost2010PropOp57
 70
     1
102
RTVSPropertyOp0
 70
     1
102
RTVSPropertyOp1
 70
     1
102
RTVSPropertyOp2
 70
     1
102
RTVSPropertyOp3
 70
     1
102
RTVSPropertyOp4
 70
     1
102
RTVSPropertyOp5
 70
     1
102
RTVSPropertyOp6
 70
     1
102
RTVSPropertyOp7
 70
     1
102
RTVSPropertyOp8
 70
     1
102
RTVSPropertyOp9
 70
     1
102
RTVSPropertyOp10
 70
     1
102
RTVSPropertyOp11
 70
     1
102
RTVSPropertyOp12
 70
     1
102
RTVSPropertyOp13
 70
     1
102
RTVSPropertyOp14
 70
     1
102
RTVSPropertyOp15
 70
     1
102
RTVSPropertyOp16
 70
     1
102
RTVSPropertyOp17
 70
     1
102
RTVSPropertyOp18
 70
     1
102
RTVSPropertyOp19
 70
     1
102
RTVSPropertyOp20
 70
     1
102
RTVSPropertyOp21
 70
     1
102
RTVSPropertyOp22
 70
     1
102
RTVSPropertyOp23
 70
     1
102
RTVSPropertyOp24
 70
     1
102
RTVSPropertyOp25
 70
     1
102
RTVSPropertyOp26
 70
     1
102
RTVSPropertyOp27
 70
     1
102
RTVSPropertyOp28
 70
     1
102
RTVSPropertyOp29
 70
     1
102
RTVSPropertyOp30
 70
     1
102
RTVSPropertyOp31
 70
     1
102
RTVSPropertyOp32
 70
     1
102
RTVSPropertyOp33
 70
     1
102
RTVSPropertyOp34
 70
     1
102
RTVSPropertyOp35
 70
     1
102
RTVSPropertyOp36
 70
     1
102
RTVSPropertyOp37
 70
     1
102
RTVSPropertyOp38
 70
     1
102
RTVSPropertyOp39
 70
     1
102
RTVSPropertyOp40
 70
     1
102
RTVSPropertyOp41
 70
     1
102
RTVSPropertyOp42
 70
     1
102
RTVSPropertyOp43
 70
     1
102
RTVSPropertyOp44
 70
     1
102
RTVSPropertyOp45
 70
     1
102
RTVSPropertyOp46
 70
     1
102
RTVSPropertyOp47
 70
     1
102
RTVSPropertyOp48
 70
     1
102
RTVSPropertyOp49
 70
     1
102
RTVSPropertyOp50
 70
     1
102
RTVSPropertyOp51
 70
     0
102
RTVSPropertyOp52
 70
     0
102
RTVSPropertyOp53
 70
     1
102
RTVSPropertyOp54
 70
     1
102
RTVSPropertyOp55
 70
     1
102
RTVSPropertyOp56
 70
     1
102
RTVSPropertyOp57
 70
     1
102
RTVSPropertyOp58
 70
     1
102
RTVSPropertyOp59
 70
     1
102
RTVSPropertyOp60
 70
     1
102
RTVSPropertyOp61
 70
     1
102
RTVSPropertyOp62
 70
     1
  0
XRECORD
  5
86D7
102
{ACAD_REACTORS
330
86D6
102
}
330
86D6
100
AcDbXrecord
280
     1
102
RTVSPost2010Prop28
280
     0
102
RTVSPost2010PropOp28
 70
     1
102
RTVSPost2010Prop29
280
     1
102
RTVSPost2010PropOp29
 70
     1
102
RTVSPost2010Prop30
280
     1
102
RTVSPost2010PropOp30
 70
     1
102
RTVSPost2010Prop31
280
     0
102
RTVSPost2010PropOp31
 70
     1
102
RTVSPost2010Prop32
280
     0
102
RTVSPost2010PropOp32
 70
     1
102
RTVSPost2010Prop33
280
     0
102
RTVSPost2010PropOp33
 70
     1
102
RTVSPost2010Prop34
280
     0
102
RTVSPost2010PropOp34
 70
     1
102
RTVSPost2010Prop35
280
     0
102
RTVSPost2010PropOp35
 70
     1
102
RTVSPost2010Prop36
280
     0
102
RTVSPost2010PropOp36
 70
     1
102
RTVSPost2010Prop37
 90
       50
102
RTVSPost2010PropOp37
 70
     1
102
RTVSPost2010Prop38
140
0.0
102
RTVSPost2010PropOp38
 70
     1
102
RTVSPost2010Prop39
140
1.0
102
RTVSPost2010PropOp39
 70
     1
102
RTVSPost2010Prop40
 90
        0
102
RTVSPost2010PropOp40
 70
     1
102
RTVSPost2010Prop41ColorIndex
 90
       18
102
RTVSPost2010Prop41ColorRGB
 90
        0
102
RTVSPost2010PropOp41
 70
     1
102
RTVSPost2010Prop42
 90
       50
102
RTVSPost2010PropOp42
 70
     1
102
RTVSPost2010Prop43
 90
        3
102
RTVSPost2010PropOp43
 70
     1
102
RTVSPost2010Prop44ColorIndex
 90
        5
102
RTVSPost2010Prop44ColorRGB
 90
      255
102
RTVSPost2010PropOp44
 70
     1
102
RTVSPost2010Prop45
280
     0
102
RTVSPost2010PropOp45
 70
     1
102
RTVSPost2010Prop46
 90
       50
102
RTVSPost2010PropOp46
 70
     1
102
RTVSPost2010Prop47
 90
       50
102
RTVSPost2010PropOp47
 70
     1
102
RTVSPost2010Prop48
 90
       50
102
RTVSPost2010PropOp48
 70
     1
102
RTVSPost2010Prop49
280
     0
102
RTVSPost2010PropOp49
 70
     1
102
RTVSPost2010Prop50
 90
       50
102
RTVSPost2010PropOp50
 70
     1
102
RTVSPost2010Prop51ColorIndex
 90
      256
102
RTVSPost2010Prop51ColorRGB
 90
-16777216
102
RTVSPost2010PropOp51
 70
     0
102
RTVSPost2010Prop52
140
1.0
102
RTVSPost2010PropOp52
 70
     0
102
RTVSPost2010Prop53
 90
        2
102
RTVSPost2010PropOp53
 70
     1
102
RTVSPost2010Prop54
  1
strokes_ogs.tif
102
RTVSPost2010PropOp54
 70
     1
102
RTVSPost2010Prop55
280
     0
102
RTVSPost2010PropOp55
 70
     1
102
RTVSPost2010Prop56
140
1.0
102
RTVSPost2010PropOp56
 70
     1
102
RTVSPost2010Prop57
140
1.0
102
RTVSPost2010PropOp57
 70
     1
102
RTVSPropertyOp0
 70
     1
102
RTVSPropertyOp1
 70
     1
102
RTVSPropertyOp2
 70
     1
102
RTVSPropertyOp3
 70
     1
102
RTVSPropertyOp4
 70
     1
102
RTVSPropertyOp5
 70
     1
102
RTVSPropertyOp6
 70
     1
102
RTVSPropertyOp7
 70
     1
102
RTVSPropertyOp8
 70
     1
102
RTVSPropertyOp9
 70
     1
102
RTVSPropertyOp10
 70
     1
102
RTVSPropertyOp11
 70
     1
102
RTVSPropertyOp12
 70
     1
102
RTVSPropertyOp13
 70
     1
102
RTVSPropertyOp14
 70
     1
102
RTVSPropertyOp15
 70
     1
102
RTVSPropertyOp16
 70
     1
102
RTVSPropertyOp17
 70
     1
102
RTVSPropertyOp18
 70
     1
102
RTVSPropertyOp19
 70
     1
102
RTVSPropertyOp20
 70
     1
102
RTVSPropertyOp21
 70
     1
102
RTVSPropertyOp22
 70
     1
102
RTVSPropertyOp23
 70
     1
102
RTVSPropertyOp24
 70
     1
102
RTVSPropertyOp25
 70
     1
102
RTVSPropertyOp26
 70
     1
102
RTVSPropertyOp27
 70
     1
102
RTVSPropertyOp28
 70
     1
102
RTVSPropertyOp29
 70
     1
102
RTVSPropertyOp30
 70
     1
102
RTVSPropertyOp31
 70
     1
102
RTVSPropertyOp32
 70
     1
102
RTVSPropertyOp33
 70
     1
102
RTVSPropertyOp34
 70
     1
102
RTVSPropertyOp35
 70
     1
102
RTVSPropertyOp36
 70
     1
102
RTVSPropertyOp37
 70
     1
102
RTVSPropertyOp38
 70
     1
102
RTVSPropertyOp39
 70
     1
102
RTVSPropertyOp40
 70
     1
102
RTVSPropertyOp41
 70
     1
102
RTVSPropertyOp42
 70
     1
102
RTVSPropertyOp43
 70
     1
102
RTVSPropertyOp44
 70
     1
102
RTVSPropertyOp45
 70
     1
102
RTVSPropertyOp46
 70
     1
102
RTVSPropertyOp47
 70
     1
102
RTVSPropertyOp48
 70
     1
102
RTVSPropertyOp49
 70
     1
102
RTVSPropertyOp50
 70
     1
102
RTVSPropertyOp51
 70
     0
102
RTVSPropertyOp52
 70
     0
102
RTVSPropertyOp53
 70
     1
102
RTVSPropertyOp54
 70
     1
102
RTVSPropertyOp55
 70
     1
102
RTVSPropertyOp56
 70
     1
102
RTVSPropertyOp57
 70
     1
102
RTVSPropertyOp58
 70
     1
102
RTVSPropertyOp59
 70
     1
102
RTVSPropertyOp60
 70
     1
102
RTVSPropertyOp61
 70
     1
102
RTVSPropertyOp62
 70
     1
  0
XRECORD
  5
86CD
102
{ACAD_REACTORS
330
86CC
102
}
330
86CC
100
AcDbXrecord
280
     1
102
RTVSPost2010Prop28
280
     0
102
RTVSPost2010PropOp28
 70
     1
102
RTVSPost2010Prop29
280
     1
102
RTVSPost2010PropOp29
 70
     1
102
RTVSPost2010Prop30
280
     1
102
RTVSPost2010PropOp30
 70
     1
102
RTVSPost2010Prop31
280
     0
102
RTVSPost2010PropOp31
 70
     1
102
RTVSPost2010Prop32
280
     0
102
RTVSPost2010PropOp32
 70
     1
102
RTVSPost2010Prop33
280
     0
102
RTVSPost2010PropOp33
 70
     1
102
RTVSPost2010Prop34
280
     0
102
RTVSPost2010PropOp34
 70
     1
102
RTVSPost2010Prop35
280
     0
102
RTVSPost2010PropOp35
 70
     1
102
RTVSPost2010Prop36
280
     0
102
RTVSPost2010PropOp36
 70
     1
102
RTVSPost2010Prop37
 90
       50
102
RTVSPost2010PropOp37
 70
     1
102
RTVSPost2010Prop38
140
0.0
102
RTVSPost2010PropOp38
 70
     1
102
RTVSPost2010Prop39
140
1.0
102
RTVSPost2010PropOp39
 70
     1
102
RTVSPost2010Prop40
 90
        0
102
RTVSPost2010PropOp40
 70
     1
102
RTVSPost2010Prop41ColorIndex
 90
       18
102
RTVSPost2010Prop41ColorRGB
 90
        0
102
RTVSPost2010PropOp41
 70
     1
102
RTVSPost2010Prop42
 90
       50
102
RTVSPost2010PropOp42
 70
     1
102
RTVSPost2010Prop43
 90
        3
102
RTVSPost2010PropOp43
 70
     1
102
RTVSPost2010Prop44ColorIndex
 90
        5
102
RTVSPost2010Prop44ColorRGB
 90
      255
102
RTVSPost2010PropOp44
 70
     1
102
RTVSPost2010Prop45
280
     0
102
RTVSPost2010PropOp45
 70
     1
102
RTVSPost2010Prop46
 90
       50
102
RTVSPost2010PropOp46
 70
     1
102
RTVSPost2010Prop47
 90
       50
102
RTVSPost2010PropOp47
 70
     1
102
RTVSPost2010Prop48
 90
       50
102
RTVSPost2010PropOp48
 70
     1
102
RTVSPost2010Prop49
280
     0
102
RTVSPost2010PropOp49
 70
     1
102
RTVSPost2010Prop50
 90
       50
102
RTVSPost2010PropOp50
 70
     1
102
RTVSPost2010Prop51ColorIndex
 90
      256
102
RTVSPost2010Prop51ColorRGB
 90
-16777216
102
RTVSPost2010PropOp51
 70
     0
102
RTVSPost2010Prop52
140
1.0
102
RTVSPost2010PropOp52
 70
     0
102
RTVSPost2010Prop53
 90
        2
102
RTVSPost2010PropOp53
 70
     1
102
RTVSPost2010Prop54
  1
strokes_ogs.tif
102
RTVSPost2010PropOp54
 70
     1
102
RTVSPost2010Prop55
280
     0
102
RTVSPost2010PropOp55
 70
     1
102
RTVSPost2010Prop56
140
1.0
102
RTVSPost2010PropOp56
 70
     1
102
RTVSPost2010Prop57
140
1.0
102
RTVSPost2010PropOp57
 70
     1
102
RTVSPropertyOp0
 70
     1
102
RTVSPropertyOp1
 70
     1
102
RTVSPropertyOp2
 70
     1
102
RTVSPropertyOp3
 70
     1
102
RTVSPropertyOp4
 70
     1
102
RTVSPropertyOp5
 70
     1
102
RTVSPropertyOp6
 70
     1
102
RTVSPropertyOp7
 70
     1
102
RTVSPropertyOp8
 70
     1
102
RTVSPropertyOp9
 70
     1
102
RTVSPropertyOp10
 70
     1
102
RTVSPropertyOp11
 70
     1
102
RTVSPropertyOp12
 70
     1
102
RTVSPropertyOp13
 70
     1
102
RTVSPropertyOp14
 70
     1
102
RTVSPropertyOp15
 70
     1
102
RTVSPropertyOp16
 70
     1
102
RTVSPropertyOp17
 70
     1
102
RTVSPropertyOp18
 70
     1
102
RTVSPropertyOp19
 70
     1
102
RTVSPropertyOp20
 70
     1
102
RTVSPropertyOp21
 70
     1
102
RTVSPropertyOp22
 70
     1
102
RTVSPropertyOp23
 70
     1
102
RTVSPropertyOp24
 70
     1
102
RTVSPropertyOp25
 70
     1
102
RTVSPropertyOp26
 70
     1
102
RTVSPropertyOp27
 70
     1
102
RTVSPropertyOp28
 70
     1
102
RTVSPropertyOp29
 70
     1
102
RTVSPropertyOp30
 70
     1
102
RTVSPropertyOp31
 70
     1
102
RTVSPropertyOp32
 70
     1
102
RTVSPropertyOp33
 70
     1
102
RTVSPropertyOp34
 70
     1
102
RTVSPropertyOp35
 70
     1
102
RTVSPropertyOp36
 70
     1
102
RTVSPropertyOp37
 70
     1
102
RTVSPropertyOp38
 70
     1
102
RTVSPropertyOp39
 70
     1
102
RTVSPropertyOp40
 70
     1
102
RTVSPropertyOp41
 70
     1
102
RTVSPropertyOp42
 70
     1
102
RTVSPropertyOp43
 70
     1
102
RTVSPropertyOp44
 70
     1
102
RTVSPropertyOp45
 70
     1
102
RTVSPropertyOp46
 70
     1
102
RTVSPropertyOp47
 70
     1
102
RTVSPropertyOp48
 70
     1
102
RTVSPropertyOp49
 70
     1
102
RTVSPropertyOp50
 70
     1
102
RTVSPropertyOp51
 70
     0
102
RTVSPropertyOp52
 70
     0
102
RTVSPropertyOp53
 70
     1
102
RTVSPropertyOp54
 70
     1
102
RTVSPropertyOp55
 70
     1
102
RTVSPropertyOp56
 70
     1
102
RTVSPropertyOp57
 70
     1
102
RTVSPropertyOp58
 70
     1
102
RTVSPropertyOp59
 70
     1
102
RTVSPropertyOp60
 70
     1
102
RTVSPropertyOp61
 70
     1
102
RTVSPropertyOp62
 70
     1
  0
XRECORD
  5
86C1
102
{ACAD_REACTORS
330
86C0
102
}
330
86C0
100
AcDbXrecord
280
     1
102
RTVSPost2010Prop28
280
     0
102
RTVSPost2010PropOp28
 70
     1
102
RTVSPost2010Prop29
280
     1
102
RTVSPost2010PropOp29
 70
     1
102
RTVSPost2010Prop30
280
     1
102
RTVSPost2010PropOp30
 70
     1
102
RTVSPost2010Prop31
280
     0
102
RTVSPost2010PropOp31
 70
     1
102
RTVSPost2010Prop32
280
     0
102
RTVSPost2010PropOp32
 70
     1
102
RTVSPost2010Prop33
280
     0
102
RTVSPost2010PropOp33
 70
     1
102
RTVSPost2010Prop34
280
     0
102
RTVSPost2010PropOp34
 70
     1
102
RTVSPost2010Prop35
280
     0
102
RTVSPost2010PropOp35
 70
     1
102
RTVSPost2010Prop36
280
     0
102
RTVSPost2010PropOp36
 70
     1
102
RTVSPost2010Prop37
 90
       50
102
RTVSPost2010PropOp37
 70
     1
102
RTVSPost2010Prop38
140
0.0
102
RTVSPost2010PropOp38
 70
     1
102
RTVSPost2010Prop39
140
1.0
102
RTVSPost2010PropOp39
 70
     1
102
RTVSPost2010Prop40
 90
        0
102
RTVSPost2010PropOp40
 70
     1
102
RTVSPost2010Prop41ColorIndex
 90
       18
102
RTVSPost2010Prop41ColorRGB
 90
        0
102
RTVSPost2010PropOp41
 70
     1
102
RTVSPost2010Prop42
 90
       50
102
RTVSPost2010PropOp42
 70
     1
102
RTVSPost2010Prop43
 90
        3
102
RTVSPost2010PropOp43
 70
     1
102
RTVSPost2010Prop44ColorIndex
 90
        5
102
RTVSPost2010Prop44ColorRGB
 90
      255
102
RTVSPost2010PropOp44
 70
     1
102
RTVSPost2010Prop45
280
     0
102
RTVSPost2010PropOp45
 70
     1
102
RTVSPost2010Prop46
 90
       50
102
RTVSPost2010PropOp46
 70
     1
102
RTVSPost2010Prop47
 90
       50
102
RTVSPost2010PropOp47
 70
     1
102
RTVSPost2010Prop48
 90
       50
102
RTVSPost2010PropOp48
 70
     1
102
RTVSPost2010Prop49
280
     0
102
RTVSPost2010PropOp49
 70
     1
102
RTVSPost2010Prop50
 90
       50
102
RTVSPost2010PropOp50
 70
     1
102
RTVSPost2010Prop51ColorIndex
 90
      256
102
RTVSPost2010Prop51ColorRGB
 90
-16777216
102
RTVSPost2010PropOp51
 70
     0
102
RTVSPost2010Prop52
140
1.0
102
RTVSPost2010PropOp52
 70
     0
102
RTVSPost2010Prop53
 90
        2
102
RTVSPost2010PropOp53
 70
     1
102
RTVSPost2010Prop54
  1
strokes_ogs.tif
102
RTVSPost2010PropOp54
 70
     1
102
RTVSPost2010Prop55
280
     0
102
RTVSPost2010PropOp55
 70
     1
102
RTVSPost2010Prop56
140
1.0
102
RTVSPost2010PropOp56
 70
     1
102
RTVSPost2010Prop57
140
1.0
102
RTVSPost2010PropOp57
 70
     1
102
RTVSPropertyOp0
 70
     1
102
RTVSPropertyOp1
 70
     1
102
RTVSPropertyOp2
 70
     1
102
RTVSPropertyOp3
 70
     1
102
RTVSPropertyOp4
 70
     1
102
RTVSPropertyOp5
 70
     1
102
RTVSPropertyOp6
 70
     1
102
RTVSPropertyOp7
 70
     1
102
RTVSPropertyOp8
 70
     1
102
RTVSPropertyOp9
 70
     1
102
RTVSPropertyOp10
 70
     1
102
RTVSPropertyOp11
 70
     1
102
RTVSPropertyOp12
 70
     1
102
RTVSPropertyOp13
 70
     1
102
RTVSPropertyOp14
 70
     1
102
RTVSPropertyOp15
 70
     1
102
RTVSPropertyOp16
 70
     1
102
RTVSPropertyOp17
 70
     1
102
RTVSPropertyOp18
 70
     1
102
RTVSPropertyOp19
 70
     1
102
RTVSPropertyOp20
 70
     1
102
RTVSPropertyOp21
 70
     1
102
RTVSPropertyOp22
 70
     1
102
RTVSPropertyOp23
 70
     1
102
RTVSPropertyOp24
 70
     1
102
RTVSPropertyOp25
 70
     1
102
RTVSPropertyOp26
 70
     1
102
RTVSPropertyOp27
 70
     1
102
RTVSPropertyOp28
 70
     1
102
RTVSPropertyOp29
 70
     1
102
RTVSPropertyOp30
 70
     1
102
RTVSPropertyOp31
 70
     1
102
RTVSPropertyOp32
 70
     1
102
RTVSPropertyOp33
 70
     1
102
RTVSPropertyOp34
 70
     1
102
RTVSPropertyOp35
 70
     1
102
RTVSPropertyOp36
 70
     1
102
RTVSPropertyOp37
 70
     1
102
RTVSPropertyOp38
 70
     1
102
RTVSPropertyOp39
 70
     1
102
RTVSPropertyOp40
 70
     1
102
RTVSPropertyOp41
 70
     1
102
RTVSPropertyOp42
 70
     1
102
RTVSPropertyOp43
 70
     1
102
RTVSPropertyOp44
 70
     1
102
RTVSPropertyOp45
 70
     1
102
RTVSPropertyOp46
 70
     1
102
RTVSPropertyOp47
 70
     1
102
RTVSPropertyOp48
 70
     1
102
RTVSPropertyOp49
 70
     1
102
RTVSPropertyOp50
 70
     1
102
RTVSPropertyOp51
 70
     0
102
RTVSPropertyOp52
 70
     0
102
RTVSPropertyOp53
 70
     1
102
RTVSPropertyOp54
 70
     1
102
RTVSPropertyOp55
 70
     1
102
RTVSPropertyOp56
 70
     1
102
RTVSPropertyOp57
 70
     1
102
RTVSPropertyOp58
 70
     1
102
RTVSPropertyOp59
 70
     1
102
RTVSPropertyOp60
 70
     1
102
RTVSPropertyOp61
 70
     1
102
RTVSPropertyOp62
 70
     1
  0
XRECORD
  5
86D9
102
{ACAD_REACTORS
330
86D8
102
}
330
86D8
100
AcDbXrecord
280
     1
102
RTVSPost2010Prop28
280
     0
102
RTVSPost2010PropOp28
 70
     1
102
RTVSPost2010Prop29
280
     1
102
RTVSPost2010PropOp29
 70
     1
102
RTVSPost2010Prop30
280
     1
102
RTVSPost2010PropOp30
 70
     1
102
RTVSPost2010Prop31
280
     0
102
RTVSPost2010PropOp31
 70
     1
102
RTVSPost2010Prop32
280
     0
102
RTVSPost2010PropOp32
 70
     1
102
RTVSPost2010Prop33
280
     0
102
RTVSPost2010PropOp33
 70
     1
102
RTVSPost2010Prop34
280
     0
102
RTVSPost2010PropOp34
 70
     1
102
RTVSPost2010Prop35
280
     0
102
RTVSPost2010PropOp35
 70
     1
102
RTVSPost2010Prop36
280
     0
102
RTVSPost2010PropOp36
 70
     1
102
RTVSPost2010Prop37
 90
       50
102
RTVSPost2010PropOp37
 70
     1
102
RTVSPost2010Prop38
140
0.0
102
RTVSPost2010PropOp38
 70
     1
102
RTVSPost2010Prop39
140
1.0
102
RTVSPost2010PropOp39
 70
     1
102
RTVSPost2010Prop40
 90
        0
102
RTVSPost2010PropOp40
 70
     1
102
RTVSPost2010Prop41ColorIndex
 90
       18
102
RTVSPost2010Prop41ColorRGB
 90
        0
102
RTVSPost2010PropOp41
 70
     1
102
RTVSPost2010Prop42
 90
       50
102
RTVSPost2010PropOp42
 70
     1
102
RTVSPost2010Prop43
 90
        3
102
RTVSPost2010PropOp43
 70
     1
102
RTVSPost2010Prop44ColorIndex
 90
        5
102
RTVSPost2010Prop44ColorRGB
 90
      255
102
RTVSPost2010PropOp44
 70
     1
102
RTVSPost2010Prop45
280
     0
102
RTVSPost2010PropOp45
 70
     1
102
RTVSPost2010Prop46
 90
       50
102
RTVSPost2010PropOp46
 70
     1
102
RTVSPost2010Prop47
 90
       50
102
RTVSPost2010PropOp47
 70
     1
102
RTVSPost2010Prop48
 90
       50
102
RTVSPost2010PropOp48
 70
     1
102
RTVSPost2010Prop49
280
     0
102
RTVSPost2010PropOp49
 70
     1
102
RTVSPost2010Prop50
 90
       50
102
RTVSPost2010PropOp50
 70
     1
102
RTVSPost2010Prop51ColorIndex
 90
      256
102
RTVSPost2010Prop51ColorRGB
 90
-16777216
102
RTVSPost2010PropOp51
 70
     0
102
RTVSPost2010Prop52
140
1.0
102
RTVSPost2010PropOp52
 70
     0
102
RTVSPost2010Prop53
 90
        2
102
RTVSPost2010PropOp53
 70
     1
102
RTVSPost2010Prop54
  1
strokes_ogs.tif
102
RTVSPost2010PropOp54
 70
     1
102
RTVSPost2010Prop55
280
     0
102
RTVSPost2010PropOp55
 70
     1
102
RTVSPost2010Prop56
140
1.0
102
RTVSPost2010PropOp56
 70
     1
102
RTVSPost2010Prop57
140
1.0
102
RTVSPost2010PropOp57
 70
     1
102
RTVSPropertyOp0
 70
     1
102
RTVSPropertyOp1
 70
     1
102
RTVSPropertyOp2
 70
     1
102
RTVSPropertyOp3
 70
     1
102
RTVSPropertyOp4
 70
     1
102
RTVSPropertyOp5
 70
     1
102
RTVSPropertyOp6
 70
     1
102
RTVSPropertyOp7
 70
     1
102
RTVSPropertyOp8
 70
     1
102
RTVSPropertyOp9
 70
     1
102
RTVSPropertyOp10
 70
     1
102
RTVSPropertyOp11
 70
     1
102
RTVSPropertyOp12
 70
     1
102
RTVSPropertyOp13
 70
     1
102
RTVSPropertyOp14
 70
     1
102
RTVSPropertyOp15
 70
     1
102
RTVSPropertyOp16
 70
     1
102
RTVSPropertyOp17
 70
     1
102
RTVSPropertyOp18
 70
     1
102
RTVSPropertyOp19
 70
     1
102
RTVSPropertyOp20
 70
     1
102
RTVSPropertyOp21
 70
     1
102
RTVSPropertyOp22
 70
     1
102
RTVSPropertyOp23
 70
     1
102
RTVSPropertyOp24
 70
     1
102
RTVSPropertyOp25
 70
     1
102
RTVSPropertyOp26
 70
     1
102
RTVSPropertyOp27
 70
     1
102
RTVSPropertyOp28
 70
     1
102
RTVSPropertyOp29
 70
     1
102
RTVSPropertyOp30
 70
     1
102
RTVSPropertyOp31
 70
     1
102
RTVSPropertyOp32
 70
     1
102
RTVSPropertyOp33
 70
     1
102
RTVSPropertyOp34
 70
     1
102
RTVSPropertyOp35
 70
     1
102
RTVSPropertyOp36
 70
     1
102
RTVSPropertyOp37
 70
     1
102
RTVSPropertyOp38
 70
     1
102
RTVSPropertyOp39
 70
     1
102
RTVSPropertyOp40
 70
     1
102
RTVSPropertyOp41
 70
     1
102
RTVSPropertyOp42
 70
     1
102
RTVSPropertyOp43
 70
     1
102
RTVSPropertyOp44
 70
     1
102
RTVSPropertyOp45
 70
     1
102
RTVSPropertyOp46
 70
     1
102
RTVSPropertyOp47
 70
     1
102
RTVSPropertyOp48
 70
     1
102
RTVSPropertyOp49
 70
     1
102
RTVSPropertyOp50
 70
     1
102
RTVSPropertyOp51
 70
     0
102
RTVSPropertyOp52
 70
     0
102
RTVSPropertyOp53
 70
     1
102
RTVSPropertyOp54
 70
     1
102
RTVSPropertyOp55
 70
     1
102
RTVSPropertyOp56
 70
     1
102
RTVSPropertyOp57
 70
     1
102
RTVSPropertyOp58
 70
     1
102
RTVSPropertyOp59
 70
     1
102
RTVSPropertyOp60
 70
     1
102
RTVSPropertyOp61
 70
     1
102
RTVSPropertyOp62
 70
     1
  0
ENDSEC
  0
EOF
