  0
SECTION
  2
HEADER
  9
$ACADVER
  1
AC1015
  9
$ACADMAINTVER
 70
    20
  9
$DWGCODEPAGE
  3
ANSI_932
  9
$INSBASE
 10
0.0
 20
0.0
 30
0.0
  9
$EXTMIN
 10
-0.2563280987742473
 20
-0.3600799482810544
 30
-0.0015258207003583
  9
$EXTMAX
 10
8400.256367214323
 20
11800.3601348963
 30
0.0000000349246037
  9
$LIMMIN
 10
0.0
 20
0.0
  9
$LIMMAX
 10
297.0
 20
210.0
  9
$ORTHOMODE
 70
     1
  9
$REGENMODE
 70
     1
  9
$FILLMODE
 70
     0
  9
$QTEXTMODE
 70
     0
  9
$MIRRTEXT
 70
     1
  9
$LTSCALE
 40
100.0
  9
$ATTMODE
 70
     1
  9
$TEXTSIZE
 40
180.0
  9
$TRACEWID
 40
0.05
  9
$TEXTSTYLE
  7
STANDARD
  9
$CLAYER
  8
3
  9
$CELTYPE
  6
ByLayer
  9
$CECOLOR
 62
   256
  9
$CELTSCALE
 40
1.0
  9
$DISPSILH
 70
     0
  9
$DIMSCALE
 40
40.0
  9
$DIMASZ
 40
2.0
  9
$DIMEXO
 40
0.5
  9
$DIMDLI
 40
10.0
  9
$DIMRND
 40
0.0
  9
$DIMDLE
 40
0.0
  9
$DIMEXE
 40
1.0
  9
$DIMTP
 40
1.0
  9
$DIMTM
 40
1.0
  9
$DIMTXT
 40
3.0
  9
$DIMCEN
 40
0.0
  9
$DIMTSZ
 40
0.0
  9
$DIMTOL
 70
     0
  9
$DIMLIM
 70
     0
  9
$DIMTIH
 70
     0
  9
$DIMTOH
 70
     0
  9
$DIMSE1
 70
     0
  9
$DIMSE2
 70
     0
  9
$DIMTAD
 70
     1
  9
$DIMZIN
 70
     8
  9
$DIMBLK
  1

  9
$DIMASO
 70
     1
  9
$DIMSHO
 70
     1
  9
$DIMPOST
  1

  9
$DIMAPOST
  1

  9
$DIMALT
 70
     0
  9
$DIMALTD
 70
     2
  9
$DIMALTF
 40
0.039
  9
$DIMLFAC
 40
1.0
  9
$DIMTOFL
 70
     1
  9
$DIMTVP
 40
0.0
  9
$DIMTIX
 70
     0
  9
$DIMSOXD
 70
     0
  9
$DIMSAH
 70
     1
  9
$DIMBLK1
  1
OPEN
  9
$DIMBLK2
  1
OPEN
  9
$DIMSTYLE
  2
IGA
  9
$DIMCLRD
 70
     0
  9
$DIMCLRE
 70
     0
  9
$DIMCLRT
 70
     0
  9
$DIMTFAC
 40
10.0
  9
$DIMGAP
 40
1.0
  9
$DIMJUST
 70
     0
  9
$DIMSD1
 70
     0
  9
$DIMSD2
 70
     0
  9
$DIMTOLJ
 70
     1
  9
$DIMTZIN
 70
     0
  9
$DIMALTZ
 70
     0
  9
$DIMALTTZ
 70
     0
  9
$DIMUPT
 70
     0
  9
$DIMDEC
 70
     4
  9
$DIMTDEC
 70
     4
  9
$DIMALTU
 70
     2
  9
$DIMALTTD
 70
     2
  9
$DIMTXSTY
  7
STANDARD
  9
$DIMAUNIT
 70
     0
  9
$DIMADEC
 70
     0
  9
$DIMALTRND
 40
0.0
  9
$DIMAZIN
 70
     0
  9
$DIMDSEP
 70
    46
  9
$DIMATFIT
 70
     3
  9
$DIMFRAC
 70
     0
  9
$DIMLDRBLK
  1
OPEN
  9
$DIMLUNIT
 70
     2
  9
$DIMLWD
 70
    -2
  9
$DIMLWE
 70
    -2
  9
$DIMTMOVE
 70
     0
  9
$LUNITS
 70
     2
  9
$LUPREC
 70
     3
  9
$SKETCHINC
 40
0.1
  9
$FILLETRAD
 40
50.0
  9
$AUNITS
 70
     0
  9
$AUPREC
 70
     0
  9
$MENU
  1
acad
  9
$ELEVATION
 40
0.0
  9
$PELEVATION
 40
0.0
  9
$THICKNESS
 40
0.0
  9
$LIMCHECK
 70
     0
  9
$CHAMFERA
 40
0.5
  9
$CHAMFERB
 40
0.5
  9
$CHAMFERC
 40
0.0
  9
$CHAMFERD
 40
0.0
  9
$SKPOLY
 70
     0
  9
$TDCREATE
 40
2451898.665484606
  9
$TDUCREATE
 40
2451898.290484606
  9
$TDUPDATE
 40
2460280.735593438
  9
$TDUUPDATE
 40
2460280.360593438
  9
$TDINDWG
 40
0.0282921412
  9
$TDUSRTIMER
 40
0.0282918981
  9
$USRTIMER
 70
     1
  9
$ANGBASE
 50
0.0
  9
$ANGDIR
 70
     0
  9
$PDMODE
 70
     0
  9
$PDSIZE
 40
0.0
  9
$PLINEWID
 40
0.0
  9
$SPLFRAME
 70
     0
  9
$SPLINETYPE
 70
     6
  9
$SPLINESEGS
 70
     8
  9
$HANDSEED
  5
8776
  9
$SURFTAB1
 70
     6
  9
$SURFTAB2
 70
     6
  9
$SURFTYPE
 70
     6
  9
$SURFU
 70
     6
  9
$SURFV
 70
     6
  9
$UCSBASE
  2

  9
$UCSNAME
  2

  9
$UCSORG
 10
0.0
 20
0.0
 30
0.0
  9
$UCSXDIR
 10
1.0
 20
0.0
 30
0.0
  9
$UCSYDIR
 10
0.0
 20
1.0
 30
0.0
  9
$UCSORTHOREF
  2

  9
$UCSORTHOVIEW
 70
     0
  9
$UCSORGTOP
 10
0.0
 20
0.0
 30
0.0
  9
$UCSORGBOTTOM
 10
0.0
 20
0.0
 30
0.0
  9
$UCSORGLEFT
 10
0.0
 20
0.0
 30
0.0
  9
$UCSORGRIGHT
 10
0.0
 20
0.0
 30
0.0
  9
$UCSORGFRONT
 10
0.0
 20
0.0
 30
0.0
  9
$UCSORGBACK
 10
0.0
 20
0.0
 30
0.0
  9
$PUCSBASE
  2

  9
$PUCSNAME
  2

  9
$PUCSORG
 10
0.0
 20
0.0
 30
0.0
  9
$PUCSXDIR
 10
1.0
 20
0.0
 30
0.0
  9
$PUCSYDIR
 10
0.0
 20
1.0
 30
0.0
  9
$PUCSORTHOREF
  2

  9
$PUCSORTHOVIEW
 70
     0
  9
$PUCSORGTOP
 10
0.0
 20
0.0
 30
0.0
  9
$PUCSORGBOTTOM
 10
0.0
 20
0.0
 30
0.0
  9
$PUCSORGLEFT
 10
0.0
 20
0.0
 30
0.0
  9
$PUCSORGRIGHT
 10
0.0
 20
0.0
 30
0.0
  9
$PUCSORGFRONT
 10
0.0
 20
0.0
 30
0.0
  9
$PUCSORGBACK
 10
0.0
 20
0.0
 30
0.0
  9
$USERI1
 70
     0
  9
$USERI2
 70
     0
  9
$USERI3
 70
     0
  9
$USERI4
 70
     0
  9
$USERI5
 70
     0
  9
$USERR1
 40
0.0
  9
$USERR2
 40
0.0
  9
$USERR3
 40
0.0
  9
$USERR4
 40
0.0
  9
$USERR5
 40
0.0
  9
$WORLDVIEW
 70
     1
  9
$SHADEDGE
 70
     3
  9
$SHADEDIF
 70
    70
  9
$TILEMODE
 70
     1
  9
$MAXACTVP
 70
    16
  9
$PINSBASE
 10
0.0
 20
0.0
 30
0.0
  9
$PLIMCHECK
 70
     0
  9
$PEXTMIN
 10
1.000000000000000E+20
 20
1.000000000000000E+20
 30
1.000000000000000E+20
  9
$PEXTMAX
 10
-1.000000000000000E+20
 20
-1.000000000000000E+20
 30
-1.000000000000000E+20
  9
$PLIMMIN
 10
0.0
 20
0.0
  9
$PLIMMAX
 10
12.0
 20
9.0
  9
$UNITMODE
 70
     0
  9
$VISRETAIN
 70
     0
  9
$PLINEGEN
 70
     0
  9
$PSLTSCALE
 70
     1
  9
$TREEDEPTH
 70
  3020
  9
$CMLSTYLE
  2
Standard
  9
$CMLJUST
 70
     0
  9
$CMLSCALE
 40
1.0
  9
$PROXYGRAPHICS
 70
     1
  9
$MEASUREMENT
 70
     0
  9
$CELWEIGHT
370
    -1
  9
$ENDCAPS
280
     0
  9
$JOINSTYLE
280
     0
  9
$LWDISPLAY
290
     0
  9
$INSUNITS
 70
     0
  9
$HYPERLINKBASE
  1

  9
$STYLESHEET
  1

  9
$XEDIT
290
     1
  9
$CEPSNTYPE
380
     0
  9
$PSTYLEMODE
290
     1
  9
$FINGERPRINTGUID
  2
{3E6A4B86-32C3-425B-BC64-748508ACB94A}
  9
$VERSIONGUID
  2
{A8BF0E1F-F2C6-4216-AC05-F1287704A0E2}
  9
$EXTNAMES
290
     1
  9
$PSVPSCALE
 40
0.0
  9
$OLESTARTUP
290
     0
  0
ENDSEC
  0
SECTION
  2
CLASSES
  0
CLASS
  1
ACDBDICTIONARYWDFLT
  2
AcDbDictionaryWithDefault
  3
ObjectDBX Classes
 90
        0
280
     0
281
     0
  0
CLASS
  1
MATERIAL
  2
AcDbMaterial
  3
ObjectDBX Classes
 90
     1153
280
     0
281
     0
  0
CLASS
  1
VISUALSTYLE
  2
AcDbVisualStyle
  3
ObjectDBX Classes
 90
     4095
280
     0
281
     0
  0
CLASS
  1
SCALE
  2
AcDbScale
  3
ObjectDBX Classes
 90
     1153
280
     0
281
     0
  0
CLASS
  1
TABLESTYLE
  2
AcDbTableStyle
  3
ObjectDBX Classes
 90
     4095
280
     0
281
     0
  0
CLASS
  1
MLEADERSTYLE
  2
AcDbMLeaderStyle
  3
ACDB_MLEADERSTYLE_CLASS
 90
     4095
280
     0
281
     0
  0
CLASS
  1
ACDBSECTIONVIEWSTYLE
  2
AcDbSectionViewStyle
  3
ObjectDBX Classes
 90
     1025
280
     0
281
     0
  0
CLASS
  1
ACDBDETAILVIEWSTYLE
  2
AcDbDetailViewStyle
  3
ObjectDBX Classes
 90
     1025
280
     0
281
     0
  0
CLASS
  1
DICTIONARYVAR
  2
AcDbDictionaryVar
  3
ObjectDBX Classes
 90
        0
280
     0
281
     0
  0
CLASS
  1
CELLSTYLEMAP
  2
AcDbCellStyleMap
  3
ObjectDBX Classes
 90
     1152
280
     0
281
     0
  0
CLASS
  1
SORTENTSTABLE
  2
AcDbSortentsTable
  3
ObjectDBX Classes
 90
        0
280
     0
281
     0
  0
CLASS
  1
ACDBPLACEHOLDER
  2
AcDbPlaceHolder
  3
ObjectDBX Classes
 90
        0
280
     0
281
     0
  0
CLASS
  1
LAYOUT
  2
AcDbLayout
  3
ObjectDBX Classes
 90
        0
280
     0
281
     0
  0
ENDSEC
  0
SECTION
  2
TABLES
  0
TABLE
  2
VPORT
  5
83A5
330
0
100
AcDbSymbolTable
 70
     1
  0
VPORT
  5
8411
330
83A5
100
AcDbSymbolTableRecord
100
AcDbViewportTableRecord
  2
*ACTIVE
 70
     0
 10
0.0
 20
0.0
 11
1.0
 21
1.0
 12
4200.000019557773
 22
5900.000027474012
 13
0.0
 23
0.0
 14
10.0
 24
10.0
 15
10.0
 25
10.0
 16
0.0
 26
0.0
 36
1.0
 17
0.0
 27
0.0
 37
0.0
 40
11876.28512550527
 41
2.050213675213675
 42
50.0
 43
0.0
 44
0.0
 50
0.0
 51
0.0
 71
     0
 72
   100
 73
     1
 74
     0
 75
     0
 76
     0
 77
     0
 78
     0
281
     0
 65
     1
110
0.0
120
0.0
130
0.0
111
1.0
121
0.0
131
0.0
112
0.0
122
1.0
132
0.0
 79
     0
146
0.0
1001
ACAD_NAV_VCDISPLAY
1070
     3
  0
ENDTAB
  0
TABLE
  2
LTYPE
  5
83A2
330
0
100
AcDbSymbolTable
 70
     3
  0
LTYPE
  5
83F7
330
83A2
100
AcDbSymbolTableRecord
100
AcDbLinetypeTableRecord
  2
ByBlock
 70
     0
  3

 72
    65
 73
     0
 40
0.0
  0
LTYPE
  5
83F8
330
83A2
100
AcDbSymbolTableRecord
100
AcDbLinetypeTableRecord
  2
ByLayer
 70
     0
  3

 72
    65
 73
     0
 40
0.0
  0
LTYPE
  5
83F9
330
83A2
100
AcDbSymbolTableRecord
100
AcDbLinetypeTableRecord
  2
CONTINUOUS
 70
     0
  3
Solid line
 72
    65
 73
     0
 40
0.0
  0
LTYPE
  5
8412
330
83A2
100
AcDbSymbolTableRecord
100
AcDbLinetypeTableRecord
  2
CENTER
 70
     0
  3
____ _ ____ _ ____ _ ____ _ ____ _ ____ _ ____ 
 72
    65
 73
     4
 40
2.0
 49
1.25
 74
     0
 49
-0.25
 74
     0
 49
0.25
 74
     0
 49
-0.25
 74
     0
  0
ENDTAB
  0
TABLE
  2
LAYER
  5
839F
330
0
100
AcDbSymbolTable
 70
     6
  0
LAYER
  5
83F1
102
{ACAD_XDICTIONARY
360
8456
102
}
330
839F
100
AcDbSymbolTableRecord
100
AcDbLayerTableRecord
  2
0
 70
     0
 62
     7
  6
CONTINUOUS
370
    -3
390
83AC
  0
LAYER
  5
8410
102
{ACAD_XDICTIONARY
360
8458
102
}
330
839F
100
AcDbSymbolTableRecord
100
AcDbLayerTableRecord
  2
3
 70
     0
 62
     2
  6
CONTINUOUS
370
    -3
390
83AC
  0
LAYER
  5
8413
102
{ACAD_XDICTIONARY
360
845A
102
}
330
839F
100
AcDbSymbolTableRecord
100
AcDbLayerTableRecord
  2
2
 70
     0
 62
     3
  6
CENTER
370
    -3
390
83AC
  0
LAYER
  5
8414
102
{ACAD_XDICTIONARY
360
845C
102
}
330
839F
100
AcDbSymbolTableRecord
100
AcDbLayerTableRecord
  2
1
 70
     0
 62
     4
  6
CONTINUOUS
370
    -3
390
83AC
  0
LAYER
  5
8415
102
{ACAD_XDICTIONARY
360
845E
102
}
330
839F
100
AcDbSymbolTableRecord
100
AcDbLayerTableRecord
  2
4
 70
     0
 62
     7
  6
CONTINUOUS
370
    -3
390
83AC
  0
LAYER
  5
8416
330
839F
100
AcDbSymbolTableRecord
100
AcDbLayerTableRecord
  2
DEFPOINTS
 70
     0
 62
     7
  6
CONTINUOUS
290
     0
370
    -3
390
83AC
  0
ENDTAB
  0
TABLE
  2
STYLE
  5
83A0
330
0
100
AcDbSymbolTable
 70
     2
  0
STYLE
  5
83F2
330
83A0
100
AcDbSymbolTableRecord
100
AcDbTextStyleTableRecord
  2
STANDARD
 70
     0
 40
0.0
 41
1.0
 50
0.0
 71
     0
 42
180.0
  3
simplex.shx
  4
extfont.shx
  0
STYLE
  5
83F6
330
83A0
100
AcDbSymbolTableRecord
100
AcDbTextStyleTableRecord
  2
Annotative
 70
     0
 40
0.0
 41
1.0
 50
0.0
 71
     0
 42
0.2
  3
txt
  4

1001
AcadAnnotative
1000
AnnotativeData
1002
{
1070
     1
1070
     1
1002
}
  0
ENDTAB
  0
TABLE
  2
VIEW
  5
83A3
330
0
100
AcDbSymbolTable
 70
     0
  0
ENDTAB
  0
TABLE
  2
UCS
  5
83A4
330
0
100
AcDbSymbolTable
 70
     0
  0
ENDTAB
  0
TABLE
  2
APPID
  5
83A6
330
0
100
AcDbSymbolTable
 70
     8
  0
APPID
  5
83F3
330
83A6
100
AcDbSymbolTableRecord
100
AcDbRegAppTableRecord
  2
ACAD
 70
     0
  0
APPID
  5
83FA
330
83A6
100
AcDbSymbolTableRecord
100
AcDbRegAppTableRecord
  2
AcadAnnotative
 70
     0
  0
APPID
  5
846A
330
83A6
100
AcDbSymbolTableRecord
100
AcDbRegAppTableRecord
  2
ACAD_NAV_VCDISPLAY
 70
     0
  0
APPID
  5
84AD
330
83A6
100
AcDbSymbolTableRecord
100
AcDbRegAppTableRecord
  2
ACAD_DSTYLE_DIMJAG
 70
     0
  0
APPID
  5
84AE
330
83A6
100
AcDbSymbolTableRecord
100
AcDbRegAppTableRecord
  2
ACAD_DSTYLE_DIMTALN
 70
     0
  0
APPID
  5
84E7
330
83A6
100
AcDbSymbolTableRecord
100
AcDbRegAppTableRecord
  2
AcadAnnoMonitorAlertIconDisabled
 70
     0
  0
APPID
  5
84E8
330
83A6
100
AcDbSymbolTableRecord
100
AcDbRegAppTableRecord
  2
ACAD_EXEMPT_FROM_CAD_STANDARDS
 70
     0
  0
APPID
  5
876D
330
83A6
100
AcDbSymbolTableRecord
100
AcDbRegAppTableRecord
  2
ACAD_MLEADERVER
 70
     0
  0
ENDTAB
  0
TABLE
  2
DIMSTYLE
  5
83A7
330
0
100
AcDbSymbolTable
 70
     3
100
AcDbDimStyleTable
 71
     1
340
8417
  0
DIMSTYLE
105
83F4
102
{ACAD_REACTORS
330
81A9
330
81B6
330
81C3
330
81D0
102
}
330
83A7
100
AcDbSymbolTableRecord
100
AcDbDimStyleTableRecord
  2
Standard
 70
     0
340
83F2
  0
DIMSTYLE
105
83F5
330
83A7
100
AcDbSymbolTableRecord
100
AcDbDimStyleTableRecord
  2
Annotative
 70
     0
340
83F2
1001
AcadAnnotative
1000
AnnotativeData
1002
{
1070
     1
1070
     1
1002
}
  0
DIMSTYLE
105
8417
102
{ACAD_REACTORS
330
84AF
330
84BC
330
84C9
330
84DA
330
8551
330
855E
330
856B
330
8578
330
8585
330
859B
330
85A8
330
85B5
330
85C2
330
85CF
330
85DC
330
85E9
330
85F6
330
8608
330
861A
102
}
330
83A7
100
AcDbSymbolTableRecord
100
AcDbDimStyleTableRecord
  2
IGA
 70
     0
 40
2.0
 41
2.0
 42
0.5
 43
10.0
 44
1.0
 47
1.0
 48
1.0
 73
     0
 74
     0
 77
     1
 78
     8
140
3.0
141
0.0
143
0.03937
146
10.0
147
1.0
173
     1
271
     3
272
     3
279
     2
284
     8
285
     8
286
     8
340
83F2
  0
ENDTAB
  0
TABLE
  2
BLOCK_RECORD
  5
839E
330
0
100
AcDbSymbolTable
 70
    50
  0
BLOCK_RECORD
  5
840C
102
{ACAD_XDICTIONARY
360
84D7
102
}
330
839E
100
AcDbSymbolTableRecord
100
AcDbBlockTableRecord
  2
*Model_Space
340
840F
  0
BLOCK_RECORD
  5
8408
330
839E
100
AcDbSymbolTableRecord
100
AcDbBlockTableRecord
  2
*Paper_Space
340
840B
  0
BLOCK_RECORD
  5
841B
330
839E
100
AcDbSymbolTableRecord
100
AcDbBlockTableRecord
  2
$MODEL_SPACE
340
0
  0
BLOCK_RECORD
  5
841D
330
839E
100
AcDbSymbolTableRecord
100
AcDbBlockTableRecord
  2
$PAPER_SPACE
340
0
  0
BLOCK_RECORD
  5
841F
330
839E
100
AcDbSymbolTableRecord
100
AcDbBlockTableRecord
  2
YA_N
340
0
102
{BLKREFS
331
7C22
331
7C3D
331
7C3E
331
7C61
331
7CA1
331
7CB4
331
7CDA
331
7CF1
102
}
  0
BLOCK_RECORD
  5
8421
330
839E
100
AcDbSymbolTableRecord
100
AcDbBlockTableRecord
  2
*D3
340
0
  0
BLOCK_RECORD
  5
8423
330
839E
100
AcDbSymbolTableRecord
100
AcDbBlockTableRecord
  2
_OPEN
340
0
102
{BLKREFS
331
831E
331
831F
331
8327
331
8328
331
8330
331
8331
331
8731
331
82F1
331
82F2
331
82FA
331
82FB
331
8303
331
8304
331
830C
331
830D
331
8315
331
8316
331
8339
331
833A
331
86D7
331
8342
331
8343
331
8663
331
8664
331
834B
331
834C
331
8354
331
8355
331
835D
331
835E
331
85A2
331
85A3
331
85AF
331
85B0
331
85BC
331
85BD
331
85C9
331
85CA
331
85D6
331
85D7
331
85E3
331
85E4
331
85F0
331
85F1
331
8366
331
8367
331
853E
331
853F
331
8558
331
8559
331
8565
331
8566
331
8572
331
8573
331
857F
331
8580
331
858C
331
858D
331
8595
331
8596
331
836F
331
84F6
331
84F7
331
8535
331
8536
331
8370
331
84B6
331
84B7
331
837B
331
81E5
331
81E6
331
8386
331
8387
331
81A2
331
81A3
331
81AF
331
81B0
331
81BC
331
81BD
331
81C9
331
81CA
102
}
  0
BLOCK_RECORD
  5
8424
330
839E
100
AcDbSymbolTableRecord
100
AcDbBlockTableRecord
  2
*D5
340
0
  0
BLOCK_RECORD
  5
8426
330
839E
100
AcDbSymbolTableRecord
100
AcDbBlockTableRecord
  2
*D6
340
0
  0
BLOCK_RECORD
  5
8428
330
839E
100
AcDbSymbolTableRecord
100
AcDbBlockTableRecord
  2
*D7
340
0
  0
BLOCK_RECORD
  5
842A
330
839E
100
AcDbSymbolTableRecord
100
AcDbBlockTableRecord
  2
*D8
340
0
  0
BLOCK_RECORD
  5
842C
330
839E
100
AcDbSymbolTableRecord
100
AcDbBlockTableRecord
  2
*D9
340
0
  0
BLOCK_RECORD
  5
842E
330
839E
100
AcDbSymbolTableRecord
100
AcDbBlockTableRecord
  2
*D10
340
0
  0
BLOCK_RECORD
  5
8430
330
839E
100
AcDbSymbolTableRecord
100
AcDbBlockTableRecord
  2
*D11
340
0
  0
BLOCK_RECORD
  5
8432
330
839E
100
AcDbSymbolTableRecord
100
AcDbBlockTableRecord
  2
*D12
340
0
  0
BLOCK_RECORD
  5
8434
330
839E
100
AcDbSymbolTableRecord
100
AcDbBlockTableRecord
  2
*D13
340
0
  0
BLOCK_RECORD
  5
8436
330
839E
100
AcDbSymbolTableRecord
100
AcDbBlockTableRecord
  2
*D14
340
0
  0
BLOCK_RECORD
  5
8438
330
839E
100
AcDbSymbolTableRecord
100
AcDbBlockTableRecord
  2
*D15
340
0
  0
BLOCK_RECORD
  5
843A
330
839E
100
AcDbSymbolTableRecord
100
AcDbBlockTableRecord
  2
*D16
340
0
  0
BLOCK_RECORD
  5
843C
330
839E
100
AcDbSymbolTableRecord
100
AcDbBlockTableRecord
  2
*D17
340
0
  0
BLOCK_RECORD
  5
843E
330
839E
100
AcDbSymbolTableRecord
100
AcDbBlockTableRecord
  2
*D18
340
0
  0
BLOCK_RECORD
  5
8440
330
839E
100
AcDbSymbolTableRecord
100
AcDbBlockTableRecord
  2
*D19
340
0
  0
BLOCK_RECORD
  5
8442
330
839E
100
AcDbSymbolTableRecord
100
AcDbBlockTableRecord
  2
_DOT
340
0
102
{BLKREFS
331
837A
102
}
  0
BLOCK_RECORD
  5
8445
330
839E
100
AcDbSymbolTableRecord
100
AcDbBlockTableRecord
  2
*D21
340
0
  0
BLOCK_RECORD
  5
8447
330
839E
100
AcDbSymbolTableRecord
100
AcDbBlockTableRecord
  2
*D22
340
0
  0
BLOCK_RECORD
  5
8449
330
839E
100
AcDbSymbolTableRecord
100
AcDbBlockTableRecord
  2
*D23
340
0
  0
BLOCK_RECORD
  5
844B
330
839E
100
AcDbSymbolTableRecord
100
AcDbBlockTableRecord
  2
*D24
340
0
  0
BLOCK_RECORD
  5
844D
330
839E
100
AcDbSymbolTableRecord
100
AcDbBlockTableRecord
  2
*D25
340
0
  0
BLOCK_RECORD
  5
844F
330
839E
100
AcDbSymbolTableRecord
100
AcDbBlockTableRecord
  2
_NONE
340
0
  0
BLOCK_RECORD
  5
8451
330
839E
100
AcDbSymbolTableRecord
100
AcDbBlockTableRecord
  2
*D27
340
0
  0
BLOCK_RECORD
  5
8453
330
839E
100
AcDbSymbolTableRecord
100
AcDbBlockTableRecord
  2
*D28
340
0
  0
BLOCK_RECORD
  5
84B0
330
839E
100
AcDbSymbolTableRecord
100
AcDbBlockTableRecord
  2
*D29
340
0
  0
BLOCK_RECORD
  5
84BD
330
839E
100
AcDbSymbolTableRecord
100
AcDbBlockTableRecord
  2
*D30
340
0
  0
BLOCK_RECORD
  5
84CA
330
839E
100
AcDbSymbolTableRecord
100
AcDbBlockTableRecord
  2
*D31
340
0
  0
BLOCK_RECORD
  5
84DB
330
839E
100
AcDbSymbolTableRecord
100
AcDbBlockTableRecord
  2
*D32
340
0
  0
BLOCK_RECORD
  5
8545
330
839E
100
AcDbSymbolTableRecord
100
AcDbBlockTableRecord
  2
*D33
340
0
  0
BLOCK_RECORD
  5
8552
330
839E
100
AcDbSymbolTableRecord
100
AcDbBlockTableRecord
  2
*D34
340
0
  0
BLOCK_RECORD
  5
855F
330
839E
100
AcDbSymbolTableRecord
100
AcDbBlockTableRecord
  2
*D35
340
0
  0
BLOCK_RECORD
  5
856C
330
839E
100
AcDbSymbolTableRecord
100
AcDbBlockTableRecord
  2
*D36
340
0
  0
BLOCK_RECORD
  5
8579
330
839E
100
AcDbSymbolTableRecord
100
AcDbBlockTableRecord
  2
*D37
340
0
  0
BLOCK_RECORD
  5
8586
330
839E
100
AcDbSymbolTableRecord
100
AcDbBlockTableRecord
  2
*D38
340
0
  0
BLOCK_RECORD
  5
859C
330
839E
100
AcDbSymbolTableRecord
100
AcDbBlockTableRecord
  2
*D39
340
0
  0
BLOCK_RECORD
  5
85A9
330
839E
100
AcDbSymbolTableRecord
100
AcDbBlockTableRecord
  2
*D40
340
0
  0
BLOCK_RECORD
  5
85B6
330
839E
100
AcDbSymbolTableRecord
100
AcDbBlockTableRecord
  2
*D41
340
0
  0
BLOCK_RECORD
  5
85C3
330
839E
100
AcDbSymbolTableRecord
100
AcDbBlockTableRecord
  2
*D42
340
0
  0
BLOCK_RECORD
  5
85D0
330
839E
100
AcDbSymbolTableRecord
100
AcDbBlockTableRecord
  2
*D43
340
0
  0
BLOCK_RECORD
  5
85DD
330
839E
100
AcDbSymbolTableRecord
100
AcDbBlockTableRecord
  2
*D44
340
0
  0
BLOCK_RECORD
  5
85EA
330
839E
100
AcDbSymbolTableRecord
100
AcDbBlockTableRecord
  2
*D45
340
0
  0
BLOCK_RECORD
  5
85F7
330
839E
100
AcDbSymbolTableRecord
100
AcDbBlockTableRecord
  2
*D46
340
0
  0
BLOCK_RECORD
  5
8609
330
839E
100
AcDbSymbolTableRecord
100
AcDbBlockTableRecord
  2
*D47
340
0
  0
BLOCK_RECORD
  5
861B
330
839E
100
AcDbSymbolTableRecord
100
AcDbBlockTableRecord
  2
*D48
340
0
  0
BLOCK_RECORD
  5
86CA
330
839E
100
AcDbSymbolTableRecord
100
AcDbBlockTableRecord
  2
_DotSmall
340
0
102
{BLKREFS
331
8730
331
86D8
102
}
  0
ENDTAB
  0
ENDSEC
  0
SECTION
  2
BLOCKS
  0
BLOCK
  5
840D
330
840C
100
AcDbEntity
  8
0
100
AcDbBlockBegin
  2
*Model_Space
 70
     0
 10
0.0
 20
0.0
 30
0.0
  3
*Model_Space
  1

  0
ENDBLK
  5
840E
330
840C
100
AcDbEntity
  8
0
100
AcDbBlockEnd
  0
BLOCK
  5
8409
330
8408
100
AcDbEntity
 67
     1
  8
0
100
AcDbBlockBegin
  2
*Paper_Space
 70
     0
 10
0.0
 20
0.0
 30
0.0
  3
*Paper_Space
  1

  0
ENDBLK
  5
840A
330
8408
100
AcDbEntity
 67
     1
  8
0
100
AcDbBlockEnd
  0
BLOCK
  5
841C
330
841B
100
AcDbEntity
  8
0
100
AcDbBlockBegin
  2
$MODEL_SPACE
 70
     0
 10
0.0
 20
0.0
 30
0.0
  3
$MODEL_SPACE
  1

  0
ENDBLK
  5
1B
330
841B
100
AcDbEntity
  8
0
100
AcDbBlockEnd
  0
BLOCK
  5
841E
330
841D
100
AcDbEntity
  8
0
100
AcDbBlockBegin
  2
$PAPER_SPACE
 70
     0
 10
0.0
 20
0.0
 30
0.0
  3
$PAPER_SPACE
  1

  0
ENDBLK
  5
18
330
841D
100
AcDbEntity
  8
0
100
AcDbBlockEnd
  0
BLOCK
  5
8420
330
841F
100
AcDbEntity
  8
0
100
AcDbBlockBegin
  2
YA_N
 70
     0
 10
0.0
 20
0.0
 30
0.0
  3
YA_N
  1

  0
ENDBLK
  5
79FE
330
841F
100
AcDbEntity
  8
0
100
AcDbBlockEnd
  0
BLOCK
  5
8422
330
8421
100
AcDbEntity
  8
0
100
AcDbBlockBegin
  2
*D3
 70
     1
 10
0.0
 20
0.0
 30
0.0
  3
*D3
  1

  0
LINE
  5
82EE
330
8421
100
AcDbEntity
  8
3
 62
     0
100
AcDbLine
 10
5391.092839011053
 20
5261.720885449071
 30
0.0
 11
5391.092839011053
 21
5530.120671915636
 31
0.0
  0
LINE
  5
82EF
330
8421
100
AcDbEntity
  8
3
 62
     0
100
AcDbLine
 10
7091.092839011054
 20
5261.720885449071
 30
0.0
 11
7091.092839011054
 21
5530.120671915636
 31
0.0
  0
LINE
  5
82F0
330
8421
100
AcDbEntity
  8
3
 62
     0
100
AcDbLine
 10
5471.092839011053
 20
5490.120671915637
 30
0.0
 11
7011.092839011054
 21
5490.120671915637
 31
0.0
  0
INSERT
  5
82F1
330
8421
100
AcDbEntity
  8
3
 62
     0
100
AcDbBlockReference
  2
_OPEN
 10
5391.092839011053
 20
5490.120671915637
 30
0.0
 41
80.0
 42
80.0
 43
80.0
 50
180.0
  0
INSERT
  5
82F2
330
8421
100
AcDbEntity
  8
3
 62
     0
100
AcDbBlockReference
  2
_OPEN
 10
7091.092839011054
 20
5490.120671915637
 30
0.0
 41
80.0
 42
80.0
 43
80.0
  0
TEXT
  5
838C
330
8421
100
AcDbEntity
  8
3
 62
     0
100
AcDbText
 10
6001.09
 20
5377.72
 30
0.0
 40
120.0
  1
1700
100
AcDbText
  0
POINT
  5
82F4
330
8421
100
AcDbEntity
  8
DEFPOINTS
 62
     0
100
AcDbPoint
 10
5391.092839011053
 20
5241.720885449071
 30
0.0
  0
POINT
  5
82F5
330
8421
100
AcDbEntity
  8
DEFPOINTS
 62
     0
100
AcDbPoint
 10
7091.092839011054
 20
5241.720885449071
 30
0.0
  0
POINT
  5
82F6
330
8421
100
AcDbEntity
  8
DEFPOINTS
 62
     0
100
AcDbPoint
 10
7091.092839011054
 20
5490.120671915637
 30
0.0
  0
ENDBLK
  5
804B
330
8421
100
AcDbEntity
  8
0
100
AcDbBlockEnd
  0
BLOCK
  5
8443
330
8423
100
AcDbEntity
  8
0
100
AcDbBlockBegin
  2
_OPEN
 70
     0
 10
0.0
 20
0.0
 30
0.0
  3
_OPEN
  1

  0
LINE
  5
7F3C
330
8423
100
AcDbEntity
  8
0
  6
ByBlock
 62
     0
100
AcDbLine
 10
-1.0
 20
0.1666666666666666
 30
0.0
 11
0.0
 21
0.0
 31
0.0
  0
LINE
  5
7F3D
330
8423
100
AcDbEntity
  8
0
  6
ByBlock
 62
     0
100
AcDbLine
 10
0.0
 20
0.0
 30
0.0
 11
-1.0
 21
-0.1666666666666666
 31
0.0
  0
LINE
  5
7F3E
330
8423
100
AcDbEntity
  8
0
  6
ByBlock
 62
     0
100
AcDbLine
 10
0.0
 20
0.0
 30
0.0
 11
-1.0
 21
0.0
 31
0.0
  0
ENDBLK
  5
7F3F
330
8423
100
AcDbEntity
  8
0
100
AcDbBlockEnd
  0
BLOCK
  5
8425
330
8424
100
AcDbEntity
  8
0
100
AcDbBlockBegin
  2
*D5
 70
     1
 10
0.0
 20
0.0
 30
0.0
  3
*D5
  1

  0
LINE
  5
82F7
330
8424
100
AcDbEntity
  8
3
 62
     0
100
AcDbLine
 10
5006.092839011054
 20
4620.800457609003
 30
0.0
 11
5006.092839011054
 21
5855.197290539809
 31
0.0
  0
LINE
  5
82F8
330
8424
100
AcDbEntity
  8
3
 62
     0
100
AcDbLine
 10
6241.092839011054
 20
5687.263901748139
 30
0.0
 11
6241.092839011054
 21
5855.197290539809
 31
0.0
  0
LINE
  5
82F9
330
8424
100
AcDbEntity
  8
3
 62
     0
100
AcDbLine
 10
5086.092839011054
 20
5815.19729053981
 30
0.0
 11
6161.092839011054
 21
5815.19729053981
 31
0.0
  0
INSERT
  5
82FA
330
8424
100
AcDbEntity
  8
3
 62
     0
100
AcDbBlockReference
  2
_OPEN
 10
5006.092839011054
 20
5815.19729053981
 30
0.0
 41
80.0
 42
80.0
 43
80.0
 50
180.0
  0
INSERT
  5
82FB
330
8424
100
AcDbEntity
  8
3
 62
     0
100
AcDbBlockReference
  2
_OPEN
 10
6241.092839011054
 20
5815.19729053981
 30
0.0
 41
80.0
 42
80.0
 43
80.0
  0
TEXT
  5
838D
330
8424
100
AcDbEntity
  8
3
 62
     0
100
AcDbText
 10
5383.59
 20
5802.800000000001
 30
0.0
 40
120.0
  1
MAX
100
AcDbText
  0
TEXT
  5
838E
330
8424
100
AcDbEntity
  8
3
 62
     0
100
AcDbText
 10
5383.59
 20
5646.8
 30
0.0
 40
120.0
  1
1280
100
AcDbText
  0
POINT
  5
82FD
330
8424
100
AcDbEntity
  8
DEFPOINTS
 62
     0
100
AcDbPoint
 10
5006.092839011054
 20
4600.800457609002
 30
0.0
  0
POINT
  5
82FE
330
8424
100
AcDbEntity
  8
DEFPOINTS
 62
     0
100
AcDbPoint
 10
6241.092839011054
 20
5667.263901748139
 30
0.0
  0
POINT
  5
82FF
330
8424
100
AcDbEntity
  8
DEFPOINTS
 62
     0
100
AcDbPoint
 10
6241.092839011054
 20
5815.19729053981
 30
0.0
  0
ENDBLK
  5
817F
330
8424
100
AcDbEntity
  8
0
100
AcDbBlockEnd
  0
BLOCK
  5
8427
330
8426
100
AcDbEntity
  8
0
100
AcDbBlockBegin
  2
*D6
 70
     1
 10
0.0
 20
0.0
 30
0.0
  3
*D6
  1

  0
LINE
  5
8300
330
8426
100
AcDbEntity
  8
3
 62
     0
100
AcDbLine
 10
6241.092839011054
 20
5687.263901748139
 30
0.0
 11
6241.092839011054
 21
5854.809703434625
 31
0.0
  0
LINE
  5
8301
330
8426
100
AcDbEntity
  8
3
 62
     0
100
AcDbLine
 10
7251.092839011054
 20
4236.13838871127
 30
0.0
 11
7251.092839011054
 21
5854.809703434625
 31
0.0
  0
LINE
  5
8302
330
8426
100
AcDbEntity
  8
3
 62
     0
100
AcDbLine
 10
6321.092839011054
 20
5814.809703434626
 30
0.0
 11
7171.092839011054
 21
5814.809703434626
 31
0.0
  0
INSERT
  5
8303
330
8426
100
AcDbEntity
  8
3
 62
     0
100
AcDbBlockReference
  2
_OPEN
 10
6241.092839011054
 20
5814.809703434626
 30
0.0
 41
80.0
 42
80.0
 43
80.0
 50
180.0
  0
INSERT
  5
8304
330
8426
100
AcDbEntity
  8
3
 62
     0
100
AcDbBlockReference
  2
_OPEN
 10
7251.092839011054
 20
5814.809703434626
 30
0.0
 41
80.0
 42
80.0
 43
80.0
  0
TEXT
  5
838F
330
8426
100
AcDbEntity
  8
3
 62
     0
100
AcDbText
 10
6506.09
 20
5733.84
 30
0.0
 40
120.0
  1
(1020)
100
AcDbText
  0
POINT
  5
8306
330
8426
100
AcDbEntity
  8
DEFPOINTS
 62
     0
100
AcDbPoint
 10
6241.092839011054
 20
5667.263901748139
 30
0.0
  0
POINT
  5
8307
330
8426
100
AcDbEntity
  8
DEFPOINTS
 62
     0
100
AcDbPoint
 10
7251.092839011054
 20
4216.13838871127
 30
0.0
  0
POINT
  5
8308
330
8426
100
AcDbEntity
  8
DEFPOINTS
 62
     0
100
AcDbPoint
 10
7251.092839011054
 20
5814.809703434626
 30
0.0
  0
ENDBLK
  5
818A
330
8426
100
AcDbEntity
  8
0
100
AcDbBlockEnd
  0
BLOCK
  5
8429
330
8428
100
AcDbEntity
  8
0
100
AcDbBlockBegin
  2
*D7
 70
     1
 10
0.0
 20
0.0
 30
0.0
  3
*D7
  1

  0
LINE
  5
8309
330
8428
100
AcDbEntity
  8
3
 62
     0
100
AcDbLine
 10
7113.392839011054
 20
4945.800457609003
 30
0.0
 11
7574.264341757109
 21
4945.800457609003
 31
0.0
  0
LINE
  5
830A
330
8428
100
AcDbEntity
  8
3
 62
     0
100
AcDbLine
 10
7113.392839011054
 20
3695.800457609001
 30
0.0
 11
7574.264341757109
 21
3695.800457609001
 31
0.0
  0
LINE
  5
830B
330
8428
100
AcDbEntity
  8
3
 62
     0
100
AcDbLine
 10
7534.264341757111
 20
4865.800457609004
 30
0.0
 11
7534.264341757111
 21
3775.800457609001
 31
0.0
  0
INSERT
  5
830C
330
8428
100
AcDbEntity
  8
3
 62
     0
100
AcDbBlockReference
  2
_OPEN
 10
7534.264341757111
 20
4945.800457609003
 30
0.0
 41
80.0
 42
80.0
 43
80.0
 50
90.0
  0
INSERT
  5
830D
330
8428
100
AcDbEntity
  8
3
 62
     0
100
AcDbBlockReference
  2
_OPEN
 10
7534.264341757111
 20
3695.800457609001
 30
0.0
 41
80.0
 42
80.0
 43
80.0
 50
270.0
  0
TEXT
  5
8390
330
8428
100
AcDbEntity
  8
3
 62
     0
100
AcDbText
 10
7194.259999999999
 20
4108.399999999999
 30
0.0
 40
120.0
  1
\U+03C61250
100
AcDbText
  0
POINT
  5
830F
330
8428
100
AcDbEntity
  8
DEFPOINTS
 62
     0
100
AcDbPoint
 10
7093.392839011054
 20
4945.800457609003
 30
0.0
  0
POINT
  5
8310
330
8428
100
AcDbEntity
  8
DEFPOINTS
 62
     0
100
AcDbPoint
 10
7093.392839011054
 20
3695.800457609001
 30
0.0
  0
POINT
  5
8311
330
8428
100
AcDbEntity
  8
DEFPOINTS
 62
     0
100
AcDbPoint
 10
7534.264341757111
 20
3695.800457609001
 30
0.0
  0
ENDBLK
  5
80DD
330
8428
100
AcDbEntity
  8
0
100
AcDbBlockEnd
  0
BLOCK
  5
842B
330
842A
100
AcDbEntity
  8
0
100
AcDbBlockBegin
  2
*D8
 70
     1
 10
0.0
 20
0.0
 30
0.0
  3
*D8
  1

  0
LINE
  5
8312
330
842A
100
AcDbEntity
  8
3
 62
     0
100
AcDbLine
 10
3616.156955993239
 20
8648.31161293584
 30
0.0
 11
4085.173097229072
 21
8648.31161293584
 31
0.0
  0
LINE
  5
8313
330
842A
100
AcDbEntity
  8
3
 62
     0
100
AcDbLine
 10
3616.156955993239
 20
6528.311612935839
 30
0.0
 11
4085.173097229072
 21
6528.311612935839
 31
0.0
  0
LINE
  5
8314
330
842A
100
AcDbEntity
  8
3
 62
     0
100
AcDbLine
 10
4045.173097229072
 20
8568.311612935836
 30
0.0
 11
4045.173097229072
 21
6608.311612935839
 31
0.0
  0
INSERT
  5
8315
330
842A
100
AcDbEntity
  8
3
 62
     0
100
AcDbBlockReference
  2
_OPEN
 10
4045.173097229072
 20
8648.31161293584
 30
0.0
 41
80.0
 42
80.0
 43
80.0
 50
90.0
  0
INSERT
  5
8316
330
842A
100
AcDbEntity
  8
3
 62
     0
100
AcDbBlockReference
  2
_OPEN
 10
4045.173097229072
 20
6528.311612935839
 30
0.0
 41
80.0
 42
80.0
 43
80.0
 50
270.0
  0
TEXT
  5
8391
330
842A
100
AcDbEntity
  8
3
 62
     0
100
AcDbText
 10
3705.170000000001
 20
7375.910000000001
 30
0.0
 40
120.0
  1
2120
100
AcDbText
  0
POINT
  5
8318
330
842A
100
AcDbEntity
  8
DEFPOINTS
 62
     0
100
AcDbPoint
 10
3596.156955993239
 20
8648.31161293584
 30
0.0
  0
POINT
  5
8319
330
842A
100
AcDbEntity
  8
DEFPOINTS
 62
     0
100
AcDbPoint
 10
3596.156955993239
 20
6528.311612935839
 30
0.0
  0
POINT
  5
831A
330
842A
100
AcDbEntity
  8
DEFPOINTS
 62
     0
100
AcDbPoint
 10
4045.173097229072
 20
6528.311612935839
 30
0.0
  0
ENDBLK
  5
7FFE
330
842A
100
AcDbEntity
  8
0
100
AcDbBlockEnd
  0
BLOCK
  5
842D
330
842C
100
AcDbEntity
  8
0
100
AcDbBlockBegin
  2
*D9
 70
     1
 10
0.0
 20
0.0
 30
0.0
  3
*D9
  1

  0
LINE
  5
831B
330
842C
100
AcDbEntity
  8
3
 62
     0
100
AcDbLine
 10
3596.156955993239
 20
8668.311612935836
 30
0.0
 11
3596.156955993239
 21
8892.947751441026
 31
0.0
  0
LINE
  5
831C
330
842C
100
AcDbEntity
  8
3
 62
     0
100
AcDbLine
 10
2096.156955993238
 20
8668.311612935841
 30
0.0
 11
2096.156955993238
 21
8892.947751441026
 31
0.0
  0
LINE
  5
831D
330
842C
100
AcDbEntity
  8
3
 62
     0
100
AcDbLine
 10
3516.156955993239
 20
8852.947751441025
 30
0.0
 11
2176.156955993238
 21
8852.947751441025
 31
0.0
  0
INSERT
  5
831E
330
842C
100
AcDbEntity
  8
3
 62
     0
100
AcDbBlockReference
  2
_OPEN
 10
3596.156955993239
 20
8852.947751441025
 30
0.0
 41
80.0
 42
80.0
 43
80.0
  0
INSERT
  5
831F
330
842C
100
AcDbEntity
  8
3
 62
     0
100
AcDbBlockReference
  2
_OPEN
 10
2096.156955993238
 20
8852.947751441025
 30
0.0
 41
80.0
 42
80.0
 43
80.0
 50
180.0
  0
TEXT
  5
8392
330
842C
100
AcDbEntity
  8
3
 62
     0
100
AcDbText
 10
2606.16
 20
8740.549999999998
 30
0.0
 40
120.0
  1
1500
100
AcDbText
  0
POINT
  5
8321
330
842C
100
AcDbEntity
  8
DEFPOINTS
 62
     0
100
AcDbPoint
 10
3596.156955993239
 20
8648.31161293584
 30
0.0
  0
POINT
  5
8322
330
842C
100
AcDbEntity
  8
DEFPOINTS
 62
     0
100
AcDbPoint
 10
2096.156955993238
 20
8648.31161293584
 30
0.0
  0
POINT
  5
8323
330
842C
100
AcDbEntity
  8
DEFPOINTS
 62
     0
100
AcDbPoint
 10
2096.156955993238
 20
8852.947751441025
 30
0.0
  0
ENDBLK
  5
7FF3
330
842C
100
AcDbEntity
  8
0
100
AcDbBlockEnd
  0
BLOCK
  5
842F
330
842E
100
AcDbEntity
  8
0
100
AcDbBlockBegin
  2
*D10
 70
     1
 10
0.0
 20
0.0
 30
0.0
  3
*D10
  1

  0
LINE
  5
8324
330
842E
100
AcDbEntity
  8
3
 62
     0
100
AcDbLine
 10
2096.156955993238
 20
8668.311612935841
 30
0.0
 11
2096.156955993238
 21
8892.947751441026
 31
0.0
  0
LINE
  5
8325
330
842E
100
AcDbEntity
  8
3
 62
     0
100
AcDbLine
 10
1146.156955993237
 20
7548.311612935838
 30
0.0
 11
1146.156955993237
 21
8892.947751441026
 31
0.0
  0
LINE
  5
8326
330
842E
100
AcDbEntity
  8
3
 62
     0
100
AcDbLine
 10
2016.156955993237
 20
8852.947751441025
 30
0.0
 11
1226.156955993237
 21
8852.947751441025
 31
0.0
  0
INSERT
  5
8327
330
842E
100
AcDbEntity
  8
3
 62
     0
100
AcDbBlockReference
  2
_OPEN
 10
2096.156955993238
 20
8852.947751441025
 30
0.0
 41
80.0
 42
80.0
 43
80.0
  0
INSERT
  5
8328
330
842E
100
AcDbEntity
  8
3
 62
     0
100
AcDbBlockReference
  2
_OPEN
 10
1146.156955993237
 20
8852.947751441025
 30
0.0
 41
80.0
 42
80.0
 43
80.0
 50
180.0
  0
TEXT
  5
8393
330
842E
100
AcDbEntity
  8
3
 62
     0
100
AcDbText
 10
1381.16
 20
8740.549999999998
 30
0.0
 40
120.0
  1
950
100
AcDbText
  0
POINT
  5
832A
330
842E
100
AcDbEntity
  8
DEFPOINTS
 62
     0
100
AcDbPoint
 10
2096.156955993238
 20
8648.31161293584
 30
0.0
  0
POINT
  5
832B
330
842E
100
AcDbEntity
  8
DEFPOINTS
 62
     0
100
AcDbPoint
 10
1146.156955993237
 20
7528.311612935842
 30
0.0
  0
POINT
  5
832C
330
842E
100
AcDbEntity
  8
DEFPOINTS
 62
     0
100
AcDbPoint
 10
1146.156955993237
 20
8852.947751441025
 30
0.0
  0
ENDBLK
  5
7FE8
330
842E
100
AcDbEntity
  8
0
100
AcDbBlockEnd
  0
BLOCK
  5
8431
330
8430
100
AcDbEntity
  8
0
100
AcDbBlockBegin
  2
*D11
 70
     1
 10
0.0
 20
0.0
 30
0.0
  3
*D11
  1

  0
LINE
  5
832D
330
8430
100
AcDbEntity
  8
3
 62
     0
100
AcDbLine
 10
1126.156955993237
 20
7528.311612935842
 30
0.0
 11
839.830554885659
 21
7528.311612935842
 31
0.0
  0
LINE
  5
832E
330
8430
100
AcDbEntity
  8
3
 62
     0
100
AcDbLine
 10
1126.156955993237
 20
6528.311612935842
 30
0.0
 11
839.8305548856585
 21
6528.311612935842
 31
0.0
  0
LINE
  5
832F
330
8430
100
AcDbEntity
  8
3
 62
     0
100
AcDbLine
 10
879.8305548856589
 20
7448.311612935842
 30
0.0
 11
879.8305548856586
 21
6608.31161293584
 31
0.0
  0
INSERT
  5
8330
330
8430
100
AcDbEntity
  8
3
 62
     0
100
AcDbBlockReference
  2
_OPEN
 10
879.8305548856589
 20
7528.311612935842
 30
0.0
 41
80.0
 42
80.0
 43
80.0
 50
90.0
  0
INSERT
  5
8331
330
8430
100
AcDbEntity
  8
3
 62
     0
100
AcDbBlockReference
  2
_OPEN
 10
879.8305548856586
 20
6528.311612935842
 30
0.0
 41
80.0
 42
80.0
 43
80.0
 50
270.0
  0
TEXT
  5
8394
330
8430
100
AcDbEntity
  8
3
 62
     0
100
AcDbText
 10
539.831
 20
6815.909999999999
 30
0.0
 40
120.0
  1
1000
100
AcDbText
  0
POINT
  5
8333
330
8430
100
AcDbEntity
  8
DEFPOINTS
 62
     0
100
AcDbPoint
 10
1146.156955993237
 20
7528.311612935842
 30
0.0
  0
POINT
  5
8334
330
8430
100
AcDbEntity
  8
DEFPOINTS
 62
     0
100
AcDbPoint
 10
1146.156955993237
 20
6528.311612935842
 30
0.0
  0
POINT
  5
8335
330
8430
100
AcDbEntity
  8
DEFPOINTS
 62
     0
100
AcDbPoint
 10
879.8305548856586
 20
6528.311612935842
 30
0.0
  0
ENDBLK
  5
7FDD
330
8430
100
AcDbEntity
  8
0
100
AcDbBlockEnd
  0
BLOCK
  5
8433
330
8432
100
AcDbEntity
  8
0
100
AcDbBlockBegin
  2
*D12
 70
     1
 10
0.0
 20
0.0
 30
0.0
  3
*D12
  1

  0
LINE
  5
8336
330
8432
100
AcDbEntity
  8
3
 62
     0
100
AcDbLine
 10
1146.156955993237
 20
6508.31161293584
 30
0.0
 11
1146.156955993237
 21
6123.557734746188
 31
0.0
  0
LINE
  5
8337
330
8432
100
AcDbEntity
  8
3
 62
     0
100
AcDbLine
 10
3596.156955993239
 20
6508.311612935838
 30
0.0
 11
3596.156955993239
 21
6123.557734746188
 31
0.0
  0
LINE
  5
8338
330
8432
100
AcDbEntity
  8
3
 62
     0
100
AcDbLine
 10
1226.156955993237
 20
6163.557734746188
 30
0.0
 11
3516.156955993239
 21
6163.557734746188
 31
0.0
  0
INSERT
  5
8339
330
8432
100
AcDbEntity
  8
3
 62
     0
100
AcDbBlockReference
  2
_OPEN
 10
1146.156955993237
 20
6163.557734746188
 30
0.0
 41
80.0
 42
80.0
 43
80.0
 50
180.0
  0
INSERT
  5
833A
330
8432
100
AcDbEntity
  8
3
 62
     0
100
AcDbBlockReference
  2
_OPEN
 10
3596.156955993239
 20
6163.557734746188
 30
0.0
 41
80.0
 42
80.0
 43
80.0
  0
TEXT
  5
8395
330
8432
100
AcDbEntity
  8
3
 62
     0
100
AcDbText
 10
2131.16
 20
6051.16
 30
0.0
 40
120.0
  1
2450
100
AcDbText
  0
POINT
  5
833C
330
8432
100
AcDbEntity
  8
DEFPOINTS
 62
     0
100
AcDbPoint
 10
1146.156955993237
 20
6528.311612935842
 30
0.0
  0
POINT
  5
833D
330
8432
100
AcDbEntity
  8
DEFPOINTS
 62
     0
100
AcDbPoint
 10
3596.156955993239
 20
6528.311612935839
 30
0.0
  0
POINT
  5
833E
330
8432
100
AcDbEntity
  8
DEFPOINTS
 62
     0
100
AcDbPoint
 10
3596.156955993239
 20
6163.557734746188
 30
0.0
  0
ENDBLK
  5
7FD2
330
8432
100
AcDbEntity
  8
0
100
AcDbBlockEnd
  0
BLOCK
  5
8435
330
8434
100
AcDbEntity
  8
0
100
AcDbBlockBegin
  2
*D13
 70
     1
 10
0.0
 20
0.0
 30
0.0
  3
*D13
  1

  0
LINE
  5
833F
330
8434
100
AcDbEntity
  8
3
 62
     0
100
AcDbLine
 10
3691.156955993239
 20
2986.800457609002
 30
0.0
 11
3964.167988683195
 21
2986.800457609002
 31
0.0
  0
LINE
  5
8340
330
8434
100
AcDbEntity
  8
3
 62
     0
100
AcDbLine
 10
3691.156955993239
 20
4266.800457609003
 30
0.0
 11
3964.167988683195
 21
4266.800457609003
 31
0.0
  0
LINE
  5
8341
330
8434
100
AcDbEntity
  8
3
 62
     0
100
AcDbLine
 10
3924.167988683194
 20
3066.800457609002
 30
0.0
 11
3924.167988683194
 21
4186.800457609002
 31
0.0
  0
INSERT
  5
8342
330
8434
100
AcDbEntity
  8
3
 62
     0
100
AcDbBlockReference
  2
_OPEN
 10
3924.167988683194
 20
2986.800457609002
 30
0.0
 41
80.0
 42
80.0
 43
80.0
 50
270.0
  0
INSERT
  5
8343
330
8434
100
AcDbEntity
  8
3
 62
     0
100
AcDbBlockReference
  2
_OPEN
 10
3924.167988683194
 20
4266.800457609003
 30
0.0
 41
80.0
 42
80.0
 43
80.0
 50
90.0
  0
TEXT
  5
8396
330
8434
100
AcDbEntity
  8
3
 62
     0
100
AcDbText
 10
3584.17
 20
3414.4
 30
0.0
 40
120.0
  1
1280
100
AcDbText
  0
POINT
  5
8345
330
8434
100
AcDbEntity
  8
DEFPOINTS
 62
     0
100
AcDbPoint
 10
3671.156955993239
 20
2986.800457609002
 30
0.0
  0
POINT
  5
8346
330
8434
100
AcDbEntity
  8
DEFPOINTS
 62
     0
100
AcDbPoint
 10
3671.156955993239
 20
4266.800457609003
 30
0.0
  0
POINT
  5
8347
330
8434
100
AcDbEntity
  8
DEFPOINTS
 62
     0
100
AcDbPoint
 10
3924.167988683194
 20
4266.800457609003
 30
0.0
  0
ENDBLK
  5
7FBC
330
8434
100
AcDbEntity
  8
0
100
AcDbBlockEnd
  0
BLOCK
  5
8437
330
8436
100
AcDbEntity
  8
0
100
AcDbBlockBegin
  2
*D14
 70
     1
 10
0.0
 20
0.0
 30
0.0
  3
*D14
  1

  0
LINE
  5
8348
330
8436
100
AcDbEntity
  8
3
 62
     0
100
AcDbLine
 10
3691.156955993239
 20
2986.800457609002
 30
0.0
 11
4211.230831139725
 21
2986.800457609002
 31
0.0
  0
LINE
  5
8349
330
8436
100
AcDbEntity
  8
3
 62
     0
100
AcDbLine
 10
3769.593494242089
 20
4320.800457609002
 30
0.0
 11
4211.230831139725
 21
4320.800457609002
 31
0.0
  0
LINE
  5
834A
330
8436
100
AcDbEntity
  8
3
 62
     0
100
AcDbLine
 10
4171.230831139723
 20
3066.800457609002
 30
0.0
 11
4171.230831139723
 21
4240.800457609004
 31
0.0
  0
INSERT
  5
834B
330
8436
100
AcDbEntity
  8
3
 62
     0
100
AcDbBlockReference
  2
_OPEN
 10
4171.230831139723
 20
2986.800457609002
 30
0.0
 41
80.0
 42
80.0
 43
80.0
 50
270.0
  0
INSERT
  5
834C
330
8436
100
AcDbEntity
  8
3
 62
     0
100
AcDbBlockReference
  2
_OPEN
 10
4171.230831139723
 20
4320.800457609002
 30
0.0
 41
80.0
 42
80.0
 43
80.0
 50
90.0
  0
TEXT
  5
8397
330
8436
100
AcDbEntity
  8
3
 62
     0
100
AcDbText
 10
3831.23
 20
3441.4
 30
0.0
 40
120.0
  1
1334
100
AcDbText
  0
POINT
  5
834E
330
8436
100
AcDbEntity
  8
DEFPOINTS
 62
     0
100
AcDbPoint
 10
3671.156955993239
 20
2986.800457609002
 30
0.0
  0
POINT
  5
834F
330
8436
100
AcDbEntity
  8
DEFPOINTS
 62
     0
100
AcDbPoint
 10
3749.593494242089
 20
4320.800457609002
 30
0.0
  0
POINT
  5
8350
330
8436
100
AcDbEntity
  8
DEFPOINTS
 62
     0
100
AcDbPoint
 10
4171.230831139723
 20
4320.800457609002
 30
0.0
  0
ENDBLK
  5
7FB1
330
8436
100
AcDbEntity
  8
0
100
AcDbBlockEnd
  0
BLOCK
  5
8439
330
8438
100
AcDbEntity
  8
0
100
AcDbBlockBegin
  2
*D15
 70
     1
 10
0.0
 20
0.0
 30
0.0
  3
*D15
  1

  0
LINE
  5
8351
330
8438
100
AcDbEntity
  8
3
 62
     0
100
AcDbLine
 10
1770.70121315513
 20
4340.800457609002
 30
0.0
 11
1770.70121315513
 21
5525.312615694231
 31
0.0
  0
LINE
  5
8352
330
8438
100
AcDbEntity
  8
3
 62
     0
100
AcDbLine
 10
2846.156955993239
 20
5419.935007000526
 30
0.0
 11
2846.156955993239
 21
5525.312615694231
 31
0.0
  0
LINE
  5
8353
330
8438
100
AcDbEntity
  8
3
 62
     0
100
AcDbLine
 10
1850.70121315513
 20
5485.312615694231
 30
0.0
 11
2766.156955993237
 21
5485.312615694231
 31
0.0
  0
INSERT
  5
8354
330
8438
100
AcDbEntity
  8
3
 62
     0
100
AcDbBlockReference
  2
_OPEN
 10
1770.70121315513
 20
5485.312615694231
 30
0.0
 41
80.0
 42
80.0
 43
80.0
 50
180.0
  0
INSERT
  5
8355
330
8438
100
AcDbEntity
  8
3
 62
     0
100
AcDbBlockReference
  2
_OPEN
 10
2846.156955993239
 20
5485.312615694231
 30
0.0
 41
80.0
 42
80.0
 43
80.0
  0
TEXT
  5
8398
330
8438
100
AcDbEntity
  8
3
 62
     0
100
AcDbText
 10
2068.43
 20
5372.91
 30
0.0
 40
120.0
  1
1079
100
AcDbText
  0
POINT
  5
8357
330
8438
100
AcDbEntity
  8
DEFPOINTS
 62
     0
100
AcDbPoint
 10
1770.70121315513
 20
4320.800457609002
 30
0.0
  0
POINT
  5
8358
330
8438
100
AcDbEntity
  8
DEFPOINTS
 62
     0
100
AcDbPoint
 10
2846.156955993239
 20
5399.935007000528
 30
0.0
  0
POINT
  5
8359
330
8438
100
AcDbEntity
  8
DEFPOINTS
 62
     0
100
AcDbPoint
 10
2846.156955993239
 20
5485.312615694231
 30
0.0
  0
ENDBLK
  5
7F90
330
8438
100
AcDbEntity
  8
0
100
AcDbBlockEnd
  0
BLOCK
  5
843B
330
843A
100
AcDbEntity
  8
0
100
AcDbBlockBegin
  2
*D16
 70
     1
 10
0.0
 20
0.0
 30
0.0
  3
*D16
  1

  0
LINE
  5
835A
330
843A
100
AcDbEntity
  8
3
 62
     0
100
AcDbLine
 10
2846.156955993239
 20
5419.935007000526
 30
0.0
 11
2846.156955993239
 21
5525.312615694231
 31
0.0
  0
LINE
  5
835B
330
843A
100
AcDbEntity
  8
3
 62
     0
100
AcDbLine
 10
3671.156955993239
 20
4339.800457609001
 30
0.0
 11
3671.156955993239
 21
5525.312615694231
 31
0.0
  0
LINE
  5
835C
330
843A
100
AcDbEntity
  8
3
 62
     0
100
AcDbLine
 10
2926.156955993239
 20
5485.312615694231
 30
0.0
 11
3591.156955993239
 21
5485.312615694231
 31
0.0
  0
INSERT
  5
835D
330
843A
100
AcDbEntity
  8
3
 62
     0
100
AcDbBlockReference
  2
_OPEN
 10
2846.156955993239
 20
5485.312615694231
 30
0.0
 41
80.0
 42
80.0
 43
80.0
 50
180.0
  0
INSERT
  5
835E
330
843A
100
AcDbEntity
  8
3
 62
     0
100
AcDbBlockReference
  2
_OPEN
 10
3671.156955993239
 20
5485.312615694231
 30
0.0
 41
80.0
 42
80.0
 43
80.0
  0
TEXT
  5
8399
330
843A
100
AcDbEntity
  8
3
 62
     0
100
AcDbText
 10
3018.66
 20
5372.91
 30
0.0
 40
120.0
  1
825
100
AcDbText
  0
POINT
  5
8360
330
843A
100
AcDbEntity
  8
DEFPOINTS
 62
     0
100
AcDbPoint
 10
2846.156955993239
 20
5399.935007000528
 30
0.0
  0
POINT
  5
8361
330
843A
100
AcDbEntity
  8
DEFPOINTS
 62
     0
100
AcDbPoint
 10
3671.156955993239
 20
4319.800457609001
 30
0.0
  0
POINT
  5
8362
330
843A
100
AcDbEntity
  8
DEFPOINTS
 62
     0
100
AcDbPoint
 10
3671.156955993239
 20
5485.312615694231
 30
0.0
  0
ENDBLK
  5
7F85
330
843A
100
AcDbEntity
  8
0
100
AcDbBlockEnd
  0
BLOCK
  5
843D
330
843C
100
AcDbEntity
  8
0
100
AcDbBlockBegin
  2
*D17
 70
     1
 10
0.0
 20
0.0
 30
0.0
  3
*D17
  1

  0
LINE
  5
8363
330
843C
100
AcDbEntity
  8
3
 62
     0
100
AcDbLine
 10
3769.593494242089
 20
4320.800457609002
 30
0.0
 11
4462.346544791297
 21
4320.800457609002
 31
0.0
  0
LINE
  5
8364
330
843C
100
AcDbEntity
  8
3
 62
     0
100
AcDbLine
 10
3616.156955993239
 20
2890.800457609002
 30
0.0
 11
4462.346544791297
 21
2890.800457609002
 31
0.0
  0
LINE
  5
8365
330
843C
100
AcDbEntity
  8
3
 62
     0
100
AcDbLine
 10
4422.346544791297
 20
4240.800457609004
 30
0.0
 11
4422.346544791297
 21
2970.800457609002
 31
0.0
  0
INSERT
  5
8366
330
843C
100
AcDbEntity
  8
3
 62
     0
100
AcDbBlockReference
  2
_OPEN
 10
4422.346544791297
 20
4320.800457609002
 30
0.0
 41
80.0
 42
80.0
 43
80.0
 50
90.0
  0
INSERT
  5
8367
330
843C
100
AcDbEntity
  8
3
 62
     0
100
AcDbBlockReference
  2
_OPEN
 10
4422.346544791297
 20
2890.800457609002
 30
0.0
 41
80.0
 42
80.0
 43
80.0
 50
270.0
  0
TEXT
  5
839A
330
843C
100
AcDbEntity
  8
3
 62
     0
100
AcDbText
 10
4082.35
 20
3393.400000000001
 30
0.0
 40
120.0
  1
1430
100
AcDbText
  0
POINT
  5
8369
330
843C
100
AcDbEntity
  8
DEFPOINTS
 62
     0
100
AcDbPoint
 10
3749.593494242089
 20
4320.800457609002
 30
0.0
  0
POINT
  5
836A
330
843C
100
AcDbEntity
  8
DEFPOINTS
 62
     0
100
AcDbPoint
 10
3596.156955993239
 20
2890.800457609002
 30
0.0
  0
POINT
  5
836B
330
843C
100
AcDbEntity
  8
DEFPOINTS
 62
     0
100
AcDbPoint
 10
4422.346544791297
 20
2890.800457609002
 30
0.0
  0
ENDBLK
  5
7F7A
330
843C
100
AcDbEntity
  8
0
100
AcDbBlockEnd
  0
BLOCK
  5
843F
330
843E
100
AcDbEntity
  8
0
100
AcDbBlockBegin
  2
*D18
 70
     1
 10
0.0
 20
0.0
 30
0.0
  3
*D18
  1

  0
LINE
  5
836C
330
843E
100
AcDbEntity
  8
3
 62
     0
100
AcDbLine
 10
3769.593494242089
 20
4320.800457609002
 30
0.0
 11
4462.346544791297
 21
4320.800457609002
 31
0.0
  0
LINE
  5
836D
330
843E
100
AcDbEntity
  8
3
 62
     0
100
AcDbLine
 10
2775.156955993237
 20
5217.800457609002
 30
0.0
 11
4462.346544791297
 21
5217.800457609002
 31
0.0
  0
LINE
  5
836E
330
843E
100
AcDbEntity
  8
3
 62
     0
100
AcDbLine
 10
4422.346544791297
 20
4400.800457609001
 30
0.0
 11
4422.346544791297
 21
5137.800457609003
 31
0.0
  0
INSERT
  5
836F
330
843E
100
AcDbEntity
  8
3
 62
     0
100
AcDbBlockReference
  2
_OPEN
 10
4422.346544791297
 20
4320.800457609002
 30
0.0
 41
80.0
 42
80.0
 43
80.0
 50
270.0
  0
INSERT
  5
8370
330
843E
100
AcDbEntity
  8
3
 62
     0
100
AcDbBlockReference
  2
_OPEN
 10
4422.346544791297
 20
5217.800457609002
 30
0.0
 41
80.0
 42
80.0
 43
80.0
 50
90.0
  0
TEXT
  5
839B
330
843E
100
AcDbEntity
  8
3
 62
     0
100
AcDbText
 10
4082.35
 20
4556.899999999999
 30
0.0
 40
120.0
  1
897
100
AcDbText
  0
POINT
  5
8372
330
843E
100
AcDbEntity
  8
DEFPOINTS
 62
     0
100
AcDbPoint
 10
3749.593494242089
 20
4320.800457609002
 30
0.0
  0
POINT
  5
8373
330
843E
100
AcDbEntity
  8
DEFPOINTS
 62
     0
100
AcDbPoint
 10
2755.156955993238
 20
5217.800457609002
 30
0.0
  0
POINT
  5
8374
330
843E
100
AcDbEntity
  8
DEFPOINTS
 62
     0
100
AcDbPoint
 10
4422.346544791297
 20
5217.800457609002
 30
0.0
  0
ENDBLK
  5
7F64
330
843E
100
AcDbEntity
  8
0
100
AcDbBlockEnd
  0
BLOCK
  5
8441
330
8440
100
AcDbEntity
  8
0
100
AcDbBlockBegin
  2
*D19
 70
     1
 10
0.0
 20
0.0
 30
0.0
  3
*D19
  1

  0
LINE
  5
8375
330
8440
100
AcDbEntity
  8
3
 62
     0
100
AcDbLine
 10
3616.156955993239
 20
2870.800457609002
 30
0.0
 11
4462.346544791297
 21
2870.800457609002
 31
0.0
  0
LINE
  5
8376
330
8440
100
AcDbEntity
  8
3
 62
     0
100
AcDbLine
 10
3616.156955993239
 20
2805.800457609002
 30
0.0
 11
4462.346544791297
 21
2805.800457609002
 31
0.0
  0
LINE
  5
8377
330
8440
100
AcDbEntity
  8
3
 62
     0
100
AcDbLine
 10
4422.346544791297
 20
2950.800457609002
 30
0.0
 11
4422.346544791297
 21
3030.800457609002
 31
0.0
  0
LINE
  5
8378
330
8440
100
AcDbEntity
  8
3
 62
     0
100
AcDbLine
 10
4422.346544791297
 20
2725.800457609002
 30
0.0
 11
4422.346544791297
 21
2371.514743323288
 31
0.0
  0
LINE
  5
8379
330
8440
100
AcDbEntity
  8
3
 62
     0
100
AcDbLine
 10
4422.346544791297
 20
2870.800457609002
 30
0.0
 11
4422.346544791297
 21
2805.800457609002
 31
0.0
  0
INSERT
  5
837A
330
8440
100
AcDbEntity
  8
3
 62
     0
100
AcDbBlockReference
  2
_DOT
 10
4422.346544791297
 20
2870.800457609002
 30
0.0
 41
80.0
 42
80.0
 43
80.0
 50
270.0
  0
INSERT
  5
837B
330
8440
100
AcDbEntity
  8
3
 62
     0
100
AcDbBlockReference
  2
_OPEN
 10
4422.346544791297
 20
2805.800457609002
 30
0.0
 41
80.0
 42
80.0
 43
80.0
 50
90.0
  0
TEXT
  5
839C
330
8440
100
AcDbEntity
  8
3
 62
     0
100
AcDbText
 10
4082.35
 20
2296.26
 30
0.0
 40
120.0
  1
65
100
AcDbText
  0
POINT
  5
837D
330
8440
100
AcDbEntity
  8
DEFPOINTS
 62
     0
100
AcDbPoint
 10
3596.156955993239
 20
2870.800457609002
 30
0.0
  0
POINT
  5
837E
330
8440
100
AcDbEntity
  8
DEFPOINTS
 62
     0
100
AcDbPoint
 10
3596.156955993239
 20
2805.800457609002
 30
0.0
  0
POINT
  5
837F
330
8440
100
AcDbEntity
  8
DEFPOINTS
 62
     0
100
AcDbPoint
 10
4422.346544791297
 20
2805.800457609002
 30
0.0
  0
ENDBLK
  5
8119
330
8440
100
AcDbEntity
  8
0
100
AcDbBlockEnd
  0
BLOCK
  5
8444
330
8442
100
AcDbEntity
  8
0
100
AcDbBlockBegin
  2
_DOT
 70
     0
 10
0.0
 20
0.0
 30
0.0
  3
_DOT
  1

  0
LINE
  5
811A
330
8442
100
AcDbEntity
  8
0
  6
ByBlock
 62
     0
100
AcDbLine
 10
0.0
 20
0.0
 30
0.0
 11
-1.0
 21
-0.0000000000000284
 31
0.0
  0
LWPOLYLINE
  5
811B
330
8442
100
AcDbEntity
  8
0
  6
ByBlock
 62
     0
100
AcDbPolyline
 90
        2
 70
     1
 43
0.1666666666666666
 10
-0.0833333333333286
 20
-0.0000000000000284
 42
1.0
 10
0.0833333333333286
 20
-0.0000000000000284
 42
1.0
  0
ENDBLK
  5
80E5
330
8442
100
AcDbEntity
  8
0
100
AcDbBlockEnd
  0
BLOCK
  5
8446
330
8445
100
AcDbEntity
  8
0
100
AcDbBlockBegin
  2
*D21
 70
     1
 10
0.0
 20
0.0
 30
0.0
  3
*D21
  1

  0
LINE
  5
8383
330
8445
100
AcDbEntity
  8
3
 62
     0
100
AcDbLine
 10
3671.156955993239
 20
4339.800457609001
 30
0.0
 11
3671.156955993239
 21
5778.269218418994
 31
0.0
  0
LINE
  5
8384
330
8445
100
AcDbEntity
  8
3
 62
     0
100
AcDbLine
 10
1146.156955993237
 20
3035.800457609002
 30
0.0
 11
1146.156955993238
 21
5778.269218418994
 31
0.0
  0
LINE
  5
8385
330
8445
100
AcDbEntity
  8
3
 62
     0
100
AcDbLine
 10
3591.156955993239
 20
5738.269218418995
 30
0.0
 11
1226.156955993237
 21
5738.269218418995
 31
0.0
  0
INSERT
  5
8386
330
8445
100
AcDbEntity
  8
3
 62
     0
100
AcDbBlockReference
  2
_OPEN
 10
3671.156955993239
 20
5738.269218418995
 30
0.0
 41
80.0
 42
80.0
 43
80.0
  0
INSERT
  5
8387
330
8445
100
AcDbEntity
  8
3
 62
     0
100
AcDbBlockReference
  2
_OPEN
 10
1146.156955993238
 20
5738.269218418995
 30
0.0
 41
80.0
 42
80.0
 43
80.0
 50
180.0
  0
TEXT
  5
839D
330
8445
100
AcDbEntity
  8
3
 62
     0
100
AcDbText
 10
2307.04
 20
5625.869999999999
 30
0.0
 40
120.0
  1
2525
100
AcDbText
  0
POINT
  5
8389
330
8445
100
AcDbEntity
  8
DEFPOINTS
 62
     0
100
AcDbPoint
 10
3671.156955993239
 20
4319.800457609001
 30
0.0
  0
POINT
  5
838A
330
8445
100
AcDbEntity
  8
DEFPOINTS
 62
     0
100
AcDbPoint
 10
1146.156955993237
 20
3015.800457609002
 30
0.0
  0
POINT
  5
838B
330
8445
100
AcDbEntity
  8
DEFPOINTS
 62
     0
100
AcDbPoint
 10
1146.156955993238
 20
5738.269218418995
 30
0.0
  0
ENDBLK
  5
813E
330
8445
100
AcDbEntity
  8
0
100
AcDbBlockEnd
  0
BLOCK
  5
8448
330
8447
100
AcDbEntity
  8
0
100
AcDbBlockBegin
  2
*D22
 70
     1
 10
0.0
 20
0.0
 30
0.0
  3
*D22
  1

  0
LINE
  5
819F
330
8447
100
AcDbEntity
  8
0
  6
ByBlock
 62
     0
100
AcDbLine
 10
1146.156955993237
 20
2785.800457609002
 30
0.0
 11
1146.156955993237
 21
2494.190241232678
 31
0.0
  0
LINE
  5
81A0
330
8447
100
AcDbEntity
  8
0
  6
ByBlock
 62
     0
100
AcDbLine
 10
2846.156955993239
 20
2785.800457609002
 30
0.0
 11
2846.156955993239
 21
2494.190241232678
 31
0.0
  0
LINE
  5
81A1
330
8447
100
AcDbEntity
  8
0
  6
ByBlock
 62
     0
100
AcDbLine
 10
1226.156955993237
 20
2534.190241232678
 30
0.0
 11
2766.156955993237
 21
2534.190241232678
 31
0.0
  0
INSERT
  5
81A2
330
8447
100
AcDbEntity
  8
0
  6
ByBlock
 62
     0
100
AcDbBlockReference
  2
_OPEN
 10
1146.156955993237
 20
2534.190241232678
 30
0.0
 41
80.0
 42
80.0
 43
80.0
 50
180.0
  0
INSERT
  5
81A3
330
8447
100
AcDbEntity
  8
0
  6
ByBlock
 62
     0
100
AcDbBlockReference
  2
_OPEN
 10
2846.156955993239
 20
2534.190241232678
 30
0.0
 41
80.0
 42
80.0
 43
80.0
  0
TEXT
  5
81A4
330
8447
100
AcDbEntity
  8
3
 62
     0
100
AcDbText
 10
1796.156955993238
 20
2574.190241232678
 30
0.0
 40
120.0
  1
1700
100
AcDbText
  0
POINT
  5
81A5
330
8447
100
AcDbEntity
  8
DEFPOINTS
  6
ByBlock
 62
     0
100
AcDbPoint
 10
1146.156955993237
 20
2805.800457609002
 30
0.0
  0
POINT
  5
81A6
330
8447
100
AcDbEntity
  8
DEFPOINTS
  6
ByBlock
 62
     0
100
AcDbPoint
 10
2846.156955993239
 20
2805.800457609002
 30
0.0
  0
POINT
  5
81A7
330
8447
100
AcDbEntity
  8
DEFPOINTS
  6
ByBlock
 62
     0
100
AcDbPoint
 10
2846.156955993239
 20
2534.190241232678
 30
0.0
  0
ENDBLK
  5
81A8
330
8447
100
AcDbEntity
  8
0
100
AcDbBlockEnd
  0
BLOCK
  5
844A
330
8449
100
AcDbEntity
  8
0
100
AcDbBlockBegin
  2
*D23
 70
     1
 10
0.0
 20
0.0
 30
0.0
  3
*D23
  1

  0
LINE
  5
81AC
330
8449
100
AcDbEntity
  8
0
  6
ByBlock
 62
     0
100
AcDbLine
 10
2846.156955993239
 20
2785.800457609002
 30
0.0
 11
2846.156955993239
 21
2494.190241232678
 31
0.0
  0
LINE
  5
81AD
330
8449
100
AcDbEntity
  8
0
  6
ByBlock
 62
     0
100
AcDbLine
 10
3596.156955993239
 20
2785.800457609002
 30
0.0
 11
3596.156955993239
 21
2494.190241232678
 31
0.0
  0
LINE
  5
81AE
330
8449
100
AcDbEntity
  8
0
  6
ByBlock
 62
     0
100
AcDbLine
 10
2926.156955993239
 20
2534.190241232678
 30
0.0
 11
3516.156955993239
 21
2534.190241232678
 31
0.0
  0
INSERT
  5
81AF
330
8449
100
AcDbEntity
  8
0
  6
ByBlock
 62
     0
100
AcDbBlockReference
  2
_OPEN
 10
2846.156955993239
 20
2534.190241232678
 30
0.0
 41
80.0
 42
80.0
 43
80.0
 50
180.0
  0
INSERT
  5
81B0
330
8449
100
AcDbEntity
  8
0
  6
ByBlock
 62
     0
100
AcDbBlockReference
  2
_OPEN
 10
3596.156955993239
 20
2534.190241232678
 30
0.0
 41
80.0
 42
80.0
 43
80.0
  0
TEXT
  5
81B1
330
8449
100
AcDbEntity
  8
3
 62
     0
100
AcDbText
 10
3066.871241707523
 20
2574.190241232678
 30
0.0
 40
120.0
  1
750
100
AcDbText
  0
POINT
  5
81B2
330
8449
100
AcDbEntity
  8
DEFPOINTS
  6
ByBlock
 62
     0
100
AcDbPoint
 10
2846.156955993239
 20
2805.800457609002
 30
0.0
  0
POINT
  5
81B3
330
8449
100
AcDbEntity
  8
DEFPOINTS
  6
ByBlock
 62
     0
100
AcDbPoint
 10
3596.156955993239
 20
2805.800457609002
 30
0.0
  0
POINT
  5
81B4
330
8449
100
AcDbEntity
  8
DEFPOINTS
  6
ByBlock
 62
     0
100
AcDbPoint
 10
3596.156955993239
 20
2534.190241232678
 30
0.0
  0
ENDBLK
  5
81B5
330
8449
100
AcDbEntity
  8
0
100
AcDbBlockEnd
  0
BLOCK
  5
844C
330
844B
100
AcDbEntity
  8
0
100
AcDbBlockBegin
  2
*D24
 70
     1
 10
0.0
 20
0.0
 30
0.0
  3
*D24
  1

  0
LINE
  5
81B9
330
844B
100
AcDbEntity
  8
0
  6
ByBlock
 62
     0
100
AcDbLine
 10
5039.092839011054
 20
2785.800457609002
 30
0.0
 11
5039.092839011054
 21
2494.190241232678
 31
0.0
  0
LINE
  5
81BA
330
844B
100
AcDbEntity
  8
0
  6
ByBlock
 62
     0
100
AcDbLine
 10
6241.092839011049
 20
2785.800457609002
 30
0.0
 11
6241.092839011049
 21
2494.190241232678
 31
0.0
  0
LINE
  5
81BB
330
844B
100
AcDbEntity
  8
0
  6
ByBlock
 62
     0
100
AcDbLine
 10
5119.092839011054
 20
2534.190241232678
 30
0.0
 11
6161.092839011049
 21
2534.190241232678
 31
0.0
  0
INSERT
  5
81BC
330
844B
100
AcDbEntity
  8
0
  6
ByBlock
 62
     0
100
AcDbBlockReference
  2
_OPEN
 10
5039.092839011054
 20
2534.190241232678
 30
0.0
 41
80.0
 42
80.0
 43
80.0
 50
180.0
  0
INSERT
  5
81BD
330
844B
100
AcDbEntity
  8
0
  6
ByBlock
 62
     0
100
AcDbBlockReference
  2
_OPEN
 10
6241.092839011049
 20
2534.190241232678
 30
0.0
 41
80.0
 42
80.0
 43
80.0
  0
TEXT
  5
81BE
330
844B
100
AcDbEntity
  8
3
 62
     0
100
AcDbText
 10
5440.092839011052
 20
2574.190241232678
 30
0.0
 40
120.0
  1
1202
100
AcDbText
  0
POINT
  5
81BF
330
844B
100
AcDbEntity
  8
DEFPOINTS
  6
ByBlock
 62
     0
100
AcDbPoint
 10
5039.092839011054
 20
2805.800457609002
 30
0.0
  0
POINT
  5
81C0
330
844B
100
AcDbEntity
  8
DEFPOINTS
  6
ByBlock
 62
     0
100
AcDbPoint
 10
6241.092839011049
 20
2805.800457609002
 30
0.0
  0
POINT
  5
81C1
330
844B
100
AcDbEntity
  8
DEFPOINTS
  6
ByBlock
 62
     0
100
AcDbPoint
 10
6241.092839011049
 20
2534.190241232678
 30
0.0
  0
ENDBLK
  5
81C2
330
844B
100
AcDbEntity
  8
0
100
AcDbBlockEnd
  0
BLOCK
  5
844E
330
844D
100
AcDbEntity
  8
0
100
AcDbBlockBegin
  2
*D25
 70
     1
 10
0.0
 20
0.0
 30
0.0
  3
*D25
  1

  0
LINE
  5
81C6
330
844D
100
AcDbEntity
  8
0
  6
ByBlock
 62
     0
100
AcDbLine
 10
6241.092839011049
 20
2785.800457609002
 30
0.0
 11
6241.092839011049
 21
2494.190241232678
 31
0.0
  0
LINE
  5
81C7
330
844D
100
AcDbEntity
  8
0
  6
ByBlock
 62
     0
100
AcDbLine
 10
7159.092839011053
 20
2785.800457609002
 30
0.0
 11
7159.092839011053
 21
2494.190241232678
 31
0.0
  0
LINE
  5
81C8
330
844D
100
AcDbEntity
  8
0
  6
ByBlock
 62
     0
100
AcDbLine
 10
6321.092839011051
 20
2534.190241232678
 30
0.0
 11
7079.092839011053
 21
2534.190241232678
 31
0.0
  0
INSERT
  5
81C9
330
844D
100
AcDbEntity
  8
0
  6
ByBlock
 62
     0
100
AcDbBlockReference
  2
_OPEN
 10
6241.092839011049
 20
2534.190241232678
 30
0.0
 41
80.0
 42
80.0
 43
80.0
 50
180.0
  0
INSERT
  5
81CA
330
844D
100
AcDbEntity
  8
0
  6
ByBlock
 62
     0
100
AcDbBlockReference
  2
_OPEN
 10
7159.092839011053
 20
2534.190241232678
 30
0.0
 41
80.0
 42
80.0
 43
80.0
  0
TEXT
  5
81CB
330
844D
100
AcDbEntity
  8
3
 62
     0
100
AcDbText
 10
6557.235696153909
 20
2574.190241232678
 30
0.0
 40
120.0
  1
918
100
AcDbText
  0
POINT
  5
81CC
330
844D
100
AcDbEntity
  8
DEFPOINTS
  6
ByBlock
 62
     0
100
AcDbPoint
 10
6241.092839011049
 20
2805.800457609002
 30
0.0
  0
POINT
  5
81CD
330
844D
100
AcDbEntity
  8
DEFPOINTS
  6
ByBlock
 62
     0
100
AcDbPoint
 10
7159.092839011053
 20
2805.800457609002
 30
0.0
  0
POINT
  5
81CE
330
844D
100
AcDbEntity
  8
DEFPOINTS
  6
ByBlock
 62
     0
100
AcDbPoint
 10
7159.092839011053
 20
2534.190241232678
 30
0.0
  0
ENDBLK
  5
81CF
330
844D
100
AcDbEntity
  8
0
100
AcDbBlockEnd
  0
BLOCK
  5
8450
330
844F
100
AcDbEntity
  8
0
100
AcDbBlockBegin
  2
_NONE
 70
     0
 10
0.0
 20
0.0
 30
0.0
  3
_NONE
  1

  0
CIRCLE
  5
81D3
330
844F
100
AcDbEntity
  8
0
  6
ByBlock
 62
     0
100
AcDbCircle
 10
0.0
 20
0.0
 30
0.0
 40
0.25
  0
ENDBLK
  5
81D4
330
844F
100
AcDbEntity
  8
0
100
AcDbBlockEnd
  0
BLOCK
  5
8452
330
8451
100
AcDbEntity
  8
0
100
AcDbBlockBegin
  2
*D27
 70
     1
 10
0.0
 20
0.0
 30
0.0
  3
*D27
  1

  0
LINE
  5
8200
330
8451
100
AcDbEntity
  8
0
  6
ByBlock
 62
     0
100
AcDbLine
 10
4420.319520597084
 20
2870.800457609002
 30
0.0
 11
4420.319520597084
 21
2870.800457609002
 31
0.0
  0
LINE
  5
8201
330
8451
100
AcDbEntity
  8
0
  6
ByBlock
 62
     0
100
AcDbLine
 10
4420.319520597084
 20
2890.800457609002
 30
0.0
 11
4420.319520597084
 21
3050.800457609002
 31
0.0
  0
TEXT
  5
8202
330
8451
100
AcDbEntity
  8
3
 62
     0
100
AcDbText
 10
4651.748092025655
 20
2598.514743323288
 30
0.0
 40
120.0
  1
   (20)
 50
90.0
100
AcDbText
  0
LINE
  5
8203
330
8451
100
AcDbEntity
  8
0
  6
ByBlock
 62
     0
100
AcDbLine
 10
4420.319520597084
 20
2870.800457609002
 30
0.0
 11
4420.319520597084
 21
2890.800457609002
 31
0.0
  0
POINT
  5
8204
330
8451
100
AcDbEntity
  8
DEFPOINTS
  6
ByBlock
 62
     0
100
AcDbPoint
 10
3596.156955993239
 20
2870.800457609002
 30
0.0
  0
POINT
  5
8205
330
8451
100
AcDbEntity
  8
DEFPOINTS
  6
ByBlock
 62
     0
100
AcDbPoint
 10
3596.156955993239
 20
2890.800457609002
 30
0.0
  0
POINT
  5
8206
330
8451
100
AcDbEntity
  8
DEFPOINTS
  6
ByBlock
 62
     0
100
AcDbPoint
 10
4420.319520597084
 20
2890.800457609002
 30
0.0
  0
ENDBLK
  5
8207
330
8451
100
AcDbEntity
  8
0
100
AcDbBlockEnd
  0
BLOCK
  5
8454
330
8453
100
AcDbEntity
  8
0
100
AcDbBlockBegin
  2
*D28
 70
     1
 10
0.0
 20
0.0
 30
0.0
  3
*D28
  1

  0
LINE
  5
81E2
330
8453
100
AcDbEntity
  8
0
  6
ByBlock
 62
     0
100
AcDbLine
 10
3616.156955993239
 20
2805.800457609002
 30
0.0
 11
4781.63192079743
 21
2805.800457609002
 31
0.0
  0
LINE
  5
81E3
330
8453
100
AcDbEntity
  8
0
  6
ByBlock
 62
     0
100
AcDbLine
 10
2795.156955993237
 20
5217.800457609002
 30
0.0
 11
4781.63192079743
 21
5217.800457609002
 31
0.0
  0
LINE
  5
81E4
330
8453
100
AcDbEntity
  8
0
  6
ByBlock
 62
     0
100
AcDbLine
 10
4741.63192079743
 20
2885.800457609002
 30
0.0
 11
4741.63192079743
 21
5137.800457609003
 31
0.0
  0
INSERT
  5
81E5
330
8453
100
AcDbEntity
  8
0
  6
ByBlock
 62
     0
100
AcDbBlockReference
  2
_OPEN
 10
4741.63192079743
 20
2805.800457609002
 30
0.0
 41
80.0
 42
80.0
 43
80.0
 50
270.0
  0
INSERT
  5
81E6
330
8453
100
AcDbEntity
  8
0
  6
ByBlock
 62
     0
100
AcDbBlockReference
  2
_OPEN
 10
4741.63192079743
 20
5217.800457609002
 30
0.0
 41
80.0
 42
80.0
 43
80.0
 50
90.0
  0
TEXT
  5
81E7
330
8453
100
AcDbEntity
  8
3
 62
     0
100
AcDbText
 10
4650.203349368857
 20
3734.657600466145
 30
0.0
 40
120.0
  1
(2412)
 50
90.0
100
AcDbText
  0
POINT
  5
81E8
330
8453
100
AcDbEntity
  8
DEFPOINTS
  6
ByBlock
 62
     0
100
AcDbPoint
 10
3596.156955993239
 20
2805.800457609002
 30
0.0
  0
POINT
  5
81E9
330
8453
100
AcDbEntity
  8
DEFPOINTS
  6
ByBlock
 62
     0
100
AcDbPoint
 10
2775.156955993237
 20
5217.800457609002
 30
0.0
  0
POINT
  5
81EA
330
8453
100
AcDbEntity
  8
DEFPOINTS
  6
ByBlock
 62
     0
100
AcDbPoint
 10
4741.63192079743
 20
5217.800457609002
 30
0.0
  0
ENDBLK
  5
81EB
330
8453
100
AcDbEntity
  8
0
100
AcDbBlockEnd
  0
BLOCK
  5
84B1
330
84B0
100
AcDbEntity
  8
0
100
AcDbBlockBegin
  2
*D29
 70
     1
 10
0.0
 20
0.0
 30
0.0
  3
*D29
  1

  0
LINE
  5
84B3
330
84B0
100
AcDbEntity
  8
3
 62
     0
370
    -2
100
AcDbLine
 10
5391.092839011054
 20
5237.800457609003
 30
0.0
 11
5391.092839011054
 21
5530.120671915637
 31
0.0
  0
LINE
  5
84B4
330
84B0
100
AcDbEntity
  8
3
 62
     0
370
    -2
100
AcDbLine
 10
7091.092839011054
 20
5237.800457609003
 30
0.0
 11
7091.092839011054
 21
5530.120671915637
 31
0.0
  0
LINE
  5
84B5
330
84B0
100
AcDbEntity
  8
3
 62
     0
370
    -2
100
AcDbLine
 10
5471.092839011054
 20
5490.120671915637
 30
0.0
 11
7011.092839011054
 21
5490.120671915637
 31
0.0
  0
INSERT
  5
84B6
330
84B0
100
AcDbEntity
  8
3
 62
     0
370
    -2
100
AcDbBlockReference
  2
_OPEN
 10
5391.092839011054
 20
5490.120671915637
 30
0.0
 41
80.0
 42
80.0
 43
80.0
 50
180.0
  0
INSERT
  5
84B7
330
84B0
100
AcDbEntity
  8
3
 62
     0
370
    -2
100
AcDbBlockReference
  2
_OPEN
 10
7091.092839011054
 20
5490.120671915637
 30
0.0
 41
80.0
 42
80.0
 43
80.0
  0
MTEXT
  5
84B8
330
84B0
100
AcDbEntity
  8
3
 62
     0
100
AcDbMText
 10
6241.092839011054
 20
5590.120671915637
 30
0.0
 40
120.0
 41
0.0
 71
     5
 72
     1
  1
\A1;1700
 73
     1
 44
1.0
1001
ACAD
1000
MTEXTBEGIN
1070
    73
1070
     1
1070
    44
1040
1.0
1070
    74
1070
     0
1000
MTEXTEND
  0
POINT
  5
84B9
330
84B0
100
AcDbEntity
  8
DEFPOINTS
 62
     0
100
AcDbPoint
 10
5391.092839011054
 20
5217.800457609002
 30
0.0
  0
POINT
  5
84BA
330
84B0
100
AcDbEntity
  8
DEFPOINTS
 62
     0
100
AcDbPoint
 10
7091.092839011054
 20
5217.800457609002
 30
0.0
  0
POINT
  5
84BB
330
84B0
100
AcDbEntity
  8
DEFPOINTS
 62
     0
100
AcDbPoint
 10
7091.092839011054
 20
5490.120671915637
 30
0.0
  0
ENDBLK
  5
84B2
330
84B0
100
AcDbEntity
  8
0
100
AcDbBlockEnd
  0
BLOCK
  5
84BE
330
84BD
100
AcDbEntity
  8
0
100
AcDbBlockBegin
  2
*D30
 70
     1
 10
0.0
 20
0.0
 30
0.0
  3
*D30
  1

  0
LINE
  5
853B
330
84BD
100
AcDbEntity
  8
3
 62
     0
370
    -2
100
AcDbLine
 10
4961.092839011053
 20
4720.800457609002
 30
0.0
 11
4961.092839011053
 21
5855.197290539809
 31
0.0
  0
LINE
  5
853C
330
84BD
100
AcDbEntity
  8
3
 62
     0
370
    -2
100
AcDbLine
 10
6241.092839011054
 20
5670.120671915637
 30
0.0
 11
6241.092839011054
 21
5855.197290539809
 31
0.0
  0
LINE
  5
853D
330
84BD
100
AcDbEntity
  8
3
 62
     0
370
    -2
100
AcDbLine
 10
5041.092839011053
 20
5815.19729053981
 30
0.0
 11
6161.092839011054
 21
5815.19729053981
 31
0.0
  0
INSERT
  5
853E
330
84BD
100
AcDbEntity
  8
3
 62
     0
370
    -2
100
AcDbBlockReference
  2
_OPEN
 10
4961.092839011053
 20
5815.19729053981
 30
0.0
 41
80.0
 42
80.0
 43
80.0
 50
180.0
  0
INSERT
  5
853F
330
84BD
100
AcDbEntity
  8
3
 62
     0
370
    -2
100
AcDbBlockReference
  2
_OPEN
 10
6241.092839011054
 20
5815.19729053981
 30
0.0
 41
80.0
 42
80.0
 43
80.0
  0
MTEXT
  5
8540
330
84BD
100
AcDbEntity
  8
3
 62
     0
100
AcDbMText
 10
5601.092839011053
 20
5946.625861968382
 30
0.0
 40
120.0
 41
0.0
 71
     5
 72
     1
  1
\A1;(1280)
 73
     1
 44
1.0
1001
ACAD
1000
MTEXTBEGIN
1070
    73
1070
     1
1070
    44
1040
1.0
1070
    74
1070
     0
1000
MTEXTEND
  0
POINT
  5
8541
330
84BD
100
AcDbEntity
  8
DEFPOINTS
 62
     0
100
AcDbPoint
 10
4961.092839011053
 20
4700.800457609002
 30
0.0
  0
POINT
  5
8542
330
84BD
100
AcDbEntity
  8
DEFPOINTS
 62
     0
100
AcDbPoint
 10
6241.092839011054
 20
5650.120671915637
 30
0.0
  0
POINT
  5
8543
330
84BD
100
AcDbEntity
  8
DEFPOINTS
 62
     0
100
AcDbPoint
 10
6241.092839011054
 20
5815.19729053981
 30
0.0
  0
ENDBLK
  5
84BF
330
84BD
100
AcDbEntity
  8
0
100
AcDbBlockEnd
  0
BLOCK
  5
84CB
330
84CA
100
AcDbEntity
  8
0
100
AcDbBlockBegin
  2
*D31
 70
     1
 10
0.0
 20
0.0
 30
0.0
  3
*D31
  1

  0
LINE
  5
8532
330
84CA
100
AcDbEntity
  8
3
 62
     0
370
    -2
100
AcDbLine
 10
6241.092839011054
 20
5670.120671915637
 30
0.0
 11
6241.092839011054
 21
5855.197290539809
 31
0.0
  0
LINE
  5
8533
330
84CA
100
AcDbEntity
  8
3
 62
     0
370
    -2
100
AcDbLine
 10
7261.092839011054
 20
4264.800457609001
 30
0.0
 11
7261.092839011054
 21
5855.197290539809
 31
0.0
  0
LINE
  5
8534
330
84CA
100
AcDbEntity
  8
3
 62
     0
370
    -2
100
AcDbLine
 10
6321.092839011054
 20
5815.19729053981
 30
0.0
 11
7181.092839011054
 21
5815.19729053981
 31
0.0
  0
INSERT
  5
8535
330
84CA
100
AcDbEntity
  8
3
 62
     0
370
    -2
100
AcDbBlockReference
  2
_OPEN
 10
6241.092839011054
 20
5815.19729053981
 30
0.0
 41
80.0
 42
80.0
 43
80.0
 50
180.0
  0
INSERT
  5
8536
330
84CA
100
AcDbEntity
  8
3
 62
     0
370
    -2
100
AcDbBlockReference
  2
_OPEN
 10
7261.092839011054
 20
5815.19729053981
 30
0.0
 41
80.0
 42
80.0
 43
80.0
  0
MTEXT
  5
8537
330
84CA
100
AcDbEntity
  8
3
 62
     0
100
AcDbMText
 10
6751.092839011054
 20
5946.625861968382
 30
0.0
 40
120.0
 41
0.0
 71
     5
 72
     1
  1
\A1;(1020)
 73
     1
 44
1.0
1001
ACAD
1000
MTEXTBEGIN
1070
    73
1070
     1
1070
    44
1040
1.0
1070
    74
1070
     0
1000
MTEXTEND
  0
POINT
  5
8538
330
84CA
100
AcDbEntity
  8
DEFPOINTS
 62
     0
100
AcDbPoint
 10
6241.092839011054
 20
5650.120671915637
 30
0.0
  0
POINT
  5
8539
330
84CA
100
AcDbEntity
  8
DEFPOINTS
 62
     0
100
AcDbPoint
 10
7261.092839011054
 20
4244.800457609001
 30
0.0
  0
POINT
  5
853A
330
84CA
100
AcDbEntity
  8
DEFPOINTS
 62
     0
100
AcDbPoint
 10
7261.092839011054
 20
5815.19729053981
 30
0.0
  0
ENDBLK
  5
84CC
330
84CA
100
AcDbEntity
  8
0
100
AcDbBlockEnd
  0
BLOCK
  5
84DC
330
84DB
100
AcDbEntity
  8
0
100
AcDbBlockBegin
  2
*D32
 70
     1
 10
0.0
 20
0.0
 30
0.0
  3
*D32
  1

  0
LINE
  5
84F3
330
84DB
100
AcDbEntity
  8
3
 62
     0
370
    -2
100
AcDbLine
 10
7111.092839011054
 20
4945.800457609002
 30
0.0
 11
7574.26434175711
 21
4945.800457609002
 31
0.0
  0
LINE
  5
84F4
330
84DB
100
AcDbEntity
  8
3
 62
     0
370
    -2
100
AcDbLine
 10
7111.092839011054
 20
3695.800457609002
 30
0.0
 11
7574.26434175711
 21
3695.800457609001
 31
0.0
  0
LINE
  5
84F5
330
84DB
100
AcDbEntity
  8
3
 62
     0
370
    -2
100
AcDbLine
 10
7534.264341757111
 20
4865.800457609001
 30
0.0
 11
7534.264341757111
 21
3775.800457609001
 31
0.0
  0
INSERT
  5
84F6
330
84DB
100
AcDbEntity
  8
3
 62
     0
370
    -2
100
AcDbBlockReference
  2
_OPEN
 10
7534.264341757111
 20
4945.800457609002
 30
0.0
 41
80.0
 42
80.0
 43
80.0
 50
90.0
  0
INSERT
  5
84F7
330
84DB
100
AcDbEntity
  8
3
 62
     0
370
    -2
100
AcDbBlockReference
  2
_OPEN
 10
7534.264341757111
 20
3695.800457609001
 30
0.0
 41
80.0
 42
80.0
 43
80.0
 50
270.0
  0
MTEXT
  5
84F8
330
84DB
100
AcDbEntity
  8
3
 62
     0
100
AcDbMText
 10
7434.26434175711
 20
4320.800457609002
 30
0.0
 40
120.0
 41
0.0
 71
     5
 72
     1
  1
\A1;\U+03C61250
 11
0.0000000000000001
 21
1.0
 31
0.0
 73
     1
 44
1.0
1001
ACAD
1000
MTEXTBEGIN
1070
    73
1070
     1
1070
    44
1040
1.0
1070
    74
1070
     0
1000
MTEXTEND
  0
POINT
  5
84F9
330
84DB
100
AcDbEntity
  8
DEFPOINTS
 62
     0
100
AcDbPoint
 10
7091.092839011054
 20
4945.800457609002
 30
0.0
  0
POINT
  5
84FA
330
84DB
100
AcDbEntity
  8
DEFPOINTS
 62
     0
100
AcDbPoint
 10
7091.092839011054
 20
3695.800457609002
 30
0.0
  0
POINT
  5
84FB
330
84DB
100
AcDbEntity
  8
DEFPOINTS
 62
     0
100
AcDbPoint
 10
7534.264341757111
 20
3695.800457609001
 30
0.0
  0
ENDBLK
  5
84DD
330
84DB
100
AcDbEntity
  8
0
100
AcDbBlockEnd
  0
BLOCK
  5
8546
330
8545
100
AcDbEntity
  8
0
100
AcDbBlockBegin
  2
*D33
 70
     1
 10
0.0
 20
0.0
 30
0.0
  3
*D33
  1

  0
LINE
  5
8592
330
8545
100
AcDbEntity
  8
3
 62
     0
370
    -2
100
AcDbLine
 10
3841.984076714959
 20
7730.311612935842
 30
0.0
 11
5149.195747449572
 21
7730.311612935842
 31
0.0
  0
LINE
  5
8593
330
8545
100
AcDbEntity
  8
3
 62
     0
370
    -2
100
AcDbLine
 10
3246.156955993237
 20
6450.311612935841
 30
0.0
 11
5149.195747449572
 21
6450.311612935841
 31
0.0
  0
LINE
  5
8594
330
8545
100
AcDbEntity
  8
3
 62
     0
370
    -2
100
AcDbLine
 10
5109.195747449572
 20
7650.311612935841
 30
0.0
 11
5109.195747449572
 21
6530.311612935843
 31
0.0
  0
INSERT
  5
8595
330
8545
100
AcDbEntity
  8
3
 62
     0
370
    -2
100
AcDbBlockReference
  2
_OPEN
 10
5109.195747449572
 20
7730.311612935842
 30
0.0
 41
80.0
 42
80.0
 43
80.0
 50
90.0
  0
INSERT
  5
8596
330
8545
100
AcDbEntity
  8
3
 62
     0
370
    -2
100
AcDbBlockReference
  2
_OPEN
 10
5109.195747449572
 20
6450.311612935841
 30
0.0
 41
80.0
 42
80.0
 43
80.0
 50
270.0
  0
MTEXT
  5
8597
330
8545
100
AcDbEntity
  8
3
 62
     0
100
AcDbMText
 10
5009.19574744957
 20
7090.311612935844
 30
0.0
 40
120.0
 41
0.0
 71
     5
 72
     1
  1
\A1;1280
 11
0.0000000000000001
 21
1.0
 31
0.0
 73
     1
 44
1.0
1001
ACAD
1000
MTEXTBEGIN
1070
    73
1070
     1
1070
    44
1040
1.0
1070
    74
1070
     0
1000
MTEXTEND
  0
POINT
  5
8598
330
8545
100
AcDbEntity
  8
DEFPOINTS
 62
     0
100
AcDbPoint
 10
3821.984076714958
 20
7730.311612935842
 30
0.0
  0
POINT
  5
8599
330
8545
100
AcDbEntity
  8
DEFPOINTS
 62
     0
100
AcDbPoint
 10
3226.156955993238
 20
6450.311612935841
 30
0.0
  0
POINT
  5
859A
330
8545
100
AcDbEntity
  8
DEFPOINTS
 62
     0
100
AcDbPoint
 10
5109.195747449572
 20
6450.311612935841
 30
0.0
  0
ENDBLK
  5
8547
330
8545
100
AcDbEntity
  8
0
100
AcDbBlockEnd
  0
BLOCK
  5
8553
330
8552
100
AcDbEntity
  8
0
100
AcDbBlockBegin
  2
*D34
 70
     1
 10
0.0
 20
0.0
 30
0.0
  3
*D34
  1

  0
LINE
  5
8555
330
8552
100
AcDbEntity
  8
3
 62
     0
370
    -2
100
AcDbLine
 10
1146.156955993237
 20
7548.311612935842
 30
0.0
 11
1146.156955993237
 21
8892.947751441026
 31
0.0
  0
LINE
  5
8556
330
8552
100
AcDbEntity
  8
3
 62
     0
370
    -2
100
AcDbLine
 10
2096.156955993238
 20
8668.311612935841
 30
0.0
 11
2096.156955993238
 21
8892.947751441026
 31
0.0
  0
LINE
  5
8557
330
8552
100
AcDbEntity
  8
3
 62
     0
370
    -2
100
AcDbLine
 10
1226.156955993237
 20
8852.947751441025
 30
0.0
 11
2016.156955993238
 21
8852.947751441025
 31
0.0
  0
INSERT
  5
8558
330
8552
100
AcDbEntity
  8
3
 62
     0
370
    -2
100
AcDbBlockReference
  2
_OPEN
 10
1146.156955993237
 20
8852.947751441025
 30
0.0
 41
80.0
 42
80.0
 43
80.0
 50
180.0
  0
INSERT
  5
8559
330
8552
100
AcDbEntity
  8
3
 62
     0
370
    -2
100
AcDbBlockReference
  2
_OPEN
 10
2096.156955993238
 20
8852.947751441025
 30
0.0
 41
80.0
 42
80.0
 43
80.0
  0
MTEXT
  5
855A
330
8552
100
AcDbEntity
  8
3
 62
     0
100
AcDbMText
 10
1621.156955993238
 20
8952.947751441024
 30
0.0
 40
120.0
 41
0.0
 71
     5
 72
     1
  1
\A1;950
 73
     1
 44
1.0
1001
ACAD
1000
MTEXTBEGIN
1070
    73
1070
     1
1070
    44
1040
1.0
1070
    74
1070
     0
1000
MTEXTEND
  0
POINT
  5
855B
330
8552
100
AcDbEntity
  8
DEFPOINTS
 62
     0
100
AcDbPoint
 10
1146.156955993237
 20
7528.311612935842
 30
0.0
  0
POINT
  5
855C
330
8552
100
AcDbEntity
  8
DEFPOINTS
 62
     0
100
AcDbPoint
 10
2096.156955993238
 20
8648.31161293584
 30
0.0
  0
POINT
  5
855D
330
8552
100
AcDbEntity
  8
DEFPOINTS
 62
     0
100
AcDbPoint
 10
2096.156955993238
 20
8852.947751441025
 30
0.0
  0
ENDBLK
  5
8554
330
8552
100
AcDbEntity
  8
0
100
AcDbBlockEnd
  0
BLOCK
  5
8560
330
855F
100
AcDbEntity
  8
0
100
AcDbBlockBegin
  2
*D35
 70
     1
 10
0.0
 20
0.0
 30
0.0
  3
*D35
  1

  0
LINE
  5
8562
330
855F
100
AcDbEntity
  8
3
 62
     0
370
    -2
100
AcDbLine
 10
2096.156955993238
 20
8668.311612935841
 30
0.0
 11
2096.156955993238
 21
8892.947751441026
 31
0.0
  0
LINE
  5
8563
330
855F
100
AcDbEntity
  8
3
 62
     0
370
    -2
100
AcDbLine
 10
3596.156955993239
 20
8668.311612935841
 30
0.0
 11
3596.156955993239
 21
8892.947751441026
 31
0.0
  0
LINE
  5
8564
330
855F
100
AcDbEntity
  8
3
 62
     0
370
    -2
100
AcDbLine
 10
2176.156955993238
 20
8852.947751441025
 30
0.0
 11
3516.156955993239
 21
8852.947751441025
 31
0.0
  0
INSERT
  5
8565
330
855F
100
AcDbEntity
  8
3
 62
     0
370
    -2
100
AcDbBlockReference
  2
_OPEN
 10
2096.156955993238
 20
8852.947751441025
 30
0.0
 41
80.0
 42
80.0
 43
80.0
 50
180.0
  0
INSERT
  5
8566
330
855F
100
AcDbEntity
  8
3
 62
     0
370
    -2
100
AcDbBlockReference
  2
_OPEN
 10
3596.156955993239
 20
8852.947751441025
 30
0.0
 41
80.0
 42
80.0
 43
80.0
  0
MTEXT
  5
8567
330
855F
100
AcDbEntity
  8
3
 62
     0
100
AcDbMText
 10
2846.156955993239
 20
8952.947751441024
 30
0.0
 40
120.0
 41
0.0
 71
     5
 72
     1
  1
\A1;1500
 73
     1
 44
1.0
1001
ACAD
1000
MTEXTBEGIN
1070
    73
1070
     1
1070
    44
1040
1.0
1070
    74
1070
     0
1000
MTEXTEND
  0
POINT
  5
8568
330
855F
100
AcDbEntity
  8
DEFPOINTS
 62
     0
100
AcDbPoint
 10
2096.156955993238
 20
8648.31161293584
 30
0.0
  0
POINT
  5
8569
330
855F
100
AcDbEntity
  8
DEFPOINTS
 62
     0
100
AcDbPoint
 10
3596.156955993239
 20
8648.31161293584
 30
0.0
  0
POINT
  5
856A
330
855F
100
AcDbEntity
  8
DEFPOINTS
 62
     0
100
AcDbPoint
 10
3596.156955993239
 20
8852.947751441025
 30
0.0
  0
ENDBLK
  5
8561
330
855F
100
AcDbEntity
  8
0
100
AcDbBlockEnd
  0
BLOCK
  5
856D
330
856C
100
AcDbEntity
  8
0
100
AcDbBlockBegin
  2
*D36
 70
     1
 10
0.0
 20
0.0
 30
0.0
  3
*D36
  1

  0
LINE
  5
856F
330
856C
100
AcDbEntity
  8
3
 62
     0
370
    -2
100
AcDbLine
 10
3616.156955993239
 20
8648.31161293584
 30
0.0
 11
4085.173097229072
 21
8648.31161293584
 31
0.0
  0
LINE
  5
8570
330
856C
100
AcDbEntity
  8
3
 62
     0
370
    -2
100
AcDbLine
 10
3616.156955993239
 20
6528.311612935839
 30
0.0
 11
4085.173097229072
 21
6528.311612935839
 31
0.0
  0
LINE
  5
8571
330
856C
100
AcDbEntity
  8
3
 62
     0
370
    -2
100
AcDbLine
 10
4045.173097229073
 20
8568.311612935842
 30
0.0
 11
4045.173097229072
 21
6608.311612935839
 31
0.0
  0
INSERT
  5
8572
330
856C
100
AcDbEntity
  8
3
 62
     0
370
    -2
100
AcDbBlockReference
  2
_OPEN
 10
4045.173097229073
 20
8648.31161293584
 30
0.0
 41
80.0
 42
80.0
 43
80.0
 50
90.0
  0
INSERT
  5
8573
330
856C
100
AcDbEntity
  8
3
 62
     0
370
    -2
100
AcDbBlockReference
  2
_OPEN
 10
4045.173097229072
 20
6528.311612935839
 30
0.0
 41
80.0
 42
80.0
 43
80.0
 50
270.0
  0
MTEXT
  5
8574
330
856C
100
AcDbEntity
  8
3
 62
     0
100
AcDbMText
 10
3945.173097229072
 20
7588.311612935841
 30
0.0
 40
120.0
 41
0.0
 71
     5
 72
     1
  1
\A1;2120
 11
0.0000000000000001
 21
1.0
 31
0.0
 73
     1
 44
1.0
1001
ACAD
1000
MTEXTBEGIN
1070
    73
1070
     1
1070
    44
1040
1.0
1070
    74
1070
     0
1000
MTEXTEND
  0
POINT
  5
8575
330
856C
100
AcDbEntity
  8
DEFPOINTS
 62
     0
100
AcDbPoint
 10
3596.156955993239
 20
8648.31161293584
 30
0.0
  0
POINT
  5
8576
330
856C
100
AcDbEntity
  8
DEFPOINTS
 62
     0
100
AcDbPoint
 10
3596.156955993239
 20
6528.311612935839
 30
0.0
  0
POINT
  5
8577
330
856C
100
AcDbEntity
  8
DEFPOINTS
 62
     0
100
AcDbPoint
 10
4045.173097229072
 20
6528.311612935839
 30
0.0
  0
ENDBLK
  5
856E
330
856C
100
AcDbEntity
  8
0
100
AcDbBlockEnd
  0
BLOCK
  5
857A
330
8579
100
AcDbEntity
  8
0
100
AcDbBlockBegin
  2
*D37
 70
     1
 10
0.0
 20
0.0
 30
0.0
  3
*D37
  1

  0
LINE
  5
857C
330
8579
100
AcDbEntity
  8
3
 62
     0
370
    -2
100
AcDbLine
 10
1126.156955993237
 20
7528.311612935842
 30
0.0
 11
839.8305548856587
 21
7528.311612935842
 31
0.0
  0
LINE
  5
857D
330
8579
100
AcDbEntity
  8
3
 62
     0
370
    -2
100
AcDbLine
 10
1126.156955993237
 20
6528.311612935842
 30
0.0
 11
839.8305548856585
 21
6528.311612935842
 31
0.0
  0
LINE
  5
857E
330
8579
100
AcDbEntity
  8
3
 62
     0
370
    -2
100
AcDbLine
 10
879.8305548856587
 20
7448.311612935842
 30
0.0
 11
879.8305548856586
 21
6608.311612935843
 31
0.0
  0
INSERT
  5
857F
330
8579
100
AcDbEntity
  8
3
 62
     0
370
    -2
100
AcDbBlockReference
  2
_OPEN
 10
879.8305548856587
 20
7528.311612935842
 30
0.0
 41
80.0
 42
80.0
 43
80.0
 50
90.0
  0
INSERT
  5
8580
330
8579
100
AcDbEntity
  8
3
 62
     0
370
    -2
100
AcDbBlockReference
  2
_OPEN
 10
879.8305548856586
 20
6528.311612935842
 30
0.0
 41
80.0
 42
80.0
 43
80.0
 50
270.0
  0
MTEXT
  5
8581
330
8579
100
AcDbEntity
  8
3
 62
     0
100
AcDbMText
 10
779.8305548856575
 20
7028.311612935842
 30
0.0
 40
120.0
 41
0.0
 71
     5
 72
     1
  1
\A1;1000
 11
0.0000000000000001
 21
1.0
 31
0.0
 73
     1
 44
1.0
1001
ACAD
1000
MTEXTBEGIN
1070
    73
1070
     1
1070
    44
1040
1.0
1070
    74
1070
     0
1000
MTEXTEND
  0
POINT
  5
8582
330
8579
100
AcDbEntity
  8
DEFPOINTS
 62
     0
100
AcDbPoint
 10
1146.156955993237
 20
7528.311612935842
 30
0.0
  0
POINT
  5
8583
330
8579
100
AcDbEntity
  8
DEFPOINTS
 62
     0
100
AcDbPoint
 10
1146.156955993237
 20
6528.311612935842
 30
0.0
  0
POINT
  5
8584
330
8579
100
AcDbEntity
  8
DEFPOINTS
 62
     0
100
AcDbPoint
 10
879.8305548856586
 20
6528.311612935842
 30
0.0
  0
ENDBLK
  5
857B
330
8579
100
AcDbEntity
  8
0
100
AcDbBlockEnd
  0
BLOCK
  5
8587
330
8586
100
AcDbEntity
  8
0
100
AcDbBlockBegin
  2
*D38
 70
     1
 10
0.0
 20
0.0
 30
0.0
  3
*D38
  1

  0
LINE
  5
8589
330
8586
100
AcDbEntity
  8
3
 62
     0
370
    -2
100
AcDbLine
 10
1146.156955993237
 20
6508.311612935838
 30
0.0
 11
1146.156955993237
 21
6136.891068079521
 31
0.0
  0
LINE
  5
858A
330
8586
100
AcDbEntity
  8
3
 62
     0
370
    -2
100
AcDbLine
 10
3596.156955993239
 20
6508.311612935838
 30
0.0
 11
3596.156955993239
 21
6136.891068079521
 31
0.0
  0
LINE
  5
858B
330
8586
100
AcDbEntity
  8
3
 62
     0
370
    -2
100
AcDbLine
 10
1226.156955993237
 20
6176.891068079521
 30
0.0
 11
3516.156955993239
 21
6176.891068079521
 31
0.0
  0
INSERT
  5
858C
330
8586
100
AcDbEntity
  8
3
 62
     0
370
    -2
100
AcDbBlockReference
  2
_OPEN
 10
1146.156955993237
 20
6176.891068079521
 30
0.0
 41
80.0
 42
80.0
 43
80.0
 50
180.0
  0
INSERT
  5
858D
330
8586
100
AcDbEntity
  8
3
 62
     0
370
    -2
100
AcDbBlockReference
  2
_OPEN
 10
3596.156955993239
 20
6176.891068079521
 30
0.0
 41
80.0
 42
80.0
 43
80.0
  0
MTEXT
  5
858E
330
8586
100
AcDbEntity
  8
3
 62
     0
100
AcDbMText
 10
2371.156955993238
 20
6276.891068079521
 30
0.0
 40
120.0
 41
0.0
 71
     5
 72
     1
  1
\A1;2450
 73
     1
 44
1.0
1001
ACAD
1000
MTEXTBEGIN
1070
    73
1070
     1
1070
    44
1040
1.0
1070
    74
1070
     0
1000
MTEXTEND
  0
POINT
  5
858F
330
8586
100
AcDbEntity
  8
DEFPOINTS
 62
     0
100
AcDbPoint
 10
1146.156955993237
 20
6528.311612935839
 30
0.0
  0
POINT
  5
8590
330
8586
100
AcDbEntity
  8
DEFPOINTS
 62
     0
100
AcDbPoint
 10
3596.156955993239
 20
6528.311612935839
 30
0.0
  0
POINT
  5
8591
330
8586
100
AcDbEntity
  8
DEFPOINTS
 62
     0
100
AcDbPoint
 10
3596.156955993239
 20
6176.891068079521
 30
0.0
  0
ENDBLK
  5
8588
330
8586
100
AcDbEntity
  8
0
100
AcDbBlockEnd
  0
BLOCK
  5
859D
330
859C
100
AcDbEntity
  8
0
100
AcDbBlockBegin
  2
*D39
 70
     1
 10
0.0
 20
0.0
 30
0.0
  3
*D39
  1

  0
LINE
  5
859F
330
859C
100
AcDbEntity
  8
3
 62
     0
370
    -2
100
AcDbLine
 10
3671.156955993239
 20
4339.800457609001
 30
0.0
 11
3671.156955993239
 21
5525.312615694231
 31
0.0
  0
LINE
  5
85A0
330
859C
100
AcDbEntity
  8
3
 62
     0
370
    -2
100
AcDbLine
 10
2846.156955993239
 20
5389.39887263968
 30
0.0
 11
2846.156955993239
 21
5525.312615694231
 31
0.0
  0
LINE
  5
85A1
330
859C
100
AcDbEntity
  8
3
 62
     0
370
    -2
100
AcDbLine
 10
3591.156955993239
 20
5485.312615694231
 30
0.0
 11
2926.156955993239
 21
5485.312615694231
 31
0.0
  0
INSERT
  5
85A2
330
859C
100
AcDbEntity
  8
3
 62
     0
370
    -2
100
AcDbBlockReference
  2
_OPEN
 10
3671.156955993239
 20
5485.312615694231
 30
0.0
 41
80.0
 42
80.0
 43
80.0
  0
INSERT
  5
85A3
330
859C
100
AcDbEntity
  8
3
 62
     0
370
    -2
100
AcDbBlockReference
  2
_OPEN
 10
2846.156955993239
 20
5485.312615694231
 30
0.0
 41
80.0
 42
80.0
 43
80.0
 50
180.0
  0
MTEXT
  5
85A4
330
859C
100
AcDbEntity
  8
3
 62
     0
100
AcDbMText
 10
3258.656955993239
 20
5585.312615694231
 30
0.0
 40
120.0
 41
0.0
 71
     5
 72
     1
  1
\A1;825
 73
     1
 44
1.0
1001
ACAD
1000
MTEXTBEGIN
1070
    73
1070
     1
1070
    44
1040
1.0
1070
    74
1070
     0
1000
MTEXTEND
  0
POINT
  5
85A5
330
859C
100
AcDbEntity
  8
DEFPOINTS
 62
     0
100
AcDbPoint
 10
3671.156955993239
 20
4319.800457609001
 30
0.0
  0
POINT
  5
85A6
330
859C
100
AcDbEntity
  8
DEFPOINTS
 62
     0
100
AcDbPoint
 10
2846.156955993239
 20
5369.39887263968
 30
0.0
  0
POINT
  5
85A7
330
859C
100
AcDbEntity
  8
DEFPOINTS
 62
     0
100
AcDbPoint
 10
2846.156955993239
 20
5485.312615694231
 30
0.0
  0
ENDBLK
  5
859E
330
859C
100
AcDbEntity
  8
0
100
AcDbBlockEnd
  0
BLOCK
  5
85AA
330
85A9
100
AcDbEntity
  8
0
100
AcDbBlockBegin
  2
*D40
 70
     1
 10
0.0
 20
0.0
 30
0.0
  3
*D40
  1

  0
LINE
  5
85AC
330
85A9
100
AcDbEntity
  8
3
 62
     0
370
    -2
100
AcDbLine
 10
2846.156955993239
 20
5389.39887263968
 30
0.0
 11
2846.156955993239
 21
5525.312615694231
 31
0.0
  0
LINE
  5
85AD
330
85A9
100
AcDbEntity
  8
3
 62
     0
370
    -2
100
AcDbLine
 10
1767.156955993239
 20
4249.800457609001
 30
0.0
 11
1767.156955993239
 21
5525.312615694231
 31
0.0
  0
LINE
  5
85AE
330
85A9
100
AcDbEntity
  8
3
 62
     0
370
    -2
100
AcDbLine
 10
2766.156955993239
 20
5485.312615694231
 30
0.0
 11
1847.156955993239
 21
5485.312615694231
 31
0.0
  0
INSERT
  5
85AF
330
85A9
100
AcDbEntity
  8
3
 62
     0
370
    -2
100
AcDbBlockReference
  2
_OPEN
 10
2846.156955993239
 20
5485.312615694231
 30
0.0
 41
80.0
 42
80.0
 43
80.0
  0
INSERT
  5
85B0
330
85A9
100
AcDbEntity
  8
3
 62
     0
370
    -2
100
AcDbBlockReference
  2
_OPEN
 10
1767.156955993239
 20
5485.312615694231
 30
0.0
 41
80.0
 42
80.0
 43
80.0
 50
180.0
  0
MTEXT
  5
85B1
330
85A9
100
AcDbEntity
  8
3
 62
     0
100
AcDbMText
 10
2306.656955993239
 20
5585.312615694231
 30
0.0
 40
120.0
 41
0.0
 71
     5
 72
     1
  1
\A1;1079
 73
     1
 44
1.0
1001
ACAD
1000
MTEXTBEGIN
1070
    73
1070
     1
1070
    44
1040
1.0
1070
    74
1070
     0
1000
MTEXTEND
  0
POINT
  5
85B2
330
85A9
100
AcDbEntity
  8
DEFPOINTS
 62
     0
100
AcDbPoint
 10
2846.156955993239
 20
5369.39887263968
 30
0.0
  0
POINT
  5
85B3
330
85A9
100
AcDbEntity
  8
DEFPOINTS
 62
     0
100
AcDbPoint
 10
1767.156955993239
 20
4229.800457609001
 30
0.0
  0
POINT
  5
85B4
330
85A9
100
AcDbEntity
  8
DEFPOINTS
 62
     0
100
AcDbPoint
 10
1767.156955993239
 20
5485.312615694231
 30
0.0
  0
ENDBLK
  5
85AB
330
85A9
100
AcDbEntity
  8
0
100
AcDbBlockEnd
  0
BLOCK
  5
85B7
330
85B6
100
AcDbEntity
  8
0
100
AcDbBlockBegin
  2
*D41
 70
     1
 10
0.0
 20
0.0
 30
0.0
  3
*D41
  1

  0
LINE
  5
85B9
330
85B6
100
AcDbEntity
  8
3
 62
     0
370
    -2
100
AcDbLine
 10
3671.156955993239
 20
4339.800457609001
 30
0.0
 11
3671.156955993239
 21
5818.269218418994
 31
0.0
  0
LINE
  5
85BA
330
85B6
100
AcDbEntity
  8
3
 62
     0
370
    -2
100
AcDbLine
 10
1146.156955993237
 20
3035.800457609002
 30
0.0
 11
1146.156955993237
 21
5818.269218418994
 31
0.0
  0
LINE
  5
85BB
330
85B6
100
AcDbEntity
  8
3
 62
     0
370
    -2
100
AcDbLine
 10
3591.156955993239
 20
5778.269218418994
 30
0.0
 11
1226.156955993237
 21
5778.269218418994
 31
0.0
  0
INSERT
  5
85BC
330
85B6
100
AcDbEntity
  8
3
 62
     0
370
    -2
100
AcDbBlockReference
  2
_OPEN
 10
3671.156955993239
 20
5778.269218418994
 30
0.0
 41
80.0
 42
80.0
 43
80.0
  0
INSERT
  5
85BD
330
85B6
100
AcDbEntity
  8
3
 62
     0
370
    -2
100
AcDbBlockReference
  2
_OPEN
 10
1146.156955993237
 20
5778.269218418994
 30
0.0
 41
80.0
 42
80.0
 43
80.0
 50
180.0
  0
MTEXT
  5
85BE
330
85B6
100
AcDbEntity
  8
3
 62
     0
100
AcDbMText
 10
2408.656955993238
 20
5878.269218418995
 30
0.0
 40
120.0
 41
0.0
 71
     5
 72
     1
  1
\A1;2525
 73
     1
 44
1.0
1001
ACAD
1000
MTEXTBEGIN
1070
    73
1070
     1
1070
    44
1040
1.0
1070
    74
1070
     0
1000
MTEXTEND
  0
POINT
  5
85BF
330
85B6
100
AcDbEntity
  8
DEFPOINTS
 62
     0
100
AcDbPoint
 10
3671.156955993239
 20
4319.800457609001
 30
0.0
  0
POINT
  5
85C0
330
85B6
100
AcDbEntity
  8
DEFPOINTS
 62
     0
100
AcDbPoint
 10
1146.156955993237
 20
3015.800457609002
 30
0.0
  0
POINT
  5
85C1
330
85B6
100
AcDbEntity
  8
DEFPOINTS
 62
     0
100
AcDbPoint
 10
1146.156955993237
 20
5778.269218418994
 30
0.0
  0
ENDBLK
  5
85B8
330
85B6
100
AcDbEntity
  8
0
100
AcDbBlockEnd
  0
BLOCK
  5
85C4
330
85C3
100
AcDbEntity
  8
0
100
AcDbBlockBegin
  2
*D42
 70
     1
 10
0.0
 20
0.0
 30
0.0
  3
*D42
  1

  0
LINE
  5
85C6
330
85C3
100
AcDbEntity
  8
3
 62
     0
370
    -2
100
AcDbLine
 10
3691.156955993239
 20
4266.800457609003
 30
0.0
 11
3964.167988683194
 21
4266.800457609003
 31
0.0
  0
LINE
  5
85C7
330
85C3
100
AcDbEntity
  8
3
 62
     0
370
    -2
100
AcDbLine
 10
3691.156955993239
 20
2986.800457609002
 30
0.0
 11
3964.167988683194
 21
2986.800457609002
 31
0.0
  0
LINE
  5
85C8
330
85C3
100
AcDbEntity
  8
3
 62
     0
370
    -2
100
AcDbLine
 10
3924.167988683194
 20
4186.800457609003
 30
0.0
 11
3924.167988683194
 21
3066.800457609002
 31
0.0
  0
INSERT
  5
85C9
330
85C3
100
AcDbEntity
  8
3
 62
     0
370
    -2
100
AcDbBlockReference
  2
_OPEN
 10
3924.167988683194
 20
4266.800457609003
 30
0.0
 41
80.0
 42
80.0
 43
80.0
 50
90.0
  0
INSERT
  5
85CA
330
85C3
100
AcDbEntity
  8
3
 62
     0
370
    -2
100
AcDbBlockReference
  2
_OPEN
 10
3924.167988683194
 20
2986.800457609002
 30
0.0
 41
80.0
 42
80.0
 43
80.0
 50
270.0
  0
MTEXT
  5
85CB
330
85C3
100
AcDbEntity
  8
3
 62
     0
100
AcDbMText
 10
3824.167988683193
 20
3626.800457609003
 30
0.0
 40
120.0
 41
0.0
 71
     5
 72
     1
  1
\A1;1280
 11
0.0000000000000001
 21
1.0
 31
0.0
 73
     1
 44
1.0
1001
ACAD
1000
MTEXTBEGIN
1070
    73
1070
     1
1070
    44
1040
1.0
1070
    74
1070
     0
1000
MTEXTEND
  0
POINT
  5
85CC
330
85C3
100
AcDbEntity
  8
DEFPOINTS
 62
     0
100
AcDbPoint
 10
3671.156955993239
 20
4266.800457609003
 30
0.0
  0
POINT
  5
85CD
330
85C3
100
AcDbEntity
  8
DEFPOINTS
 62
     0
100
AcDbPoint
 10
3671.156955993239
 20
2986.800457609002
 30
0.0
  0
POINT
  5
85CE
330
85C3
100
AcDbEntity
  8
DEFPOINTS
 62
     0
100
AcDbPoint
 10
3924.167988683194
 20
2986.800457609002
 30
0.0
  0
ENDBLK
  5
85C5
330
85C3
100
AcDbEntity
  8
0
100
AcDbBlockEnd
  0
BLOCK
  5
85D1
330
85D0
100
AcDbEntity
  8
0
100
AcDbBlockBegin
  2
*D43
 70
     1
 10
0.0
 20
0.0
 30
0.0
  3
*D43
  1

  0
LINE
  5
85D3
330
85D0
100
AcDbEntity
  8
3
 62
     0
370
    -2
100
AcDbLine
 10
3691.156955993239
 20
2986.800457609002
 30
0.0
 11
4211.230831139723
 21
2986.800457609002
 31
0.0
  0
LINE
  5
85D4
330
85D0
100
AcDbEntity
  8
3
 62
     0
370
    -2
100
AcDbLine
 10
3703.677800684858
 20
4320.800457609002
 30
0.0
 11
4211.230831139723
 21
4320.800457609002
 31
0.0
  0
LINE
  5
85D5
330
85D0
100
AcDbEntity
  8
3
 62
     0
370
    -2
100
AcDbLine
 10
4171.230831139723
 20
3066.800457609002
 30
0.0
 11
4171.230831139723
 21
4240.800457609001
 31
0.0
  0
INSERT
  5
85D6
330
85D0
100
AcDbEntity
  8
3
 62
     0
370
    -2
100
AcDbBlockReference
  2
_OPEN
 10
4171.230831139723
 20
2986.800457609002
 30
0.0
 41
80.0
 42
80.0
 43
80.0
 50
270.0
  0
INSERT
  5
85D7
330
85D0
100
AcDbEntity
  8
3
 62
     0
370
    -2
100
AcDbBlockReference
  2
_OPEN
 10
4171.230831139723
 20
4320.800457609002
 30
0.0
 41
80.0
 42
80.0
 43
80.0
 50
90.0
  0
MTEXT
  5
85D8
330
85D0
100
AcDbEntity
  8
3
 62
     0
100
AcDbMText
 10
4071.230831139723
 20
3653.800457609003
 30
0.0
 40
120.0
 41
0.0
 71
     5
 72
     1
  1
\A1;1334
 11
0.0000000000000001
 21
1.0
 31
0.0
 73
     1
 44
1.0
1001
ACAD
1000
MTEXTBEGIN
1070
    73
1070
     1
1070
    44
1040
1.0
1070
    74
1070
     0
1000
MTEXTEND
  0
POINT
  5
85D9
330
85D0
100
AcDbEntity
  8
DEFPOINTS
 62
     0
100
AcDbPoint
 10
3671.156955993239
 20
2986.800457609002
 30
0.0
  0
POINT
  5
85DA
330
85D0
100
AcDbEntity
  8
DEFPOINTS
 62
     0
100
AcDbPoint
 10
3683.677800684858
 20
4320.800457609002
 30
0.0
  0
POINT
  5
85DB
330
85D0
100
AcDbEntity
  8
DEFPOINTS
 62
     0
100
AcDbPoint
 10
4171.230831139723
 20
4320.800457609002
 30
0.0
  0
ENDBLK
  5
85D2
330
85D0
100
AcDbEntity
  8
0
100
AcDbBlockEnd
  0
BLOCK
  5
85DE
330
85DD
100
AcDbEntity
  8
0
100
AcDbBlockBegin
  2
*D44
 70
     1
 10
0.0
 20
0.0
 30
0.0
  3
*D44
  1

  0
LINE
  5
85E0
330
85DD
100
AcDbEntity
  8
3
 62
     0
370
    -2
100
AcDbLine
 10
2775.156955993237
 20
5217.800457609001
 30
0.0
 11
4462.346544791297
 21
5217.800457609001
 31
0.0
  0
LINE
  5
85E1
330
85DD
100
AcDbEntity
  8
3
 62
     0
370
    -2
100
AcDbLine
 10
3703.677800684858
 20
4320.800457609002
 30
0.0
 11
4462.346544791297
 21
4320.800457609002
 31
0.0
  0
LINE
  5
85E2
330
85DD
100
AcDbEntity
  8
3
 62
     0
370
    -2
100
AcDbLine
 10
4422.346544791297
 20
5137.800457609001
 30
0.0
 11
4422.346544791297
 21
4400.800457609001
 31
0.0
  0
INSERT
  5
85E3
330
85DD
100
AcDbEntity
  8
3
 62
     0
370
    -2
100
AcDbBlockReference
  2
_OPEN
 10
4422.346544791297
 20
5217.800457609001
 30
0.0
 41
80.0
 42
80.0
 43
80.0
 50
90.0
  0
INSERT
  5
85E4
330
85DD
100
AcDbEntity
  8
3
 62
     0
370
    -2
100
AcDbBlockReference
  2
_OPEN
 10
4422.346544791297
 20
4320.800457609002
 30
0.0
 41
80.0
 42
80.0
 43
80.0
 50
270.0
  0
MTEXT
  5
85E5
330
85DD
100
AcDbEntity
  8
3
 62
     0
100
AcDbMText
 10
4322.346544791296
 20
4769.300457609002
 30
0.0
 40
120.0
 41
0.0
 71
     5
 72
     1
  1
\A1;897
 11
0.0000000000000001
 21
1.0
 31
0.0
 73
     1
 44
1.0
1001
ACAD
1000
MTEXTBEGIN
1070
    73
1070
     1
1070
    44
1040
1.0
1070
    74
1070
     0
1000
MTEXTEND
  0
POINT
  5
85E6
330
85DD
100
AcDbEntity
  8
DEFPOINTS
 62
     0
100
AcDbPoint
 10
2755.156955993238
 20
5217.800457609001
 30
0.0
  0
POINT
  5
85E7
330
85DD
100
AcDbEntity
  8
DEFPOINTS
 62
     0
100
AcDbPoint
 10
3683.677800684858
 20
4320.800457609002
 30
0.0
  0
POINT
  5
85E8
330
85DD
100
AcDbEntity
  8
DEFPOINTS
 62
     0
100
AcDbPoint
 10
4422.346544791297
 20
4320.800457609002
 30
0.0
  0
ENDBLK
  5
85DF
330
85DD
100
AcDbEntity
  8
0
100
AcDbBlockEnd
  0
BLOCK
  5
85EB
330
85EA
100
AcDbEntity
  8
0
100
AcDbBlockBegin
  2
*D45
 70
     1
 10
0.0
 20
0.0
 30
0.0
  3
*D45
  1

  0
LINE
  5
85ED
330
85EA
100
AcDbEntity
  8
3
 62
     0
370
    -2
100
AcDbLine
 10
3703.677800684858
 20
4320.800457609002
 30
0.0
 11
4462.346544791297
 21
4320.800457609002
 31
0.0
  0
LINE
  5
85EE
330
85EA
100
AcDbEntity
  8
3
 62
     0
370
    -2
100
AcDbLine
 10
3616.156955993239
 20
2890.800457609002
 30
0.0
 11
4462.346544791297
 21
2890.800457609002
 31
0.0
  0
LINE
  5
85EF
330
85EA
100
AcDbEntity
  8
3
 62
     0
370
    -2
100
AcDbLine
 10
4422.346544791297
 20
4240.800457609001
 30
0.0
 11
4422.346544791297
 21
2970.800457609002
 31
0.0
  0
INSERT
  5
85F0
330
85EA
100
AcDbEntity
  8
3
 62
     0
370
    -2
100
AcDbBlockReference
  2
_OPEN
 10
4422.346544791297
 20
4320.800457609002
 30
0.0
 41
80.0
 42
80.0
 43
80.0
 50
90.0
  0
INSERT
  5
85F1
330
85EA
100
AcDbEntity
  8
3
 62
     0
370
    -2
100
AcDbBlockReference
  2
_OPEN
 10
4422.346544791297
 20
2890.800457609002
 30
0.0
 41
80.0
 42
80.0
 43
80.0
 50
270.0
  0
MTEXT
  5
85F2
330
85EA
100
AcDbEntity
  8
3
 62
     0
100
AcDbMText
 10
4322.346544791296
 20
3605.800457609002
 30
0.0
 40
120.0
 41
0.0
 71
     5
 72
     1
  1
\A1;1430
 11
0.0000000000000001
 21
1.0
 31
0.0
 73
     1
 44
1.0
1001
ACAD
1000
MTEXTBEGIN
1070
    73
1070
     1
1070
    44
1040
1.0
1070
    74
1070
     0
1000
MTEXTEND
  0
POINT
  5
85F3
330
85EA
100
AcDbEntity
  8
DEFPOINTS
 62
     0
100
AcDbPoint
 10
3683.677800684858
 20
4320.800457609002
 30
0.0
  0
POINT
  5
85F4
330
85EA
100
AcDbEntity
  8
DEFPOINTS
 62
     0
100
AcDbPoint
 10
3596.156955993239
 20
2890.800457609002
 30
0.0
  0
POINT
  5
85F5
330
85EA
100
AcDbEntity
  8
DEFPOINTS
 62
     0
100
AcDbPoint
 10
4422.346544791297
 20
2890.800457609002
 30
0.0
  0
ENDBLK
  5
85EC
330
85EA
100
AcDbEntity
  8
0
100
AcDbBlockEnd
  0
BLOCK
  5
85F8
330
85F7
100
AcDbEntity
  8
0
100
AcDbBlockBegin
  2
*D46
 70
     1
 10
0.0
 20
0.0
 30
0.0
  3
*D46
  1

  0
LINE
  5
86CE
330
85F7
100
AcDbEntity
  8
3
 62
     0
370
    -2
100
AcDbLine
 10
3616.156955993239
 20
2890.800457609002
 30
0.0
 11
4462.346544791297
 21
2890.800457609002
 31
0.0
  0
LINE
  5
86CF
330
85F7
100
AcDbEntity
  8
3
 62
     0
370
    -2
100
AcDbLine
 10
3616.156955993239
 20
2870.800457609002
 30
0.0
 11
4462.346544791297
 21
2870.800457609002
 31
0.0
  0
LINE
  5
86D0
330
85F7
100
AcDbEntity
  8
3
 62
     0
370
    -2
100
AcDbLine
 10
4422.346544791297
 20
2970.800457609002
 30
0.0
 11
4422.346544791297
 21
3050.800457609002
 31
0.0
  0
LINE
  5
86D1
330
85F7
100
AcDbEntity
  8
3
 62
     0
370
    -2
100
AcDbLine
 10
4422.346544791297
 20
2870.800457609002
 30
0.0
 11
4422.346544791297
 21
2790.800457609002
 31
0.0
  0
LINE
  5
86D2
330
85F7
100
AcDbEntity
  8
3
 62
     0
370
    -2
100
AcDbLine
 10
4422.346544791297
 20
2880.800457609002
 30
0.0
 11
4796.632259077012
 21
2993.086171894717
 31
0.0
  0
LINE
  5
86D3
330
85F7
100
AcDbEntity
  8
3
 62
     0
370
    -2
100
AcDbLine
 10
4796.632259077012
 20
2993.086171894717
 30
0.0
 11
4796.632259077012
 21
3421.657600466145
 31
0.0
  0
MTEXT
  5
86D4
330
85F7
100
AcDbEntity
  8
3
 62
     0
100
AcDbMText
 10
4665.203687648438
 20
3207.371886180431
 30
0.0
 40
120.0
 41
0.0
 71
     5
 72
     1
  1
\A1;(20)
 11
0.0000000000000001
 21
1.0
 31
0.0
 73
     1
 44
1.0
1001
ACAD
1000
MTEXTBEGIN
1070
    73
1070
     1
1070
    44
1040
1.0
1070
    74
1070
     0
1000
MTEXTEND
  0
LINE
  5
86D5
330
85F7
100
AcDbEntity
  8
3
 62
     0
370
    -2
100
AcDbLine
 10
4422.346544791297
 20
2890.800457609002
 30
0.0
 11
4422.346544791297
 21
2870.800457609002
 31
0.0
  0
LINE
  5
86D6
330
85F7
100
AcDbEntity
  8
3
 62
     0
370
    -2
100
AcDbLine
 10
4422.346544791297
 20
2890.800457609002
 30
0.0
 11
4422.346544791297
 21
2870.800457609002
 31
0.0
  0
INSERT
  5
86D7
330
85F7
100
AcDbEntity
  8
3
 62
     0
370
    -2
100
AcDbBlockReference
  2
_OPEN
 10
4422.346544791297
 20
2890.800457609002
 30
0.0
 41
80.0
 42
80.0
 43
80.0
 50
270.0
  0
INSERT
  5
86D8
330
85F7
100
AcDbEntity
  8
3
 62
     0
370
    -2
100
AcDbBlockReference
  2
_DotSmall
 10
4422.346544791297
 20
2870.800457609002
 30
0.0
 41
80.0
 42
80.0
 43
80.0
 50
90.0
  0
POINT
  5
86D9
330
85F7
100
AcDbEntity
  8
DEFPOINTS
 62
     0
100
AcDbPoint
 10
3596.156955993239
 20
2890.800457609002
 30
0.0
  0
POINT
  5
86DA
330
85F7
100
AcDbEntity
  8
DEFPOINTS
 62
     0
100
AcDbPoint
 10
3596.156955993239
 20
2870.800457609002
 30
0.0
  0
POINT
  5
86DB
330
85F7
100
AcDbEntity
  8
DEFPOINTS
 62
     0
100
AcDbPoint
 10
4422.346544791297
 20
2870.800457609002
 30
0.0
  0
ENDBLK
  5
85F9
330
85F7
100
AcDbEntity
  8
0
100
AcDbBlockEnd
  0
BLOCK
  5
860A
330
8609
100
AcDbEntity
  8
0
100
AcDbBlockBegin
  2
*D47
 70
     1
 10
0.0
 20
0.0
 30
0.0
  3
*D47
  1

  0
LINE
  5
872A
330
8609
100
AcDbEntity
  8
3
 62
     0
370
    -2
100
AcDbLine
 10
3616.156955993239
 20
2870.800457609002
 30
0.0
 11
4462.346544791297
 21
2870.800457609002
 31
0.0
  0
LINE
  5
872B
330
8609
100
AcDbEntity
  8
3
 62
     0
370
    -2
100
AcDbLine
 10
3616.156955993239
 20
2805.800457609002
 30
0.0
 11
4462.346544791297
 21
2805.800457609002
 31
0.0
  0
LINE
  5
872C
330
8609
100
AcDbEntity
  8
3
 62
     0
370
    -2
100
AcDbLine
 10
4422.346544791297
 20
2870.800457609002
 30
0.0
 11
4422.346544791297
 21
2950.800457609002
 31
0.0
  0
LINE
  5
872D
330
8609
100
AcDbEntity
  8
3
 62
     0
370
    -2
100
AcDbLine
 10
4422.346544791297
 20
2725.800457609002
 30
0.0
 11
4422.346544791297
 21
2645.800457609002
 31
0.0
  0
MTEXT
  5
872E
330
8609
100
AcDbEntity
  8
3
 62
     0
100
AcDbMText
 10
4302.753401135152
 20
2619.994339744695
 30
0.0
 40
120.0
 41
0.0
 71
     5
 72
     1
  1
\A1;65
 11
0.0000000000000001
 21
1.0
 31
0.0
 73
     1
 44
1.0
1001
ACAD
1000
MTEXTBEGIN
1070
    73
1070
     1
1070
    44
1040
1.0
1070
    74
1070
     0
1000
MTEXTEND
  0
LINE
  5
872F
330
8609
100
AcDbEntity
  8
3
 62
     0
370
    -2
100
AcDbLine
 10
4422.346544791297
 20
2870.800457609002
 30
0.0
 11
4422.346544791297
 21
2805.800457609002
 31
0.0
  0
INSERT
  5
8730
330
8609
100
AcDbEntity
  8
3
 62
     0
370
    -2
100
AcDbBlockReference
  2
_DotSmall
 10
4422.346544791297
 20
2870.800457609002
 30
0.0
 41
80.0
 42
80.0
 43
80.0
 50
270.0
  0
INSERT
  5
8731
330
8609
100
AcDbEntity
  8
3
 62
     0
370
    -2
100
AcDbBlockReference
  2
_OPEN
 10
4422.346544791297
 20
2805.800457609002
 30
0.0
 41
80.0
 42
80.0
 43
80.0
 50
90.0
  0
POINT
  5
8732
330
8609
100
AcDbEntity
  8
DEFPOINTS
 62
     0
100
AcDbPoint
 10
3596.156955993239
 20
2870.800457609002
 30
0.0
  0
POINT
  5
8733
330
8609
100
AcDbEntity
  8
DEFPOINTS
 62
     0
100
AcDbPoint
 10
3596.156955993239
 20
2805.800457609002
 30
0.0
  0
POINT
  5
8734
330
8609
100
AcDbEntity
  8
DEFPOINTS
 62
     0
100
AcDbPoint
 10
4422.346544791297
 20
2805.800457609002
 30
0.0
  0
ENDBLK
  5
860B
330
8609
100
AcDbEntity
  8
0
100
AcDbBlockEnd
  0
BLOCK
  5
861C
330
861B
100
AcDbEntity
  8
0
100
AcDbBlockBegin
  2
*D48
 70
     1
 10
0.0
 20
0.0
 30
0.0
  3
*D48
  1

  0
LINE
  5
8660
330
861B
100
AcDbEntity
  8
3
 62
     0
370
    -2
100
AcDbLine
 10
2775.156955993237
 20
5217.800457609001
 30
0.0
 11
4898.422177757748
 21
5217.800457609001
 31
0.0
  0
LINE
  5
8661
330
861B
100
AcDbEntity
  8
3
 62
     0
370
    -2
100
AcDbLine
 10
3616.156955993239
 20
2805.800457609002
 30
0.0
 11
4898.422177757748
 21
2805.800457609002
 31
0.0
  0
LINE
  5
8662
330
861B
100
AcDbEntity
  8
3
 62
     0
370
    -2
100
AcDbLine
 10
4858.422177757748
 20
5137.800457609001
 30
0.0
 11
4858.422177757748
 21
2885.800457609002
 31
0.0
  0
INSERT
  5
8663
330
861B
100
AcDbEntity
  8
3
 62
     0
370
    -2
100
AcDbBlockReference
  2
_OPEN
 10
4858.422177757748
 20
5217.800457609001
 30
0.0
 41
80.0
 42
80.0
 43
80.0
 50
90.0
  0
INSERT
  5
8664
330
861B
100
AcDbEntity
  8
3
 62
     0
370
    -2
100
AcDbBlockReference
  2
_OPEN
 10
4858.422177757748
 20
2805.800457609002
 30
0.0
 41
80.0
 42
80.0
 43
80.0
 50
270.0
  0
MTEXT
  5
8665
330
861B
100
AcDbEntity
  8
3
 62
     0
100
AcDbMText
 10
4726.993606329175
 20
4011.800457609002
 30
0.0
 40
120.0
 41
0.0
 71
     5
 72
     1
  1
\A1;(2412)
 11
0.0000000000000001
 21
1.0
 31
0.0
 73
     1
 44
1.0
1001
ACAD
1000
MTEXTBEGIN
1070
    73
1070
     1
1070
    44
1040
1.0
1070
    74
1070
     0
1000
MTEXTEND
  0
POINT
  5
8666
330
861B
100
AcDbEntity
  8
DEFPOINTS
 62
     0
100
AcDbPoint
 10
2755.156955993238
 20
5217.800457609001
 30
0.0
  0
POINT
  5
8667
330
861B
100
AcDbEntity
  8
DEFPOINTS
 62
     0
100
AcDbPoint
 10
3596.156955993239
 20
2805.800457609002
 30
0.0
  0
POINT
  5
8668
330
861B
100
AcDbEntity
  8
DEFPOINTS
 62
     0
100
AcDbPoint
 10
4858.422177757748
 20
2805.800457609002
 30
0.0
  0
ENDBLK
  5
861D
330
861B
100
AcDbEntity
  8
0
100
AcDbBlockEnd
  0
BLOCK
  5
86CC
330
86CA
100
AcDbEntity
  8
0
100
AcDbBlockBegin
  2
_DotSmall
 70
     0
 10
0.0
 20
0.0
 30
0.0
  3
_DotSmall
  1

  0
LWPOLYLINE
  5
86CB
330
86CA
100
AcDbEntity
  8
0
  6
ByBlock
 62
     0
100
AcDbPolyline
 90
        2
 70
     1
 43
0.5
 10
-0.0625
 20
0.0
 42
1.0
 10
0.0625
 20
0.0
 42
1.0
  0
ENDBLK
  5
86CD
330
86CA
100
AcDbEntity
  8
0
100
AcDbBlockEnd
  0
ENDSEC
  0
SECTION
  2
ENTITIES
  0
INSERT
  5
7C22
330
840C
100
AcDbEntity
  8
1
100
AcDbBlockReference
  2
YA_N
 10
6.0
 20
5.0
 30
0.0
  0
LINE
  5
7C23
330
840C
100
AcDbEntity
  8
2
100
AcDbLine
 10
2846.156955993239
 20
5369.39887263968
 30
0.0
 11
2846.156955993239
 21
2805.800457609002
 31
0.0
  0
LINE
  5
7C24
330
840C
100
AcDbEntity
  8
1
100
AcDbLine
 10
5039.092839011053
 20
2890.800457609002
 30
0.0
 11
7159.092839011051
 21
2890.800457609002
 31
0.0
1001
ACAD
1000
ASC_BOUNDS
1002
{
1070
    19
1005
0
1005
0
1002
}
  0
LINE
  5
7C25
330
840C
100
AcDbEntity
  8
1
100
AcDbLine
 10
5039.092839011053
 20
3015.800457609002
 30
0.0
 11
5391.092839011053
 21
3015.800457609002
 31
0.0
  0
LINE
  5
7C28
330
840C
100
AcDbEntity
  8
2
100
AcDbLine
 10
1638.616022453501
 20
4320.800457609002
 30
0.0
 11
3683.677800684858
 21
4320.800457609002
 31
0.0
  0
LINE
  5
7C29
330
840C
100
AcDbEntity
  8
2
100
AcDbLine
 10
5025.792839011053
 20
4320.800457609002
 30
0.0
 11
7274.603325250289
 21
4320.800457609002
 31
0.0
  0
LINE
  5
7C2A
330
840C
100
AcDbEntity
  8
2
100
AcDbLine
 10
4969.590112414675
 20
3275.800457609002
 30
0.0
 11
5492.434130173948
 21
3275.800457609002
 31
0.0
  0
LINE
  5
7C2B
330
840C
100
AcDbEntity
  8
1
100
AcDbLine
 10
5046.092839011054
 20
3381.800457609002
 30
0.0
 11
5123.992839011052
 21
3381.800457609002
 31
0.0
  0
LINE
  5
7C2C
330
840C
100
AcDbEntity
  8
1
100
AcDbLine
 10
5046.092839011054
 20
3169.800457609002
 30
0.0
 11
5123.992839011052
 21
3169.800457609002
 31
0.0
  0
LINE
  5
7C2D
330
840C
100
AcDbEntity
  8
1
100
AcDbLine
 10
5144.092839011054
 20
4390.800457609001
 30
0.0
 11
5144.092839011054
 21
4250.800457609002
 31
0.0
  0
LINE
  5
7C2E
330
840C
100
AcDbEntity
  8
1
100
AcDbLine
 10
5123.992839011052
 20
4574.800457609002
 30
0.0
 11
5123.992839011052
 21
4390.800457609001
 31
0.0
  0
LINE
  5
7C2F
330
840C
100
AcDbEntity
  8
1
100
AcDbLine
 10
5123.992839011052
 20
4390.800457609001
 30
0.0
 11
5144.092839011054
 21
4390.800457609001
 31
0.0
  0
LINE
  5
7C30
330
840C
100
AcDbEntity
  8
1
100
AcDbLine
 10
5123.992839011052
 20
4250.800457609002
 30
0.0
 11
5144.092839011054
 21
4250.800457609002
 31
0.0
  0
LINE
  5
7C31
330
840C
100
AcDbEntity
  8
1
100
AcDbLine
 10
5123.992839011052
 20
4250.800457609002
 30
0.0
 11
5123.992839011052
 21
3335.800457609002
 31
0.0
  0
LINE
  5
7C32
330
840C
100
AcDbEntity
  8
1
100
AcDbLine
 10
5046.092839011054
 20
4574.800457609002
 30
0.0
 11
5046.092839011054
 21
3169.800457609002
 31
0.0
  0
LINE
  5
7C33
330
840C
100
AcDbEntity
  8
1
100
AcDbLine
 10
5139.092839011054
 20
3335.800457609002
 30
0.0
 11
5139.092839011054
 21
3215.800457609002
 31
0.0
  0
LINE
  5
7C34
330
840C
100
AcDbEntity
  8
1
100
AcDbLine
 10
5123.992839011052
 20
3335.800457609002
 30
0.0
 11
5139.092839011054
 21
3335.800457609002
 31
0.0
  0
LINE
  5
7C35
330
840C
100
AcDbEntity
  8
1
100
AcDbLine
 10
5123.992839011052
 20
3215.800457609002
 30
0.0
 11
5139.092839011054
 21
3215.800457609002
 31
0.0
  0
LINE
  5
7C36
330
840C
100
AcDbEntity
  8
1
100
AcDbLine
 10
5123.992839011052
 20
3215.800457609002
 30
0.0
 11
5123.992839011052
 21
3169.800457609002
 31
0.0
  0
LINE
  5
7C37
330
840C
100
AcDbEntity
  8
1
100
AcDbLine
 10
4961.092839011054
 20
3055.800457609002
 30
0.0
 11
5206.092839011054
 21
3055.800457609002
 31
0.0
  0
LINE
  5
7C38
330
840C
100
AcDbEntity
  8
1
100
AcDbLine
 10
4961.092839011054
 20
4700.800457609002
 30
0.0
 11
4961.092839011054
 21
3055.800457609002
 31
0.0
  0
LINE
  5
7C39
330
840C
100
AcDbEntity
  8
1
100
AcDbLine
 10
5206.092839011053
 20
4700.800457609002
 30
0.0
 11
5206.092839011054
 21
4680.800457609002
 31
0.0
  0
LINE
  5
7C3A
330
840C
100
AcDbEntity
  8
2
100
AcDbLine
 10
2846.156955993239
 20
8747.995955661606
 30
0.0
 11
2846.156955993239
 21
6367.818278393301
 31
0.0
  0
LINE
  5
7C3B
330
840C
100
AcDbEntity
  8
2
100
AcDbLine
 10
1426.156955993237
 20
7403.128832059166
 30
0.0
 11
1426.156955993237
 21
6354.699299825018
 31
0.0
  0
LINE
  5
7C3C
330
840C
100
AcDbEntity
  8
2
100
AcDbLine
 10
6241.092839011054
 20
5467.750106454829
 30
0.0
 11
6241.092839011049
 21
2805.800457609002
 31
0.0
  0
INSERT
  5
7C3D
330
840C
100
AcDbEntity
  8
1
100
AcDbBlockReference
  2
YA_N
 10
-1757.227407310314
 20
-1218.78641745778
 30
0.0
 41
30.0
 42
30.0
 43
30.0
  0
INSERT
  5
7C3E
330
840C
100
AcDbEntity
  8
1
100
AcDbBlockReference
  2
YA_N
 10
-755.2436758818473
 20
-538.554984833856
 30
0.0
 41
30.0
 42
30.0
 43
30.0
  0
LINE
  5
7C3F
330
840C
100
AcDbEntity
  8
1
100
AcDbLine
 10
5039.09283901105
 20
2870.800457609002
 30
0.0
 11
7159.092839011053
 21
2870.800457609002
 31
0.0
1001
ACAD
1000
ASC_BOUNDS
1002
{
1070
    19
1005
0
1005
0
1002
}
  0
LINE
  5
7C40
330
840C
100
AcDbEntity
  8
1
100
AcDbLine
 10
5039.092839011052
 20
2805.800457609002
 30
0.0
 11
7159.092839011053
 21
2805.800457609002
 31
0.0
  0
LINE
  5
7C41
330
840C
100
AcDbEntity
  8
1
100
AcDbLine
 10
7159.092839011053
 20
2870.800457609002
 30
0.0
 11
7159.092839011053
 21
2805.800457609002
 31
0.0
  0
LINE
  5
7C42
330
840C
100
AcDbEntity
  8
1
100
AcDbLine
 10
7091.092839011054
 20
2986.800457609001
 30
0.0
 11
7091.092839011054
 21
5217.800457609002
 31
0.0
  0
LINE
  5
7C43
330
840C
100
AcDbEntity
  8
1
100
AcDbLine
 10
5391.092839011052
 20
2986.800457609002
 30
0.0
 11
5391.092839011054
 21
5217.800457609002
 31
0.0
  0
LINE
  5
7C44
330
840C
100
AcDbEntity
  8
1
100
AcDbLine
 10
3596.156955993239
 20
8648.31161293584
 30
0.0
 11
2096.156955993238
 21
8648.31161293584
 31
0.0
  0
LINE
  5
7C45
330
840C
100
AcDbEntity
  8
1
100
AcDbLine
 10
3596.156955993239
 20
6528.311612935839
 30
0.0
 11
1146.156955993237
 21
6528.311612935842
 31
0.0
  0
LINE
  5
7C46
330
840C
100
AcDbEntity
  8
1
100
AcDbLine
 10
3596.156955993239
 20
8648.31161293584
 30
0.0
 11
3596.156955993239
 21
8580.311612935842
 31
0.0
  0
LINE
  5
7C47
330
840C
100
AcDbEntity
  8
1
100
AcDbLine
 10
1146.156955993237
 20
7528.311612935842
 30
0.0
 11
1146.156955993237
 21
6528.311612935839
 31
0.0
  0
LINE
  5
7C48
330
840C
100
AcDbEntity
  8
1
100
AcDbLine
 10
2096.156955993238
 20
8648.31161293584
 30
0.0
 11
2096.156955993238
 21
8580.311612935842
 31
0.0
  0
LINE
  5
7C49
330
840C
100
AcDbEntity
  8
1
100
AcDbLine
 10
1767.156955993237
 20
7528.311612935837
 30
0.0
 11
1146.156955993237
 21
7528.311612935842
 31
0.0
  0
LINE
  5
7C4B
330
840C
100
AcDbEntity
  8
1
100
AcDbLine
 10
5233.592839011053
 20
4244.800457609001
 30
0.0
 11
5233.592839011053
 21
4114.800457609002
 31
0.0
  0
LINE
  5
7C4C
330
840C
100
AcDbEntity
  8
1
100
AcDbLine
 10
5243.592839011053
 20
4254.800457609001
 30
0.0
 11
5313.792839011053
 21
4254.800457609001
 31
0.0
  0
LINE
  5
7C4D
330
840C
100
AcDbEntity
  8
1
100
AcDbLine
 10
5243.592839011053
 20
4104.800457609001
 30
0.0
 11
5313.792839011053
 21
4104.800457609001
 31
0.0
  0
ARC
  5
7C4E
330
840C
100
AcDbEntity
  8
1
100
AcDbCircle
 10
5243.592839011053
 20
4244.800457609001
 30
0.0
 40
10.0
100
AcDbArc
 50
90.0
 51
180.0
  0
ARC
  5
7C4F
330
840C
100
AcDbEntity
  8
1
100
AcDbCircle
 10
5243.592839011053
 20
4114.800457609002
 30
0.0
 40
10.0
100
AcDbArc
 50
180.0
 51
270.0
  0
LINE
  5
7C50
330
840C
100
AcDbEntity
  8
1
100
AcDbLine
 10
5313.792839011053
 20
4104.800457609001
 30
0.0
 11
5338.092839011061
 21
4104.800457609001
 31
0.0
  0
LINE
  5
7C51
330
840C
100
AcDbEntity
  8
1
100
AcDbLine
 10
5313.792839011053
 20
4254.800457609001
 30
0.0
 11
5338.092839011056
 21
4254.800457609001
 31
0.0
  0
LINE
  5
7C52
330
840C
100
AcDbEntity
  8
1
100
AcDbLine
 10
7261.092839011054
 20
4244.800457609001
 30
0.0
 11
7261.092839011054
 21
4114.800457609002
 31
0.0
  0
LINE
  5
7C53
330
840C
100
AcDbEntity
  8
1
100
AcDbLine
 10
7251.092839011054
 20
4104.800457609001
 30
0.0
 11
7168.392839011052
 21
4104.800457609001
 31
0.0
  0
ARC
  5
7C54
330
840C
100
AcDbEntity
  8
1
100
AcDbCircle
 10
7251.092839011054
 20
4114.800457609002
 30
0.0
 40
10.0
100
AcDbArc
 50
270.0
 51
0.0
  0
LINE
  5
7C55
330
840C
100
AcDbEntity
  8
1
100
AcDbLine
 10
7168.392839011052
 20
4104.800457609001
 30
0.0
 11
7144.092839011054
 21
4104.800457609001
 31
0.0
  0
LINE
  5
7C56
330
840C
100
AcDbEntity
  8
1
100
AcDbLine
 10
7251.092839011054
 20
4254.800457609001
 30
0.0
 11
7168.392839011052
 21
4254.800457609001
 31
0.0
  0
ARC
  5
7C57
330
840C
100
AcDbEntity
  8
1
100
AcDbCircle
 10
7251.092839011054
 20
4244.800457609001
 30
0.0
 40
10.0
100
AcDbArc
 50
0.0
 51
90.0
  0
LINE
  5
7C58
330
840C
100
AcDbEntity
  8
1
100
AcDbLine
 10
7168.392839011052
 20
4254.800457609001
 30
0.0
 11
7144.092839011054
 21
4254.800457609001
 31
0.0
  0
LINE
  5
7C5D
330
840C
100
AcDbEntity
  8
1
100
AcDbLine
 10
5046.092839011054
 20
4574.800457609002
 30
0.0
 11
5123.992839011052
 21
4574.800457609002
 31
0.0
  0
LINE
  5
7C5E
330
840C
100
AcDbEntity
  8
1
100
AcDbLine
 10
5046.092839011054
 20
4066.800457609001
 30
0.0
 11
5123.992839011052
 21
4066.800457609001
 31
0.0
  0
LINE
  5
7C5F
330
840C
100
AcDbEntity
  8
1
100
AcDbLine
 10
4961.092839011053
 20
4700.800457609002
 30
0.0
 11
5206.092839011052
 21
4700.800457609002
 31
0.0
  0
LINE
  5
7C60
330
840C
100
AcDbEntity
  8
1
100
AcDbLine
 10
5206.092839011054
 20
3075.800457609002
 30
0.0
 11
5206.092839011054
 21
3055.800457609002
 31
0.0
  0
INSERT
  5
7C61
330
840C
100
AcDbEntity
  8
1
100
AcDbBlockReference
  2
YA_N
 10
4767.943419715615
 20
-1494.695868425496
 30
0.0
  0
LINE
  5
7C62
330
840C
100
AcDbEntity
  8
1
100
AcDbLine
 10
7159.092839011053
 20
3015.800457609002
 30
0.0
 11
7159.092839011051
 21
2890.800457609002
 31
0.0
  0
LINE
  5
7C63
330
840C
100
AcDbEntity
  8
1
100
AcDbLine
 10
5039.092839011052
 20
2870.800457609002
 30
0.0
 11
5039.092839011054
 21
2805.800457609002
 31
0.0
  0
LINE
  5
7C64
330
840C
100
AcDbEntity
  8
1
100
AcDbLine
 10
5039.092839011053
 20
3015.800457609002
 30
0.0
 11
5039.092839011053
 21
2890.800457609002
 31
0.0
  0
LINE
  5
7C68
330
840C
100
AcDbEntity
  8
1
100
AcDbLine
 10
5144.092839011054
 20
4358.300457609002
 30
0.0
 11
5391.092839011053
 21
4358.300457609002
 31
0.0
  0
LINE
  5
7C69
330
840C
100
AcDbEntity
  8
1
100
AcDbLine
 10
5144.092839011054
 20
4283.300457609001
 30
0.0
 11
5391.092839011053
 21
4283.300457609001
 31
0.0
  0
LINE
  5
7C6A
330
840C
100
AcDbEntity
  8
1
100
AcDbLine
 10
5235.042839011056
 20
3075.800457609002
 30
0.0
 11
5235.042839011054
 21
3275.800457609004
 31
0.0
  0
LINE
  5
7C6B
330
840C
100
AcDbEntity
  8
1
100
AcDbLine
 10
5235.042839011056
 20
3075.800457609004
 30
0.0
 11
5391.092839011053
 21
3075.800457609004
 31
0.0
  0
LINE
  5
7C6C
330
840C
100
AcDbEntity
  8
1
100
AcDbLine
 10
5391.092839011054
 20
3485.800457609006
 30
0.0
 11
5235.042839011053
 21
3485.800457609003
 31
0.0
  0
LINE
  5
7C6D
330
840C
100
AcDbEntity
  8
1
100
AcDbLine
 10
5225.042839011052
 20
3245.800457609004
 30
0.0
 11
5139.092839011054
 21
3245.800457609004
 31
0.0
  0
LINE
  5
7C6E
330
840C
100
AcDbEntity
  8
1
100
AcDbLine
 10
5225.042839011052
 20
3305.800457609004
 30
0.0
 11
5139.092839011054
 21
3305.800457609002
 31
0.0
  0
LINE
  5
7C6F
330
840C
100
AcDbEntity
  8
1
100
AcDbLine
 10
5235.042839011054
 20
3485.800457609003
 30
0.0
 11
5235.042839011054
 21
3275.800457609004
 31
0.0
  0
LINE
  5
7C70
330
840C
100
AcDbEntity
  8
1
100
AcDbLine
 10
5225.042839011052
 20
3243.300457609004
 30
0.0
 11
5225.042839011052
 21
3308.300457609004
 31
0.0
  0
LINE
  5
7C71
330
840C
100
AcDbEntity
  8
1
100
AcDbLine
 10
5225.042839011052
 20
3243.300457609004
 30
0.0
 11
5235.042839011054
 21
3243.300457609004
 31
0.0
  0
LINE
  5
7C72
330
840C
100
AcDbEntity
  8
1
100
AcDbLine
 10
5225.042839011052
 20
3308.300457609004
 30
0.0
 11
5235.042839011054
 21
3308.300457609004
 31
0.0
  0
LINE
  5
7C73
330
840C
100
AcDbEntity
  8
2
100
AcDbLine
 10
3821.984076714958
 20
7730.311612935842
 30
0.0
 11
1588.632147140524
 21
7730.311612935837
 31
0.0
  0
LINE
  5
7C74
330
840C
100
AcDbEntity
  8
1
100
AcDbLine
 10
3226.156955993238
 20
6450.311612935841
 30
0.0
 11
1206.156955993237
 21
6450.311612935841
 31
0.0
  0
LINE
  5
7C75
330
840C
100
AcDbEntity
  8
1
100
AcDbLine
 10
3100.156955993239
 20
6535.311612935842
 30
0.0
 11
2592.156955993239
 21
6535.311612935842
 31
0.0
  0
LINE
  5
7C76
330
840C
100
AcDbEntity
  8
1
100
AcDbLine
 10
2776.156955993239
 20
6613.211612935842
 30
0.0
 11
2592.156955993239
 21
6613.211612935842
 31
0.0
  0
LINE
  5
7C77
330
840C
100
AcDbEntity
  8
1
100
AcDbLine
 10
1396.156955993237
 20
6714.261612935844
 30
0.0
 11
1396.156955993237
 21
6628.311612935842
 31
0.0
  0
LINE
  5
7C78
330
840C
100
AcDbEntity
  8
1
100
AcDbLine
 10
1456.156955993237
 20
6714.261612935844
 30
0.0
 11
1456.156955993237
 21
6628.311612935842
 31
0.0
  0
LINE
  5
7C79
330
840C
100
AcDbEntity
  8
1
100
AcDbLine
 10
1206.156955993237
 20
6450.311612935841
 30
0.0
 11
1206.156955993237
 21
6695.311612935842
 31
0.0
  0
LINE
  5
7C7A
330
840C
100
AcDbEntity
  8
1
100
AcDbLine
 10
2046.156955993237
 20
6528.311612935842
 30
0.0
 11
1921.156955993238
 21
6528.311612935842
 31
0.0
  0
LINE
  5
7C7B
330
840C
100
AcDbEntity
  8
1
100
AcDbLine
 10
1902.156955993237
 20
6528.311612935842
 30
0.0
 11
1837.156955993237
 21
6528.311612935842
 31
0.0
  0
LINE
  5
7C7C
330
840C
100
AcDbEntity
  8
1
100
AcDbLine
 10
1486.156955993237
 20
6628.311612935842
 30
0.0
 11
1366.156955993237
 21
6628.311612935842
 31
0.0
  0
LINE
  5
7C7D
330
840C
100
AcDbEntity
  8
1
100
AcDbLine
 10
1366.156955993237
 20
6613.211612935842
 30
0.0
 11
1320.156955993237
 21
6613.211612935842
 31
0.0
  0
LINE
  5
7C7E
330
840C
100
AcDbEntity
  8
1
100
AcDbLine
 10
1320.156955993237
 20
6535.311612935842
 30
0.0
 11
1320.156955993237
 21
6613.211612935842
 31
0.0
  0
LINE
  5
7C7F
330
840C
100
AcDbEntity
  8
1
100
AcDbLine
 10
1366.156955993237
 20
6613.211612935842
 30
0.0
 11
1366.156955993237
 21
6628.311612935842
 31
0.0
  0
LINE
  5
7C80
330
840C
100
AcDbEntity
  8
1
100
AcDbLine
 10
1532.156955993237
 20
6535.311612935842
 30
0.0
 11
1532.156955993237
 21
6613.211612935841
 31
0.0
  0
LINE
  5
7C81
330
840C
100
AcDbEntity
  8
1
100
AcDbLine
 10
1486.156955993237
 20
6613.211612935842
 30
0.0
 11
1486.156955993237
 21
6628.311612935842
 31
0.0
  0
LINE
  5
7C82
330
840C
100
AcDbEntity
  8
1
100
AcDbLine
 10
2592.156955993239
 20
6535.311612935842
 30
0.0
 11
2592.156955993239
 21
6613.211612935841
 31
0.0
  0
LINE
  5
7C83
330
840C
100
AcDbEntity
  8
1
100
AcDbLine
 10
1636.156955993237
 20
6724.261612935842
 30
0.0
 11
1426.156955993237
 21
6724.261612935842
 31
0.0
  0
LINE
  5
7C84
330
840C
100
AcDbEntity
  8
1
100
AcDbLine
 10
1393.656955993237
 20
6714.261612935844
 30
0.0
 11
1458.656955993237
 21
6714.261612935844
 31
0.0
  0
LINE
  5
7C85
330
840C
100
AcDbEntity
  8
1
100
AcDbLine
 10
1226.156955993237
 20
6724.261612935842
 30
0.0
 11
1226.156955993245
 21
7373.761612935844
 31
0.0
  0
LINE
  5
7C86
330
840C
100
AcDbEntity
  8
1
100
AcDbLine
 10
1226.156955993237
 20
6724.261612935842
 30
0.0
 11
1426.156955993237
 21
6724.261612935842
 31
0.0
  0
LINE
  5
7C87
330
840C
100
AcDbEntity
  8
1
100
AcDbLine
 10
1393.656955993237
 20
6714.261612935844
 30
0.0
 11
1393.656955993237
 21
6724.261612935842
 31
0.0
  0
LINE
  5
7C88
330
840C
100
AcDbEntity
  8
1
100
AcDbLine
 10
1226.156955993239
 20
6899.761612935844
 30
0.0
 11
1227.156955993239
 21
6899.761612935844
 31
0.0
  0
LINE
  5
7C89
330
840C
100
AcDbEntity
  8
1
100
AcDbLine
 10
1636.156955993245
 20
7373.761612935843
 30
0.0
 11
1636.156955993237
 21
6724.261612935841
 31
0.0
  0
LINE
  5
7C8A
330
840C
100
AcDbEntity
  8
1
100
AcDbLine
 10
1458.656955993237
 20
6714.261612935844
 30
0.0
 11
1458.656955993237
 21
6724.261612935842
 31
0.0
  0
LINE
  5
7C8B
330
840C
100
AcDbEntity
  8
1
100
AcDbLine
 10
2808.656955993237
 20
6633.311612935843
 30
0.0
 11
2808.656955993237
 21
6880.31161293584
 31
0.0
  0
LINE
  5
7C8C
330
840C
100
AcDbEntity
  8
1
100
AcDbLine
 10
2883.656955993238
 20
6633.311612935843
 30
0.0
 11
2883.656955993238
 21
6880.311612935843
 31
0.0
  0
LINE
  5
7C8D
330
840C
100
AcDbEntity
  8
1
100
AcDbLine
 10
3226.156955993238
 20
6450.311612935841
 30
0.0
 11
3226.156955993238
 21
6695.311612935839
 31
0.0
  0
LINE
  5
7C8E
330
840C
100
AcDbEntity
  8
1
100
AcDbLine
 10
2916.156955993237
 20
6633.311612935843
 30
0.0
 11
2776.156955993239
 21
6633.311612935843
 31
0.0
  0
LINE
  5
7C8F
330
840C
100
AcDbEntity
  8
1
100
AcDbLine
 10
2776.156955993239
 20
6613.211612935841
 30
0.0
 11
2776.156955993239
 21
6633.311612935843
 31
0.0
  0
LINE
  5
7C90
330
840C
100
AcDbEntity
  8
1
100
AcDbLine
 10
3100.156955993239
 20
6613.211612935842
 30
0.0
 11
2916.156955993237
 21
6613.211612935842
 31
0.0
  0
LINE
  5
7C91
330
840C
100
AcDbEntity
  8
1
100
AcDbLine
 10
2916.156955993237
 20
6613.211612935842
 30
0.0
 11
2916.156955993237
 21
6633.311612935843
 31
0.0
  0
LINE
  5
7C92
330
840C
100
AcDbEntity
  8
1
100
AcDbLine
 10
3100.156955993239
 20
6535.311612935842
 30
0.0
 11
3100.156955993239
 21
6613.211612935841
 31
0.0
  0
LINE
  5
7C93
330
840C
100
AcDbEntity
  8
1
100
AcDbLine
 10
3226.156955993238
 20
6695.311612935842
 30
0.0
 11
1206.156955993237
 21
6695.311612935933
 31
0.0
  0
LINE
  5
7C94
330
840C
100
AcDbEntity
  8
1
100
AcDbLine
 10
1226.156955993239
 20
7373.761612935844
 30
0.0
 11
1636.156955993245
 21
7373.761612935843
 31
0.0
  0
LINE
  5
7C95
330
840C
100
AcDbEntity
  8
1
100
AcDbLine
 10
3671.156955993239
 20
8580.311612935842
 30
0.0
 11
1767.156955993239
 21
8580.311612935842
 31
0.0
  0
LINE
  5
7C96
330
840C
100
AcDbEntity
  8
1
100
AcDbLine
 10
3671.156955993239
 20
6880.311612935837
 30
0.0
 11
1767.156955993237
 21
6880.31161293584
 31
0.0
  0
LINE
  5
7C97
330
840C
100
AcDbEntity
  8
1
100
AcDbLine
 10
3671.156955993239
 20
8630.311612935843
 30
0.0
 11
3671.156955993239
 21
6830.31161293584
 31
0.0
  0
LINE
  5
7C98
330
840C
100
AcDbEntity
  8
1
100
AcDbLine
 10
1767.156955993237
 20
8580.31161293584
 30
0.0
 11
1767.156955993237
 21
6880.31161293584
 31
0.0
  0
LINE
  5
7C99
330
840C
100
AcDbEntity
  8
1
100
AcDbLine
 10
3596.156955993239
 20
6880.31161293584
 30
0.0
 11
3596.156955993239
 21
6528.311612935839
 31
0.0
  0
LINE
  5
7C9A
330
840C
100
AcDbEntity
  8
1
100
AcDbLine
 10
1532.156955993237
 20
6613.211612935842
 30
0.0
 11
1486.156955993237
 21
6613.211612935842
 31
0.0
  0
LINE
  5
7C9B
330
840C
100
AcDbEntity
  8
1
100
AcDbLine
 10
1532.156955993237
 20
6535.311612935842
 30
0.0
 11
1320.156955993237
 21
6535.311612935842
 31
0.0
  0
INSERT
  5
7CA1
330
840C
100
AcDbEntity
  8
1
100
AcDbBlockReference
  2
YA_N
 10
10491.49125510566
 20
1972.966762031963
 30
0.0
  0
ARC
  5
7CA3
330
840C
100
AcDbEntity
  8
1
100
AcDbCircle
 10
2937.156955993239
 20
4229.800457609001
 30
0.0
 40
1170.0
100
AcDbArc
 50
175.539156302126
 51
265.539156302126
  0
ARC
  5
7CA4
330
840C
100
AcDbEntity
  8
1
100
AcDbCircle
 10
2755.156955993238
 20
4229.800457609001
 30
0.0
 40
988.0
100
AcDbArc
 50
84.71526704546546
 51
174.7152670454654
  0
ARC
  5
7CA5
330
840C
100
AcDbEntity
  8
1
100
AcDbCircle
 10
2769.156955993239
 20
4397.800457609001
 30
0.0
 40
820.0
100
AcDbArc
 50
357.2424852442078
 51
84.61184819567256
  0
LINE
  5
7CA6
330
840C
100
AcDbEntity
  8
1
100
AcDbLine
 10
2846.156955993239
 20
3063.344714770895
 30
0.0
 11
3671.156955993239
 21
2986.800457609002
 31
0.0
  0
LINE
  5
7CA7
330
840C
100
AcDbEntity
  8
1
100
AcDbLine
 10
3596.156955993239
 20
2890.800457609002
 30
0.0
 11
1146.156955993237
 21
2890.800457609002
 31
0.0
1001
ACAD
1000
ASC_BOUNDS
1002
{
1070
    19
1002
}
  0
LINE
  5
7CA8
330
840C
100
AcDbEntity
  8
1
100
AcDbLine
 10
3596.156955993239
 20
3015.800457609002
 30
0.0
 11
1146.156955993237
 21
3015.800457609002
 31
0.0
  0
LINE
  5
7CA9
330
840C
100
AcDbEntity
  8
1
100
AcDbLine
 10
3596.156955993239
 20
3015.800457609002
 30
0.0
 11
3596.156955993239
 21
2890.800457609002
 31
0.0
  0
LINE
  5
7CAA
330
840C
100
AcDbEntity
  8
1
100
AcDbLine
 10
1146.156955993237
 20
3015.800457609002
 30
0.0
 11
1146.156955993237
 21
2890.800457609002
 31
0.0
  0
LINE
  5
7CAB
330
840C
100
AcDbEntity
  8
2
100
AcDbLine
 10
1426.156955993237
 20
3566.654974214712
 30
0.0
 11
1426.156955993238
 21
2805.800457609002
 31
0.0
  0
LINE
  5
7CAC
330
840C
100
AcDbEntity
  8
2
100
AcDbLine
 10
1706.471172751389
 20
3275.800457609002
 30
0.0
 11
1156.050935125989
 21
3275.800457609002
 31
0.0
  0
LINE
  5
7CAF
330
840C
100
AcDbEntity
  8
1
100
AcDbLine
 10
3671.156955993239
 20
4266.800457609003
 30
0.0
 11
3587.192042881841
 21
4266.800457609003
 31
0.0
  0
LINE
  5
7CB0
330
840C
100
AcDbEntity
  8
1
100
AcDbLine
 10
3621.156955993237
 20
2991.439503497602
 30
0.0
 11
3621.156955993237
 21
4266.800457609003
 31
0.0
  0
LINE
  5
7CB1
330
840C
100
AcDbEntity
  8
1
100
AcDbLine
 10
3671.156955993239
 20
2933.800457609002
 30
0.0
 11
3671.156955993239
 21
4319.800457609001
 31
0.0
  0
POINT
  5
7CB3
330
840C
100
AcDbEntity
  8
1
100
AcDbPoint
 10
1771.356671382585
 20
4320.800457609002
 30
0.0
  0
INSERT
  5
7CB4
330
840C
100
AcDbEntity
  8
1
100
AcDbBlockReference
  2
YA_N
 10
8728.26384779535
 20
749.1803445741823
 30
0.0
 41
30.0
 42
30.0
 43
30.0
  0
LINE
  5
7CB6
330
840C
100
AcDbEntity
  8
1
100
AcDbLine
 10
3596.156955993239
 20
2870.800457609002
 30
0.0
 11
1146.156955993237
 21
2870.800457609002
 31
0.0
1001
ACAD
1000
ASC_BOUNDS
1002
{
1070
    19
1002
}
  0
LINE
  5
7CB7
330
840C
100
AcDbEntity
  8
1
100
AcDbLine
 10
3596.156955993239
 20
2805.800457609002
 30
0.0
 11
1146.156955993237
 21
2805.800457609002
 31
0.0
  0
LINE
  5
7CB8
330
840C
100
AcDbEntity
  8
1
100
AcDbLine
 10
3596.156955993239
 20
2870.800457609002
 30
0.0
 11
3596.156955993239
 21
2805.800457609002
 31
0.0
  0
LINE
  5
7CB9
330
840C
100
AcDbEntity
  8
1
100
AcDbLine
 10
1146.156955993237
 20
2870.800457609002
 30
0.0
 11
1146.156955993237
 21
2805.800457609002
 31
0.0
  0
ARC
  5
7CBA
330
840C
100
AcDbEntity
  8
1
100
AcDbCircle
 10
1426.156955993237
 20
3275.800457609002
 30
0.0
 40
203.5
100
AcDbArc
 50
285.603699
 51
254.39624
  0
LINE
  5
7CBB
330
840C
100
AcDbEntity
  8
1
100
AcDbLine
 10
1371.418918993236
 20
3079.800457609002
 30
0.0
 11
1480.894992993238
 21
3079.800457609002
 31
0.0
  0
ARC
  5
7CBC
330
840C
100
AcDbEntity
  8
1
100
AcDbCircle
 10
1612.156955993238
 20
3092.800457609002
 30
0.0
 40
3.0
100
AcDbArc
 50
0.0
 51
90.0
  0
ARC
  5
7CBD
330
840C
100
AcDbEntity
  8
1
100
AcDbCircle
 10
1610.156955993238
 20
3150.127118609002
 30
0.0
 40
5.000066999999999
100
AcDbArc
 50
0.0
 51
55.056335
  0
LINE
  5
7CBE
330
840C
100
AcDbEntity
  8
1
100
AcDbLine
 10
1615.156955993237
 20
3150.127118609002
 30
0.0
 11
1615.156955993237
 21
3075.800457609002
 31
0.0
  0
LINE
  5
7CC1
330
840C
100
AcDbEntity
  8
1
100
AcDbLine
 10
1530.259525993238
 20
3100.943646609004
 30
0.0
 11
1535.656955993237
 21
3080.800457609002
 31
0.0
  0
LINE
  5
7CC2
330
840C
100
AcDbEntity
  8
1
100
AcDbLine
 10
1535.656955993237
 20
3092.800457609002
 30
0.0
 11
1535.656955993237
 21
3075.800457609002
 31
0.0
  0
LINE
  5
7CC3
330
840C
100
AcDbEntity
  8
1
100
AcDbLine
 10
1538.656955993237
 20
3095.800457609002
 30
0.0
 11
1612.156955993238
 21
3095.800457609002
 31
0.0
  0
ARC
  5
7CC4
330
840C
100
AcDbEntity
  8
1
100
AcDbCircle
 10
1538.656955993237
 20
3092.800457609002
 30
0.0
 40
3.0
100
AcDbArc
 50
90.0
 51
180.0
  0
LINE
  5
7CC5
330
840C
100
AcDbEntity
  8
1
100
AcDbLine
 10
1613.020725993237
 20
3154.225750609001
 30
0.0
 11
1597.082859993237
 21
3165.362225609002
 31
0.0
  0
LINE
  5
7CC6
330
840C
100
AcDbEntity
  8
1
100
AcDbLine
 10
1237.156955993237
 20
3150.127118609002
 30
0.0
 11
1237.156955993237
 21
3075.800457609002
 31
0.0
  0
LINE
  5
7CC9
330
840C
100
AcDbEntity
  8
1
100
AcDbLine
 10
1322.054172993237
 20
3100.943768609001
 30
0.0
 11
1316.656955993237
 21
3080.800457609002
 31
0.0
  0
LINE
  5
7CCA
330
840C
100
AcDbEntity
  8
1
100
AcDbLine
 10
1316.656955993237
 20
3092.800457609002
 30
0.0
 11
1316.656955993237
 21
3075.800457609002
 31
0.0
  0
LINE
  5
7CCB
330
840C
100
AcDbEntity
  8
1
100
AcDbLine
 10
1313.656955993237
 20
3095.800457609002
 30
0.0
 11
1240.156955993237
 21
3095.800457609002
 31
0.0
  0
ARC
  5
7CCC
330
840C
100
AcDbEntity
  8
1
100
AcDbCircle
 10
1313.656955993237
 20
3092.800457609002
 30
0.0
 40
3.0
100
AcDbArc
 50
0.0
 51
90.0
  0
ARC
  5
7CCD
330
840C
100
AcDbEntity
  8
1
100
AcDbCircle
 10
1240.156955993237
 20
3092.800457609002
 30
0.0
 40
3.0
100
AcDbArc
 50
90.0
 51
180.0
  0
LINE
  5
7CCE
330
840C
100
AcDbEntity
  8
1
100
AcDbLine
 10
1239.293064993238
 20
3154.225750609001
 30
0.0
 11
1255.230930993239
 21
3165.362225609002
 31
0.0
  0
ARC
  5
7CCF
330
840C
100
AcDbEntity
  8
1
100
AcDbCircle
 10
1242.156955993237
 20
3150.127118609002
 30
0.0
 40
5.0
100
AcDbArc
 50
124.943661
 51
180.0
  0
LINE
  5
7CD0
330
840C
100
AcDbEntity
  8
1
100
AcDbLine
 10
1669.579981035847
 20
3075.800457609002
 30
0.0
 11
1496.156955993237
 21
3075.800457609002
 31
0.0
  0
LINE
  5
7CD1
330
840C
100
AcDbEntity
  8
1
100
AcDbLine
 10
1686.156955993237
 20
3015.800457609002
 30
0.0
 11
1669.579981035847
 21
3075.800457609002
 31
0.0
  0
LINE
  5
7CD2
330
840C
100
AcDbEntity
  8
1
100
AcDbLine
 10
1166.156955993237
 20
3015.800457609002
 30
0.0
 11
1182.337912538356
 21
3075.800457609002
 31
0.0
  0
LINE
  5
7CD3
330
840C
100
AcDbEntity
  8
1
100
AcDbLine
 10
1496.156955993237
 20
3065.800457609002
 30
0.0
 11
1356.156955993237
 21
3065.800457609002
 31
0.0
  0
LINE
  5
7CD5
330
840C
100
AcDbEntity
  8
1
100
AcDbLine
 10
1356.156955993237
 20
3075.800457609002
 30
0.0
 11
1356.156955993237
 21
3065.800457609002
 31
0.0
  0
LINE
  5
7CD6
330
840C
100
AcDbEntity
  8
1
100
AcDbLine
 10
1496.156955993237
 20
3075.800457609002
 30
0.0
 11
1496.156955993237
 21
3065.800457609002
 31
0.0
  0
LINE
  5
7CD9
330
840C
100
AcDbEntity
  8
1
100
AcDbLine
 10
1356.156955993237
 20
3075.800457609002
 30
0.0
 11
1182.337912538356
 21
3075.800457609002
 31
0.0
  0
INSERT
  5
7CDA
330
840C
100
AcDbEntity
  8
1
100
AcDbBlockReference
  2
YA_N
 10
9730.247579223819
 20
1429.411777198107
 30
0.0
 41
30.0
 42
30.0
 43
30.0
  0
CIRCLE
  5
7CE0
330
840C
100
AcDbEntity
  8
1
100
AcDbCircle
 10
1426.156955993237
 20
3275.800457609002
 30
0.0
 40
107.0
  0
POINT
  5
7CE1
330
840C
100
AcDbEntity
  8
1
100
AcDbPoint
 10
3596.156955993239
 20
2870.800457609002
 30
0.0
  0
POINT
  5
7CE2
330
840C
100
AcDbEntity
  8
1
100
AcDbPoint
 10
3596.156955993239
 20
2890.800457609002
 30
0.0
  0
POINT
  5
7CE3
330
840C
100
AcDbEntity
  8
1
100
AcDbPoint
 10
3596.156955993239
 20
2870.800457609002
 30
0.0
  0
ARC
  5
7CE5
330
840C
100
AcDbEntity
  8
1
100
AcDbCircle
 10
2846.156955993239
 20
4320.800457609002
 30
0.0
 40
625.0
100
AcDbArc
 50
0.0
 51
180.0
  0
ARC
  5
7CE6
330
840C
100
AcDbEntity
  8
1
100
AcDbCircle
 10
2846.156955993239
 20
4320.800457609002
 30
0.0
 40
675.0
100
AcDbArc
 50
0.0
 51
180.0
  0
ARC
  5
7CE7
330
840C
100
AcDbEntity
  8
1
100
AcDbCircle
 10
2846.156955993239
 20
4320.800457609002
 30
0.0
 40
625.0
100
AcDbArc
 50
180.0
 51
0.0
  0
ARC
  5
7CE8
330
840C
100
AcDbEntity
  8
1
100
AcDbCircle
 10
2846.156955993239
 20
4320.800457609002
 30
0.0
 40
675.0
100
AcDbArc
 50
180.0
 51
0.0
  0
CIRCLE
  5
7CEB
330
840C
100
AcDbEntity
  8
1
100
AcDbCircle
 10
2846.156955993239
 20
4320.800457609002
 30
0.0
 40
254.0
  0
POINT
  5
7CEC
330
840C
100
AcDbEntity
  8
1
100
AcDbPoint
 10
3596.156955993239
 20
2870.800457609002
 30
0.0
  0
POINT
  5
7CEE
330
840C
100
AcDbEntity
  8
1
100
AcDbPoint
 10
3596.156955993239
 20
2870.800457609002
 30
0.0
  0
POINT
  5
7CEF
330
840C
100
AcDbEntity
  8
1
100
AcDbPoint
 10
3596.156955993239
 20
2890.800457609002
 30
0.0
  0
ARC
  5
7CF0
330
840C
100
AcDbEntity
  8
1
100
AcDbCircle
 10
2846.156955993239
 20
4320.800457609002
 30
0.0
 40
743.0
100
AcDbArc
 50
355.8321636778381
 51
2.896908041025933
  0
INSERT
  5
7CF1
330
840C
100
AcDbEntity
  8
1
100
AcDbBlockReference
  2
YA_N
 10
15253.43467482128
 20
473.2708936064663
 30
0.0
  0
ARC
  5
7CF3
330
840C
100
AcDbEntity
  8
1
100
AcDbCircle
 10
2846.156955993239
 20
4320.800457609002
 30
0.0
 40
380.0
100
AcDbArc
 50
301.1431341389922
 51
131.5567209314936
  0
ARC
  5
7CF4
330
840C
100
AcDbEntity
  8
1
100
AcDbCircle
 10
1426.156955993237
 20
3275.800457609002
 30
0.0
 40
220.0
100
AcDbArc
 50
131.5567209314936
 51
301.1431341389922
  0
LINE
  5
7CF5
330
840C
100
AcDbEntity
  8
1
100
AcDbLine
 10
2594.079713348567
 20
4605.154222733818
 30
0.0
 11
1280.217499725268
 21
3440.426321628633
 31
0.0
  0
LINE
  5
7CF6
330
840C
100
AcDbEntity
  8
1
100
AcDbLine
 10
2679.074632947891
 20
4512.110408541436
 30
0.0
 11
1355.771882899331
 21
3356.391657411248
 31
0.0
  0
LINE
  5
7CF7
330
840C
100
AcDbEntity
  8
1
100
AcDbLine
 10
2979.125565501986
 20
4104.385696362664
 30
0.0
 11
1482.171291494954
 21
3184.633609367435
 31
0.0
  0
LINE
  5
7CF8
330
840C
100
AcDbEntity
  8
1
100
AcDbLine
 10
3042.684523159171
 20
3995.566825670607
 30
0.0
 11
1539.936073826145
 21
3087.507302276247
 31
0.0
  0
POINT
  5
7CFC
330
840C
100
AcDbEntity
  8
1
100
AcDbPoint
 10
3596.156955993239
 20
2870.800457609002
 30
0.0
  0
POINT
  5
7CFE
330
840C
100
AcDbEntity
  8
1
100
AcDbPoint
 10
3596.156955993239
 20
2870.800457609002
 30
0.0
  0
POINT
  5
7CFF
330
840C
100
AcDbEntity
  8
1
100
AcDbPoint
 10
3596.156955993239
 20
2890.800457609002
 30
0.0
  0
LINE
  5
7D00
330
840C
100
AcDbEntity
  8
1
100
AcDbLine
 10
5391.092839011054
 20
5217.800457609002
 30
0.0
 11
7091.092839011054
 21
5217.800457609002
 31
0.0
  0
LINE
  5
7D05
330
840C
100
AcDbEntity
  8
1
100
AcDbLine
 10
5391.092839011053
 20
4266.800457609003
 30
0.0
 11
7091.092839011054
 21
4266.800457609003
 31
0.0
  0
LINE
  5
7D06
330
840C
100
AcDbEntity
  8
1
100
AcDbLine
 10
7091.092839011054
 20
4266.800457609003
 30
0.0
 11
5391.092839011053
 21
2986.800457609004
 31
0.0
  0
LINE
  5
7D07
330
840C
100
AcDbEntity
  8
1
100
AcDbLine
 10
7091.092839011054
 20
2986.800457609002
 30
0.0
 11
5391.092839011053
 21
4266.800457609003
 31
0.0
  0
LINE
  5
7D0D
330
840C
100
AcDbEntity
  8
1
100
AcDbLine
 10
7091.092839011055
 20
2986.800457609002
 30
0.0
 11
5391.092839011054
 21
2986.800457609004
 31
0.0
  0
LINE
  5
7D0F
330
840C
100
AcDbEntity
  8
1
100
AcDbLine
 10
7091.092839011055
 20
3015.800457609002
 30
0.0
 11
7159.092839011053
 21
3015.800457609002
 31
0.0
  0
LINE
  5
807E
330
840C
100
AcDbEntity
  8
4
100
AcDbLine
 10
7400.0
 20
2000.0
 30
0.0
 11
7400.0
 21
1200.0
 31
0.0
  0
LINE
  5
807F
330
840C
100
AcDbEntity
  8
4
100
AcDbLine
 10
4600.0
 20
2000.0
 30
0.0
 11
4600.0
 21
1200.0
 31
0.0
  0
LINE
  5
8080
330
840C
100
AcDbEntity
  8
4
100
AcDbLine
 10
2600.0
 20
2000.0
 30
0.0
 11
2600.0
 21
1200.0
 31
0.0
  0
LINE
  5
8083
330
840C
100
AcDbEntity
  8
4
100
AcDbLine
 10
2600.0
 20
1200.0
 30
0.0
 11
7400.0
 21
1200.0
 31
0.0
  0
LINE
  5
8084
330
840C
100
AcDbEntity
  8
4
100
AcDbLine
 10
2600.0
 20
1600.0
 30
0.0
 11
7400.0
 21
1600.0
 31
0.0
  0
TEXT
  5
8085
330
840C
100
AcDbEntity
  8
4
100
AcDbText
 10
2754.008323387607
 20
1726.172103466451
 30
0.0
 40
200.0
  1
機器名称
100
AcDbText
  0
TEXT
  5
8086
330
840C
100
AcDbEntity
  8
4
100
AcDbText
 10
2745.03242409919
 20
1286.580626928043
 30
0.0
 40
200.0
  1
機器型番
100
AcDbText
  0
TEXT
  5
8087
330
840C
100
AcDbEntity
  8
4
100
AcDbText
 10
4710.714981950659
 20
1690.287075830274
 30
0.0
 40
200.0
  1
ミツヤ多翼送風機
100
AcDbText
  0
TEXT
  5
8088
330
840C
100
AcDbEntity
  8
4
100
AcDbText
 10
4746.617982341923
 20
1268.638337119773
 30
0.0
 40
200.0
  1
MF#8-5
100
AcDbText
  0
TEXT
  5
808A
330
840C
100
AcDbEntity
  8
4
100
AcDbText
 10
3150.362428668937
 20
9511.40912933649
 30
0.0
 40
215.9999999999999
  1
床置防振ベット
100
AcDbText
  0
TEXT
  5
808B
330
840C
100
AcDbEntity
  8
4
100
AcDbText
 10
1264.670373317785
 20
10135.52390479719
 30
0.0
 40
288.0
  1
遠心式両吸込両持多翼ファン
100
AcDbText
  0
LINE
  5
808C
330
840C
100
AcDbEntity
  8
4
100
AcDbLine
 10
1000.0
 20
9877.635017059219
 30
0.0
 11
7400.0
 21
9877.635017059219
 31
0.0
  0
LINE
  5
808D
330
840C
100
AcDbEntity
  8
4
100
AcDbLine
 10
1000.0
 20
10677.63501705921
 30
0.0
 11
7400.0
 21
10677.63501705921
 31
0.0
  0
LINE
  5
808E
330
840C
100
AcDbEntity
  8
4
100
AcDbLine
 10
2600.0
 20
2000.0
 30
0.0
 11
7400.0
 21
2000.0
 31
0.0
  0
LINE
  5
808F
330
840C
100
AcDbEntity
  8
4
100
AcDbLine
 10
1000.0
 20
10677.63501705921
 30
0.0
 11
1000.0
 21
9877.635017059219
 31
0.0
  0
TEXT
  5
8090
330
840C
100
AcDbEntity
  8
4
100
AcDbText
 10
1406.927099698128
 20
9506.971674191801
 30
0.0
 40
215.9999999999999
  1
左回転右横向
100
AcDbText
  0
TEXT
  5
8091
330
840C
100
AcDbEntity
  8
4
100
AcDbText
 10
5875.878236997159
 20
10824.24432598123
 30
0.0
 40
224.0
  1
No.
100
AcDbText
  0
TEXT
  5
8092
330
840C
100
AcDbEntity
  8
4
100
AcDbText
 10
5245.184250400053
 20
9533.715365330063
 30
0.0
 40
215.9999999999999
  1
縮尺：1/40
100
AcDbText
  0
LINE
  5
8093
330
840C
100
AcDbEntity
  8
4
100
AcDbLine
 10
7400.0
 20
10677.63501705921
 30
0.0
 11
7400.0
 21
9877.635017059219
 31
0.0
  0
LINE
  5
8094
330
840C
100
AcDbEntity
  8
4
100
AcDbLine
 10
8400.0
 20
11800.0
 30
0.0
 11
8400.0
 21
11800.0
 31
0.0
  0
LINE
  5
8095
330
840C
100
AcDbEntity
  8
4
100
AcDbLine
 10
5762.469689439458
 20
10725.0543325016
 30
0.0
 11
5762.469689439458
 21
11146.609046199
 31
0.0
  0
LINE
  5
8096
330
840C
100
AcDbEntity
  8
4
100
AcDbLine
 10
5762.469689439458
 20
11146.609046199
 30
0.0
 11
7400.0
 21
11146.609046199
 31
0.0
  0
LINE
  5
8097
330
840C
100
AcDbEntity
  8
4
100
AcDbLine
 10
7400.0
 20
11146.609046199
 30
0.0
 11
7400.0
 21
10725.0543325016
 31
0.0
  0
LINE
  5
8098
330
840C
100
AcDbEntity
  8
4
100
AcDbLine
 10
7400.0
 20
10725.0543325016
 30
0.0
 11
5762.469689439458
 21
10725.0543325016
 31
0.0
  0
LINE
  5
8099
330
840C
100
AcDbEntity
  8
4
100
AcDbLine
 10
0.0
 20
0.0
 30
0.0
 11
0.0
 21
11800.0
 31
0.0
  0
LINE
  5
809A
330
840C
100
AcDbEntity
  8
4
100
AcDbLine
 10
0.0
 20
11800.0
 30
0.0
 11
8400.0
 21
11800.0
 31
0.0
  0
LINE
  5
809B
330
840C
100
AcDbEntity
  8
4
100
AcDbLine
 10
8400.0
 20
11800.0
 30
0.0
 11
8400.0
 21
0.0
 31
0.0
  0
LINE
  5
809C
330
840C
100
AcDbEntity
  8
4
100
AcDbLine
 10
8400.0
 20
0.0
 30
0.0
 11
0.0
 21
0.0
 31
0.0
  0
LINE
  5
819B
330
840C
100
AcDbEntity
  8
1
100
AcDbLine
 10
7144.092839011054
 20
4254.800457609001
 30
0.0
 11
7144.092839011054
 21
4104.800457609001
 31
0.0
  0
LINE
  5
819C
330
840C
100
AcDbEntity
  8
1
100
AcDbLine
 10
5338.092839011056
 20
4254.800457609001
 30
0.0
 11
5338.092839011061
 21
4104.800457609001
 31
0.0
  0
DIMENSION
  5
81A9
330
840C
100
AcDbEntity
  8
3
100
AcDbDimension
  2
*D22
 10
2846.156955993239
 20
2534.190241232678
 30
0.0
 11
1996.156955993237
 21
2634.190241232678
 31
0.0
 71
     5
 42
-1.0
  3
Standard
100
AcDbAlignedDimension
 13
1146.156955993237
 23
2805.800457609002
 33
0.0
 14
2846.156955993239
 24
2805.800457609002
 34
0.0
100
AcDbRotatedDimension
1001
ACAD
1000
DSTYLE
1002
{
1070
   172
1070
     1
1070
    40
1040
40.0
1070
   271
1070
     0
1070
   143
1040
0.039
1002
}
  0
DIMENSION
  5
81B6
330
840C
100
AcDbEntity
  8
3
100
AcDbDimension
  2
*D23
 10
3596.156955993239
 20
2534.190241232678
 30
0.0
 11
3221.156955993239
 21
2634.190241232678
 31
0.0
 71
     5
 42
-1.0
  3
Standard
100
AcDbAlignedDimension
 13
2846.156955993239
 23
2805.800457609002
 33
0.0
 14
3596.156955993239
 24
2805.800457609002
 34
0.0
100
AcDbRotatedDimension
1001
ACAD
1000
DSTYLE
1002
{
1070
   172
1070
     1
1070
    40
1040
40.0
1070
   271
1070
     0
1070
   143
1040
0.039
1002
}
  0
DIMENSION
  5
81C3
330
840C
100
AcDbEntity
  8
3
100
AcDbDimension
  2
*D24
 10
6241.092839011049
 20
2534.190241232678
 30
0.0
 11
5640.092839011052
 21
2634.190241232678
 31
0.0
 71
     5
 42
-1.0
  3
Standard
100
AcDbAlignedDimension
 13
5039.092839011054
 23
2805.800457609002
 33
0.0
 14
6241.092839011049
 24
2805.800457609002
 34
0.0
100
AcDbRotatedDimension
1001
ACAD
1000
DSTYLE
1002
{
1070
   172
1070
     1
1070
    40
1040
40.0
1070
   271
1070
     0
1070
   143
1040
0.039
1002
}
  0
DIMENSION
  5
81D0
330
840C
100
AcDbEntity
  8
3
100
AcDbDimension
  2
*D25
 10
7159.092839011053
 20
2534.190241232678
 30
0.0
 11
6700.092839011052
 21
2634.190241232678
 31
0.0
 71
     5
 42
-1.0
  3
Standard
100
AcDbAlignedDimension
 13
6241.092839011049
 23
2805.800457609002
 33
0.0
 14
7159.092839011053
 24
2805.800457609002
 34
0.0
100
AcDbRotatedDimension
1001
ACAD
1000
DSTYLE
1002
{
1070
   172
1070
     1
1070
    40
1040
40.0
1070
   271
1070
     0
1070
   143
1040
0.039
1002
}
  0
DIMENSION
  5
84AF
330
840C
100
AcDbEntity
  8
3
100
AcDbDimension
  2
*D29
 10
7091.092839011054
 20
5490.120671915637
 30
0.0
 11
6241.092839011054
 21
5590.120671915637
 31
0.0
 70
    32
 71
     5
 42
1700.0
  3
IGA
100
AcDbAlignedDimension
 13
5391.092839011054
 23
5217.800457609002
 33
0.0
 14
7091.092839011054
 24
5217.800457609002
 34
0.0
100
AcDbRotatedDimension
1001
ACAD
1000
DSTYLE
1002
{
1070
    40
1040
40.0
1070
   143
1040
0.039
1070
   172
1070
     1
1070
   271
1070
     4
1070
   272
1070
     4
1070
   279
1070
     0
1070
   284
1070
     0
1070
   285
1070
     0
1070
   286
1070
     0
1070
   341
1005
8423
1070
   343
1005
8423
1070
   344
1005
8423
1002
}
  0
DIMENSION
  5
84BC
330
840C
100
AcDbEntity
  8
3
100
AcDbDimension
  2
*D30
 10
6241.092839011054
 20
5815.19729053981
 30
0.0
 11
5601.092839011053
 21
5946.625861968382
 31
0.0
 70
    32
  1
(<>)
 71
     5
 42
1280.000000000001
  3
IGA
100
AcDbAlignedDimension
 13
4961.092839011053
 23
4700.800457609002
 33
0.0
 14
6241.092839011054
 24
5650.120671915637
 34
0.0
100
AcDbRotatedDimension
1001
ACAD
1000
DSTYLE
1002
{
1070
    40
1040
40.0
1070
   143
1040
0.039
1070
   172
1070
     1
1070
   271
1070
     4
1070
   272
1070
     4
1070
   279
1070
     0
1070
   284
1070
     0
1070
   285
1070
     0
1070
   286
1070
     0
1070
   341
1005
8423
1070
   343
1005
8423
1070
   344
1005
8423
1002
}
  0
DIMENSION
  5
84C9
330
840C
100
AcDbEntity
  8
3
100
AcDbDimension
  2
*D31
 10
7261.092839011054
 20
5815.19729053981
 30
0.0
 11
6751.092839011054
 21
5946.625861968382
 31
0.0
 70
    32
  1
(<>)
 71
     5
 42
1020.0
  3
IGA
100
AcDbAlignedDimension
 13
6241.092839011054
 23
5650.120671915637
 33
0.0
 14
7261.092839011054
 24
4244.800457609001
 34
0.0
100
AcDbRotatedDimension
1001
ACAD
1000
DSTYLE
1002
{
1070
    40
1040
40.0
1070
   143
1040
0.039
1070
   172
1070
     1
1070
   271
1070
     4
1070
   272
1070
     4
1070
   279
1070
     1
1070
   284
1070
     0
1070
   285
1070
     0
1070
   286
1070
     0
1070
   341
1005
8423
1070
   343
1005
8423
1070
   344
1005
8423
1002
}
  0
DIMENSION
  5
84DA
330
840C
100
AcDbEntity
  8
3
100
AcDbDimension
  2
*D32
 10
7534.264341757111
 20
3695.800457609001
 30
0.0
 11
7434.26434175711
 21
4320.800457609002
 31
0.0
 70
    32
  1
\U+03C6<>
 71
     5
 42
1250.0
  3
IGA
100
AcDbAlignedDimension
 13
7091.092839011054
 23
4945.800457609002
 33
0.0
 14
7091.092839011054
 24
3695.800457609002
 34
0.0
 50
90.0
100
AcDbRotatedDimension
1001
ACAD
1000
DSTYLE
1002
{
1070
    40
1040
40.0
1070
   143
1040
0.039
1070
   172
1070
     1
1070
   271
1070
     4
1070
   272
1070
     4
1070
   279
1070
     0
1070
   284
1070
     0
1070
   285
1070
     0
1070
   286
1070
     0
1070
   341
1005
8423
1070
   343
1005
8423
1070
   344
1005
8423
1002
}
  0
DIMENSION
  5
8551
330
840C
100
AcDbEntity
  8
3
100
AcDbDimension
  2
*D34
 10
2096.156955993238
 20
8852.947751441025
 30
0.0
 11
1621.156955993238
 21
8952.947751441024
 31
0.0
 70
    32
 71
     5
 42
950.0000000000015
  3
IGA
100
AcDbAlignedDimension
 13
1146.156955993237
 23
7528.311612935842
 33
0.0
 14
2096.156955993238
 24
8648.31161293584
 34
0.0
100
AcDbRotatedDimension
1001
ACAD
1000
DSTYLE
1002
{
1070
    40
1040
40.0
1070
   143
1040
0.039
1070
   172
1070
     1
1070
   271
1070
     4
1070
   272
1070
     4
1070
   279
1070
     0
1070
   284
1070
     0
1070
   285
1070
     0
1070
   286
1070
     0
1070
   341
1005
8423
1070
   343
1005
8423
1070
   344
1005
8423
1002
}
  0
DIMENSION
  5
855E
330
840C
100
AcDbEntity
  8
3
100
AcDbDimension
  2
*D35
 10
3596.156955993239
 20
8852.947751441025
 30
0.0
 11
2846.156955993239
 21
8952.947751441024
 31
0.0
 70
    32
 71
     5
 42
1500.0
  3
IGA
100
AcDbAlignedDimension
 13
2096.156955993238
 23
8648.31161293584
 33
0.0
 14
3596.156955993239
 24
8648.31161293584
 34
0.0
100
AcDbRotatedDimension
1001
ACAD
1000
DSTYLE
1002
{
1070
    40
1040
40.0
1070
   143
1040
0.039
1070
   172
1070
     1
1070
   271
1070
     4
1070
   272
1070
     4
1070
   279
1070
     1
1070
   284
1070
     0
1070
   285
1070
     0
1070
   286
1070
     0
1070
   341
1005
8423
1070
   343
1005
8423
1070
   344
1005
8423
1002
}
  0
DIMENSION
  5
856B
330
840C
100
AcDbEntity
  8
3
100
AcDbDimension
  2
*D36
 10
4045.173097229072
 20
6528.311612935839
 30
0.0
 11
3945.173097229072
 21
7588.311612935841
 31
0.0
 70
    32
 71
     5
 42
2120.000000000001
  3
IGA
100
AcDbAlignedDimension
 13
3596.156955993239
 23
8648.31161293584
 33
0.0
 14
3596.156955993239
 24
6528.311612935839
 34
0.0
 50
90.0
100
AcDbRotatedDimension
1001
ACAD
1000
DSTYLE
1002
{
1070
    40
1040
40.0
1070
   143
1040
0.039
1070
   172
1070
     1
1070
   271
1070
     4
1070
   272
1070
     4
1070
   279
1070
     0
1070
   284
1070
     0
1070
   285
1070
     0
1070
   286
1070
     0
1070
   341
1005
8423
1070
   343
1005
8423
1070
   344
1005
8423
1002
}
  0
DIMENSION
  5
8578
330
840C
100
AcDbEntity
  8
3
100
AcDbDimension
  2
*D37
 10
879.8305548856586
 20
6528.311612935842
 30
0.0
 11
779.8305548856575
 21
7028.311612935842
 31
0.0
 70
    32
 71
     5
 42
1000.0
  3
IGA
100
AcDbAlignedDimension
 13
1146.156955993237
 23
7528.311612935842
 33
0.0
 14
1146.156955993237
 24
6528.311612935842
 34
0.0
 50
90.0
100
AcDbRotatedDimension
1001
ACAD
1000
DSTYLE
1002
{
1070
    40
1040
40.0
1070
   143
1040
0.039
1070
   172
1070
     1
1070
   271
1070
     4
1070
   272
1070
     4
1070
   279
1070
     0
1070
   284
1070
     0
1070
   285
1070
     0
1070
   286
1070
     0
1070
   341
1005
8423
1070
   343
1005
8423
1070
   344
1005
8423
1002
}
  0
DIMENSION
  5
8585
330
840C
100
AcDbEntity
  8
3
100
AcDbDimension
  2
*D38
 10
3596.156955993239
 20
6176.891068079521
 30
0.0
 11
2371.156955993238
 21
6276.891068079521
 31
0.0
 70
    32
 71
     5
 42
2450.000000000002
  3
IGA
100
AcDbAlignedDimension
 13
1146.156955993237
 23
6528.311612935839
 33
0.0
 14
3596.156955993239
 24
6528.311612935839
 34
0.0
100
AcDbRotatedDimension
1001
ACAD
1000
DSTYLE
1002
{
1070
    40
1040
40.0
1070
   143
1040
0.039
1070
   172
1070
     1
1070
   271
1070
     4
1070
   272
1070
     4
1070
   279
1070
     0
1070
   284
1070
     0
1070
   285
1070
     0
1070
   286
1070
     0
1070
   341
1005
8423
1070
   343
1005
8423
1070
   344
1005
8423
1002
}
  0
DIMENSION
  5
859B
330
840C
100
AcDbEntity
  8
3
100
AcDbDimension
  2
*D39
 10
2846.156955993239
 20
5485.312615694231
 30
0.0
 11
3258.656955993239
 21
5585.312615694231
 31
0.0
 70
    32
 71
     5
 42
825.0
  3
IGA
100
AcDbAlignedDimension
 13
3671.156955993239
 23
4319.800457609001
 33
0.0
 14
2846.156955993239
 24
5369.39887263968
 34
0.0
100
AcDbRotatedDimension
1001
ACAD
1000
DSTYLE
1002
{
1070
    40
1040
40.0
1070
   143
1040
0.039
1070
   172
1070
     1
1070
   271
1070
     4
1070
   272
1070
     4
1070
   279
1070
     0
1070
   284
1070
     0
1070
   285
1070
     0
1070
   286
1070
     0
1070
   341
1005
8423
1070
   343
1005
8423
1070
   344
1005
8423
1002
}
  0
DIMENSION
  5
85A8
330
840C
100
AcDbEntity
  8
3
100
AcDbDimension
  2
*D40
 10
1767.156955993239
 20
5485.312615694231
 30
0.0
 11
2306.656955993239
 21
5585.312615694231
 31
0.0
 70
    32
 71
     5
 42
1079.0
  3
IGA
100
AcDbAlignedDimension
 13
2846.156955993239
 23
5369.39887263968
 33
0.0
 14
1767.156955993239
 24
4229.800457609001
 34
0.0
100
AcDbRotatedDimension
1001
ACAD
1000
DSTYLE
1002
{
1070
    40
1040
40.0
1070
   143
1040
0.039
1070
   172
1070
     1
1070
   271
1070
     4
1070
   272
1070
     4
1070
   279
1070
     1
1070
   284
1070
     0
1070
   285
1070
     0
1070
   286
1070
     0
1070
   341
1005
8423
1070
   343
1005
8423
1070
   344
1005
8423
1002
}
  0
DIMENSION
  5
85B5
330
840C
100
AcDbEntity
  8
3
100
AcDbDimension
  2
*D41
 10
1146.156955993237
 20
5778.269218418994
 30
0.0
 11
2408.656955993238
 21
5878.269218418995
 31
0.0
 70
    32
 71
     5
 42
2525.000000000002
  3
IGA
100
AcDbAlignedDimension
 13
3671.156955993239
 23
4319.800457609001
 33
0.0
 14
1146.156955993237
 24
3015.800457609002
 34
0.0
100
AcDbRotatedDimension
1001
ACAD
1000
DSTYLE
1002
{
1070
    40
1040
40.0
1070
   143
1040
0.039
1070
   172
1070
     1
1070
   271
1070
     4
1070
   272
1070
     4
1070
   279
1070
     0
1070
   284
1070
     0
1070
   285
1070
     0
1070
   286
1070
     0
1070
   341
1005
8423
1070
   343
1005
8423
1070
   344
1005
8423
1002
}
  0
DIMENSION
  5
85C2
330
840C
100
AcDbEntity
  8
3
100
AcDbDimension
  2
*D42
 10
3924.167988683194
 20
2986.800457609002
 30
0.0
 11
3824.167988683193
 21
3626.800457609003
 31
0.0
 70
    32
 71
     5
 42
1280.000000000001
  3
IGA
100
AcDbAlignedDimension
 13
3671.156955993239
 23
4266.800457609003
 33
0.0
 14
3671.156955993239
 24
2986.800457609002
 34
0.0
 50
90.0
100
AcDbRotatedDimension
1001
ACAD
1000
DSTYLE
1002
{
1070
    40
1040
40.0
1070
   143
1040
0.039
1070
   172
1070
     1
1070
   271
1070
     4
1070
   272
1070
     4
1070
   279
1070
     0
1070
   284
1070
     0
1070
   285
1070
     0
1070
   286
1070
     0
1070
   341
1005
8423
1070
   343
1005
8423
1070
   344
1005
8423
1002
}
  0
DIMENSION
  5
85CF
330
840C
100
AcDbEntity
  8
3
100
AcDbDimension
  2
*D43
 10
4171.230831139723
 20
4320.800457609002
 30
0.0
 11
4071.230831139723
 21
3653.800457609003
 31
0.0
 70
    32
 71
     5
 42
1333.999999999999
  3
IGA
100
AcDbAlignedDimension
 13
3671.156955993239
 23
2986.800457609002
 33
0.0
 14
3683.677800684858
 24
4320.800457609002
 34
0.0
 50
90.0
100
AcDbRotatedDimension
1001
ACAD
1000
DSTYLE
1002
{
1070
    40
1040
40.0
1070
   143
1040
0.039
1070
   172
1070
     1
1070
   271
1070
     4
1070
   272
1070
     4
1070
   279
1070
     0
1070
   284
1070
     0
1070
   285
1070
     0
1070
   286
1070
     0
1070
   341
1005
8423
1070
   343
1005
8423
1070
   344
1005
8423
1002
}
  0
DIMENSION
  5
85DC
330
840C
100
AcDbEntity
  8
3
100
AcDbDimension
  2
*D44
 10
4422.346544791297
 20
4320.800457609002
 30
0.0
 11
4322.346544791296
 21
4769.300457609002
 31
0.0
 70
    32
 71
     5
 42
897.0
  3
IGA
100
AcDbAlignedDimension
 13
2755.156955993238
 23
5217.800457609001
 33
0.0
 14
3683.677800684858
 24
4320.800457609002
 34
0.0
 50
90.0
100
AcDbRotatedDimension
1001
ACAD
1000
DSTYLE
1002
{
1070
    40
1040
40.0
1070
   143
1040
0.039
1070
   172
1070
     1
1070
   271
1070
     4
1070
   272
1070
     4
1070
   279
1070
     0
1070
   284
1070
     0
1070
   285
1070
     0
1070
   286
1070
     0
1070
   341
1005
8423
1070
   343
1005
8423
1070
   344
1005
8423
1002
}
  0
DIMENSION
  5
85E9
330
840C
100
AcDbEntity
  8
3
100
AcDbDimension
  2
*D45
 10
4422.346544791297
 20
2890.800457609002
 30
0.0
 11
4322.346544791296
 21
3605.800457609002
 31
0.0
 70
    32
 71
     5
 42
1429.999999999999
  3
IGA
100
AcDbAlignedDimension
 13
3683.677800684858
 23
4320.800457609002
 33
0.0
 14
3596.156955993239
 24
2890.800457609002
 34
0.0
 50
90.0
100
AcDbRotatedDimension
1001
ACAD
1000
DSTYLE
1002
{
1070
    40
1040
40.0
1070
   143
1040
0.039
1070
   172
1070
     1
1070
   271
1070
     4
1070
   272
1070
     4
1070
   279
1070
     1
1070
   284
1070
     0
1070
   285
1070
     0
1070
   286
1070
     0
1070
   341
1005
8423
1070
   343
1005
8423
1070
   344
1005
8423
1002
}
  0
DIMENSION
  5
85F6
330
840C
100
AcDbEntity
  8
3
100
AcDbDimension
  2
*D46
 10
4422.346544791297
 20
2870.800457609002
 30
0.0
 11
4665.203687648438
 21
3033.086171894717
 31
0.0
 70
    32
  1
(<>)
 71
     5
 42
20.0
  3
IGA
100
AcDbAlignedDimension
 13
3596.156955993239
 23
2890.800457609002
 33
0.0
 14
3596.156955993239
 24
2870.800457609002
 34
0.0
 50
90.0
100
AcDbRotatedDimension
1001
ACAD
1000
DSTYLE
1002
{
1070
    40
1040
40.0
1070
   143
1040
0.039
1070
   172
1070
     1
1070
   271
1070
     4
1070
   272
1070
     4
1070
   279
1070
     1
1070
   284
1070
     0
1070
   285
1070
     0
1070
   286
1070
     0
1070
   341
1005
8423
1070
   343
1005
8423
1070
   344
1005
86CA
1002
}
  0
DIMENSION
  5
8608
330
840C
100
AcDbEntity
  8
3
100
AcDbDimension
  2
*D47
 10
4422.346544791297
 20
2805.800457609002
 30
0.0
 11
4402.753401135153
 21
2619.994339744695
 31
0.0
 70
   160
 71
     5
 42
65.0
  3
IGA
100
AcDbAlignedDimension
 13
3596.156955993239
 23
2870.800457609002
 33
0.0
 14
3596.156955993239
 24
2805.800457609002
 34
0.0
 50
90.0
100
AcDbRotatedDimension
1001
ACAD
1000
DSTYLE
1002
{
1070
    40
1040
40.0
1070
   143
1040
0.039
1070
   172
1070
     1
1070
   271
1070
     4
1070
   272
1070
     4
1070
   279
1070
     1
1070
   284
1070
     0
1070
   285
1070
     0
1070
   286
1070
     0
1070
   341
1005
8423
1070
   343
1005
86CA
1070
   344
1005
8423
1002
}
  0
DIMENSION
  5
861A
330
840C
100
AcDbEntity
  8
3
100
AcDbDimension
  2
*D48
 10
4858.422177757748
 20
2805.800457609002
 30
0.0
 11
4726.993606329175
 21
4011.800457609002
 31
0.0
 70
    32
  1
(<>)
 71
     5
 42
2412.0
  3
IGA
100
AcDbAlignedDimension
 13
2755.156955993238
 23
5217.800457609001
 33
0.0
 14
3596.156955993239
 24
2805.800457609002
 34
0.0
 50
90.0
100
AcDbRotatedDimension
1001
ACAD
1000
DSTYLE
1002
{
1070
    40
1040
40.0
1070
   143
1040
0.039
1070
   172
1070
     1
1070
   271
1070
     4
1070
   272
1070
     4
1070
   279
1070
     0
1070
   284
1070
     0
1070
   285
1070
     0
1070
   286
1070
     0
1070
   341
1005
8423
1070
   343
1005
8423
1070
   344
1005
8423
1002
}
  0
ENDSEC
  0
SECTION
  2
OBJECTS
  0
DICTIONARY
  5
83A9
330
0
100
AcDbDictionary
281
     1
  3
ACAD_CIP_PREVIOUS_PRODUCT_INFO
350
8455
  3
ACAD_COLOR
350
83FF
  3
ACAD_DETAILVIEWSTYLE
350
8406
  3
ACAD_GROUP
350
83AA
  3
ACAD_LAYOUT
350
83FE
  3
ACAD_MATERIAL
350
83AD
  3
ACAD_MLEADERSTYLE
350
8402
  3
ACAD_MLINESTYLE
350
83FB
  3
ACAD_PLOTSETTINGS
350
83FD
  3
ACAD_PLOTSTYLENAME
350
83AB
  3
ACAD_SCALELIST
350
83DF
  3
ACAD_SECTIONVIEWSTYLE
350
8404
  3
ACAD_TABLESTYLE
350
8400
  3
ACAD_VISUALSTYLE
350
83C6
  3
ACDB_RECOMPOSE_DATA
350
8737
  3
AcDbVariableDictionary
350
8460
  3
DWGPROPS
350
8738
  0
DICTIONARY
  5
8456
330
83F1
100
AcDbDictionary
280
     1
281
     1
  3
ADSK_XREC_LAYER_RECONCILED
360
8457
  0
DICTIONARY
  5
8458
330
8410
100
AcDbDictionary
280
     1
281
     1
  3
ADSK_XREC_LAYER_RECONCILED
360
8459
  0
DICTIONARY
  5
845A
330
8413
100
AcDbDictionary
280
     1
281
     1
  3
ADSK_XREC_LAYER_RECONCILED
360
845B
  0
DICTIONARY
  5
845C
330
8414
100
AcDbDictionary
280
     1
281
     1
  3
ADSK_XREC_LAYER_RECONCILED
360
845D
  0
DICTIONARY
  5
845E
330
8415
100
AcDbDictionary
280
     1
281
     1
  3
ADSK_XREC_LAYER_RECONCILED
360
845F
  0
DICTIONARY
  5
84D7
330
840C
100
AcDbDictionary
280
     1
281
     1
  3
ACAD_SORTENTS
360
84D8
  0
XRECORD
  5
8455
102
{ACAD_REACTORS
330
83A9
102
}
330
83A9
100
AcDbXrecord
280
     1
300
ACDLT
300
2015
300
INVLTS_F_S
  0
DICTIONARY
  5
83FF
102
{ACAD_REACTORS
330
83A9
102
}
330
83A9
100
AcDbDictionary
281
     1
  0
DICTIONARY
  5
8406
102
{ACAD_REACTORS
330
83A9
102
}
330
83A9
100
AcDbDictionary
281
     1
  3
Imperial24
350
8407
  0
DICTIONARY
  5
83AA
102
{ACAD_REACTORS
330
83A9
102
}
330
83A9
100
AcDbDictionary
281
     1
  0
DICTIONARY
  5
83FE
102
{ACAD_REACTORS
330
83A9
102
}
330
83A9
100
AcDbDictionary
281
     1
  3
Model
350
840F
  3
レイアウト1
350
840B
  0
DICTIONARY
  5
83AD
102
{ACAD_REACTORS
330
83A9
102
}
330
83A9
100
AcDbDictionary
281
     1
  3
ByBlock
350
83B6
  3
ByLayer
350
83AE
  3
Global
350
83BE
  0
DICTIONARY
  5
8402
102
{ACAD_REACTORS
330
83A9
102
}
330
83A9
100
AcDbDictionary
281
     1
  3
Standard
350
8403
  0
DICTIONARY
  5
83FB
102
{ACAD_REACTORS
330
83A9
102
}
330
83A9
100
AcDbDictionary
281
     1
  3
Standard
350
83FC
  0
DICTIONARY
  5
83FD
102
{ACAD_REACTORS
330
83A9
102
}
330
83A9
100
AcDbDictionary
281
     1
  0
ACDBDICTIONARYWDFLT
  5
83AB
102
{ACAD_REACTORS
330
83A9
102
}
330
83A9
100
AcDbDictionary
281
     1
  3
Normal
350
83AC
100
AcDbDictionaryWithDefault
340
83AC
  0
DICTIONARY
  5
83DF
102
{ACAD_REACTORS
330
83A9
102
}
330
83A9
100
AcDbDictionary
281
     1
  3
A0
350
83E0
  3
A1
350
83E1
  3
A2
350
83E2
  3
A3
350
83E3
  3
A4
350
83E4
  3
A5
350
83E5
  3
A6
350
83E6
  3
A7
350
83E7
  3
A8
350
83E8
  3
A9
350
83E9
  3
B0
350
83EA
  3
B1
350
83EB
  3
B2
350
83EC
  3
B3
350
83ED
  3
B4
350
83EE
  3
B5
350
83EF
  3
B6
350
83F0
  0
DICTIONARY
  5
8404
102
{ACAD_REACTORS
330
83A9
102
}
330
83A9
100
AcDbDictionary
281
     1
  3
Imperial24
350
8405
  0
DICTIONARY
  5
8400
102
{ACAD_REACTORS
330
83A9
102
}
330
83A9
100
AcDbDictionary
281
     1
  3
Standard
350
8401
  0
DICTIONARY
  5
83C6
102
{ACAD_REACTORS
330
83A9
102
}
330
83A9
100
AcDbDictionary
281
     1
  3
2dWireframe
350
83CC
  3
Basic
350
83CB
  3
Brighten
350
83D2
  3
ColorChange
350
83D6
  3
Conceptual
350
83CF
  3
Dim
350
83D1
  3
EdgeColorOff
350
83DE
  3
Facepattern
350
83D5
  3
Flat
350
83C7
  3
FlatWithEdges
350
83C8
  3
Gouraud
350
83C9
  3
GouraudWithEdges
350
83CA
  3
Hidden
350
83CE
  3
JitterOff
350
83DC
  3
Linepattern
350
83D4
  3
OverhangOff
350
83DD
  3
Realistic
350
83D0
  3
Shaded
350
83DB
  3
Shaded with edges
350
83DA
  3
Shades of Gray
350
83D7
  3
Sketchy
350
83D8
  3
Thicken
350
83D3
  3
Wireframe
350
83CD
  3
X-Ray
350
83D9
  0
XRECORD
  5
8737
102
{ACAD_REACTORS
330
83A9
102
}
330
83A9
100
AcDbXrecord
280
     1
 90
        1
330
8401
  0
DICTIONARY
  5
8460
102
{ACAD_REACTORS
330
83A9
102
}
330
83A9
100
AcDbDictionary
281
     1
  3
CANNOSCALE
350
8465
  3
CMLEADERSTYLE
350
8462
  3
CTABLESTYLE
350
8461
  3
CVIEWDETAILSTYLE
350
8463
  3
CVIEWSECTIONSTYLE
350
8464
  3
DIMASSOC
350
8468
  3
INDEXCTL
350
8467
  3
SORTENTS
350
8466
  3
XCLIPFRAME
350
8469
  0
XRECORD
  5
8738
102
{ACAD_REACTORS
330
83A9
102
}
330
83A9
100
AcDbXrecord
280
     1
  1
DWGPROPS COOKIE
  2

  3

  4

  6

  7

  8
yasukiyo.ogawa
  9

300
=
301
=
302
=
303
=
304
=
305
=
306
=
307
=
308
=
309
=
 40
0.0282912152777778
 41
2451898.665484606
 42
2460280.735593438
  1

 90
        0
  0
XRECORD
  5
8457
102
{ACAD_REACTORS
330
8456
102
}
330
8456
100
AcDbXrecord
280
     1
290
     1
  0
XRECORD
  5
8459
102
{ACAD_REACTORS
330
8458
102
}
330
8458
100
AcDbXrecord
280
     1
290
     1
  0
XRECORD
  5
845B
102
{ACAD_REACTORS
330
845A
102
}
330
845A
100
AcDbXrecord
280
     1
290
     1
  0
XRECORD
  5
845D
102
{ACAD_REACTORS
330
845C
102
}
330
845C
100
AcDbXrecord
280
     1
290
     1
  0
XRECORD
  5
845F
102
{ACAD_REACTORS
330
845E
102
}
330
845E
100
AcDbXrecord
280
     1
290
     1
  0
SORTENTSTABLE
  5
84D8
102
{ACAD_REACTORS
330
84D7
102
}
330
84D7
100
AcDbSortentsTable
330
840C
331
8098
  5
809A
331
7CF8
  5
7CFA
331
7CA3
  5
7CA5
331
7C4B
  5
7C4D
331
7C3A
  5
7C3C
331
7CB4
  5
7CB7
331
7CC5
  5
7CC9
331
8087
  5
808A
331
7CD6
  5
7CDA
331
7C7E
  5
7C80
331
7CE7
  5
7CEB
331
7C8F
  5
7C91
331
7C6D
  5
7C6F
331
7C29
  5
7C29
331
8088
  5
808B
331
8099
  5
809B
331
7CE8
  5
7CEC
331
7C90
  5
7C92
331
81D0
  5
81EC
331
81B6
  5
81D0
331
7CA4
  5
7CA6
331
7C4C
  5
7C4E
331
7C3B
  5
7C3D
331
7CC6
  5
7CCA
331
7C6E
  5
7C70
331
7C5D
  5
7C5F
331
7C2A
  5
7C2C
331
7C7F
  5
7C81
331
809A
  5
809C
331
7C91
  5
7C93
331
7C80
  5
7C82
331
7CA5
  5
7CA7
331
7C4D
  5
7C4F
331
7C3C
  5
7C3E
331
7CB6
  5
7CB8
331
7C5E
  5
7C60
331
7C2B
  5
7C2D
331
7C6F
  5
7C71
331
808A
  5
808C
331
7CD9
  5
7CDD
331
7C81
  5
7C83
331
7C70
  5
7C72
331
809B
  5
8133
331
7C92
  5
7C94
331
7CA6
  5
7CA8
331
7C4E
  5
7C50
331
7C3D
  5
7C3F
331
7C2C
  5
7C2E
331
7CB7
  5
7CB9
331
7C5F
  5
7C61
331
7CB8
  5
7CBA
331
7C60
  5
7C62
331
7CC9
  5
7CCB
331
7C71
  5
7C73
331
808B
  5
808D
331
7CDA
  5
7CDE
331
7C82
  5
7C84
331
809C
  5
819B
331
7CEB
  5
7CEE
331
7D0D
  5
807E
331
7CFC
  5
7CFF
331
7CA7
  5
7CA9
331
7C4F
  5
7C51
331
7C3E
  5
7C40
331
7C2D
  5
7C2F
331
7C93
  5
7C95
331
7CA8
  5
7CAA
331
7C50
  5
7C52
331
7CB9
  5
7CBB
331
7C61
  5
7C63
331
7CCA
  5
7CCC
331
7C72
  5
7C74
331
808C
  5
808E
331
81A9
  5
81C3
331
7CEC
  5
7CEF
331
7C94
  5
7C96
331
7C3F
  5
7C41
331
7C2E
  5
7C30
331
7C83
  5
7C85
331
7C98
  5
7C9A
331
7C40
  5
7C42
331
7CA9
  5
7CAB
331
7C51
  5
7C53
331
7CBA
  5
7CBC
331
7C62
  5
7C64
331
7CCB
  5
7CCD
331
808D
  5
808F
331
7C84
  5
7C86
331
7CFE
  5
7D00
331
7D0F
  5
807F
331
7C2F
  5
7C31
331
7C95
  5
7C97
331
7C73
  5
7C75
331
84C9
  5
84D9
331
7C30
  5
7C32
331
7C99
  5
7C9B
331
7C41
  5
7C43
331
7CAA
  5
7CAC
331
7C52
  5
7C54
331
7CBB
  5
7CBD
331
7CCC
  5
7CCE
331
7C74
  5
7C76
331
808E
  5
8090
331
7CFF
  5
7D05
331
7CEE
  5
7CF0
331
7C96
  5
7C98
331
7C85
  5
7C87
331
7C63
  5
7C68
331
7C9A
  5
7C9C
331
7C42
  5
7C44
331
7C31
  5
7C33
331
7CAB
  5
7CAF
331
7C53
  5
7C55
331
7CBC
  5
7CBE
331
7CCD
  5
7CCF
331
7C75
  5
7C77
331
807E
  5
8080
331
808F
  5
8091
331
7C86
  5
7C88
331
819B
  5
81A9
331
7D00
  5
7D06
331
7CEF
  5
7CF1
331
7C97
  5
7C99
331
7C64
  5
7C69
331
7C9B
  5
7C9D
331
7C43
  5
7C45
331
7C32
  5
7C34
331
7CBD
  5
7CC1
331
7CAC
  5
7CB0
331
7C54
  5
7C56
331
807F
  5
8083
331
7CCE
  5
7CD0
331
8090
  5
8092
331
7C87
  5
7C89
331
819C
  5
81B6
331
7CF0
  5
7CF3
331
7C76
  5
7C78
331
7C44
  5
7C46
331
7C33
  5
7C35
331
7CBE
  5
7CC2
331
7C55
  5
7C57
331
8080
  5
8084
331
7CCF
  5
7CD1
331
8091
  5
8093
331
7CE0
  5
7CE2
331
7C88
  5
7C8A
331
7CF1
  5
7CF4
331
7C77
  5
7C79
331
7C22
  5
7C22
331
84BC
  5
84D6
331
7C45
  5
7C47
331
7C34
  5
7C36
331
7CD0
  5
7CD2
331
7C78
  5
7C7A
331
7C56
  5
7C58
331
8092
  5
8094
331
7CE1
  5
7CE3
331
7C89
  5
7C8B
331
7C23
  5
7C23
331
7C46
  5
7C48
331
7C35
  5
7C37
331
7CAF
  5
7CB1
331
7C57
  5
7C5A
331
7CD1
  5
7CD3
331
7C79
  5
7C7B
331
8093
  5
8095
331
7CE2
  5
7CE5
331
7C8A
  5
7C8C
331
7CF3
  5
7CF5
331
7C68
  5
7C6A
331
7C24
  5
7C24
331
7C47
  5
7C49
331
7C36
  5
7C38
331
7CB0
  5
7CB3
331
7C58
  5
7C5B
331
7CC1
  5
7CC3
331
8083
  5
8085
331
7CD2
  5
7CD5
331
7C7A
  5
7C7C
331
8094
  5
8096
331
7CE3
  5
7CE6
331
7D05
  5
7D07
331
7CF4
  5
7CF6
331
7C8B
  5
7C8D
331
7C69
  5
7C6B
331
7C25
  5
7C25
331
81C3
  5
81DF
331
7CB1
  5
7CB4
331
7C48
  5
7C4A
331
7C37
  5
7C39
331
7CC2
  5
7CC4
331
7C6A
  5
7C6C
331
8084
  5
8086
331
7CD3
  5
7CD6
331
8095
  5
8097
331
7C8C
  5
7C8E
331
7D06
  5
7D0A
331
7CF5
  5
7CF7
331
7C7B
  5
7C7D
331
84AF
  5
84C9
331
7CA1
  5
7CA4
331
7C49
  5
7C4B
331
7C38
  5
7C3A
331
7CC3
  5
7CC5
331
7C6B
  5
7C6D
331
8085
  5
8087
331
8096
  5
8098
331
7CE5
  5
7CE7
331
7D07
  5
7D0C
331
7CF6
  5
7CF8
331
7C8D
  5
7C8F
331
7C7C
  5
7C7E
331
7CB3
  5
7CB6
331
7C39
  5
7C3B
331
7CC4
  5
7CC6
331
7C6C
  5
7C6E
331
8086
  5
8088
331
7CD5
  5
7CD9
331
8097
  5
8099
331
7CE6
  5
7CE8
331
7C8E
  5
7C90
331
7CF7
  5
7CF9
331
7C7D
  5
7C7F
331
7C28
  5
7C28
  0
ACDBDETAILVIEWSTYLE
  5
8407
102
{ACAD_XDICTIONARY
360
8770
102
}
102
{ACAD_REACTORS
330
8406
102
}
330
8406
100
AcDbModelDocViewStyle
 70
     0
  3
Imperial24
290
     0
100
AcDbDetailViewStyle
 70
     0
 71
     0
 90
        3
 71
     1
340
83F2
 40
0.24
340
0
 40
0.24
300

 40
0.36
280
     3
 71
     2
340
83F9
 90
       25
 71
     3
340
83F2
 40
0.24
 90
        1
 40
0.75
 90
        1
300
%<\AcVar ViewType \f "%tc1">% %<\AcVar ViewDetailId>%\PSCALE %<\AcVar ViewScale \f "%sn">%
 71
     4
340
83F9
 90
       25
340
83F9
 90
       25
280
     0
  0
LAYOUT
  5
840F
102
{ACAD_XDICTIONARY
360
8774
102
}
102
{ACAD_REACTORS
330
83FE
102
}
330
83FE
100
AcDbPlotSettings
  1

  2
RICOH imagio MP W3600 RPCS
  4

  6

 40
0.0
 41
0.0
 42
0.0
 43
0.0
 44
0.0
 45
0.0
 46
0.0
 47
0.0
 48
0.0
 49
0.0
140
0.0
141
0.0
142
1.0
143
1.0
 70
  1712
 72
     0
 73
     0
 74
     0
  7

 75
     0
147
1.0
148
0.0
149
0.0
100
AcDbLayout
  1
Model
 70
     1
 71
     0
 10
0.0
 20
0.0
 11
12.0
 21
9.0
 12
0.0
 22
0.0
 32
0.0
 14
0.0
 24
0.0
 34
0.0
 15
0.0
 25
0.0
 35
0.0
146
0.0
 13
0.0
 23
0.0
 33
0.0
 16
1.0
 26
0.0
 36
0.0
 17
0.0
 27
1.0
 37
0.0
 76
     0
330
840C
331
8411
  0
LAYOUT
  5
840B
102
{ACAD_XDICTIONARY
360
8772
102
}
102
{ACAD_REACTORS
330
83FE
102
}
330
83FE
100
AcDbPlotSettings
  1

  2
RICOH imagio MP W3600 RPCS
  4

  6

 40
0.0
 41
0.0
 42
0.0
 43
0.0
 44
0.0
 45
0.0
 46
0.0
 47
0.0
 48
0.0
 49
0.0
140
0.0
141
0.0
142
1.0
143
1.0
 70
   688
 72
     0
 73
     0
 74
     5
  7

 75
    16
147
1.0
148
0.0
149
0.0
100
AcDbLayout
  1
レイアウト1
 70
     1
 71
     1
 10
0.0
 20
0.0
 11
12.0
 21
9.0
 12
0.0
 22
0.0
 32
0.0
 14
1.000000000000000E+20
 24
1.000000000000000E+20
 34
1.000000000000000E+20
 15
-1.000000000000000E+20
 25
-1.000000000000000E+20
 35
-1.000000000000000E+20
146
0.0
 13
0.0
 23
0.0
 33
0.0
 16
1.0
 26
0.0
 36
0.0
 17
0.0
 27
1.0
 37
0.0
 76
     0
330
8408
  0
MATERIAL
  5
83B6
102
{ACAD_XDICTIONARY
360
83B7
102
}
102
{ACAD_REACTORS
330
83AD
102
}
330
83AD
100
AcDbMaterial
  1
ByBlock
 72
     0
 43
0.0208333333333333
 43
0.0
 43
0.0
 43
0.0
 43
0.0
 43
0.0208333333333333
 43
0.0
 43
0.0
 43
0.0
 43
0.0
 43
1.0
 43
0.0
 43
0.0
 43
0.0
 43
0.0
 43
1.0
 77
     0
 47
0.0208333333333333
 47
0.0
 47
0.0
 47
0.0
 47
0.0
 47
0.0208333333333333
 47
0.0
 47
0.0
 47
0.0
 47
0.0
 47
1.0
 47
0.0
 47
0.0
 47
0.0
 47
0.0
 47
1.0
171
     0
 49
0.0208333333333333
 49
0.0
 49
0.0
 49
0.0
 49
0.0
 49
0.0208333333333333
 49
0.0
 49
0.0
 49
0.0
 49
0.0
 49
1.0
 49
0.0
 49
0.0
 49
0.0
 49
0.0
 49
1.0
175
     0
142
0.0208333333333333
142
0.0
142
0.0
142
0.0
142
0.0
142
0.0208333333333333
142
0.0
142
0.0
142
0.0
142
0.0
142
1.0
142
0.0
142
0.0
142
0.0
142
0.0
142
1.0
179
     0
144
0.0208333333333333
144
0.0
144
0.0
144
0.0
144
0.0
144
0.0208333333333333
144
0.0
144
0.0
144
0.0
144
0.0
144
1.0
144
0.0
144
0.0
144
0.0
144
0.0
144
1.0
147
0.0208333333333333
147
0.0
147
0.0
147
0.0
147
0.0
147
0.0208333333333333
147
0.0
147
0.0
147
0.0
147
0.0
147
1.0
147
0.0
147
0.0
147
0.0
147
0.0
147
1.0
  0
MATERIAL
  5
83AE
102
{ACAD_XDICTIONARY
360
83AF
102
}
102
{ACAD_REACTORS
330
83AD
102
}
330
83AD
100
AcDbMaterial
  1
ByLayer
 72
     0
 43
0.0208333333333333
 43
0.0
 43
0.0
 43
0.0
 43
0.0
 43
0.0208333333333333
 43
0.0
 43
0.0
 43
0.0
 43
0.0
 43
1.0
 43
0.0
 43
0.0
 43
0.0
 43
0.0
 43
1.0
 77
     0
 47
0.0208333333333333
 47
0.0
 47
0.0
 47
0.0
 47
0.0
 47
0.0208333333333333
 47
0.0
 47
0.0
 47
0.0
 47
0.0
 47
1.0
 47
0.0
 47
0.0
 47
0.0
 47
0.0
 47
1.0
171
     0
 49
0.0208333333333333
 49
0.0
 49
0.0
 49
0.0
 49
0.0
 49
0.0208333333333333
 49
0.0
 49
0.0
 49
0.0
 49
0.0
 49
1.0
 49
0.0
 49
0.0
 49
0.0
 49
0.0
 49
1.0
175
     0
142
0.0208333333333333
142
0.0
142
0.0
142
0.0
142
0.0
142
0.0208333333333333
142
0.0
142
0.0
142
0.0
142
0.0
142
1.0
142
0.0
142
0.0
142
0.0
142
0.0
142
1.0
179
     0
144
0.0208333333333333
144
0.0
144
0.0
144
0.0
144
0.0
144
0.0208333333333333
144
0.0
144
0.0
144
0.0
144
0.0
144
1.0
144
0.0
144
0.0
144
0.0
144
0.0
144
1.0
147
0.0208333333333333
147
0.0
147
0.0
147
0.0
147
0.0
147
0.0208333333333333
147
0.0
147
0.0
147
0.0
147
0.0
147
1.0
147
0.0
147
0.0
147
0.0
147
0.0
147
1.0
  0
MATERIAL
  5
83BE
102
{ACAD_XDICTIONARY
360
83BF
102
}
102
{ACAD_REACTORS
330
83AD
102
}
330
83AD
100
AcDbMaterial
  1
Global
 72
     0
 43
0.0208333333333333
 43
0.0
 43
0.0
 43
0.0
 43
0.0
 43
0.0208333333333333
 43
0.0
 43
0.0
 43
0.0
 43
0.0
 43
1.0
 43
0.0
 43
0.0
 43
0.0
 43
0.0
 43
1.0
 77
     0
 47
0.0208333333333333
 47
0.0
 47
0.0
 47
0.0
 47
0.0
 47
0.0208333333333333
 47
0.0
 47
0.0
 47
0.0
 47
0.0
 47
1.0
 47
0.0
 47
0.0
 47
0.0
 47
0.0
 47
1.0
171
     0
 49
0.0208333333333333
 49
0.0
 49
0.0
 49
0.0
 49
0.0
 49
0.0208333333333333
 49
0.0
 49
0.0
 49
0.0
 49
0.0
 49
1.0
 49
0.0
 49
0.0
 49
0.0
 49
0.0
 49
1.0
175
     0
142
0.0208333333333333
142
0.0
142
0.0
142
0.0
142
0.0
142
0.0208333333333333
142
0.0
142
0.0
142
0.0
142
0.0
142
1.0
142
0.0
142
0.0
142
0.0
142
0.0
142
1.0
179
     0
144
0.0208333333333333
144
0.0
144
0.0
144
0.0
144
0.0
144
0.0208333333333333
144
0.0
144
0.0
144
0.0
144
0.0
144
1.0
144
0.0
144
0.0
144
0.0
144
0.0
144
1.0
147
0.0208333333333333
147
0.0
147
0.0
147
0.0
147
0.0
147
0.0208333333333333
147
0.0
147
0.0
147
0.0
147
0.0
147
1.0
147
0.0
147
0.0
147
0.0
147
0.0
147
1.0
  0
MLEADERSTYLE
  5
8403
102
{ACAD_REACTORS
330
8402
102
}
330
8402
100
AcDbMLeaderStyle
170
     2
171
     1
172
     0
 90
        2
 40
0.0
 41
0.0
173
     1
 91
-1056964608
340
83F7
 92
       -2
290
     1
 42
0.09
291
     1
 43
0.36
  3
Standard
 44
0.18
300

342
83F2
174
     1
178
     6
175
     1
176
     0
 93
-1056964608
 45
0.18
292
     0
297
     0
 46
0.18
 94
-1056964608
 47
1.0
 49
1.0
140
1.0
293
     1
141
0.0
294
     1
177
     0
142
1.0
295
     0
296
     0
143
0.125
1001
ACAD_MLEADERVER
1070
     2
  0
MLINESTYLE
  5
83FC
102
{ACAD_REACTORS
330
83FB
102
}
330
83FB
100
AcDbMlineStyle
  2
STANDARD
 70
     0
  3

 62
   256
 51
90.0
 52
90.0
 71
     2
 49
0.5
 62
   256
  6
BYLAYER
 49
-0.5
 62
   256
  6
BYLAYER
  0
ACDBPLACEHOLDER
  5
83AC
102
{ACAD_REACTORS
330
83AB
102
}
330
83AB
  0
SCALE
  5
83E0
102
{ACAD_REACTORS
330
83DF
102
}
330
83DF
100
AcDbScale
 70
     0
300
1:1
140
1.0
141
1.0
290
     1
  0
SCALE
  5
83E1
102
{ACAD_REACTORS
330
83DF
102
}
330
83DF
100
AcDbScale
 70
     0
300
1/128" = 1'-0"
140
0.0078125
141
12.0
290
     0
  0
SCALE
  5
83E2
102
{ACAD_REACTORS
330
83DF
102
}
330
83DF
100
AcDbScale
 70
     0
300
1/64" = 1'-0"
140
0.015625
141
12.0
290
     0
  0
SCALE
  5
83E3
102
{ACAD_REACTORS
330
83DF
102
}
330
83DF
100
AcDbScale
 70
     0
300
1/32" = 1'-0"
140
0.03125
141
12.0
290
     0
  0
SCALE
  5
83E4
102
{ACAD_REACTORS
330
83DF
102
}
330
83DF
100
AcDbScale
 70
     0
300
1/16" = 1'-0"
140
0.0625
141
12.0
290
     0
  0
SCALE
  5
83E5
102
{ACAD_REACTORS
330
83DF
102
}
330
83DF
100
AcDbScale
 70
     0
300
3/32" = 1'-0"
140
0.09375
141
12.0
290
     0
  0
SCALE
  5
83E6
102
{ACAD_REACTORS
330
83DF
102
}
330
83DF
100
AcDbScale
 70
     0
300
1/8" = 1'-0"
140
0.125
141
12.0
290
     0
  0
SCALE
  5
83E7
102
{ACAD_REACTORS
330
83DF
102
}
330
83DF
100
AcDbScale
 70
     0
300
3/16" = 1'-0"
140
0.1875
141
12.0
290
     0
  0
SCALE
  5
83E8
102
{ACAD_REACTORS
330
83DF
102
}
330
83DF
100
AcDbScale
 70
     0
300
1/4" = 1'-0"
140
0.25
141
12.0
290
     0
  0
SCALE
  5
83E9
102
{ACAD_REACTORS
330
83DF
102
}
330
83DF
100
AcDbScale
 70
     0
300
3/8" = 1'-0"
140
0.375
141
12.0
290
     0
  0
SCALE
  5
83EA
102
{ACAD_REACTORS
330
83DF
102
}
330
83DF
100
AcDbScale
 70
     0
300
1/2" = 1'-0"
140
0.5
141
12.0
290
     0
  0
SCALE
  5
83EB
102
{ACAD_REACTORS
330
83DF
102
}
330
83DF
100
AcDbScale
 70
     0
300
3/4" = 1'-0"
140
0.75
141
12.0
290
     0
  0
SCALE
  5
83EC
102
{ACAD_REACTORS
330
83DF
102
}
330
83DF
100
AcDbScale
 70
     0
300
1" = 1'-0"
140
1.0
141
12.0
290
     0
  0
SCALE
  5
83ED
102
{ACAD_REACTORS
330
83DF
102
}
330
83DF
100
AcDbScale
 70
     0
300
1-1/2" = 1'-0"
140
1.5
141
12.0
290
     0
  0
SCALE
  5
83EE
102
{ACAD_REACTORS
330
83DF
102
}
330
83DF
100
AcDbScale
 70
     0
300
3" = 1'-0"
140
3.0
141
12.0
290
     0
  0
SCALE
  5
83EF
102
{ACAD_REACTORS
330
83DF
102
}
330
83DF
100
AcDbScale
 70
     0
300
6" = 1'-0"
140
6.0
141
12.0
290
     0
  0
SCALE
  5
83F0
102
{ACAD_REACTORS
330
83DF
102
}
330
83DF
100
AcDbScale
 70
     0
300
1'-0" = 1'-0"
140
12.0
141
12.0
290
     0
  0
ACDBSECTIONVIEWSTYLE
  5
8405
102
{ACAD_XDICTIONARY
360
876E
102
}
102
{ACAD_REACTORS
330
8404
102
}
330
8404
100
AcDbModelDocViewStyle
 70
     0
  3
Imperial24
290
     0
100
AcDbSectionViewStyle
 70
     0
 71
     0
 90
       78
 71
     1
340
83F2
 40
0.24
340
0
340
0
 40
0.24
300
I, O, Q, S, X, Z
 40
0.48
 90
        3
 40
0.18
 90
        1
 71
     2
340
83F9
 90
       25
340
83F9
 90
       50
 40
0.24
 40
0.0
 40
0.24
 71
     3
340
83F2
 40
0.24
 90
        1
 40
0.75
 90
        1
300
%<\AcVar ViewType \f "%tc1">% %<\AcVar ViewSectionStartId>%-%<\AcVar ViewSectionEndId>%\PSCALE %<\AcVar ViewScale \f "%sn">%
 71
     4
300
ANSI31
 40
1.0
 90
        0
290
     0
290
     0
 90
        6
 40
0.0
 40
1.570796326794896
 40
0.2617993877991494
 40
1.308996938995747
 40
-0.2617993877991494
 40
1.832595714594046
  0
TABLESTYLE
  5
8401
102
{ACAD_XDICTIONARY
360
8735
102
}
102
{ACAD_REACTORS
330
8400
102
}
330
8400
100
AcDbTableStyle
  3
Standard
 70
     0
 71
     0
 40
0.06
 41
0.06
280
     0
281
     0
  7
STANDARD
140
0.18
170
     2
 62
     0
 63
     7
283
     0
274
    -2
284
     1
 64
     0
275
    -2
285
     1
 65
     0
276
    -2
286
     1
 66
     0
277
    -2
287
     1
 67
     0
278
    -2
288
     1
 68
     0
279
    -2
289
     1
 69
     0
  7
STANDARD
140
0.25
170
     5
 62
     0
 63
     7
283
     0
274
    -2
284
     1
 64
     0
275
    -2
285
     1
 65
     0
276
    -2
286
     1
 66
     0
277
    -2
287
     1
 67
     0
278
    -2
288
     1
 68
     0
279
    -2
289
     1
 69
     0
  7
STANDARD
140
0.18
170
     5
 62
     0
 63
     7
283
     0
274
    -2
284
     1
 64
     0
275
    -2
285
     1
 65
     0
276
    -2
286
     1
 66
     0
277
    -2
287
     1
 67
     0
278
    -2
288
     1
 68
     0
279
    -2
289
     1
 69
     0
  0
VISUALSTYLE
  5
83CC
102
{ACAD_XDICTIONARY
360
8746
102
}
102
{ACAD_REACTORS
330
83C6
102
}
330
83C6
100
AcDbVisualStyle
  2
2dWireframe
 70
     4
 71
     0
 72
     2
 73
     0
 90
        0
 40
-0.6
 41
-30.0
 62
     5
 63
     7
 74
     1
 91
        4
 64
     7
 65
   257
 75
     1
175
     1
 42
1.0
 92
        0
 66
   257
 43
1.0
 76
     1
 77
     6
 78
     2
 67
     7
 79
     5
170
     0
171
     0
290
     0
174
     0
 93
        1
 44
0.0
173
     0
291
     0
 45
0.0
1001
ACAD
1000
AcDbSavedByObjectVersion
1070
     0
  0
VISUALSTYLE
  5
83CB
102
{ACAD_XDICTIONARY
360
8744
102
}
102
{ACAD_REACTORS
330
83C6
102
}
330
83C6
100
AcDbVisualStyle
  2
Basic
 70
     7
 71
     1
 72
     0
 73
     1
 90
        0
 40
-0.6
 41
-30.0
 62
     5
 63
     7
 74
     0
 91
        4
 64
     7
 65
   257
 75
     1
175
     1
 42
1.0
 92
        8
 66
     7
 43
1.0
 76
     1
 77
     6
 78
     2
 67
     7
 79
     5
170
     0
171
     0
290
     0
174
     0
 93
        1
 44
0.0
173
     0
291
     1
 45
0.0
1001
ACAD
1000
AcDbSavedByObjectVersion
1070
     0
  0
VISUALSTYLE
  5
83D2
102
{ACAD_XDICTIONARY
360
8752
102
}
102
{ACAD_REACTORS
330
83C6
102
}
330
83C6
100
AcDbVisualStyle
  2
Brighten
 70
    12
 71
     2
 72
     2
 73
     0
 90
        0
 40
-0.6
 41
-30.0
 62
     5
 63
     7
 74
     1
 91
        4
 64
     7
 65
   257
 75
     1
175
     1
 42
1.0
 92
        8
 66
     7
 43
1.0
 76
     1
 77
     6
 78
     2
 67
     7
 79
     5
170
     0
171
     0
290
     0
174
     0
 93
        1
 44
50.0
173
     0
291
     1
 45
0.0
1001
ACAD
1000
AcDbSavedByObjectVersion
1070
     0
  0
VISUALSTYLE
  5
83D6
102
{ACAD_XDICTIONARY
360
875A
102
}
102
{ACAD_REACTORS
330
83C6
102
}
330
83C6
100
AcDbVisualStyle
  2
ColorChange
 70
    16
 71
     2
 72
     2
 73
     3
 90
        0
 40
-0.6
 41
-30.0
 62
     5
 63
     8
 74
     1
 91
        4
 64
     7
 65
   257
 75
     1
175
     1
 42
1.0
 92
        8
 66
     8
 43
1.0
 76
     1
 77
     6
 78
     2
 67
     7
 79
     5
170
     0
171
     0
290
     0
174
     0
 93
        1
 44
0.0
173
     0
291
     1
 45
0.0
1001
ACAD
1000
AcDbSavedByObjectVersion
1070
     0
  0
VISUALSTYLE
  5
83CF
102
{ACAD_XDICTIONARY
360
874C
102
}
102
{ACAD_REACTORS
330
83C6
102
}
330
83C6
100
AcDbVisualStyle
  2
Conceptual
 70
     9
 71
     3
 72
     2
 73
     0
 90
        0
 40
-0.6
 41
-30.0
 62
     5
 63
     7
 74
     2
 91
        2
 64
     7
 65
   257
 75
     1
175
     1
 42
179.0
 92
        8
 66
     7
 43
1.0
 76
     1
 77
     6
 78
     2
 67
     7
 79
     3
170
     0
171
     0
290
     0
174
     0
 93
        1
 44
0.0
173
     0
291
     0
 45
0.0
1001
ACAD
1000
AcDbSavedByObjectVersion
1070
     0
  0
VISUALSTYLE
  5
83D1
102
{ACAD_XDICTIONARY
360
8750
102
}
102
{ACAD_REACTORS
330
83C6
102
}
330
83C6
100
AcDbVisualStyle
  2
Dim
 70
    11
 71
     2
 72
     2
 73
     0
 90
        0
 40
-0.6
 41
-30.0
 62
     5
 63
     7
 74
     1
 91
        4
 64
     7
 65
   257
 75
     1
175
     1
 42
1.0
 92
        8
 66
     7
 43
1.0
 76
     1
 77
     6
 78
     2
 67
     7
 79
     5
170
     0
171
     0
290
     0
174
     0
 93
        1
 44
-50.0
173
     0
291
     1
 45
0.0
1001
ACAD
1000
AcDbSavedByObjectVersion
1070
     0
  0
VISUALSTYLE
  5
83DE
102
{ACAD_XDICTIONARY
360
876A
102
}
102
{ACAD_REACTORS
330
83C6
102
}
330
83C6
100
AcDbVisualStyle
  2
EdgeColorOff
 70
    22
 71
     2
 72
     2
 73
     0
 90
        0
 40
-0.6
 41
-30.0
 62
     5
 63
     7
 74
     1
 91
        4
 64
     7
 65
   257
 75
     1
175
     1
 42
1.0
 92
        8
 66
     7
 43
1.0
 76
     1
 77
     6
 78
     2
 67
     7
 79
     5
170
     0
171
     0
290
     0
174
     0
 93
        1
 44
0.0
173
     0
291
     1
 45
0.0
1001
ACAD
1000
AcDbSavedByObjectVersion
1070
     0
  0
VISUALSTYLE
  5
83D5
102
{ACAD_XDICTIONARY
360
8758
102
}
102
{ACAD_REACTORS
330
83C6
102
}
330
83C6
100
AcDbVisualStyle
  2
Facepattern
 70
    15
 71
     2
 72
     2
 73
     0
 90
        0
 40
-0.6
 41
-30.0
 62
     5
 63
     7
 74
     1
 91
        4
 64
     7
 65
   257
 75
     1
175
     1
 42
1.0
 92
        8
 66
     7
 43
1.0
 76
     1
 77
     6
 78
     2
 67
     7
 79
     5
170
     0
171
     0
290
     0
174
     0
 93
        1
 44
0.0
173
     0
291
     1
 45
0.0
1001
ACAD
1000
AcDbSavedByObjectVersion
1070
     0
  0
VISUALSTYLE
  5
83C7
102
{ACAD_XDICTIONARY
360
873C
102
}
102
{ACAD_REACTORS
330
83C6
102
}
330
83C6
100
AcDbVisualStyle
  2
Flat
 70
     0
 71
     2
 72
     1
 73
     1
 90
        2
 40
-0.6
 41
30.0
 62
     5
 63
     7
 74
     0
 91
        0
 64
     7
 65
   257
 75
     1
175
     1
 42
1.0
 92
        8
 66
     7
 43
1.0
 76
     1
 77
     6
 78
     2
 67
     7
 79
     5
170
     0
171
     0
290
     0
174
     0
 93
       13
 44
0.0
173
     0
291
     1
 45
0.0
1001
ACAD
1000
AcDbSavedByObjectVersion
1070
     0
  0
VISUALSTYLE
  5
83C8
102
{ACAD_XDICTIONARY
360
873E
102
}
102
{ACAD_REACTORS
330
83C6
102
}
330
83C6
100
AcDbVisualStyle
  2
FlatWithEdges
 70
     1
 71
     2
 72
     1
 73
     1
 90
        2
 40
-0.6
 41
30.0
 62
     5
 63
     7
 74
     1
 91
        0
 64
     7
 65
   257
 75
     1
175
     1
 42
1.0
 92
        0
 66
   257
 43
1.0
 76
     1
 77
     6
 78
     2
 67
     7
 79
     5
170
     0
171
     0
290
     0
174
     0
 93
       13
 44
0.0
173
     0
291
     1
 45
0.0
1001
ACAD
1000
AcDbSavedByObjectVersion
1070
     0
  0
VISUALSTYLE
  5
83C9
102
{ACAD_XDICTIONARY
360
8740
102
}
102
{ACAD_REACTORS
330
83C6
102
}
330
83C6
100
AcDbVisualStyle
  2
Gouraud
 70
     2
 71
     2
 72
     2
 73
     1
 90
        2
 40
-0.6
 41
30.0
 62
     5
 63
     7
 74
     0
 91
        0
 64
     7
 65
   257
 75
     1
175
     1
 42
1.0
 92
        0
 66
     7
 43
1.0
 76
     1
 77
     6
 78
     2
 67
     7
 79
     5
170
     0
171
     0
290
     0
174
     0
 93
       13
 44
0.0
173
     0
291
     1
 45
0.0
1001
ACAD
1000
AcDbSavedByObjectVersion
1070
     0
  0
VISUALSTYLE
  5
83CA
102
{ACAD_XDICTIONARY
360
8742
102
}
102
{ACAD_REACTORS
330
83C6
102
}
330
83C6
100
AcDbVisualStyle
  2
GouraudWithEdges
 70
     3
 71
     2
 72
     2
 73
     1
 90
        2
 40
-0.6
 41
30.0
 62
     5
 63
     7
 74
     1
 91
        0
 64
     7
 65
   257
 75
     1
175
     1
 42
1.0
 92
        0
 66
   257
 43
1.0
 76
     1
 77
     6
 78
     2
 67
     7
 79
     5
170
     0
171
     0
290
     0
174
     0
 93
       13
 44
0.0
173
     0
291
     1
 45
0.0
1001
ACAD
1000
AcDbSavedByObjectVersion
1070
     0
  0
VISUALSTYLE
  5
83CE
102
{ACAD_XDICTIONARY
360
874A
102
}
102
{ACAD_REACTORS
330
83C6
102
}
330
83C6
100
AcDbVisualStyle
  2
Hidden
 70
     6
 71
     1
 72
     2
 73
     2
 90
        0
 40
-0.6
 41
-30.0
 62
     5
 63
     7
 74
     2
 91
        2
 64
     7
 65
   257
 75
     2
175
     1
 42
40.0
 92
        0
 66
   257
 43
1.0
 76
     1
 77
     6
 78
     2
 67
     7
 79
     3
170
     0
171
     0
290
     0
174
     0
 93
        1
 44
0.0
173
     0
291
     0
 45
0.0
1001
ACAD
1000
AcDbSavedByObjectVersion
1070
     0
  0
VISUALSTYLE
  5
83DC
102
{ACAD_XDICTIONARY
360
8766
102
}
102
{ACAD_REACTORS
330
83C6
102
}
330
83C6
100
AcDbVisualStyle
  2
JitterOff
 70
    20
 71
     2
 72
     2
 73
     0
 90
        0
 40
-0.6
 41
-30.0
 62
     5
 63
     7
 74
     1
 91
        4
 64
     7
 65
   257
 75
     1
175
     1
 42
1.0
 92
       10
 66
     7
 43
1.0
 76
     1
 77
     6
 78
     2
 67
     7
 79
     5
170
     0
171
     0
290
     0
174
     0
 93
        1
 44
0.0
173
     0
291
     1
 45
0.0
1001
ACAD
1000
AcDbSavedByObjectVersion
1070
     0
  0
VISUALSTYLE
  5
83D4
102
{ACAD_XDICTIONARY
360
8756
102
}
102
{ACAD_REACTORS
330
83C6
102
}
330
83C6
100
AcDbVisualStyle
  2
Linepattern
 70
    14
 71
     2
 72
     2
 73
     0
 90
        0
 40
-0.6
 41
-30.0
 62
     5
 63
     7
 74
     1
 91
        4
 64
     7
 65
   257
 75
     7
175
     7
 42
1.0
 92
        8
 66
     7
 43
1.0
 76
     1
 77
     6
 78
     2
 67
     7
 79
     5
170
     0
171
     0
290
     0
174
     0
 93
        1
 44
0.0
173
     0
291
     1
 45
0.0
1001
ACAD
1000
AcDbSavedByObjectVersion
1070
     0
  0
VISUALSTYLE
  5
83DD
102
{ACAD_XDICTIONARY
360
8768
102
}
102
{ACAD_REACTORS
330
83C6
102
}
330
83C6
100
AcDbVisualStyle
  2
OverhangOff
 70
    21
 71
     2
 72
     2
 73
     0
 90
        0
 40
-0.6
 41
-30.0
 62
     5
 63
     7
 74
     1
 91
        4
 64
     7
 65
   257
 75
     1
175
     1
 42
1.0
 92
        9
 66
     7
 43
1.0
 76
     1
 77
     6
 78
     2
 67
     7
 79
     5
170
     0
171
     0
290
     0
174
     0
 93
        1
 44
0.0
173
     0
291
     1
 45
0.0
1001
ACAD
1000
AcDbSavedByObjectVersion
1070
     0
  0
VISUALSTYLE
  5
83D0
102
{ACAD_XDICTIONARY
360
874E
102
}
102
{ACAD_REACTORS
330
83C6
102
}
330
83C6
100
AcDbVisualStyle
  2
Realistic
 70
     8
 71
     2
 72
     3
 73
     0
 90
        2
 40
-0.6
 41
30.0
 62
     5
 63
     7
 74
     0
 91
        0
 64
     7
 65
   257
 75
     1
175
     1
 42
1.0
 92
        8
 66
   257
 43
1.0
 76
     1
 77
     6
 78
     2
 67
     7
 79
     3
170
     0
171
     0
290
     0
174
     0
 93
       13
 44
0.0
173
     0
291
     0
 45
0.0
1001
ACAD
1000
AcDbSavedByObjectVersion
1070
     0
  0
VISUALSTYLE
  5
83DB
102
{ACAD_XDICTIONARY
360
8764
102
}
102
{ACAD_REACTORS
330
83C6
102
}
330
83C6
100
AcDbVisualStyle
  2
Shaded
 70
    27
 71
     2
 72
     2
 73
     1
 90
        2
 40
-0.6
 41
30.0
 62
     5
 63
     7
 74
     0
 91
        4
 64
     7
 65
   257
 75
     1
175
     1
 42
1.0
 92
        8
 66
   257
 43
1.0
 76
     1
 77
     6
 78
     2
 67
     8
 79
     3
170
     0
171
     0
290
     0
174
     0
 93
        5
 44
0.0
173
     0
291
     0
 45
0.0
1001
ACAD
1000
AcDbSavedByObjectVersion
1070
     0
  0
VISUALSTYLE
  5
83DA
102
{ACAD_XDICTIONARY
360
8762
102
}
102
{ACAD_REACTORS
330
83C6
102
}
330
83C6
100
AcDbVisualStyle
  2
Shaded with edges
 70
    26
 71
     2
 72
     2
 73
     1
 90
        2
 40
-0.6
 41
30.0
 62
     5
 63
     7
 74
     1
 91
       10
 64
     7
 65
   257
 75
     2
175
     1
 42
1.0
 92
        8
 66
   257
 43
1.0
 76
     1
 77
     6
 78
     2
 67
     7
 79
     3
170
     0
171
     0
290
     0
174
     0
 93
        5
 44
0.0
173
     0
291
     0
 45
0.0
1001
ACAD
1000
AcDbSavedByObjectVersion
1070
     0
  0
VISUALSTYLE
  5
83D7
102
{ACAD_XDICTIONARY
360
875C
102
}
102
{ACAD_REACTORS
330
83C6
102
}
330
83C6
100
AcDbVisualStyle
  2
Shades of Gray
 70
    23
 71
     2
 72
     2
 73
     3
 90
        0
 40
-0.6
 41
-30.0
 62
     5
 63
     7
 74
     2
 91
        2
 64
     7
 65
     7
 75
     1
175
     1
 42
40.0
 92
        8
 66
     7
 43
1.0
 76
     1
 77
     6
 78
     2
 67
     7
 79
     3
170
     0
171
     0
290
     0
174
     0
 93
        1
 44
0.0
173
     0
291
     0
 45
0.0
1001
ACAD
1000
AcDbSavedByObjectVersion
1070
     0
  0
VISUALSTYLE
  5
83D8
102
{ACAD_XDICTIONARY
360
875E
102
}
102
{ACAD_REACTORS
330
83C6
102
}
330
83C6
100
AcDbVisualStyle
  2
Sketchy
 70
    24
 71
     1
 72
     2
 73
     2
 90
        0
 40
-0.6
 41
-30.0
 62
     5
 63
     7
 74
     2
 91
        2
 64
     7
 65
     7
 75
     1
175
     1
 42
40.0
 92
       11
 66
     7
 43
1.0
 76
     1
 77
     6
 78
     2
 67
     7
 79
     6
170
     0
171
     0
290
     0
174
     0
 93
        1
 44
0.0
173
     0
291
     0
 45
0.0
1001
ACAD
1000
AcDbSavedByObjectVersion
1070
     0
  0
VISUALSTYLE
  5
83D3
102
{ACAD_XDICTIONARY
360
8754
102
}
102
{ACAD_REACTORS
330
83C6
102
}
330
83C6
100
AcDbVisualStyle
  2
Thicken
 70
    13
 71
     2
 72
     2
 73
     0
 90
        0
 40
-0.6
 41
-30.0
 62
     5
 63
     7
 74
     1
 91
        4
 64
     7
 65
   257
 75
     1
175
     1
 42
1.0
 92
       12
 66
     7
 43
1.0
 76
     1
 77
     6
 78
     2
 67
     7
 79
     5
170
     0
171
     0
290
     0
174
     0
 93
        1
 44
0.0
173
     0
291
     1
 45
0.0
1001
ACAD
1000
AcDbSavedByObjectVersion
1070
     0
  0
VISUALSTYLE
  5
83CD
102
{ACAD_XDICTIONARY
360
8748
102
}
102
{ACAD_REACTORS
330
83C6
102
}
330
83C6
100
AcDbVisualStyle
  2
Wireframe
 70
     5
 71
     0
 72
     2
 73
     0
 90
        0
 40
-0.6
 41
-30.0
 62
     5
 63
     7
 74
     1
 91
        4
 64
     7
 65
   257
 75
     1
175
     1
 42
1.0
 92
        0
 66
   257
 43
1.0
 76
     1
 77
     6
 78
     2
 67
     7
 79
     3
170
     0
171
     0
290
     0
174
     0
 93
        1
 44
0.0
173
     0
291
     0
 45
0.0
1001
ACAD
1000
AcDbSavedByObjectVersion
1070
     0
  0
VISUALSTYLE
  5
83D9
102
{ACAD_XDICTIONARY
360
8760
102
}
102
{ACAD_REACTORS
330
83C6
102
}
330
83C6
100
AcDbVisualStyle
  2
X-Ray
 70
    25
 71
     2
 72
     2
 73
     1
 90
        1
 40
0.5
 41
-30.0
 62
     5
 63
     7
 74
     1
 91
        0
 64
     7
 65
   257
 75
     1
175
     1
 42
1.0
 92
        8
 66
     7
 43
1.0
 76
     1
 77
     6
 78
     2
 67
     7
 79
     3
170
     0
171
     0
290
     0
174
     0
 93
       13
 44
0.0
173
     0
291
     0
 45
0.0
1001
ACAD
1000
AcDbSavedByObjectVersion
1070
     0
  0
DICTIONARYVAR
  5
8465
102
{ACAD_REACTORS
330
8460
102
}
330
8460
100
DictionaryVariables
280
     0
  1
1:1
  0
DICTIONARYVAR
  5
8462
102
{ACAD_REACTORS
330
8460
102
}
330
8460
100
DictionaryVariables
280
     0
  1
STANDARD
  0
DICTIONARYVAR
  5
8461
102
{ACAD_REACTORS
330
8460
102
}
330
8460
100
DictionaryVariables
280
     0
  1
STANDARD
  0
DICTIONARYVAR
  5
8463
102
{ACAD_REACTORS
330
8460
102
}
330
8460
100
DictionaryVariables
280
     0
  1
Imperial24
  0
DICTIONARYVAR
  5
8464
102
{ACAD_REACTORS
330
8460
102
}
330
8460
100
DictionaryVariables
280
     0
  1
Imperial24
  0
DICTIONARYVAR
  5
8468
102
{ACAD_REACTORS
330
8460
102
}
330
8460
100
DictionaryVariables
280
     0
  1
1
  0
DICTIONARYVAR
  5
8467
102
{ACAD_REACTORS
330
8460
102
}
330
8460
100
DictionaryVariables
280
     0
  1
0
  0
DICTIONARYVAR
  5
8466
102
{ACAD_REACTORS
330
8460
102
}
330
8460
100
DictionaryVariables
280
     0
  1
127
  0
DICTIONARYVAR
  5
8469
102
{ACAD_REACTORS
330
8460
102
}
330
8460
100
DictionaryVariables
280
     0
  1
2
  0
DICTIONARY
  5
8770
330
8407
100
AcDbDictionary
280
     1
281
     1
  3
ACAD_XREC_ROUNDTRIP
360
8771
  0
DICTIONARY
  5
8774
330
840F
100
AcDbDictionary
280
     1
281
     1
  3
ACAD_XREC_ROUNDTRIP
360
8775
  0
DICTIONARY
  5
8772
330
840B
100
AcDbDictionary
280
     1
281
     1
  3
ACAD_XREC_ROUNDTRIP
360
8773
  0
DICTIONARY
  5
83B7
330
83B6
100
AcDbDictionary
280
     1
281
     1
  3
ACAD_XREC_ROUNDTRIP
360
873A
  3
BUMPTILE
360
83B9
  3
DIFFUSETILE
360
83B8
  3
OPACITYTILE
360
83BC
  3
REFLECTIONTILE
360
83BB
  3
REFRACTIONTILE
360
83BD
  3
SPECULARTILE
360
83BA
  0
DICTIONARY
  5
83AF
330
83AE
100
AcDbDictionary
280
     1
281
     1
  3
ACAD_XREC_ROUNDTRIP
360
8739
  3
BUMPTILE
360
83B1
  3
DIFFUSETILE
360
83B0
  3
OPACITYTILE
360
83B4
  3
REFLECTIONTILE
360
83B3
  3
REFRACTIONTILE
360
83B5
  3
SPECULARTILE
360
83B2
  0
DICTIONARY
  5
83BF
330
83BE
100
AcDbDictionary
280
     1
281
     1
  3
ACAD_XREC_ROUNDTRIP
360
873B
  3
BUMPTILE
360
83C1
  3
DIFFUSETILE
360
83C0
  3
FBXASSET
360
84AC
  3
OPACITYTILE
360
83C4
  3
REFLECTIONTILE
360
83C3
  3
REFRACTIONTILE
360
83C5
  3
SPECULARTILE
360
83C2
  0
DICTIONARY
  5
876E
330
8405
100
AcDbDictionary
280
     1
281
     1
  3
ACAD_XREC_ROUNDTRIP
360
876F
  0
DICTIONARY
  5
8735
330
8401
100
AcDbDictionary
280
     1
281
     1
  3
ACAD_ROUNDTRIP_2008_TABLESTYLE_CELLSTYLEMAP
360
8736
  3
ACAD_XREC_ROUNDTRIP
360
876C
  0
DICTIONARY
  5
8746
330
83CC
100
AcDbDictionary
280
     1
281
     1
  3
ACAD_XREC_ROUNDTRIP
360
8747
  0
DICTIONARY
  5
8744
330
83CB
100
AcDbDictionary
280
     1
281
     1
  3
ACAD_XREC_ROUNDTRIP
360
8745
  0
DICTIONARY
  5
8752
330
83D2
100
AcDbDictionary
280
     1
281
     1
  3
ACAD_XREC_ROUNDTRIP
360
8753
  0
DICTIONARY
  5
875A
330
83D6
100
AcDbDictionary
280
     1
281
     1
  3
ACAD_XREC_ROUNDTRIP
360
875B
  0
DICTIONARY
  5
874C
330
83CF
100
AcDbDictionary
280
     1
281
     1
  3
ACAD_XREC_ROUNDTRIP
360
874D
  0
DICTIONARY
  5
8750
330
83D1
100
AcDbDictionary
280
     1
281
     1
  3
ACAD_XREC_ROUNDTRIP
360
8751
  0
DICTIONARY
  5
876A
330
83DE
100
AcDbDictionary
280
     1
281
     1
  3
ACAD_XREC_ROUNDTRIP
360
876B
  0
DICTIONARY
  5
8758
330
83D5
100
AcDbDictionary
280
     1
281
     1
  3
ACAD_XREC_ROUNDTRIP
360
8759
  0
DICTIONARY
  5
873C
330
83C7
100
AcDbDictionary
280
     1
281
     1
  3
ACAD_XREC_ROUNDTRIP
360
873D
  0
DICTIONARY
  5
873E
330
83C8
100
AcDbDictionary
280
     1
281
     1
  3
ACAD_XREC_ROUNDTRIP
360
873F
  0
DICTIONARY
  5
8740
330
83C9
100
AcDbDictionary
280
     1
281
     1
  3
ACAD_XREC_ROUNDTRIP
360
8741
  0
DICTIONARY
  5
8742
330
83CA
100
AcDbDictionary
280
     1
281
     1
  3
ACAD_XREC_ROUNDTRIP
360
8743
  0
DICTIONARY
  5
874A
330
83CE
100
AcDbDictionary
280
     1
281
     1
  3
ACAD_XREC_ROUNDTRIP
360
874B
  0
DICTIONARY
  5
8766
330
83DC
100
AcDbDictionary
280
     1
281
     1
  3
ACAD_XREC_ROUNDTRIP
360
8767
  0
DICTIONARY
  5
8756
330
83D4
100
AcDbDictionary
280
     1
281
     1
  3
ACAD_XREC_ROUNDTRIP
360
8757
  0
DICTIONARY
  5
8768
330
83DD
100
AcDbDictionary
280
     1
281
     1
  3
ACAD_XREC_ROUNDTRIP
360
8769
  0
DICTIONARY
  5
874E
330
83D0
100
AcDbDictionary
280
     1
281
     1
  3
ACAD_XREC_ROUNDTRIP
360
874F
  0
DICTIONARY
  5
8764
330
83DB
100
AcDbDictionary
280
     1
281
     1
  3
ACAD_XREC_ROUNDTRIP
360
8765
  0
DICTIONARY
  5
8762
330
83DA
100
AcDbDictionary
280
     1
281
     1
  3
ACAD_XREC_ROUNDTRIP
360
8763
  0
DICTIONARY
  5
875C
330
83D7
100
AcDbDictionary
280
     1
281
     1
  3
ACAD_XREC_ROUNDTRIP
360
875D
  0
DICTIONARY
  5
875E
330
83D8
100
AcDbDictionary
280
     1
281
     1
  3
ACAD_XREC_ROUNDTRIP
360
875F
  0
DICTIONARY
  5
8754
330
83D3
100
AcDbDictionary
280
     1
281
     1
  3
ACAD_XREC_ROUNDTRIP
360
8755
  0
DICTIONARY
  5
8748
330
83CD
100
AcDbDictionary
280
     1
281
     1
  3
ACAD_XREC_ROUNDTRIP
360
8749
  0
DICTIONARY
  5
8760
330
83D9
100
AcDbDictionary
280
     1
281
     1
  3
ACAD_XREC_ROUNDTRIP
360
8761
  0
XRECORD
  5
8771
102
{ACAD_REACTORS
330
8770
102
}
330
8770
100
AcDbXrecord
280
     1
102
DISPLAYNAME
  1
Imperial24
102
FLAGS
 90
        0
  0
XRECORD
  5
8775
102
{ACAD_REACTORS
330
8774
102
}
330
8774
100
AcDbXrecord
280
     1
102
SHADEPLOT
 70
     0
102
SHADEPLOTRESLEVEL
 70
     2
102
SHADEPLOTCUSTOMDPI
 70
   300
  0
XRECORD
  5
8773
102
{ACAD_REACTORS
330
8772
102
}
330
8772
100
AcDbXrecord
280
     1
102
SHADEPLOT
 70
     0
102
SHADEPLOTRESLEVEL
 70
     2
102
SHADEPLOTCUSTOMDPI
 70
   300
  0
XRECORD
  5
873A
102
{ACAD_REACTORS
330
83B7
102
}
330
83B7
100
AcDbXrecord
280
     1
102
MATERIAL
148
0.0
149
0.0
149
0.0
 93
        0
 94
      127
282
     0
 72
     0
 77
     0
171
     0
175
     0
179
     0
273
     0
  0
XRECORD
  5
83B9
102
{ACAD_REACTORS
330
83B7
102
}
330
83B7
100
AcDbXrecord
280
     1
270
     1
271
     1
  0
XRECORD
  5
83B8
102
{ACAD_REACTORS
330
83B7
102
}
330
83B7
100
AcDbXrecord
280
     1
270
     1
271
     1
  0
XRECORD
  5
83BC
102
{ACAD_REACTORS
330
83B7
102
}
330
83B7
100
AcDbXrecord
280
     1
270
     1
271
     1
  0
XRECORD
  5
83BB
102
{ACAD_REACTORS
330
83B7
102
}
330
83B7
100
AcDbXrecord
280
     1
270
     1
271
     1
  0
XRECORD
  5
83BD
102
{ACAD_REACTORS
330
83B7
102
}
330
83B7
100
AcDbXrecord
280
     1
270
     1
271
     1
  0
XRECORD
  5
83BA
102
{ACAD_REACTORS
330
83B7
102
}
330
83B7
100
AcDbXrecord
280
     1
270
     1
271
     1
  0
XRECORD
  5
8739
102
{ACAD_REACTORS
330
83AF
102
}
330
83AF
100
AcDbXrecord
280
     1
102
MATERIAL
148
0.0
149
0.0
149
0.0
 93
        0
 94
      127
282
     0
 72
     0
 77
     0
171
     0
175
     0
179
     0
273
     0
  0
XRECORD
  5
83B1
102
{ACAD_REACTORS
330
83AF
102
}
330
83AF
100
AcDbXrecord
280
     1
270
     1
271
     1
  0
XRECORD
  5
83B0
102
{ACAD_REACTORS
330
83AF
102
}
330
83AF
100
AcDbXrecord
280
     1
270
     1
271
     1
  0
XRECORD
  5
83B4
102
{ACAD_REACTORS
330
83AF
102
}
330
83AF
100
AcDbXrecord
280
     1
270
     1
271
     1
  0
XRECORD
  5
83B3
102
{ACAD_REACTORS
330
83AF
102
}
330
83AF
100
AcDbXrecord
280
     1
270
     1
271
     1
  0
XRECORD
  5
83B5
102
{ACAD_REACTORS
330
83AF
102
}
330
83AF
100
AcDbXrecord
280
     1
270
     1
271
     1
  0
XRECORD
  5
83B2
102
{ACAD_REACTORS
330
83AF
102
}
330
83AF
100
AcDbXrecord
280
     1
270
     1
271
     1
  0
XRECORD
  5
873B
102
{ACAD_REACTORS
330
83BF
102
}
330
83BF
100
AcDbXrecord
280
     1
102
MATERIAL
148
0.0
149
0.0
149
0.0
 93
        0
 94
      127
282
     0
 72
     0
 77
     0
171
     0
175
     0
179
     0
273
     0
  0
XRECORD
  5
83C1
102
{ACAD_REACTORS
330
83BF
102
}
330
83BF
100
AcDbXrecord
280
     1
270
     1
271
     1
  0
XRECORD
  5
83C0
102
{ACAD_REACTORS
330
83BF
102
}
330
83BF
100
AcDbXrecord
280
     1
270
     1
271
     1
  0
XRECORD
  5
84AC
102
{ACAD_REACTORS
330
83BF
102
}
330
83BF
100
AcDbXrecord
280
     1
 70
     1
 90
1959938040
 71
     1
  1
E918B5C5-D69C-480A-8B70-632561586BC2
311
504B0304140006080800348C8157E04875F4BF000000200100004F00000037394244444330432D353746372D343541382D393838322D3039363934384139354138372F4173736574446174612F446566696E6974696F6E4974657261746F7250726F706572746965732E62696EEB606060F80F0540260323103700495E20ED
311
9E9A975A94991C9C9C919A9BC8C00612C9C94F4ACC6147C831019920AE4B6A5A62694E0948976F6671726A4E4E625E6A7E69B12042A9426E6209D0B8C41C3D90264E20860914834C48875806B2DF0F88414E02D189290556F689C5C5A925B6FA694915FA064E868E2ECEAE8EBA46A66616BA26CEE696BA8E66CECEBA96A6E6
311
46AE962E962606CE8EFA45A9C5F9A545C9A9C5FA46FA06F15093E30BF2D219183244CDCAE7012D01B90184090100504B0304140006080800348C815781322DA5F0000000300200004500000037394244444330432D353746372D343541382D393838322D3039363934384139354138372F4173736574446174612F496E7374
311
616E636550726F706572746965732E62696EEB606060F80F0540260323103700495E20ED9E9A975A94991C9C9C919A9BA8021470B534B470327536D57531B374D635B13070D4B5703237D035333632353334B530737236624768046931363471713532B5D435353131D635313332D475727372D13534373670367376B67474
311
B5042A03DBCBA019D37FE8ABC6157B20CD04146B0062181F4C03F940F0C11EA29A8141C08141002C0426541C106CAC2CA046088033B02A030AC2157C6006F21A8018AAF50194E6010A610250382264E08660284CD9E98021862280A91564B406929A0FF62C401E28B6F88038B83CB1243943D7A928312F25350524131B1BFB
311
9F161800504B0304140006080800348C815728BB58AF800100009E0500003D00000037394244444330432D353746372D343541382D393838322D3039363934384139354138372F536368656D61732F436F6D6D6F6E536368656D612E786D6CBD544D4FC23018BEFB2B96DE15493C78601010A34B880709DEDFB52FD0D8B54B
311
D70DF6EFED3AC0B12E6442E2716BFB3CEFF3D18E26FB440405EA8C2B1992E1C323095052C5B8DC842437EBFB673219DF8DA659866649B798C078B48AE6410122242F2A4994AC7F93815DF85C049C8564CA0A901499DD886B2EB9B1E02448F358701A9235880C49A0119892A20C89D1B9FD768815CAD268CB5E0355B40B1E47
311
F3E37A2020464BED06AA57CE8FCC20C3C3446D46761A2632A8C1283D07031EFF2AE7CCB1BFEEE916E406DFAC8E36FFD99A9D60A6944090EEDC3B670C7DC13DE86B6B2C5C240D6E503BB85ACD579D513F1B9F9A69DC9CC22AFA80C426D40AF0B21EA168559156B6276F0F726A6BFF04DCD513A87A62CAD41FB24FCB2858B395
311
2E3D852084DA25B9303C15687973CC8E8AAE11DF2836C38C6A9E765E8C1BA1BFB1DC29CDFE518C8B5A7655A4ED7E77291ABEB80DBD82EC866ADE1B8D05AF9E35CF09D7A061F38A986D9EC412B8F0F65E5D81534D9B231D1E5A8FE577A241F3A5FD01504B0304140006080800348C81572CCEBD668A040000E01200003E0000
311
0037394244444330432D353746372D343541382D393838322D3039363934384139354138372F536368656D61732F47656E65726963536368656D612E786D6CD5586D6FDB380CFE7EBF42F0F7A649B70E1B90744856B4970F450FCD7A5F05459613EDE4174872DADCAF3F522F8ED3B88D2F1D06AC4050DBA2493EE4438AF2F8
311
EB73AEC8466823CB62928C06C384888297A92C5693A4B6D9D9E7E4EBD51FE3A931C22EF85AE4EC6AFC38BF261BA626C9AD288496DC3F4FCEAFC63366845F7A10452AF41DB320C0D44EC26EAB20918735565582695670811A6A49643A49A6E9069FA4604A64B29016DC4B48552F95E4932463CA888468C1D2B250DB4962750D
311
F7CE273069CE8363F1FF4EDB00E0A21999574AE4A2B00C353B93F3BD4777B8A61ED8F604ABFEDD79CE56A2B7BDFBDBC50996E0ADDE16FED26223C5D30956C29BDF4A55EA686E5E58B112DA45CE67F76F4FA27EFA3FB672FD7372FC388FAECDCA5209E693CAD167BADCD272F943701B3812F8A3D852008B1D2E32DB927B2F83
311
3C6EA95879925356D254582695095A3CE982924720BE5774A3CB9CDCDB350427D2DF20DA1B5532EBE2D5D6288D75D4F7E4FD9890A0EF8E3D93EBB8F8BA4758158EF6FB90A6F9520281C93DE7AAC6D24607DA296BB96018123F821A7D6A5C5884050C475DA4865442732C8B95684A50165CBB3A32F25F783A4A480ED59AD7F9
311
24B968AEA50131F46303223E6A397B0E52976030DC1DCA81D7E7C1EDEEA42C19FF27635C505E2BD5198A599020DF50A2330FCB3AAF28CB0124108429553EF1B228802E2265D8F7CC2401042B155BCC7070F1E5C55F13B4A9577362CCCE46C32174E010C3C378C44841A4BDA00FE3A12006CE11EE6AEC59894D3526DDE1CD59
311
D503ECC324017F8061B7F162162FA62EDD81AE3308617770796DCBDAD2B2625C5AE8A63DE20B2C8AA5E95E76E5730823955956E33E705425A2187C185D36489A1B44D3DCEC2172F6BA2105C3546287A7194B2331768EBBE64F6E70A9930ABE0ADEA89E9E2C38523B810287AD67A54A039C1606EAFE68F8304610BB9093DBDD
311
ABC0B2AE4E290DCDA15376D7E39F72B556F0B32EAB5D3D498B4C41ABADEC3A1434C422D87E8025A84BDCB2B1417ED750FAE4DA8976863974C577C7F902D3F156AD354DEA3540DE6BEAE2BEA52F7A2EB4CA43802ECE5BF2CE2EDC9347179FFB023CE412E60BE16DA0BE29B374988A553F561DC04615DD35F7D2C8979F60E595
311
5CE93DF29DED8AFA1EE6642D53418086C03C47C377910F75F7E8F5EF665F70B60FFB22AEDF897D119E8423C773E819A3C1E55E550599EE6EDCA34D0C86FD72057DF2CD46F16A470682471C164E4346D5306BF12D7D12D82CFF673D41636C347443FEB51B50D72EA171A8E4A58623A4A16E0FA2B8B10A0D23268D87C33896EE
311
8FB73305A74BF224EDBADFA0BD674AB354D63DB7BD5D83426761C077DE767728235446A552754EB93B755891C3C4CC6CADE37CF0E912A7BB38DBA010F9DE1282EDF470CA69A9CDA482E334C4A6EA4107987980B17E72F31730EBF88BBD39E7C629F56797A3C0009C2C5AE7951D9A05A02773440F02EEB4DE396A3B6A570C72
311
CCFBCD823B0B8ED3F1D5CEDDFED772FA70236C83FB7D86C385D570B87107535572A60A96035F8F7C6A7192F13007246BBE0521855E6AC46F3E27689CEE7D186A6FD679D98CDCAD13333E04EBE7ED6F55FF01504B0304140006080800348C81576180134D5F0100006B0300004500000037394244444330432D353746372D34
311
3541382D393838322D3039363934384139354138372F536368656D61732F52656E6465724D6174657269616C536368656D612E786D6CA5934D6FC2300C86EFFB1551EEE343DBA41D1A103009551ADAD40EAE28A4A68D9426284961FCFBE5A340113B2071746D3F765EBF4DC6BFB5407BD0862B49F0B037C0082453059725C1
311
8DDD3EBFE3F1E829991803366715D474942CD30FB4A782E00C64017A412D684E454CE3FE28995203B162A6EA5AC94B66997D225E109CD63B0135484BAD1B3C07E9080CA35DB3119C11BCA5C200461A68A1A438126C75E3E230D40FF81FB3F03C91D1E3A3A0AF79FE28E25BC39EC3E17E4C2A2D94A0833A51AF55BCCA7D8857
311
2FCBAC529C4140B020FC3AAFA886621DCED7EAD7664CC86024E806DC297DA1BB393E4156543457A4537DB8817349A70F8ACBF09B3EEE2CB2F33E91B65D60786E4E3B39B77E3FEEEF5650424525DA657FB8B46BE6BF064646F0A0F7327C0BC1BC1B4CBBC1C419FA3CCB23500007872A2580CAAE5461865565294E4EDB4617B6
311
2FF579DF9A5B2F54E834076A597573A020912FED777F9B3F504B0304140006080800348C8157E4BDA75751000000570000004700000037394244444330432D353746372D343541382D393838322D3039363934384139354138372F4173736574446174612F41737365745461626C654F66436F6E74656E74732E62696E5361
311
606070B534B470327536D57531B374D635B13070D4B5703237D035333632353334B5307372361202AACB4D2C492DCA4CCC492C28484D2C4ACC4B4E050A82012F90744FCD03CA26072767A4E6260200504B0304140006080800348C8157F865834058000000680000004500000037394244444330432D353746372D34354138
311
2D393838322D3039363934384139354138372F4173736574446174612F53747265616D56657273696F6E5461626C652E696E66558CBD0A80300C06F73E4B117FB66E451741D041DC5BF98480A492E4FDD18EAEC7DD4555D89EF28DF51A0B1BD8340C4DE7DD848B988C0ACF0649566493F2408C508DDEBB99D5129FF8F1AF8C
311
F5B9503E20FAE5A16B5AF702504B0304140006080800348C8157DFC67CC6340100009A0400003600000037394244444330432D353746372D343541382D393838322D3039363934384139354138372F4173736574446174612F636E782E786D6CCD94314FC3301085FF4AE43D76D222812AC71582A51348540C6C57E752AC3A
311
76645F10FC7BEC2403A888A943D7F3BBF3F327BF93DBCFDE161F18A2F1AE6135AF58814EFBD6B863C346EACA3B566C950CDED30F192B1CF4D8B05C664A1E831F87A5D46207A3CD556BDC6929DEC788B48783C5A7EEC13B42479115DA428C0D8BFA1D7BE030926F319E780B04BCE601A31F83C634894C8FCB241D10085BA656
311
D56A5DD6ABB2AAF7F5ED66BDDEDCD46F5264A59207EFEDA237E9B2E08742CFB7325549918F951C835934F92D4CFDE5911F8C932229958C141293A583BE86D401C3608D064AE884D784542611422FC52C56526406BF483C62679CC92DBB640CC887E7640F0319BC3A22FF79BD3C999D8B044EE3F5F2387778790A2FD30F7A9D
311
033925E6DA7272EE901BD75D2025625A23293479ABA86F504B0304140006080800348C815705AA051B080100004F0300003400000037394244444330432D353746372D343541382D393838322D3039363934384139354138372F536368656D61732F636E782E786D6CCD93BD4E042114855F85D0CF30CC9868360C5B5858D9
311
A8951DC2DD952CC39DF063F4ED85916237B1D3623B387C21E71C2E62FFB938F201215AF433E5FD4009788DC6FAE34C733A747794ECA50888E90CA3C4AB05665A652AC531605E9B64E0A0B2ABAAB3FED4C47B5C16F4CFFA1D164589762AC699C66DDBAB9CD0403CF54625D5F33E40C41C34941B925DA0DDA003A80486CA7118
311
A78E8FDDC05FF8ED6E9A7637FC55B04A4AF186E81A6F7D82802BD15816BED81904ABC752E4601B53335079EEAD2F6D08560829620AA58346A6AFB5906A5D9DD52A95AAD806FE3052B01AF522F0037808565F67E20B73FF16F909BC81F0585E2958E5AE33F96F1EFF5600DB66BF8C40FD0AF21B504B0304140006080800348C
311
8157410A3D5871000000A40000002C00000037394244444330432D353746372D343541382D393838322D3039363934384139354138372F636E782E786D6C55CC4D0E82301086E1AB34B31774E7A22D31F1069E60020334B633A63FC6E34B0909B07DDE2F9FEE7EC1AB2FC5E4840DDC9A2B28E25E06C7938192C7CB1D546775
311
14C9871928C640062A83D55394F2D968A0118BAFEA1DBF377CA444F98919176EAB9FEAAB9F2960DA5BBB1E2ED3FA6FFF504B0304140006080800348C81578C6EAB7C7E000000A300000007000000636E782E786D6C4DCCD10A83201805E05791FFFE5F6E542AA8D18ABD472C0B99E97039F6F8D3D1C5AE0E7C9C7364F7D91C
311
799BF8B2C12B389F2810E3EF61B67E5590F60539904ECB18C2FE5703E2A7CD28280C5AAE31A4E741B359A6E48A3AEB1F0732711DC7810ED8B01BC3BAE9390ACE2F48452B6ADE8B0C2C2FAA32C9F1FBCB59EEF517504B0304140006080800348C815716E99B5DA600000035010000130000005B436F6E74656E745F54797065
311
735D2E786D6C9590410E82301045AFD2740F4517C6180A0BF5065E60AC53688469D30E066F6F91AD9AB89CF9FFFD3F99BA9DC7413C3026E749CB4D59498164FCCD51A7E5C4B6D84BD136F5E5193089ECA5A465CF1C0E4A25D3E308A9F401292BD6C711388FB15301CC1D3A54DBAADA29E38991B8E0254336F5092D4C038BF3
311
9CD76B6FC6A538AEBEA54A4B08617006389FA516557DE4AE8E7E70DE30729138228C5F021CD93F02D4FB0DCD0B504B0304140006080800348C81573DEE336E64000000790000001B0000006175746F6465736B2D64657369676E2D7061636B6167652E786D6C35CBC10E83200C00D05F21DCA56CA76D41FC96062B120735B6
311
9A7DBE268BB7777961F8D5AF396893C2ADB70FE7ADA196782C2DF776D7A97B5933C430F15651E5469C55D70F80A4992A3ADC954792C525AE70A1E4D6AD9816CC044FEFDF01FE3FDE907802504B0304140006080800348C8157C7930115F9000000960100003700000037394244444330432D353746372D343541382D393838
311
322D3039363934384139354138372F4173736574446174612F636F72652E786D6C8550CB6E833010FC15B477830D1121917104A47C414FBD59C62156828DFCA8FAF9B50395DA534FBB9A9D99DD1D7AF95A9ED9A7B44E19DD02C93164520B33293DB710FC0D35905D18B5C6F85F34C8345F640B090646676BC2BA43C2682F75
311
42B599E40E72E7A4874C3C63D3821377B9F09C071F19EE91AF5C3CF82C73926F3C464350D32E5553745337252DB0BA1EDE06DCD7E83A8C181D9ABA437D7DEAD0786C7A42C8589D1A4C8B2466D4ABE567BBB0927B39012B71592152224CDEC9F15C55E703F9A0456232EABC8D3FEF4BD377C0BA74F5957B4E8B6DFAC735ACD3
311
FFAE41695F95BBEBA670C0483CF23560B44829C5F28A30D69428FB06504B0304140006080800348C81574396A760F8000000940100003500000037394244444330432D353746372D343541382D393838322D3039363934384139354138372F536368656D61732F636F72652E786D6C8550CB6E833010FC15B477830D112191
311
711468F981F6D49B651C6225D8C88FAA9F5F1BA8D49E7ADAD5ECCCECEED0CBD7FCCC3EA575CAE816488E21935A9851E9A985E06FA881ECC2A835C6FFA241A6F92C5B4830303A5913961D12467BA913AACD2877903B273D64E2199B169CB8CB99E73CF8C8708F7CE1E2C12799937CE3311A821A77A91AA39BBA296981D575FF
311
DAE3AE462FFD80D1A1A9AFA8AB4F57341C9B8E103254A706D3228919F56AFED92EACE45E8EC04A5C568894089377723C57D5F9403E6891988C3A6FE3CFFBD2F41DB0B7F54E478B6DF6C7332CE3FF9E41695F95BBE7A670C0483C711D305AA48C6259038C35E5C9BE01504B0304140006080800348C8157BF308F7701010000
311
D70100002D00000037394244444330432D353746372D343541382D393838322D3039363934384139354138372F636F72652E786D6C9591C172832010865F85D93B2A6AAA66904C9A4C9FA0A7DE286C0C93088E40A78F5FAC76DADEDA13CCCFF7EFF2EFF2C3FB78276F387BE36C0F2C2B80A0554E1B3BF410C385B6400E82CF
311
CE851F18102B47EC619141F0617671DA24E56C40BBA8D669DC44E93D0620EA9E2E3D7875C55166328644F85B3649759303662C5B39C18319BFAC6A46195083288BB2A2ACA4057B66CDBEAAF6357BE1F9420A1E8D0D55B935C3F115357153489140EC78BEBE262A1ABD3146A73F9A8BC11944D33D9ECFA7E24477CD5343EBDD
311
B1A55DDBA646DD4357B7C72E094D2A92CC82FB30A7C96C459619FCD5BE1A7F258B93FE67B2D5E141B0EF50F93266C1F3CF1DA4735989F800504B0304140006080800348C81570C88846306010000B201000008000000636F72652E786D6C8D504B6E833010BD8A357B03868890C8380AB49CA0ABEE5CEC102B60237FA2F6F6
311
B5132AB5BBAEC67AF37E1E7AFA5C667497D629A35B20590148EAD108A5A71682BFE006D089516B8CFF4503A4F9225B4830303A5913D60D1A8DF65227541B2137903B273DA0718E8F16DC78950BCF78F091E16ED9CAC71B9F6446B2278F51AF961FE96825F752002B8BB2C2A4C4057923FB63551D77E49DE689C968084A6C51
311
4AC4747551D202ABEBFEB52FBA1ABFF44381774D7DC65D7D38E361DF748490A13A3405CD939851E76DFCF366127B7AE4F83DE5D2FCB962F4C3987923C45202193D7F018B0E69F1A77458C53F4A2BEDAB72337C2A1C30120B3D1631385D308EC779E34CD766DF504B01021400140006080800348C8157E04875F4BF00000020
311
0100004F000000000000000000000000000000000037394244444330432D353746372D343541382D393838322D3039363934384139354138372F4173736574446174612F446566696E6974696F6E4974657261746F7250726F706572746965732E62696E504B01021400140006080800348C815781322DA5F0000000300200
311
0045000000000000000000000000002C01000037394244444330432D353746372D343541382D393838322D3039363934384139354138372F4173736574446174612F496E7374616E636550726F706572746965732E62696E504B01021400140006080800348C815728BB58AF800100009E0500003D00000000000000000000
311
0000007F02000037394244444330432D353746372D343541382D393838322D3039363934384139354138372F536368656D61732F436F6D6D6F6E536368656D612E786D6C504B01021400140006080800348C81572CCEBD668A040000E01200003E000000000000000000000000005A04000037394244444330432D35374637
311
2D343541382D393838322D3039363934384139354138372F536368656D61732F47656E65726963536368656D612E786D6C504B01021400140006080800348C81576180134D5F0100006B03000045000000000000000000000000004009000037394244444330432D353746372D343541382D393838322D3039363934384139
311
354138372F536368656D61732F52656E6465724D6174657269616C536368656D612E786D6C504B01021400140006080800348C8157E4BDA75751000000570000004700000000000000000000000000020B000037394244444330432D353746372D343541382D393838322D3039363934384139354138372F41737365744461
311
74612F41737365745461626C654F66436F6E74656E74732E62696E504B01021400140006080800348C8157F865834058000000680000004500000000000000000000000000B80B000037394244444330432D353746372D343541382D393838322D3039363934384139354138372F4173736574446174612F53747265616D56
311
657273696F6E5461626C652E696E66504B01021400140006080800348C8157DFC67CC6340100009A0400003600000000000000000000000000730C000037394244444330432D353746372D343541382D393838322D3039363934384139354138372F4173736574446174612F636E782E786D6C504B01021400140006080800
311
348C815705AA051B080100004F0300003400000000000000000000000000FB0D000037394244444330432D353746372D343541382D393838322D3039363934384139354138372F536368656D61732F636E782E786D6C504B01021400140006080800348C8157410A3D5871000000A40000002C000000000000000000000000
311
00550F000037394244444330432D353746372D343541382D393838322D3039363934384139354138372F636E782E786D6C504B01021400140006080800348C81578C6EAB7C7E000000A3000000070000000000000000000000000010100000636E782E786D6C504B01021400140006080800348C815716E99B5DA600000035
311
0100001300000000000000000000000000B31000005B436F6E74656E745F54797065735D2E786D6C504B01021400140006080800348C81573DEE336E64000000790000001B000000000000000000000000008A1100006175746F6465736B2D64657369676E2D7061636B6167652E786D6C504B01021400140006080800348C
311
8157C7930115F90000009601000037000000000000000000000000002712000037394244444330432D353746372D343541382D393838322D3039363934384139354138372F4173736574446174612F636F72652E786D6C504B01021400140006080800348C81574396A760F800000094010000350000000000000000000000
311
00007513000037394244444330432D353746372D343541382D393838322D3039363934384139354138372F536368656D61732F636F72652E786D6C504B01021400140006080800348C8157BF308F7701010000D70100002D00000000000000000000000000C014000037394244444330432D353746372D343541382D393838
311
322D3039363934384139354138372F636F72652E786D6C504B01021400140006080800348C81570C88846306010000B201000008000000000000000000000000000C160000636F72652E786D6C504B050600000000110011005A060000381700000000
310
504B0304140006080800348C8157000000000000000000000000370000006662782F42373933363530362D393134422D344235342D383144382D3434454431374632313346432F617474726962757465732E62696E504B0304140006080800348C8157000000000000000000000000350000006662782F4237393336353036
310
2D393134422D344235342D383144382D3434454431374632313346432F76657274696365732E62696E504B0304140006080800348C8157F270F1330600000004000000360000006662782F42373933363530362D393134422D344235342D383144382D3434454431374632313346432F747269616E676C65732E62696E6366
310
60600000504B0304140006080800348C815751464CB48900000043010000360000006662782F42373933363530362D393134422D344235342D383144382D3434454431374632313346432F6469726563746F72792E786D6C9D8F310EC2300C45AF127987122606C71DD918B841D4B851A43646695A717C52A85029031293A5
310
A76FBF6FACEF7DA7264E43906840EF0FA03836E242F406C6DCEE4EA06AC22492573150D1F66C60C640E8938CB705396EEDD86DE9B5042FE27813D640EA63BB001C722AF6E55CB61E4863F58284D5D3F53DD715CE1C3985E63FD7F1B7EBDD617E9F1E504B0304140006080800348C81577107F0973D070000201C0000340000
310
006662782F42373933363530362D393134422D344235342D383144382D3434454431374632313346432F6F626A656374732E786D6CDD59596FDB3810FE2B84F665F74197AFD885E3C2B193C228D21635BAD837819669871BEA002525CEFEFA1D52A42C2AB2ADF400169B00B14391C3996FEED1F4FD2162E889F08C26F1B5E5
310
3B9E85481C265B1AEFAFAD22DFD9630BBD9FA1294F92BCB6CF42318EC8B52596ADD974CF9322554B5BB2C3056BAEDEDDFC85B290C4C44221C359766D65E10389B0838B3CD992ECD1D9E21C3BFBDDC1F19D72A34976CF71FAD0B82AC59CC439B00AEB3150511CF8E6BF20923B9BBA6283B1ADDF6D5BEFCC36570A6E324AE32C
310
C771F88AABC675BD135C35AEEBFB83E56D6F38B1878341DF1E8C7ABE7D7377B3B4FDABBEB7182D1693F9EDC442B3E9264958A58094C45BD0E28B35F3A7AE785289AF5068E33B4CE298840ACDB60D5BA2E8529235313180F5A568358594B2D616FA1D853FB1AD1328064B06DA5A38FD59B7DE64F337809075B1529E1161E559
310
CE41D70AFBD21FBCA95BAE1A7AA1198A704E38C50C31BAE1988382606BA920838CF016410A09CCA41635BD3AAF60D8977DA98DCB5DC198F05F6B263D2D007F24792639A3FF107EE4BE7E1BF004D21634CEC74AD8FC25051293A92B17CB67FD9E7A580289760CEFC15A404CB1A9DF6BE0B510B160B5B4661FEF3687B5880FED
310
97A73C4909CF85E54967567EA73558332D30BE0EA094B89ABA3BA2F215A0FF04C857BCA029688ED3C3E030D0B2731C67BB8447A01DE421DB833F1E125F5F7D9BBAD5E1194246AC3C8529B8ED4FC2D410C3B8BB06E96CFA04469FF0BE126E1D6206367D4F63E1E760288825B004F17EB73958B31504535884539881F4F03B75
310
C557041F251D88370D0DB585DF0E8AD20ED3F4B3A3AE3E80CD701A56AA32643C85EFF0A7E03B5FAE3FAE0BBEC321B9578EBD243B1AD31C92693B4306E886CB7F5B7D921EF981251BCC8EA78D4D215CB34F44DC6851CB5AA90549BD0027220D979A912BF714BC9D311C93A4C8D47A5B9C0A1396F060F312942EDC7AD79FDA06
310
CACB9401B4C63248EE21A7A9C0C49A296D5581D0A9090A1686B9B2C07DA9D56053446980A3A48845A87D6D8A4D3E20CE084B04AA929A366CEDB59AEC96EE764506C1AB95E4C20052F9B3265C5AF800E2581BBF9CEC3886249AC401851C0CCED27A83714105DE799E33C2760165AC88821D6590478208A727E87794A09EB91E
310
C9CB73C2B7AD044DCBD23EA96D4800AE80D520E96C55C67CA5534E9EA82833653ED3D9C0D8A1EA506B3638912E44A66801541BA334F3DB893FBE192E86F6723459D883B137B7C737579E3DEAF786237F381EDD2C7A4D3E75B4AAE73B50A528730CFFCB1F8A681363CAE081101B6FD377EF65F6BC762134BADE8D3F5F2E6EE7
310
365C35B6078BAB893D8722CD9E0CAF7AB793E564E02DE62E275952F090646ECFF5026D9269BC3FC595E6EE750C85B2E672B2D3FA6A0AF33F8EA1CD9C6028F1BF1A44ABD8D55210760DA2E2683384E2F051A4A82084AAAFD57D1A41B4C9475B9C7B635CF69CBE277F7C7FD2F326BDF1645419FBD9402DEFF9E138D72641087D
310
679107498A439AB727D4062E1DE3F49B728BD3F78708D0A9FE56979CCF33EA928046784F821D165D424B60BC24416B0EDBB324CB684C32D9E5BDAAFE1A343D078A2933E7B61821CD8288E4F87BEC4FB60D0D9B86D8CC02E847733111B858155406AD3A90531445F70B895BCAFF1264384A59D9E95EC2C0AF128AEE71DA2C4E
310
302DAE78027B0B701E785B22071797A857ECEBFAA0556B4DEA93EF267F021E5DD7FC4278F415DD4B2767E84FC4CF1882CA68E8F7AF9AB6780A2B7D552EFA385640E719BE04CF84EE1F3A159ADD74522BD9CAA23A2711B4B1382F78277F1D0DBD5717A9B8D07088DA4D6F2C0E65FFA63B38404F3670A7CADBDA355087D218E6
310
5C9D04792545AB5AA42EE44C4F8CAEDEE0D7671DA34EF587E3E52FAF98EBCE17C9E1CF651CA05A2E03B08A3E464DDD5A751BF550F68CF31002E95A7EDA37E0115BB23D366606B9B6125DD7A797AAE79508A8114C6CB188B3F7E20BFB8A41D5D03D67EE87B26873CBF595486C0E0CA78F7C184C9BB43E7F5837A8C04AE7D35F
310
0446E4B94141AD2E44377C86D4B7D5B1E76F5050127D5B9D39FE9FE828B4026B633498066709A33094275BB42709646F183B74E8367844329995C1785590D26F043A9C7E2A67AA39DE307D3A7CC0309866AA172B42188A42C6BCB6D43AFA0DC6A06212298753CE23B4612A8659A8E0F4DA028BCD29745BCE06C659727828A9
310
37C695E0D838DE8B7C5F9EAAFE3F1E13E840543ACA55EDE9828B92CC7026286C53F99E00AABEF2C16CFAFDA26B7610CEE1EBA6C82B618E0B47691408FA8540291C4CFD1E15BC072828CECBE53B728F0149A7C9FC593B28A9DA39E67B395EAFE13D5F7E71C5647CF519A5ACD80B759EEB7E0D4AB6E8BA59514EA1A660184ACC
310
148B1A72F1CEFDC21378C514A13B0A46807E3F8C477FB88B248A92B85C72E7EA45155A3FC06BA7ADAB477ED0C67BFED095530035D60F3638230EDE668FB000AAE554CC464B880D03A8A269CD00B446842EE098B17FB544AA36AA4D48EA6157C02367FA081C49BCCB116E53DF501B40822F0057F2E1F18B5E98BA1C86E0B37F
310
01504B0304140006080800348C8157EBD7057C3E01000046050000300000006662782F42373933363530362D393134422D344235342D383144382D3434454431374632313346432F636E782E786D6CCD94CF4A033110C65F25E4BE7FD20A4AC9A6E0C127F020DEB2D9E91ABB9B599259B16F6F52D3AA48C543A1BD85C937F0
310
FD663E46AEDFC781BD810F165DC345597306CE60675DDFF09936C51D676B253D227D9371E6F4080D4F65AE64EF719E72A9838D9E87541DACDBE6A226F2B69D09026766D021343C98171875A967C20EC2B6EC34E952941E02CEDE40EC273B42EE371E3441C7D5A25E2C0BB1286AF1286E57CBE5EA463CCB2A29956C1187ACB7
310
8EC0E3C40CC6878B666A59A56F25676FB3261170F5E5AC6CAD9355FC573244B7AECF3ADA4D49374D83359AE2982A3404544411E851569F6225ABC4FB83FAE1FEE9E08075D68321F4BB0B0D409C1AC0D1581993F03FFEBDF06F6C6C5F23EEA5B67D1236DB3A1BEA21AD21C6F5F7FE638AB4EB87EB0BFDD1D8F9331F4F095973
310
7DC8075F6722AEF6272F2E3D5D40F501504B0304140006080800348C8157B3E577CA7E000000A30000000B0000006662782F636E782E786D6C4D8CD10A832018465F45FE7B5B2E2B033570ADF7886521331D2E638F3F1D5DECEA83C3770EEF3F9B45870E6FE39D00529480B47BF8D9B85540DC17CC00F59207EFF7BF1B2037
310
6D5A40C620F91A7C7C9D68D6CB146DA6D6B8E70955DB554D5D36B8235461AA6A8A191918A6F43E9076BC926ABC25E3929534BF5EDA9C975F504B0304140006080800348C8157A6D797065F0000008200000007000000636E782E786D6C4DCB3B0E80201045D1AD90E9FD7516806B51190811670C8A61F982B1B0BAC9C97B72
310
CA7B1037C6D3332918DA1E04D2CAC69353902EDB8C20262D23F3F59B81A079470595414B17391D1F19B4730A5583A7ED43BBE4025D9592775E5ADFFA01504B0304140006080800348C81574FEB6A7CA0000000F4000000130000005B436F6E74656E745F54797065735D2E786D6C7D8F4B0EC2300C44AF1279DFA6B0400835
310
ED02B8011730C16D239A8F121795DB93D02D6269CFBC19BBED573B8B17C564BC53B0AB1B10E4B47F18372A5878A88E20FAAEBDBD032591BD2E299898C349CAA427B2986A1FC86565F0D122E7318E32A07EE24872DF3407A9BD63725C71C980AEBDD080CBCCE2BAE6F5D69B7110E7CD57AA146008B3D1C8F92C5954F993BB1B
310
F787F39A89ABC491D09600F9FDA2FB00504B0304140006080800348C81573DEE336E64000000790000001B0000006175746F6465736B2D64657369676E2D7061636B6167652E786D6C35CBC10E83200C00D05F21DCA56CA76D41FC96062B120735B69A7DBE268BB7777961F8D5AF396893C2ADB70FE7ADA196782C2DF776D7
310
A97B5933C430F15651E5469C55D70F80A4992A3ADC954792C525AE70A1E4D6AD9816CC044FEFDF01FE3FDE907802504B0304140006080800348C8157A3F7421BF8000000960100003B0000006662782F42373933363530362D393134422D344235342D383144382D3434454431374632313346432F7265736F75726365732F
310
636F72652E786D6C8550CB6E833010FC15B47703064268641C91F0093DF566990DB1126CE447D5CFAF1DA8D49E7ADAD5ECCCECEEB0F3D7F2CC3ED13A65740F342F21432DCDA4F4DC43F037D24176E6CC1AE37FD120D362C11E120C9CCDD6847587A4D11E7542B59970078573E82193CFD8F4E0E41D17918BE023C33DF255C8
310
879831A7F9C6E32C0435ED5235453775536881776355366DDB92E6528DA469BB92BCB55D4DAEDD701CC66B73B80C07562431675E2D3FDBA545E171025E95554D68454AFA4E8FA7BA3E35F4831589C999F336FEBC2F4DDF01B7E84CB0121D2BB6E91FD7B04EFFBB06A57D5DEDAE9BC201A7F1C8D780B322A514CB2BC25853A2
310
FC1B504B0304140006080800348C8157CE8FB72AF2000000B1010000310000006662782F42373933363530362D393134422D344235342D383144382D3434454431374632313346432F636F72652E786D6C8D50CB6EC32010FC156BEFD8C690D8893091DC345FD0536F08130725068B47D5CF2FC4AED4DE725A343BC3CC0E3B
310
7DCF8FE24B39AFADE901973514CA483B6A33F510C31575509C3873D6863F34288C98550F1906CE2667E3B241D29AA04C468D1DD5060AEF5580423ED2A3072F6F6A16A5882131FCBD5C84BC8B4995B85C799C053DFF4AA55322A81178533704E106D5F803B747428E147FB22A33398B518F9B951E93BBBE6AE5800FED81EC77
310
F51E1D301D101D761475F8DC214ADFCFB8BD34985CDE5895C59CF9E0D2CDDB27F9BA57E5ABF05FE6B88C2F64D6269066335C151E384E799E0BCEAA5C601ACF76D3CC65F31F504B0304140006080800348C8157273BD43C52010000DD0200000C0000006662782F636F72652E786D6C8D52498EC32010FC8AC51DEF713C1126
310
CAF28439CD8D60E241B1C1C260E5F9D378912787596409A3EAEEAAAE12E4F8ECDA601466905A552809631408C5752D55532167EFB844C19112A3B5FDD68602C53A51210F234A1AA35DBF405C2B2B944795AEC502B261101605BC854B8506FE293A163267A16378843DE30FD6883009E73E4A9C93F5322A6B609377290CA2E5
310
358DF3A228707E4EAF382FCA18BF1565862FE5697FBA5EF2DDF9B423911FA6C4CA6E55E746302B6A44D338CD7092E238794FF6872C3BE4C907897C27258335E07911F5EE10BDDF9E249AF1173ED7D77FF339A96C962E7CF3C4806802EB4D054A229F0FFCA6F05E330461C8CFB25BBB5A7800340A6EB5C9A1526BB79546D63A
310
01D471307D249AABC03C11FCC493FEC2F33B0704C55403AB310BD79BB35EFD75A75E183CDA67A0B4E958BB2D37AFB89D9BD08BA5759CEB569BFF4CAF56D73023FF30E917504B0304140006080800348C81579A8CA30007010000B201000008000000636F72652E786D6C8D50C172832014FC15E6DD5151636C06C998F8093D
310
F5468558260A0E60A6FDFB42A433EDADA7C7ECEE7BBB2C3D7F2E337A48EB94D11D90AC0024F56884D253079BBFE116D099516B8CFF2503A4F9223B8830303A59B3AD091A8DF65247541B2113C89D931ED0388747076EFC900BCFF8E683C2DDB3958F773EC98C64BB8E51AF969FD5D14AEEA5005616658549890BF24A8EA7AA
310
3AD5E48DE651C9E8B62991AC9408EEEAA6A405D60E6551374D83EB4B39E0BA690BFCD2B415BEB6FDB11FAEF5E1D21F681E971975DE863FA72321A7478E3FA22FCD778AD17763E62408A104327AFE0256D03C127F426FABF84768A57D55A683FB86034642A027118C6383613CEB0D33B6CDBE01504B01021400140006080800
310
348C81570000000000000000000000003700000000000000000000000000000000006662782F42373933363530362D393134422D344235342D383144382D3434454431374632313346432F617474726962757465732E62696E504B01021400140006080800348C815700000000000000000000000035000000000000000000
310
00000000550000006662782F42373933363530362D393134422D344235342D383144382D3434454431374632313346432F76657274696365732E62696E504B01021400140006080800348C8157F270F13306000000040000003600000000000000000000000000A80000006662782F42373933363530362D393134422D3442
310
35342D383144382D3434454431374632313346432F747269616E676C65732E62696E504B01021400140006080800348C815751464CB489000000430100003600000000000000000000000000020100006662782F42373933363530362D393134422D344235342D383144382D3434454431374632313346432F646972656374
310
6F72792E786D6C504B01021400140006080800348C81577107F0973D070000201C00003400000000000000000000000000DF0100006662782F42373933363530362D393134422D344235342D383144382D3434454431374632313346432F6F626A656374732E786D6C504B01021400140006080800348C8157EBD7057C3E01
310
00004605000030000000000000000000000000006E0900006662782F42373933363530362D393134422D344235342D383144382D3434454431374632313346432F636E782E786D6C504B01021400140006080800348C8157B3E577CA7E000000A30000000B00000000000000000000000000FA0A00006662782F636E782E78
310
6D6C504B01021400140006080800348C8157A6D797065F000000820000000700000000000000000000000000A10B0000636E782E786D6C504B01021400140006080800348C81574FEB6A7CA0000000F40000001300000000000000000000000000250C00005B436F6E74656E745F54797065735D2E786D6C504B0102140014
310
0006080800348C81573DEE336E64000000790000001B00000000000000000000000000F60C00006175746F6465736B2D64657369676E2D7061636B6167652E786D6C504B01021400140006080800348C8157A3F7421BF8000000960100003B00000000000000000000000000930D00006662782F42373933363530362D3931
310
34422D344235342D383144382D3434454431374632313346432F7265736F75726365732F636F72652E786D6C504B01021400140006080800348C8157CE8FB72AF2000000B10100003100000000000000000000000000E40E00006662782F42373933363530362D393134422D344235342D383144382D343445443137463231
310
3346432F636F72652E786D6C504B01021400140006080800348C8157273BD43C52010000DD0200000C00000000000000000000000000251000006662782F636F72652E786D6C504B01021400140006080800348C81579A8CA30007010000B20100000800000000000000000000000000A1110000636F72652E786D6C504B05
310
06000000000E000E0080040000CE1200000000
  0
XRECORD
  5
83C4
102
{ACAD_REACTORS
330
83BF
102
}
330
83BF
100
AcDbXrecord
280
     1
270
     1
271
     1
  0
XRECORD
  5
83C3
102
{ACAD_REACTORS
330
83BF
102
}
330
83BF
100
AcDbXrecord
280
     1
270
     1
271
     1
  0
XRECORD
  5
83C5
102
{ACAD_REACTORS
330
83BF
102
}
330
83BF
100
AcDbXrecord
280
     1
270
     1
271
     1
  0
XRECORD
  5
83C2
102
{ACAD_REACTORS
330
83BF
102
}
330
83BF
100
AcDbXrecord
280
     1
270
     1
271
     1
  0
XRECORD
  5
876F
102
{ACAD_REACTORS
330
876E
102
}
330
876E
100
AcDbXrecord
280
     1
102
DISPLAYNAME
  1
Imperial24
102
FLAGS
 90
        0
  0
CELLSTYLEMAP
  5
8736
102
{ACAD_REACTORS
330
8735
102
}
330
8735
100
AcDbCellStyleMap
 90
        3
300
CELLSTYLE
  1
TABLEFORMAT_BEGIN
 90
        5
170
     1
 91
        0
 92
    32768
 62
   257
 93
        1
300
CONTENTFORMAT
  1
CONTENTFORMAT_BEGIN
 90
        0
 91
        0
 92
      512
 93
        0
300

 40
0.0
140
1.0
 94
        5
 62
     0
340
83F2
144
0.25
309
CONTENTFORMAT_END
171
     0
 94
        0
309
TABLEFORMAT_END
  1
CELLSTYLE_BEGIN
 90
        1
 91
        1
300
_TITLE
309
CELLSTYLE_END
300
CELLSTYLE
  1
TABLEFORMAT_BEGIN
 90
        5
170
     1
 91
        0
 92
        0
 62
   257
 93
        1
300
CONTENTFORMAT
  1
CONTENTFORMAT_BEGIN
 90
        0
 91
        0
 92
      512
 93
        0
300

 40
0.0
140
1.0
 94
        5
 62
     0
340
83F2
144
0.18
309
CONTENTFORMAT_END
171
     0
 94
        0
309
TABLEFORMAT_END
  1
CELLSTYLE_BEGIN
 90
        2
 91
        1
300
_HEADER
309
CELLSTYLE_END
300
CELLSTYLE
  1
TABLEFORMAT_BEGIN
 90
        5
170
     1
 91
        0
 92
        0
 62
   257
 93
        1
300
CONTENTFORMAT
  1
CONTENTFORMAT_BEGIN
 90
        0
 91
        0
 92
      512
 93
        0
300

 40
0.0
140
1.0
 94
        2
 62
     0
340
83F2
144
0.18
309
CONTENTFORMAT_END
171
     0
 94
        0
309
TABLEFORMAT_END
  1
CELLSTYLE_BEGIN
 90
        3
 91
        2
300
_DATA
309
CELLSTYLE_END
  0
XRECORD
  5
876C
102
{ACAD_REACTORS
330
8735
102
}
330
8735
100
AcDbXrecord
280
     1
102
ACAD_ROUNDTRIP_PRE2007_TABLESTYLE
 90
      512
 91
        0
  1

 92
      512
 93
        0
  2

 94
      512
 95
        0
  3

  0
XRECORD
  5
8747
102
{ACAD_REACTORS
330
8746
102
}
330
8746
100
AcDbXrecord
280
     1
102
RTVSPost2010Prop28
280
     1
102
RTVSPost2010PropOp28
 70
     1
102
RTVSPost2010Prop29
280
     1
102
RTVSPost2010PropOp29
 70
     1
102
RTVSPost2010Prop30
280
     0
102
RTVSPost2010PropOp30
 70
     1
102
RTVSPost2010Prop31
280
     0
102
RTVSPost2010PropOp31
 70
     1
102
RTVSPost2010Prop32
280
     0
102
RTVSPost2010PropOp32
 70
     1
102
RTVSPost2010Prop33
280
     0
102
RTVSPost2010PropOp33
 70
     1
102
RTVSPost2010Prop34
280
     0
102
RTVSPost2010PropOp34
 70
     1
102
RTVSPost2010Prop35
280
     0
102
RTVSPost2010PropOp35
 70
     1
102
RTVSPost2010Prop36
280
     0
102
RTVSPost2010PropOp36
 70
     1
102
RTVSPost2010Prop37
 90
       50
102
RTVSPost2010PropOp37
 70
     1
102
RTVSPost2010Prop38
140
0.0
102
RTVSPost2010PropOp38
 70
     1
102
RTVSPost2010Prop39
140
1.0
102
RTVSPost2010PropOp39
 70
     1
102
RTVSPost2010Prop40
 90
        0
102
RTVSPost2010PropOp40
 70
     1
102
RTVSPost2010Prop41ColorIndex
 90
       18
102
RTVSPost2010Prop41ColorRGB
 90
        0
102
RTVSPost2010PropOp41
 70
     1
102
RTVSPost2010Prop42
 90
       50
102
RTVSPost2010PropOp42
 70
     1
102
RTVSPost2010Prop43
 90
        3
102
RTVSPost2010PropOp43
 70
     1
102
RTVSPost2010Prop44ColorIndex
 90
        5
102
RTVSPost2010Prop44ColorRGB
 90
      255
102
RTVSPost2010PropOp44
 70
     1
102
RTVSPost2010Prop45
280
     0
102
RTVSPost2010PropOp45
 70
     1
102
RTVSPost2010Prop46
 90
       50
102
RTVSPost2010PropOp46
 70
     1
102
RTVSPost2010Prop47
 90
       50
102
RTVSPost2010PropOp47
 70
     1
102
RTVSPost2010Prop48
 90
       50
102
RTVSPost2010PropOp48
 70
     1
102
RTVSPost2010Prop49
280
     0
102
RTVSPost2010PropOp49
 70
     1
102
RTVSPost2010Prop50
 90
       50
102
RTVSPost2010PropOp50
 70
     1
102
RTVSPost2010Prop51ColorIndex
 90
      256
102
RTVSPost2010Prop51ColorRGB
 90
-16777216
102
RTVSPost2010PropOp51
 70
     0
102
RTVSPost2010Prop52
140
1.0
102
RTVSPost2010PropOp52
 70
     0
102
RTVSPost2010Prop53
 90
        2
102
RTVSPost2010PropOp53
 70
     1
102
RTVSPost2010Prop54
  1
strokes_ogs.tif
102
RTVSPost2010PropOp54
 70
     1
102
RTVSPost2010Prop55
280
     0
102
RTVSPost2010PropOp55
 70
     1
102
RTVSPost2010Prop56
140
1.0
102
RTVSPost2010PropOp56
 70
     1
102
RTVSPost2010Prop57
140
1.0
102
RTVSPost2010PropOp57
 70
     1
102
RTVSPropertyOp0
 70
     1
102
RTVSPropertyOp1
 70
     1
102
RTVSPropertyOp2
 70
     1
102
RTVSPropertyOp3
 70
     1
102
RTVSPropertyOp4
 70
     1
102
RTVSPropertyOp5
 70
     1
102
RTVSPropertyOp6
 70
     1
102
RTVSPropertyOp7
 70
     1
102
RTVSPropertyOp8
 70
     1
102
RTVSPropertyOp9
 70
     1
102
RTVSPropertyOp10
 70
     1
102
RTVSPropertyOp11
 70
     1
102
RTVSPropertyOp12
 70
     1
102
RTVSPropertyOp13
 70
     1
102
RTVSPropertyOp14
 70
     1
102
RTVSPropertyOp15
 70
     1
102
RTVSPropertyOp16
 70
     1
102
RTVSPropertyOp17
 70
     1
102
RTVSPropertyOp18
 70
     1
102
RTVSPropertyOp19
 70
     1
102
RTVSPropertyOp20
 70
     1
102
RTVSPropertyOp21
 70
     1
102
RTVSPropertyOp22
 70
     1
102
RTVSPropertyOp23
 70
     1
102
RTVSPropertyOp24
 70
     1
102
RTVSPropertyOp25
 70
     1
102
RTVSPropertyOp26
 70
     1
102
RTVSPropertyOp27
 70
     1
102
RTVSPropertyOp28
 70
     1
102
RTVSPropertyOp29
 70
     1
102
RTVSPropertyOp30
 70
     1
102
RTVSPropertyOp31
 70
     1
102
RTVSPropertyOp32
 70
     1
102
RTVSPropertyOp33
 70
     1
102
RTVSPropertyOp34
 70
     1
102
RTVSPropertyOp35
 70
     1
102
RTVSPropertyOp36
 70
     1
102
RTVSPropertyOp37
 70
     1
102
RTVSPropertyOp38
 70
     1
102
RTVSPropertyOp39
 70
     1
102
RTVSPropertyOp40
 70
     1
102
RTVSPropertyOp41
 70
     1
102
RTVSPropertyOp42
 70
     1
102
RTVSPropertyOp43
 70
     1
102
RTVSPropertyOp44
 70
     1
102
RTVSPropertyOp45
 70
     1
102
RTVSPropertyOp46
 70
     1
102
RTVSPropertyOp47
 70
     1
102
RTVSPropertyOp48
 70
     1
102
RTVSPropertyOp49
 70
     1
102
RTVSPropertyOp50
 70
     1
102
RTVSPropertyOp51
 70
     0
102
RTVSPropertyOp52
 70
     0
102
RTVSPropertyOp53
 70
     1
102
RTVSPropertyOp54
 70
     1
102
RTVSPropertyOp55
 70
     1
102
RTVSPropertyOp56
 70
     1
102
RTVSPropertyOp57
 70
     1
102
RTVSPropertyOp58
 70
     1
102
RTVSPropertyOp59
 70
     1
102
RTVSPropertyOp60
 70
     1
102
RTVSPropertyOp61
 70
     1
102
RTVSPropertyOp62
 70
     1
  0
XRECORD
  5
8745
102
{ACAD_REACTORS
330
8744
102
}
330
8744
100
AcDbXrecord
280
     1
102
RTVSPost2010Prop28
280
     0
102
RTVSPost2010PropOp28
 70
     1
102
RTVSPost2010Prop29
280
     1
102
RTVSPost2010PropOp29
 70
     1
102
RTVSPost2010Prop30
280
     1
102
RTVSPost2010PropOp30
 70
     1
102
RTVSPost2010Prop31
280
     0
102
RTVSPost2010PropOp31
 70
     1
102
RTVSPost2010Prop32
280
     0
102
RTVSPost2010PropOp32
 70
     1
102
RTVSPost2010Prop33
280
     0
102
RTVSPost2010PropOp33
 70
     1
102
RTVSPost2010Prop34
280
     0
102
RTVSPost2010PropOp34
 70
     1
102
RTVSPost2010Prop35
280
     0
102
RTVSPost2010PropOp35
 70
     1
102
RTVSPost2010Prop36
280
     0
102
RTVSPost2010PropOp36
 70
     1
102
RTVSPost2010Prop37
 90
       50
102
RTVSPost2010PropOp37
 70
     1
102
RTVSPost2010Prop38
140
0.0
102
RTVSPost2010PropOp38
 70
     1
102
RTVSPost2010Prop39
140
1.0
102
RTVSPost2010PropOp39
 70
     1
102
RTVSPost2010Prop40
 90
        0
102
RTVSPost2010PropOp40
 70
     1
102
RTVSPost2010Prop41ColorIndex
 90
       18
102
RTVSPost2010Prop41ColorRGB
 90
        0
102
RTVSPost2010PropOp41
 70
     1
102
RTVSPost2010Prop42
 90
       50
102
RTVSPost2010PropOp42
 70
     1
102
RTVSPost2010Prop43
 90
        3
102
RTVSPost2010PropOp43
 70
     1
102
RTVSPost2010Prop44ColorIndex
 90
        5
102
RTVSPost2010Prop44ColorRGB
 90
      255
102
RTVSPost2010PropOp44
 70
     1
102
RTVSPost2010Prop45
280
     0
102
RTVSPost2010PropOp45
 70
     1
102
RTVSPost2010Prop46
 90
       50
102
RTVSPost2010PropOp46
 70
     1
102
RTVSPost2010Prop47
 90
       50
102
RTVSPost2010PropOp47
 70
     1
102
RTVSPost2010Prop48
 90
       50
102
RTVSPost2010PropOp48
 70
     1
102
RTVSPost2010Prop49
280
     0
102
RTVSPost2010PropOp49
 70
     1
102
RTVSPost2010Prop50
 90
       50
102
RTVSPost2010PropOp50
 70
     1
102
RTVSPost2010Prop51ColorIndex
 90
      256
102
RTVSPost2010Prop51ColorRGB
 90
-16777216
102
RTVSPost2010PropOp51
 70
     0
102
RTVSPost2010Prop52
140
1.0
102
RTVSPost2010PropOp52
 70
     0
102
RTVSPost2010Prop53
 90
        2
102
RTVSPost2010PropOp53
 70
     1
102
RTVSPost2010Prop54
  1
strokes_ogs.tif
102
RTVSPost2010PropOp54
 70
     1
102
RTVSPost2010Prop55
280
     0
102
RTVSPost2010PropOp55
 70
     1
102
RTVSPost2010Prop56
140
1.0
102
RTVSPost2010PropOp56
 70
     1
102
RTVSPost2010Prop57
140
1.0
102
RTVSPost2010PropOp57
 70
     1
102
RTVSPropertyOp0
 70
     1
102
RTVSPropertyOp1
 70
     1
102
RTVSPropertyOp2
 70
     1
102
RTVSPropertyOp3
 70
     1
102
RTVSPropertyOp4
 70
     1
102
RTVSPropertyOp5
 70
     1
102
RTVSPropertyOp6
 70
     1
102
RTVSPropertyOp7
 70
     1
102
RTVSPropertyOp8
 70
     1
102
RTVSPropertyOp9
 70
     1
102
RTVSPropertyOp10
 70
     1
102
RTVSPropertyOp11
 70
     1
102
RTVSPropertyOp12
 70
     1
102
RTVSPropertyOp13
 70
     1
102
RTVSPropertyOp14
 70
     1
102
RTVSPropertyOp15
 70
     1
102
RTVSPropertyOp16
 70
     1
102
RTVSPropertyOp17
 70
     1
102
RTVSPropertyOp18
 70
     1
102
RTVSPropertyOp19
 70
     1
102
RTVSPropertyOp20
 70
     1
102
RTVSPropertyOp21
 70
     1
102
RTVSPropertyOp22
 70
     1
102
RTVSPropertyOp23
 70
     1
102
RTVSPropertyOp24
 70
     1
102
RTVSPropertyOp25
 70
     1
102
RTVSPropertyOp26
 70
     1
102
RTVSPropertyOp27
 70
     1
102
RTVSPropertyOp28
 70
     1
102
RTVSPropertyOp29
 70
     1
102
RTVSPropertyOp30
 70
     1
102
RTVSPropertyOp31
 70
     1
102
RTVSPropertyOp32
 70
     1
102
RTVSPropertyOp33
 70
     1
102
RTVSPropertyOp34
 70
     1
102
RTVSPropertyOp35
 70
     1
102
RTVSPropertyOp36
 70
     1
102
RTVSPropertyOp37
 70
     1
102
RTVSPropertyOp38
 70
     1
102
RTVSPropertyOp39
 70
     1
102
RTVSPropertyOp40
 70
     1
102
RTVSPropertyOp41
 70
     1
102
RTVSPropertyOp42
 70
     1
102
RTVSPropertyOp43
 70
     1
102
RTVSPropertyOp44
 70
     1
102
RTVSPropertyOp45
 70
     1
102
RTVSPropertyOp46
 70
     1
102
RTVSPropertyOp47
 70
     1
102
RTVSPropertyOp48
 70
     1
102
RTVSPropertyOp49
 70
     1
102
RTVSPropertyOp50
 70
     1
102
RTVSPropertyOp51
 70
     0
102
RTVSPropertyOp52
 70
     0
102
RTVSPropertyOp53
 70
     1
102
RTVSPropertyOp54
 70
     1
102
RTVSPropertyOp55
 70
     1
102
RTVSPropertyOp56
 70
     1
102
RTVSPropertyOp57
 70
     1
102
RTVSPropertyOp58
 70
     1
102
RTVSPropertyOp59
 70
     1
102
RTVSPropertyOp60
 70
     1
102
RTVSPropertyOp61
 70
     1
102
RTVSPropertyOp62
 70
     1
  0
XRECORD
  5
8753
102
{ACAD_REACTORS
330
8752
102
}
330
8752
100
AcDbXrecord
280
     1
102
RTVSPost2010Prop28
280
     0
102
RTVSPost2010PropOp28
 70
     1
102
RTVSPost2010Prop29
280
     1
102
RTVSPost2010PropOp29
 70
     1
102
RTVSPost2010Prop30
280
     1
102
RTVSPost2010PropOp30
 70
     1
102
RTVSPost2010Prop31
280
     0
102
RTVSPost2010PropOp31
 70
     1
102
RTVSPost2010Prop32
280
     0
102
RTVSPost2010PropOp32
 70
     1
102
RTVSPost2010Prop33
280
     0
102
RTVSPost2010PropOp33
 70
     1
102
RTVSPost2010Prop34
280
     0
102
RTVSPost2010PropOp34
 70
     1
102
RTVSPost2010Prop35
280
     0
102
RTVSPost2010PropOp35
 70
     1
102
RTVSPost2010Prop36
280
     0
102
RTVSPost2010PropOp36
 70
     1
102
RTVSPost2010Prop37
 90
       50
102
RTVSPost2010PropOp37
 70
     1
102
RTVSPost2010Prop38
140
0.0
102
RTVSPost2010PropOp38
 70
     1
102
RTVSPost2010Prop39
140
1.0
102
RTVSPost2010PropOp39
 70
     1
102
RTVSPost2010Prop40
 90
        0
102
RTVSPost2010PropOp40
 70
     1
102
RTVSPost2010Prop41ColorIndex
 90
       18
102
RTVSPost2010Prop41ColorRGB
 90
        0
102
RTVSPost2010PropOp41
 70
     1
102
RTVSPost2010Prop42
 90
       50
102
RTVSPost2010PropOp42
 70
     1
102
RTVSPost2010Prop43
 90
        3
102
RTVSPost2010PropOp43
 70
     1
102
RTVSPost2010Prop44ColorIndex
 90
        5
102
RTVSPost2010Prop44ColorRGB
 90
      255
102
RTVSPost2010PropOp44
 70
     1
102
RTVSPost2010Prop45
280
     0
102
RTVSPost2010PropOp45
 70
     1
102
RTVSPost2010Prop46
 90
       50
102
RTVSPost2010PropOp46
 70
     1
102
RTVSPost2010Prop47
 90
       50
102
RTVSPost2010PropOp47
 70
     1
102
RTVSPost2010Prop48
 90
       50
102
RTVSPost2010PropOp48
 70
     1
102
RTVSPost2010Prop49
280
     0
102
RTVSPost2010PropOp49
 70
     1
102
RTVSPost2010Prop50
 90
       50
102
RTVSPost2010PropOp50
 70
     1
102
RTVSPost2010Prop51ColorIndex
 90
      256
102
RTVSPost2010Prop51ColorRGB
 90
-16777216
102
RTVSPost2010PropOp51
 70
     0
102
RTVSPost2010Prop52
140
1.0
102
RTVSPost2010PropOp52
 70
     0
102
RTVSPost2010Prop53
 90
        2
102
RTVSPost2010PropOp53
 70
     1
102
RTVSPost2010Prop54
  1
strokes_ogs.tif
102
RTVSPost2010PropOp54
 70
     1
102
RTVSPost2010Prop55
280
     0
102
RTVSPost2010PropOp55
 70
     1
102
RTVSPost2010Prop56
140
1.0
102
RTVSPost2010PropOp56
 70
     1
102
RTVSPost2010Prop57
140
1.0
102
RTVSPost2010PropOp57
 70
     1
102
RTVSPropertyOp0
 70
     1
102
RTVSPropertyOp1
 70
     1
102
RTVSPropertyOp2
 70
     1
102
RTVSPropertyOp3
 70
     1
102
RTVSPropertyOp4
 70
     1
102
RTVSPropertyOp5
 70
     1
102
RTVSPropertyOp6
 70
     1
102
RTVSPropertyOp7
 70
     1
102
RTVSPropertyOp8
 70
     1
102
RTVSPropertyOp9
 70
     1
102
RTVSPropertyOp10
 70
     1
102
RTVSPropertyOp11
 70
     1
102
RTVSPropertyOp12
 70
     1
102
RTVSPropertyOp13
 70
     1
102
RTVSPropertyOp14
 70
     1
102
RTVSPropertyOp15
 70
     1
102
RTVSPropertyOp16
 70
     1
102
RTVSPropertyOp17
 70
     1
102
RTVSPropertyOp18
 70
     1
102
RTVSPropertyOp19
 70
     1
102
RTVSPropertyOp20
 70
     1
102
RTVSPropertyOp21
 70
     1
102
RTVSPropertyOp22
 70
     1
102
RTVSPropertyOp23
 70
     1
102
RTVSPropertyOp24
 70
     1
102
RTVSPropertyOp25
 70
     1
102
RTVSPropertyOp26
 70
     1
102
RTVSPropertyOp27
 70
     1
102
RTVSPropertyOp28
 70
     1
102
RTVSPropertyOp29
 70
     1
102
RTVSPropertyOp30
 70
     1
102
RTVSPropertyOp31
 70
     1
102
RTVSPropertyOp32
 70
     1
102
RTVSPropertyOp33
 70
     1
102
RTVSPropertyOp34
 70
     1
102
RTVSPropertyOp35
 70
     1
102
RTVSPropertyOp36
 70
     1
102
RTVSPropertyOp37
 70
     1
102
RTVSPropertyOp38
 70
     1
102
RTVSPropertyOp39
 70
     1
102
RTVSPropertyOp40
 70
     1
102
RTVSPropertyOp41
 70
     1
102
RTVSPropertyOp42
 70
     1
102
RTVSPropertyOp43
 70
     1
102
RTVSPropertyOp44
 70
     1
102
RTVSPropertyOp45
 70
     1
102
RTVSPropertyOp46
 70
     1
102
RTVSPropertyOp47
 70
     1
102
RTVSPropertyOp48
 70
     1
102
RTVSPropertyOp49
 70
     1
102
RTVSPropertyOp50
 70
     1
102
RTVSPropertyOp51
 70
     0
102
RTVSPropertyOp52
 70
     0
102
RTVSPropertyOp53
 70
     1
102
RTVSPropertyOp54
 70
     1
102
RTVSPropertyOp55
 70
     1
102
RTVSPropertyOp56
 70
     1
102
RTVSPropertyOp57
 70
     1
102
RTVSPropertyOp58
 70
     1
102
RTVSPropertyOp59
 70
     1
102
RTVSPropertyOp60
 70
     1
102
RTVSPropertyOp61
 70
     1
102
RTVSPropertyOp62
 70
     1
  0
XRECORD
  5
875B
102
{ACAD_REACTORS
330
875A
102
}
330
875A
100
AcDbXrecord
280
     1
102
RTVSPost2010Prop28
280
     0
102
RTVSPost2010PropOp28
 70
     1
102
RTVSPost2010Prop29
280
     1
102
RTVSPost2010PropOp29
 70
     1
102
RTVSPost2010Prop30
280
     1
102
RTVSPost2010PropOp30
 70
     1
102
RTVSPost2010Prop31
280
     0
102
RTVSPost2010PropOp31
 70
     1
102
RTVSPost2010Prop32
280
     0
102
RTVSPost2010PropOp32
 70
     1
102
RTVSPost2010Prop33
280
     0
102
RTVSPost2010PropOp33
 70
     1
102
RTVSPost2010Prop34
280
     0
102
RTVSPost2010PropOp34
 70
     1
102
RTVSPost2010Prop35
280
     0
102
RTVSPost2010PropOp35
 70
     1
102
RTVSPost2010Prop36
280
     0
102
RTVSPost2010PropOp36
 70
     1
102
RTVSPost2010Prop37
 90
       50
102
RTVSPost2010PropOp37
 70
     1
102
RTVSPost2010Prop38
140
0.0
102
RTVSPost2010PropOp38
 70
     1
102
RTVSPost2010Prop39
140
1.0
102
RTVSPost2010PropOp39
 70
     1
102
RTVSPost2010Prop40
 90
        0
102
RTVSPost2010PropOp40
 70
     1
102
RTVSPost2010Prop41ColorIndex
 90
       18
102
RTVSPost2010Prop41ColorRGB
 90
        0
102
RTVSPost2010PropOp41
 70
     1
102
RTVSPost2010Prop42
 90
       50
102
RTVSPost2010PropOp42
 70
     1
102
RTVSPost2010Prop43
 90
        3
102
RTVSPost2010PropOp43
 70
     1
102
RTVSPost2010Prop44ColorIndex
 90
        5
102
RTVSPost2010Prop44ColorRGB
 90
      255
102
RTVSPost2010PropOp44
 70
     1
102
RTVSPost2010Prop45
280
     0
102
RTVSPost2010PropOp45
 70
     1
102
RTVSPost2010Prop46
 90
       50
102
RTVSPost2010PropOp46
 70
     1
102
RTVSPost2010Prop47
 90
       50
102
RTVSPost2010PropOp47
 70
     1
102
RTVSPost2010Prop48
 90
       50
102
RTVSPost2010PropOp48
 70
     1
102
RTVSPost2010Prop49
280
     0
102
RTVSPost2010PropOp49
 70
     1
102
RTVSPost2010Prop50
 90
       50
102
RTVSPost2010PropOp50
 70
     1
102
RTVSPost2010Prop51ColorIndex
 90
      256
102
RTVSPost2010Prop51ColorRGB
 90
-16777216
102
RTVSPost2010PropOp51
 70
     0
102
RTVSPost2010Prop52
140
1.0
102
RTVSPost2010PropOp52
 70
     0
102
RTVSPost2010Prop53
 90
        2
102
RTVSPost2010PropOp53
 70
     1
102
RTVSPost2010Prop54
  1
strokes_ogs.tif
102
RTVSPost2010PropOp54
 70
     1
102
RTVSPost2010Prop55
280
     0
102
RTVSPost2010PropOp55
 70
     1
102
RTVSPost2010Prop56
140
1.0
102
RTVSPost2010PropOp56
 70
     1
102
RTVSPost2010Prop57
140
1.0
102
RTVSPost2010PropOp57
 70
     1
102
RTVSPropertyOp0
 70
     1
102
RTVSPropertyOp1
 70
     1
102
RTVSPropertyOp2
 70
     1
102
RTVSPropertyOp3
 70
     1
102
RTVSPropertyOp4
 70
     1
102
RTVSPropertyOp5
 70
     1
102
RTVSPropertyOp6
 70
     1
102
RTVSPropertyOp7
 70
     1
102
RTVSPropertyOp8
 70
     1
102
RTVSPropertyOp9
 70
     1
102
RTVSPropertyOp10
 70
     1
102
RTVSPropertyOp11
 70
     1
102
RTVSPropertyOp12
 70
     1
102
RTVSPropertyOp13
 70
     1
102
RTVSPropertyOp14
 70
     1
102
RTVSPropertyOp15
 70
     1
102
RTVSPropertyOp16
 70
     1
102
RTVSPropertyOp17
 70
     1
102
RTVSPropertyOp18
 70
     1
102
RTVSPropertyOp19
 70
     1
102
RTVSPropertyOp20
 70
     1
102
RTVSPropertyOp21
 70
     1
102
RTVSPropertyOp22
 70
     1
102
RTVSPropertyOp23
 70
     1
102
RTVSPropertyOp24
 70
     1
102
RTVSPropertyOp25
 70
     1
102
RTVSPropertyOp26
 70
     1
102
RTVSPropertyOp27
 70
     1
102
RTVSPropertyOp28
 70
     1
102
RTVSPropertyOp29
 70
     1
102
RTVSPropertyOp30
 70
     1
102
RTVSPropertyOp31
 70
     1
102
RTVSPropertyOp32
 70
     1
102
RTVSPropertyOp33
 70
     1
102
RTVSPropertyOp34
 70
     1
102
RTVSPropertyOp35
 70
     1
102
RTVSPropertyOp36
 70
     1
102
RTVSPropertyOp37
 70
     1
102
RTVSPropertyOp38
 70
     1
102
RTVSPropertyOp39
 70
     1
102
RTVSPropertyOp40
 70
     1
102
RTVSPropertyOp41
 70
     1
102
RTVSPropertyOp42
 70
     1
102
RTVSPropertyOp43
 70
     1
102
RTVSPropertyOp44
 70
     1
102
RTVSPropertyOp45
 70
     1
102
RTVSPropertyOp46
 70
     1
102
RTVSPropertyOp47
 70
     1
102
RTVSPropertyOp48
 70
     1
102
RTVSPropertyOp49
 70
     1
102
RTVSPropertyOp50
 70
     1
102
RTVSPropertyOp51
 70
     0
102
RTVSPropertyOp52
 70
     0
102
RTVSPropertyOp53
 70
     1
102
RTVSPropertyOp54
 70
     1
102
RTVSPropertyOp55
 70
     1
102
RTVSPropertyOp56
 70
     1
102
RTVSPropertyOp57
 70
     1
102
RTVSPropertyOp58
 70
     1
102
RTVSPropertyOp59
 70
     1
102
RTVSPropertyOp60
 70
     1
102
RTVSPropertyOp61
 70
     1
102
RTVSPropertyOp62
 70
     1
  0
XRECORD
  5
874D
102
{ACAD_REACTORS
330
874C
102
}
330
874C
100
AcDbXrecord
280
     1
102
RTVSPost2010Prop28
280
     0
102
RTVSPost2010PropOp28
 70
     1
102
RTVSPost2010Prop29
280
     1
102
RTVSPost2010PropOp29
 70
     1
102
RTVSPost2010Prop30
280
     1
102
RTVSPost2010PropOp30
 70
     1
102
RTVSPost2010Prop31
280
     0
102
RTVSPost2010PropOp31
 70
     1
102
RTVSPost2010Prop32
280
     0
102
RTVSPost2010PropOp32
 70
     1
102
RTVSPost2010Prop33
280
     0
102
RTVSPost2010PropOp33
 70
     1
102
RTVSPost2010Prop34
280
     0
102
RTVSPost2010PropOp34
 70
     1
102
RTVSPost2010Prop35
280
     0
102
RTVSPost2010PropOp35
 70
     1
102
RTVSPost2010Prop36
280
     0
102
RTVSPost2010PropOp36
 70
     1
102
RTVSPost2010Prop37
 90
       50
102
RTVSPost2010PropOp37
 70
     1
102
RTVSPost2010Prop38
140
0.0
102
RTVSPost2010PropOp38
 70
     1
102
RTVSPost2010Prop39
140
1.0
102
RTVSPost2010PropOp39
 70
     1
102
RTVSPost2010Prop40
 90
        0
102
RTVSPost2010PropOp40
 70
     1
102
RTVSPost2010Prop41ColorIndex
 90
       18
102
RTVSPost2010Prop41ColorRGB
 90
        0
102
RTVSPost2010PropOp41
 70
     1
102
RTVSPost2010Prop42
 90
       50
102
RTVSPost2010PropOp42
 70
     1
102
RTVSPost2010Prop43
 90
        3
102
RTVSPost2010PropOp43
 70
     1
102
RTVSPost2010Prop44ColorIndex
 90
        5
102
RTVSPost2010Prop44ColorRGB
 90
      255
102
RTVSPost2010PropOp44
 70
     1
102
RTVSPost2010Prop45
280
     0
102
RTVSPost2010PropOp45
 70
     1
102
RTVSPost2010Prop46
 90
       50
102
RTVSPost2010PropOp46
 70
     1
102
RTVSPost2010Prop47
 90
       50
102
RTVSPost2010PropOp47
 70
     1
102
RTVSPost2010Prop48
 90
       50
102
RTVSPost2010PropOp48
 70
     1
102
RTVSPost2010Prop49
280
     0
102
RTVSPost2010PropOp49
 70
     1
102
RTVSPost2010Prop50
 90
       50
102
RTVSPost2010PropOp50
 70
     1
102
RTVSPost2010Prop51ColorIndex
 90
      256
102
RTVSPost2010Prop51ColorRGB
 90
-16777216
102
RTVSPost2010PropOp51
 70
     0
102
RTVSPost2010Prop52
140
1.0
102
RTVSPost2010PropOp52
 70
     0
102
RTVSPost2010Prop53
 90
        2
102
RTVSPost2010PropOp53
 70
     1
102
RTVSPost2010Prop54
  1
strokes_ogs.tif
102
RTVSPost2010PropOp54
 70
     1
102
RTVSPost2010Prop55
280
     0
102
RTVSPost2010PropOp55
 70
     1
102
RTVSPost2010Prop56
140
1.0
102
RTVSPost2010PropOp56
 70
     1
102
RTVSPost2010Prop57
140
1.0
102
RTVSPost2010PropOp57
 70
     1
102
RTVSPropertyOp0
 70
     1
102
RTVSPropertyOp1
 70
     1
102
RTVSPropertyOp2
 70
     1
102
RTVSPropertyOp3
 70
     1
102
RTVSPropertyOp4
 70
     1
102
RTVSPropertyOp5
 70
     1
102
RTVSPropertyOp6
 70
     1
102
RTVSPropertyOp7
 70
     1
102
RTVSPropertyOp8
 70
     1
102
RTVSPropertyOp9
 70
     1
102
RTVSPropertyOp10
 70
     1
102
RTVSPropertyOp11
 70
     1
102
RTVSPropertyOp12
 70
     1
102
RTVSPropertyOp13
 70
     1
102
RTVSPropertyOp14
 70
     1
102
RTVSPropertyOp15
 70
     1
102
RTVSPropertyOp16
 70
     1
102
RTVSPropertyOp17
 70
     1
102
RTVSPropertyOp18
 70
     1
102
RTVSPropertyOp19
 70
     1
102
RTVSPropertyOp20
 70
     1
102
RTVSPropertyOp21
 70
     1
102
RTVSPropertyOp22
 70
     1
102
RTVSPropertyOp23
 70
     1
102
RTVSPropertyOp24
 70
     1
102
RTVSPropertyOp25
 70
     1
102
RTVSPropertyOp26
 70
     1
102
RTVSPropertyOp27
 70
     1
102
RTVSPropertyOp28
 70
     1
102
RTVSPropertyOp29
 70
     1
102
RTVSPropertyOp30
 70
     1
102
RTVSPropertyOp31
 70
     1
102
RTVSPropertyOp32
 70
     1
102
RTVSPropertyOp33
 70
     1
102
RTVSPropertyOp34
 70
     1
102
RTVSPropertyOp35
 70
     1
102
RTVSPropertyOp36
 70
     1
102
RTVSPropertyOp37
 70
     1
102
RTVSPropertyOp38
 70
     1
102
RTVSPropertyOp39
 70
     1
102
RTVSPropertyOp40
 70
     1
102
RTVSPropertyOp41
 70
     1
102
RTVSPropertyOp42
 70
     1
102
RTVSPropertyOp43
 70
     1
102
RTVSPropertyOp44
 70
     1
102
RTVSPropertyOp45
 70
     1
102
RTVSPropertyOp46
 70
     1
102
RTVSPropertyOp47
 70
     1
102
RTVSPropertyOp48
 70
     1
102
RTVSPropertyOp49
 70
     1
102
RTVSPropertyOp50
 70
     1
102
RTVSPropertyOp51
 70
     0
102
RTVSPropertyOp52
 70
     0
102
RTVSPropertyOp53
 70
     1
102
RTVSPropertyOp54
 70
     1
102
RTVSPropertyOp55
 70
     1
102
RTVSPropertyOp56
 70
     1
102
RTVSPropertyOp57
 70
     1
102
RTVSPropertyOp58
 70
     1
102
RTVSPropertyOp59
 70
     1
102
RTVSPropertyOp60
 70
     1
102
RTVSPropertyOp61
 70
     1
102
RTVSPropertyOp62
 70
     1
  0
XRECORD
  5
8751
102
{ACAD_REACTORS
330
8750
102
}
330
8750
100
AcDbXrecord
280
     1
102
RTVSPost2010Prop28
280
     0
102
RTVSPost2010PropOp28
 70
     1
102
RTVSPost2010Prop29
280
     1
102
RTVSPost2010PropOp29
 70
     1
102
RTVSPost2010Prop30
280
     1
102
RTVSPost2010PropOp30
 70
     1
102
RTVSPost2010Prop31
280
     0
102
RTVSPost2010PropOp31
 70
     1
102
RTVSPost2010Prop32
280
     0
102
RTVSPost2010PropOp32
 70
     1
102
RTVSPost2010Prop33
280
     0
102
RTVSPost2010PropOp33
 70
     1
102
RTVSPost2010Prop34
280
     0
102
RTVSPost2010PropOp34
 70
     1
102
RTVSPost2010Prop35
280
     0
102
RTVSPost2010PropOp35
 70
     1
102
RTVSPost2010Prop36
280
     0
102
RTVSPost2010PropOp36
 70
     1
102
RTVSPost2010Prop37
 90
       50
102
RTVSPost2010PropOp37
 70
     1
102
RTVSPost2010Prop38
140
0.0
102
RTVSPost2010PropOp38
 70
     1
102
RTVSPost2010Prop39
140
1.0
102
RTVSPost2010PropOp39
 70
     1
102
RTVSPost2010Prop40
 90
        0
102
RTVSPost2010PropOp40
 70
     1
102
RTVSPost2010Prop41ColorIndex
 90
       18
102
RTVSPost2010Prop41ColorRGB
 90
        0
102
RTVSPost2010PropOp41
 70
     1
102
RTVSPost2010Prop42
 90
       50
102
RTVSPost2010PropOp42
 70
     1
102
RTVSPost2010Prop43
 90
        3
102
RTVSPost2010PropOp43
 70
     1
102
RTVSPost2010Prop44ColorIndex
 90
        5
102
RTVSPost2010Prop44ColorRGB
 90
      255
102
RTVSPost2010PropOp44
 70
     1
102
RTVSPost2010Prop45
280
     0
102
RTVSPost2010PropOp45
 70
     1
102
RTVSPost2010Prop46
 90
       50
102
RTVSPost2010PropOp46
 70
     1
102
RTVSPost2010Prop47
 90
       50
102
RTVSPost2010PropOp47
 70
     1
102
RTVSPost2010Prop48
 90
       50
102
RTVSPost2010PropOp48
 70
     1
102
RTVSPost2010Prop49
280
     0
102
RTVSPost2010PropOp49
 70
     1
102
RTVSPost2010Prop50
 90
       50
102
RTVSPost2010PropOp50
 70
     1
102
RTVSPost2010Prop51ColorIndex
 90
      256
102
RTVSPost2010Prop51ColorRGB
 90
-16777216
102
RTVSPost2010PropOp51
 70
     0
102
RTVSPost2010Prop52
140
1.0
102
RTVSPost2010PropOp52
 70
     0
102
RTVSPost2010Prop53
 90
        2
102
RTVSPost2010PropOp53
 70
     1
102
RTVSPost2010Prop54
  1
strokes_ogs.tif
102
RTVSPost2010PropOp54
 70
     1
102
RTVSPost2010Prop55
280
     0
102
RTVSPost2010PropOp55
 70
     1
102
RTVSPost2010Prop56
140
1.0
102
RTVSPost2010PropOp56
 70
     1
102
RTVSPost2010Prop57
140
1.0
102
RTVSPost2010PropOp57
 70
     1
102
RTVSPropertyOp0
 70
     1
102
RTVSPropertyOp1
 70
     1
102
RTVSPropertyOp2
 70
     1
102
RTVSPropertyOp3
 70
     1
102
RTVSPropertyOp4
 70
     1
102
RTVSPropertyOp5
 70
     1
102
RTVSPropertyOp6
 70
     1
102
RTVSPropertyOp7
 70
     1
102
RTVSPropertyOp8
 70
     1
102
RTVSPropertyOp9
 70
     1
102
RTVSPropertyOp10
 70
     1
102
RTVSPropertyOp11
 70
     1
102
RTVSPropertyOp12
 70
     1
102
RTVSPropertyOp13
 70
     1
102
RTVSPropertyOp14
 70
     1
102
RTVSPropertyOp15
 70
     1
102
RTVSPropertyOp16
 70
     1
102
RTVSPropertyOp17
 70
     1
102
RTVSPropertyOp18
 70
     1
102
RTVSPropertyOp19
 70
     1
102
RTVSPropertyOp20
 70
     1
102
RTVSPropertyOp21
 70
     1
102
RTVSPropertyOp22
 70
     1
102
RTVSPropertyOp23
 70
     1
102
RTVSPropertyOp24
 70
     1
102
RTVSPropertyOp25
 70
     1
102
RTVSPropertyOp26
 70
     1
102
RTVSPropertyOp27
 70
     1
102
RTVSPropertyOp28
 70
     1
102
RTVSPropertyOp29
 70
     1
102
RTVSPropertyOp30
 70
     1
102
RTVSPropertyOp31
 70
     1
102
RTVSPropertyOp32
 70
     1
102
RTVSPropertyOp33
 70
     1
102
RTVSPropertyOp34
 70
     1
102
RTVSPropertyOp35
 70
     1
102
RTVSPropertyOp36
 70
     1
102
RTVSPropertyOp37
 70
     1
102
RTVSPropertyOp38
 70
     1
102
RTVSPropertyOp39
 70
     1
102
RTVSPropertyOp40
 70
     1
102
RTVSPropertyOp41
 70
     1
102
RTVSPropertyOp42
 70
     1
102
RTVSPropertyOp43
 70
     1
102
RTVSPropertyOp44
 70
     1
102
RTVSPropertyOp45
 70
     1
102
RTVSPropertyOp46
 70
     1
102
RTVSPropertyOp47
 70
     1
102
RTVSPropertyOp48
 70
     1
102
RTVSPropertyOp49
 70
     1
102
RTVSPropertyOp50
 70
     1
102
RTVSPropertyOp51
 70
     0
102
RTVSPropertyOp52
 70
     0
102
RTVSPropertyOp53
 70
     1
102
RTVSPropertyOp54
 70
     1
102
RTVSPropertyOp55
 70
     1
102
RTVSPropertyOp56
 70
     1
102
RTVSPropertyOp57
 70
     1
102
RTVSPropertyOp58
 70
     1
102
RTVSPropertyOp59
 70
     1
102
RTVSPropertyOp60
 70
     1
102
RTVSPropertyOp61
 70
     1
102
RTVSPropertyOp62
 70
     1
  0
XRECORD
  5
876B
102
{ACAD_REACTORS
330
876A
102
}
330
876A
100
AcDbXrecord
280
     1
102
RTVSPost2010Prop28
280
     0
102
RTVSPost2010PropOp28
 70
     1
102
RTVSPost2010Prop29
280
     1
102
RTVSPost2010PropOp29
 70
     1
102
RTVSPost2010Prop30
280
     1
102
RTVSPost2010PropOp30
 70
     1
102
RTVSPost2010Prop31
280
     0
102
RTVSPost2010PropOp31
 70
     1
102
RTVSPost2010Prop32
280
     0
102
RTVSPost2010PropOp32
 70
     1
102
RTVSPost2010Prop33
280
     0
102
RTVSPost2010PropOp33
 70
     1
102
RTVSPost2010Prop34
280
     0
102
RTVSPost2010PropOp34
 70
     1
102
RTVSPost2010Prop35
280
     0
102
RTVSPost2010PropOp35
 70
     1
102
RTVSPost2010Prop36
280
     0
102
RTVSPost2010PropOp36
 70
     1
102
RTVSPost2010Prop37
 90
       50
102
RTVSPost2010PropOp37
 70
     0
102
RTVSPost2010Prop38
140
0.0
102
RTVSPost2010PropOp38
 70
     0
102
RTVSPost2010Prop39
140
1.0
102
RTVSPost2010PropOp39
 70
     0
102
RTVSPost2010Prop40
 90
        0
102
RTVSPost2010PropOp40
 70
     0
102
RTVSPost2010Prop41ColorIndex
 90
       18
102
RTVSPost2010Prop41ColorRGB
 90
        0
102
RTVSPost2010PropOp41
 70
     0
102
RTVSPost2010Prop42
 90
       50
102
RTVSPost2010PropOp42
 70
     0
102
RTVSPost2010Prop43
 90
        3
102
RTVSPost2010PropOp43
 70
     0
102
RTVSPost2010Prop44ColorIndex
 90
        5
102
RTVSPost2010Prop44ColorRGB
 90
      255
102
RTVSPost2010PropOp44
 70
     0
102
RTVSPost2010Prop45
280
     0
102
RTVSPost2010PropOp45
 70
     1
102
RTVSPost2010Prop46
 90
       50
102
RTVSPost2010PropOp46
 70
     0
102
RTVSPost2010Prop47
 90
       50
102
RTVSPost2010PropOp47
 70
     0
102
RTVSPost2010Prop48
 90
       50
102
RTVSPost2010PropOp48
 70
     0
102
RTVSPost2010Prop49
280
     0
102
RTVSPost2010PropOp49
 70
     1
102
RTVSPost2010Prop50
 90
       50
102
RTVSPost2010PropOp50
 70
     0
102
RTVSPost2010Prop51ColorIndex
 90
      256
102
RTVSPost2010Prop51ColorRGB
 90
-16777216
102
RTVSPost2010PropOp51
 70
     0
102
RTVSPost2010Prop52
140
1.0
102
RTVSPost2010PropOp52
 70
     0
102
RTVSPost2010Prop53
 90
        2
102
RTVSPost2010PropOp53
 70
     0
102
RTVSPost2010Prop54
  1
strokes_ogs.tif
102
RTVSPost2010PropOp54
 70
     0
102
RTVSPost2010Prop55
280
     0
102
RTVSPost2010PropOp55
 70
     1
102
RTVSPost2010Prop56
140
1.0
102
RTVSPost2010PropOp56
 70
     0
102
RTVSPost2010Prop57
140
1.0
102
RTVSPost2010PropOp57
 70
     0
102
RTVSPropertyOp0
 70
     0
102
RTVSPropertyOp1
 70
     0
102
RTVSPropertyOp2
 70
     0
102
RTVSPropertyOp3
 70
     0
102
RTVSPropertyOp4
 70
     0
102
RTVSPropertyOp5
 70
     0
102
RTVSPropertyOp6
 70
     0
102
RTVSPropertyOp7
 70
     0
102
RTVSPropertyOp8
 70
     0
102
RTVSPropertyOp9
 70
     0
102
RTVSPropertyOp10
 70
     0
102
RTVSPropertyOp11
 70
     0
102
RTVSPropertyOp12
 70
     0
102
RTVSPropertyOp13
 70
     0
102
RTVSPropertyOp14
 70
     2
102
RTVSPropertyOp15
 70
     0
102
RTVSPropertyOp16
 70
     0
102
RTVSPropertyOp17
 70
     0
102
RTVSPropertyOp18
 70
     0
102
RTVSPropertyOp19
 70
     0
102
RTVSPropertyOp20
 70
     0
102
RTVSPropertyOp21
 70
     0
102
RTVSPropertyOp22
 70
     0
102
RTVSPropertyOp23
 70
     0
102
RTVSPropertyOp24
 70
     0
102
RTVSPropertyOp25
 70
     0
102
RTVSPropertyOp26
 70
     0
102
RTVSPropertyOp27
 70
     0
102
RTVSPropertyOp28
 70
     1
102
RTVSPropertyOp29
 70
     1
102
RTVSPropertyOp30
 70
     1
102
RTVSPropertyOp31
 70
     1
102
RTVSPropertyOp32
 70
     1
102
RTVSPropertyOp33
 70
     1
102
RTVSPropertyOp34
 70
     1
102
RTVSPropertyOp35
 70
     1
102
RTVSPropertyOp36
 70
     1
102
RTVSPropertyOp37
 70
     0
102
RTVSPropertyOp38
 70
     0
102
RTVSPropertyOp39
 70
     0
102
RTVSPropertyOp40
 70
     0
102
RTVSPropertyOp41
 70
     0
102
RTVSPropertyOp42
 70
     0
102
RTVSPropertyOp43
 70
     0
102
RTVSPropertyOp44
 70
     0
102
RTVSPropertyOp45
 70
     1
102
RTVSPropertyOp46
 70
     0
102
RTVSPropertyOp47
 70
     0
102
RTVSPropertyOp48
 70
     0
102
RTVSPropertyOp49
 70
     1
102
RTVSPropertyOp50
 70
     0
102
RTVSPropertyOp51
 70
     0
102
RTVSPropertyOp52
 70
     0
102
RTVSPropertyOp53
 70
     0
102
RTVSPropertyOp54
 70
     0
102
RTVSPropertyOp55
 70
     1
102
RTVSPropertyOp56
 70
     0
102
RTVSPropertyOp57
 70
     0
102
RTVSPropertyOp58
 70
     0
102
RTVSPropertyOp59
 70
     0
102
RTVSPropertyOp60
 70
     0
102
RTVSPropertyOp61
 70
     0
102
RTVSPropertyOp62
 70
     0
  0
XRECORD
  5
8759
102
{ACAD_REACTORS
330
8758
102
}
330
8758
100
AcDbXrecord
280
     1
102
RTVSPost2010Prop28
280
     0
102
RTVSPost2010PropOp28
 70
     1
102
RTVSPost2010Prop29
280
     1
102
RTVSPost2010PropOp29
 70
     1
102
RTVSPost2010Prop30
280
     1
102
RTVSPost2010PropOp30
 70
     1
102
RTVSPost2010Prop31
280
     0
102
RTVSPost2010PropOp31
 70
     1
102
RTVSPost2010Prop32
280
     0
102
RTVSPost2010PropOp32
 70
     1
102
RTVSPost2010Prop33
280
     0
102
RTVSPost2010PropOp33
 70
     1
102
RTVSPost2010Prop34
280
     0
102
RTVSPost2010PropOp34
 70
     1
102
RTVSPost2010Prop35
280
     0
102
RTVSPost2010PropOp35
 70
     1
102
RTVSPost2010Prop36
280
     0
102
RTVSPost2010PropOp36
 70
     1
102
RTVSPost2010Prop37
 90
       50
102
RTVSPost2010PropOp37
 70
     1
102
RTVSPost2010Prop38
140
0.0
102
RTVSPost2010PropOp38
 70
     1
102
RTVSPost2010Prop39
140
1.0
102
RTVSPost2010PropOp39
 70
     1
102
RTVSPost2010Prop40
 90
        0
102
RTVSPost2010PropOp40
 70
     1
102
RTVSPost2010Prop41ColorIndex
 90
       18
102
RTVSPost2010Prop41ColorRGB
 90
        0
102
RTVSPost2010PropOp41
 70
     1
102
RTVSPost2010Prop42
 90
       50
102
RTVSPost2010PropOp42
 70
     1
102
RTVSPost2010Prop43
 90
        3
102
RTVSPost2010PropOp43
 70
     1
102
RTVSPost2010Prop44ColorIndex
 90
        5
102
RTVSPost2010Prop44ColorRGB
 90
      255
102
RTVSPost2010PropOp44
 70
     1
102
RTVSPost2010Prop45
280
     0
102
RTVSPost2010PropOp45
 70
     1
102
RTVSPost2010Prop46
 90
       50
102
RTVSPost2010PropOp46
 70
     1
102
RTVSPost2010Prop47
 90
       50
102
RTVSPost2010PropOp47
 70
     1
102
RTVSPost2010Prop48
 90
       50
102
RTVSPost2010PropOp48
 70
     1
102
RTVSPost2010Prop49
280
     0
102
RTVSPost2010PropOp49
 70
     1
102
RTVSPost2010Prop50
 90
       50
102
RTVSPost2010PropOp50
 70
     1
102
RTVSPost2010Prop51ColorIndex
 90
      256
102
RTVSPost2010Prop51ColorRGB
 90
-16777216
102
RTVSPost2010PropOp51
 70
     0
102
RTVSPost2010Prop52
140
1.0
102
RTVSPost2010PropOp52
 70
     0
102
RTVSPost2010Prop53
 90
        2
102
RTVSPost2010PropOp53
 70
     1
102
RTVSPost2010Prop54
  1
strokes_ogs.tif
102
RTVSPost2010PropOp54
 70
     1
102
RTVSPost2010Prop55
280
     0
102
RTVSPost2010PropOp55
 70
     1
102
RTVSPost2010Prop56
140
1.0
102
RTVSPost2010PropOp56
 70
     1
102
RTVSPost2010Prop57
140
1.0
102
RTVSPost2010PropOp57
 70
     1
102
RTVSPropertyOp0
 70
     1
102
RTVSPropertyOp1
 70
     1
102
RTVSPropertyOp2
 70
     1
102
RTVSPropertyOp3
 70
     1
102
RTVSPropertyOp4
 70
     1
102
RTVSPropertyOp5
 70
     1
102
RTVSPropertyOp6
 70
     1
102
RTVSPropertyOp7
 70
     1
102
RTVSPropertyOp8
 70
     1
102
RTVSPropertyOp9
 70
     1
102
RTVSPropertyOp10
 70
     1
102
RTVSPropertyOp11
 70
     1
102
RTVSPropertyOp12
 70
     1
102
RTVSPropertyOp13
 70
     1
102
RTVSPropertyOp14
 70
     1
102
RTVSPropertyOp15
 70
     1
102
RTVSPropertyOp16
 70
     1
102
RTVSPropertyOp17
 70
     1
102
RTVSPropertyOp18
 70
     1
102
RTVSPropertyOp19
 70
     1
102
RTVSPropertyOp20
 70
     1
102
RTVSPropertyOp21
 70
     1
102
RTVSPropertyOp22
 70
     1
102
RTVSPropertyOp23
 70
     1
102
RTVSPropertyOp24
 70
     1
102
RTVSPropertyOp25
 70
     1
102
RTVSPropertyOp26
 70
     1
102
RTVSPropertyOp27
 70
     1
102
RTVSPropertyOp28
 70
     1
102
RTVSPropertyOp29
 70
     1
102
RTVSPropertyOp30
 70
     1
102
RTVSPropertyOp31
 70
     1
102
RTVSPropertyOp32
 70
     1
102
RTVSPropertyOp33
 70
     1
102
RTVSPropertyOp34
 70
     1
102
RTVSPropertyOp35
 70
     1
102
RTVSPropertyOp36
 70
     1
102
RTVSPropertyOp37
 70
     1
102
RTVSPropertyOp38
 70
     1
102
RTVSPropertyOp39
 70
     1
102
RTVSPropertyOp40
 70
     1
102
RTVSPropertyOp41
 70
     1
102
RTVSPropertyOp42
 70
     1
102
RTVSPropertyOp43
 70
     1
102
RTVSPropertyOp44
 70
     1
102
RTVSPropertyOp45
 70
     1
102
RTVSPropertyOp46
 70
     1
102
RTVSPropertyOp47
 70
     1
102
RTVSPropertyOp48
 70
     1
102
RTVSPropertyOp49
 70
     1
102
RTVSPropertyOp50
 70
     1
102
RTVSPropertyOp51
 70
     0
102
RTVSPropertyOp52
 70
     0
102
RTVSPropertyOp53
 70
     1
102
RTVSPropertyOp54
 70
     1
102
RTVSPropertyOp55
 70
     1
102
RTVSPropertyOp56
 70
     1
102
RTVSPropertyOp57
 70
     1
102
RTVSPropertyOp58
 70
     1
102
RTVSPropertyOp59
 70
     1
102
RTVSPropertyOp60
 70
     1
102
RTVSPropertyOp61
 70
     1
102
RTVSPropertyOp62
 70
     1
  0
XRECORD
  5
873D
102
{ACAD_REACTORS
330
873C
102
}
330
873C
100
AcDbXrecord
280
     1
102
RTVSPost2010Prop28
280
     0
102
RTVSPost2010PropOp28
 70
     1
102
RTVSPost2010Prop29
280
     1
102
RTVSPost2010PropOp29
 70
     1
102
RTVSPost2010Prop30
280
     1
102
RTVSPost2010PropOp30
 70
     1
102
RTVSPost2010Prop31
280
     0
102
RTVSPost2010PropOp31
 70
     1
102
RTVSPost2010Prop32
280
     0
102
RTVSPost2010PropOp32
 70
     1
102
RTVSPost2010Prop33
280
     0
102
RTVSPost2010PropOp33
 70
     1
102
RTVSPost2010Prop34
280
     0
102
RTVSPost2010PropOp34
 70
     1
102
RTVSPost2010Prop35
280
     0
102
RTVSPost2010PropOp35
 70
     1
102
RTVSPost2010Prop36
280
     0
102
RTVSPost2010PropOp36
 70
     1
102
RTVSPost2010Prop37
 90
       50
102
RTVSPost2010PropOp37
 70
     1
102
RTVSPost2010Prop38
140
0.0
102
RTVSPost2010PropOp38
 70
     1
102
RTVSPost2010Prop39
140
1.0
102
RTVSPost2010PropOp39
 70
     1
102
RTVSPost2010Prop40
 90
        0
102
RTVSPost2010PropOp40
 70
     1
102
RTVSPost2010Prop41ColorIndex
 90
       18
102
RTVSPost2010Prop41ColorRGB
 90
        0
102
RTVSPost2010PropOp41
 70
     1
102
RTVSPost2010Prop42
 90
       50
102
RTVSPost2010PropOp42
 70
     1
102
RTVSPost2010Prop43
 90
        3
102
RTVSPost2010PropOp43
 70
     1
102
RTVSPost2010Prop44ColorIndex
 90
        5
102
RTVSPost2010Prop44ColorRGB
 90
      255
102
RTVSPost2010PropOp44
 70
     1
102
RTVSPost2010Prop45
280
     0
102
RTVSPost2010PropOp45
 70
     1
102
RTVSPost2010Prop46
 90
       50
102
RTVSPost2010PropOp46
 70
     1
102
RTVSPost2010Prop47
 90
       50
102
RTVSPost2010PropOp47
 70
     1
102
RTVSPost2010Prop48
 90
       50
102
RTVSPost2010PropOp48
 70
     1
102
RTVSPost2010Prop49
280
     0
102
RTVSPost2010PropOp49
 70
     1
102
RTVSPost2010Prop50
 90
       50
102
RTVSPost2010PropOp50
 70
     1
102
RTVSPost2010Prop51ColorIndex
 90
      256
102
RTVSPost2010Prop51ColorRGB
 90
-16777216
102
RTVSPost2010PropOp51
 70
     0
102
RTVSPost2010Prop52
140
1.0
102
RTVSPost2010PropOp52
 70
     0
102
RTVSPost2010Prop53
 90
        2
102
RTVSPost2010PropOp53
 70
     1
102
RTVSPost2010Prop54
  1
strokes_ogs.tif
102
RTVSPost2010PropOp54
 70
     1
102
RTVSPost2010Prop55
280
     0
102
RTVSPost2010PropOp55
 70
     1
102
RTVSPost2010Prop56
140
1.0
102
RTVSPost2010PropOp56
 70
     1
102
RTVSPost2010Prop57
140
1.0
102
RTVSPost2010PropOp57
 70
     1
102
RTVSPropertyOp0
 70
     1
102
RTVSPropertyOp1
 70
     1
102
RTVSPropertyOp2
 70
     1
102
RTVSPropertyOp3
 70
     1
102
RTVSPropertyOp4
 70
     1
102
RTVSPropertyOp5
 70
     1
102
RTVSPropertyOp6
 70
     1
102
RTVSPropertyOp7
 70
     1
102
RTVSPropertyOp8
 70
     1
102
RTVSPropertyOp9
 70
     1
102
RTVSPropertyOp10
 70
     1
102
RTVSPropertyOp11
 70
     1
102
RTVSPropertyOp12
 70
     1
102
RTVSPropertyOp13
 70
     1
102
RTVSPropertyOp14
 70
     1
102
RTVSPropertyOp15
 70
     1
102
RTVSPropertyOp16
 70
     1
102
RTVSPropertyOp17
 70
     1
102
RTVSPropertyOp18
 70
     1
102
RTVSPropertyOp19
 70
     1
102
RTVSPropertyOp20
 70
     1
102
RTVSPropertyOp21
 70
     1
102
RTVSPropertyOp22
 70
     1
102
RTVSPropertyOp23
 70
     1
102
RTVSPropertyOp24
 70
     1
102
RTVSPropertyOp25
 70
     1
102
RTVSPropertyOp26
 70
     1
102
RTVSPropertyOp27
 70
     1
102
RTVSPropertyOp28
 70
     1
102
RTVSPropertyOp29
 70
     1
102
RTVSPropertyOp30
 70
     1
102
RTVSPropertyOp31
 70
     1
102
RTVSPropertyOp32
 70
     1
102
RTVSPropertyOp33
 70
     1
102
RTVSPropertyOp34
 70
     1
102
RTVSPropertyOp35
 70
     1
102
RTVSPropertyOp36
 70
     1
102
RTVSPropertyOp37
 70
     1
102
RTVSPropertyOp38
 70
     1
102
RTVSPropertyOp39
 70
     1
102
RTVSPropertyOp40
 70
     1
102
RTVSPropertyOp41
 70
     1
102
RTVSPropertyOp42
 70
     1
102
RTVSPropertyOp43
 70
     1
102
RTVSPropertyOp44
 70
     1
102
RTVSPropertyOp45
 70
     1
102
RTVSPropertyOp46
 70
     1
102
RTVSPropertyOp47
 70
     1
102
RTVSPropertyOp48
 70
     1
102
RTVSPropertyOp49
 70
     1
102
RTVSPropertyOp50
 70
     1
102
RTVSPropertyOp51
 70
     0
102
RTVSPropertyOp52
 70
     0
102
RTVSPropertyOp53
 70
     1
102
RTVSPropertyOp54
 70
     1
102
RTVSPropertyOp55
 70
     1
102
RTVSPropertyOp56
 70
     1
102
RTVSPropertyOp57
 70
     1
102
RTVSPropertyOp58
 70
     1
102
RTVSPropertyOp59
 70
     1
102
RTVSPropertyOp60
 70
     1
102
RTVSPropertyOp61
 70
     1
102
RTVSPropertyOp62
 70
     1
  0
XRECORD
  5
873F
102
{ACAD_REACTORS
330
873E
102
}
330
873E
100
AcDbXrecord
280
     1
102
RTVSPost2010Prop28
280
     0
102
RTVSPost2010PropOp28
 70
     1
102
RTVSPost2010Prop29
280
     1
102
RTVSPost2010PropOp29
 70
     1
102
RTVSPost2010Prop30
280
     1
102
RTVSPost2010PropOp30
 70
     1
102
RTVSPost2010Prop31
280
     0
102
RTVSPost2010PropOp31
 70
     1
102
RTVSPost2010Prop32
280
     0
102
RTVSPost2010PropOp32
 70
     1
102
RTVSPost2010Prop33
280
     0
102
RTVSPost2010PropOp33
 70
     1
102
RTVSPost2010Prop34
280
     0
102
RTVSPost2010PropOp34
 70
     1
102
RTVSPost2010Prop35
280
     0
102
RTVSPost2010PropOp35
 70
     1
102
RTVSPost2010Prop36
280
     0
102
RTVSPost2010PropOp36
 70
     1
102
RTVSPost2010Prop37
 90
       50
102
RTVSPost2010PropOp37
 70
     1
102
RTVSPost2010Prop38
140
0.0
102
RTVSPost2010PropOp38
 70
     1
102
RTVSPost2010Prop39
140
1.0
102
RTVSPost2010PropOp39
 70
     1
102
RTVSPost2010Prop40
 90
        0
102
RTVSPost2010PropOp40
 70
     1
102
RTVSPost2010Prop41ColorIndex
 90
       18
102
RTVSPost2010Prop41ColorRGB
 90
        0
102
RTVSPost2010PropOp41
 70
     1
102
RTVSPost2010Prop42
 90
       50
102
RTVSPost2010PropOp42
 70
     1
102
RTVSPost2010Prop43
 90
        3
102
RTVSPost2010PropOp43
 70
     1
102
RTVSPost2010Prop44ColorIndex
 90
        5
102
RTVSPost2010Prop44ColorRGB
 90
      255
102
RTVSPost2010PropOp44
 70
     1
102
RTVSPost2010Prop45
280
     0
102
RTVSPost2010PropOp45
 70
     1
102
RTVSPost2010Prop46
 90
       50
102
RTVSPost2010PropOp46
 70
     1
102
RTVSPost2010Prop47
 90
       50
102
RTVSPost2010PropOp47
 70
     1
102
RTVSPost2010Prop48
 90
       50
102
RTVSPost2010PropOp48
 70
     1
102
RTVSPost2010Prop49
280
     0
102
RTVSPost2010PropOp49
 70
     1
102
RTVSPost2010Prop50
 90
       50
102
RTVSPost2010PropOp50
 70
     1
102
RTVSPost2010Prop51ColorIndex
 90
      256
102
RTVSPost2010Prop51ColorRGB
 90
-16777216
102
RTVSPost2010PropOp51
 70
     0
102
RTVSPost2010Prop52
140
1.0
102
RTVSPost2010PropOp52
 70
     0
102
RTVSPost2010Prop53
 90
        2
102
RTVSPost2010PropOp53
 70
     1
102
RTVSPost2010Prop54
  1
strokes_ogs.tif
102
RTVSPost2010PropOp54
 70
     1
102
RTVSPost2010Prop55
280
     0
102
RTVSPost2010PropOp55
 70
     1
102
RTVSPost2010Prop56
140
1.0
102
RTVSPost2010PropOp56
 70
     1
102
RTVSPost2010Prop57
140
1.0
102
RTVSPost2010PropOp57
 70
     1
102
RTVSPropertyOp0
 70
     1
102
RTVSPropertyOp1
 70
     1
102
RTVSPropertyOp2
 70
     1
102
RTVSPropertyOp3
 70
     1
102
RTVSPropertyOp4
 70
     1
102
RTVSPropertyOp5
 70
     1
102
RTVSPropertyOp6
 70
     1
102
RTVSPropertyOp7
 70
     1
102
RTVSPropertyOp8
 70
     1
102
RTVSPropertyOp9
 70
     1
102
RTVSPropertyOp10
 70
     1
102
RTVSPropertyOp11
 70
     1
102
RTVSPropertyOp12
 70
     1
102
RTVSPropertyOp13
 70
     1
102
RTVSPropertyOp14
 70
     1
102
RTVSPropertyOp15
 70
     1
102
RTVSPropertyOp16
 70
     1
102
RTVSPropertyOp17
 70
     1
102
RTVSPropertyOp18
 70
     1
102
RTVSPropertyOp19
 70
     1
102
RTVSPropertyOp20
 70
     1
102
RTVSPropertyOp21
 70
     1
102
RTVSPropertyOp22
 70
     1
102
RTVSPropertyOp23
 70
     1
102
RTVSPropertyOp24
 70
     1
102
RTVSPropertyOp25
 70
     1
102
RTVSPropertyOp26
 70
     1
102
RTVSPropertyOp27
 70
     1
102
RTVSPropertyOp28
 70
     1
102
RTVSPropertyOp29
 70
     1
102
RTVSPropertyOp30
 70
     1
102
RTVSPropertyOp31
 70
     1
102
RTVSPropertyOp32
 70
     1
102
RTVSPropertyOp33
 70
     1
102
RTVSPropertyOp34
 70
     1
102
RTVSPropertyOp35
 70
     1
102
RTVSPropertyOp36
 70
     1
102
RTVSPropertyOp37
 70
     1
102
RTVSPropertyOp38
 70
     1
102
RTVSPropertyOp39
 70
     1
102
RTVSPropertyOp40
 70
     1
102
RTVSPropertyOp41
 70
     1
102
RTVSPropertyOp42
 70
     1
102
RTVSPropertyOp43
 70
     1
102
RTVSPropertyOp44
 70
     1
102
RTVSPropertyOp45
 70
     1
102
RTVSPropertyOp46
 70
     1
102
RTVSPropertyOp47
 70
     1
102
RTVSPropertyOp48
 70
     1
102
RTVSPropertyOp49
 70
     1
102
RTVSPropertyOp50
 70
     1
102
RTVSPropertyOp51
 70
     0
102
RTVSPropertyOp52
 70
     0
102
RTVSPropertyOp53
 70
     1
102
RTVSPropertyOp54
 70
     1
102
RTVSPropertyOp55
 70
     1
102
RTVSPropertyOp56
 70
     1
102
RTVSPropertyOp57
 70
     1
102
RTVSPropertyOp58
 70
     1
102
RTVSPropertyOp59
 70
     1
102
RTVSPropertyOp60
 70
     1
102
RTVSPropertyOp61
 70
     1
102
RTVSPropertyOp62
 70
     1
  0
XRECORD
  5
8741
102
{ACAD_REACTORS
330
8740
102
}
330
8740
100
AcDbXrecord
280
     1
102
RTVSPost2010Prop28
280
     0
102
RTVSPost2010PropOp28
 70
     1
102
RTVSPost2010Prop29
280
     1
102
RTVSPost2010PropOp29
 70
     1
102
RTVSPost2010Prop30
280
     1
102
RTVSPost2010PropOp30
 70
     1
102
RTVSPost2010Prop31
280
     0
102
RTVSPost2010PropOp31
 70
     1
102
RTVSPost2010Prop32
280
     0
102
RTVSPost2010PropOp32
 70
     1
102
RTVSPost2010Prop33
280
     0
102
RTVSPost2010PropOp33
 70
     1
102
RTVSPost2010Prop34
280
     0
102
RTVSPost2010PropOp34
 70
     1
102
RTVSPost2010Prop35
280
     0
102
RTVSPost2010PropOp35
 70
     1
102
RTVSPost2010Prop36
280
     0
102
RTVSPost2010PropOp36
 70
     1
102
RTVSPost2010Prop37
 90
       50
102
RTVSPost2010PropOp37
 70
     1
102
RTVSPost2010Prop38
140
0.0
102
RTVSPost2010PropOp38
 70
     1
102
RTVSPost2010Prop39
140
1.0
102
RTVSPost2010PropOp39
 70
     1
102
RTVSPost2010Prop40
 90
        0
102
RTVSPost2010PropOp40
 70
     1
102
RTVSPost2010Prop41ColorIndex
 90
       18
102
RTVSPost2010Prop41ColorRGB
 90
        0
102
RTVSPost2010PropOp41
 70
     1
102
RTVSPost2010Prop42
 90
       50
102
RTVSPost2010PropOp42
 70
     1
102
RTVSPost2010Prop43
 90
        3
102
RTVSPost2010PropOp43
 70
     1
102
RTVSPost2010Prop44ColorIndex
 90
        5
102
RTVSPost2010Prop44ColorRGB
 90
      255
102
RTVSPost2010PropOp44
 70
     1
102
RTVSPost2010Prop45
280
     0
102
RTVSPost2010PropOp45
 70
     1
102
RTVSPost2010Prop46
 90
       50
102
RTVSPost2010PropOp46
 70
     1
102
RTVSPost2010Prop47
 90
       50
102
RTVSPost2010PropOp47
 70
     1
102
RTVSPost2010Prop48
 90
       50
102
RTVSPost2010PropOp48
 70
     1
102
RTVSPost2010Prop49
280
     0
102
RTVSPost2010PropOp49
 70
     1
102
RTVSPost2010Prop50
 90
       50
102
RTVSPost2010PropOp50
 70
     1
102
RTVSPost2010Prop51ColorIndex
 90
      256
102
RTVSPost2010Prop51ColorRGB
 90
-16777216
102
RTVSPost2010PropOp51
 70
     0
102
RTVSPost2010Prop52
140
1.0
102
RTVSPost2010PropOp52
 70
     0
102
RTVSPost2010Prop53
 90
        2
102
RTVSPost2010PropOp53
 70
     1
102
RTVSPost2010Prop54
  1
strokes_ogs.tif
102
RTVSPost2010PropOp54
 70
     1
102
RTVSPost2010Prop55
280
     0
102
RTVSPost2010PropOp55
 70
     1
102
RTVSPost2010Prop56
140
1.0
102
RTVSPost2010PropOp56
 70
     1
102
RTVSPost2010Prop57
140
1.0
102
RTVSPost2010PropOp57
 70
     1
102
RTVSPropertyOp0
 70
     1
102
RTVSPropertyOp1
 70
     1
102
RTVSPropertyOp2
 70
     1
102
RTVSPropertyOp3
 70
     1
102
RTVSPropertyOp4
 70
     1
102
RTVSPropertyOp5
 70
     1
102
RTVSPropertyOp6
 70
     1
102
RTVSPropertyOp7
 70
     1
102
RTVSPropertyOp8
 70
     1
102
RTVSPropertyOp9
 70
     1
102
RTVSPropertyOp10
 70
     1
102
RTVSPropertyOp11
 70
     1
102
RTVSPropertyOp12
 70
     1
102
RTVSPropertyOp13
 70
     1
102
RTVSPropertyOp14
 70
     1
102
RTVSPropertyOp15
 70
     1
102
RTVSPropertyOp16
 70
     1
102
RTVSPropertyOp17
 70
     1
102
RTVSPropertyOp18
 70
     1
102
RTVSPropertyOp19
 70
     1
102
RTVSPropertyOp20
 70
     1
102
RTVSPropertyOp21
 70
     1
102
RTVSPropertyOp22
 70
     1
102
RTVSPropertyOp23
 70
     1
102
RTVSPropertyOp24
 70
     1
102
RTVSPropertyOp25
 70
     1
102
RTVSPropertyOp26
 70
     1
102
RTVSPropertyOp27
 70
     1
102
RTVSPropertyOp28
 70
     1
102
RTVSPropertyOp29
 70
     1
102
RTVSPropertyOp30
 70
     1
102
RTVSPropertyOp31
 70
     1
102
RTVSPropertyOp32
 70
     1
102
RTVSPropertyOp33
 70
     1
102
RTVSPropertyOp34
 70
     1
102
RTVSPropertyOp35
 70
     1
102
RTVSPropertyOp36
 70
     1
102
RTVSPropertyOp37
 70
     1
102
RTVSPropertyOp38
 70
     1
102
RTVSPropertyOp39
 70
     1
102
RTVSPropertyOp40
 70
     1
102
RTVSPropertyOp41
 70
     1
102
RTVSPropertyOp42
 70
     1
102
RTVSPropertyOp43
 70
     1
102
RTVSPropertyOp44
 70
     1
102
RTVSPropertyOp45
 70
     1
102
RTVSPropertyOp46
 70
     1
102
RTVSPropertyOp47
 70
     1
102
RTVSPropertyOp48
 70
     1
102
RTVSPropertyOp49
 70
     1
102
RTVSPropertyOp50
 70
     1
102
RTVSPropertyOp51
 70
     0
102
RTVSPropertyOp52
 70
     0
102
RTVSPropertyOp53
 70
     1
102
RTVSPropertyOp54
 70
     1
102
RTVSPropertyOp55
 70
     1
102
RTVSPropertyOp56
 70
     1
102
RTVSPropertyOp57
 70
     1
102
RTVSPropertyOp58
 70
     1
102
RTVSPropertyOp59
 70
     1
102
RTVSPropertyOp60
 70
     1
102
RTVSPropertyOp61
 70
     1
102
RTVSPropertyOp62
 70
     1
  0
XRECORD
  5
8743
102
{ACAD_REACTORS
330
8742
102
}
330
8742
100
AcDbXrecord
280
     1
102
RTVSPost2010Prop28
280
     0
102
RTVSPost2010PropOp28
 70
     1
102
RTVSPost2010Prop29
280
     1
102
RTVSPost2010PropOp29
 70
     1
102
RTVSPost2010Prop30
280
     1
102
RTVSPost2010PropOp30
 70
     1
102
RTVSPost2010Prop31
280
     0
102
RTVSPost2010PropOp31
 70
     1
102
RTVSPost2010Prop32
280
     0
102
RTVSPost2010PropOp32
 70
     1
102
RTVSPost2010Prop33
280
     0
102
RTVSPost2010PropOp33
 70
     1
102
RTVSPost2010Prop34
280
     0
102
RTVSPost2010PropOp34
 70
     1
102
RTVSPost2010Prop35
280
     0
102
RTVSPost2010PropOp35
 70
     1
102
RTVSPost2010Prop36
280
     0
102
RTVSPost2010PropOp36
 70
     1
102
RTVSPost2010Prop37
 90
       50
102
RTVSPost2010PropOp37
 70
     1
102
RTVSPost2010Prop38
140
0.0
102
RTVSPost2010PropOp38
 70
     1
102
RTVSPost2010Prop39
140
1.0
102
RTVSPost2010PropOp39
 70
     1
102
RTVSPost2010Prop40
 90
        0
102
RTVSPost2010PropOp40
 70
     1
102
RTVSPost2010Prop41ColorIndex
 90
       18
102
RTVSPost2010Prop41ColorRGB
 90
        0
102
RTVSPost2010PropOp41
 70
     1
102
RTVSPost2010Prop42
 90
       50
102
RTVSPost2010PropOp42
 70
     1
102
RTVSPost2010Prop43
 90
        3
102
RTVSPost2010PropOp43
 70
     1
102
RTVSPost2010Prop44ColorIndex
 90
        5
102
RTVSPost2010Prop44ColorRGB
 90
      255
102
RTVSPost2010PropOp44
 70
     1
102
RTVSPost2010Prop45
280
     0
102
RTVSPost2010PropOp45
 70
     1
102
RTVSPost2010Prop46
 90
       50
102
RTVSPost2010PropOp46
 70
     1
102
RTVSPost2010Prop47
 90
       50
102
RTVSPost2010PropOp47
 70
     1
102
RTVSPost2010Prop48
 90
       50
102
RTVSPost2010PropOp48
 70
     1
102
RTVSPost2010Prop49
280
     0
102
RTVSPost2010PropOp49
 70
     1
102
RTVSPost2010Prop50
 90
       50
102
RTVSPost2010PropOp50
 70
     1
102
RTVSPost2010Prop51ColorIndex
 90
      256
102
RTVSPost2010Prop51ColorRGB
 90
-16777216
102
RTVSPost2010PropOp51
 70
     0
102
RTVSPost2010Prop52
140
1.0
102
RTVSPost2010PropOp52
 70
     0
102
RTVSPost2010Prop53
 90
        2
102
RTVSPost2010PropOp53
 70
     1
102
RTVSPost2010Prop54
  1
strokes_ogs.tif
102
RTVSPost2010PropOp54
 70
     1
102
RTVSPost2010Prop55
280
     0
102
RTVSPost2010PropOp55
 70
     1
102
RTVSPost2010Prop56
140
1.0
102
RTVSPost2010PropOp56
 70
     1
102
RTVSPost2010Prop57
140
1.0
102
RTVSPost2010PropOp57
 70
     1
102
RTVSPropertyOp0
 70
     1
102
RTVSPropertyOp1
 70
     1
102
RTVSPropertyOp2
 70
     1
102
RTVSPropertyOp3
 70
     1
102
RTVSPropertyOp4
 70
     1
102
RTVSPropertyOp5
 70
     1
102
RTVSPropertyOp6
 70
     1
102
RTVSPropertyOp7
 70
     1
102
RTVSPropertyOp8
 70
     1
102
RTVSPropertyOp9
 70
     1
102
RTVSPropertyOp10
 70
     1
102
RTVSPropertyOp11
 70
     1
102
RTVSPropertyOp12
 70
     1
102
RTVSPropertyOp13
 70
     1
102
RTVSPropertyOp14
 70
     1
102
RTVSPropertyOp15
 70
     1
102
RTVSPropertyOp16
 70
     1
102
RTVSPropertyOp17
 70
     1
102
RTVSPropertyOp18
 70
     1
102
RTVSPropertyOp19
 70
     1
102
RTVSPropertyOp20
 70
     1
102
RTVSPropertyOp21
 70
     1
102
RTVSPropertyOp22
 70
     1
102
RTVSPropertyOp23
 70
     1
102
RTVSPropertyOp24
 70
     1
102
RTVSPropertyOp25
 70
     1
102
RTVSPropertyOp26
 70
     1
102
RTVSPropertyOp27
 70
     1
102
RTVSPropertyOp28
 70
     1
102
RTVSPropertyOp29
 70
     1
102
RTVSPropertyOp30
 70
     1
102
RTVSPropertyOp31
 70
     1
102
RTVSPropertyOp32
 70
     1
102
RTVSPropertyOp33
 70
     1
102
RTVSPropertyOp34
 70
     1
102
RTVSPropertyOp35
 70
     1
102
RTVSPropertyOp36
 70
     1
102
RTVSPropertyOp37
 70
     1
102
RTVSPropertyOp38
 70
     1
102
RTVSPropertyOp39
 70
     1
102
RTVSPropertyOp40
 70
     1
102
RTVSPropertyOp41
 70
     1
102
RTVSPropertyOp42
 70
     1
102
RTVSPropertyOp43
 70
     1
102
RTVSPropertyOp44
 70
     1
102
RTVSPropertyOp45
 70
     1
102
RTVSPropertyOp46
 70
     1
102
RTVSPropertyOp47
 70
     1
102
RTVSPropertyOp48
 70
     1
102
RTVSPropertyOp49
 70
     1
102
RTVSPropertyOp50
 70
     1
102
RTVSPropertyOp51
 70
     0
102
RTVSPropertyOp52
 70
     0
102
RTVSPropertyOp53
 70
     1
102
RTVSPropertyOp54
 70
     1
102
RTVSPropertyOp55
 70
     1
102
RTVSPropertyOp56
 70
     1
102
RTVSPropertyOp57
 70
     1
102
RTVSPropertyOp58
 70
     1
102
RTVSPropertyOp59
 70
     1
102
RTVSPropertyOp60
 70
     1
102
RTVSPropertyOp61
 70
     1
102
RTVSPropertyOp62
 70
     1
  0
XRECORD
  5
874B
102
{ACAD_REACTORS
330
874A
102
}
330
874A
100
AcDbXrecord
280
     1
102
RTVSPost2010Prop28
280
     0
102
RTVSPost2010PropOp28
 70
     1
102
RTVSPost2010Prop29
280
     1
102
RTVSPost2010PropOp29
 70
     1
102
RTVSPost2010Prop30
280
     1
102
RTVSPost2010PropOp30
 70
     1
102
RTVSPost2010Prop31
280
     0
102
RTVSPost2010PropOp31
 70
     1
102
RTVSPost2010Prop32
280
     0
102
RTVSPost2010PropOp32
 70
     1
102
RTVSPost2010Prop33
280
     0
102
RTVSPost2010PropOp33
 70
     1
102
RTVSPost2010Prop34
280
     0
102
RTVSPost2010PropOp34
 70
     1
102
RTVSPost2010Prop35
280
     0
102
RTVSPost2010PropOp35
 70
     1
102
RTVSPost2010Prop36
280
     0
102
RTVSPost2010PropOp36
 70
     1
102
RTVSPost2010Prop37
 90
       50
102
RTVSPost2010PropOp37
 70
     1
102
RTVSPost2010Prop38
140
0.0
102
RTVSPost2010PropOp38
 70
     1
102
RTVSPost2010Prop39
140
1.0
102
RTVSPost2010PropOp39
 70
     1
102
RTVSPost2010Prop40
 90
        0
102
RTVSPost2010PropOp40
 70
     1
102
RTVSPost2010Prop41ColorIndex
 90
       18
102
RTVSPost2010Prop41ColorRGB
 90
        0
102
RTVSPost2010PropOp41
 70
     1
102
RTVSPost2010Prop42
 90
       50
102
RTVSPost2010PropOp42
 70
     1
102
RTVSPost2010Prop43
 90
        3
102
RTVSPost2010PropOp43
 70
     1
102
RTVSPost2010Prop44ColorIndex
 90
        5
102
RTVSPost2010Prop44ColorRGB
 90
      255
102
RTVSPost2010PropOp44
 70
     1
102
RTVSPost2010Prop45
280
     0
102
RTVSPost2010PropOp45
 70
     1
102
RTVSPost2010Prop46
 90
       50
102
RTVSPost2010PropOp46
 70
     1
102
RTVSPost2010Prop47
 90
       50
102
RTVSPost2010PropOp47
 70
     1
102
RTVSPost2010Prop48
 90
       50
102
RTVSPost2010PropOp48
 70
     1
102
RTVSPost2010Prop49
280
     0
102
RTVSPost2010PropOp49
 70
     1
102
RTVSPost2010Prop50
 90
       50
102
RTVSPost2010PropOp50
 70
     1
102
RTVSPost2010Prop51ColorIndex
 90
      256
102
RTVSPost2010Prop51ColorRGB
 90
-16777216
102
RTVSPost2010PropOp51
 70
     0
102
RTVSPost2010Prop52
140
1.0
102
RTVSPost2010PropOp52
 70
     0
102
RTVSPost2010Prop53
 90
        2
102
RTVSPost2010PropOp53
 70
     1
102
RTVSPost2010Prop54
  1
strokes_ogs.tif
102
RTVSPost2010PropOp54
 70
     1
102
RTVSPost2010Prop55
280
     0
102
RTVSPost2010PropOp55
 70
     1
102
RTVSPost2010Prop56
140
1.0
102
RTVSPost2010PropOp56
 70
     1
102
RTVSPost2010Prop57
140
1.0
102
RTVSPost2010PropOp57
 70
     1
102
RTVSPropertyOp0
 70
     1
102
RTVSPropertyOp1
 70
     1
102
RTVSPropertyOp2
 70
     1
102
RTVSPropertyOp3
 70
     1
102
RTVSPropertyOp4
 70
     1
102
RTVSPropertyOp5
 70
     1
102
RTVSPropertyOp6
 70
     1
102
RTVSPropertyOp7
 70
     1
102
RTVSPropertyOp8
 70
     1
102
RTVSPropertyOp9
 70
     1
102
RTVSPropertyOp10
 70
     1
102
RTVSPropertyOp11
 70
     1
102
RTVSPropertyOp12
 70
     1
102
RTVSPropertyOp13
 70
     1
102
RTVSPropertyOp14
 70
     1
102
RTVSPropertyOp15
 70
     1
102
RTVSPropertyOp16
 70
     1
102
RTVSPropertyOp17
 70
     1
102
RTVSPropertyOp18
 70
     1
102
RTVSPropertyOp19
 70
     1
102
RTVSPropertyOp20
 70
     1
102
RTVSPropertyOp21
 70
     1
102
RTVSPropertyOp22
 70
     1
102
RTVSPropertyOp23
 70
     1
102
RTVSPropertyOp24
 70
     1
102
RTVSPropertyOp25
 70
     1
102
RTVSPropertyOp26
 70
     1
102
RTVSPropertyOp27
 70
     1
102
RTVSPropertyOp28
 70
     1
102
RTVSPropertyOp29
 70
     1
102
RTVSPropertyOp30
 70
     1
102
RTVSPropertyOp31
 70
     1
102
RTVSPropertyOp32
 70
     1
102
RTVSPropertyOp33
 70
     1
102
RTVSPropertyOp34
 70
     1
102
RTVSPropertyOp35
 70
     1
102
RTVSPropertyOp36
 70
     1
102
RTVSPropertyOp37
 70
     1
102
RTVSPropertyOp38
 70
     1
102
RTVSPropertyOp39
 70
     1
102
RTVSPropertyOp40
 70
     1
102
RTVSPropertyOp41
 70
     1
102
RTVSPropertyOp42
 70
     1
102
RTVSPropertyOp43
 70
     1
102
RTVSPropertyOp44
 70
     1
102
RTVSPropertyOp45
 70
     1
102
RTVSPropertyOp46
 70
     1
102
RTVSPropertyOp47
 70
     1
102
RTVSPropertyOp48
 70
     1
102
RTVSPropertyOp49
 70
     1
102
RTVSPropertyOp50
 70
     1
102
RTVSPropertyOp51
 70
     0
102
RTVSPropertyOp52
 70
     0
102
RTVSPropertyOp53
 70
     1
102
RTVSPropertyOp54
 70
     1
102
RTVSPropertyOp55
 70
     1
102
RTVSPropertyOp56
 70
     1
102
RTVSPropertyOp57
 70
     1
102
RTVSPropertyOp58
 70
     1
102
RTVSPropertyOp59
 70
     1
102
RTVSPropertyOp60
 70
     1
102
RTVSPropertyOp61
 70
     1
102
RTVSPropertyOp62
 70
     1
  0
XRECORD
  5
8767
102
{ACAD_REACTORS
330
8766
102
}
330
8766
100
AcDbXrecord
280
     1
102
RTVSPost2010Prop28
280
     0
102
RTVSPost2010PropOp28
 70
     1
102
RTVSPost2010Prop29
280
     1
102
RTVSPost2010PropOp29
 70
     1
102
RTVSPost2010Prop30
280
     1
102
RTVSPost2010PropOp30
 70
     1
102
RTVSPost2010Prop31
280
     0
102
RTVSPost2010PropOp31
 70
     1
102
RTVSPost2010Prop32
280
     0
102
RTVSPost2010PropOp32
 70
     1
102
RTVSPost2010Prop33
280
     0
102
RTVSPost2010PropOp33
 70
     1
102
RTVSPost2010Prop34
280
     0
102
RTVSPost2010PropOp34
 70
     1
102
RTVSPost2010Prop35
280
     0
102
RTVSPost2010PropOp35
 70
     1
102
RTVSPost2010Prop36
280
     0
102
RTVSPost2010PropOp36
 70
     1
102
RTVSPost2010Prop37
 90
       50
102
RTVSPost2010PropOp37
 70
     0
102
RTVSPost2010Prop38
140
0.0
102
RTVSPost2010PropOp38
 70
     0
102
RTVSPost2010Prop39
140
1.0
102
RTVSPost2010PropOp39
 70
     0
102
RTVSPost2010Prop40
 90
        0
102
RTVSPost2010PropOp40
 70
     0
102
RTVSPost2010Prop41ColorIndex
 90
       18
102
RTVSPost2010Prop41ColorRGB
 90
        0
102
RTVSPost2010PropOp41
 70
     0
102
RTVSPost2010Prop42
 90
       50
102
RTVSPost2010PropOp42
 70
     0
102
RTVSPost2010Prop43
 90
        3
102
RTVSPost2010PropOp43
 70
     0
102
RTVSPost2010Prop44ColorIndex
 90
        5
102
RTVSPost2010Prop44ColorRGB
 90
      255
102
RTVSPost2010PropOp44
 70
     0
102
RTVSPost2010Prop45
280
     0
102
RTVSPost2010PropOp45
 70
     1
102
RTVSPost2010Prop46
 90
       50
102
RTVSPost2010PropOp46
 70
     0
102
RTVSPost2010Prop47
 90
       50
102
RTVSPost2010PropOp47
 70
     0
102
RTVSPost2010Prop48
 90
       50
102
RTVSPost2010PropOp48
 70
     0
102
RTVSPost2010Prop49
280
     0
102
RTVSPost2010PropOp49
 70
     1
102
RTVSPost2010Prop50
 90
       50
102
RTVSPost2010PropOp50
 70
     0
102
RTVSPost2010Prop51ColorIndex
 90
      256
102
RTVSPost2010Prop51ColorRGB
 90
-16777216
102
RTVSPost2010PropOp51
 70
     0
102
RTVSPost2010Prop52
140
1.0
102
RTVSPost2010PropOp52
 70
     0
102
RTVSPost2010Prop53
 90
        2
102
RTVSPost2010PropOp53
 70
     0
102
RTVSPost2010Prop54
  1
strokes_ogs.tif
102
RTVSPost2010PropOp54
 70
     0
102
RTVSPost2010Prop55
280
     0
102
RTVSPost2010PropOp55
 70
     1
102
RTVSPost2010Prop56
140
1.0
102
RTVSPost2010PropOp56
 70
     0
102
RTVSPost2010Prop57
140
1.0
102
RTVSPost2010PropOp57
 70
     0
102
RTVSPropertyOp0
 70
     0
102
RTVSPropertyOp1
 70
     0
102
RTVSPropertyOp2
 70
     0
102
RTVSPropertyOp3
 70
     0
102
RTVSPropertyOp4
 70
     0
102
RTVSPropertyOp5
 70
     0
102
RTVSPropertyOp6
 70
     0
102
RTVSPropertyOp7
 70
     0
102
RTVSPropertyOp8
 70
     0
102
RTVSPropertyOp9
 70
     0
102
RTVSPropertyOp10
 70
     0
102
RTVSPropertyOp11
 70
     0
102
RTVSPropertyOp12
 70
     0
102
RTVSPropertyOp13
 70
     0
102
RTVSPropertyOp14
 70
     2
102
RTVSPropertyOp15
 70
     0
102
RTVSPropertyOp16
 70
     0
102
RTVSPropertyOp17
 70
     0
102
RTVSPropertyOp18
 70
     0
102
RTVSPropertyOp19
 70
     0
102
RTVSPropertyOp20
 70
     0
102
RTVSPropertyOp21
 70
     0
102
RTVSPropertyOp22
 70
     0
102
RTVSPropertyOp23
 70
     0
102
RTVSPropertyOp24
 70
     0
102
RTVSPropertyOp25
 70
     0
102
RTVSPropertyOp26
 70
     0
102
RTVSPropertyOp27
 70
     0
102
RTVSPropertyOp28
 70
     1
102
RTVSPropertyOp29
 70
     1
102
RTVSPropertyOp30
 70
     1
102
RTVSPropertyOp31
 70
     1
102
RTVSPropertyOp32
 70
     1
102
RTVSPropertyOp33
 70
     1
102
RTVSPropertyOp34
 70
     1
102
RTVSPropertyOp35
 70
     1
102
RTVSPropertyOp36
 70
     1
102
RTVSPropertyOp37
 70
     0
102
RTVSPropertyOp38
 70
     0
102
RTVSPropertyOp39
 70
     0
102
RTVSPropertyOp40
 70
     0
102
RTVSPropertyOp41
 70
     0
102
RTVSPropertyOp42
 70
     0
102
RTVSPropertyOp43
 70
     0
102
RTVSPropertyOp44
 70
     0
102
RTVSPropertyOp45
 70
     1
102
RTVSPropertyOp46
 70
     0
102
RTVSPropertyOp47
 70
     0
102
RTVSPropertyOp48
 70
     0
102
RTVSPropertyOp49
 70
     1
102
RTVSPropertyOp50
 70
     0
102
RTVSPropertyOp51
 70
     0
102
RTVSPropertyOp52
 70
     0
102
RTVSPropertyOp53
 70
     0
102
RTVSPropertyOp54
 70
     0
102
RTVSPropertyOp55
 70
     1
102
RTVSPropertyOp56
 70
     0
102
RTVSPropertyOp57
 70
     0
102
RTVSPropertyOp58
 70
     0
102
RTVSPropertyOp59
 70
     0
102
RTVSPropertyOp60
 70
     0
102
RTVSPropertyOp61
 70
     0
102
RTVSPropertyOp62
 70
     0
  0
XRECORD
  5
8757
102
{ACAD_REACTORS
330
8756
102
}
330
8756
100
AcDbXrecord
280
     1
102
RTVSPost2010Prop28
280
     0
102
RTVSPost2010PropOp28
 70
     1
102
RTVSPost2010Prop29
280
     1
102
RTVSPost2010PropOp29
 70
     1
102
RTVSPost2010Prop30
280
     1
102
RTVSPost2010PropOp30
 70
     1
102
RTVSPost2010Prop31
280
     0
102
RTVSPost2010PropOp31
 70
     1
102
RTVSPost2010Prop32
280
     0
102
RTVSPost2010PropOp32
 70
     1
102
RTVSPost2010Prop33
280
     0
102
RTVSPost2010PropOp33
 70
     1
102
RTVSPost2010Prop34
280
     0
102
RTVSPost2010PropOp34
 70
     1
102
RTVSPost2010Prop35
280
     0
102
RTVSPost2010PropOp35
 70
     1
102
RTVSPost2010Prop36
280
     0
102
RTVSPost2010PropOp36
 70
     1
102
RTVSPost2010Prop37
 90
       50
102
RTVSPost2010PropOp37
 70
     1
102
RTVSPost2010Prop38
140
0.0
102
RTVSPost2010PropOp38
 70
     1
102
RTVSPost2010Prop39
140
1.0
102
RTVSPost2010PropOp39
 70
     1
102
RTVSPost2010Prop40
 90
        0
102
RTVSPost2010PropOp40
 70
     1
102
RTVSPost2010Prop41ColorIndex
 90
       18
102
RTVSPost2010Prop41ColorRGB
 90
        0
102
RTVSPost2010PropOp41
 70
     1
102
RTVSPost2010Prop42
 90
       50
102
RTVSPost2010PropOp42
 70
     1
102
RTVSPost2010Prop43
 90
        3
102
RTVSPost2010PropOp43
 70
     1
102
RTVSPost2010Prop44ColorIndex
 90
        5
102
RTVSPost2010Prop44ColorRGB
 90
      255
102
RTVSPost2010PropOp44
 70
     1
102
RTVSPost2010Prop45
280
     0
102
RTVSPost2010PropOp45
 70
     1
102
RTVSPost2010Prop46
 90
       50
102
RTVSPost2010PropOp46
 70
     1
102
RTVSPost2010Prop47
 90
       50
102
RTVSPost2010PropOp47
 70
     1
102
RTVSPost2010Prop48
 90
       50
102
RTVSPost2010PropOp48
 70
     1
102
RTVSPost2010Prop49
280
     0
102
RTVSPost2010PropOp49
 70
     1
102
RTVSPost2010Prop50
 90
       50
102
RTVSPost2010PropOp50
 70
     1
102
RTVSPost2010Prop51ColorIndex
 90
      256
102
RTVSPost2010Prop51ColorRGB
 90
-16777216
102
RTVSPost2010PropOp51
 70
     0
102
RTVSPost2010Prop52
140
1.0
102
RTVSPost2010PropOp52
 70
     0
102
RTVSPost2010Prop53
 90
        2
102
RTVSPost2010PropOp53
 70
     1
102
RTVSPost2010Prop54
  1
strokes_ogs.tif
102
RTVSPost2010PropOp54
 70
     1
102
RTVSPost2010Prop55
280
     0
102
RTVSPost2010PropOp55
 70
     1
102
RTVSPost2010Prop56
140
1.0
102
RTVSPost2010PropOp56
 70
     1
102
RTVSPost2010Prop57
140
1.0
102
RTVSPost2010PropOp57
 70
     1
102
RTVSPropertyOp0
 70
     1
102
RTVSPropertyOp1
 70
     1
102
RTVSPropertyOp2
 70
     1
102
RTVSPropertyOp3
 70
     1
102
RTVSPropertyOp4
 70
     1
102
RTVSPropertyOp5
 70
     1
102
RTVSPropertyOp6
 70
     1
102
RTVSPropertyOp7
 70
     1
102
RTVSPropertyOp8
 70
     1
102
RTVSPropertyOp9
 70
     1
102
RTVSPropertyOp10
 70
     1
102
RTVSPropertyOp11
 70
     1
102
RTVSPropertyOp12
 70
     1
102
RTVSPropertyOp13
 70
     1
102
RTVSPropertyOp14
 70
     1
102
RTVSPropertyOp15
 70
     1
102
RTVSPropertyOp16
 70
     1
102
RTVSPropertyOp17
 70
     1
102
RTVSPropertyOp18
 70
     1
102
RTVSPropertyOp19
 70
     1
102
RTVSPropertyOp20
 70
     1
102
RTVSPropertyOp21
 70
     1
102
RTVSPropertyOp22
 70
     1
102
RTVSPropertyOp23
 70
     1
102
RTVSPropertyOp24
 70
     1
102
RTVSPropertyOp25
 70
     1
102
RTVSPropertyOp26
 70
     1
102
RTVSPropertyOp27
 70
     1
102
RTVSPropertyOp28
 70
     1
102
RTVSPropertyOp29
 70
     1
102
RTVSPropertyOp30
 70
     1
102
RTVSPropertyOp31
 70
     1
102
RTVSPropertyOp32
 70
     1
102
RTVSPropertyOp33
 70
     1
102
RTVSPropertyOp34
 70
     1
102
RTVSPropertyOp35
 70
     1
102
RTVSPropertyOp36
 70
     1
102
RTVSPropertyOp37
 70
     1
102
RTVSPropertyOp38
 70
     1
102
RTVSPropertyOp39
 70
     1
102
RTVSPropertyOp40
 70
     1
102
RTVSPropertyOp41
 70
     1
102
RTVSPropertyOp42
 70
     1
102
RTVSPropertyOp43
 70
     1
102
RTVSPropertyOp44
 70
     1
102
RTVSPropertyOp45
 70
     1
102
RTVSPropertyOp46
 70
     1
102
RTVSPropertyOp47
 70
     1
102
RTVSPropertyOp48
 70
     1
102
RTVSPropertyOp49
 70
     1
102
RTVSPropertyOp50
 70
     1
102
RTVSPropertyOp51
 70
     0
102
RTVSPropertyOp52
 70
     0
102
RTVSPropertyOp53
 70
     1
102
RTVSPropertyOp54
 70
     1
102
RTVSPropertyOp55
 70
     1
102
RTVSPropertyOp56
 70
     1
102
RTVSPropertyOp57
 70
     1
102
RTVSPropertyOp58
 70
     1
102
RTVSPropertyOp59
 70
     1
102
RTVSPropertyOp60
 70
     1
102
RTVSPropertyOp61
 70
     1
102
RTVSPropertyOp62
 70
     1
  0
XRECORD
  5
8769
102
{ACAD_REACTORS
330
8768
102
}
330
8768
100
AcDbXrecord
280
     1
102
RTVSPost2010Prop28
280
     0
102
RTVSPost2010PropOp28
 70
     1
102
RTVSPost2010Prop29
280
     1
102
RTVSPost2010PropOp29
 70
     1
102
RTVSPost2010Prop30
280
     1
102
RTVSPost2010PropOp30
 70
     1
102
RTVSPost2010Prop31
280
     0
102
RTVSPost2010PropOp31
 70
     1
102
RTVSPost2010Prop32
280
     0
102
RTVSPost2010PropOp32
 70
     1
102
RTVSPost2010Prop33
280
     0
102
RTVSPost2010PropOp33
 70
     1
102
RTVSPost2010Prop34
280
     0
102
RTVSPost2010PropOp34
 70
     1
102
RTVSPost2010Prop35
280
     0
102
RTVSPost2010PropOp35
 70
     1
102
RTVSPost2010Prop36
280
     0
102
RTVSPost2010PropOp36
 70
     1
102
RTVSPost2010Prop37
 90
       50
102
RTVSPost2010PropOp37
 70
     0
102
RTVSPost2010Prop38
140
0.0
102
RTVSPost2010PropOp38
 70
     0
102
RTVSPost2010Prop39
140
1.0
102
RTVSPost2010PropOp39
 70
     0
102
RTVSPost2010Prop40
 90
        0
102
RTVSPost2010PropOp40
 70
     0
102
RTVSPost2010Prop41ColorIndex
 90
       18
102
RTVSPost2010Prop41ColorRGB
 90
        0
102
RTVSPost2010PropOp41
 70
     0
102
RTVSPost2010Prop42
 90
       50
102
RTVSPost2010PropOp42
 70
     0
102
RTVSPost2010Prop43
 90
        3
102
RTVSPost2010PropOp43
 70
     0
102
RTVSPost2010Prop44ColorIndex
 90
        5
102
RTVSPost2010Prop44ColorRGB
 90
      255
102
RTVSPost2010PropOp44
 70
     0
102
RTVSPost2010Prop45
280
     0
102
RTVSPost2010PropOp45
 70
     1
102
RTVSPost2010Prop46
 90
       50
102
RTVSPost2010PropOp46
 70
     0
102
RTVSPost2010Prop47
 90
       50
102
RTVSPost2010PropOp47
 70
     0
102
RTVSPost2010Prop48
 90
       50
102
RTVSPost2010PropOp48
 70
     0
102
RTVSPost2010Prop49
280
     0
102
RTVSPost2010PropOp49
 70
     1
102
RTVSPost2010Prop50
 90
       50
102
RTVSPost2010PropOp50
 70
     0
102
RTVSPost2010Prop51ColorIndex
 90
      256
102
RTVSPost2010Prop51ColorRGB
 90
-16777216
102
RTVSPost2010PropOp51
 70
     0
102
RTVSPost2010Prop52
140
1.0
102
RTVSPost2010PropOp52
 70
     0
102
RTVSPost2010Prop53
 90
        2
102
RTVSPost2010PropOp53
 70
     0
102
RTVSPost2010Prop54
  1
strokes_ogs.tif
102
RTVSPost2010PropOp54
 70
     0
102
RTVSPost2010Prop55
280
     0
102
RTVSPost2010PropOp55
 70
     1
102
RTVSPost2010Prop56
140
1.0
102
RTVSPost2010PropOp56
 70
     0
102
RTVSPost2010Prop57
140
1.0
102
RTVSPost2010PropOp57
 70
     0
102
RTVSPropertyOp0
 70
     0
102
RTVSPropertyOp1
 70
     0
102
RTVSPropertyOp2
 70
     0
102
RTVSPropertyOp3
 70
     0
102
RTVSPropertyOp4
 70
     0
102
RTVSPropertyOp5
 70
     0
102
RTVSPropertyOp6
 70
     0
102
RTVSPropertyOp7
 70
     0
102
RTVSPropertyOp8
 70
     0
102
RTVSPropertyOp9
 70
     0
102
RTVSPropertyOp10
 70
     0
102
RTVSPropertyOp11
 70
     0
102
RTVSPropertyOp12
 70
     0
102
RTVSPropertyOp13
 70
     0
102
RTVSPropertyOp14
 70
     2
102
RTVSPropertyOp15
 70
     0
102
RTVSPropertyOp16
 70
     0
102
RTVSPropertyOp17
 70
     0
102
RTVSPropertyOp18
 70
     0
102
RTVSPropertyOp19
 70
     0
102
RTVSPropertyOp20
 70
     0
102
RTVSPropertyOp21
 70
     0
102
RTVSPropertyOp22
 70
     0
102
RTVSPropertyOp23
 70
     0
102
RTVSPropertyOp24
 70
     0
102
RTVSPropertyOp25
 70
     0
102
RTVSPropertyOp26
 70
     0
102
RTVSPropertyOp27
 70
     0
102
RTVSPropertyOp28
 70
     1
102
RTVSPropertyOp29
 70
     1
102
RTVSPropertyOp30
 70
     1
102
RTVSPropertyOp31
 70
     1
102
RTVSPropertyOp32
 70
     1
102
RTVSPropertyOp33
 70
     1
102
RTVSPropertyOp34
 70
     1
102
RTVSPropertyOp35
 70
     1
102
RTVSPropertyOp36
 70
     1
102
RTVSPropertyOp37
 70
     0
102
RTVSPropertyOp38
 70
     0
102
RTVSPropertyOp39
 70
     0
102
RTVSPropertyOp40
 70
     0
102
RTVSPropertyOp41
 70
     0
102
RTVSPropertyOp42
 70
     0
102
RTVSPropertyOp43
 70
     0
102
RTVSPropertyOp44
 70
     0
102
RTVSPropertyOp45
 70
     1
102
RTVSPropertyOp46
 70
     0
102
RTVSPropertyOp47
 70
     0
102
RTVSPropertyOp48
 70
     0
102
RTVSPropertyOp49
 70
     1
102
RTVSPropertyOp50
 70
     0
102
RTVSPropertyOp51
 70
     0
102
RTVSPropertyOp52
 70
     0
102
RTVSPropertyOp53
 70
     0
102
RTVSPropertyOp54
 70
     0
102
RTVSPropertyOp55
 70
     1
102
RTVSPropertyOp56
 70
     0
102
RTVSPropertyOp57
 70
     0
102
RTVSPropertyOp58
 70
     0
102
RTVSPropertyOp59
 70
     0
102
RTVSPropertyOp60
 70
     0
102
RTVSPropertyOp61
 70
     0
102
RTVSPropertyOp62
 70
     0
  0
XRECORD
  5
874F
102
{ACAD_REACTORS
330
874E
102
}
330
874E
100
AcDbXrecord
280
     1
102
RTVSPost2010Prop28
280
     0
102
RTVSPost2010PropOp28
 70
     1
102
RTVSPost2010Prop29
280
     1
102
RTVSPost2010PropOp29
 70
     1
102
RTVSPost2010Prop30
280
     1
102
RTVSPost2010PropOp30
 70
     1
102
RTVSPost2010Prop31
280
     0
102
RTVSPost2010PropOp31
 70
     1
102
RTVSPost2010Prop32
280
     0
102
RTVSPost2010PropOp32
 70
     1
102
RTVSPost2010Prop33
280
     0
102
RTVSPost2010PropOp33
 70
     1
102
RTVSPost2010Prop34
280
     0
102
RTVSPost2010PropOp34
 70
     1
102
RTVSPost2010Prop35
280
     0
102
RTVSPost2010PropOp35
 70
     1
102
RTVSPost2010Prop36
280
     0
102
RTVSPost2010PropOp36
 70
     1
102
RTVSPost2010Prop37
 90
       50
102
RTVSPost2010PropOp37
 70
     1
102
RTVSPost2010Prop38
140
0.0
102
RTVSPost2010PropOp38
 70
     1
102
RTVSPost2010Prop39
140
1.0
102
RTVSPost2010PropOp39
 70
     1
102
RTVSPost2010Prop40
 90
        0
102
RTVSPost2010PropOp40
 70
     1
102
RTVSPost2010Prop41ColorIndex
 90
       18
102
RTVSPost2010Prop41ColorRGB
 90
        0
102
RTVSPost2010PropOp41
 70
     1
102
RTVSPost2010Prop42
 90
       50
102
RTVSPost2010PropOp42
 70
     1
102
RTVSPost2010Prop43
 90
        3
102
RTVSPost2010PropOp43
 70
     1
102
RTVSPost2010Prop44ColorIndex
 90
        5
102
RTVSPost2010Prop44ColorRGB
 90
      255
102
RTVSPost2010PropOp44
 70
     1
102
RTVSPost2010Prop45
280
     0
102
RTVSPost2010PropOp45
 70
     1
102
RTVSPost2010Prop46
 90
       50
102
RTVSPost2010PropOp46
 70
     1
102
RTVSPost2010Prop47
 90
       50
102
RTVSPost2010PropOp47
 70
     1
102
RTVSPost2010Prop48
 90
       50
102
RTVSPost2010PropOp48
 70
     1
102
RTVSPost2010Prop49
280
     0
102
RTVSPost2010PropOp49
 70
     1
102
RTVSPost2010Prop50
 90
       50
102
RTVSPost2010PropOp50
 70
     1
102
RTVSPost2010Prop51ColorIndex
 90
      256
102
RTVSPost2010Prop51ColorRGB
 90
-16777216
102
RTVSPost2010PropOp51
 70
     0
102
RTVSPost2010Prop52
140
1.0
102
RTVSPost2010PropOp52
 70
     0
102
RTVSPost2010Prop53
 90
        2
102
RTVSPost2010PropOp53
 70
     1
102
RTVSPost2010Prop54
  1
strokes_ogs.tif
102
RTVSPost2010PropOp54
 70
     1
102
RTVSPost2010Prop55
280
     0
102
RTVSPost2010PropOp55
 70
     1
102
RTVSPost2010Prop56
140
1.0
102
RTVSPost2010PropOp56
 70
     1
102
RTVSPost2010Prop57
140
1.0
102
RTVSPost2010PropOp57
 70
     1
102
RTVSPropertyOp0
 70
     1
102
RTVSPropertyOp1
 70
     1
102
RTVSPropertyOp2
 70
     1
102
RTVSPropertyOp3
 70
     1
102
RTVSPropertyOp4
 70
     1
102
RTVSPropertyOp5
 70
     1
102
RTVSPropertyOp6
 70
     1
102
RTVSPropertyOp7
 70
     1
102
RTVSPropertyOp8
 70
     1
102
RTVSPropertyOp9
 70
     1
102
RTVSPropertyOp10
 70
     1
102
RTVSPropertyOp11
 70
     1
102
RTVSPropertyOp12
 70
     1
102
RTVSPropertyOp13
 70
     1
102
RTVSPropertyOp14
 70
     1
102
RTVSPropertyOp15
 70
     1
102
RTVSPropertyOp16
 70
     1
102
RTVSPropertyOp17
 70
     1
102
RTVSPropertyOp18
 70
     1
102
RTVSPropertyOp19
 70
     1
102
RTVSPropertyOp20
 70
     1
102
RTVSPropertyOp21
 70
     1
102
RTVSPropertyOp22
 70
     1
102
RTVSPropertyOp23
 70
     1
102
RTVSPropertyOp24
 70
     1
102
RTVSPropertyOp25
 70
     1
102
RTVSPropertyOp26
 70
     1
102
RTVSPropertyOp27
 70
     1
102
RTVSPropertyOp28
 70
     1
102
RTVSPropertyOp29
 70
     1
102
RTVSPropertyOp30
 70
     1
102
RTVSPropertyOp31
 70
     1
102
RTVSPropertyOp32
 70
     1
102
RTVSPropertyOp33
 70
     1
102
RTVSPropertyOp34
 70
     1
102
RTVSPropertyOp35
 70
     1
102
RTVSPropertyOp36
 70
     1
102
RTVSPropertyOp37
 70
     1
102
RTVSPropertyOp38
 70
     1
102
RTVSPropertyOp39
 70
     1
102
RTVSPropertyOp40
 70
     1
102
RTVSPropertyOp41
 70
     1
102
RTVSPropertyOp42
 70
     1
102
RTVSPropertyOp43
 70
     1
102
RTVSPropertyOp44
 70
     1
102
RTVSPropertyOp45
 70
     1
102
RTVSPropertyOp46
 70
     1
102
RTVSPropertyOp47
 70
     1
102
RTVSPropertyOp48
 70
     1
102
RTVSPropertyOp49
 70
     1
102
RTVSPropertyOp50
 70
     1
102
RTVSPropertyOp51
 70
     0
102
RTVSPropertyOp52
 70
     0
102
RTVSPropertyOp53
 70
     1
102
RTVSPropertyOp54
 70
     1
102
RTVSPropertyOp55
 70
     1
102
RTVSPropertyOp56
 70
     1
102
RTVSPropertyOp57
 70
     1
102
RTVSPropertyOp58
 70
     1
102
RTVSPropertyOp59
 70
     1
102
RTVSPropertyOp60
 70
     1
102
RTVSPropertyOp61
 70
     1
102
RTVSPropertyOp62
 70
     1
  0
XRECORD
  5
8765
102
{ACAD_REACTORS
330
8764
102
}
330
8764
100
AcDbXrecord
280
     1
102
RTVSPost2010Prop28
280
     0
102
RTVSPost2010PropOp28
 70
     1
102
RTVSPost2010Prop29
280
     1
102
RTVSPost2010PropOp29
 70
     1
102
RTVSPost2010Prop30
280
     1
102
RTVSPost2010PropOp30
 70
     1
102
RTVSPost2010Prop31
280
     0
102
RTVSPost2010PropOp31
 70
     1
102
RTVSPost2010Prop32
280
     0
102
RTVSPost2010PropOp32
 70
     1
102
RTVSPost2010Prop33
280
     0
102
RTVSPost2010PropOp33
 70
     1
102
RTVSPost2010Prop34
280
     0
102
RTVSPost2010PropOp34
 70
     1
102
RTVSPost2010Prop35
280
     0
102
RTVSPost2010PropOp35
 70
     1
102
RTVSPost2010Prop36
280
     0
102
RTVSPost2010PropOp36
 70
     1
102
RTVSPost2010Prop37
 90
       50
102
RTVSPost2010PropOp37
 70
     1
102
RTVSPost2010Prop38
140
0.0
102
RTVSPost2010PropOp38
 70
     1
102
RTVSPost2010Prop39
140
1.0
102
RTVSPost2010PropOp39
 70
     1
102
RTVSPost2010Prop40
 90
        0
102
RTVSPost2010PropOp40
 70
     1
102
RTVSPost2010Prop41ColorIndex
 90
       18
102
RTVSPost2010Prop41ColorRGB
 90
        0
102
RTVSPost2010PropOp41
 70
     1
102
RTVSPost2010Prop42
 90
       50
102
RTVSPost2010PropOp42
 70
     1
102
RTVSPost2010Prop43
 90
        3
102
RTVSPost2010PropOp43
 70
     1
102
RTVSPost2010Prop44ColorIndex
 90
        5
102
RTVSPost2010Prop44ColorRGB
 90
      255
102
RTVSPost2010PropOp44
 70
     1
102
RTVSPost2010Prop45
280
     0
102
RTVSPost2010PropOp45
 70
     1
102
RTVSPost2010Prop46
 90
       50
102
RTVSPost2010PropOp46
 70
     1
102
RTVSPost2010Prop47
 90
       50
102
RTVSPost2010PropOp47
 70
     1
102
RTVSPost2010Prop48
 90
       50
102
RTVSPost2010PropOp48
 70
     1
102
RTVSPost2010Prop49
280
     0
102
RTVSPost2010PropOp49
 70
     1
102
RTVSPost2010Prop50
 90
       50
102
RTVSPost2010PropOp50
 70
     1
102
RTVSPost2010Prop51ColorIndex
 90
      256
102
RTVSPost2010Prop51ColorRGB
 90
-16777216
102
RTVSPost2010PropOp51
 70
     0
102
RTVSPost2010Prop52
140
1.0
102
RTVSPost2010PropOp52
 70
     0
102
RTVSPost2010Prop53
 90
        2
102
RTVSPost2010PropOp53
 70
     1
102
RTVSPost2010Prop54
  1
strokes_ogs.tif
102
RTVSPost2010PropOp54
 70
     1
102
RTVSPost2010Prop55
280
     0
102
RTVSPost2010PropOp55
 70
     1
102
RTVSPost2010Prop56
140
1.0
102
RTVSPost2010PropOp56
 70
     1
102
RTVSPost2010Prop57
140
1.0
102
RTVSPost2010PropOp57
 70
     1
102
RTVSPropertyOp0
 70
     1
102
RTVSPropertyOp1
 70
     1
102
RTVSPropertyOp2
 70
     1
102
RTVSPropertyOp3
 70
     1
102
RTVSPropertyOp4
 70
     1
102
RTVSPropertyOp5
 70
     1
102
RTVSPropertyOp6
 70
     1
102
RTVSPropertyOp7
 70
     1
102
RTVSPropertyOp8
 70
     1
102
RTVSPropertyOp9
 70
     1
102
RTVSPropertyOp10
 70
     1
102
RTVSPropertyOp11
 70
     1
102
RTVSPropertyOp12
 70
     1
102
RTVSPropertyOp13
 70
     1
102
RTVSPropertyOp14
 70
     1
102
RTVSPropertyOp15
 70
     1
102
RTVSPropertyOp16
 70
     1
102
RTVSPropertyOp17
 70
     1
102
RTVSPropertyOp18
 70
     1
102
RTVSPropertyOp19
 70
     1
102
RTVSPropertyOp20
 70
     1
102
RTVSPropertyOp21
 70
     1
102
RTVSPropertyOp22
 70
     1
102
RTVSPropertyOp23
 70
     1
102
RTVSPropertyOp24
 70
     1
102
RTVSPropertyOp25
 70
     1
102
RTVSPropertyOp26
 70
     1
102
RTVSPropertyOp27
 70
     1
102
RTVSPropertyOp28
 70
     1
102
RTVSPropertyOp29
 70
     1
102
RTVSPropertyOp30
 70
     1
102
RTVSPropertyOp31
 70
     1
102
RTVSPropertyOp32
 70
     1
102
RTVSPropertyOp33
 70
     1
102
RTVSPropertyOp34
 70
     1
102
RTVSPropertyOp35
 70
     1
102
RTVSPropertyOp36
 70
     1
102
RTVSPropertyOp37
 70
     1
102
RTVSPropertyOp38
 70
     1
102
RTVSPropertyOp39
 70
     1
102
RTVSPropertyOp40
 70
     1
102
RTVSPropertyOp41
 70
     1
102
RTVSPropertyOp42
 70
     1
102
RTVSPropertyOp43
 70
     1
102
RTVSPropertyOp44
 70
     1
102
RTVSPropertyOp45
 70
     1
102
RTVSPropertyOp46
 70
     1
102
RTVSPropertyOp47
 70
     1
102
RTVSPropertyOp48
 70
     1
102
RTVSPropertyOp49
 70
     1
102
RTVSPropertyOp50
 70
     1
102
RTVSPropertyOp51
 70
     0
102
RTVSPropertyOp52
 70
     0
102
RTVSPropertyOp53
 70
     1
102
RTVSPropertyOp54
 70
     1
102
RTVSPropertyOp55
 70
     1
102
RTVSPropertyOp56
 70
     1
102
RTVSPropertyOp57
 70
     1
102
RTVSPropertyOp58
 70
     1
102
RTVSPropertyOp59
 70
     1
102
RTVSPropertyOp60
 70
     1
102
RTVSPropertyOp61
 70
     1
102
RTVSPropertyOp62
 70
     1
  0
XRECORD
  5
8763
102
{ACAD_REACTORS
330
8762
102
}
330
8762
100
AcDbXrecord
280
     1
102
RTVSPost2010Prop28
280
     0
102
RTVSPost2010PropOp28
 70
     1
102
RTVSPost2010Prop29
280
     1
102
RTVSPost2010PropOp29
 70
     1
102
RTVSPost2010Prop30
280
     1
102
RTVSPost2010PropOp30
 70
     1
102
RTVSPost2010Prop31
280
     0
102
RTVSPost2010PropOp31
 70
     1
102
RTVSPost2010Prop32
280
     0
102
RTVSPost2010PropOp32
 70
     1
102
RTVSPost2010Prop33
280
     0
102
RTVSPost2010PropOp33
 70
     1
102
RTVSPost2010Prop34
280
     0
102
RTVSPost2010PropOp34
 70
     1
102
RTVSPost2010Prop35
280
     0
102
RTVSPost2010PropOp35
 70
     1
102
RTVSPost2010Prop36
280
     0
102
RTVSPost2010PropOp36
 70
     1
102
RTVSPost2010Prop37
 90
       50
102
RTVSPost2010PropOp37
 70
     1
102
RTVSPost2010Prop38
140
0.0
102
RTVSPost2010PropOp38
 70
     1
102
RTVSPost2010Prop39
140
1.0
102
RTVSPost2010PropOp39
 70
     1
102
RTVSPost2010Prop40
 90
        0
102
RTVSPost2010PropOp40
 70
     1
102
RTVSPost2010Prop41ColorIndex
 90
       18
102
RTVSPost2010Prop41ColorRGB
 90
        0
102
RTVSPost2010PropOp41
 70
     1
102
RTVSPost2010Prop42
 90
       50
102
RTVSPost2010PropOp42
 70
     1
102
RTVSPost2010Prop43
 90
        3
102
RTVSPost2010PropOp43
 70
     1
102
RTVSPost2010Prop44ColorIndex
 90
        5
102
RTVSPost2010Prop44ColorRGB
 90
      255
102
RTVSPost2010PropOp44
 70
     1
102
RTVSPost2010Prop45
280
     0
102
RTVSPost2010PropOp45
 70
     1
102
RTVSPost2010Prop46
 90
       50
102
RTVSPost2010PropOp46
 70
     1
102
RTVSPost2010Prop47
 90
       50
102
RTVSPost2010PropOp47
 70
     1
102
RTVSPost2010Prop48
 90
       50
102
RTVSPost2010PropOp48
 70
     1
102
RTVSPost2010Prop49
280
     0
102
RTVSPost2010PropOp49
 70
     1
102
RTVSPost2010Prop50
 90
       50
102
RTVSPost2010PropOp50
 70
     1
102
RTVSPost2010Prop51ColorIndex
 90
      256
102
RTVSPost2010Prop51ColorRGB
 90
-16777216
102
RTVSPost2010PropOp51
 70
     0
102
RTVSPost2010Prop52
140
1.0
102
RTVSPost2010PropOp52
 70
     0
102
RTVSPost2010Prop53
 90
        2
102
RTVSPost2010PropOp53
 70
     1
102
RTVSPost2010Prop54
  1
strokes_ogs.tif
102
RTVSPost2010PropOp54
 70
     1
102
RTVSPost2010Prop55
280
     0
102
RTVSPost2010PropOp55
 70
     1
102
RTVSPost2010Prop56
140
1.0
102
RTVSPost2010PropOp56
 70
     1
102
RTVSPost2010Prop57
140
1.0
102
RTVSPost2010PropOp57
 70
     1
102
RTVSPropertyOp0
 70
     1
102
RTVSPropertyOp1
 70
     1
102
RTVSPropertyOp2
 70
     1
102
RTVSPropertyOp3
 70
     1
102
RTVSPropertyOp4
 70
     1
102
RTVSPropertyOp5
 70
     1
102
RTVSPropertyOp6
 70
     1
102
RTVSPropertyOp7
 70
     1
102
RTVSPropertyOp8
 70
     1
102
RTVSPropertyOp9
 70
     1
102
RTVSPropertyOp10
 70
     1
102
RTVSPropertyOp11
 70
     1
102
RTVSPropertyOp12
 70
     1
102
RTVSPropertyOp13
 70
     1
102
RTVSPropertyOp14
 70
     1
102
RTVSPropertyOp15
 70
     1
102
RTVSPropertyOp16
 70
     1
102
RTVSPropertyOp17
 70
     1
102
RTVSPropertyOp18
 70
     1
102
RTVSPropertyOp19
 70
     1
102
RTVSPropertyOp20
 70
     1
102
RTVSPropertyOp21
 70
     1
102
RTVSPropertyOp22
 70
     1
102
RTVSPropertyOp23
 70
     1
102
RTVSPropertyOp24
 70
     1
102
RTVSPropertyOp25
 70
     1
102
RTVSPropertyOp26
 70
     1
102
RTVSPropertyOp27
 70
     1
102
RTVSPropertyOp28
 70
     1
102
RTVSPropertyOp29
 70
     1
102
RTVSPropertyOp30
 70
     1
102
RTVSPropertyOp31
 70
     1
102
RTVSPropertyOp32
 70
     1
102
RTVSPropertyOp33
 70
     1
102
RTVSPropertyOp34
 70
     1
102
RTVSPropertyOp35
 70
     1
102
RTVSPropertyOp36
 70
     1
102
RTVSPropertyOp37
 70
     1
102
RTVSPropertyOp38
 70
     1
102
RTVSPropertyOp39
 70
     1
102
RTVSPropertyOp40
 70
     1
102
RTVSPropertyOp41
 70
     1
102
RTVSPropertyOp42
 70
     1
102
RTVSPropertyOp43
 70
     1
102
RTVSPropertyOp44
 70
     1
102
RTVSPropertyOp45
 70
     1
102
RTVSPropertyOp46
 70
     1
102
RTVSPropertyOp47
 70
     1
102
RTVSPropertyOp48
 70
     1
102
RTVSPropertyOp49
 70
     1
102
RTVSPropertyOp50
 70
     1
102
RTVSPropertyOp51
 70
     0
102
RTVSPropertyOp52
 70
     0
102
RTVSPropertyOp53
 70
     1
102
RTVSPropertyOp54
 70
     1
102
RTVSPropertyOp55
 70
     1
102
RTVSPropertyOp56
 70
     1
102
RTVSPropertyOp57
 70
     1
102
RTVSPropertyOp58
 70
     1
102
RTVSPropertyOp59
 70
     1
102
RTVSPropertyOp60
 70
     1
102
RTVSPropertyOp61
 70
     1
102
RTVSPropertyOp62
 70
     1
  0
XRECORD
  5
875D
102
{ACAD_REACTORS
330
875C
102
}
330
875C
100
AcDbXrecord
280
     1
102
RTVSPost2010Prop28
280
     0
102
RTVSPost2010PropOp28
 70
     1
102
RTVSPost2010Prop29
280
     1
102
RTVSPost2010PropOp29
 70
     1
102
RTVSPost2010Prop30
280
     1
102
RTVSPost2010PropOp30
 70
     1
102
RTVSPost2010Prop31
280
     0
102
RTVSPost2010PropOp31
 70
     1
102
RTVSPost2010Prop32
280
     0
102
RTVSPost2010PropOp32
 70
     1
102
RTVSPost2010Prop33
280
     0
102
RTVSPost2010PropOp33
 70
     1
102
RTVSPost2010Prop34
280
     0
102
RTVSPost2010PropOp34
 70
     1
102
RTVSPost2010Prop35
280
     0
102
RTVSPost2010PropOp35
 70
     1
102
RTVSPost2010Prop36
280
     0
102
RTVSPost2010PropOp36
 70
     1
102
RTVSPost2010Prop37
 90
       50
102
RTVSPost2010PropOp37
 70
     1
102
RTVSPost2010Prop38
140
0.0
102
RTVSPost2010PropOp38
 70
     1
102
RTVSPost2010Prop39
140
1.0
102
RTVSPost2010PropOp39
 70
     1
102
RTVSPost2010Prop40
 90
        0
102
RTVSPost2010PropOp40
 70
     1
102
RTVSPost2010Prop41ColorIndex
 90
       18
102
RTVSPost2010Prop41ColorRGB
 90
        0
102
RTVSPost2010PropOp41
 70
     1
102
RTVSPost2010Prop42
 90
       50
102
RTVSPost2010PropOp42
 70
     1
102
RTVSPost2010Prop43
 90
        3
102
RTVSPost2010PropOp43
 70
     1
102
RTVSPost2010Prop44ColorIndex
 90
        5
102
RTVSPost2010Prop44ColorRGB
 90
      255
102
RTVSPost2010PropOp44
 70
     1
102
RTVSPost2010Prop45
280
     0
102
RTVSPost2010PropOp45
 70
     1
102
RTVSPost2010Prop46
 90
       50
102
RTVSPost2010PropOp46
 70
     1
102
RTVSPost2010Prop47
 90
       50
102
RTVSPost2010PropOp47
 70
     1
102
RTVSPost2010Prop48
 90
       50
102
RTVSPost2010PropOp48
 70
     1
102
RTVSPost2010Prop49
280
     0
102
RTVSPost2010PropOp49
 70
     1
102
RTVSPost2010Prop50
 90
       50
102
RTVSPost2010PropOp50
 70
     1
102
RTVSPost2010Prop51ColorIndex
 90
      256
102
RTVSPost2010Prop51ColorRGB
 90
-16777216
102
RTVSPost2010PropOp51
 70
     0
102
RTVSPost2010Prop52
140
1.0
102
RTVSPost2010PropOp52
 70
     0
102
RTVSPost2010Prop53
 90
        2
102
RTVSPost2010PropOp53
 70
     1
102
RTVSPost2010Prop54
  1
strokes_ogs.tif
102
RTVSPost2010PropOp54
 70
     1
102
RTVSPost2010Prop55
280
     0
102
RTVSPost2010PropOp55
 70
     1
102
RTVSPost2010Prop56
140
1.0
102
RTVSPost2010PropOp56
 70
     1
102
RTVSPost2010Prop57
140
1.0
102
RTVSPost2010PropOp57
 70
     1
102
RTVSPropertyOp0
 70
     1
102
RTVSPropertyOp1
 70
     1
102
RTVSPropertyOp2
 70
     1
102
RTVSPropertyOp3
 70
     1
102
RTVSPropertyOp4
 70
     1
102
RTVSPropertyOp5
 70
     1
102
RTVSPropertyOp6
 70
     1
102
RTVSPropertyOp7
 70
     1
102
RTVSPropertyOp8
 70
     1
102
RTVSPropertyOp9
 70
     1
102
RTVSPropertyOp10
 70
     1
102
RTVSPropertyOp11
 70
     1
102
RTVSPropertyOp12
 70
     1
102
RTVSPropertyOp13
 70
     1
102
RTVSPropertyOp14
 70
     1
102
RTVSPropertyOp15
 70
     1
102
RTVSPropertyOp16
 70
     1
102
RTVSPropertyOp17
 70
     1
102
RTVSPropertyOp18
 70
     1
102
RTVSPropertyOp19
 70
     1
102
RTVSPropertyOp20
 70
     1
102
RTVSPropertyOp21
 70
     1
102
RTVSPropertyOp22
 70
     1
102
RTVSPropertyOp23
 70
     1
102
RTVSPropertyOp24
 70
     1
102
RTVSPropertyOp25
 70
     1
102
RTVSPropertyOp26
 70
     1
102
RTVSPropertyOp27
 70
     1
102
RTVSPropertyOp28
 70
     1
102
RTVSPropertyOp29
 70
     1
102
RTVSPropertyOp30
 70
     1
102
RTVSPropertyOp31
 70
     1
102
RTVSPropertyOp32
 70
     1
102
RTVSPropertyOp33
 70
     1
102
RTVSPropertyOp34
 70
     1
102
RTVSPropertyOp35
 70
     1
102
RTVSPropertyOp36
 70
     1
102
RTVSPropertyOp37
 70
     1
102
RTVSPropertyOp38
 70
     1
102
RTVSPropertyOp39
 70
     1
102
RTVSPropertyOp40
 70
     1
102
RTVSPropertyOp41
 70
     1
102
RTVSPropertyOp42
 70
     1
102
RTVSPropertyOp43
 70
     1
102
RTVSPropertyOp44
 70
     1
102
RTVSPropertyOp45
 70
     1
102
RTVSPropertyOp46
 70
     1
102
RTVSPropertyOp47
 70
     1
102
RTVSPropertyOp48
 70
     1
102
RTVSPropertyOp49
 70
     1
102
RTVSPropertyOp50
 70
     1
102
RTVSPropertyOp51
 70
     0
102
RTVSPropertyOp52
 70
     0
102
RTVSPropertyOp53
 70
     1
102
RTVSPropertyOp54
 70
     1
102
RTVSPropertyOp55
 70
     1
102
RTVSPropertyOp56
 70
     1
102
RTVSPropertyOp57
 70
     1
102
RTVSPropertyOp58
 70
     1
102
RTVSPropertyOp59
 70
     1
102
RTVSPropertyOp60
 70
     1
102
RTVSPropertyOp61
 70
     1
102
RTVSPropertyOp62
 70
     1
  0
XRECORD
  5
875F
102
{ACAD_REACTORS
330
875E
102
}
330
875E
100
AcDbXrecord
280
     1
102
RTVSPost2010Prop28
280
     0
102
RTVSPost2010PropOp28
 70
     1
102
RTVSPost2010Prop29
280
     1
102
RTVSPost2010PropOp29
 70
     1
102
RTVSPost2010Prop30
280
     1
102
RTVSPost2010PropOp30
 70
     1
102
RTVSPost2010Prop31
280
     0
102
RTVSPost2010PropOp31
 70
     1
102
RTVSPost2010Prop32
280
     0
102
RTVSPost2010PropOp32
 70
     1
102
RTVSPost2010Prop33
280
     0
102
RTVSPost2010PropOp33
 70
     1
102
RTVSPost2010Prop34
280
     0
102
RTVSPost2010PropOp34
 70
     1
102
RTVSPost2010Prop35
280
     0
102
RTVSPost2010PropOp35
 70
     1
102
RTVSPost2010Prop36
280
     0
102
RTVSPost2010PropOp36
 70
     1
102
RTVSPost2010Prop37
 90
       50
102
RTVSPost2010PropOp37
 70
     1
102
RTVSPost2010Prop38
140
0.0
102
RTVSPost2010PropOp38
 70
     1
102
RTVSPost2010Prop39
140
1.0
102
RTVSPost2010PropOp39
 70
     1
102
RTVSPost2010Prop40
 90
        0
102
RTVSPost2010PropOp40
 70
     1
102
RTVSPost2010Prop41ColorIndex
 90
       18
102
RTVSPost2010Prop41ColorRGB
 90
        0
102
RTVSPost2010PropOp41
 70
     1
102
RTVSPost2010Prop42
 90
       50
102
RTVSPost2010PropOp42
 70
     1
102
RTVSPost2010Prop43
 90
        3
102
RTVSPost2010PropOp43
 70
     1
102
RTVSPost2010Prop44ColorIndex
 90
        5
102
RTVSPost2010Prop44ColorRGB
 90
      255
102
RTVSPost2010PropOp44
 70
     1
102
RTVSPost2010Prop45
280
     0
102
RTVSPost2010PropOp45
 70
     1
102
RTVSPost2010Prop46
 90
       50
102
RTVSPost2010PropOp46
 70
     1
102
RTVSPost2010Prop47
 90
       50
102
RTVSPost2010PropOp47
 70
     1
102
RTVSPost2010Prop48
 90
       50
102
RTVSPost2010PropOp48
 70
     1
102
RTVSPost2010Prop49
280
     0
102
RTVSPost2010PropOp49
 70
     1
102
RTVSPost2010Prop50
 90
       50
102
RTVSPost2010PropOp50
 70
     1
102
RTVSPost2010Prop51ColorIndex
 90
      256
102
RTVSPost2010Prop51ColorRGB
 90
-16777216
102
RTVSPost2010PropOp51
 70
     0
102
RTVSPost2010Prop52
140
1.0
102
RTVSPost2010PropOp52
 70
     0
102
RTVSPost2010Prop53
 90
        2
102
RTVSPost2010PropOp53
 70
     1
102
RTVSPost2010Prop54
  1
strokes_ogs.tif
102
RTVSPost2010PropOp54
 70
     1
102
RTVSPost2010Prop55
280
     0
102
RTVSPost2010PropOp55
 70
     1
102
RTVSPost2010Prop56
140
1.0
102
RTVSPost2010PropOp56
 70
     1
102
RTVSPost2010Prop57
140
1.0
102
RTVSPost2010PropOp57
 70
     1
102
RTVSPropertyOp0
 70
     1
102
RTVSPropertyOp1
 70
     1
102
RTVSPropertyOp2
 70
     1
102
RTVSPropertyOp3
 70
     1
102
RTVSPropertyOp4
 70
     1
102
RTVSPropertyOp5
 70
     1
102
RTVSPropertyOp6
 70
     1
102
RTVSPropertyOp7
 70
     1
102
RTVSPropertyOp8
 70
     1
102
RTVSPropertyOp9
 70
     1
102
RTVSPropertyOp10
 70
     1
102
RTVSPropertyOp11
 70
     1
102
RTVSPropertyOp12
 70
     1
102
RTVSPropertyOp13
 70
     1
102
RTVSPropertyOp14
 70
     1
102
RTVSPropertyOp15
 70
     1
102
RTVSPropertyOp16
 70
     1
102
RTVSPropertyOp17
 70
     1
102
RTVSPropertyOp18
 70
     1
102
RTVSPropertyOp19
 70
     1
102
RTVSPropertyOp20
 70
     1
102
RTVSPropertyOp21
 70
     1
102
RTVSPropertyOp22
 70
     1
102
RTVSPropertyOp23
 70
     1
102
RTVSPropertyOp24
 70
     1
102
RTVSPropertyOp25
 70
     1
102
RTVSPropertyOp26
 70
     1
102
RTVSPropertyOp27
 70
     1
102
RTVSPropertyOp28
 70
     1
102
RTVSPropertyOp29
 70
     1
102
RTVSPropertyOp30
 70
     1
102
RTVSPropertyOp31
 70
     1
102
RTVSPropertyOp32
 70
     1
102
RTVSPropertyOp33
 70
     1
102
RTVSPropertyOp34
 70
     1
102
RTVSPropertyOp35
 70
     1
102
RTVSPropertyOp36
 70
     1
102
RTVSPropertyOp37
 70
     1
102
RTVSPropertyOp38
 70
     1
102
RTVSPropertyOp39
 70
     1
102
RTVSPropertyOp40
 70
     1
102
RTVSPropertyOp41
 70
     1
102
RTVSPropertyOp42
 70
     1
102
RTVSPropertyOp43
 70
     1
102
RTVSPropertyOp44
 70
     1
102
RTVSPropertyOp45
 70
     1
102
RTVSPropertyOp46
 70
     1
102
RTVSPropertyOp47
 70
     1
102
RTVSPropertyOp48
 70
     1
102
RTVSPropertyOp49
 70
     1
102
RTVSPropertyOp50
 70
     1
102
RTVSPropertyOp51
 70
     0
102
RTVSPropertyOp52
 70
     0
102
RTVSPropertyOp53
 70
     1
102
RTVSPropertyOp54
 70
     1
102
RTVSPropertyOp55
 70
     1
102
RTVSPropertyOp56
 70
     1
102
RTVSPropertyOp57
 70
     1
102
RTVSPropertyOp58
 70
     1
102
RTVSPropertyOp59
 70
     1
102
RTVSPropertyOp60
 70
     1
102
RTVSPropertyOp61
 70
     1
102
RTVSPropertyOp62
 70
     1
  0
XRECORD
  5
8755
102
{ACAD_REACTORS
330
8754
102
}
330
8754
100
AcDbXrecord
280
     1
102
RTVSPost2010Prop28
280
     0
102
RTVSPost2010PropOp28
 70
     1
102
RTVSPost2010Prop29
280
     1
102
RTVSPost2010PropOp29
 70
     1
102
RTVSPost2010Prop30
280
     1
102
RTVSPost2010PropOp30
 70
     1
102
RTVSPost2010Prop31
280
     0
102
RTVSPost2010PropOp31
 70
     1
102
RTVSPost2010Prop32
280
     0
102
RTVSPost2010PropOp32
 70
     1
102
RTVSPost2010Prop33
280
     0
102
RTVSPost2010PropOp33
 70
     1
102
RTVSPost2010Prop34
280
     0
102
RTVSPost2010PropOp34
 70
     1
102
RTVSPost2010Prop35
280
     0
102
RTVSPost2010PropOp35
 70
     1
102
RTVSPost2010Prop36
280
     0
102
RTVSPost2010PropOp36
 70
     1
102
RTVSPost2010Prop37
 90
       50
102
RTVSPost2010PropOp37
 70
     1
102
RTVSPost2010Prop38
140
0.0
102
RTVSPost2010PropOp38
 70
     1
102
RTVSPost2010Prop39
140
1.0
102
RTVSPost2010PropOp39
 70
     1
102
RTVSPost2010Prop40
 90
        0
102
RTVSPost2010PropOp40
 70
     1
102
RTVSPost2010Prop41ColorIndex
 90
       18
102
RTVSPost2010Prop41ColorRGB
 90
        0
102
RTVSPost2010PropOp41
 70
     1
102
RTVSPost2010Prop42
 90
       50
102
RTVSPost2010PropOp42
 70
     1
102
RTVSPost2010Prop43
 90
        3
102
RTVSPost2010PropOp43
 70
     1
102
RTVSPost2010Prop44ColorIndex
 90
        5
102
RTVSPost2010Prop44ColorRGB
 90
      255
102
RTVSPost2010PropOp44
 70
     1
102
RTVSPost2010Prop45
280
     0
102
RTVSPost2010PropOp45
 70
     1
102
RTVSPost2010Prop46
 90
       50
102
RTVSPost2010PropOp46
 70
     1
102
RTVSPost2010Prop47
 90
       50
102
RTVSPost2010PropOp47
 70
     1
102
RTVSPost2010Prop48
 90
       50
102
RTVSPost2010PropOp48
 70
     1
102
RTVSPost2010Prop49
280
     0
102
RTVSPost2010PropOp49
 70
     1
102
RTVSPost2010Prop50
 90
       50
102
RTVSPost2010PropOp50
 70
     1
102
RTVSPost2010Prop51ColorIndex
 90
      256
102
RTVSPost2010Prop51ColorRGB
 90
-16777216
102
RTVSPost2010PropOp51
 70
     0
102
RTVSPost2010Prop52
140
1.0
102
RTVSPost2010PropOp52
 70
     0
102
RTVSPost2010Prop53
 90
        2
102
RTVSPost2010PropOp53
 70
     1
102
RTVSPost2010Prop54
  1
strokes_ogs.tif
102
RTVSPost2010PropOp54
 70
     1
102
RTVSPost2010Prop55
280
     0
102
RTVSPost2010PropOp55
 70
     1
102
RTVSPost2010Prop56
140
1.0
102
RTVSPost2010PropOp56
 70
     1
102
RTVSPost2010Prop57
140
1.0
102
RTVSPost2010PropOp57
 70
     1
102
RTVSPropertyOp0
 70
     1
102
RTVSPropertyOp1
 70
     1
102
RTVSPropertyOp2
 70
     1
102
RTVSPropertyOp3
 70
     1
102
RTVSPropertyOp4
 70
     1
102
RTVSPropertyOp5
 70
     1
102
RTVSPropertyOp6
 70
     1
102
RTVSPropertyOp7
 70
     1
102
RTVSPropertyOp8
 70
     1
102
RTVSPropertyOp9
 70
     1
102
RTVSPropertyOp10
 70
     1
102
RTVSPropertyOp11
 70
     1
102
RTVSPropertyOp12
 70
     1
102
RTVSPropertyOp13
 70
     1
102
RTVSPropertyOp14
 70
     1
102
RTVSPropertyOp15
 70
     1
102
RTVSPropertyOp16
 70
     1
102
RTVSPropertyOp17
 70
     1
102
RTVSPropertyOp18
 70
     1
102
RTVSPropertyOp19
 70
     1
102
RTVSPropertyOp20
 70
     1
102
RTVSPropertyOp21
 70
     1
102
RTVSPropertyOp22
 70
     1
102
RTVSPropertyOp23
 70
     1
102
RTVSPropertyOp24
 70
     1
102
RTVSPropertyOp25
 70
     1
102
RTVSPropertyOp26
 70
     1
102
RTVSPropertyOp27
 70
     1
102
RTVSPropertyOp28
 70
     1
102
RTVSPropertyOp29
 70
     1
102
RTVSPropertyOp30
 70
     1
102
RTVSPropertyOp31
 70
     1
102
RTVSPropertyOp32
 70
     1
102
RTVSPropertyOp33
 70
     1
102
RTVSPropertyOp34
 70
     1
102
RTVSPropertyOp35
 70
     1
102
RTVSPropertyOp36
 70
     1
102
RTVSPropertyOp37
 70
     1
102
RTVSPropertyOp38
 70
     1
102
RTVSPropertyOp39
 70
     1
102
RTVSPropertyOp40
 70
     1
102
RTVSPropertyOp41
 70
     1
102
RTVSPropertyOp42
 70
     1
102
RTVSPropertyOp43
 70
     1
102
RTVSPropertyOp44
 70
     1
102
RTVSPropertyOp45
 70
     1
102
RTVSPropertyOp46
 70
     1
102
RTVSPropertyOp47
 70
     1
102
RTVSPropertyOp48
 70
     1
102
RTVSPropertyOp49
 70
     1
102
RTVSPropertyOp50
 70
     1
102
RTVSPropertyOp51
 70
     0
102
RTVSPropertyOp52
 70
     0
102
RTVSPropertyOp53
 70
     1
102
RTVSPropertyOp54
 70
     1
102
RTVSPropertyOp55
 70
     1
102
RTVSPropertyOp56
 70
     1
102
RTVSPropertyOp57
 70
     1
102
RTVSPropertyOp58
 70
     1
102
RTVSPropertyOp59
 70
     1
102
RTVSPropertyOp60
 70
     1
102
RTVSPropertyOp61
 70
     1
102
RTVSPropertyOp62
 70
     1
  0
XRECORD
  5
8749
102
{ACAD_REACTORS
330
8748
102
}
330
8748
100
AcDbXrecord
280
     1
102
RTVSPost2010Prop28
280
     0
102
RTVSPost2010PropOp28
 70
     1
102
RTVSPost2010Prop29
280
     1
102
RTVSPost2010PropOp29
 70
     1
102
RTVSPost2010Prop30
280
     1
102
RTVSPost2010PropOp30
 70
     1
102
RTVSPost2010Prop31
280
     0
102
RTVSPost2010PropOp31
 70
     1
102
RTVSPost2010Prop32
280
     0
102
RTVSPost2010PropOp32
 70
     1
102
RTVSPost2010Prop33
280
     0
102
RTVSPost2010PropOp33
 70
     1
102
RTVSPost2010Prop34
280
     0
102
RTVSPost2010PropOp34
 70
     1
102
RTVSPost2010Prop35
280
     0
102
RTVSPost2010PropOp35
 70
     1
102
RTVSPost2010Prop36
280
     0
102
RTVSPost2010PropOp36
 70
     1
102
RTVSPost2010Prop37
 90
       50
102
RTVSPost2010PropOp37
 70
     1
102
RTVSPost2010Prop38
140
0.0
102
RTVSPost2010PropOp38
 70
     1
102
RTVSPost2010Prop39
140
1.0
102
RTVSPost2010PropOp39
 70
     1
102
RTVSPost2010Prop40
 90
        0
102
RTVSPost2010PropOp40
 70
     1
102
RTVSPost2010Prop41ColorIndex
 90
       18
102
RTVSPost2010Prop41ColorRGB
 90
        0
102
RTVSPost2010PropOp41
 70
     1
102
RTVSPost2010Prop42
 90
       50
102
RTVSPost2010PropOp42
 70
     1
102
RTVSPost2010Prop43
 90
        3
102
RTVSPost2010PropOp43
 70
     1
102
RTVSPost2010Prop44ColorIndex
 90
        5
102
RTVSPost2010Prop44ColorRGB
 90
      255
102
RTVSPost2010PropOp44
 70
     1
102
RTVSPost2010Prop45
280
     0
102
RTVSPost2010PropOp45
 70
     1
102
RTVSPost2010Prop46
 90
       50
102
RTVSPost2010PropOp46
 70
     1
102
RTVSPost2010Prop47
 90
       50
102
RTVSPost2010PropOp47
 70
     1
102
RTVSPost2010Prop48
 90
       50
102
RTVSPost2010PropOp48
 70
     1
102
RTVSPost2010Prop49
280
     0
102
RTVSPost2010PropOp49
 70
     1
102
RTVSPost2010Prop50
 90
       50
102
RTVSPost2010PropOp50
 70
     1
102
RTVSPost2010Prop51ColorIndex
 90
      256
102
RTVSPost2010Prop51ColorRGB
 90
-16777216
102
RTVSPost2010PropOp51
 70
     0
102
RTVSPost2010Prop52
140
1.0
102
RTVSPost2010PropOp52
 70
     0
102
RTVSPost2010Prop53
 90
        2
102
RTVSPost2010PropOp53
 70
     1
102
RTVSPost2010Prop54
  1
strokes_ogs.tif
102
RTVSPost2010PropOp54
 70
     1
102
RTVSPost2010Prop55
280
     0
102
RTVSPost2010PropOp55
 70
     1
102
RTVSPost2010Prop56
140
1.0
102
RTVSPost2010PropOp56
 70
     1
102
RTVSPost2010Prop57
140
1.0
102
RTVSPost2010PropOp57
 70
     1
102
RTVSPropertyOp0
 70
     1
102
RTVSPropertyOp1
 70
     1
102
RTVSPropertyOp2
 70
     1
102
RTVSPropertyOp3
 70
     1
102
RTVSPropertyOp4
 70
     1
102
RTVSPropertyOp5
 70
     1
102
RTVSPropertyOp6
 70
     1
102
RTVSPropertyOp7
 70
     1
102
RTVSPropertyOp8
 70
     1
102
RTVSPropertyOp9
 70
     1
102
RTVSPropertyOp10
 70
     1
102
RTVSPropertyOp11
 70
     1
102
RTVSPropertyOp12
 70
     1
102
RTVSPropertyOp13
 70
     1
102
RTVSPropertyOp14
 70
     1
102
RTVSPropertyOp15
 70
     1
102
RTVSPropertyOp16
 70
     1
102
RTVSPropertyOp17
 70
     1
102
RTVSPropertyOp18
 70
     1
102
RTVSPropertyOp19
 70
     1
102
RTVSPropertyOp20
 70
     1
102
RTVSPropertyOp21
 70
     1
102
RTVSPropertyOp22
 70
     1
102
RTVSPropertyOp23
 70
     1
102
RTVSPropertyOp24
 70
     1
102
RTVSPropertyOp25
 70
     1
102
RTVSPropertyOp26
 70
     1
102
RTVSPropertyOp27
 70
     1
102
RTVSPropertyOp28
 70
     1
102
RTVSPropertyOp29
 70
     1
102
RTVSPropertyOp30
 70
     1
102
RTVSPropertyOp31
 70
     1
102
RTVSPropertyOp32
 70
     1
102
RTVSPropertyOp33
 70
     1
102
RTVSPropertyOp34
 70
     1
102
RTVSPropertyOp35
 70
     1
102
RTVSPropertyOp36
 70
     1
102
RTVSPropertyOp37
 70
     1
102
RTVSPropertyOp38
 70
     1
102
RTVSPropertyOp39
 70
     1
102
RTVSPropertyOp40
 70
     1
102
RTVSPropertyOp41
 70
     1
102
RTVSPropertyOp42
 70
     1
102
RTVSPropertyOp43
 70
     1
102
RTVSPropertyOp44
 70
     1
102
RTVSPropertyOp45
 70
     1
102
RTVSPropertyOp46
 70
     1
102
RTVSPropertyOp47
 70
     1
102
RTVSPropertyOp48
 70
     1
102
RTVSPropertyOp49
 70
     1
102
RTVSPropertyOp50
 70
     1
102
RTVSPropertyOp51
 70
     0
102
RTVSPropertyOp52
 70
     0
102
RTVSPropertyOp53
 70
     1
102
RTVSPropertyOp54
 70
     1
102
RTVSPropertyOp55
 70
     1
102
RTVSPropertyOp56
 70
     1
102
RTVSPropertyOp57
 70
     1
102
RTVSPropertyOp58
 70
     1
102
RTVSPropertyOp59
 70
     1
102
RTVSPropertyOp60
 70
     1
102
RTVSPropertyOp61
 70
     1
102
RTVSPropertyOp62
 70
     1
  0
XRECORD
  5
8761
102
{ACAD_REACTORS
330
8760
102
}
330
8760
100
AcDbXrecord
280
     1
102
RTVSPost2010Prop28
280
     0
102
RTVSPost2010PropOp28
 70
     1
102
RTVSPost2010Prop29
280
     1
102
RTVSPost2010PropOp29
 70
     1
102
RTVSPost2010Prop30
280
     1
102
RTVSPost2010PropOp30
 70
     1
102
RTVSPost2010Prop31
280
     0
102
RTVSPost2010PropOp31
 70
     1
102
RTVSPost2010Prop32
280
     0
102
RTVSPost2010PropOp32
 70
     1
102
RTVSPost2010Prop33
280
     0
102
RTVSPost2010PropOp33
 70
     1
102
RTVSPost2010Prop34
280
     0
102
RTVSPost2010PropOp34
 70
     1
102
RTVSPost2010Prop35
280
     0
102
RTVSPost2010PropOp35
 70
     1
102
RTVSPost2010Prop36
280
     0
102
RTVSPost2010PropOp36
 70
     1
102
RTVSPost2010Prop37
 90
       50
102
RTVSPost2010PropOp37
 70
     1
102
RTVSPost2010Prop38
140
0.0
102
RTVSPost2010PropOp38
 70
     1
102
RTVSPost2010Prop39
140
1.0
102
RTVSPost2010PropOp39
 70
     1
102
RTVSPost2010Prop40
 90
        0
102
RTVSPost2010PropOp40
 70
     1
102
RTVSPost2010Prop41ColorIndex
 90
       18
102
RTVSPost2010Prop41ColorRGB
 90
        0
102
RTVSPost2010PropOp41
 70
     1
102
RTVSPost2010Prop42
 90
       50
102
RTVSPost2010PropOp42
 70
     1
102
RTVSPost2010Prop43
 90
        3
102
RTVSPost2010PropOp43
 70
     1
102
RTVSPost2010Prop44ColorIndex
 90
        5
102
RTVSPost2010Prop44ColorRGB
 90
      255
102
RTVSPost2010PropOp44
 70
     1
102
RTVSPost2010Prop45
280
     0
102
RTVSPost2010PropOp45
 70
     1
102
RTVSPost2010Prop46
 90
       50
102
RTVSPost2010PropOp46
 70
     1
102
RTVSPost2010Prop47
 90
       50
102
RTVSPost2010PropOp47
 70
     1
102
RTVSPost2010Prop48
 90
       50
102
RTVSPost2010PropOp48
 70
     1
102
RTVSPost2010Prop49
280
     0
102
RTVSPost2010PropOp49
 70
     1
102
RTVSPost2010Prop50
 90
       50
102
RTVSPost2010PropOp50
 70
     1
102
RTVSPost2010Prop51ColorIndex
 90
      256
102
RTVSPost2010Prop51ColorRGB
 90
-16777216
102
RTVSPost2010PropOp51
 70
     0
102
RTVSPost2010Prop52
140
1.0
102
RTVSPost2010PropOp52
 70
     0
102
RTVSPost2010Prop53
 90
        2
102
RTVSPost2010PropOp53
 70
     1
102
RTVSPost2010Prop54
  1
strokes_ogs.tif
102
RTVSPost2010PropOp54
 70
     1
102
RTVSPost2010Prop55
280
     0
102
RTVSPost2010PropOp55
 70
     1
102
RTVSPost2010Prop56
140
1.0
102
RTVSPost2010PropOp56
 70
     1
102
RTVSPost2010Prop57
140
1.0
102
RTVSPost2010PropOp57
 70
     1
102
RTVSPropertyOp0
 70
     1
102
RTVSPropertyOp1
 70
     1
102
RTVSPropertyOp2
 70
     1
102
RTVSPropertyOp3
 70
     1
102
RTVSPropertyOp4
 70
     1
102
RTVSPropertyOp5
 70
     1
102
RTVSPropertyOp6
 70
     1
102
RTVSPropertyOp7
 70
     1
102
RTVSPropertyOp8
 70
     1
102
RTVSPropertyOp9
 70
     1
102
RTVSPropertyOp10
 70
     1
102
RTVSPropertyOp11
 70
     1
102
RTVSPropertyOp12
 70
     1
102
RTVSPropertyOp13
 70
     1
102
RTVSPropertyOp14
 70
     1
102
RTVSPropertyOp15
 70
     1
102
RTVSPropertyOp16
 70
     1
102
RTVSPropertyOp17
 70
     1
102
RTVSPropertyOp18
 70
     1
102
RTVSPropertyOp19
 70
     1
102
RTVSPropertyOp20
 70
     1
102
RTVSPropertyOp21
 70
     1
102
RTVSPropertyOp22
 70
     1
102
RTVSPropertyOp23
 70
     1
102
RTVSPropertyOp24
 70
     1
102
RTVSPropertyOp25
 70
     1
102
RTVSPropertyOp26
 70
     1
102
RTVSPropertyOp27
 70
     1
102
RTVSPropertyOp28
 70
     1
102
RTVSPropertyOp29
 70
     1
102
RTVSPropertyOp30
 70
     1
102
RTVSPropertyOp31
 70
     1
102
RTVSPropertyOp32
 70
     1
102
RTVSPropertyOp33
 70
     1
102
RTVSPropertyOp34
 70
     1
102
RTVSPropertyOp35
 70
     1
102
RTVSPropertyOp36
 70
     1
102
RTVSPropertyOp37
 70
     1
102
RTVSPropertyOp38
 70
     1
102
RTVSPropertyOp39
 70
     1
102
RTVSPropertyOp40
 70
     1
102
RTVSPropertyOp41
 70
     1
102
RTVSPropertyOp42
 70
     1
102
RTVSPropertyOp43
 70
     1
102
RTVSPropertyOp44
 70
     1
102
RTVSPropertyOp45
 70
     1
102
RTVSPropertyOp46
 70
     1
102
RTVSPropertyOp47
 70
     1
102
RTVSPropertyOp48
 70
     1
102
RTVSPropertyOp49
 70
     1
102
RTVSPropertyOp50
 70
     1
102
RTVSPropertyOp51
 70
     0
102
RTVSPropertyOp52
 70
     0
102
RTVSPropertyOp53
 70
     1
102
RTVSPropertyOp54
 70
     1
102
RTVSPropertyOp55
 70
     1
102
RTVSPropertyOp56
 70
     1
102
RTVSPropertyOp57
 70
     1
102
RTVSPropertyOp58
 70
     1
102
RTVSPropertyOp59
 70
     1
102
RTVSPropertyOp60
 70
     1
102
RTVSPropertyOp61
 70
     1
102
RTVSPropertyOp62
 70
     1
  0
ENDSEC
  0
EOF
