  0
SECTION
  2
HEADER
  9
$ACADVER
  1
AC1015
  9
$ACADMAINTVER
 70
    20
  9
$DWGCODEPAGE
  3
ANSI_932
  9
$INSBASE
 10
0.0
 20
0.0
 30
0.0
  9
$EXTMIN
 10
-0.2563280987742473
 20
-0.3600799482810544
 30
-0.0015258207003583
  9
$EXTMAX
 10
8400.256367214323
 20
11800.3601348963
 30
0.0000000349246037
  9
$LIMMIN
 10
0.0
 20
0.0
  9
$LIMMAX
 10
297.0
 20
210.0
  9
$ORTHOMODE
 70
     1
  9
$REGENMODE
 70
     1
  9
$FILLMODE
 70
     0
  9
$QTEXTMODE
 70
     0
  9
$MIRRTEXT
 70
     1
  9
$LTSCALE
 40
100.0
  9
$ATTMODE
 70
     1
  9
$TEXTSIZE
 40
180.0
  9
$TRACEWID
 40
0.05
  9
$TEXTSTYLE
  7
STANDARD
  9
$CLAYER
  8
3
  9
$CELTYPE
  6
ByLayer
  9
$CECOLOR
 62
   256
  9
$CELTSCALE
 40
1.0
  9
$DISPSILH
 70
     0
  9
$DIMSCALE
 40
40.0
  9
$DIMASZ
 40
2.0
  9
$DIMEXO
 40
0.5
  9
$DIMDLI
 40
10.0
  9
$DIMRND
 40
0.0
  9
$DIMDLE
 40
0.0
  9
$DIMEXE
 40
1.0
  9
$DIMTP
 40
1.0
  9
$DIMTM
 40
1.0
  9
$DIMTXT
 40
3.0
  9
$DIMCEN
 40
0.0
  9
$DIMTSZ
 40
0.0
  9
$DIMTOL
 70
     0
  9
$DIMLIM
 70
     0
  9
$DIMTIH
 70
     0
  9
$DIMTOH
 70
     0
  9
$DIMSE1
 70
     0
  9
$DIMSE2
 70
     0
  9
$DIMTAD
 70
     1
  9
$DIMZIN
 70
     8
  9
$DIMBLK
  1

  9
$DIMASO
 70
     1
  9
$DIMSHO
 70
     1
  9
$DIMPOST
  1

  9
$DIMAPOST
  1

  9
$DIMALT
 70
     0
  9
$DIMALTD
 70
     2
  9
$DIMALTF
 40
0.039
  9
$DIMLFAC
 40
1.0
  9
$DIMTOFL
 70
     1
  9
$DIMTVP
 40
0.0
  9
$DIMTIX
 70
     0
  9
$DIMSOXD
 70
     0
  9
$DIMSAH
 70
     1
  9
$DIMBLK1
  1
OPEN
  9
$DIMBLK2
  1
OPEN
  9
$DIMSTYLE
  2
IGA
  9
$DIMCLRD
 70
     0
  9
$DIMCLRE
 70
     0
  9
$DIMCLRT
 70
     0
  9
$DIMTFAC
 40
10.0
  9
$DIMGAP
 40
1.0
  9
$DIMJUST
 70
     0
  9
$DIMSD1
 70
     0
  9
$DIMSD2
 70
     0
  9
$DIMTOLJ
 70
     1
  9
$DIMTZIN
 70
     0
  9
$DIMALTZ
 70
     0
  9
$DIMALTTZ
 70
     0
  9
$DIMUPT
 70
     0
  9
$DIMDEC
 70
     4
  9
$DIMTDEC
 70
     4
  9
$DIMALTU
 70
     2
  9
$DIMALTTD
 70
     2
  9
$DIMTXSTY
  7
STANDARD
  9
$DIMAUNIT
 70
     0
  9
$DIMADEC
 70
     0
  9
$DIMALTRND
 40
0.0
  9
$DIMAZIN
 70
     0
  9
$DIMDSEP
 70
    46
  9
$DIMATFIT
 70
     3
  9
$DIMFRAC
 70
     0
  9
$DIMLDRBLK
  1
OPEN
  9
$DIMLUNIT
 70
     2
  9
$DIMLWD
 70
    -2
  9
$DIMLWE
 70
    -2
  9
$DIMTMOVE
 70
     0
  9
$LUNITS
 70
     2
  9
$LUPREC
 70
     3
  9
$SKETCHINC
 40
0.1
  9
$FILLETRAD
 40
50.0
  9
$AUNITS
 70
     0
  9
$AUPREC
 70
     0
  9
$MENU
  1
acad
  9
$ELEVATION
 40
0.0
  9
$PELEVATION
 40
0.0
  9
$THICKNESS
 40
0.0
  9
$LIMCHECK
 70
     0
  9
$CHAMFERA
 40
0.5
  9
$CHAMFERB
 40
0.5
  9
$CHAMFERC
 40
0.0
  9
$CHAMFERD
 40
0.0
  9
$SKPOLY
 70
     0
  9
$TDCREATE
 40
2451898.497236459
  9
$TDUCREATE
 40
2451898.122236458
  9
$TDUPDATE
 40
2460280.728533414
  9
$TDUUPDATE
 40
2460280.353533415
  9
$TDINDWG
 40
0.0154606597
  9
$TDUSRTIMER
 40
0.0154604167
  9
$USRTIMER
 70
     1
  9
$ANGBASE
 50
0.0
  9
$ANGDIR
 70
     0
  9
$PDMODE
 70
     0
  9
$PDSIZE
 40
0.0
  9
$PLINEWID
 40
0.0
  9
$SPLFRAME
 70
     0
  9
$SPLINETYPE
 70
     6
  9
$SPLINESEGS
 70
     8
  9
$HANDSEED
  5
8732
  9
$SURFTAB1
 70
     6
  9
$SURFTAB2
 70
     6
  9
$SURFTYPE
 70
     6
  9
$SURFU
 70
     6
  9
$SURFV
 70
     6
  9
$UCSBASE
  2

  9
$UCSNAME
  2

  9
$UCSORG
 10
0.0
 20
0.0
 30
0.0
  9
$UCSXDIR
 10
1.0
 20
0.0
 30
0.0
  9
$UCSYDIR
 10
0.0
 20
1.0
 30
0.0
  9
$UCSORTHOREF
  2

  9
$UCSORTHOVIEW
 70
     0
  9
$UCSORGTOP
 10
0.0
 20
0.0
 30
0.0
  9
$UCSORGBOTTOM
 10
0.0
 20
0.0
 30
0.0
  9
$UCSORGLEFT
 10
0.0
 20
0.0
 30
0.0
  9
$UCSORGRIGHT
 10
0.0
 20
0.0
 30
0.0
  9
$UCSORGFRONT
 10
0.0
 20
0.0
 30
0.0
  9
$UCSORGBACK
 10
0.0
 20
0.0
 30
0.0
  9
$PUCSBASE
  2

  9
$PUCSNAME
  2

  9
$PUCSORG
 10
0.0
 20
0.0
 30
0.0
  9
$PUCSXDIR
 10
1.0
 20
0.0
 30
0.0
  9
$PUCSYDIR
 10
0.0
 20
1.0
 30
0.0
  9
$PUCSORTHOREF
  2

  9
$PUCSORTHOVIEW
 70
     0
  9
$PUCSORGTOP
 10
0.0
 20
0.0
 30
0.0
  9
$PUCSORGBOTTOM
 10
0.0
 20
0.0
 30
0.0
  9
$PUCSORGLEFT
 10
0.0
 20
0.0
 30
0.0
  9
$PUCSORGRIGHT
 10
0.0
 20
0.0
 30
0.0
  9
$PUCSORGFRONT
 10
0.0
 20
0.0
 30
0.0
  9
$PUCSORGBACK
 10
0.0
 20
0.0
 30
0.0
  9
$USERI1
 70
     0
  9
$USERI2
 70
     0
  9
$USERI3
 70
     0
  9
$USERI4
 70
     0
  9
$USERI5
 70
     0
  9
$USERR1
 40
0.0
  9
$USERR2
 40
0.0
  9
$USERR3
 40
0.0
  9
$USERR4
 40
0.0
  9
$USERR5
 40
0.0
  9
$WORLDVIEW
 70
     1
  9
$SHADEDGE
 70
     3
  9
$SHADEDIF
 70
    70
  9
$TILEMODE
 70
     1
  9
$MAXACTVP
 70
    16
  9
$PINSBASE
 10
0.0
 20
0.0
 30
0.0
  9
$PLIMCHECK
 70
     0
  9
$PEXTMIN
 10
1.000000000000000E+20
 20
1.000000000000000E+20
 30
1.000000000000000E+20
  9
$PEXTMAX
 10
-1.000000000000000E+20
 20
-1.000000000000000E+20
 30
-1.000000000000000E+20
  9
$PLIMMIN
 10
0.0
 20
0.0
  9
$PLIMMAX
 10
12.0
 20
9.0
  9
$UNITMODE
 70
     0
  9
$VISRETAIN
 70
     0
  9
$PLINEGEN
 70
     0
  9
$PSLTSCALE
 70
     1
  9
$TREEDEPTH
 70
  3020
  9
$CMLSTYLE
  2
Standard
  9
$CMLJUST
 70
     0
  9
$CMLSCALE
 40
1.0
  9
$PROXYGRAPHICS
 70
     1
  9
$MEASUREMENT
 70
     0
  9
$CELWEIGHT
370
    -1
  9
$ENDCAPS
280
     0
  9
$JOINSTYLE
280
     0
  9
$LWDISPLAY
290
     0
  9
$INSUNITS
 70
     0
  9
$HYPERLINKBASE
  1

  9
$STYLESHEET
  1

  9
$XEDIT
290
     1
  9
$CEPSNTYPE
380
     0
  9
$PSTYLEMODE
290
     1
  9
$FINGERPRINTGUID
  2
{5E42FFBA-E80D-48AD-906E-93784D662E77}
  9
$VERSIONGUID
  2
{803C32BD-5864-4BA4-AAAD-20604C63BC7D}
  9
$EXTNAMES
290
     1
  9
$PSVPSCALE
 40
0.0
  9
$OLESTARTUP
290
     0
  0
ENDSEC
  0
SECTION
  2
CLASSES
  0
CLASS
  1
ACDBDICTIONARYWDFLT
  2
AcDbDictionaryWithDefault
  3
ObjectDBX Classes
 90
        0
280
     0
281
     0
  0
CLASS
  1
MATERIAL
  2
AcDbMaterial
  3
ObjectDBX Classes
 90
     1153
280
     0
281
     0
  0
CLASS
  1
VISUALSTYLE
  2
AcDbVisualStyle
  3
ObjectDBX Classes
 90
     4095
280
     0
281
     0
  0
CLASS
  1
SCALE
  2
AcDbScale
  3
ObjectDBX Classes
 90
     1153
280
     0
281
     0
  0
CLASS
  1
TABLESTYLE
  2
AcDbTableStyle
  3
ObjectDBX Classes
 90
     4095
280
     0
281
     0
  0
CLASS
  1
MLEADERSTYLE
  2
AcDbMLeaderStyle
  3
ACDB_MLEADERSTYLE_CLASS
 90
     4095
280
     0
281
     0
  0
CLASS
  1
ACDBSECTIONVIEWSTYLE
  2
AcDbSectionViewStyle
  3
ObjectDBX Classes
 90
     1025
280
     0
281
     0
  0
CLASS
  1
ACDBDETAILVIEWSTYLE
  2
AcDbDetailViewStyle
  3
ObjectDBX Classes
 90
     1025
280
     0
281
     0
  0
CLASS
  1
DICTIONARYVAR
  2
AcDbDictionaryVar
  3
ObjectDBX Classes
 90
        0
280
     0
281
     0
  0
CLASS
  1
CELLSTYLEMAP
  2
AcDbCellStyleMap
  3
ObjectDBX Classes
 90
     1152
280
     0
281
     0
  0
CLASS
  1
SORTENTSTABLE
  2
AcDbSortentsTable
  3
ObjectDBX Classes
 90
        0
280
     0
281
     0
  0
CLASS
  1
ACDBPLACEHOLDER
  2
AcDbPlaceHolder
  3
ObjectDBX Classes
 90
        0
280
     0
281
     0
  0
CLASS
  1
LAYOUT
  2
AcDbLayout
  3
ObjectDBX Classes
 90
        0
280
     0
281
     0
  0
ENDSEC
  0
SECTION
  2
TABLES
  0
TABLE
  2
VPORT
  5
8379
330
0
100
AcDbSymbolTable
 70
     1
  0
VPORT
  5
83E5
330
8379
100
AcDbSymbolTableRecord
100
AcDbViewportTableRecord
  2
*ACTIVE
 70
     0
 10
0.0
 20
0.0
 11
1.0
 21
1.0
 12
4200.000019557773
 22
5900.000027474012
 13
0.0
 23
0.0
 14
10.0
 24
10.0
 15
10.0
 25
10.0
 16
0.0
 26
0.0
 36
1.0
 17
0.0
 27
0.0
 37
0.0
 40
11876.28512550527
 41
2.050213675213675
 42
50.0
 43
0.0
 44
0.0
 50
0.0
 51
0.0
 71
     0
 72
   100
 73
     1
 74
     0
 75
     0
 76
     0
 77
     0
 78
     0
281
     0
 65
     1
110
0.0
120
0.0
130
0.0
111
1.0
121
0.0
131
0.0
112
0.0
122
1.0
132
0.0
 79
     0
146
0.0
1001
ACAD_NAV_VCDISPLAY
1070
     3
  0
ENDTAB
  0
TABLE
  2
LTYPE
  5
8376
330
0
100
AcDbSymbolTable
 70
     3
  0
LTYPE
  5
83CB
330
8376
100
AcDbSymbolTableRecord
100
AcDbLinetypeTableRecord
  2
ByBlock
 70
     0
  3

 72
    65
 73
     0
 40
0.0
  0
LTYPE
  5
83CC
330
8376
100
AcDbSymbolTableRecord
100
AcDbLinetypeTableRecord
  2
ByLayer
 70
     0
  3

 72
    65
 73
     0
 40
0.0
  0
LTYPE
  5
83CD
330
8376
100
AcDbSymbolTableRecord
100
AcDbLinetypeTableRecord
  2
CONTINUOUS
 70
     0
  3
Solid line
 72
    65
 73
     0
 40
0.0
  0
LTYPE
  5
83E6
330
8376
100
AcDbSymbolTableRecord
100
AcDbLinetypeTableRecord
  2
CENTER
 70
     0
  3
____ _ ____ _ ____ _ ____ _ ____ _ ____ _ ____ 
 72
    65
 73
     4
 40
2.0
 49
1.25
 74
     0
 49
-0.25
 74
     0
 49
0.25
 74
     0
 49
-0.25
 74
     0
  0
ENDTAB
  0
TABLE
  2
LAYER
  5
8373
330
0
100
AcDbSymbolTable
 70
     6
  0
LAYER
  5
83C5
102
{ACAD_XDICTIONARY
360
8428
102
}
330
8373
100
AcDbSymbolTableRecord
100
AcDbLayerTableRecord
  2
0
 70
     0
 62
     7
  6
CONTINUOUS
370
    -3
390
8380
  0
LAYER
  5
83E4
102
{ACAD_XDICTIONARY
360
842A
102
}
330
8373
100
AcDbSymbolTableRecord
100
AcDbLayerTableRecord
  2
3
 70
     0
 62
     2
  6
CONTINUOUS
370
    -3
390
8380
  0
LAYER
  5
83E7
102
{ACAD_XDICTIONARY
360
842C
102
}
330
8373
100
AcDbSymbolTableRecord
100
AcDbLayerTableRecord
  2
2
 70
     0
 62
     3
  6
CENTER
370
    -3
390
8380
  0
LAYER
  5
83E8
102
{ACAD_XDICTIONARY
360
842E
102
}
330
8373
100
AcDbSymbolTableRecord
100
AcDbLayerTableRecord
  2
1
 70
     0
 62
     4
  6
CONTINUOUS
370
    -3
390
8380
  0
LAYER
  5
83E9
102
{ACAD_XDICTIONARY
360
8430
102
}
330
8373
100
AcDbSymbolTableRecord
100
AcDbLayerTableRecord
  2
4
 70
     0
 62
     7
  6
CONTINUOUS
370
    -3
390
8380
  0
LAYER
  5
83EA
330
8373
100
AcDbSymbolTableRecord
100
AcDbLayerTableRecord
  2
DEFPOINTS
 70
     0
 62
     7
  6
CONTINUOUS
290
     0
370
    -3
390
8380
  0
ENDTAB
  0
TABLE
  2
STYLE
  5
8374
330
0
100
AcDbSymbolTable
 70
     2
  0
STYLE
  5
83C6
330
8374
100
AcDbSymbolTableRecord
100
AcDbTextStyleTableRecord
  2
STANDARD
 70
     0
 40
0.0
 41
1.0
 50
0.0
 71
     0
 42
180.0
  3
simplex.shx
  4
extfont.shx
  0
STYLE
  5
83CA
330
8374
100
AcDbSymbolTableRecord
100
AcDbTextStyleTableRecord
  2
Annotative
 70
     0
 40
0.0
 41
1.0
 50
0.0
 71
     0
 42
0.2
  3
txt
  4

1001
AcadAnnotative
1000
AnnotativeData
1002
{
1070
     1
1070
     1
1002
}
  0
ENDTAB
  0
TABLE
  2
VIEW
  5
8377
330
0
100
AcDbSymbolTable
 70
     0
  0
ENDTAB
  0
TABLE
  2
UCS
  5
8378
330
0
100
AcDbSymbolTable
 70
     0
  0
ENDTAB
  0
TABLE
  2
APPID
  5
837A
330
0
100
AcDbSymbolTable
 70
     8
  0
APPID
  5
83C7
330
837A
100
AcDbSymbolTableRecord
100
AcDbRegAppTableRecord
  2
ACAD
 70
     0
  0
APPID
  5
83CE
330
837A
100
AcDbSymbolTableRecord
100
AcDbRegAppTableRecord
  2
AcadAnnotative
 70
     0
  0
APPID
  5
843C
330
837A
100
AcDbSymbolTableRecord
100
AcDbRegAppTableRecord
  2
ACAD_NAV_VCDISPLAY
 70
     0
  0
APPID
  5
847F
330
837A
100
AcDbSymbolTableRecord
100
AcDbRegAppTableRecord
  2
ACAD_DSTYLE_DIMJAG
 70
     0
  0
APPID
  5
8480
330
837A
100
AcDbSymbolTableRecord
100
AcDbRegAppTableRecord
  2
ACAD_DSTYLE_DIMTALN
 70
     0
  0
APPID
  5
84CB
330
837A
100
AcDbSymbolTableRecord
100
AcDbRegAppTableRecord
  2
AcadAnnoMonitorAlertIconDisabled
 70
     0
  0
APPID
  5
84CC
330
837A
100
AcDbSymbolTableRecord
100
AcDbRegAppTableRecord
  2
ACAD_EXEMPT_FROM_CAD_STANDARDS
 70
     0
  0
APPID
  5
8729
330
837A
100
AcDbSymbolTableRecord
100
AcDbRegAppTableRecord
  2
ACAD_MLEADERVER
 70
     0
  0
ENDTAB
  0
TABLE
  2
DIMSTYLE
  5
837B
330
0
100
AcDbSymbolTable
 70
     3
100
AcDbDimStyleTable
 71
     1
340
83EB
  0
DIMSTYLE
105
83C8
102
{ACAD_REACTORS
330
8190
330
819D
330
81AA
330
81B7
102
}
330
837B
100
AcDbSymbolTableRecord
100
AcDbDimStyleTableRecord
  2
Standard
 70
     0
340
83C6
  0
DIMSTYLE
105
83C9
330
837B
100
AcDbSymbolTableRecord
100
AcDbDimStyleTableRecord
  2
Annotative
 70
     0
340
83C6
1001
AcadAnnotative
1000
AnnotativeData
1002
{
1070
     1
1070
     1
1002
}
  0
DIMSTYLE
105
83EB
102
{ACAD_REACTORS
330
8481
330
848E
330
849B
330
84AC
330
8523
330
8530
330
853D
330
854A
330
8557
330
856D
330
857A
330
8587
330
8594
330
85A1
330
85AE
330
85BB
330
85CD
330
85DF
102
}
330
837B
100
AcDbSymbolTableRecord
100
AcDbDimStyleTableRecord
  2
IGA
 70
     0
 40
2.0
 41
2.0
 42
0.5
 43
10.0
 44
1.0
 47
1.0
 48
1.0
 73
     0
 74
     0
 77
     1
 78
     8
140
3.0
141
0.0
143
0.03937
146
10.0
147
1.0
173
     1
271
     3
272
     3
279
     2
284
     8
285
     8
286
     8
340
83C6
  0
ENDTAB
  0
TABLE
  2
BLOCK_RECORD
  5
8372
330
0
100
AcDbSymbolTable
 70
    48
  0
BLOCK_RECORD
  5
83E0
102
{ACAD_XDICTIONARY
360
84A9
102
}
330
8372
100
AcDbSymbolTableRecord
100
AcDbBlockTableRecord
  2
*Model_Space
340
83E3
  0
BLOCK_RECORD
  5
83DC
330
8372
100
AcDbSymbolTableRecord
100
AcDbBlockTableRecord
  2
*Paper_Space
340
83DF
  0
BLOCK_RECORD
  5
83EF
330
8372
100
AcDbSymbolTableRecord
100
AcDbBlockTableRecord
  2
$MODEL_SPACE
340
0
  0
BLOCK_RECORD
  5
83F1
330
8372
100
AcDbSymbolTableRecord
100
AcDbBlockTableRecord
  2
$PAPER_SPACE
340
0
  0
BLOCK_RECORD
  5
83F3
330
8372
100
AcDbSymbolTableRecord
100
AcDbBlockTableRecord
  2
YA_N
340
0
102
{BLKREFS
331
7C21
331
7C3C
331
7C3D
331
7C62
331
7CA0
331
7CB0
331
7CDA
331
7CF1
102
}
  0
BLOCK_RECORD
  5
83F5
330
8372
100
AcDbSymbolTableRecord
100
AcDbBlockTableRecord
  2
*D3
340
0
  0
BLOCK_RECORD
  5
83F7
330
8372
100
AcDbSymbolTableRecord
100
AcDbBlockTableRecord
  2
_OPEN
340
0
102
{BLKREFS
331
82CF
331
82D0
331
82D8
331
82D9
331
82E1
331
82E2
331
82EA
331
82EB
331
82F3
331
82F4
331
82FC
331
82FD
331
8332
331
8333
331
8581
331
8582
331
858E
331
858F
331
859B
331
859C
331
85A8
331
85A9
331
85B5
331
85B6
331
833B
331
833C
331
8347
331
852A
331
852B
331
8537
331
8538
331
8544
331
8545
331
8551
331
8552
331
855E
331
855F
331
8567
331
8568
331
8574
331
8575
331
8305
331
8306
331
830E
331
830F
331
8317
331
8318
331
86ED
331
834F
331
8350
331
84FE
331
84FF
331
8507
331
8508
331
8510
331
8511
331
8358
331
8359
331
8488
331
8489
331
8320
331
8321
331
8693
331
8329
331
832A
331
861F
331
8620
331
8189
331
818A
331
8196
331
8197
331
81A3
331
81A4
331
81B0
331
81B1
331
81E7
331
81E8
102
}
  0
BLOCK_RECORD
  5
83F8
330
8372
100
AcDbSymbolTableRecord
100
AcDbBlockTableRecord
  2
*D5
340
0
  0
BLOCK_RECORD
  5
83FA
330
8372
100
AcDbSymbolTableRecord
100
AcDbBlockTableRecord
  2
*D6
340
0
  0
BLOCK_RECORD
  5
83FC
330
8372
100
AcDbSymbolTableRecord
100
AcDbBlockTableRecord
  2
*D7
340
0
  0
BLOCK_RECORD
  5
83FE
330
8372
100
AcDbSymbolTableRecord
100
AcDbBlockTableRecord
  2
*D8
340
0
  0
BLOCK_RECORD
  5
8400
330
8372
100
AcDbSymbolTableRecord
100
AcDbBlockTableRecord
  2
*D9
340
0
  0
BLOCK_RECORD
  5
8402
330
8372
100
AcDbSymbolTableRecord
100
AcDbBlockTableRecord
  2
*D10
340
0
  0
BLOCK_RECORD
  5
8404
330
8372
100
AcDbSymbolTableRecord
100
AcDbBlockTableRecord
  2
*D11
340
0
  0
BLOCK_RECORD
  5
8406
330
8372
100
AcDbSymbolTableRecord
100
AcDbBlockTableRecord
  2
*D12
340
0
  0
BLOCK_RECORD
  5
8408
330
8372
100
AcDbSymbolTableRecord
100
AcDbBlockTableRecord
  2
*D13
340
0
  0
BLOCK_RECORD
  5
840A
330
8372
100
AcDbSymbolTableRecord
100
AcDbBlockTableRecord
  2
*D14
340
0
  0
BLOCK_RECORD
  5
840C
330
8372
100
AcDbSymbolTableRecord
100
AcDbBlockTableRecord
  2
*D15
340
0
  0
BLOCK_RECORD
  5
840E
330
8372
100
AcDbSymbolTableRecord
100
AcDbBlockTableRecord
  2
*D16
340
0
  0
BLOCK_RECORD
  5
8410
330
8372
100
AcDbSymbolTableRecord
100
AcDbBlockTableRecord
  2
*D17
340
0
  0
BLOCK_RECORD
  5
8412
330
8372
100
AcDbSymbolTableRecord
100
AcDbBlockTableRecord
  2
_DOT
340
0
102
{BLKREFS
331
8346
102
}
  0
BLOCK_RECORD
  5
8413
330
8372
100
AcDbSymbolTableRecord
100
AcDbBlockTableRecord
  2
*D19
340
0
  0
BLOCK_RECORD
  5
8415
330
8372
100
AcDbSymbolTableRecord
100
AcDbBlockTableRecord
  2
*D20
340
0
  0
BLOCK_RECORD
  5
8419
330
8372
100
AcDbSymbolTableRecord
100
AcDbBlockTableRecord
  2
*D21
340
0
  0
BLOCK_RECORD
  5
841B
330
8372
100
AcDbSymbolTableRecord
100
AcDbBlockTableRecord
  2
*D22
340
0
  0
BLOCK_RECORD
  5
841D
330
8372
100
AcDbSymbolTableRecord
100
AcDbBlockTableRecord
  2
*D23
340
0
  0
BLOCK_RECORD
  5
841F
330
8372
100
AcDbSymbolTableRecord
100
AcDbBlockTableRecord
  2
*D24
340
0
  0
BLOCK_RECORD
  5
8421
330
8372
100
AcDbSymbolTableRecord
100
AcDbBlockTableRecord
  2
_NONE
340
0
  0
BLOCK_RECORD
  5
8423
330
8372
100
AcDbSymbolTableRecord
100
AcDbBlockTableRecord
  2
*D26
340
0
  0
BLOCK_RECORD
  5
8425
330
8372
100
AcDbSymbolTableRecord
100
AcDbBlockTableRecord
  2
*D27
340
0
  0
BLOCK_RECORD
  5
8482
330
8372
100
AcDbSymbolTableRecord
100
AcDbBlockTableRecord
  2
*D28
340
0
  0
BLOCK_RECORD
  5
848F
330
8372
100
AcDbSymbolTableRecord
100
AcDbBlockTableRecord
  2
*D29
340
0
  0
BLOCK_RECORD
  5
849C
330
8372
100
AcDbSymbolTableRecord
100
AcDbBlockTableRecord
  2
*D30
340
0
  0
BLOCK_RECORD
  5
84AD
330
8372
100
AcDbSymbolTableRecord
100
AcDbBlockTableRecord
  2
*D31
340
0
  0
BLOCK_RECORD
  5
8517
330
8372
100
AcDbSymbolTableRecord
100
AcDbBlockTableRecord
  2
*D32
340
0
  0
BLOCK_RECORD
  5
8524
330
8372
100
AcDbSymbolTableRecord
100
AcDbBlockTableRecord
  2
*D33
340
0
  0
BLOCK_RECORD
  5
8531
330
8372
100
AcDbSymbolTableRecord
100
AcDbBlockTableRecord
  2
*D34
340
0
  0
BLOCK_RECORD
  5
853E
330
8372
100
AcDbSymbolTableRecord
100
AcDbBlockTableRecord
  2
*D35
340
0
  0
BLOCK_RECORD
  5
854B
330
8372
100
AcDbSymbolTableRecord
100
AcDbBlockTableRecord
  2
*D36
340
0
  0
BLOCK_RECORD
  5
8558
330
8372
100
AcDbSymbolTableRecord
100
AcDbBlockTableRecord
  2
*D37
340
0
  0
BLOCK_RECORD
  5
856E
330
8372
100
AcDbSymbolTableRecord
100
AcDbBlockTableRecord
  2
*D38
340
0
  0
BLOCK_RECORD
  5
857B
330
8372
100
AcDbSymbolTableRecord
100
AcDbBlockTableRecord
  2
*D39
340
0
  0
BLOCK_RECORD
  5
8588
330
8372
100
AcDbSymbolTableRecord
100
AcDbBlockTableRecord
  2
*D40
340
0
  0
BLOCK_RECORD
  5
8595
330
8372
100
AcDbSymbolTableRecord
100
AcDbBlockTableRecord
  2
*D41
340
0
  0
BLOCK_RECORD
  5
85A2
330
8372
100
AcDbSymbolTableRecord
100
AcDbBlockTableRecord
  2
*D42
340
0
  0
BLOCK_RECORD
  5
85AF
330
8372
100
AcDbSymbolTableRecord
100
AcDbBlockTableRecord
  2
*D43
340
0
  0
BLOCK_RECORD
  5
85BC
330
8372
100
AcDbSymbolTableRecord
100
AcDbBlockTableRecord
  2
*D44
340
0
  0
BLOCK_RECORD
  5
85CE
330
8372
100
AcDbSymbolTableRecord
100
AcDbBlockTableRecord
  2
*D45
340
0
  0
BLOCK_RECORD
  5
85E0
330
8372
100
AcDbSymbolTableRecord
100
AcDbBlockTableRecord
  2
*D46
340
0
  0
BLOCK_RECORD
  5
8686
330
8372
100
AcDbSymbolTableRecord
100
AcDbBlockTableRecord
  2
_DotSmall
340
0
102
{BLKREFS
331
86EC
331
8694
102
}
  0
ENDTAB
  0
ENDSEC
  0
SECTION
  2
BLOCKS
  0
BLOCK
  5
83E1
330
83E0
100
AcDbEntity
  8
0
100
AcDbBlockBegin
  2
*Model_Space
 70
     0
 10
0.0
 20
0.0
 30
0.0
  3
*Model_Space
  1

  0
ENDBLK
  5
83E2
330
83E0
100
AcDbEntity
  8
0
100
AcDbBlockEnd
  0
BLOCK
  5
83DD
330
83DC
100
AcDbEntity
 67
     1
  8
0
100
AcDbBlockBegin
  2
*Paper_Space
 70
     0
 10
0.0
 20
0.0
 30
0.0
  3
*Paper_Space
  1

  0
ENDBLK
  5
83DE
330
83DC
100
AcDbEntity
 67
     1
  8
0
100
AcDbBlockEnd
  0
BLOCK
  5
83F0
330
83EF
100
AcDbEntity
  8
0
100
AcDbBlockBegin
  2
$MODEL_SPACE
 70
     0
 10
0.0
 20
0.0
 30
0.0
  3
$MODEL_SPACE
  1

  0
ENDBLK
  5
1B
330
83EF
100
AcDbEntity
  8
0
100
AcDbBlockEnd
  0
BLOCK
  5
83F2
330
83F1
100
AcDbEntity
  8
0
100
AcDbBlockBegin
  2
$PAPER_SPACE
 70
     0
 10
0.0
 20
0.0
 30
0.0
  3
$PAPER_SPACE
  1

  0
ENDBLK
  5
18
330
83F1
100
AcDbEntity
  8
0
100
AcDbBlockEnd
  0
BLOCK
  5
83F4
330
83F3
100
AcDbEntity
  8
0
100
AcDbBlockBegin
  2
YA_N
 70
     0
 10
0.0
 20
0.0
 30
0.0
  3
YA_N
  1

  0
ENDBLK
  5
79FE
330
83F3
100
AcDbEntity
  8
0
100
AcDbBlockEnd
  0
BLOCK
  5
83F6
330
83F5
100
AcDbEntity
  8
0
100
AcDbBlockBegin
  2
*D3
 70
     1
 10
0.0
 20
0.0
 30
0.0
  3
*D3
  1

  0
LINE
  5
82CC
330
83F5
100
AcDbEntity
  8
3
 62
     0
100
AcDbLine
 10
5228.039116178845
 20
4757.552421855573
 30
0.0
 11
5228.039116178845
 21
5040.007557733632
 31
0.0
  0
LINE
  5
82CD
330
83F5
100
AcDbEntity
  8
3
 62
     0
100
AcDbLine
 10
6928.039116178847
 20
4757.552421855573
 30
0.0
 11
6928.039116178847
 21
5040.007557733632
 31
0.0
  0
LINE
  5
82CE
330
83F5
100
AcDbEntity
  8
3
 62
     0
100
AcDbLine
 10
5308.039116178846
 20
5000.007557733631
 30
0.0
 11
6848.039116178846
 21
5000.007557733631
 31
0.0
  0
INSERT
  5
82CF
330
83F5
100
AcDbEntity
  8
3
 62
     0
100
AcDbBlockReference
  2
_OPEN
 10
5228.039116178845
 20
5000.007557733631
 30
0.0
 41
80.0
 42
80.0
 43
80.0
 50
180.0
  0
INSERT
  5
82D0
330
83F5
100
AcDbEntity
  8
3
 62
     0
100
AcDbBlockReference
  2
_OPEN
 10
6928.039116178847
 20
5000.007557733631
 30
0.0
 41
80.0
 42
80.0
 43
80.0
  0
TEXT
  5
8361
330
83F5
100
AcDbEntity
  8
3
 62
     0
100
AcDbText
 10
5838.04
 20
4887.61
 30
0.0
 40
120.0
  1
1700
100
AcDbText
  0
POINT
  5
82D2
330
83F5
100
AcDbEntity
  8
DEFPOINTS
 62
     0
100
AcDbPoint
 10
5228.039116178845
 20
4737.552421855573
 30
0.0
  0
POINT
  5
82D3
330
83F5
100
AcDbEntity
  8
DEFPOINTS
 62
     0
100
AcDbPoint
 10
6928.039116178847
 20
4737.552421855573
 30
0.0
  0
POINT
  5
82D4
330
83F5
100
AcDbEntity
  8
DEFPOINTS
 62
     0
100
AcDbPoint
 10
6928.039116178847
 20
5000.007557733631
 30
0.0
  0
ENDBLK
  5
8134
330
83F5
100
AcDbEntity
  8
0
100
AcDbBlockEnd
  0
BLOCK
  5
8417
330
83F7
100
AcDbEntity
  8
0
100
AcDbBlockBegin
  2
_OPEN
 70
     0
 10
0.0
 20
0.0
 30
0.0
  3
_OPEN
  1

  0
LINE
  5
7F3A
330
83F7
100
AcDbEntity
  8
0
  6
ByBlock
 62
     0
100
AcDbLine
 10
-1.0
 20
0.1666666666666666
 30
0.0
 11
0.0
 21
0.0
 31
0.0
  0
LINE
  5
7F3B
330
83F7
100
AcDbEntity
  8
0
  6
ByBlock
 62
     0
100
AcDbLine
 10
0.0
 20
0.0
 30
0.0
 11
-1.0
 21
-0.1666666666666666
 31
0.0
  0
LINE
  5
7F3C
330
83F7
100
AcDbEntity
  8
0
  6
ByBlock
 62
     0
100
AcDbLine
 10
0.0
 20
0.0
 30
0.0
 11
-1.0
 21
0.0
 31
0.0
  0
ENDBLK
  5
7F3D
330
83F7
100
AcDbEntity
  8
0
100
AcDbBlockEnd
  0
BLOCK
  5
83F9
330
83F8
100
AcDbEntity
  8
0
100
AcDbBlockBegin
  2
*D5
 70
     1
 10
0.0
 20
0.0
 30
0.0
  3
*D5
  1

  0
LINE
  5
82D5
330
83F8
100
AcDbEntity
  8
3
 62
     0
100
AcDbLine
 10
4843.039116178847
 20
4227.929658934043
 30
0.0
 11
4843.039116178847
 21
5328.496809489447
 31
0.0
  0
LINE
  5
82D6
330
83F8
100
AcDbEntity
  8
3
 62
     0
100
AcDbLine
 10
6078.039116178846
 20
5185.719398998529
 30
0.0
 11
6078.039116178846
 21
5328.496809489447
 31
0.0
  0
LINE
  5
82D7
330
83F8
100
AcDbEntity
  8
3
 62
     0
100
AcDbLine
 10
4923.039116178848
 20
5288.496809489447
 30
0.0
 11
5998.039116178847
 21
5288.496809489447
 31
0.0
  0
INSERT
  5
82D8
330
83F8
100
AcDbEntity
  8
3
 62
     0
100
AcDbBlockReference
  2
_OPEN
 10
4843.039116178847
 20
5288.496809489447
 30
0.0
 41
80.0
 42
80.0
 43
80.0
 50
180.0
  0
INSERT
  5
82D9
330
83F8
100
AcDbEntity
  8
3
 62
     0
100
AcDbBlockReference
  2
_OPEN
 10
6078.039116178846
 20
5288.496809489447
 30
0.0
 41
80.0
 42
80.0
 43
80.0
  0
TEXT
  5
8362
330
83F8
100
AcDbEntity
  8
3
 62
     0
100
AcDbText
 10
5220.539999999999
 20
5276.1
 30
0.0
 40
120.0
  1
MAX
100
AcDbText
  0
TEXT
  5
8363
330
83F8
100
AcDbEntity
  8
3
 62
     0
100
AcDbText
 10
5220.539999999999
 20
5120.1
 30
0.0
 40
120.0
  1
1280
100
AcDbText
  0
POINT
  5
82DB
330
83F8
100
AcDbEntity
  8
DEFPOINTS
 62
     0
100
AcDbPoint
 10
4843.039116178847
 20
4207.929658934045
 30
0.0
  0
POINT
  5
82DC
330
83F8
100
AcDbEntity
  8
DEFPOINTS
 62
     0
100
AcDbPoint
 10
6078.039116178846
 20
5165.719398998528
 30
0.0
  0
POINT
  5
82DD
330
83F8
100
AcDbEntity
  8
DEFPOINTS
 62
     0
100
AcDbPoint
 10
6078.039116178846
 20
5288.496809489447
 30
0.0
  0
ENDBLK
  5
813F
330
83F8
100
AcDbEntity
  8
0
100
AcDbBlockEnd
  0
BLOCK
  5
83FB
330
83FA
100
AcDbEntity
  8
0
100
AcDbBlockBegin
  2
*D6
 70
     1
 10
0.0
 20
0.0
 30
0.0
  3
*D6
  1

  0
LINE
  5
82DE
330
83FA
100
AcDbEntity
  8
3
 62
     0
100
AcDbLine
 10
6078.039116178846
 20
5185.719398998529
 30
0.0
 11
6078.039116178846
 21
5328.10922238426
 31
0.0
  0
LINE
  5
82DF
330
83FA
100
AcDbEntity
  8
3
 62
     0
100
AcDbLine
 10
7088.039116178847
 20
3843.267590036312
 30
0.0
 11
7088.039116178847
 21
5328.10922238426
 31
0.0
  0
LINE
  5
82E0
330
83FA
100
AcDbEntity
  8
3
 62
     0
100
AcDbLine
 10
6158.039116178847
 20
5288.10922238426
 30
0.0
 11
7008.039116178847
 21
5288.10922238426
 31
0.0
  0
INSERT
  5
82E1
330
83FA
100
AcDbEntity
  8
3
 62
     0
100
AcDbBlockReference
  2
_OPEN
 10
6078.039116178846
 20
5288.10922238426
 30
0.0
 41
80.0
 42
80.0
 43
80.0
 50
180.0
  0
INSERT
  5
82E2
330
83FA
100
AcDbEntity
  8
3
 62
     0
100
AcDbBlockReference
  2
_OPEN
 10
7088.039116178847
 20
5288.10922238426
 30
0.0
 41
80.0
 42
80.0
 43
80.0
  0
TEXT
  5
8364
330
83FA
100
AcDbEntity
  8
3
 62
     0
100
AcDbText
 10
6343.04
 20
5207.14
 30
0.0
 40
120.0
  1
(1020)
100
AcDbText
  0
POINT
  5
82E4
330
83FA
100
AcDbEntity
  8
DEFPOINTS
 62
     0
100
AcDbPoint
 10
6078.039116178846
 20
5165.719398998528
 30
0.0
  0
POINT
  5
82E5
330
83FA
100
AcDbEntity
  8
DEFPOINTS
 62
     0
100
AcDbPoint
 10
7088.039116178847
 20
3823.267590036313
 30
0.0
  0
POINT
  5
82E6
330
83FA
100
AcDbEntity
  8
DEFPOINTS
 62
     0
100
AcDbPoint
 10
7088.039116178847
 20
5288.10922238426
 30
0.0
  0
ENDBLK
  5
814A
330
83FA
100
AcDbEntity
  8
0
100
AcDbBlockEnd
  0
BLOCK
  5
83FD
330
83FC
100
AcDbEntity
  8
0
100
AcDbBlockBegin
  2
*D7
 70
     1
 10
0.0
 20
0.0
 30
0.0
  3
*D7
  1

  0
LINE
  5
82E7
330
83FC
100
AcDbEntity
  8
3
 62
     0
100
AcDbLine
 10
6950.339116178849
 20
4552.929658934043
 30
0.0
 11
7379.30874109135
 21
4552.929658934043
 31
0.0
  0
LINE
  5
82E8
330
83FC
100
AcDbEntity
  8
3
 62
     0
100
AcDbLine
 10
6950.339116178849
 20
3302.929658934043
 30
0.0
 11
7379.30874109135
 21
3302.929658934043
 31
0.0
  0
LINE
  5
82E9
330
83FC
100
AcDbEntity
  8
3
 62
     0
100
AcDbLine
 10
7339.30874109135
 20
4472.929658934043
 30
0.0
 11
7339.30874109135
 21
3382.929658934044
 31
0.0
  0
INSERT
  5
82EA
330
83FC
100
AcDbEntity
  8
3
 62
     0
100
AcDbBlockReference
  2
_OPEN
 10
7339.30874109135
 20
4552.929658934043
 30
0.0
 41
80.0
 42
80.0
 43
80.0
 50
90.0
  0
INSERT
  5
82EB
330
83FC
100
AcDbEntity
  8
3
 62
     0
100
AcDbBlockReference
  2
_OPEN
 10
7339.30874109135
 20
3302.929658934043
 30
0.0
 41
80.0
 42
80.0
 43
80.0
 50
270.0
  0
TEXT
  5
8365
330
83FC
100
AcDbEntity
  8
3
 62
     0
100
AcDbText
 10
6999.310000000001
 20
3715.530000000001
 30
0.0
 40
120.0
  1
\U+03C61250
100
AcDbText
  0
POINT
  5
82ED
330
83FC
100
AcDbEntity
  8
DEFPOINTS
 62
     0
100
AcDbPoint
 10
6930.339116178848
 20
4552.929658934043
 30
0.0
  0
POINT
  5
82EE
330
83FC
100
AcDbEntity
  8
DEFPOINTS
 62
     0
100
AcDbPoint
 10
6930.339116178848
 20
3302.929658934043
 30
0.0
  0
POINT
  5
82EF
330
83FC
100
AcDbEntity
  8
DEFPOINTS
 62
     0
100
AcDbPoint
 10
7339.30874109135
 20
3302.929658934043
 30
0.0
  0
ENDBLK
  5
8028
330
83FC
100
AcDbEntity
  8
0
100
AcDbBlockEnd
  0
BLOCK
  5
83FF
330
83FE
100
AcDbEntity
  8
0
100
AcDbBlockBegin
  2
*D8
 70
     1
 10
0.0
 20
0.0
 30
0.0
  3
*D8
  1

  0
LINE
  5
82F0
330
83FE
100
AcDbEntity
  8
3
 62
     0
100
AcDbLine
 10
1680.169444624878
 20
8705.437268273023
 30
0.0
 11
1211.153303389045
 21
8705.437268273023
 31
0.0
  0
LINE
  5
82F1
330
83FE
100
AcDbEntity
  8
3
 62
     0
100
AcDbLine
 10
1680.169444624878
 20
6585.437268273023
 30
0.0
 11
1211.153303389044
 21
6585.437268273023
 31
0.0
  0
LINE
  5
82F2
330
83FE
100
AcDbEntity
  8
3
 62
     0
100
AcDbLine
 10
1251.153303389045
 20
8625.437268273023
 30
0.0
 11
1251.153303389044
 21
6665.437268273021
 31
0.0
  0
INSERT
  5
82F3
330
83FE
100
AcDbEntity
  8
3
 62
     0
100
AcDbBlockReference
  2
_OPEN
 10
1251.153303389045
 20
8705.437268273023
 30
0.0
 41
80.0
 42
80.0
 43
80.0
 50
90.0
  0
INSERT
  5
82F4
330
83FE
100
AcDbEntity
  8
3
 62
     0
100
AcDbBlockReference
  2
_OPEN
 10
1251.153303389044
 20
6585.437268273023
 30
0.0
 41
80.0
 42
80.0
 43
80.0
 50
270.0
  0
TEXT
  5
8366
330
83FE
100
AcDbEntity
  8
3
 62
     0
100
AcDbText
 10
911.153
 20
7433.04
 30
0.0
 40
120.0
  1
2120
100
AcDbText
  0
POINT
  5
82F6
330
83FE
100
AcDbEntity
  8
DEFPOINTS
 62
     0
100
AcDbPoint
 10
1700.169444624878
 20
8705.437268273023
 30
0.0
  0
POINT
  5
82F7
330
83FE
100
AcDbEntity
  8
DEFPOINTS
 62
     0
100
AcDbPoint
 10
1700.169444624878
 20
6585.437268273023
 30
0.0
  0
POINT
  5
82F8
330
83FE
100
AcDbEntity
  8
DEFPOINTS
 62
     0
100
AcDbPoint
 10
1251.153303389044
 20
6585.437268273023
 30
0.0
  0
ENDBLK
  5
7FFC
330
83FE
100
AcDbEntity
  8
0
100
AcDbBlockEnd
  0
BLOCK
  5
8401
330
8400
100
AcDbEntity
  8
0
100
AcDbBlockBegin
  2
*D9
 70
     1
 10
0.0
 20
0.0
 30
0.0
  3
*D9
  1

  0
LINE
  5
82F9
330
8400
100
AcDbEntity
  8
3
 62
     0
100
AcDbLine
 10
1700.169444624878
 20
8725.437268273024
 30
0.0
 11
1700.169444624878
 21
8950.073406778209
 31
0.0
  0
LINE
  5
82FA
330
8400
100
AcDbEntity
  8
3
 62
     0
100
AcDbLine
 10
3200.169444624878
 20
8725.437268273024
 30
0.0
 11
3200.169444624878
 21
8950.073406778209
 31
0.0
  0
LINE
  5
82FB
330
8400
100
AcDbEntity
  8
3
 62
     0
100
AcDbLine
 10
1780.169444624878
 20
8910.073406778208
 30
0.0
 11
3120.169444624878
 21
8910.073406778208
 31
0.0
  0
INSERT
  5
82FC
330
8400
100
AcDbEntity
  8
3
 62
     0
100
AcDbBlockReference
  2
_OPEN
 10
1700.169444624878
 20
8910.073406778208
 30
0.0
 41
80.0
 42
80.0
 43
80.0
 50
180.0
  0
INSERT
  5
82FD
330
8400
100
AcDbEntity
  8
3
 62
     0
100
AcDbBlockReference
  2
_OPEN
 10
3200.169444624878
 20
8910.073406778208
 30
0.0
 41
80.0
 42
80.0
 43
80.0
  0
TEXT
  5
8367
330
8400
100
AcDbEntity
  8
3
 62
     0
100
AcDbText
 10
2210.17
 20
8797.670000000001
 30
0.0
 40
120.0
  1
1500
100
AcDbText
  0
POINT
  5
82FF
330
8400
100
AcDbEntity
  8
DEFPOINTS
 62
     0
100
AcDbPoint
 10
1700.169444624878
 20
8705.437268273023
 30
0.0
  0
POINT
  5
8300
330
8400
100
AcDbEntity
  8
DEFPOINTS
 62
     0
100
AcDbPoint
 10
3200.169444624878
 20
8705.437268273023
 30
0.0
  0
POINT
  5
8301
330
8400
100
AcDbEntity
  8
DEFPOINTS
 62
     0
100
AcDbPoint
 10
3200.169444624878
 20
8910.073406778208
 30
0.0
  0
ENDBLK
  5
7FF1
330
8400
100
AcDbEntity
  8
0
100
AcDbBlockEnd
  0
BLOCK
  5
8403
330
8402
100
AcDbEntity
  8
0
100
AcDbBlockBegin
  2
*D10
 70
     1
 10
0.0
 20
0.0
 30
0.0
  3
*D10
  1

  0
LINE
  5
8302
330
8402
100
AcDbEntity
  8
3
 62
     0
100
AcDbLine
 10
3200.169444624878
 20
8725.437268273024
 30
0.0
 11
3200.169444624878
 21
8950.073406778209
 31
0.0
  0
LINE
  5
8303
330
8402
100
AcDbEntity
  8
3
 62
     0
100
AcDbLine
 10
4150.169444624879
 20
7605.437268273023
 30
0.0
 11
4150.169444624879
 21
8950.073406778209
 31
0.0
  0
LINE
  5
8304
330
8402
100
AcDbEntity
  8
3
 62
     0
100
AcDbLine
 10
3280.16944462488
 20
8910.073406778208
 30
0.0
 11
4070.169444624879
 21
8910.073406778208
 31
0.0
  0
INSERT
  5
8305
330
8402
100
AcDbEntity
  8
3
 62
     0
100
AcDbBlockReference
  2
_OPEN
 10
3200.169444624878
 20
8910.073406778208
 30
0.0
 41
80.0
 42
80.0
 43
80.0
 50
180.0
  0
INSERT
  5
8306
330
8402
100
AcDbEntity
  8
3
 62
     0
100
AcDbBlockReference
  2
_OPEN
 10
4150.169444624879
 20
8910.073406778208
 30
0.0
 41
80.0
 42
80.0
 43
80.0
  0
TEXT
  5
8368
330
8402
100
AcDbEntity
  8
3
 62
     0
100
AcDbText
 10
3435.17
 20
8797.670000000001
 30
0.0
 40
120.0
  1
950
100
AcDbText
  0
POINT
  5
8308
330
8402
100
AcDbEntity
  8
DEFPOINTS
 62
     0
100
AcDbPoint
 10
3200.169444624878
 20
8705.437268273023
 30
0.0
  0
POINT
  5
8309
330
8402
100
AcDbEntity
  8
DEFPOINTS
 62
     0
100
AcDbPoint
 10
4150.169444624879
 20
7585.437268273023
 30
0.0
  0
POINT
  5
830A
330
8402
100
AcDbEntity
  8
DEFPOINTS
 62
     0
100
AcDbPoint
 10
4150.169444624879
 20
8910.073406778208
 30
0.0
  0
ENDBLK
  5
7FE6
330
8402
100
AcDbEntity
  8
0
100
AcDbBlockEnd
  0
BLOCK
  5
8405
330
8404
100
AcDbEntity
  8
0
100
AcDbBlockBegin
  2
*D11
 70
     1
 10
0.0
 20
0.0
 30
0.0
  3
*D11
  1

  0
LINE
  5
830B
330
8404
100
AcDbEntity
  8
3
 62
     0
100
AcDbLine
 10
4170.169444624879
 20
7585.437268273023
 30
0.0
 11
4456.495845732457
 21
7585.437268273023
 31
0.0
  0
LINE
  5
830C
330
8404
100
AcDbEntity
  8
3
 62
     0
100
AcDbLine
 10
4170.169444624879
 20
6585.437268273023
 30
0.0
 11
4456.495845732457
 21
6585.437268273023
 31
0.0
  0
LINE
  5
830D
330
8404
100
AcDbEntity
  8
3
 62
     0
100
AcDbLine
 10
4416.495845732457
 20
7505.437268273023
 30
0.0
 11
4416.495845732457
 21
6665.437268273023
 31
0.0
  0
INSERT
  5
830E
330
8404
100
AcDbEntity
  8
3
 62
     0
100
AcDbBlockReference
  2
_OPEN
 10
4416.495845732457
 20
7585.437268273023
 30
0.0
 41
80.0
 42
80.0
 43
80.0
 50
90.0
  0
INSERT
  5
830F
330
8404
100
AcDbEntity
  8
3
 62
     0
100
AcDbBlockReference
  2
_OPEN
 10
4416.495845732457
 20
6585.437268273023
 30
0.0
 41
80.0
 42
80.0
 43
80.0
 50
270.0
  0
TEXT
  5
8369
330
8404
100
AcDbEntity
  8
3
 62
     0
100
AcDbText
 10
4076.5
 20
6873.04
 30
0.0
 40
120.0
  1
1000
100
AcDbText
  0
POINT
  5
8311
330
8404
100
AcDbEntity
  8
DEFPOINTS
 62
     0
100
AcDbPoint
 10
4150.169444624879
 20
7585.437268273023
 30
0.0
  0
POINT
  5
8312
330
8404
100
AcDbEntity
  8
DEFPOINTS
 62
     0
100
AcDbPoint
 10
4150.169444624879
 20
6585.437268273023
 30
0.0
  0
POINT
  5
8313
330
8404
100
AcDbEntity
  8
DEFPOINTS
 62
     0
100
AcDbPoint
 10
4416.495845732457
 20
6585.437268273023
 30
0.0
  0
ENDBLK
  5
7FDB
330
8404
100
AcDbEntity
  8
0
100
AcDbBlockEnd
  0
BLOCK
  5
8407
330
8406
100
AcDbEntity
  8
0
100
AcDbBlockBegin
  2
*D12
 70
     1
 10
0.0
 20
0.0
 30
0.0
  3
*D12
  1

  0
LINE
  5
8314
330
8406
100
AcDbEntity
  8
3
 62
     0
100
AcDbLine
 10
4150.169444624879
 20
6565.437268273022
 30
0.0
 11
4150.169444624879
 21
6180.683390083371
 31
0.0
  0
LINE
  5
8315
330
8406
100
AcDbEntity
  8
3
 62
     0
100
AcDbLine
 10
1700.169444624878
 20
6565.437268273021
 30
0.0
 11
1700.169444624878
 21
6180.683390083371
 31
0.0
  0
LINE
  5
8316
330
8406
100
AcDbEntity
  8
3
 62
     0
100
AcDbLine
 10
4070.169444624879
 20
6220.683390083371
 30
0.0
 11
1780.169444624878
 21
6220.683390083371
 31
0.0
  0
INSERT
  5
8317
330
8406
100
AcDbEntity
  8
3
 62
     0
100
AcDbBlockReference
  2
_OPEN
 10
4150.169444624879
 20
6220.683390083371
 30
0.0
 41
80.0
 42
80.0
 43
80.0
  0
INSERT
  5
8318
330
8406
100
AcDbEntity
  8
3
 62
     0
100
AcDbBlockReference
  2
_OPEN
 10
1700.169444624878
 20
6220.683390083371
 30
0.0
 41
80.0
 42
80.0
 43
80.0
 50
180.0
  0
TEXT
  5
836A
330
8406
100
AcDbEntity
  8
3
 62
     0
100
AcDbText
 10
2685.17
 20
6108.28
 30
0.0
 40
120.0
  1
2450
100
AcDbText
  0
POINT
  5
831A
330
8406
100
AcDbEntity
  8
DEFPOINTS
 62
     0
100
AcDbPoint
 10
4150.169444624879
 20
6585.437268273023
 30
0.0
  0
POINT
  5
831B
330
8406
100
AcDbEntity
  8
DEFPOINTS
 62
     0
100
AcDbPoint
 10
1700.169444624878
 20
6585.437268273023
 30
0.0
  0
POINT
  5
831C
330
8406
100
AcDbEntity
  8
DEFPOINTS
 62
     0
100
AcDbPoint
 10
1700.169444624878
 20
6220.683390083371
 30
0.0
  0
ENDBLK
  5
7FD0
330
8406
100
AcDbEntity
  8
0
100
AcDbBlockEnd
  0
BLOCK
  5
8409
330
8408
100
AcDbEntity
  8
0
100
AcDbBlockBegin
  2
*D13
 70
     1
 10
0.0
 20
0.0
 30
0.0
  3
*D13
  1

  0
LINE
  5
831D
330
8408
100
AcDbEntity
  8
3
 62
     0
100
AcDbLine
 10
3784.169444624879
 20
4772.929658934045
 30
0.0
 11
3784.169444624879
 21
5045.940691624004
 31
0.0
  0
LINE
  5
831E
330
8408
100
AcDbEntity
  8
3
 62
     0
100
AcDbLine
 10
2504.169444624878
 20
4772.929658934045
 30
0.0
 11
2504.169444624878
 21
5045.940691624004
 31
0.0
  0
LINE
  5
831F
330
8408
100
AcDbEntity
  8
3
 62
     0
100
AcDbLine
 10
3704.169444624878
 20
5005.940691624002
 30
0.0
 11
2584.169444624878
 21
5005.940691624002
 31
0.0
  0
INSERT
  5
8320
330
8408
100
AcDbEntity
  8
3
 62
     0
100
AcDbBlockReference
  2
_OPEN
 10
3784.169444624879
 20
5005.940691624002
 30
0.0
 41
80.0
 42
80.0
 43
80.0
  0
INSERT
  5
8321
330
8408
100
AcDbEntity
  8
3
 62
     0
100
AcDbBlockReference
  2
_OPEN
 10
2504.169444624878
 20
5005.940691624002
 30
0.0
 41
80.0
 42
80.0
 43
80.0
 50
180.0
  0
TEXT
  5
836B
330
8408
100
AcDbEntity
  8
3
 62
     0
100
AcDbText
 10
2904.17
 20
4893.54
 30
0.0
 40
120.0
  1
1280
100
AcDbText
  0
POINT
  5
8323
330
8408
100
AcDbEntity
  8
DEFPOINTS
 62
     0
100
AcDbPoint
 10
3784.169444624879
 20
4752.929658934045
 30
0.0
  0
POINT
  5
8324
330
8408
100
AcDbEntity
  8
DEFPOINTS
 62
     0
100
AcDbPoint
 10
2504.169444624878
 20
4752.929658934045
 30
0.0
  0
POINT
  5
8325
330
8408
100
AcDbEntity
  8
DEFPOINTS
 62
     0
100
AcDbPoint
 10
2504.169444624878
 20
5005.940691624002
 30
0.0
  0
ENDBLK
  5
7FBA
330
8408
100
AcDbEntity
  8
0
100
AcDbBlockEnd
  0
BLOCK
  5
840B
330
840A
100
AcDbEntity
  8
0
100
AcDbBlockBegin
  2
*D14
 70
     1
 10
0.0
 20
0.0
 30
0.0
  3
*D14
  1

  0
LINE
  5
8326
330
840A
100
AcDbEntity
  8
3
 62
     0
100
AcDbLine
 10
3784.169444624879
 20
4772.929658934045
 30
0.0
 11
3784.169444624879
 21
5293.003534080533
 31
0.0
  0
LINE
  5
8327
330
840A
100
AcDbEntity
  8
3
 62
     0
100
AcDbLine
 10
2450.169444624878
 20
4851.366197182898
 30
0.0
 11
2450.169444624878
 21
5293.003534080533
 31
0.0
  0
LINE
  5
8328
330
840A
100
AcDbEntity
  8
3
 62
     0
100
AcDbLine
 10
3704.169444624878
 20
5253.003534080533
 30
0.0
 11
2530.169444624878
 21
5253.003534080533
 31
0.0
  0
INSERT
  5
8329
330
840A
100
AcDbEntity
  8
3
 62
     0
100
AcDbBlockReference
  2
_OPEN
 10
3784.169444624879
 20
5253.003534080533
 30
0.0
 41
80.0
 42
80.0
 43
80.0
  0
INSERT
  5
832A
330
840A
100
AcDbEntity
  8
3
 62
     0
100
AcDbBlockReference
  2
_OPEN
 10
2450.169444624878
 20
5253.003534080533
 30
0.0
 41
80.0
 42
80.0
 43
80.0
 50
180.0
  0
TEXT
  5
836C
330
840A
100
AcDbEntity
  8
3
 62
     0
100
AcDbText
 10
2877.17
 20
5140.6
 30
0.0
 40
120.0
  1
1334
100
AcDbText
  0
POINT
  5
832C
330
840A
100
AcDbEntity
  8
DEFPOINTS
 62
     0
100
AcDbPoint
 10
3784.169444624879
 20
4752.929658934045
 30
0.0
  0
POINT
  5
832D
330
840A
100
AcDbEntity
  8
DEFPOINTS
 62
     0
100
AcDbPoint
 10
2450.169444624878
 20
4831.366197182897
 30
0.0
  0
POINT
  5
832E
330
840A
100
AcDbEntity
  8
DEFPOINTS
 62
     0
100
AcDbPoint
 10
2450.169444624878
 20
5253.003534080533
 30
0.0
  0
ENDBLK
  5
7FAF
330
840A
100
AcDbEntity
  8
0
100
AcDbBlockEnd
  0
BLOCK
  5
840D
330
840C
100
AcDbEntity
  8
0
100
AcDbBlockBegin
  2
*D15
 70
     1
 10
0.0
 20
0.0
 30
0.0
  3
*D15
  1

  0
LINE
  5
832F
330
840C
100
AcDbEntity
  8
3
 62
     0
100
AcDbLine
 10
2431.169444624878
 20
4752.929658934045
 30
0.0
 11
1245.934760259599
 21
4752.929658934045
 31
0.0
  0
LINE
  5
8330
330
840C
100
AcDbEntity
  8
3
 62
     0
100
AcDbLine
 10
1444.143307902599
 20
3927.929658934044
 30
0.0
 11
1245.934760259599
 21
3927.929658934044
 31
0.0
  0
LINE
  5
8331
330
840C
100
AcDbEntity
  8
3
 62
     0
100
AcDbLine
 10
1285.934760259599
 20
4672.929658934044
 30
0.0
 11
1285.934760259599
 21
4007.929658934044
 31
0.0
  0
INSERT
  5
8332
330
840C
100
AcDbEntity
  8
3
 62
     0
100
AcDbBlockReference
  2
_OPEN
 10
1285.934760259599
 20
4752.929658934045
 30
0.0
 41
80.0
 42
80.0
 43
80.0
 50
90.0
  0
INSERT
  5
8333
330
840C
100
AcDbEntity
  8
3
 62
     0
100
AcDbBlockReference
  2
_OPEN
 10
1285.934760259599
 20
3927.929658934044
 30
0.0
 41
80.0
 42
80.0
 43
80.0
 50
270.0
  0
TEXT
  5
836D
330
840C
100
AcDbEntity
  8
3
 62
     0
100
AcDbText
 10
945.9349999999998
 20
4128.029999999999
 30
0.0
 40
120.0
  1
825
100
AcDbText
  0
POINT
  5
8335
330
840C
100
AcDbEntity
  8
DEFPOINTS
 62
     0
100
AcDbPoint
 10
2451.169444624878
 20
4752.929658934045
 30
0.0
  0
POINT
  5
8336
330
840C
100
AcDbEntity
  8
DEFPOINTS
 62
     0
100
AcDbPoint
 10
1464.143307902599
 20
3927.929658934044
 30
0.0
  0
POINT
  5
8337
330
840C
100
AcDbEntity
  8
DEFPOINTS
 62
     0
100
AcDbPoint
 10
1285.934760259599
 20
3927.929658934044
 30
0.0
  0
ENDBLK
  5
7F8E
330
840C
100
AcDbEntity
  8
0
100
AcDbBlockEnd
  0
BLOCK
  5
840F
330
840E
100
AcDbEntity
  8
0
100
AcDbBlockBegin
  2
*D16
 70
     1
 10
0.0
 20
0.0
 30
0.0
  3
*D16
  1

  0
LINE
  5
8338
330
840E
100
AcDbEntity
  8
3
 62
     0
100
AcDbLine
 10
1444.143307902599
 20
3927.929658934044
 30
0.0
 11
1245.934760259599
 21
3927.929658934044
 31
0.0
  0
LINE
  5
8339
330
840E
100
AcDbEntity
  8
3
 62
     0
100
AcDbLine
 10
1680.169444624878
 20
2817.929658934044
 30
0.0
 11
1245.934760259599
 21
2817.929658934044
 31
0.0
  0
LINE
  5
833A
330
840E
100
AcDbEntity
  8
3
 62
     0
100
AcDbLine
 10
1285.934760259599
 20
3847.929658934045
 30
0.0
 11
1285.934760259599
 21
2897.929658934044
 31
0.0
  0
INSERT
  5
833B
330
840E
100
AcDbEntity
  8
3
 62
     0
100
AcDbBlockReference
  2
_OPEN
 10
1285.934760259599
 20
3927.929658934044
 30
0.0
 41
80.0
 42
80.0
 43
80.0
 50
90.0
  0
INSERT
  5
833C
330
840E
100
AcDbEntity
  8
3
 62
     0
100
AcDbBlockReference
  2
_OPEN
 10
1285.934760259599
 20
2817.929658934044
 30
0.0
 41
80.0
 42
80.0
 43
80.0
 50
270.0
  0
TEXT
  5
836E
330
840E
100
AcDbEntity
  8
3
 62
     0
100
AcDbText
 10
945.9349999999998
 20
3160.53
 30
0.0
 40
120.0
  1
1110
100
AcDbText
  0
POINT
  5
833E
330
840E
100
AcDbEntity
  8
DEFPOINTS
 62
     0
100
AcDbPoint
 10
1464.143307902599
 20
3927.929658934044
 30
0.0
  0
POINT
  5
833F
330
840E
100
AcDbEntity
  8
DEFPOINTS
 62
     0
100
AcDbPoint
 10
1700.169444624878
 20
2817.929658934044
 30
0.0
  0
POINT
  5
8340
330
840E
100
AcDbEntity
  8
DEFPOINTS
 62
     0
100
AcDbPoint
 10
1285.934760259599
 20
2817.929658934044
 30
0.0
  0
ENDBLK
  5
7F83
330
840E
100
AcDbEntity
  8
0
100
AcDbBlockEnd
  0
BLOCK
  5
8411
330
8410
100
AcDbEntity
  8
0
100
AcDbBlockBegin
  2
*D17
 70
     1
 10
0.0
 20
0.0
 30
0.0
  3
*D17
  1

  0
LINE
  5
8341
330
8410
100
AcDbEntity
  8
3
 62
     0
100
AcDbLine
 10
1680.169444624878
 20
2797.929658934044
 30
0.0
 11
1245.934760259599
 21
2797.929658934044
 31
0.0
  0
LINE
  5
8342
330
8410
100
AcDbEntity
  8
3
 62
     0
100
AcDbLine
 10
1680.169444624878
 20
2732.929658934045
 30
0.0
 11
1245.934760259599
 21
2732.929658934045
 31
0.0
  0
LINE
  5
8343
330
8410
100
AcDbEntity
  8
3
 62
     0
100
AcDbLine
 10
1285.934760259599
 20
2877.929658934045
 30
0.0
 11
1285.934760259599
 21
2957.929658934045
 31
0.0
  0
LINE
  5
8344
330
8410
100
AcDbEntity
  8
3
 62
     0
100
AcDbLine
 10
1285.934760259599
 20
2652.929658934044
 30
0.0
 11
1285.934760259598
 21
2298.643944648329
 31
0.0
  0
LINE
  5
8345
330
8410
100
AcDbEntity
  8
3
 62
     0
100
AcDbLine
 10
1285.934760259599
 20
2797.929658934044
 30
0.0
 11
1285.934760259599
 21
2732.929658934045
 31
0.0
  0
INSERT
  5
8346
330
8410
100
AcDbEntity
  8
3
 62
     0
100
AcDbBlockReference
  2
_DOT
 10
1285.934760259599
 20
2797.929658934044
 30
0.0
 41
80.0
 42
80.0
 43
80.0
 50
270.0
  0
INSERT
  5
8347
330
8410
100
AcDbEntity
  8
3
 62
     0
100
AcDbBlockReference
  2
_OPEN
 10
1285.934760259599
 20
2732.929658934045
 30
0.0
 41
80.0
 42
80.0
 43
80.0
 50
90.0
  0
TEXT
  5
836F
330
8410
100
AcDbEntity
  8
3
 62
     0
100
AcDbText
 10
945.9349999999998
 20
2223.39
 30
0.0
 40
120.0
  1
65
100
AcDbText
  0
POINT
  5
8349
330
8410
100
AcDbEntity
  8
DEFPOINTS
 62
     0
100
AcDbPoint
 10
1700.169444624878
 20
2797.929658934044
 30
0.0
  0
POINT
  5
834A
330
8410
100
AcDbEntity
  8
DEFPOINTS
 62
     0
100
AcDbPoint
 10
1700.169444624878
 20
2732.929658934045
 30
0.0
  0
POINT
  5
834B
330
8410
100
AcDbEntity
  8
DEFPOINTS
 62
     0
100
AcDbPoint
 10
1285.934760259599
 20
2732.929658934045
 30
0.0
  0
ENDBLK
  5
80ED
330
8410
100
AcDbEntity
  8
0
100
AcDbBlockEnd
  0
BLOCK
  5
8418
330
8412
100
AcDbEntity
  8
0
100
AcDbBlockBegin
  2
_DOT
 70
     0
 10
0.0
 20
0.0
 30
0.0
  3
_DOT
  1

  0
LINE
  5
80EE
330
8412
100
AcDbEntity
  8
0
  6
ByBlock
 62
     0
100
AcDbLine
 10
0.0
 20
0.0
 30
0.0
 11
-1.0
 21
-0.0000000000000284
 31
0.0
  0
LWPOLYLINE
  5
80EF
330
8412
100
AcDbEntity
  8
0
  6
ByBlock
 62
     0
100
AcDbPolyline
 90
        2
 70
     1
 43
0.1666666666666666
 10
-0.0833333333333286
 20
-0.0000000000000284
 42
1.0
 10
0.0833333333333286
 20
-0.0000000000000284
 42
1.0
  0
ENDBLK
  5
80D3
330
8412
100
AcDbEntity
  8
0
100
AcDbBlockEnd
  0
BLOCK
  5
8414
330
8413
100
AcDbEntity
  8
0
100
AcDbBlockBegin
  2
*D19
 70
     1
 10
0.0
 20
0.0
 30
0.0
  3
*D19
  1

  0
LINE
  5
834C
330
8413
100
AcDbEntity
  8
3
 62
     0
100
AcDbLine
 10
4150.169444624879
 20
2962.929658934045
 30
0.0
 11
4150.169444624879
 21
5534.836675797562
 31
0.0
  0
LINE
  5
834D
330
8413
100
AcDbEntity
  8
3
 62
     0
100
AcDbLine
 10
1553.169444624878
 20
3856.929658934045
 30
0.0
 11
1553.169444624878
 21
5534.836675797562
 31
0.0
  0
LINE
  5
834E
330
8413
100
AcDbEntity
  8
3
 62
     0
100
AcDbLine
 10
4070.169444624879
 20
5494.836675797562
 30
0.0
 11
1633.169444624878
 21
5494.836675797562
 31
0.0
  0
INSERT
  5
834F
330
8413
100
AcDbEntity
  8
3
 62
     0
100
AcDbBlockReference
  2
_OPEN
 10
4150.169444624879
 20
5494.836675797562
 30
0.0
 41
80.0
 42
80.0
 43
80.0
  0
INSERT
  5
8350
330
8413
100
AcDbEntity
  8
3
 62
     0
100
AcDbBlockReference
  2
_OPEN
 10
1553.169444624878
 20
5494.836675797562
 30
0.0
 41
80.0
 42
80.0
 43
80.0
 50
180.0
  0
TEXT
  5
8370
330
8413
100
AcDbEntity
  8
3
 62
     0
100
AcDbText
 10
2611.67
 20
5382.439999999999
 30
0.0
 40
120.0
  1
2597
100
AcDbText
  0
POINT
  5
8352
330
8413
100
AcDbEntity
  8
DEFPOINTS
 62
     0
100
AcDbPoint
 10
4150.169444624879
 20
2942.929658934044
 30
0.0
  0
POINT
  5
8353
330
8413
100
AcDbEntity
  8
DEFPOINTS
 62
     0
100
AcDbPoint
 10
1553.169444624878
 20
3836.929658934045
 30
0.0
  0
POINT
  5
8354
330
8413
100
AcDbEntity
  8
DEFPOINTS
 62
     0
100
AcDbPoint
 10
1553.169444624878
 20
5494.836675797562
 30
0.0
  0
ENDBLK
  5
7F53
330
8413
100
AcDbEntity
  8
0
100
AcDbBlockEnd
  0
BLOCK
  5
8416
330
8415
100
AcDbEntity
  8
0
100
AcDbBlockBegin
  2
*D20
 70
     1
 10
0.0
 20
0.0
 30
0.0
  3
*D20
  1

  0
LINE
  5
8355
330
8415
100
AcDbEntity
  8
3
 62
     0
100
AcDbLine
 10
2450.169444624878
 20
4851.366197182898
 30
0.0
 11
2450.169444624878
 21
5293.003534080533
 31
0.0
  0
LINE
  5
8356
330
8415
100
AcDbEntity
  8
3
 62
     0
100
AcDbLine
 10
1553.169444624878
 20
3856.929658934045
 30
0.0
 11
1553.169444624878
 21
5293.003534080533
 31
0.0
  0
LINE
  5
8357
330
8415
100
AcDbEntity
  8
3
 62
     0
100
AcDbLine
 10
2370.169444624878
 20
5253.003534080533
 30
0.0
 11
1633.169444624878
 21
5253.003534080533
 31
0.0
  0
INSERT
  5
8358
330
8415
100
AcDbEntity
  8
3
 62
     0
100
AcDbBlockReference
  2
_OPEN
 10
2450.169444624878
 20
5253.003534080533
 30
0.0
 41
80.0
 42
80.0
 43
80.0
  0
INSERT
  5
8359
330
8415
100
AcDbEntity
  8
3
 62
     0
100
AcDbBlockReference
  2
_OPEN
 10
1553.169444624878
 20
5253.003534080533
 30
0.0
 41
80.0
 42
80.0
 43
80.0
 50
180.0
  0
TEXT
  5
8371
330
8415
100
AcDbEntity
  8
3
 62
     0
100
AcDbText
 10
1761.67
 20
5140.6
 30
0.0
 40
120.0
  1
897
100
AcDbText
  0
POINT
  5
835B
330
8415
100
AcDbEntity
  8
DEFPOINTS
 62
     0
100
AcDbPoint
 10
2450.169444624878
 20
4831.366197182897
 30
0.0
  0
POINT
  5
835C
330
8415
100
AcDbEntity
  8
DEFPOINTS
 62
     0
100
AcDbPoint
 10
1553.169444624878
 20
3836.929658934045
 30
0.0
  0
POINT
  5
835D
330
8415
100
AcDbEntity
  8
DEFPOINTS
 62
     0
100
AcDbPoint
 10
1553.169444624878
 20
5253.003534080533
 30
0.0
  0
ENDBLK
  5
7F48
330
8415
100
AcDbEntity
  8
0
100
AcDbBlockEnd
  0
BLOCK
  5
841A
330
8419
100
AcDbEntity
  8
0
100
AcDbBlockBegin
  2
*D21
 70
     1
 10
0.0
 20
0.0
 30
0.0
  3
*D21
  1

  0
LINE
  5
8186
330
8419
100
AcDbEntity
  8
0
  6
ByBlock
 62
     0
100
AcDbLine
 10
1700.169444624878
 20
2712.929658934045
 30
0.0
 11
1700.169444624878
 21
2419.435559259185
 31
0.0
  0
LINE
  5
8187
330
8419
100
AcDbEntity
  8
0
  6
ByBlock
 62
     0
100
AcDbLine
 10
2450.169444624878
 20
2712.929658934044
 30
0.0
 11
2450.169444624878
 21
2419.435559259185
 31
0.0
  0
LINE
  5
8188
330
8419
100
AcDbEntity
  8
0
  6
ByBlock
 62
     0
100
AcDbLine
 10
1780.169444624878
 20
2459.435559259186
 30
0.0
 11
2370.169444624877
 21
2459.435559259186
 31
0.0
  0
INSERT
  5
8189
330
8419
100
AcDbEntity
  8
0
  6
ByBlock
 62
     0
100
AcDbBlockReference
  2
_OPEN
 10
1700.169444624878
 20
2459.435559259186
 30
0.0
 41
80.0
 42
80.0
 43
80.0
 50
180.0
  0
INSERT
  5
818A
330
8419
100
AcDbEntity
  8
0
  6
ByBlock
 62
     0
100
AcDbBlockReference
  2
_OPEN
 10
2450.169444624878
 20
2459.435559259186
 30
0.0
 41
80.0
 42
80.0
 43
80.0
  0
TEXT
  5
818B
330
8419
100
AcDbEntity
  8
3
 62
     0
100
AcDbText
 10
1920.883730339164
 20
2499.435559259185
 30
0.0
 40
120.0
  1
750
100
AcDbText
  0
POINT
  5
818C
330
8419
100
AcDbEntity
  8
DEFPOINTS
  6
ByBlock
 62
     0
100
AcDbPoint
 10
1700.169444624878
 20
2732.929658934045
 30
0.0
  0
POINT
  5
818D
330
8419
100
AcDbEntity
  8
DEFPOINTS
  6
ByBlock
 62
     0
100
AcDbPoint
 10
2450.169444624878
 20
2732.929658934044
 30
0.0
  0
POINT
  5
818E
330
8419
100
AcDbEntity
  8
DEFPOINTS
  6
ByBlock
 62
     0
100
AcDbPoint
 10
2450.169444624878
 20
2459.435559259186
 30
0.0
  0
ENDBLK
  5
818F
330
8419
100
AcDbEntity
  8
0
100
AcDbBlockEnd
  0
BLOCK
  5
841C
330
841B
100
AcDbEntity
  8
0
100
AcDbBlockBegin
  2
*D22
 70
     1
 10
0.0
 20
0.0
 30
0.0
  3
*D22
  1

  0
LINE
  5
8193
330
841B
100
AcDbEntity
  8
0
  6
ByBlock
 62
     0
100
AcDbLine
 10
2450.169444624878
 20
2712.929658934044
 30
0.0
 11
2450.169444624878
 21
2419.435559259185
 31
0.0
  0
LINE
  5
8194
330
841B
100
AcDbEntity
  8
0
  6
ByBlock
 62
     0
100
AcDbLine
 10
4150.169444624879
 20
2712.929658934045
 30
0.0
 11
4150.169444624879
 21
2419.435559259185
 31
0.0
  0
LINE
  5
8195
330
841B
100
AcDbEntity
  8
0
  6
ByBlock
 62
     0
100
AcDbLine
 10
2530.169444624878
 20
2459.435559259186
 30
0.0
 11
4070.169444624879
 21
2459.435559259186
 31
0.0
  0
INSERT
  5
8196
330
841B
100
AcDbEntity
  8
0
  6
ByBlock
 62
     0
100
AcDbBlockReference
  2
_OPEN
 10
2450.169444624878
 20
2459.435559259186
 30
0.0
 41
80.0
 42
80.0
 43
80.0
 50
180.0
  0
INSERT
  5
8197
330
841B
100
AcDbEntity
  8
0
  6
ByBlock
 62
     0
100
AcDbBlockReference
  2
_OPEN
 10
4150.169444624879
 20
2459.435559259186
 30
0.0
 41
80.0
 42
80.0
 43
80.0
  0
TEXT
  5
8198
330
841B
100
AcDbEntity
  8
3
 62
     0
100
AcDbText
 10
3100.169444624878
 20
2499.435559259185
 30
0.0
 40
120.0
  1
1700
100
AcDbText
  0
POINT
  5
8199
330
841B
100
AcDbEntity
  8
DEFPOINTS
  6
ByBlock
 62
     0
100
AcDbPoint
 10
2450.169444624878
 20
2732.929658934044
 30
0.0
  0
POINT
  5
819A
330
841B
100
AcDbEntity
  8
DEFPOINTS
  6
ByBlock
 62
     0
100
AcDbPoint
 10
4150.169444624879
 20
2732.929658934045
 30
0.0
  0
POINT
  5
819B
330
841B
100
AcDbEntity
  8
DEFPOINTS
  6
ByBlock
 62
     0
100
AcDbPoint
 10
4150.169444624879
 20
2459.435559259186
 30
0.0
  0
ENDBLK
  5
819C
330
841B
100
AcDbEntity
  8
0
100
AcDbBlockEnd
  0
BLOCK
  5
841E
330
841D
100
AcDbEntity
  8
0
100
AcDbBlockBegin
  2
*D23
 70
     1
 10
0.0
 20
0.0
 30
0.0
  3
*D23
  1

  0
LINE
  5
81A0
330
841D
100
AcDbEntity
  8
0
  6
ByBlock
 62
     0
100
AcDbLine
 10
4876.039116178848
 20
2712.929658934045
 30
0.0
 11
4876.039116178848
 21
2419.435559259185
 31
0.0
  0
LINE
  5
81A1
330
841D
100
AcDbEntity
  8
0
  6
ByBlock
 62
     0
100
AcDbLine
 10
6078.039116178845
 20
2712.929658934045
 30
0.0
 11
6078.039116178845
 21
2419.435559259185
 31
0.0
  0
LINE
  5
81A2
330
841D
100
AcDbEntity
  8
0
  6
ByBlock
 62
     0
100
AcDbLine
 10
4956.039116178846
 20
2459.435559259186
 30
0.0
 11
5998.039116178844
 21
2459.435559259186
 31
0.0
  0
INSERT
  5
81A3
330
841D
100
AcDbEntity
  8
0
  6
ByBlock
 62
     0
100
AcDbBlockReference
  2
_OPEN
 10
4876.039116178848
 20
2459.435559259186
 30
0.0
 41
80.0
 42
80.0
 43
80.0
 50
180.0
  0
INSERT
  5
81A4
330
841D
100
AcDbEntity
  8
0
  6
ByBlock
 62
     0
100
AcDbBlockReference
  2
_OPEN
 10
6078.039116178845
 20
2459.435559259186
 30
0.0
 41
80.0
 42
80.0
 43
80.0
  0
TEXT
  5
81A5
330
841D
100
AcDbEntity
  8
3
 62
     0
100
AcDbText
 10
5277.039116178847
 20
2499.435559259185
 30
0.0
 40
120.0
  1
1202
100
AcDbText
  0
POINT
  5
81A6
330
841D
100
AcDbEntity
  8
DEFPOINTS
  6
ByBlock
 62
     0
100
AcDbPoint
 10
4876.039116178848
 20
2732.929658934045
 30
0.0
  0
POINT
  5
81A7
330
841D
100
AcDbEntity
  8
DEFPOINTS
  6
ByBlock
 62
     0
100
AcDbPoint
 10
6078.039116178845
 20
2732.929658934045
 30
0.0
  0
POINT
  5
81A8
330
841D
100
AcDbEntity
  8
DEFPOINTS
  6
ByBlock
 62
     0
100
AcDbPoint
 10
6078.039116178845
 20
2459.435559259186
 30
0.0
  0
ENDBLK
  5
81A9
330
841D
100
AcDbEntity
  8
0
100
AcDbBlockEnd
  0
BLOCK
  5
8420
330
841F
100
AcDbEntity
  8
0
100
AcDbBlockBegin
  2
*D24
 70
     1
 10
0.0
 20
0.0
 30
0.0
  3
*D24
  1

  0
LINE
  5
81AD
330
841F
100
AcDbEntity
  8
0
  6
ByBlock
 62
     0
100
AcDbLine
 10
6078.039116178845
 20
2712.929658934045
 30
0.0
 11
6078.039116178845
 21
2419.435559259185
 31
0.0
  0
LINE
  5
81AE
330
841F
100
AcDbEntity
  8
0
  6
ByBlock
 62
     0
100
AcDbLine
 10
6996.039116178846
 20
2712.929658934045
 30
0.0
 11
6996.039116178846
 21
2419.435559259185
 31
0.0
  0
LINE
  5
81AF
330
841F
100
AcDbEntity
  8
0
  6
ByBlock
 62
     0
100
AcDbLine
 10
6158.039116178844
 20
2459.435559259186
 30
0.0
 11
6916.039116178847
 21
2459.435559259186
 31
0.0
  0
INSERT
  5
81B0
330
841F
100
AcDbEntity
  8
0
  6
ByBlock
 62
     0
100
AcDbBlockReference
  2
_OPEN
 10
6078.039116178845
 20
2459.435559259186
 30
0.0
 41
80.0
 42
80.0
 43
80.0
 50
180.0
  0
INSERT
  5
81B1
330
841F
100
AcDbEntity
  8
0
  6
ByBlock
 62
     0
100
AcDbBlockReference
  2
_OPEN
 10
6996.039116178846
 20
2459.435559259186
 30
0.0
 41
80.0
 42
80.0
 43
80.0
  0
TEXT
  5
81B2
330
841F
100
AcDbEntity
  8
3
 62
     0
100
AcDbText
 10
6394.181973321702
 20
2499.435559259185
 30
0.0
 40
120.0
  1
918
100
AcDbText
  0
POINT
  5
81B3
330
841F
100
AcDbEntity
  8
DEFPOINTS
  6
ByBlock
 62
     0
100
AcDbPoint
 10
6078.039116178845
 20
2732.929658934045
 30
0.0
  0
POINT
  5
81B4
330
841F
100
AcDbEntity
  8
DEFPOINTS
  6
ByBlock
 62
     0
100
AcDbPoint
 10
6996.039116178846
 20
2732.929658934045
 30
0.0
  0
POINT
  5
81B5
330
841F
100
AcDbEntity
  8
DEFPOINTS
  6
ByBlock
 62
     0
100
AcDbPoint
 10
6996.039116178846
 20
2459.435559259186
 30
0.0
  0
ENDBLK
  5
81B6
330
841F
100
AcDbEntity
  8
0
100
AcDbBlockEnd
  0
BLOCK
  5
8422
330
8421
100
AcDbEntity
  8
0
100
AcDbBlockBegin
  2
_NONE
 70
     0
 10
0.0
 20
0.0
 30
0.0
  3
_NONE
  1

  0
CIRCLE
  5
81BA
330
8421
100
AcDbEntity
  8
0
  6
ByBlock
 62
     0
100
AcDbCircle
 10
0.0
 20
0.0
 30
0.0
 40
0.25
  0
ENDBLK
  5
81BB
330
8421
100
AcDbEntity
  8
0
100
AcDbBlockEnd
  0
BLOCK
  5
8424
330
8423
100
AcDbEntity
  8
0
100
AcDbBlockBegin
  2
*D26
 70
     1
 10
0.0
 20
0.0
 30
0.0
  3
*D26
  1

  0
LINE
  5
81DA
330
8423
100
AcDbEntity
  8
0
  6
ByBlock
 62
     0
100
AcDbLine
 10
1283.306422693953
 20
2797.929658934044
 30
0.0
 11
1283.306422693953
 21
2797.929658934044
 31
0.0
  0
LINE
  5
81DB
330
8423
100
AcDbEntity
  8
0
  6
ByBlock
 62
     0
100
AcDbLine
 10
1283.306422693953
 20
2817.929658934044
 30
0.0
 11
1283.306422693953
 21
2977.929658934045
 31
0.0
  0
TEXT
  5
81DC
330
8423
100
AcDbEntity
  8
3
 62
     0
100
AcDbText
 10
1131.877851265382
 20
2525.64394464833
 30
0.0
 40
120.0
  1
   (20)
 50
90.0
100
AcDbText
  0
LINE
  5
81DD
330
8423
100
AcDbEntity
  8
0
  6
ByBlock
 62
     0
100
AcDbLine
 10
1283.306422693953
 20
2797.929658934044
 30
0.0
 11
1283.306422693953
 21
2817.929658934044
 31
0.0
  0
POINT
  5
81DE
330
8423
100
AcDbEntity
  8
DEFPOINTS
  6
ByBlock
 62
     0
100
AcDbPoint
 10
1700.169444624878
 20
2797.929658934044
 30
0.0
  0
POINT
  5
81DF
330
8423
100
AcDbEntity
  8
DEFPOINTS
  6
ByBlock
 62
     0
100
AcDbPoint
 10
1700.169444624878
 20
2817.929658934044
 30
0.0
  0
POINT
  5
81E0
330
8423
100
AcDbEntity
  8
DEFPOINTS
  6
ByBlock
 62
     0
100
AcDbPoint
 10
1283.306422693953
 20
2817.929658934044
 30
0.0
  0
ENDBLK
  5
81E1
330
8423
100
AcDbEntity
  8
0
100
AcDbBlockEnd
  0
BLOCK
  5
8426
330
8425
100
AcDbEntity
  8
0
100
AcDbBlockBegin
  2
*D27
 70
     1
 10
0.0
 20
0.0
 30
0.0
  3
*D27
  1

  0
LINE
  5
81E4
330
8425
100
AcDbEntity
  8
0
  6
ByBlock
 62
     0
100
AcDbLine
 10
1680.169444624878
 20
2732.929658934045
 30
0.0
 11
895.3131423216616
 21
2732.929658934045
 31
0.0
  0
LINE
  5
81E5
330
8425
100
AcDbEntity
  8
0
  6
ByBlock
 62
     0
100
AcDbLine
 10
2411.169444624878
 20
4752.929658934045
 30
0.0
 11
895.3131423216616
 21
4752.929658934045
 31
0.0
  0
LINE
  5
81E6
330
8425
100
AcDbEntity
  8
0
  6
ByBlock
 62
     0
100
AcDbLine
 10
935.3131423216616
 20
2812.929658934045
 30
0.0
 11
935.3131423216616
 21
4672.929658934044
 31
0.0
  0
INSERT
  5
81E7
330
8425
100
AcDbEntity
  8
0
  6
ByBlock
 62
     0
100
AcDbBlockReference
  2
_OPEN
 10
935.3131423216616
 20
2732.929658934045
 30
0.0
 41
80.0
 42
80.0
 43
80.0
 50
270.0
  0
INSERT
  5
81E8
330
8425
100
AcDbEntity
  8
0
  6
ByBlock
 62
     0
100
AcDbBlockReference
  2
_OPEN
 10
935.3131423216616
 20
4752.929658934045
 30
0.0
 41
80.0
 42
80.0
 43
80.0
 50
90.0
  0
TEXT
  5
81E9
330
8425
100
AcDbEntity
  8
3
 62
     0
100
AcDbText
 10
843.8845708930902
 20
3454.358230362617
 30
0.0
 40
120.0
  1
(2020)
 50
90.0
100
AcDbText
  0
POINT
  5
81EA
330
8425
100
AcDbEntity
  8
DEFPOINTS
  6
ByBlock
 62
     0
100
AcDbPoint
 10
1700.169444624878
 20
2732.929658934045
 30
0.0
  0
POINT
  5
81EB
330
8425
100
AcDbEntity
  8
DEFPOINTS
  6
ByBlock
 62
     0
100
AcDbPoint
 10
2431.169444624878
 20
4752.929658934045
 30
0.0
  0
POINT
  5
81EC
330
8425
100
AcDbEntity
  8
DEFPOINTS
  6
ByBlock
 62
     0
100
AcDbPoint
 10
935.3131423216616
 20
4752.929658934045
 30
0.0
  0
ENDBLK
  5
81ED
330
8425
100
AcDbEntity
  8
0
100
AcDbBlockEnd
  0
BLOCK
  5
8483
330
8482
100
AcDbEntity
  8
0
100
AcDbBlockBegin
  2
*D28
 70
     1
 10
0.0
 20
0.0
 30
0.0
  3
*D28
  1

  0
LINE
  5
8485
330
8482
100
AcDbEntity
  8
3
 62
     0
370
    -2
100
AcDbLine
 10
5228.039116178845
 20
4772.929658934045
 30
0.0
 11
5228.039116178845
 21
5040.00755773363
 31
0.0
  0
LINE
  5
8486
330
8482
100
AcDbEntity
  8
3
 62
     0
370
    -2
100
AcDbLine
 10
6928.039116178847
 20
4772.929658934045
 30
0.0
 11
6928.039116178847
 21
5040.00755773363
 31
0.0
  0
LINE
  5
8487
330
8482
100
AcDbEntity
  8
3
 62
     0
370
    -2
100
AcDbLine
 10
5308.039116178846
 20
5000.007557733631
 30
0.0
 11
6848.039116178846
 21
5000.007557733631
 31
0.0
  0
INSERT
  5
8488
330
8482
100
AcDbEntity
  8
3
 62
     0
370
    -2
100
AcDbBlockReference
  2
_OPEN
 10
5228.039116178845
 20
5000.007557733631
 30
0.0
 41
80.0
 42
80.0
 43
80.0
 50
180.0
  0
INSERT
  5
8489
330
8482
100
AcDbEntity
  8
3
 62
     0
370
    -2
100
AcDbBlockReference
  2
_OPEN
 10
6928.039116178847
 20
5000.007557733631
 30
0.0
 41
80.0
 42
80.0
 43
80.0
  0
MTEXT
  5
848A
330
8482
100
AcDbEntity
  8
3
 62
     0
100
AcDbMText
 10
6078.039116178846
 20
5100.007557733631
 30
0.0
 40
120.0
 41
0.0
 71
     5
 72
     1
  1
\A1;1700
 73
     1
 44
1.0
1001
ACAD
1000
MTEXTBEGIN
1070
    73
1070
     1
1070
    44
1040
1.0
1070
    74
1070
     0
1000
MTEXTEND
  0
POINT
  5
848B
330
8482
100
AcDbEntity
  8
DEFPOINTS
 62
     0
100
AcDbPoint
 10
5228.039116178845
 20
4752.929658934045
 30
0.0
  0
POINT
  5
848C
330
8482
100
AcDbEntity
  8
DEFPOINTS
 62
     0
100
AcDbPoint
 10
6928.039116178847
 20
4752.929658934045
 30
0.0
  0
POINT
  5
848D
330
8482
100
AcDbEntity
  8
DEFPOINTS
 62
     0
100
AcDbPoint
 10
6928.039116178847
 20
5000.007557733631
 30
0.0
  0
ENDBLK
  5
8484
330
8482
100
AcDbEntity
  8
0
100
AcDbBlockEnd
  0
BLOCK
  5
8490
330
848F
100
AcDbEntity
  8
0
100
AcDbBlockBegin
  2
*D29
 70
     1
 10
0.0
 20
0.0
 30
0.0
  3
*D29
  1

  0
LINE
  5
850D
330
848F
100
AcDbEntity
  8
3
 62
     0
370
    -2
100
AcDbLine
 10
4798.039116178847
 20
4327.929658934045
 30
0.0
 11
4798.039116178847
 21
5328.10922238426
 31
0.0
  0
LINE
  5
850E
330
848F
100
AcDbEntity
  8
3
 62
     0
370
    -2
100
AcDbLine
 10
6078.039116178846
 20
5180.007557733631
 30
0.0
 11
6078.039116178846
 21
5328.10922238426
 31
0.0
  0
LINE
  5
850F
330
848F
100
AcDbEntity
  8
3
 62
     0
370
    -2
100
AcDbLine
 10
4878.039116178847
 20
5288.10922238426
 30
0.0
 11
5998.039116178847
 21
5288.10922238426
 31
0.0
  0
INSERT
  5
8510
330
848F
100
AcDbEntity
  8
3
 62
     0
370
    -2
100
AcDbBlockReference
  2
_OPEN
 10
4798.039116178847
 20
5288.10922238426
 30
0.0
 41
80.0
 42
80.0
 43
80.0
 50
180.0
  0
INSERT
  5
8511
330
848F
100
AcDbEntity
  8
3
 62
     0
370
    -2
100
AcDbBlockReference
  2
_OPEN
 10
6078.039116178846
 20
5288.10922238426
 30
0.0
 41
80.0
 42
80.0
 43
80.0
  0
MTEXT
  5
8512
330
848F
100
AcDbEntity
  8
3
 62
     0
100
AcDbMText
 10
5438.039116178846
 20
5419.537793812832
 30
0.0
 40
120.0
 41
0.0
 71
     5
 72
     1
  1
\A1;(1280)
 73
     1
 44
1.0
1001
ACAD
1000
MTEXTBEGIN
1070
    73
1070
     1
1070
    44
1040
1.0
1070
    74
1070
     0
1000
MTEXTEND
  0
POINT
  5
8513
330
848F
100
AcDbEntity
  8
DEFPOINTS
 62
     0
100
AcDbPoint
 10
4798.039116178847
 20
4307.929658934045
 30
0.0
  0
POINT
  5
8514
330
848F
100
AcDbEntity
  8
DEFPOINTS
 62
     0
100
AcDbPoint
 10
6078.039116178846
 20
5160.007557733631
 30
0.0
  0
POINT
  5
8515
330
848F
100
AcDbEntity
  8
DEFPOINTS
 62
     0
100
AcDbPoint
 10
6078.039116178846
 20
5288.10922238426
 30
0.0
  0
ENDBLK
  5
8491
330
848F
100
AcDbEntity
  8
0
100
AcDbBlockEnd
  0
BLOCK
  5
849D
330
849C
100
AcDbEntity
  8
0
100
AcDbBlockBegin
  2
*D30
 70
     1
 10
0.0
 20
0.0
 30
0.0
  3
*D30
  1

  0
LINE
  5
8504
330
849C
100
AcDbEntity
  8
3
 62
     0
370
    -2
100
AcDbLine
 10
6078.039116178846
 20
5180.007557733631
 30
0.0
 11
6078.039116178846
 21
5328.10922238426
 31
0.0
  0
LINE
  5
8505
330
849C
100
AcDbEntity
  8
3
 62
     0
370
    -2
100
AcDbLine
 10
7098.039116178846
 20
3871.929658934045
 30
0.0
 11
7098.039116178846
 21
5328.10922238426
 31
0.0
  0
LINE
  5
8506
330
849C
100
AcDbEntity
  8
3
 62
     0
370
    -2
100
AcDbLine
 10
6158.039116178847
 20
5288.10922238426
 30
0.0
 11
7018.039116178846
 21
5288.10922238426
 31
0.0
  0
INSERT
  5
8507
330
849C
100
AcDbEntity
  8
3
 62
     0
370
    -2
100
AcDbBlockReference
  2
_OPEN
 10
6078.039116178846
 20
5288.10922238426
 30
0.0
 41
80.0
 42
80.0
 43
80.0
 50
180.0
  0
INSERT
  5
8508
330
849C
100
AcDbEntity
  8
3
 62
     0
370
    -2
100
AcDbBlockReference
  2
_OPEN
 10
7098.039116178846
 20
5288.10922238426
 30
0.0
 41
80.0
 42
80.0
 43
80.0
  0
MTEXT
  5
8509
330
849C
100
AcDbEntity
  8
3
 62
     0
100
AcDbMText
 10
6588.039116178847
 20
5419.537793812832
 30
0.0
 40
120.0
 41
0.0
 71
     5
 72
     1
  1
\A1;(1020)
 73
     1
 44
1.0
1001
ACAD
1000
MTEXTBEGIN
1070
    73
1070
     1
1070
    44
1040
1.0
1070
    74
1070
     0
1000
MTEXTEND
  0
POINT
  5
850A
330
849C
100
AcDbEntity
  8
DEFPOINTS
 62
     0
100
AcDbPoint
 10
6078.039116178846
 20
5160.007557733631
 30
0.0
  0
POINT
  5
850B
330
849C
100
AcDbEntity
  8
DEFPOINTS
 62
     0
100
AcDbPoint
 10
7098.039116178846
 20
3851.929658934045
 30
0.0
  0
POINT
  5
850C
330
849C
100
AcDbEntity
  8
DEFPOINTS
 62
     0
100
AcDbPoint
 10
7098.039116178846
 20
5288.10922238426
 30
0.0
  0
ENDBLK
  5
849E
330
849C
100
AcDbEntity
  8
0
100
AcDbBlockEnd
  0
BLOCK
  5
84AE
330
84AD
100
AcDbEntity
  8
0
100
AcDbBlockBegin
  2
*D31
 70
     1
 10
0.0
 20
0.0
 30
0.0
  3
*D31
  1

  0
LINE
  5
84FB
330
84AD
100
AcDbEntity
  8
3
 62
     0
370
    -2
100
AcDbLine
 10
6948.039116178846
 20
4552.929658934044
 30
0.0
 11
7379.30874109135
 21
4552.929658934044
 31
0.0
  0
LINE
  5
84FC
330
84AD
100
AcDbEntity
  8
3
 62
     0
370
    -2
100
AcDbLine
 10
6948.039116178846
 20
3302.929658934044
 30
0.0
 11
7379.30874109135
 21
3302.929658934044
 31
0.0
  0
LINE
  5
84FD
330
84AD
100
AcDbEntity
  8
3
 62
     0
370
    -2
100
AcDbLine
 10
7339.30874109135
 20
4472.929658934044
 30
0.0
 11
7339.30874109135
 21
3382.929658934044
 31
0.0
  0
INSERT
  5
84FE
330
84AD
100
AcDbEntity
  8
3
 62
     0
370
    -2
100
AcDbBlockReference
  2
_OPEN
 10
7339.30874109135
 20
4552.929658934044
 30
0.0
 41
80.0
 42
80.0
 43
80.0
 50
90.0
  0
INSERT
  5
84FF
330
84AD
100
AcDbEntity
  8
3
 62
     0
370
    -2
100
AcDbBlockReference
  2
_OPEN
 10
7339.30874109135
 20
3302.929658934044
 30
0.0
 41
80.0
 42
80.0
 43
80.0
 50
270.0
  0
MTEXT
  5
8500
330
84AD
100
AcDbEntity
  8
3
 62
     0
100
AcDbMText
 10
7239.308741091349
 20
3927.929658934046
 30
0.0
 40
120.0
 41
0.0
 71
     5
 72
     1
  1
\A1;\U+03C61250
 11
0.0000000000000001
 21
1.0
 31
0.0
 73
     1
 44
1.0
1001
ACAD
1000
MTEXTBEGIN
1070
    73
1070
     1
1070
    44
1040
1.0
1070
    74
1070
     0
1000
MTEXTEND
  0
POINT
  5
8501
330
84AD
100
AcDbEntity
  8
DEFPOINTS
 62
     0
100
AcDbPoint
 10
6928.039116178847
 20
4552.929658934044
 30
0.0
  0
POINT
  5
8502
330
84AD
100
AcDbEntity
  8
DEFPOINTS
 62
     0
100
AcDbPoint
 10
6928.039116178847
 20
3302.929658934044
 30
0.0
  0
POINT
  5
8503
330
84AD
100
AcDbEntity
  8
DEFPOINTS
 62
     0
100
AcDbPoint
 10
7339.30874109135
 20
3302.929658934044
 30
0.0
  0
ENDBLK
  5
84AF
330
84AD
100
AcDbEntity
  8
0
100
AcDbBlockEnd
  0
BLOCK
  5
8518
330
8517
100
AcDbEntity
  8
0
100
AcDbBlockBegin
  2
*D32
 70
     1
 10
0.0
 20
0.0
 30
0.0
  3
*D32
  1

  0
LINE
  5
8564
330
8517
100
AcDbEntity
  8
3
 62
     0
370
    -2
100
AcDbLine
 10
1454.342323903158
 20
7787.437268273027
 30
0.0
 11
170.4929532677344
 21
7787.437268273027
 31
0.0
  0
LINE
  5
8565
330
8517
100
AcDbEntity
  8
3
 62
     0
370
    -2
100
AcDbLine
 10
2050.169444624878
 20
6507.437268273022
 30
0.0
 11
170.4929532677341
 21
6507.437268273024
 31
0.0
  0
LINE
  5
8566
330
8517
100
AcDbEntity
  8
3
 62
     0
370
    -2
100
AcDbLine
 10
210.4929532677344
 20
7707.437268273027
 30
0.0
 11
210.4929532677342
 21
6587.437268273024
 31
0.0
  0
INSERT
  5
8567
330
8517
100
AcDbEntity
  8
3
 62
     0
370
    -2
100
AcDbBlockReference
  2
_OPEN
 10
210.4929532677345
 20
7787.437268273027
 30
0.0
 41
80.0
 42
80.0
 43
80.0
 50
90.0
  0
INSERT
  5
8568
330
8517
100
AcDbEntity
  8
3
 62
     0
370
    -2
100
AcDbBlockReference
  2
_OPEN
 10
210.4929532677342
 20
6507.437268273024
 30
0.0
 41
80.0
 42
80.0
 43
80.0
 50
270.0
  0
MTEXT
  5
8569
330
8517
100
AcDbEntity
  8
3
 62
     0
100
AcDbMText
 10
110.4929532677331
 20
7147.437268273025
 30
0.0
 40
120.0
 41
0.0
 71
     5
 72
     1
  1
\A1;1280
 11
0.0000000000000001
 21
1.0
 31
0.0
 73
     1
 44
1.0
1001
ACAD
1000
MTEXTBEGIN
1070
    73
1070
     1
1070
    44
1040
1.0
1070
    74
1070
     0
1000
MTEXTEND
  0
POINT
  5
856A
330
8517
100
AcDbEntity
  8
DEFPOINTS
 62
     0
100
AcDbPoint
 10
1474.342323903158
 20
7787.437268273027
 30
0.0
  0
POINT
  5
856B
330
8517
100
AcDbEntity
  8
DEFPOINTS
 62
     0
100
AcDbPoint
 10
2070.169444624878
 20
6507.437268273022
 30
0.0
  0
POINT
  5
856C
330
8517
100
AcDbEntity
  8
DEFPOINTS
 62
     0
100
AcDbPoint
 10
210.4929532677342
 20
6507.437268273024
 30
0.0
  0
ENDBLK
  5
8519
330
8517
100
AcDbEntity
  8
0
100
AcDbBlockEnd
  0
BLOCK
  5
8525
330
8524
100
AcDbEntity
  8
0
100
AcDbBlockBegin
  2
*D33
 70
     1
 10
0.0
 20
0.0
 30
0.0
  3
*D33
  1

  0
LINE
  5
8527
330
8524
100
AcDbEntity
  8
3
 62
     0
370
    -2
100
AcDbLine
 10
1680.169444624878
 20
8705.437268273023
 30
0.0
 11
1211.153303389045
 21
8705.437268273023
 31
0.0
  0
LINE
  5
8528
330
8524
100
AcDbEntity
  8
3
 62
     0
370
    -2
100
AcDbLine
 10
1680.169444624878
 20
6585.437268273023
 30
0.0
 11
1211.153303389044
 21
6585.437268273023
 31
0.0
  0
LINE
  5
8529
330
8524
100
AcDbEntity
  8
3
 62
     0
370
    -2
100
AcDbLine
 10
1251.153303389044
 20
8625.437268273023
 30
0.0
 11
1251.153303389044
 21
6665.437268273023
 31
0.0
  0
INSERT
  5
852A
330
8524
100
AcDbEntity
  8
3
 62
     0
370
    -2
100
AcDbBlockReference
  2
_OPEN
 10
1251.153303389045
 20
8705.437268273023
 30
0.0
 41
80.0
 42
80.0
 43
80.0
 50
90.0
  0
INSERT
  5
852B
330
8524
100
AcDbEntity
  8
3
 62
     0
370
    -2
100
AcDbBlockReference
  2
_OPEN
 10
1251.153303389044
 20
6585.437268273023
 30
0.0
 41
80.0
 42
80.0
 43
80.0
 50
270.0
  0
MTEXT
  5
852C
330
8524
100
AcDbEntity
  8
3
 62
     0
100
AcDbMText
 10
1151.153303389043
 20
7645.437268273022
 30
0.0
 40
120.0
 41
0.0
 71
     5
 72
     1
  1
\A1;2120
 11
0.0000000000000001
 21
1.0
 31
0.0
 73
     1
 44
1.0
1001
ACAD
1000
MTEXTBEGIN
1070
    73
1070
     1
1070
    44
1040
1.0
1070
    74
1070
     0
1000
MTEXTEND
  0
POINT
  5
852D
330
8524
100
AcDbEntity
  8
DEFPOINTS
 62
     0
100
AcDbPoint
 10
1700.169444624878
 20
8705.437268273023
 30
0.0
  0
POINT
  5
852E
330
8524
100
AcDbEntity
  8
DEFPOINTS
 62
     0
100
AcDbPoint
 10
1700.169444624878
 20
6585.437268273023
 30
0.0
  0
POINT
  5
852F
330
8524
100
AcDbEntity
  8
DEFPOINTS
 62
     0
100
AcDbPoint
 10
1251.153303389044
 20
6585.437268273023
 30
0.0
  0
ENDBLK
  5
8526
330
8524
100
AcDbEntity
  8
0
100
AcDbBlockEnd
  0
BLOCK
  5
8532
330
8531
100
AcDbEntity
  8
0
100
AcDbBlockBegin
  2
*D34
 70
     1
 10
0.0
 20
0.0
 30
0.0
  3
*D34
  1

  0
LINE
  5
8534
330
8531
100
AcDbEntity
  8
3
 62
     0
370
    -2
100
AcDbLine
 10
1700.169444624878
 20
6565.437268273022
 30
0.0
 11
1700.169444624878
 21
6180.683390083371
 31
0.0
  0
LINE
  5
8535
330
8531
100
AcDbEntity
  8
3
 62
     0
370
    -2
100
AcDbLine
 10
4150.169444624879
 20
6565.437268273022
 30
0.0
 11
4150.169444624879
 21
6180.683390083371
 31
0.0
  0
LINE
  5
8536
330
8531
100
AcDbEntity
  8
3
 62
     0
370
    -2
100
AcDbLine
 10
1780.169444624878
 20
6220.683390083371
 30
0.0
 11
4070.169444624879
 21
6220.683390083371
 31
0.0
  0
INSERT
  5
8537
330
8531
100
AcDbEntity
  8
3
 62
     0
370
    -2
100
AcDbBlockReference
  2
_OPEN
 10
1700.169444624878
 20
6220.683390083371
 30
0.0
 41
80.0
 42
80.0
 43
80.0
 50
180.0
  0
INSERT
  5
8538
330
8531
100
AcDbEntity
  8
3
 62
     0
370
    -2
100
AcDbBlockReference
  2
_OPEN
 10
4150.169444624879
 20
6220.683390083371
 30
0.0
 41
80.0
 42
80.0
 43
80.0
  0
MTEXT
  5
8539
330
8531
100
AcDbEntity
  8
3
 62
     0
100
AcDbMText
 10
2925.169444624879
 20
6320.68339008337
 30
0.0
 40
120.0
 41
0.0
 71
     5
 72
     1
  1
\A1;2450
 73
     1
 44
1.0
1001
ACAD
1000
MTEXTBEGIN
1070
    73
1070
     1
1070
    44
1040
1.0
1070
    74
1070
     0
1000
MTEXTEND
  0
POINT
  5
853A
330
8531
100
AcDbEntity
  8
DEFPOINTS
 62
     0
100
AcDbPoint
 10
1700.169444624878
 20
6585.437268273023
 30
0.0
  0
POINT
  5
853B
330
8531
100
AcDbEntity
  8
DEFPOINTS
 62
     0
100
AcDbPoint
 10
4150.169444624879
 20
6585.437268273023
 30
0.0
  0
POINT
  5
853C
330
8531
100
AcDbEntity
  8
DEFPOINTS
 62
     0
100
AcDbPoint
 10
4150.169444624879
 20
6220.683390083371
 30
0.0
  0
ENDBLK
  5
8533
330
8531
100
AcDbEntity
  8
0
100
AcDbBlockEnd
  0
BLOCK
  5
853F
330
853E
100
AcDbEntity
  8
0
100
AcDbBlockBegin
  2
*D35
 70
     1
 10
0.0
 20
0.0
 30
0.0
  3
*D35
  1

  0
LINE
  5
8541
330
853E
100
AcDbEntity
  8
3
 62
     0
370
    -2
100
AcDbLine
 10
4170.169444624879
 20
6585.437268273023
 30
0.0
 11
4456.495845732457
 21
6585.437268273023
 31
0.0
  0
LINE
  5
8542
330
853E
100
AcDbEntity
  8
3
 62
     0
370
    -2
100
AcDbLine
 10
4170.169444624879
 20
7585.437268273023
 30
0.0
 11
4456.495845732457
 21
7585.437268273023
 31
0.0
  0
LINE
  5
8543
330
853E
100
AcDbEntity
  8
3
 62
     0
370
    -2
100
AcDbLine
 10
4416.495845732457
 20
6665.437268273023
 30
0.0
 11
4416.495845732457
 21
7505.437268273023
 31
0.0
  0
INSERT
  5
8544
330
853E
100
AcDbEntity
  8
3
 62
     0
370
    -2
100
AcDbBlockReference
  2
_OPEN
 10
4416.495845732457
 20
6585.437268273023
 30
0.0
 41
80.0
 42
80.0
 43
80.0
 50
270.0
  0
INSERT
  5
8545
330
853E
100
AcDbEntity
  8
3
 62
     0
370
    -2
100
AcDbBlockReference
  2
_OPEN
 10
4416.495845732457
 20
7585.437268273023
 30
0.0
 41
80.0
 42
80.0
 43
80.0
 50
90.0
  0
MTEXT
  5
8546
330
853E
100
AcDbEntity
  8
3
 62
     0
100
AcDbMText
 10
4316.495845732456
 20
7085.437268273024
 30
0.0
 40
120.0
 41
0.0
 71
     5
 72
     1
  1
\A1;1000
 11
0.0000000000000001
 21
1.0
 31
0.0
 73
     1
 44
1.0
1001
ACAD
1000
MTEXTBEGIN
1070
    73
1070
     1
1070
    44
1040
1.0
1070
    74
1070
     0
1000
MTEXTEND
  0
POINT
  5
8547
330
853E
100
AcDbEntity
  8
DEFPOINTS
 62
     0
100
AcDbPoint
 10
4150.169444624879
 20
6585.437268273023
 30
0.0
  0
POINT
  5
8548
330
853E
100
AcDbEntity
  8
DEFPOINTS
 62
     0
100
AcDbPoint
 10
4150.169444624879
 20
7585.437268273023
 30
0.0
  0
POINT
  5
8549
330
853E
100
AcDbEntity
  8
DEFPOINTS
 62
     0
100
AcDbPoint
 10
4416.495845732457
 20
7585.437268273023
 30
0.0
  0
ENDBLK
  5
8540
330
853E
100
AcDbEntity
  8
0
100
AcDbBlockEnd
  0
BLOCK
  5
854C
330
854B
100
AcDbEntity
  8
0
100
AcDbBlockBegin
  2
*D36
 70
     1
 10
0.0
 20
0.0
 30
0.0
  3
*D36
  1

  0
LINE
  5
854E
330
854B
100
AcDbEntity
  8
3
 62
     0
370
    -2
100
AcDbLine
 10
4150.169444624879
 20
7605.437268273023
 30
0.0
 11
4150.169444624879
 21
8950.073406778209
 31
0.0
  0
LINE
  5
854F
330
854B
100
AcDbEntity
  8
3
 62
     0
370
    -2
100
AcDbLine
 10
3200.169444624878
 20
8725.437268273024
 30
0.0
 11
3200.169444624878
 21
8950.073406778209
 31
0.0
  0
LINE
  5
8550
330
854B
100
AcDbEntity
  8
3
 62
     0
370
    -2
100
AcDbLine
 10
4070.169444624879
 20
8910.073406778208
 30
0.0
 11
3280.169444624878
 21
8910.073406778208
 31
0.0
  0
INSERT
  5
8551
330
854B
100
AcDbEntity
  8
3
 62
     0
370
    -2
100
AcDbBlockReference
  2
_OPEN
 10
4150.169444624879
 20
8910.073406778208
 30
0.0
 41
80.0
 42
80.0
 43
80.0
  0
INSERT
  5
8552
330
854B
100
AcDbEntity
  8
3
 62
     0
370
    -2
100
AcDbBlockReference
  2
_OPEN
 10
3200.169444624878
 20
8910.073406778208
 30
0.0
 41
80.0
 42
80.0
 43
80.0
 50
180.0
  0
MTEXT
  5
8553
330
854B
100
AcDbEntity
  8
3
 62
     0
100
AcDbMText
 10
3675.169444624879
 20
9010.073406778209
 30
0.0
 40
120.0
 41
0.0
 71
     5
 72
     1
  1
\A1;950
 73
     1
 44
1.0
1001
ACAD
1000
MTEXTBEGIN
1070
    73
1070
     1
1070
    44
1040
1.0
1070
    74
1070
     0
1000
MTEXTEND
  0
POINT
  5
8554
330
854B
100
AcDbEntity
  8
DEFPOINTS
 62
     0
100
AcDbPoint
 10
4150.169444624879
 20
7585.437268273023
 30
0.0
  0
POINT
  5
8555
330
854B
100
AcDbEntity
  8
DEFPOINTS
 62
     0
100
AcDbPoint
 10
3200.169444624878
 20
8705.437268273023
 30
0.0
  0
POINT
  5
8556
330
854B
100
AcDbEntity
  8
DEFPOINTS
 62
     0
100
AcDbPoint
 10
3200.169444624878
 20
8910.073406778208
 30
0.0
  0
ENDBLK
  5
854D
330
854B
100
AcDbEntity
  8
0
100
AcDbBlockEnd
  0
BLOCK
  5
8559
330
8558
100
AcDbEntity
  8
0
100
AcDbBlockBegin
  2
*D37
 70
     1
 10
0.0
 20
0.0
 30
0.0
  3
*D37
  1

  0
LINE
  5
855B
330
8558
100
AcDbEntity
  8
3
 62
     0
370
    -2
100
AcDbLine
 10
3200.169444624878
 20
8725.437268273024
 30
0.0
 11
3200.169444624878
 21
8950.073406778209
 31
0.0
  0
LINE
  5
855C
330
8558
100
AcDbEntity
  8
3
 62
     0
370
    -2
100
AcDbLine
 10
1700.169444624878
 20
8725.437268273024
 30
0.0
 11
1700.169444624878
 21
8950.073406778209
 31
0.0
  0
LINE
  5
855D
330
8558
100
AcDbEntity
  8
3
 62
     0
370
    -2
100
AcDbLine
 10
3120.169444624878
 20
8910.073406778208
 30
0.0
 11
1780.169444624878
 21
8910.073406778208
 31
0.0
  0
INSERT
  5
855E
330
8558
100
AcDbEntity
  8
3
 62
     0
370
    -2
100
AcDbBlockReference
  2
_OPEN
 10
3200.169444624878
 20
8910.073406778208
 30
0.0
 41
80.0
 42
80.0
 43
80.0
  0
INSERT
  5
855F
330
8558
100
AcDbEntity
  8
3
 62
     0
370
    -2
100
AcDbBlockReference
  2
_OPEN
 10
1700.169444624878
 20
8910.073406778208
 30
0.0
 41
80.0
 42
80.0
 43
80.0
 50
180.0
  0
MTEXT
  5
8560
330
8558
100
AcDbEntity
  8
3
 62
     0
100
AcDbMText
 10
2450.169444624878
 20
9010.073406778209
 30
0.0
 40
120.0
 41
0.0
 71
     5
 72
     1
  1
\A1;1500
 73
     1
 44
1.0
1001
ACAD
1000
MTEXTBEGIN
1070
    73
1070
     1
1070
    44
1040
1.0
1070
    74
1070
     0
1000
MTEXTEND
  0
POINT
  5
8561
330
8558
100
AcDbEntity
  8
DEFPOINTS
 62
     0
100
AcDbPoint
 10
3200.169444624878
 20
8705.437268273023
 30
0.0
  0
POINT
  5
8562
330
8558
100
AcDbEntity
  8
DEFPOINTS
 62
     0
100
AcDbPoint
 10
1700.169444624878
 20
8705.437268273023
 30
0.0
  0
POINT
  5
8563
330
8558
100
AcDbEntity
  8
DEFPOINTS
 62
     0
100
AcDbPoint
 10
1700.169444624878
 20
8910.073406778208
 30
0.0
  0
ENDBLK
  5
855A
330
8558
100
AcDbEntity
  8
0
100
AcDbBlockEnd
  0
BLOCK
  5
856F
330
856E
100
AcDbEntity
  8
0
100
AcDbBlockBegin
  2
*D38
 70
     1
 10
0.0
 20
0.0
 30
0.0
  3
*D38
  1

  0
LINE
  5
8571
330
856E
100
AcDbEntity
  8
3
 62
     0
370
    -2
100
AcDbLine
 10
2504.169444624878
 20
4772.929658934045
 30
0.0
 11
2504.169444624878
 21
5045.940691624003
 31
0.0
  0
LINE
  5
8572
330
856E
100
AcDbEntity
  8
3
 62
     0
370
    -2
100
AcDbLine
 10
3784.169444624879
 20
4772.929658934045
 30
0.0
 11
3784.169444624879
 21
5045.940691624003
 31
0.0
  0
LINE
  5
8573
330
856E
100
AcDbEntity
  8
3
 62
     0
370
    -2
100
AcDbLine
 10
2584.169444624878
 20
5005.940691624002
 30
0.0
 11
3704.16944462488
 21
5005.940691624002
 31
0.0
  0
INSERT
  5
8574
330
856E
100
AcDbEntity
  8
3
 62
     0
370
    -2
100
AcDbBlockReference
  2
_OPEN
 10
2504.169444624878
 20
5005.940691624002
 30
0.0
 41
80.0
 42
80.0
 43
80.0
 50
180.0
  0
INSERT
  5
8575
330
856E
100
AcDbEntity
  8
3
 62
     0
370
    -2
100
AcDbBlockReference
  2
_OPEN
 10
3784.169444624879
 20
5005.940691624002
 30
0.0
 41
80.0
 42
80.0
 43
80.0
  0
MTEXT
  5
8576
330
856E
100
AcDbEntity
  8
3
 62
     0
100
AcDbMText
 10
3144.169444624879
 20
5105.940691624002
 30
0.0
 40
120.0
 41
0.0
 71
     5
 72
     1
  1
\A1;1280
 73
     1
 44
1.0
1001
ACAD
1000
MTEXTBEGIN
1070
    73
1070
     1
1070
    44
1040
1.0
1070
    74
1070
     0
1000
MTEXTEND
  0
POINT
  5
8577
330
856E
100
AcDbEntity
  8
DEFPOINTS
 62
     0
100
AcDbPoint
 10
2504.169444624878
 20
4752.929658934045
 30
0.0
  0
POINT
  5
8578
330
856E
100
AcDbEntity
  8
DEFPOINTS
 62
     0
100
AcDbPoint
 10
3784.169444624879
 20
4752.929658934045
 30
0.0
  0
POINT
  5
8579
330
856E
100
AcDbEntity
  8
DEFPOINTS
 62
     0
100
AcDbPoint
 10
3784.169444624879
 20
5005.940691624002
 30
0.0
  0
ENDBLK
  5
8570
330
856E
100
AcDbEntity
  8
0
100
AcDbBlockEnd
  0
BLOCK
  5
857C
330
857B
100
AcDbEntity
  8
0
100
AcDbBlockBegin
  2
*D39
 70
     1
 10
0.0
 20
0.0
 30
0.0
  3
*D39
  1

  0
LINE
  5
857E
330
857B
100
AcDbEntity
  8
3
 62
     0
370
    -2
100
AcDbLine
 10
3784.169444624879
 20
4772.929658934045
 30
0.0
 11
3784.169444624879
 21
5293.003534080533
 31
0.0
  0
LINE
  5
857F
330
857B
100
AcDbEntity
  8
3
 62
     0
370
    -2
100
AcDbLine
 10
2450.169444624878
 20
4813.547459956273
 30
0.0
 11
2450.169444624878
 21
5293.003534080533
 31
0.0
  0
LINE
  5
8580
330
857B
100
AcDbEntity
  8
3
 62
     0
370
    -2
100
AcDbLine
 10
3704.16944462488
 20
5253.003534080533
 30
0.0
 11
2530.169444624878
 21
5253.003534080533
 31
0.0
  0
INSERT
  5
8581
330
857B
100
AcDbEntity
  8
3
 62
     0
370
    -2
100
AcDbBlockReference
  2
_OPEN
 10
3784.169444624879
 20
5253.003534080533
 30
0.0
 41
80.0
 42
80.0
 43
80.0
  0
INSERT
  5
8582
330
857B
100
AcDbEntity
  8
3
 62
     0
370
    -2
100
AcDbBlockReference
  2
_OPEN
 10
2450.169444624878
 20
5253.003534080533
 30
0.0
 41
80.0
 42
80.0
 43
80.0
 50
180.0
  0
MTEXT
  5
8583
330
857B
100
AcDbEntity
  8
3
 62
     0
100
AcDbMText
 10
3117.169444624879
 20
5353.003534080532
 30
0.0
 40
120.0
 41
0.0
 71
     5
 72
     1
  1
\A1;1334
 73
     1
 44
1.0
1001
ACAD
1000
MTEXTBEGIN
1070
    73
1070
     1
1070
    44
1040
1.0
1070
    74
1070
     0
1000
MTEXTEND
  0
POINT
  5
8584
330
857B
100
AcDbEntity
  8
DEFPOINTS
 62
     0
100
AcDbPoint
 10
3784.169444624879
 20
4752.929658934045
 30
0.0
  0
POINT
  5
8585
330
857B
100
AcDbEntity
  8
DEFPOINTS
 62
     0
100
AcDbPoint
 10
2450.169444624878
 20
4793.547459956273
 30
0.0
  0
POINT
  5
8586
330
857B
100
AcDbEntity
  8
DEFPOINTS
 62
     0
100
AcDbPoint
 10
2450.169444624878
 20
5253.003534080533
 30
0.0
  0
ENDBLK
  5
857D
330
857B
100
AcDbEntity
  8
0
100
AcDbBlockEnd
  0
BLOCK
  5
8589
330
8588
100
AcDbEntity
  8
0
100
AcDbBlockBegin
  2
*D40
 70
     1
 10
0.0
 20
0.0
 30
0.0
  3
*D40
  1

  0
LINE
  5
858B
330
8588
100
AcDbEntity
  8
3
 62
     0
370
    -2
100
AcDbLine
 10
2450.169444624878
 20
4813.547459956273
 30
0.0
 11
2450.169444624878
 21
5293.003534080533
 31
0.0
  0
LINE
  5
858C
330
8588
100
AcDbEntity
  8
3
 62
     0
370
    -2
100
AcDbLine
 10
1553.169444624878
 20
3856.929658934045
 30
0.0
 11
1553.169444624878
 21
5293.003534080533
 31
0.0
  0
LINE
  5
858D
330
8588
100
AcDbEntity
  8
3
 62
     0
370
    -2
100
AcDbLine
 10
2370.169444624878
 20
5253.003534080533
 30
0.0
 11
1633.169444624878
 21
5253.003534080533
 31
0.0
  0
INSERT
  5
858E
330
8588
100
AcDbEntity
  8
3
 62
     0
370
    -2
100
AcDbBlockReference
  2
_OPEN
 10
2450.169444624878
 20
5253.003534080533
 30
0.0
 41
80.0
 42
80.0
 43
80.0
  0
INSERT
  5
858F
330
8588
100
AcDbEntity
  8
3
 62
     0
370
    -2
100
AcDbBlockReference
  2
_OPEN
 10
1553.169444624878
 20
5253.003534080533
 30
0.0
 41
80.0
 42
80.0
 43
80.0
 50
180.0
  0
MTEXT
  5
8590
330
8588
100
AcDbEntity
  8
3
 62
     0
100
AcDbMText
 10
2001.669444624878
 20
5353.003534080532
 30
0.0
 40
120.0
 41
0.0
 71
     5
 72
     1
  1
\A1;897
 73
     1
 44
1.0
1001
ACAD
1000
MTEXTBEGIN
1070
    73
1070
     1
1070
    44
1040
1.0
1070
    74
1070
     0
1000
MTEXTEND
  0
POINT
  5
8591
330
8588
100
AcDbEntity
  8
DEFPOINTS
 62
     0
100
AcDbPoint
 10
2450.169444624878
 20
4793.547459956273
 30
0.0
  0
POINT
  5
8592
330
8588
100
AcDbEntity
  8
DEFPOINTS
 62
     0
100
AcDbPoint
 10
1553.169444624878
 20
3836.929658934045
 30
0.0
  0
POINT
  5
8593
330
8588
100
AcDbEntity
  8
DEFPOINTS
 62
     0
100
AcDbPoint
 10
1553.169444624878
 20
5253.003534080533
 30
0.0
  0
ENDBLK
  5
858A
330
8588
100
AcDbEntity
  8
0
100
AcDbBlockEnd
  0
BLOCK
  5
8596
330
8595
100
AcDbEntity
  8
0
100
AcDbBlockBegin
  2
*D41
 70
     1
 10
0.0
 20
0.0
 30
0.0
  3
*D41
  1

  0
LINE
  5
8598
330
8595
100
AcDbEntity
  8
3
 62
     0
370
    -2
100
AcDbLine
 10
1553.169444624878
 20
3856.929658934045
 30
0.0
 11
1553.169444624878
 21
5534.836675797562
 31
0.0
  0
LINE
  5
8599
330
8595
100
AcDbEntity
  8
3
 62
     0
370
    -2
100
AcDbLine
 10
4150.169444624879
 20
2962.929658934044
 30
0.0
 11
4150.169444624879
 21
5534.836675797562
 31
0.0
  0
LINE
  5
859A
330
8595
100
AcDbEntity
  8
3
 62
     0
370
    -2
100
AcDbLine
 10
1633.169444624878
 20
5494.836675797562
 30
0.0
 11
4070.169444624879
 21
5494.836675797562
 31
0.0
  0
INSERT
  5
859B
330
8595
100
AcDbEntity
  8
3
 62
     0
370
    -2
100
AcDbBlockReference
  2
_OPEN
 10
1553.169444624878
 20
5494.836675797562
 30
0.0
 41
80.0
 42
80.0
 43
80.0
 50
180.0
  0
INSERT
  5
859C
330
8595
100
AcDbEntity
  8
3
 62
     0
370
    -2
100
AcDbBlockReference
  2
_OPEN
 10
4150.169444624879
 20
5494.836675797562
 30
0.0
 41
80.0
 42
80.0
 43
80.0
  0
MTEXT
  5
859D
330
8595
100
AcDbEntity
  8
3
 62
     0
100
AcDbMText
 10
2851.669444624878
 20
5594.836675797562
 30
0.0
 40
120.0
 41
0.0
 71
     5
 72
     1
  1
\A1;2597
 73
     1
 44
1.0
1001
ACAD
1000
MTEXTBEGIN
1070
    73
1070
     1
1070
    44
1040
1.0
1070
    74
1070
     0
1000
MTEXTEND
  0
POINT
  5
859E
330
8595
100
AcDbEntity
  8
DEFPOINTS
 62
     0
100
AcDbPoint
 10
1553.169444624878
 20
3836.929658934045
 30
0.0
  0
POINT
  5
859F
330
8595
100
AcDbEntity
  8
DEFPOINTS
 62
     0
100
AcDbPoint
 10
4150.169444624879
 20
2942.929658934044
 30
0.0
  0
POINT
  5
85A0
330
8595
100
AcDbEntity
  8
DEFPOINTS
 62
     0
100
AcDbPoint
 10
4150.169444624879
 20
5494.836675797562
 30
0.0
  0
ENDBLK
  5
8597
330
8595
100
AcDbEntity
  8
0
100
AcDbBlockEnd
  0
BLOCK
  5
85A3
330
85A2
100
AcDbEntity
  8
0
100
AcDbBlockBegin
  2
*D42
 70
     1
 10
0.0
 20
0.0
 30
0.0
  3
*D42
  1

  0
LINE
  5
85A5
330
85A2
100
AcDbEntity
  8
3
 62
     0
370
    -2
100
AcDbLine
 10
2431.169444624878
 20
4752.929658934045
 30
0.0
 11
1245.934760259599
 21
4752.929658934045
 31
0.0
  0
LINE
  5
85A6
330
85A2
100
AcDbEntity
  8
3
 62
     0
370
    -2
100
AcDbLine
 10
1526.732906376026
 20
3927.929658934044
 30
0.0
 11
1245.934760259599
 21
3927.929658934044
 31
0.0
  0
LINE
  5
85A7
330
85A2
100
AcDbEntity
  8
3
 62
     0
370
    -2
100
AcDbLine
 10
1285.934760259599
 20
4672.929658934045
 30
0.0
 11
1285.934760259599
 21
4007.929658934044
 31
0.0
  0
INSERT
  5
85A8
330
85A2
100
AcDbEntity
  8
3
 62
     0
370
    -2
100
AcDbBlockReference
  2
_OPEN
 10
1285.934760259599
 20
4752.929658934045
 30
0.0
 41
80.0
 42
80.0
 43
80.0
 50
90.0
  0
INSERT
  5
85A9
330
85A2
100
AcDbEntity
  8
3
 62
     0
370
    -2
100
AcDbBlockReference
  2
_OPEN
 10
1285.934760259599
 20
3927.929658934044
 30
0.0
 41
80.0
 42
80.0
 43
80.0
 50
270.0
  0
MTEXT
  5
85AA
330
85A2
100
AcDbEntity
  8
3
 62
     0
100
AcDbMText
 10
1185.934760259598
 20
4340.429658934044
 30
0.0
 40
120.0
 41
0.0
 71
     5
 72
     1
  1
\A1;825
 11
0.0000000000000001
 21
1.0
 31
0.0
 73
     1
 44
1.0
1001
ACAD
1000
MTEXTBEGIN
1070
    73
1070
     1
1070
    44
1040
1.0
1070
    74
1070
     0
1000
MTEXTEND
  0
POINT
  5
85AB
330
85A2
100
AcDbEntity
  8
DEFPOINTS
 62
     0
100
AcDbPoint
 10
2451.169444624878
 20
4752.929658934045
 30
0.0
  0
POINT
  5
85AC
330
85A2
100
AcDbEntity
  8
DEFPOINTS
 62
     0
100
AcDbPoint
 10
1546.732906376026
 20
3927.929658934044
 30
0.0
  0
POINT
  5
85AD
330
85A2
100
AcDbEntity
  8
DEFPOINTS
 62
     0
100
AcDbPoint
 10
1285.934760259599
 20
3927.929658934044
 30
0.0
  0
ENDBLK
  5
85A4
330
85A2
100
AcDbEntity
  8
0
100
AcDbBlockEnd
  0
BLOCK
  5
85B0
330
85AF
100
AcDbEntity
  8
0
100
AcDbBlockBegin
  2
*D43
 70
     1
 10
0.0
 20
0.0
 30
0.0
  3
*D43
  1

  0
LINE
  5
85B2
330
85AF
100
AcDbEntity
  8
3
 62
     0
370
    -2
100
AcDbLine
 10
1526.732906376026
 20
3927.929658934044
 30
0.0
 11
1245.934760259599
 21
3927.929658934044
 31
0.0
  0
LINE
  5
85B3
330
85AF
100
AcDbEntity
  8
3
 62
     0
370
    -2
100
AcDbLine
 10
1680.169444624878
 20
2817.929658934044
 30
0.0
 11
1245.934760259599
 21
2817.929658934044
 31
0.0
  0
LINE
  5
85B4
330
85AF
100
AcDbEntity
  8
3
 62
     0
370
    -2
100
AcDbLine
 10
1285.934760259599
 20
3847.929658934044
 30
0.0
 11
1285.934760259599
 21
2897.929658934044
 31
0.0
  0
INSERT
  5
85B5
330
85AF
100
AcDbEntity
  8
3
 62
     0
370
    -2
100
AcDbBlockReference
  2
_OPEN
 10
1285.934760259599
 20
3927.929658934044
 30
0.0
 41
80.0
 42
80.0
 43
80.0
 50
90.0
  0
INSERT
  5
85B6
330
85AF
100
AcDbEntity
  8
3
 62
     0
370
    -2
100
AcDbBlockReference
  2
_OPEN
 10
1285.934760259599
 20
2817.929658934044
 30
0.0
 41
80.0
 42
80.0
 43
80.0
 50
270.0
  0
MTEXT
  5
85B7
330
85AF
100
AcDbEntity
  8
3
 62
     0
100
AcDbMText
 10
1185.934760259598
 20
3372.929658934045
 30
0.0
 40
120.0
 41
0.0
 71
     5
 72
     1
  1
\A1;1110
 11
0.0000000000000001
 21
1.0
 31
0.0
 73
     1
 44
1.0
1001
ACAD
1000
MTEXTBEGIN
1070
    73
1070
     1
1070
    44
1040
1.0
1070
    74
1070
     0
1000
MTEXTEND
  0
POINT
  5
85B8
330
85AF
100
AcDbEntity
  8
DEFPOINTS
 62
     0
100
AcDbPoint
 10
1546.732906376026
 20
3927.929658934044
 30
0.0
  0
POINT
  5
85B9
330
85AF
100
AcDbEntity
  8
DEFPOINTS
 62
     0
100
AcDbPoint
 10
1700.169444624878
 20
2817.929658934044
 30
0.0
  0
POINT
  5
85BA
330
85AF
100
AcDbEntity
  8
DEFPOINTS
 62
     0
100
AcDbPoint
 10
1285.934760259599
 20
2817.929658934044
 30
0.0
  0
ENDBLK
  5
85B1
330
85AF
100
AcDbEntity
  8
0
100
AcDbBlockEnd
  0
BLOCK
  5
85BD
330
85BC
100
AcDbEntity
  8
0
100
AcDbBlockBegin
  2
*D44
 70
     1
 10
0.0
 20
0.0
 30
0.0
  3
*D44
  1

  0
LINE
  5
868A
330
85BC
100
AcDbEntity
  8
3
 62
     0
370
    -2
100
AcDbLine
 10
1680.169444624878
 20
2817.929658934044
 30
0.0
 11
1245.934760259599
 21
2817.929658934044
 31
0.0
  0
LINE
  5
868B
330
85BC
100
AcDbEntity
  8
3
 62
     0
370
    -2
100
AcDbLine
 10
1680.169444624878
 20
2797.929658934044
 30
0.0
 11
1245.934760259599
 21
2797.929658934044
 31
0.0
  0
LINE
  5
868C
330
85BC
100
AcDbEntity
  8
3
 62
     0
370
    -2
100
AcDbLine
 10
1285.934760259599
 20
2897.929658934044
 30
0.0
 11
1285.934760259599
 21
2977.929658934045
 31
0.0
  0
LINE
  5
868D
330
85BC
100
AcDbEntity
  8
3
 62
     0
370
    -2
100
AcDbLine
 10
1285.934760259599
 20
2797.929658934044
 30
0.0
 11
1285.934760259599
 21
2717.929658934044
 31
0.0
  0
LINE
  5
868E
330
85BC
100
AcDbEntity
  8
3
 62
     0
370
    -2
100
AcDbLine
 10
1285.934760259599
 20
2807.929658934045
 30
0.0
 11
1094.506188831027
 21
2865.358230362616
 31
0.0
  0
LINE
  5
868F
330
85BC
100
AcDbEntity
  8
3
 62
     0
370
    -2
100
AcDbLine
 10
1094.506188831027
 20
2865.358230362616
 30
0.0
 11
1094.506188831027
 21
3293.929658934044
 31
0.0
  0
MTEXT
  5
8690
330
85BC
100
AcDbEntity
  8
3
 62
     0
100
AcDbMText
 10
963.0776174024553
 20
3079.643944648331
 30
0.0
 40
120.0
 41
0.0
 71
     5
 72
     1
  1
\A1;(20)
 11
0.0000000000000001
 21
1.0
 31
0.0
 73
     1
 44
1.0
1001
ACAD
1000
MTEXTBEGIN
1070
    73
1070
     1
1070
    44
1040
1.0
1070
    74
1070
     0
1000
MTEXTEND
  0
LINE
  5
8691
330
85BC
100
AcDbEntity
  8
3
 62
     0
370
    -2
100
AcDbLine
 10
1285.934760259599
 20
2817.929658934044
 30
0.0
 11
1285.934760259599
 21
2797.929658934044
 31
0.0
  0
LINE
  5
8692
330
85BC
100
AcDbEntity
  8
3
 62
     0
370
    -2
100
AcDbLine
 10
1285.934760259599
 20
2817.929658934044
 30
0.0
 11
1285.934760259599
 21
2797.929658934044
 31
0.0
  0
INSERT
  5
8693
330
85BC
100
AcDbEntity
  8
3
 62
     0
370
    -2
100
AcDbBlockReference
  2
_OPEN
 10
1285.934760259599
 20
2817.929658934044
 30
0.0
 41
80.0
 42
80.0
 43
80.0
 50
270.0
  0
INSERT
  5
8694
330
85BC
100
AcDbEntity
  8
3
 62
     0
370
    -2
100
AcDbBlockReference
  2
_DotSmall
 10
1285.934760259599
 20
2797.929658934044
 30
0.0
 41
80.0
 42
80.0
 43
80.0
 50
90.0
  0
POINT
  5
8695
330
85BC
100
AcDbEntity
  8
DEFPOINTS
 62
     0
100
AcDbPoint
 10
1700.169444624878
 20
2817.929658934044
 30
0.0
  0
POINT
  5
8696
330
85BC
100
AcDbEntity
  8
DEFPOINTS
 62
     0
100
AcDbPoint
 10
1700.169444624878
 20
2797.929658934044
 30
0.0
  0
POINT
  5
8697
330
85BC
100
AcDbEntity
  8
DEFPOINTS
 62
     0
100
AcDbPoint
 10
1285.934760259599
 20
2797.929658934044
 30
0.0
  0
ENDBLK
  5
85BE
330
85BC
100
AcDbEntity
  8
0
100
AcDbBlockEnd
  0
BLOCK
  5
85CF
330
85CE
100
AcDbEntity
  8
0
100
AcDbBlockBegin
  2
*D45
 70
     1
 10
0.0
 20
0.0
 30
0.0
  3
*D45
  1

  0
LINE
  5
86E6
330
85CE
100
AcDbEntity
  8
3
 62
     0
370
    -2
100
AcDbLine
 10
1680.169444624878
 20
2797.929658934044
 30
0.0
 11
1245.934760259599
 21
2797.929658934044
 31
0.0
  0
LINE
  5
86E7
330
85CE
100
AcDbEntity
  8
3
 62
     0
370
    -2
100
AcDbLine
 10
1680.169444624878
 20
2732.929658934045
 30
0.0
 11
1245.934760259599
 21
2732.929658934045
 31
0.0
  0
LINE
  5
86E8
330
85CE
100
AcDbEntity
  8
3
 62
     0
370
    -2
100
AcDbLine
 10
1285.934760259599
 20
2797.929658934044
 30
0.0
 11
1285.934760259599
 21
2877.929658934045
 31
0.0
  0
LINE
  5
86E9
330
85CE
100
AcDbEntity
  8
3
 62
     0
370
    -2
100
AcDbLine
 10
1285.934760259599
 20
2652.929658934045
 30
0.0
 11
1285.934760259599
 21
2572.929658934045
 31
0.0
  0
MTEXT
  5
86EA
330
85CE
100
AcDbEntity
  8
3
 62
     0
100
AcDbMText
 10
1153.767983883168
 20
2534.771253626208
 30
0.0
 40
120.0
 41
0.0
 71
     5
 72
     1
  1
\A1;65
 11
0.0000000000000001
 21
1.0
 31
0.0
 73
     1
 44
1.0
1001
ACAD
1000
MTEXTBEGIN
1070
    73
1070
     1
1070
    44
1040
1.0
1070
    74
1070
     0
1000
MTEXTEND
  0
LINE
  5
86EB
330
85CE
100
AcDbEntity
  8
3
 62
     0
370
    -2
100
AcDbLine
 10
1285.934760259599
 20
2797.929658934044
 30
0.0
 11
1285.934760259599
 21
2732.929658934045
 31
0.0
  0
INSERT
  5
86EC
330
85CE
100
AcDbEntity
  8
3
 62
     0
370
    -2
100
AcDbBlockReference
  2
_DotSmall
 10
1285.934760259599
 20
2797.929658934044
 30
0.0
 41
80.0
 42
80.0
 43
80.0
 50
270.0
  0
INSERT
  5
86ED
330
85CE
100
AcDbEntity
  8
3
 62
     0
370
    -2
100
AcDbBlockReference
  2
_OPEN
 10
1285.934760259599
 20
2732.929658934045
 30
0.0
 41
80.0
 42
80.0
 43
80.0
 50
90.0
  0
POINT
  5
86EE
330
85CE
100
AcDbEntity
  8
DEFPOINTS
 62
     0
100
AcDbPoint
 10
1700.169444624878
 20
2797.929658934044
 30
0.0
  0
POINT
  5
86EF
330
85CE
100
AcDbEntity
  8
DEFPOINTS
 62
     0
100
AcDbPoint
 10
1700.169444624878
 20
2732.929658934045
 30
0.0
  0
POINT
  5
86F0
330
85CE
100
AcDbEntity
  8
DEFPOINTS
 62
     0
100
AcDbPoint
 10
1285.934760259599
 20
2732.929658934045
 30
0.0
  0
ENDBLK
  5
85D0
330
85CE
100
AcDbEntity
  8
0
100
AcDbBlockEnd
  0
BLOCK
  5
85E1
330
85E0
100
AcDbEntity
  8
0
100
AcDbBlockBegin
  2
*D46
 70
     1
 10
0.0
 20
0.0
 30
0.0
  3
*D46
  1

  0
LINE
  5
861C
330
85E0
100
AcDbEntity
  8
3
 62
     0
370
    -2
100
AcDbLine
 10
1680.169444624878
 20
2732.929658934045
 30
0.0
 11
706.9209636265728
 21
2732.929658934046
 31
0.0
  0
LINE
  5
861D
330
85E0
100
AcDbEntity
  8
3
 62
     0
370
    -2
100
AcDbLine
 10
2431.169444624878
 20
4752.929658934045
 30
0.0
 11
706.9209636265733
 21
4752.929658934045
 31
0.0
  0
LINE
  5
861E
330
85E0
100
AcDbEntity
  8
3
 62
     0
370
    -2
100
AcDbLine
 10
746.9209636265729
 20
2812.929658934045
 30
0.0
 11
746.9209636265733
 21
4672.929658934045
 31
0.0
  0
INSERT
  5
861F
330
85E0
100
AcDbEntity
  8
3
 62
     0
370
    -2
100
AcDbBlockReference
  2
_OPEN
 10
746.9209636265729
 20
2732.929658934046
 30
0.0
 41
80.0
 42
80.0
 43
80.0
 50
270.0
  0
INSERT
  5
8620
330
85E0
100
AcDbEntity
  8
3
 62
     0
370
    -2
100
AcDbBlockReference
  2
_OPEN
 10
746.9209636265733
 20
4752.929658934045
 30
0.0
 41
80.0
 42
80.0
 43
80.0
 50
90.0
  0
MTEXT
  5
8621
330
85E0
100
AcDbEntity
  8
3
 62
     0
100
AcDbMText
 10
615.492392198001
 20
3742.929658934046
 30
0.0
 40
120.0
 41
0.0
 71
     5
 72
     1
  1
\A1;(2020)
 11
0.0000000000000001
 21
1.0
 31
0.0
 73
     1
 44
1.0
1001
ACAD
1000
MTEXTBEGIN
1070
    73
1070
     1
1070
    44
1040
1.0
1070
    74
1070
     0
1000
MTEXTEND
  0
POINT
  5
8622
330
85E0
100
AcDbEntity
  8
DEFPOINTS
 62
     0
100
AcDbPoint
 10
1700.169444624878
 20
2732.929658934045
 30
0.0
  0
POINT
  5
8623
330
85E0
100
AcDbEntity
  8
DEFPOINTS
 62
     0
100
AcDbPoint
 10
2451.169444624878
 20
4752.929658934045
 30
0.0
  0
POINT
  5
8624
330
85E0
100
AcDbEntity
  8
DEFPOINTS
 62
     0
100
AcDbPoint
 10
746.9209636265733
 20
4752.929658934045
 30
0.0
  0
ENDBLK
  5
85E2
330
85E0
100
AcDbEntity
  8
0
100
AcDbBlockEnd
  0
BLOCK
  5
8688
330
8686
100
AcDbEntity
  8
0
100
AcDbBlockBegin
  2
_DotSmall
 70
     0
 10
0.0
 20
0.0
 30
0.0
  3
_DotSmall
  1

  0
LWPOLYLINE
  5
8687
330
8686
100
AcDbEntity
  8
0
  6
ByBlock
 62
     0
100
AcDbPolyline
 90
        2
 70
     1
 43
0.5
 10
-0.0625
 20
0.0
 42
1.0
 10
0.0625
 20
0.0
 42
1.0
  0
ENDBLK
  5
8689
330
8686
100
AcDbEntity
  8
0
100
AcDbBlockEnd
  0
ENDSEC
  0
SECTION
  2
ENTITIES
  0
INSERT
  5
7C21
330
83E0
100
AcDbEntity
  8
1
100
AcDbBlockReference
  2
YA_N
 10
6.0
 20
5.0
 30
0.0
  0
LINE
  5
7C22
330
83E0
100
AcDbEntity
  8
2
100
AcDbLine
 10
2450.169444624878
 20
4793.547459956273
 30
0.0
 11
2450.169444624878
 21
2732.929658934044
 31
0.0
  0
LINE
  5
7C23
330
83E0
100
AcDbEntity
  8
1
100
AcDbLine
 10
4876.039116178847
 20
2817.929658934044
 30
0.0
 11
6996.039116178846
 21
2817.929658934044
 31
0.0
1001
ACAD
1000
ASC_BOUNDS
1002
{
1070
    19
1005
0
1005
0
1002
}
  0
LINE
  5
7C24
330
83E0
100
AcDbEntity
  8
1
100
AcDbLine
 10
4876.039116178847
 20
2942.929658934044
 30
0.0
 11
6996.039116178848
 21
2942.929658934044
 31
0.0
  0
LINE
  5
7C25
330
83E0
100
AcDbEntity
  8
1
100
AcDbLine
 10
6928.039116178847
 20
4752.929658934045
 30
0.0
 11
6928.039116178847
 21
3927.929658934044
 31
0.0
  0
LINE
  5
7C26
330
83E0
100
AcDbEntity
  8
1
100
AcDbLine
 10
5228.039116178845
 20
4752.929658934045
 30
0.0
 11
5228.039116178845
 21
3927.929658934044
 31
0.0
  0
LINE
  5
7C27
330
83E0
100
AcDbEntity
  8
2
100
AcDbLine
 10
1546.732906376026
 20
3927.929658934044
 30
0.0
 11
3873.047819172239
 21
3927.929658934044
 31
0.0
  0
LINE
  5
7C28
330
83E0
100
AcDbEntity
  8
2
100
AcDbLine
 10
4817.739116178848
 20
3927.929658934044
 30
0.0
 11
7111.549602418083
 21
3927.929658934044
 31
0.0
  0
LINE
  5
7C29
330
83E0
100
AcDbEntity
  8
2
100
AcDbLine
 10
4806.53638958247
 20
3202.929658934044
 30
0.0
 11
5846.503247508856
 21
3202.929658934044
 31
0.0
  0
LINE
  5
7C2A
330
83E0
100
AcDbEntity
  8
1
100
AcDbLine
 10
4883.039116178848
 20
3308.929658934044
 30
0.0
 11
4960.939116178846
 21
3308.929658934044
 31
0.0
  0
LINE
  5
7C2B
330
83E0
100
AcDbEntity
  8
1
100
AcDbLine
 10
4883.039116178848
 20
3096.929658934044
 30
0.0
 11
4960.939116178847
 21
3096.929658934044
 31
0.0
  0
LINE
  5
7C2C
330
83E0
100
AcDbEntity
  8
1
100
AcDbLine
 10
4981.039116178846
 20
3997.929658934045
 30
0.0
 11
4981.039116178846
 21
3857.929658934045
 31
0.0
  0
LINE
  5
7C2D
330
83E0
100
AcDbEntity
  8
1
100
AcDbLine
 10
4960.939116178847
 20
4181.929658934044
 30
0.0
 11
4960.939116178847
 21
3997.929658934045
 31
0.0
  0
LINE
  5
7C2E
330
83E0
100
AcDbEntity
  8
1
100
AcDbLine
 10
4960.939116178847
 20
3997.929658934045
 30
0.0
 11
4981.039116178846
 21
3997.929658934045
 31
0.0
  0
LINE
  5
7C2F
330
83E0
100
AcDbEntity
  8
1
100
AcDbLine
 10
4960.939116178846
 20
3857.929658934045
 30
0.0
 11
4981.039116178846
 21
3857.929658934045
 31
0.0
  0
LINE
  5
7C30
330
83E0
100
AcDbEntity
  8
1
100
AcDbLine
 10
4960.939116178847
 20
3857.929658934045
 30
0.0
 11
4960.939116178847
 21
3262.929658934044
 31
0.0
  0
LINE
  5
7C31
330
83E0
100
AcDbEntity
  8
1
100
AcDbLine
 10
4883.039116178848
 20
4181.929658934044
 30
0.0
 11
4883.039116178848
 21
3096.929658934044
 31
0.0
  0
LINE
  5
7C32
330
83E0
100
AcDbEntity
  8
1
100
AcDbLine
 10
4976.039116178847
 20
3262.929658934044
 30
0.0
 11
4976.039116178847
 21
3142.929658934044
 31
0.0
  0
LINE
  5
7C33
330
83E0
100
AcDbEntity
  8
1
100
AcDbLine
 10
4960.939116178847
 20
3262.929658934044
 30
0.0
 11
4976.039116178847
 21
3262.929658934044
 31
0.0
  0
LINE
  5
7C34
330
83E0
100
AcDbEntity
  8
1
100
AcDbLine
 10
4960.939116178847
 20
3142.929658934044
 30
0.0
 11
4976.039116178847
 21
3142.929658934044
 31
0.0
  0
LINE
  5
7C35
330
83E0
100
AcDbEntity
  8
1
100
AcDbLine
 10
4960.939116178847
 20
3142.929658934044
 30
0.0
 11
4960.939116178847
 21
3096.929658934044
 31
0.0
  0
LINE
  5
7C36
330
83E0
100
AcDbEntity
  8
1
100
AcDbLine
 10
4798.039116178847
 20
2982.929658934045
 30
0.0
 11
5043.039116178849
 21
2982.929658934045
 31
0.0
  0
LINE
  5
7C37
330
83E0
100
AcDbEntity
  8
1
100
AcDbLine
 10
4798.039116178847
 20
4307.929658934045
 30
0.0
 11
4798.039116178847
 21
2982.929658934045
 31
0.0
  0
LINE
  5
7C38
330
83E0
100
AcDbEntity
  8
1
100
AcDbLine
 10
5043.039116178846
 20
4307.929658934045
 30
0.0
 11
5043.039116178849
 21
4287.929658934045
 31
0.0
  0
LINE
  5
7C39
330
83E0
100
AcDbEntity
  8
2
100
AcDbLine
 10
2450.169444624878
 20
8805.121610998787
 30
0.0
 11
2450.169444624878
 21
6424.943933730482
 31
0.0
  0
LINE
  5
7C3A
330
83E0
100
AcDbEntity
  8
2
100
AcDbLine
 10
3870.169444624878
 20
7460.254487396347
 30
0.0
 11
3870.169444624878
 21
6456.824955162199
 31
0.0
  0
LINE
  5
7C3B
330
83E0
100
AcDbEntity
  8
2
100
AcDbLine
 10
6078.039116178846
 20
4963.074884636641
 30
0.0
 11
6078.039116178845
 21
2732.929658934045
 31
0.0
  0
INSERT
  5
7C3C
330
83E0
100
AcDbEntity
  8
1
100
AcDbBlockReference
  2
YA_N
 10
-1757.227407310314
 20
-1218.78641745778
 30
0.0
 41
30.0
 42
30.0
 43
30.0
  0
INSERT
  5
7C3D
330
83E0
100
AcDbEntity
  8
1
100
AcDbBlockReference
  2
YA_N
 10
-755.2436758818473
 20
-538.554984833856
 30
0.0
 41
30.0
 42
30.0
 43
30.0
  0
LINE
  5
7C3E
330
83E0
100
AcDbEntity
  8
1
100
AcDbLine
 10
4876.039116178844
 20
2797.929658934044
 30
0.0
 11
6996.039116178848
 21
2797.929658934044
 31
0.0
1001
ACAD
1000
ASC_BOUNDS
1002
{
1070
    19
1005
0
1005
0
1002
}
  0
LINE
  5
7C3F
330
83E0
100
AcDbEntity
  8
1
100
AcDbLine
 10
4876.039116178844
 20
2732.929658934045
 30
0.0
 11
6996.039116178846
 21
2732.929658934045
 31
0.0
  0
LINE
  5
7C40
330
83E0
100
AcDbEntity
  8
1
100
AcDbLine
 10
6996.039116178846
 20
2797.929658934044
 30
0.0
 11
6996.039116178846
 21
2732.929658934045
 31
0.0
  0
LINE
  5
7C41
330
83E0
100
AcDbEntity
  8
1
100
AcDbLine
 10
6928.039116178847
 20
3928.929658934045
 30
0.0
 11
6928.039116178847
 21
2942.929658934044
 31
0.0
  0
LINE
  5
7C42
330
83E0
100
AcDbEntity
  8
1
100
AcDbLine
 10
5228.039116178845
 20
3928.929658934045
 30
0.0
 11
5228.039116178845
 21
3412.929658934046
 31
0.0
  0
LINE
  5
7C43
330
83E0
100
AcDbEntity
  8
1
100
AcDbLine
 10
1700.169444624878
 20
8705.437268273023
 30
0.0
 11
3200.169444624878
 21
8705.437268273023
 31
0.0
  0
LINE
  5
7C44
330
83E0
100
AcDbEntity
  8
1
100
AcDbLine
 10
1700.169444624878
 20
6585.437268273023
 30
0.0
 11
4150.169444624879
 21
6585.437268273023
 31
0.0
  0
LINE
  5
7C45
330
83E0
100
AcDbEntity
  8
1
100
AcDbLine
 10
1700.169444624878
 20
8705.437268273023
 30
0.0
 11
1700.169444624878
 21
8637.437268273025
 31
0.0
  0
LINE
  5
7C46
330
83E0
100
AcDbEntity
  8
1
100
AcDbLine
 10
4150.169444624879
 20
7585.437268273023
 30
0.0
 11
4150.169444624879
 21
6585.437268273023
 31
0.0
  0
LINE
  5
7C47
330
83E0
100
AcDbEntity
  8
1
100
AcDbLine
 10
3200.169444624878
 20
8705.437268273023
 30
0.0
 11
3200.169444624878
 21
8637.437268273025
 31
0.0
  0
LINE
  5
7C48
330
83E0
100
AcDbEntity
  8
1
100
AcDbLine
 10
3784.169444624879
 20
7585.437268273023
 30
0.0
 11
4150.169444624879
 21
7585.437268273023
 31
0.0
  0
LINE
  5
7C4A
330
83E0
100
AcDbEntity
  8
1
100
AcDbLine
 10
5070.539116178847
 20
3851.929658934045
 30
0.0
 11
5070.539116178847
 21
3721.929658934044
 31
0.0
  0
LINE
  5
7C4B
330
83E0
100
AcDbEntity
  8
1
100
AcDbLine
 10
5210.539116178846
 20
3861.929658934045
 30
0.0
 11
5210.539116178846
 21
3711.929658934045
 31
0.0
  0
LINE
  5
7C4C
330
83E0
100
AcDbEntity
  8
1
100
AcDbLine
 10
5080.539116178846
 20
3861.929658934045
 30
0.0
 11
5150.739116178848
 21
3861.929658934045
 31
0.0
  0
LINE
  5
7C4D
330
83E0
100
AcDbEntity
  8
1
100
AcDbLine
 10
5080.539116178846
 20
3711.929658934045
 30
0.0
 11
5150.739116178848
 21
3711.929658934045
 31
0.0
  0
ARC
  5
7C4E
330
83E0
100
AcDbEntity
  8
1
100
AcDbCircle
 10
5080.539116178846
 20
3851.929658934045
 30
0.0
 40
10.0
100
AcDbArc
 50
90.0
 51
180.0
  0
ARC
  5
7C4F
330
83E0
100
AcDbEntity
  8
1
100
AcDbCircle
 10
5080.539116178846
 20
3721.929658934044
 30
0.0
 40
10.0
100
AcDbArc
 50
180.0
 51
270.0
  0
LINE
  5
7C50
330
83E0
100
AcDbEntity
  8
1
100
AcDbLine
 10
5150.739116178847
 20
3711.929658934045
 30
0.0
 11
5210.539116178846
 21
3711.929658934045
 31
0.0
  0
LINE
  5
7C51
330
83E0
100
AcDbEntity
  8
1
100
AcDbLine
 10
5150.739116178847
 20
3861.929658934045
 30
0.0
 11
5210.539116178846
 21
3861.929658934045
 31
0.0
  0
LINE
  5
7C52
330
83E0
100
AcDbEntity
  8
1
100
AcDbLine
 10
7098.039116178846
 20
3851.929658934045
 30
0.0
 11
7098.039116178846
 21
3721.929658934044
 31
0.0
  0
LINE
  5
7C53
330
83E0
100
AcDbEntity
  8
1
100
AcDbLine
 10
6945.539116178847
 20
3861.929658934045
 30
0.0
 11
6945.539116178847
 21
3711.929658934045
 31
0.0
  0
LINE
  5
7C54
330
83E0
100
AcDbEntity
  8
1
100
AcDbLine
 10
7088.039116178847
 20
3711.929658934045
 30
0.0
 11
7005.339116178845
 21
3711.929658934045
 31
0.0
  0
ARC
  5
7C55
330
83E0
100
AcDbEntity
  8
1
100
AcDbCircle
 10
7088.039116178847
 20
3721.929658934044
 30
0.0
 40
10.0
100
AcDbArc
 50
270.0
 51
0.0
  0
LINE
  5
7C56
330
83E0
100
AcDbEntity
  8
1
100
AcDbLine
 10
7005.339116178845
 20
3711.929658934045
 30
0.0
 11
6945.539116178847
 21
3711.929658934045
 31
0.0
  0
LINE
  5
7C57
330
83E0
100
AcDbEntity
  8
1
100
AcDbLine
 10
7088.039116178847
 20
3861.929658934045
 30
0.0
 11
7005.339116178845
 21
3861.929658934045
 31
0.0
  0
ARC
  5
7C58
330
83E0
100
AcDbEntity
  8
1
100
AcDbCircle
 10
7088.039116178847
 20
3851.929658934045
 30
0.0
 40
10.0
100
AcDbArc
 50
0.0
 51
90.0
  0
LINE
  5
7C59
330
83E0
100
AcDbEntity
  8
1
100
AcDbLine
 10
7005.339116178845
 20
3861.929658934045
 30
0.0
 11
6945.539116178847
 21
3861.929658934045
 31
0.0
  0
LINE
  5
7C5E
330
83E0
100
AcDbEntity
  8
1
100
AcDbLine
 10
4883.039116178848
 20
4181.929658934044
 30
0.0
 11
4960.939116178846
 21
4181.929658934044
 31
0.0
  0
LINE
  5
7C5F
330
83E0
100
AcDbEntity
  8
1
100
AcDbLine
 10
4883.039116178848
 20
3673.929658934044
 30
0.0
 11
4960.939116178846
 21
3673.929658934044
 31
0.0
  0
LINE
  5
7C60
330
83E0
100
AcDbEntity
  8
1
100
AcDbLine
 10
4798.039116178847
 20
4307.929658934045
 30
0.0
 11
5043.039116178846
 21
4307.929658934045
 31
0.0
  0
LINE
  5
7C61
330
83E0
100
AcDbEntity
  8
1
100
AcDbLine
 10
5043.039116178849
 20
3002.929658934045
 30
0.0
 11
5043.039116178849
 21
2982.929658934045
 31
0.0
  0
INSERT
  5
7C62
330
83E0
100
AcDbEntity
  8
1
100
AcDbBlockReference
  2
YA_N
 10
4767.943419715615
 20
-1494.695868425496
 30
0.0
  0
LINE
  5
7C63
330
83E0
100
AcDbEntity
  8
1
100
AcDbLine
 10
6996.039116178846
 20
2942.929658934044
 30
0.0
 11
6996.039116178846
 21
2817.929658934044
 31
0.0
  0
LINE
  5
7C64
330
83E0
100
AcDbEntity
  8
1
100
AcDbLine
 10
4876.039116178844
 20
2797.929658934044
 30
0.0
 11
4876.039116178848
 21
2732.929658934045
 31
0.0
  0
LINE
  5
7C65
330
83E0
100
AcDbEntity
  8
1
100
AcDbLine
 10
4876.039116178847
 20
2942.929658934044
 30
0.0
 11
4876.039116178847
 21
2817.929658934044
 31
0.0
  0
LINE
  5
7C69
330
83E0
100
AcDbEntity
  8
1
100
AcDbLine
 10
4981.039116178846
 20
3965.429658934045
 30
0.0
 11
5228.039116178845
 21
3965.429658934045
 31
0.0
  0
LINE
  5
7C6A
330
83E0
100
AcDbEntity
  8
1
100
AcDbLine
 10
4981.039116178846
 20
3890.429658934044
 30
0.0
 11
5228.039116178845
 21
3890.429658934044
 31
0.0
  0
LINE
  5
7C6B
330
83E0
100
AcDbEntity
  8
1
100
AcDbLine
 10
5071.989116178848
 20
3002.929658934045
 30
0.0
 11
5071.989116178848
 21
3202.929658934045
 31
0.0
  0
LINE
  5
7C6C
330
83E0
100
AcDbEntity
  8
1
100
AcDbLine
 10
5071.989116178849
 20
3002.929658934045
 30
0.0
 11
5721.489116178847
 21
3002.929658934048
 31
0.0
  0
LINE
  5
7C6D
330
83E0
100
AcDbEntity
  8
1
100
AcDbLine
 10
5721.489116178847
 20
3412.929658934049
 30
0.0
 11
5071.989116178848
 21
3412.929658934045
 31
0.0
  0
LINE
  5
7C6E
330
83E0
100
AcDbEntity
  8
1
100
AcDbLine
 10
5061.989116178847
 20
3172.929658934045
 30
0.0
 11
4976.039116178847
 21
3172.929658934044
 31
0.0
  0
LINE
  5
7C6F
330
83E0
100
AcDbEntity
  8
1
100
AcDbLine
 10
5061.989116178847
 20
3232.929658934045
 30
0.0
 11
4976.039116178847
 21
3232.929658934045
 31
0.0
  0
LINE
  5
7C70
330
83E0
100
AcDbEntity
  8
1
100
AcDbLine
 10
5071.989116178848
 20
3412.929658934045
 30
0.0
 11
5071.989116178848
 21
3202.929658934045
 31
0.0
  0
LINE
  5
7C71
330
83E0
100
AcDbEntity
  8
1
100
AcDbLine
 10
5061.989116178847
 20
3170.429658934045
 30
0.0
 11
5061.989116178847
 21
3235.429658934044
 31
0.0
  0
LINE
  5
7C72
330
83E0
100
AcDbEntity
  8
1
100
AcDbLine
 10
5061.989116178847
 20
3170.429658934045
 30
0.0
 11
5071.989116178848
 21
3170.429658934045
 31
0.0
  0
LINE
  5
7C73
330
83E0
100
AcDbEntity
  8
1
100
AcDbLine
 10
5061.989116178847
 20
3235.429658934044
 30
0.0
 11
5071.989116178848
 21
3235.429658934044
 31
0.0
  0
LINE
  5
7C74
330
83E0
100
AcDbEntity
  8
2
100
AcDbLine
 10
1474.342323903158
 20
7787.437268273027
 30
0.0
 11
3943.598483867205
 21
7787.437268273023
 31
0.0
  0
LINE
  5
7C75
330
83E0
100
AcDbEntity
  8
1
100
AcDbLine
 10
2070.169444624878
 20
6507.437268273024
 30
0.0
 11
4090.169444624878
 21
6507.437268273024
 31
0.0
  0
LINE
  5
7C76
330
83E0
100
AcDbEntity
  8
1
100
AcDbLine
 10
2196.169444624878
 20
6592.437268273027
 30
0.0
 11
2704.169444624878
 21
6592.437268273027
 31
0.0
  0
LINE
  5
7C77
330
83E0
100
AcDbEntity
  8
1
100
AcDbLine
 10
2520.169444624878
 20
6670.337268273025
 30
0.0
 11
2704.169444624878
 21
6670.337268273025
 31
0.0
  0
LINE
  5
7C78
330
83E0
100
AcDbEntity
  8
1
100
AcDbLine
 10
3900.169444624879
 20
6771.387268273024
 30
0.0
 11
3900.169444624879
 21
6685.437268273024
 31
0.0
  0
LINE
  5
7C79
330
83E0
100
AcDbEntity
  8
1
100
AcDbLine
 10
3840.169444624878
 20
6771.387268273024
 30
0.0
 11
3840.169444624878
 21
6685.437268273024
 31
0.0
  0
LINE
  5
7C7A
330
83E0
100
AcDbEntity
  8
1
100
AcDbLine
 10
4090.169444624878
 20
6507.437268273024
 30
0.0
 11
4090.169444624878
 21
6752.437268273023
 31
0.0
  0
LINE
  5
7C7B
330
83E0
100
AcDbEntity
  8
1
100
AcDbLine
 10
3250.169444624878
 20
6585.437268273024
 30
0.0
 11
3375.169444624878
 21
6585.437268273024
 31
0.0
  0
LINE
  5
7C7C
330
83E0
100
AcDbEntity
  8
1
100
AcDbLine
 10
3394.169444624878
 20
6585.437268273023
 30
0.0
 11
3459.169444624878
 21
6585.437268273024
 31
0.0
  0
LINE
  5
7C7D
330
83E0
100
AcDbEntity
  8
1
100
AcDbLine
 10
3810.169444624878
 20
6685.437268273024
 30
0.0
 11
3930.169444624878
 21
6685.437268273024
 31
0.0
  0
LINE
  5
7C7E
330
83E0
100
AcDbEntity
  8
1
100
AcDbLine
 10
3930.169444624878
 20
6670.337268273025
 30
0.0
 11
3976.169444624878
 21
6670.337268273025
 31
0.0
  0
LINE
  5
7C7F
330
83E0
100
AcDbEntity
  8
1
100
AcDbLine
 10
3976.169444624878
 20
6592.437268273027
 30
0.0
 11
3976.169444624878
 21
6670.337268273025
 31
0.0
  0
LINE
  5
7C80
330
83E0
100
AcDbEntity
  8
1
100
AcDbLine
 10
3930.169444624878
 20
6670.337268273025
 30
0.0
 11
3930.169444624878
 21
6685.437268273024
 31
0.0
  0
LINE
  5
7C81
330
83E0
100
AcDbEntity
  8
1
100
AcDbLine
 10
3764.169444624878
 20
6592.437268273027
 30
0.0
 11
3764.169444624878
 21
6670.337268273022
 31
0.0
  0
LINE
  5
7C82
330
83E0
100
AcDbEntity
  8
1
100
AcDbLine
 10
3810.169444624878
 20
6670.337268273025
 30
0.0
 11
3810.169444624878
 21
6685.437268273024
 31
0.0
  0
LINE
  5
7C83
330
83E0
100
AcDbEntity
  8
1
100
AcDbLine
 10
2704.169444624878
 20
6592.437268273027
 30
0.0
 11
2704.169444624878
 21
6670.337268273022
 31
0.0
  0
LINE
  5
7C84
330
83E0
100
AcDbEntity
  8
1
100
AcDbLine
 10
3660.169444624878
 20
6781.387268273025
 30
0.0
 11
3870.169444624878
 21
6781.387268273025
 31
0.0
  0
LINE
  5
7C85
330
83E0
100
AcDbEntity
  8
1
100
AcDbLine
 10
3902.669444624878
 20
6771.387268273024
 30
0.0
 11
3837.669444624879
 21
6771.387268273024
 31
0.0
  0
LINE
  5
7C86
330
83E0
100
AcDbEntity
  8
1
100
AcDbLine
 10
4070.169444624879
 20
6781.387268273026
 30
0.0
 11
4070.169444624871
 21
7430.887268273027
 31
0.0
  0
LINE
  5
7C87
330
83E0
100
AcDbEntity
  8
1
100
AcDbLine
 10
4070.169444624879
 20
6781.387268273025
 30
0.0
 11
3870.169444624878
 21
6781.387268273025
 31
0.0
  0
LINE
  5
7C88
330
83E0
100
AcDbEntity
  8
1
100
AcDbLine
 10
3902.669444624878
 20
6771.387268273024
 30
0.0
 11
3902.669444624878
 21
6781.387268273025
 31
0.0
  0
LINE
  5
7C89
330
83E0
100
AcDbEntity
  8
1
100
AcDbLine
 10
4070.169444624876
 20
6956.887268273026
 30
0.0
 11
4069.169444624876
 21
6956.887268273026
 31
0.0
  0
LINE
  5
7C8A
330
83E0
100
AcDbEntity
  8
1
100
AcDbLine
 10
3660.169444624877
 20
6937.437268273022
 30
0.0
 11
3660.169444624878
 21
6781.387268273023
 31
0.0
  0
LINE
  5
7C8B
330
83E0
100
AcDbEntity
  8
1
100
AcDbLine
 10
3837.669444624879
 20
6771.387268273024
 30
0.0
 11
3837.669444624879
 21
6781.387268273025
 31
0.0
  0
LINE
  5
7C8C
330
83E0
100
AcDbEntity
  8
1
100
AcDbLine
 10
2487.669444624878
 20
6690.437268273024
 30
0.0
 11
2487.669444624878
 21
6937.437268273022
 31
0.0
  0
LINE
  5
7C8D
330
83E0
100
AcDbEntity
  8
1
100
AcDbLine
 10
2412.669444624878
 20
6690.437268273024
 30
0.0
 11
2412.669444624878
 21
6937.437268273024
 31
0.0
  0
LINE
  5
7C8E
330
83E0
100
AcDbEntity
  8
1
100
AcDbLine
 10
2070.169444624878
 20
6507.437268273022
 30
0.0
 11
2070.169444624878
 21
6752.437268273023
 31
0.0
  0
LINE
  5
7C8F
330
83E0
100
AcDbEntity
  8
1
100
AcDbLine
 10
2380.169444624878
 20
6690.437268273024
 30
0.0
 11
2520.169444624878
 21
6690.437268273024
 31
0.0
  0
LINE
  5
7C90
330
83E0
100
AcDbEntity
  8
1
100
AcDbLine
 10
2520.169444624878
 20
6670.337268273022
 30
0.0
 11
2520.169444624878
 21
6690.437268273024
 31
0.0
  0
LINE
  5
7C91
330
83E0
100
AcDbEntity
  8
1
100
AcDbLine
 10
2196.169444624878
 20
6670.337268273025
 30
0.0
 11
2380.169444624878
 21
6670.337268273025
 31
0.0
  0
LINE
  5
7C92
330
83E0
100
AcDbEntity
  8
1
100
AcDbLine
 10
2380.169444624878
 20
6670.337268273025
 30
0.0
 11
2380.169444624878
 21
6690.437268273024
 31
0.0
  0
LINE
  5
7C93
330
83E0
100
AcDbEntity
  8
1
100
AcDbLine
 10
2196.169444624878
 20
6592.437268273027
 30
0.0
 11
2196.169444624878
 21
6670.337268273022
 31
0.0
  0
LINE
  5
7C94
330
83E0
100
AcDbEntity
  8
1
100
AcDbLine
 10
2070.169444624878
 20
6752.437268273023
 30
0.0
 11
4090.169444624878
 21
6752.437268273117
 31
0.0
  0
LINE
  5
7C95
330
83E0
100
AcDbEntity
  8
1
100
AcDbLine
 10
4070.169444624876
 20
7430.887268273027
 30
0.0
 11
3784.169444624879
 21
7430.887268273024
 31
0.0
  0
LINE
  5
7C96
330
83E0
100
AcDbEntity
  8
1
100
AcDbLine
 10
1553.169444624878
 20
8637.437268273025
 30
0.0
 11
3784.169444624879
 21
8637.437268273025
 31
0.0
  0
LINE
  5
7C97
330
83E0
100
AcDbEntity
  8
1
100
AcDbLine
 10
1553.169444624878
 20
6937.437268273022
 30
0.0
 11
3784.169444624879
 21
6937.437268273024
 31
0.0
  0
LINE
  5
7C98
330
83E0
100
AcDbEntity
  8
1
100
AcDbLine
 10
1700.169444624878
 20
6937.437268273022
 30
0.0
 11
1700.169444624878
 21
6585.437268273023
 31
0.0
  0
LINE
  5
7C99
330
83E0
100
AcDbEntity
  8
1
100
AcDbLine
 10
3764.169444624878
 20
6670.337268273025
 30
0.0
 11
3810.169444624878
 21
6670.337268273025
 31
0.0
  0
LINE
  5
7C9A
330
83E0
100
AcDbEntity
  8
1
100
AcDbLine
 10
3764.169444624878
 20
6592.437268273027
 30
0.0
 11
3976.169444624878
 21
6592.437268273027
 31
0.0
  0
INSERT
  5
7CA0
330
83E0
100
AcDbEntity
  8
1
100
AcDbBlockReference
  2
YA_N
 10
10738.86349375248
 20
1135.274830878665
 30
0.0
  0
ARC
  5
7CA2
330
83E0
100
AcDbEntity
  8
1
100
AcDbCircle
 10
2541.169444624878
 20
4018.929658934045
 30
0.0
 40
1170.0
100
AcDbArc
 50
293.1238475675229
 51
355.539156302126
  0
ARC
  5
7CA3
330
83E0
100
AcDbEntity
  8
1
100
AcDbCircle
 10
2541.169444624878
 20
3836.929658934045
 30
0.0
 40
988.0
100
AcDbArc
 50
174.7152670454654
 51
244.8042051557864
  0
ARC
  5
7CA4
330
83E0
100
AcDbEntity
  8
1
100
AcDbCircle
 10
2373.169444624878
 20
3850.929658934045
 30
0.0
 40
820.0
100
AcDbArc
 50
87.24248524420788
 51
174.6118481956725
  0
LINE
  5
7CA5
330
83E0
100
AcDbEntity
  8
1
100
AcDbLine
 10
3707.625187462986
 20
3927.929658934044
 30
0.0
 11
3784.169444624879
 21
4752.929658934045
 31
0.0
  0
LINE
  5
7CA6
330
83E0
100
AcDbEntity
  8
1
100
AcDbLine
 10
1700.169444624878
 20
2817.929658934044
 30
0.0
 11
4150.169444624879
 21
2817.929658934044
 31
0.0
1001
ACAD
1000
ASC_BOUNDS
1002
{
1070
    19
1002
}
  0
LINE
  5
7CA7
330
83E0
100
AcDbEntity
  8
1
100
AcDbLine
 10
1700.169444624878
 20
2942.929658934044
 30
0.0
 11
4150.169444624879
 21
2942.929658934044
 31
0.0
  0
LINE
  5
7CA8
330
83E0
100
AcDbEntity
  8
1
100
AcDbLine
 10
1700.169444624878
 20
2942.929658934044
 30
0.0
 11
1700.169444624878
 21
2817.929658934044
 31
0.0
  0
LINE
  5
7CA9
330
83E0
100
AcDbEntity
  8
1
100
AcDbLine
 10
4150.169444624879
 20
2942.929658934044
 30
0.0
 11
4150.169444624879
 21
2817.929658934044
 31
0.0
  0
LINE
  5
7CAA
330
83E0
100
AcDbEntity
  8
2
100
AcDbLine
 10
3870.169444624878
 20
3493.784175539754
 30
0.0
 11
3870.169444624877
 21
2732.929658934045
 31
0.0
  0
LINE
  5
7CAB
330
83E0
100
AcDbEntity
  8
2
100
AcDbLine
 10
3589.855227866727
 20
3202.929658934044
 30
0.0
 11
4277.333922919592
 21
3202.929658934044
 31
0.0
  0
LINE
  5
7CAC
330
83E0
100
AcDbEntity
  8
1
100
AcDbLine
 10
2504.169444624878
 20
4752.929658934045
 30
0.0
 11
2504.169444624877
 21
4668.964745822647
 31
0.0
  0
LINE
  5
7CAD
330
83E0
100
AcDbEntity
  8
1
100
AcDbLine
 10
3779.530398736279
 20
4702.929658934045
 30
0.0
 11
2504.169444624878
 21
4702.929658934045
 31
0.0
  0
LINE
  5
7CAE
330
83E0
100
AcDbEntity
  8
1
100
AcDbLine
 10
3837.169444624878
 20
4752.929658934045
 30
0.0
 11
2451.169444624878
 21
4752.929658934045
 31
0.0
  0
POINT
  5
7CAF
330
83E0
100
AcDbEntity
  8
1
100
AcDbPoint
 10
3524.969729235531
 20
3927.929658934044
 30
0.0
  0
INSERT
  5
7CB0
330
83E0
100
AcDbEntity
  8
1
100
AcDbBlockReference
  2
YA_N
 10
8975.636086442174
 20
-88.51158657911581
 30
0.0
 41
30.0
 42
30.0
 43
30.0
  0
LINE
  5
7CB2
330
83E0
100
AcDbEntity
  8
1
100
AcDbLine
 10
1700.169444624878
 20
2797.929658934044
 30
0.0
 11
4150.169444624879
 21
2797.929658934044
 31
0.0
1001
ACAD
1000
ASC_BOUNDS
1002
{
1070
    19
1002
}
  0
LINE
  5
7CB3
330
83E0
100
AcDbEntity
  8
1
100
AcDbLine
 10
1700.169444624878
 20
2732.929658934045
 30
0.0
 11
4150.169444624879
 21
2732.929658934045
 31
0.0
  0
LINE
  5
7CB4
330
83E0
100
AcDbEntity
  8
1
100
AcDbLine
 10
1700.169444624878
 20
2797.929658934044
 30
0.0
 11
1700.169444624878
 21
2732.929658934045
 31
0.0
  0
LINE
  5
7CB5
330
83E0
100
AcDbEntity
  8
1
100
AcDbLine
 10
4150.169444624879
 20
2797.929658934044
 30
0.0
 11
4150.169444624879
 21
2732.929658934045
 31
0.0
  0
ARC
  5
7CB6
330
83E0
100
AcDbEntity
  8
1
100
AcDbCircle
 10
3870.169444624878
 20
3202.929658934044
 30
0.0
 40
203.5
100
AcDbArc
 50
285.60376
 51
254.396301
  0
LINE
  5
7CB7
330
83E0
100
AcDbEntity
  8
1
100
AcDbLine
 10
3924.90748162488
 20
3006.929658934045
 30
0.0
 11
3815.431407624877
 21
3006.929658934045
 31
0.0
  0
ARC
  5
7CB8
330
83E0
100
AcDbEntity
  8
1
100
AcDbCircle
 10
3684.169444624878
 20
3019.929658934044
 30
0.0
 40
3.0
100
AcDbArc
 50
90.0
 51
180.0
  0
ARC
  5
7CB9
330
83E0
100
AcDbEntity
  8
1
100
AcDbCircle
 10
3686.169444624879
 20
3077.256319934045
 30
0.0
 40
5.000066999999999
100
AcDbArc
 50
124.943665
 51
180.0
  0
LINE
  5
7CBA
330
83E0
100
AcDbEntity
  8
1
100
AcDbLine
 10
3681.169444624878
 20
3077.256319934045
 30
0.0
 11
3681.169444624878
 21
3002.929658934045
 31
0.0
  0
LINE
  5
7CBE
330
83E0
100
AcDbEntity
  8
1
100
AcDbLine
 10
3766.066874624877
 20
3028.072847934045
 30
0.0
 11
3760.66944462488
 21
3007.929658934044
 31
0.0
  0
LINE
  5
7CBF
330
83E0
100
AcDbEntity
  8
1
100
AcDbLine
 10
3760.66944462488
 20
3019.929658934044
 30
0.0
 11
3760.66944462488
 21
3002.929658934045
 31
0.0
  0
LINE
  5
7CC0
330
83E0
100
AcDbEntity
  8
1
100
AcDbLine
 10
3757.669444624879
 20
3022.929658934045
 30
0.0
 11
3684.169444624878
 21
3022.929658934045
 31
0.0
  0
ARC
  5
7CC1
330
83E0
100
AcDbEntity
  8
1
100
AcDbCircle
 10
3757.669444624879
 20
3019.929658934044
 30
0.0
 40
3.0
100
AcDbArc
 50
0.0
 51
90.0
  0
LINE
  5
7CC2
330
83E0
100
AcDbEntity
  8
1
100
AcDbLine
 10
3683.305674624879
 20
3081.354951934045
 30
0.0
 11
3699.24354062488
 21
3092.491426934044
 31
0.0
  0
LINE
  5
7CC3
330
83E0
100
AcDbEntity
  8
1
100
AcDbLine
 10
4059.169444624878
 20
3077.256319934045
 30
0.0
 11
4059.169444624878
 21
3002.929658934045
 31
0.0
  0
LINE
  5
7CC7
330
83E0
100
AcDbEntity
  8
1
100
AcDbLine
 10
3974.272227624879
 20
3028.072969934044
 30
0.0
 11
3979.669444624878
 21
3007.929658934044
 31
0.0
  0
LINE
  5
7CC8
330
83E0
100
AcDbEntity
  8
1
100
AcDbLine
 10
3979.669444624878
 20
3019.929658934044
 30
0.0
 11
3979.669444624878
 21
3002.929658934045
 31
0.0
  0
LINE
  5
7CC9
330
83E0
100
AcDbEntity
  8
1
100
AcDbLine
 10
3982.669444624878
 20
3022.929658934045
 30
0.0
 11
4056.169444624877
 21
3022.929658934045
 31
0.0
  0
ARC
  5
7CCA
330
83E0
100
AcDbEntity
  8
1
100
AcDbCircle
 10
3982.669444624878
 20
3019.929658934044
 30
0.0
 40
3.0
100
AcDbArc
 50
90.0
 51
180.0
  0
ARC
  5
7CCB
330
83E0
100
AcDbEntity
  8
1
100
AcDbCircle
 10
4056.169444624877
 20
3019.929658934044
 30
0.0
 40
3.0
100
AcDbArc
 50
0.0
 51
90.0
  0
LINE
  5
7CCC
330
83E0
100
AcDbEntity
  8
1
100
AcDbLine
 10
4057.033335624876
 20
3081.354951934045
 30
0.0
 11
4041.095469624877
 21
3092.491426934044
 31
0.0
  0
ARC
  5
7CCD
330
83E0
100
AcDbEntity
  8
1
100
AcDbCircle
 10
4054.169444624878
 20
3077.256319934045
 30
0.0
 40
5.0
100
AcDbArc
 50
0.0
 51
55.05633899999998
  0
LINE
  5
7CCE
330
83E0
100
AcDbEntity
  8
1
100
AcDbLine
 10
3626.74641958227
 20
3002.929658934045
 30
0.0
 11
3800.169444624879
 21
3002.929658934045
 31
0.0
  0
LINE
  5
7CCF
330
83E0
100
AcDbEntity
  8
1
100
AcDbLine
 10
3610.169444624878
 20
2942.929658934044
 30
0.0
 11
3626.74641958227
 21
3002.929658934045
 31
0.0
  0
LINE
  5
7CD0
330
83E0
100
AcDbEntity
  8
1
100
AcDbLine
 10
4130.169444624879
 20
2942.929658934044
 30
0.0
 11
4113.98848807976
 21
3002.929658934045
 31
0.0
  0
LINE
  5
7CD1
330
83E0
100
AcDbEntity
  8
1
100
AcDbLine
 10
3800.169444624879
 20
2992.929658934045
 30
0.0
 11
3940.169444624878
 21
2992.929658934045
 31
0.0
  0
LINE
  5
7CD3
330
83E0
100
AcDbEntity
  8
1
100
AcDbLine
 10
3940.169444624878
 20
3002.929658934045
 30
0.0
 11
3940.169444624878
 21
2992.929658934045
 31
0.0
  0
LINE
  5
7CD4
330
83E0
100
AcDbEntity
  8
1
100
AcDbLine
 10
3800.169444624879
 20
3002.929658934045
 30
0.0
 11
3800.169444624879
 21
2992.929658934045
 31
0.0
  0
LINE
  5
7CD7
330
83E0
100
AcDbEntity
  8
1
100
AcDbLine
 10
3940.169444624878
 20
3002.929658934045
 30
0.0
 11
4113.98848807976
 21
3002.929658934045
 31
0.0
  0
INSERT
  5
7CDA
330
83E0
100
AcDbEntity
  8
1
100
AcDbBlockReference
  2
YA_N
 10
9977.619817870641
 20
591.719846044809
 30
0.0
 41
30.0
 42
30.0
 43
30.0
  0
CIRCLE
  5
7CE0
330
83E0
100
AcDbEntity
  8
1
100
AcDbCircle
 10
3870.169444624878
 20
3202.929658934044
 30
0.0
 40
107.0
  0
POINT
  5
7CE1
330
83E0
100
AcDbEntity
  8
1
100
AcDbPoint
 10
1700.169444624878
 20
2797.929658934044
 30
0.0
  0
POINT
  5
7CE2
330
83E0
100
AcDbEntity
  8
1
100
AcDbPoint
 10
1700.169444624878
 20
2817.929658934044
 30
0.0
  0
POINT
  5
7CE3
330
83E0
100
AcDbEntity
  8
1
100
AcDbPoint
 10
1700.169444624878
 20
2797.929658934044
 30
0.0
  0
ARC
  5
7CE5
330
83E0
100
AcDbEntity
  8
1
100
AcDbCircle
 10
2450.169444624878
 20
3927.929658934044
 30
0.0
 40
625.0
100
AcDbArc
 50
0.0
 51
180.0
  0
ARC
  5
7CE6
330
83E0
100
AcDbEntity
  8
1
100
AcDbCircle
 10
2450.169444624878
 20
3927.929658934044
 30
0.0
 40
675.0
100
AcDbArc
 50
0.0
 51
180.0
  0
ARC
  5
7CE7
330
83E0
100
AcDbEntity
  8
1
100
AcDbCircle
 10
2450.169444624878
 20
3927.929658934044
 30
0.0
 40
625.0
100
AcDbArc
 50
180.0
 51
0.0
  0
ARC
  5
7CE8
330
83E0
100
AcDbEntity
  8
1
100
AcDbCircle
 10
2450.169444624878
 20
3927.929658934044
 30
0.0
 40
675.0
100
AcDbArc
 50
180.0
 51
0.0
  0
CIRCLE
  5
7CEB
330
83E0
100
AcDbEntity
  8
1
100
AcDbCircle
 10
2450.169444624878
 20
3927.929658934044
 30
0.0
 40
254.0
  0
POINT
  5
7CEC
330
83E0
100
AcDbEntity
  8
1
100
AcDbPoint
 10
1700.169444624878
 20
2797.929658934044
 30
0.0
  0
POINT
  5
7CEE
330
83E0
100
AcDbEntity
  8
1
100
AcDbPoint
 10
1700.169444624878
 20
2797.929658934044
 30
0.0
  0
POINT
  5
7CEF
330
83E0
100
AcDbEntity
  8
1
100
AcDbPoint
 10
1700.169444624878
 20
2817.929658934044
 30
0.0
  0
ARC
  5
7CF0
330
83E0
100
AcDbEntity
  8
1
100
AcDbCircle
 10
2450.169444624878
 20
3927.929658934044
 30
0.0
 40
743.0
100
AcDbArc
 50
85.83216367783837
 51
92.89690804102592
  0
INSERT
  5
7CF1
330
83E0
100
AcDbEntity
  8
1
100
AcDbBlockReference
  2
YA_N
 10
15500.8069134681
 20
-364.421037546832
 30
0.0
  0
ARC
  5
7CF3
330
83E0
100
AcDbEntity
  8
1
100
AcDbCircle
 10
2450.169444624878
 20
3927.929658934044
 30
0.0
 40
380.0
100
AcDbArc
 50
57.19331344564078
 51
248.7123021170166
  0
ARC
  5
7CF4
330
83E0
100
AcDbEntity
  8
1
100
AcDbCircle
 10
3870.169444624878
 20
3202.929658934044
 30
0.0
 40
220.0
100
AcDbArc
 50
248.7123021170166
 51
57.19331344564078
  0
LINE
  5
7CF5
330
83E0
100
AcDbEntity
  8
1
100
AcDbLine
 10
2656.055839660199
 20
4247.320943003225
 30
0.0
 11
3989.366831224275
 21
3387.840402342517
 31
0.0
  0
LINE
  5
7CF6
330
83E0
100
AcDbEntity
  8
1
100
AcDbLine
 10
2586.034807912739
 20
4142.53768082199
 30
0.0
 11
3927.404066167403
 21
3293.335400438023
 31
0.0
  0
LINE
  5
7CF7
330
83E0
100
AcDbEntity
  8
1
100
AcDbLine
 10
2356.018824504375
 20
3692.023616766989
 30
0.0
 11
3830.507569219784
 21
3103.551916761309
 31
0.0
  0
LINE
  5
7CF8
330
83E0
100
AcDbEntity
  8
1
100
AcDbLine
 10
2312.209997593609
 20
3573.857362679698
 30
0.0
 11
3790.298185817301
 21
2997.940434786791
 31
0.0
  0
POINT
  5
7CFB
330
83E0
100
AcDbEntity
  8
1
100
AcDbPoint
 10
1700.169444624878
 20
2797.929658934044
 30
0.0
  0
POINT
  5
7CFD
330
83E0
100
AcDbEntity
  8
1
100
AcDbPoint
 10
1700.169444624878
 20
2797.929658934044
 30
0.0
  0
POINT
  5
7CFE
330
83E0
100
AcDbEntity
  8
1
100
AcDbPoint
 10
1700.169444624878
 20
2817.929658934044
 30
0.0
  0
LINE
  5
7D01
330
83E0
100
AcDbEntity
  8
1
100
AcDbLine
 10
5175.039116178846
 20
4752.929658934045
 30
0.0
 11
6981.039116178847
 21
4752.929658934045
 31
0.0
  0
LINE
  5
7D02
330
83E0
100
AcDbEntity
  8
1
100
AcDbLine
 10
5228.039116178845
 20
4702.929658934045
 30
0.0
 11
6928.039116178847
 21
4702.929658934045
 31
0.0
  0
LINE
  5
7D03
330
83E0
100
AcDbEntity
  8
1
100
AcDbLine
 10
1553.169444624878
 20
8637.437268273025
 30
0.0
 11
1553.169444624878
 21
6937.437268273021
 31
0.0
  0
LINE
  5
7D04
330
83E0
100
AcDbEntity
  8
1
100
AcDbLine
 10
3784.169444624879
 20
8637.437268273025
 30
0.0
 11
3784.169444624879
 21
6937.437268273022
 31
0.0
  0
LINE
  5
7D05
330
83E0
100
AcDbEntity
  8
1
100
AcDbLine
 10
2504.169444624878
 20
8637.437268273025
 30
0.0
 11
2504.169444624878
 21
6937.437268273022
 31
0.0
  0
LINE
  5
7D06
330
83E0
100
AcDbEntity
  8
1
100
AcDbLine
 10
2504.169444624878
 20
8637.437268273025
 30
0.0
 11
3784.169444624879
 21
6937.437268273024
 31
0.0
  0
LINE
  5
7D07
330
83E0
100
AcDbEntity
  8
1
100
AcDbLine
 10
3784.169444624878
 20
8637.437268273025
 30
0.0
 11
2504.169444624878
 21
6937.437268273022
 31
0.0
  0
LINE
  5
7D0A
330
83E0
100
AcDbEntity
  8
1
100
AcDbLine
 10
5721.489116178847
 20
3002.929658934048
 30
0.0
 11
5721.489116178847
 21
3412.929658934049
 31
0.0
  0
LINE
  5
7D0B
330
83E0
100
AcDbEntity
  8
1
100
AcDbLine
 10
5228.039116178845
 20
3002.929658934046
 30
0.0
 11
5228.039116178845
 21
2942.929658934044
 31
0.0
  0
LINE
  5
7D0C
330
83E0
100
AcDbEntity
  8
1
100
AcDbLine
 10
5636.18896220007
 20
3002.929658934048
 30
0.0
 11
5636.18896220007
 21
2942.929658934044
 31
0.0
  0
LINE
  5
80A3
330
83E0
100
AcDbEntity
  8
4
100
AcDbLine
 10
7400.0
 20
2000.0
 30
0.0
 11
7400.0
 21
1200.0
 31
0.0
  0
LINE
  5
80A4
330
83E0
100
AcDbEntity
  8
4
100
AcDbLine
 10
4600.0
 20
2000.0
 30
0.0
 11
4600.0
 21
1200.0
 31
0.0
  0
LINE
  5
80A5
330
83E0
100
AcDbEntity
  8
4
100
AcDbLine
 10
2600.0
 20
2000.0
 30
0.0
 11
2600.0
 21
1200.0
 31
0.0
  0
LINE
  5
80A8
330
83E0
100
AcDbEntity
  8
4
100
AcDbLine
 10
2600.0
 20
1200.0
 30
0.0
 11
7400.0
 21
1200.0
 31
0.0
  0
LINE
  5
80A9
330
83E0
100
AcDbEntity
  8
4
100
AcDbLine
 10
2600.0
 20
1600.0
 30
0.0
 11
7400.0
 21
1600.0
 31
0.0
  0
TEXT
  5
80AA
330
83E0
100
AcDbEntity
  8
4
100
AcDbText
 10
2754.008323387607
 20
1726.172103466451
 30
0.0
 40
200.0
  1
機器名称
100
AcDbText
  0
TEXT
  5
80AB
330
83E0
100
AcDbEntity
  8
4
100
AcDbText
 10
2745.03242409919
 20
1286.580626928043
 30
0.0
 40
200.0
  1
機器型番
100
AcDbText
  0
TEXT
  5
80AC
330
83E0
100
AcDbEntity
  8
4
100
AcDbText
 10
4710.714981950659
 20
1690.287075830274
 30
0.0
 40
200.0
  1
ミツヤ多翼送風機
100
AcDbText
  0
TEXT
  5
80AD
330
83E0
100
AcDbEntity
  8
4
100
AcDbText
 10
4746.617982341923
 20
1268.638337119773
 30
0.0
 40
200.0
  1
MF#8-5
100
AcDbText
  0
TEXT
  5
80AF
330
83E0
100
AcDbEntity
  8
4
100
AcDbText
 10
3284.299786541094
 20
9533.715365330063
 30
0.0
 40
215.9999999999999
  1
床置防振ベット
100
AcDbText
  0
TEXT
  5
80B0
330
83E0
100
AcDbEntity
  8
4
100
AcDbText
 10
1264.670373317785
 20
10135.52390479719
 30
0.0
 40
288.0
  1
遠心式両吸込両持多翼ファン
100
AcDbText
  0
LINE
  5
80B1
330
83E0
100
AcDbEntity
  8
4
100
AcDbLine
 10
1000.0
 20
9877.635017059219
 30
0.0
 11
7400.0
 21
9877.635017059219
 31
0.0
  0
LINE
  5
80B2
330
83E0
100
AcDbEntity
  8
4
100
AcDbLine
 10
1000.0
 20
10677.63501705921
 30
0.0
 11
7400.0
 21
10677.63501705921
 31
0.0
  0
LINE
  5
80B3
330
83E0
100
AcDbEntity
  8
4
100
AcDbLine
 10
2600.0
 20
2000.0
 30
0.0
 11
7400.0
 21
2000.0
 31
0.0
  0
LINE
  5
80B4
330
83E0
100
AcDbEntity
  8
4
100
AcDbLine
 10
1000.0
 20
10677.63501705921
 30
0.0
 11
1000.0
 21
9877.635017059219
 31
0.0
  0
TEXT
  5
80B5
330
83E0
100
AcDbEntity
  8
4
100
AcDbText
 10
1540.864457570284
 20
9529.277910185374
 30
0.0
 40
215.9999999999999
  1
左回転上向
100
AcDbText
  0
TEXT
  5
80B6
330
83E0
100
AcDbEntity
  8
4
100
AcDbText
 10
5875.878236997159
 20
10824.24432598123
 30
0.0
 40
224.0
  1
No.
100
AcDbText
  0
TEXT
  5
80B7
330
83E0
100
AcDbEntity
  8
4
100
AcDbText
 10
5245.184250400053
 20
9533.715365330063
 30
0.0
 40
215.9999999999999
  1
縮尺：1/40
100
AcDbText
  0
LINE
  5
80B8
330
83E0
100
AcDbEntity
  8
4
100
AcDbLine
 10
7400.0
 20
10677.63501705921
 30
0.0
 11
7400.0
 21
9877.635017059219
 31
0.0
  0
LINE
  5
80B9
330
83E0
100
AcDbEntity
  8
4
100
AcDbLine
 10
8400.0
 20
11800.0
 30
0.0
 11
8400.0
 21
11800.0
 31
0.0
  0
LINE
  5
80BA
330
83E0
100
AcDbEntity
  8
4
100
AcDbLine
 10
5762.469689439458
 20
10725.0543325016
 30
0.0
 11
5762.469689439458
 21
11146.609046199
 31
0.0
  0
LINE
  5
80BB
330
83E0
100
AcDbEntity
  8
4
100
AcDbLine
 10
5762.469689439458
 20
11146.609046199
 30
0.0
 11
7400.0
 21
11146.609046199
 31
0.0
  0
LINE
  5
80BC
330
83E0
100
AcDbEntity
  8
4
100
AcDbLine
 10
7400.0
 20
11146.609046199
 30
0.0
 11
7400.0
 21
10725.0543325016
 31
0.0
  0
LINE
  5
80BD
330
83E0
100
AcDbEntity
  8
4
100
AcDbLine
 10
7400.0
 20
10725.0543325016
 30
0.0
 11
5762.469689439458
 21
10725.0543325016
 31
0.0
  0
LINE
  5
80BE
330
83E0
100
AcDbEntity
  8
4
100
AcDbLine
 10
0.0
 20
0.0
 30
0.0
 11
0.0
 21
11800.0
 31
0.0
  0
LINE
  5
80BF
330
83E0
100
AcDbEntity
  8
4
100
AcDbLine
 10
0.0
 20
11800.0
 30
0.0
 11
8400.0
 21
11800.0
 31
0.0
  0
LINE
  5
80C0
330
83E0
100
AcDbEntity
  8
4
100
AcDbLine
 10
8400.0
 20
11800.0
 30
0.0
 11
8400.0
 21
0.0
 31
0.0
  0
LINE
  5
80C1
330
83E0
100
AcDbEntity
  8
4
100
AcDbLine
 10
8400.0
 20
0.0
 30
0.0
 11
0.0
 21
0.0
 31
0.0
  0
DIMENSION
  5
8190
330
83E0
100
AcDbEntity
  8
3
100
AcDbDimension
  2
*D21
 10
2450.169444624878
 20
2459.435559259186
 30
0.0
 11
2075.169444624878
 21
2559.435559259185
 31
0.0
 71
     5
 42
-1.0
  3
Standard
100
AcDbAlignedDimension
 13
1700.169444624878
 23
2732.929658934045
 33
0.0
 14
2450.169444624878
 24
2732.929658934044
 34
0.0
100
AcDbRotatedDimension
1001
ACAD
1000
DSTYLE
1002
{
1070
   172
1070
     1
1070
    40
1040
40.0
1070
   271
1070
     0
1070
   143
1040
0.039
1002
}
  0
DIMENSION
  5
819D
330
83E0
100
AcDbEntity
  8
3
100
AcDbDimension
  2
*D22
 10
4150.169444624879
 20
2459.435559259186
 30
0.0
 11
3300.169444624878
 21
2559.435559259185
 31
0.0
 71
     5
 42
-1.0
  3
Standard
100
AcDbAlignedDimension
 13
2450.169444624878
 23
2732.929658934044
 33
0.0
 14
4150.169444624879
 24
2732.929658934045
 34
0.0
100
AcDbRotatedDimension
1001
ACAD
1000
DSTYLE
1002
{
1070
   172
1070
     1
1070
    40
1040
40.0
1070
   271
1070
     0
1070
   143
1040
0.039
1002
}
  0
DIMENSION
  5
81AA
330
83E0
100
AcDbEntity
  8
3
100
AcDbDimension
  2
*D23
 10
6078.039116178845
 20
2459.435559259186
 30
0.0
 11
5477.039116178847
 21
2559.435559259185
 31
0.0
 71
     5
 42
-1.0
  3
Standard
100
AcDbAlignedDimension
 13
4876.039116178848
 23
2732.929658934045
 33
0.0
 14
6078.039116178845
 24
2732.929658934045
 34
0.0
100
AcDbRotatedDimension
1001
ACAD
1000
DSTYLE
1002
{
1070
   172
1070
     1
1070
    40
1040
40.0
1070
   271
1070
     0
1070
   143
1040
0.039
1002
}
  0
DIMENSION
  5
81B7
330
83E0
100
AcDbEntity
  8
3
100
AcDbDimension
  2
*D24
 10
6996.039116178846
 20
2459.435559259186
 30
0.0
 11
6537.039116178846
 21
2559.435559259185
 31
0.0
 71
     5
 42
-1.0
  3
Standard
100
AcDbAlignedDimension
 13
6078.039116178845
 23
2732.929658934045
 33
0.0
 14
6996.039116178846
 24
2732.929658934045
 34
0.0
100
AcDbRotatedDimension
1001
ACAD
1000
DSTYLE
1002
{
1070
   172
1070
     1
1070
    40
1040
40.0
1070
   271
1070
     0
1070
   143
1040
0.039
1002
}
  0
DIMENSION
  5
8481
330
83E0
100
AcDbEntity
  8
3
100
AcDbDimension
  2
*D28
 10
6928.039116178847
 20
5000.007557733631
 30
0.0
 11
6078.039116178846
 21
5100.007557733631
 31
0.0
 70
    32
 71
     5
 42
1700.000000000001
  3
IGA
100
AcDbAlignedDimension
 13
5228.039116178845
 23
4752.929658934045
 33
0.0
 14
6928.039116178847
 24
4752.929658934045
 34
0.0
100
AcDbRotatedDimension
1001
ACAD
1000
DSTYLE
1002
{
1070
    40
1040
40.0
1070
   143
1040
0.039
1070
   172
1070
     1
1070
   271
1070
     4
1070
   272
1070
     4
1070
   279
1070
     0
1070
   284
1070
     0
1070
   285
1070
     0
1070
   286
1070
     0
1070
   341
1005
83F7
1070
   343
1005
83F7
1070
   344
1005
83F7
1002
}
  0
DIMENSION
  5
848E
330
83E0
100
AcDbEntity
  8
3
100
AcDbDimension
  2
*D29
 10
6078.039116178846
 20
5288.10922238426
 30
0.0
 11
5438.039116178846
 21
5419.537793812832
 31
0.0
 70
    32
  1
(<>)
 71
     5
 42
1280.0
  3
IGA
100
AcDbAlignedDimension
 13
4798.039116178847
 23
4307.929658934045
 33
0.0
 14
6078.039116178846
 24
5160.007557733631
 34
0.0
100
AcDbRotatedDimension
1001
ACAD
1000
DSTYLE
1002
{
1070
    40
1040
40.0
1070
   143
1040
0.039
1070
   172
1070
     1
1070
   271
1070
     4
1070
   272
1070
     4
1070
   279
1070
     0
1070
   284
1070
     0
1070
   285
1070
     0
1070
   286
1070
     0
1070
   341
1005
83F7
1070
   343
1005
83F7
1070
   344
1005
83F7
1002
}
  0
DIMENSION
  5
849B
330
83E0
100
AcDbEntity
  8
3
100
AcDbDimension
  2
*D30
 10
7098.039116178846
 20
5288.10922238426
 30
0.0
 11
6588.039116178847
 21
5419.537793812832
 31
0.0
 70
    32
  1
(<>)
 71
     5
 42
1020.0
  3
IGA
100
AcDbAlignedDimension
 13
6078.039116178846
 23
5160.007557733631
 33
0.0
 14
7098.039116178846
 24
3851.929658934045
 34
0.0
100
AcDbRotatedDimension
1001
ACAD
1000
DSTYLE
1002
{
1070
    40
1040
40.0
1070
   143
1040
0.039
1070
   172
1070
     1
1070
   271
1070
     4
1070
   272
1070
     4
1070
   279
1070
     1
1070
   284
1070
     0
1070
   285
1070
     0
1070
   286
1070
     0
1070
   341
1005
83F7
1070
   343
1005
83F7
1070
   344
1005
83F7
1002
}
  0
DIMENSION
  5
84AC
330
83E0
100
AcDbEntity
  8
3
100
AcDbDimension
  2
*D31
 10
7339.30874109135
 20
3302.929658934044
 30
0.0
 11
7239.308741091349
 21
3927.929658934046
 31
0.0
 70
    32
  1
\U+03C6<>
 71
     5
 42
1250.000000000001
  3
IGA
100
AcDbAlignedDimension
 13
6928.039116178847
 23
4552.929658934044
 33
0.0
 14
6928.039116178847
 24
3302.929658934044
 34
0.0
 50
90.0
100
AcDbRotatedDimension
1001
ACAD
1000
DSTYLE
1002
{
1070
    40
1040
40.0
1070
   143
1040
0.039
1070
   172
1070
     1
1070
   271
1070
     4
1070
   272
1070
     4
1070
   279
1070
     0
1070
   284
1070
     0
1070
   285
1070
     0
1070
   286
1070
     0
1070
   341
1005
83F7
1070
   343
1005
83F7
1070
   344
1005
83F7
1002
}
  0
DIMENSION
  5
8523
330
83E0
100
AcDbEntity
  8
3
100
AcDbDimension
  2
*D33
 10
1251.153303389044
 20
6585.437268273023
 30
0.0
 11
1151.153303389043
 21
7645.437268273022
 31
0.0
 70
    32
 71
     5
 42
2120.0
  3
IGA
100
AcDbAlignedDimension
 13
1700.169444624878
 23
8705.437268273023
 33
0.0
 14
1700.169444624878
 24
6585.437268273023
 34
0.0
 50
90.0
100
AcDbRotatedDimension
1001
ACAD
1000
DSTYLE
1002
{
1070
    40
1040
40.0
1070
   143
1040
0.039
1070
   172
1070
     1
1070
   271
1070
     4
1070
   272
1070
     4
1070
   279
1070
     0
1070
   284
1070
     0
1070
   285
1070
     0
1070
   286
1070
     0
1070
   341
1005
83F7
1070
   343
1005
83F7
1070
   344
1005
83F7
1002
}
  0
DIMENSION
  5
8530
330
83E0
100
AcDbEntity
  8
3
100
AcDbDimension
  2
*D34
 10
4150.169444624879
 20
6220.683390083371
 30
0.0
 11
2925.169444624879
 21
6320.68339008337
 31
0.0
 70
    32
 71
     5
 42
2450.000000000001
  3
IGA
100
AcDbAlignedDimension
 13
1700.169444624878
 23
6585.437268273023
 33
0.0
 14
4150.169444624879
 24
6585.437268273023
 34
0.0
100
AcDbRotatedDimension
1001
ACAD
1000
DSTYLE
1002
{
1070
    40
1040
40.0
1070
   143
1040
0.039
1070
   172
1070
     1
1070
   271
1070
     4
1070
   272
1070
     4
1070
   279
1070
     0
1070
   284
1070
     0
1070
   285
1070
     0
1070
   286
1070
     0
1070
   341
1005
83F7
1070
   343
1005
83F7
1070
   344
1005
83F7
1002
}
  0
DIMENSION
  5
853D
330
83E0
100
AcDbEntity
  8
3
100
AcDbDimension
  2
*D35
 10
4416.495845732457
 20
7585.437268273023
 30
0.0
 11
4316.495845732456
 21
7085.437268273024
 31
0.0
 70
    32
 71
     5
 42
1000.0
  3
IGA
100
AcDbAlignedDimension
 13
4150.169444624879
 23
6585.437268273023
 33
0.0
 14
4150.169444624879
 24
7585.437268273023
 34
0.0
 50
90.0
100
AcDbRotatedDimension
1001
ACAD
1000
DSTYLE
1002
{
1070
    40
1040
40.0
1070
   143
1040
0.039
1070
   172
1070
     1
1070
   271
1070
     4
1070
   272
1070
     4
1070
   279
1070
     0
1070
   284
1070
     0
1070
   285
1070
     0
1070
   286
1070
     0
1070
   341
1005
83F7
1070
   343
1005
83F7
1070
   344
1005
83F7
1002
}
  0
DIMENSION
  5
854A
330
83E0
100
AcDbEntity
  8
3
100
AcDbDimension
  2
*D36
 10
3200.169444624878
 20
8910.073406778208
 30
0.0
 11
3675.169444624879
 21
9010.073406778209
 31
0.0
 70
    32
 71
     5
 42
950.0000000000014
  3
IGA
100
AcDbAlignedDimension
 13
4150.169444624879
 23
7585.437268273023
 33
0.0
 14
3200.169444624878
 24
8705.437268273023
 34
0.0
100
AcDbRotatedDimension
1001
ACAD
1000
DSTYLE
1002
{
1070
    40
1040
40.0
1070
   143
1040
0.039
1070
   172
1070
     1
1070
   271
1070
     4
1070
   272
1070
     4
1070
   279
1070
     0
1070
   284
1070
     0
1070
   285
1070
     0
1070
   286
1070
     0
1070
   341
1005
83F7
1070
   343
1005
83F7
1070
   344
1005
83F7
1002
}
  0
DIMENSION
  5
8557
330
83E0
100
AcDbEntity
  8
3
100
AcDbDimension
  2
*D37
 10
1700.169444624878
 20
8910.073406778208
 30
0.0
 11
2450.169444624878
 21
9010.073406778209
 31
0.0
 70
    32
 71
     5
 42
1500.0
  3
IGA
100
AcDbAlignedDimension
 13
3200.169444624878
 23
8705.437268273023
 33
0.0
 14
1700.169444624878
 24
8705.437268273023
 34
0.0
100
AcDbRotatedDimension
1001
ACAD
1000
DSTYLE
1002
{
1070
    40
1040
40.0
1070
   143
1040
0.039
1070
   172
1070
     1
1070
   271
1070
     4
1070
   272
1070
     4
1070
   279
1070
     1
1070
   284
1070
     0
1070
   285
1070
     0
1070
   286
1070
     0
1070
   341
1005
83F7
1070
   343
1005
83F7
1070
   344
1005
83F7
1002
}
  0
DIMENSION
  5
856D
330
83E0
100
AcDbEntity
  8
3
100
AcDbDimension
  2
*D38
 10
3784.169444624879
 20
5005.940691624002
 30
0.0
 11
3144.169444624879
 21
5105.940691624002
 31
0.0
 70
    32
 71
     5
 42
1280.000000000001
  3
IGA
100
AcDbAlignedDimension
 13
2504.169444624878
 23
4752.929658934045
 33
0.0
 14
3784.169444624879
 24
4752.929658934045
 34
0.0
100
AcDbRotatedDimension
1001
ACAD
1000
DSTYLE
1002
{
1070
    40
1040
40.0
1070
   143
1040
0.039
1070
   172
1070
     1
1070
   271
1070
     4
1070
   272
1070
     4
1070
   279
1070
     0
1070
   284
1070
     0
1070
   285
1070
     0
1070
   286
1070
     0
1070
   341
1005
83F7
1070
   343
1005
83F7
1070
   344
1005
83F7
1002
}
  0
DIMENSION
  5
857A
330
83E0
100
AcDbEntity
  8
3
100
AcDbDimension
  2
*D39
 10
2450.169444624878
 20
5253.003534080533
 30
0.0
 11
3117.169444624879
 21
5353.003534080532
 31
0.0
 70
    32
 71
     5
 42
1334.000000000001
  3
IGA
100
AcDbAlignedDimension
 13
3784.169444624879
 23
4752.929658934045
 33
0.0
 14
2450.169444624878
 24
4793.547459956273
 34
0.0
100
AcDbRotatedDimension
1001
ACAD
1000
DSTYLE
1002
{
1070
    40
1040
40.0
1070
   143
1040
0.039
1070
   172
1070
     1
1070
   271
1070
     4
1070
   272
1070
     4
1070
   279
1070
     0
1070
   284
1070
     0
1070
   285
1070
     0
1070
   286
1070
     0
1070
   341
1005
83F7
1070
   343
1005
83F7
1070
   344
1005
83F7
1002
}
  0
DIMENSION
  5
8587
330
83E0
100
AcDbEntity
  8
3
100
AcDbDimension
  2
*D40
 10
1553.169444624878
 20
5253.003534080533
 30
0.0
 11
2001.669444624878
 21
5353.003534080532
 31
0.0
 70
    32
 71
     5
 42
897.0
  3
IGA
100
AcDbAlignedDimension
 13
2450.169444624878
 23
4793.547459956273
 33
0.0
 14
1553.169444624878
 24
3836.929658934045
 34
0.0
100
AcDbRotatedDimension
1001
ACAD
1000
DSTYLE
1002
{
1070
    40
1040
40.0
1070
   143
1040
0.039
1070
   172
1070
     1
1070
   271
1070
     4
1070
   272
1070
     4
1070
   279
1070
     1
1070
   284
1070
     0
1070
   285
1070
     0
1070
   286
1070
     0
1070
   341
1005
83F7
1070
   343
1005
83F7
1070
   344
1005
83F7
1002
}
  0
DIMENSION
  5
8594
330
83E0
100
AcDbEntity
  8
3
100
AcDbDimension
  2
*D41
 10
4150.169444624879
 20
5494.836675797562
 30
0.0
 11
2851.669444624878
 21
5594.836675797562
 31
0.0
 70
    32
 71
     5
 42
2597.000000000001
  3
IGA
100
AcDbAlignedDimension
 13
1553.169444624878
 23
3836.929658934045
 33
0.0
 14
4150.169444624879
 24
2942.929658934044
 34
0.0
100
AcDbRotatedDimension
1001
ACAD
1000
DSTYLE
1002
{
1070
    40
1040
40.0
1070
   143
1040
0.039
1070
   172
1070
     1
1070
   271
1070
     4
1070
   272
1070
     4
1070
   279
1070
     0
1070
   284
1070
     0
1070
   285
1070
     0
1070
   286
1070
     0
1070
   341
1005
83F7
1070
   343
1005
83F7
1070
   344
1005
83F7
1002
}
  0
DIMENSION
  5
85A1
330
83E0
100
AcDbEntity
  8
3
100
AcDbDimension
  2
*D42
 10
1285.934760259599
 20
3927.929658934044
 30
0.0
 11
1185.934760259598
 21
4340.429658934044
 31
0.0
 70
    32
 71
     5
 42
825.0000000000008
  3
IGA
100
AcDbAlignedDimension
 13
2451.169444624878
 23
4752.929658934045
 33
0.0
 14
1546.732906376026
 24
3927.929658934044
 34
0.0
 50
90.0
100
AcDbRotatedDimension
1001
ACAD
1000
DSTYLE
1002
{
1070
    40
1040
40.0
1070
   143
1040
0.039
1070
   172
1070
     1
1070
   271
1070
     4
1070
   272
1070
     4
1070
   279
1070
     0
1070
   284
1070
     0
1070
   285
1070
     0
1070
   286
1070
     0
1070
   341
1005
83F7
1070
   343
1005
83F7
1070
   344
1005
83F7
1002
}
  0
DIMENSION
  5
85AE
330
83E0
100
AcDbEntity
  8
3
100
AcDbDimension
  2
*D43
 10
1285.934760259599
 20
2817.929658934044
 30
0.0
 11
1185.934760259598
 21
3372.929658934045
 31
0.0
 70
    32
 71
     5
 42
1110.0
  3
IGA
100
AcDbAlignedDimension
 13
1546.732906376026
 23
3927.929658934044
 33
0.0
 14
1700.169444624878
 24
2817.929658934044
 34
0.0
 50
90.0
100
AcDbRotatedDimension
1001
ACAD
1000
DSTYLE
1002
{
1070
    40
1040
40.0
1070
   143
1040
0.039
1070
   172
1070
     1
1070
   271
1070
     4
1070
   272
1070
     4
1070
   279
1070
     1
1070
   284
1070
     0
1070
   285
1070
     0
1070
   286
1070
     0
1070
   341
1005
83F7
1070
   343
1005
83F7
1070
   344
1005
83F7
1002
}
  0
DIMENSION
  5
85BB
330
83E0
100
AcDbEntity
  8
3
100
AcDbDimension
  2
*D44
 10
1285.934760259599
 20
2797.929658934044
 30
0.0
 11
963.0776174024553
 21
2905.358230362617
 31
0.0
 70
    32
  1
(<>)
 71
     5
 42
20.0
  3
IGA
100
AcDbAlignedDimension
 13
1700.169444624878
 23
2817.929658934044
 33
0.0
 14
1700.169444624878
 24
2797.929658934044
 34
0.0
 50
90.0
100
AcDbRotatedDimension
1001
ACAD
1000
DSTYLE
1002
{
1070
    40
1040
40.0
1070
   143
1040
0.039
1070
   172
1070
     1
1070
   271
1070
     4
1070
   272
1070
     4
1070
   279
1070
     1
1070
   284
1070
     0
1070
   285
1070
     0
1070
   286
1070
     0
1070
   341
1005
83F7
1070
   343
1005
83F7
1070
   344
1005
8686
1002
}
  0
DIMENSION
  5
85CD
330
83E0
100
AcDbEntity
  8
3
100
AcDbDimension
  2
*D45
 10
1285.934760259599
 20
2732.929658934045
 30
0.0
 11
1253.767983883168
 21
2534.771253626208
 31
0.0
 70
   160
 71
     5
 42
64.99999999999909
  3
IGA
100
AcDbAlignedDimension
 13
1700.169444624878
 23
2797.929658934044
 33
0.0
 14
1700.169444624878
 24
2732.929658934045
 34
0.0
 50
90.0
100
AcDbRotatedDimension
1001
ACAD
1000
DSTYLE
1002
{
1070
    40
1040
40.0
1070
   143
1040
0.039
1070
   172
1070
     1
1070
   271
1070
     4
1070
   272
1070
     4
1070
   279
1070
     1
1070
   284
1070
     0
1070
   285
1070
     0
1070
   286
1070
     0
1070
   341
1005
83F7
1070
   343
1005
8686
1070
   344
1005
83F7
1002
}
  0
DIMENSION
  5
85DF
330
83E0
100
AcDbEntity
  8
3
100
AcDbDimension
  2
*D46
 10
746.9209636265733
 20
4752.929658934045
 30
0.0
 11
615.492392198001
 21
3742.929658934046
 31
0.0
 70
    32
  1
(<>)
 71
     5
 42
2020.0
  3
IGA
100
AcDbAlignedDimension
 13
1700.169444624878
 23
2732.929658934045
 33
0.0
 14
2451.169444624878
 24
4752.929658934045
 34
0.0
 50
90.0
100
AcDbRotatedDimension
1001
ACAD
1000
DSTYLE
1002
{
1070
    40
1040
40.0
1070
   143
1040
0.039
1070
   172
1070
     1
1070
   271
1070
     4
1070
   272
1070
     4
1070
   279
1070
     0
1070
   284
1070
     0
1070
   285
1070
     0
1070
   286
1070
     0
1070
   341
1005
83F7
1070
   343
1005
83F7
1070
   344
1005
83F7
1002
}
  0
ENDSEC
  0
SECTION
  2
OBJECTS
  0
DICTIONARY
  5
837D
330
0
100
AcDbDictionary
281
     1
  3
ACAD_CIP_PREVIOUS_PRODUCT_INFO
350
8427
  3
ACAD_COLOR
350
83D3
  3
ACAD_DETAILVIEWSTYLE
350
83DA
  3
ACAD_GROUP
350
837E
  3
ACAD_LAYOUT
350
83D2
  3
ACAD_MATERIAL
350
8381
  3
ACAD_MLEADERSTYLE
350
83D6
  3
ACAD_MLINESTYLE
350
83CF
  3
ACAD_PLOTSETTINGS
350
83D1
  3
ACAD_PLOTSTYLENAME
350
837F
  3
ACAD_SCALELIST
350
83B3
  3
ACAD_SECTIONVIEWSTYLE
350
83D8
  3
ACAD_TABLESTYLE
350
83D4
  3
ACAD_VISUALSTYLE
350
839A
  3
ACDB_RECOMPOSE_DATA
350
86F3
  3
AcDbVariableDictionary
350
8432
  3
DWGPROPS
350
86F4
  0
DICTIONARY
  5
8428
330
83C5
100
AcDbDictionary
280
     1
281
     1
  3
ADSK_XREC_LAYER_RECONCILED
360
8429
  0
DICTIONARY
  5
842A
330
83E4
100
AcDbDictionary
280
     1
281
     1
  3
ADSK_XREC_LAYER_RECONCILED
360
842B
  0
DICTIONARY
  5
842C
330
83E7
100
AcDbDictionary
280
     1
281
     1
  3
ADSK_XREC_LAYER_RECONCILED
360
842D
  0
DICTIONARY
  5
842E
330
83E8
100
AcDbDictionary
280
     1
281
     1
  3
ADSK_XREC_LAYER_RECONCILED
360
842F
  0
DICTIONARY
  5
8430
330
83E9
100
AcDbDictionary
280
     1
281
     1
  3
ADSK_XREC_LAYER_RECONCILED
360
8431
  0
DICTIONARY
  5
84A9
330
83E0
100
AcDbDictionary
280
     1
281
     1
  3
ACAD_SORTENTS
360
84AA
  0
XRECORD
  5
8427
102
{ACAD_REACTORS
330
837D
102
}
330
837D
100
AcDbXrecord
280
     1
300
ACDLT
300
2015
300
INVLTS_F_S
  0
DICTIONARY
  5
83D3
102
{ACAD_REACTORS
330
837D
102
}
330
837D
100
AcDbDictionary
281
     1
  0
DICTIONARY
  5
83DA
102
{ACAD_REACTORS
330
837D
102
}
330
837D
100
AcDbDictionary
281
     1
  3
Imperial24
350
83DB
  0
DICTIONARY
  5
837E
102
{ACAD_REACTORS
330
837D
102
}
330
837D
100
AcDbDictionary
281
     1
  0
DICTIONARY
  5
83D2
102
{ACAD_REACTORS
330
837D
102
}
330
837D
100
AcDbDictionary
281
     1
  3
Model
350
83E3
  3
レイアウト1
350
83DF
  0
DICTIONARY
  5
8381
102
{ACAD_REACTORS
330
837D
102
}
330
837D
100
AcDbDictionary
281
     1
  3
ByBlock
350
838A
  3
ByLayer
350
8382
  3
Global
350
8392
  0
DICTIONARY
  5
83D6
102
{ACAD_REACTORS
330
837D
102
}
330
837D
100
AcDbDictionary
281
     1
  3
Standard
350
83D7
  0
DICTIONARY
  5
83CF
102
{ACAD_REACTORS
330
837D
102
}
330
837D
100
AcDbDictionary
281
     1
  3
Standard
350
83D0
  0
DICTIONARY
  5
83D1
102
{ACAD_REACTORS
330
837D
102
}
330
837D
100
AcDbDictionary
281
     1
  0
ACDBDICTIONARYWDFLT
  5
837F
102
{ACAD_REACTORS
330
837D
102
}
330
837D
100
AcDbDictionary
281
     1
  3
Normal
350
8380
100
AcDbDictionaryWithDefault
340
8380
  0
DICTIONARY
  5
83B3
102
{ACAD_REACTORS
330
837D
102
}
330
837D
100
AcDbDictionary
281
     1
  3
A0
350
83B4
  3
A1
350
83B5
  3
A2
350
83B6
  3
A3
350
83B7
  3
A4
350
83B8
  3
A5
350
83B9
  3
A6
350
83BA
  3
A7
350
83BB
  3
A8
350
83BC
  3
A9
350
83BD
  3
B0
350
83BE
  3
B1
350
83BF
  3
B2
350
83C0
  3
B3
350
83C1
  3
B4
350
83C2
  3
B5
350
83C3
  3
B6
350
83C4
  0
DICTIONARY
  5
83D8
102
{ACAD_REACTORS
330
837D
102
}
330
837D
100
AcDbDictionary
281
     1
  3
Imperial24
350
83D9
  0
DICTIONARY
  5
83D4
102
{ACAD_REACTORS
330
837D
102
}
330
837D
100
AcDbDictionary
281
     1
  3
Standard
350
83D5
  0
DICTIONARY
  5
839A
102
{ACAD_REACTORS
330
837D
102
}
330
837D
100
AcDbDictionary
281
     1
  3
2dWireframe
350
83A0
  3
Basic
350
839F
  3
Brighten
350
83A6
  3
ColorChange
350
83AA
  3
Conceptual
350
83A3
  3
Dim
350
83A5
  3
EdgeColorOff
350
83B2
  3
Facepattern
350
83A9
  3
Flat
350
839B
  3
FlatWithEdges
350
839C
  3
Gouraud
350
839D
  3
GouraudWithEdges
350
839E
  3
Hidden
350
83A2
  3
JitterOff
350
83B0
  3
Linepattern
350
83A8
  3
OverhangOff
350
83B1
  3
Realistic
350
83A4
  3
Shaded
350
83AF
  3
Shaded with edges
350
83AE
  3
Shades of Gray
350
83AB
  3
Sketchy
350
83AC
  3
Thicken
350
83A7
  3
Wireframe
350
83A1
  3
X-Ray
350
83AD
  0
XRECORD
  5
86F3
102
{ACAD_REACTORS
330
837D
102
}
330
837D
100
AcDbXrecord
280
     1
 90
        1
330
83D5
  0
DICTIONARY
  5
8432
102
{ACAD_REACTORS
330
837D
102
}
330
837D
100
AcDbDictionary
281
     1
  3
CANNOSCALE
350
8437
  3
CMLEADERSTYLE
350
8434
  3
CTABLESTYLE
350
8433
  3
CVIEWDETAILSTYLE
350
8435
  3
CVIEWSECTIONSTYLE
350
8436
  3
DIMASSOC
350
843A
  3
INDEXCTL
350
8439
  3
SORTENTS
350
8438
  3
XCLIPFRAME
350
843B
  0
XRECORD
  5
86F4
102
{ACAD_REACTORS
330
837D
102
}
330
837D
100
AcDbXrecord
280
     1
  1
DWGPROPS COOKIE
  2

  3

  4

  6

  7

  8
yasukiyo.ogawa
  9

300
=
301
=
302
=
303
=
304
=
305
=
306
=
307
=
308
=
309
=
 40
0.0154596990740741
 41
2451898.497236459
 42
2460280.728533414
  1

 90
        0
  0
XRECORD
  5
8429
102
{ACAD_REACTORS
330
8428
102
}
330
8428
100
AcDbXrecord
280
     1
290
     1
  0
XRECORD
  5
842B
102
{ACAD_REACTORS
330
842A
102
}
330
842A
100
AcDbXrecord
280
     1
290
     1
  0
XRECORD
  5
842D
102
{ACAD_REACTORS
330
842C
102
}
330
842C
100
AcDbXrecord
280
     1
290
     1
  0
XRECORD
  5
842F
102
{ACAD_REACTORS
330
842E
102
}
330
842E
100
AcDbXrecord
280
     1
290
     1
  0
XRECORD
  5
8431
102
{ACAD_REACTORS
330
8430
102
}
330
8430
100
AcDbXrecord
280
     1
290
     1
  0
SORTENTSTABLE
  5
84AA
102
{ACAD_REACTORS
330
84A9
102
}
330
84A9
100
AcDbSortentsTable
330
83E0
331
819D
  5
81B7
331
7D0C
  5
80A3
331
7CFB
  5
7CFE
331
7CC8
  5
7CCA
331
81B7
  5
81EE
331
7C37
  5
7C39
331
80A3
  5
80A5
331
7C7B
  5
7C7D
331
7C6A
  5
7C6C
331
7C59
  5
7C5C
331
7C48
  5
7C4A
331
80B4
  5
80B6
331
7C8C
  5
7C8E
331
7CB7
  5
7CB9
331
7CA6
  5
7CA8
331
7C26
  5
7C26
331
7CEB
  5
7CEE
331
7CDA
  5
7CDE
331
7CC9
  5
7CCB
331
7CB8
  5
7CBA
331
80A4
  5
80A8
331
7C7C
  5
7C7E
331
7C6B
  5
7C6D
331
7C38
  5
7C3A
331
80B5
  5
80B7
331
7C8D
  5
7C8F
331
7CA7
  5
7CA9
331
7C27
  5
7C27
331
7CFD
  5
7D00
331
7CEC
  5
7CEF
331
7CCA
  5
7CCC
331
7CB9
  5
7CBE
331
7CA8
  5
7CAA
331
8481
  5
849B
331
80A5
  5
80A9
331
7C7D
  5
7C7F
331
7C6C
  5
7C6E
331
7C4A
  5
7C4C
331
7C39
  5
7C3B
331
80B6
  5
80B8
331
7C8E
  5
7C90
331
7C28
  5
7C28
331
7CFE
  5
7D01
331
7CCB
  5
7CCD
331
7CBA
  5
7CBF
331
7CA9
  5
7CAB
331
7C98
  5
7C9A
331
80B7
  5
80B9
331
7C8F
  5
7C91
331
7C7E
  5
7C80
331
7C6D
  5
7C6F
331
7C4B
  5
7C4D
331
7C3A
  5
7C3C
331
7C29
  5
7C2B
331
80B8
  5
80BA
331
7C90
  5
7C92
331
8190
  5
81AA
331
7CEE
  5
7CF0
331
7CCC
  5
7CCE
331
7CAA
  5
7CAC
331
7C99
  5
7C9B
331
7C7F
  5
7C81
331
7C6E
  5
7C70
331
7C4C
  5
7C4E
331
7C3B
  5
7C3D
331
7C2A
  5
7C2C
331
80A8
  5
80AA
331
7C80
  5
7C82
331
80B9
  5
80BB
331
7C91
  5
7C93
331
7CEF
  5
7CF1
331
7CCD
  5
7CCF
331
7CAB
  5
7CAD
331
7C9A
  5
7C9C
331
7C6F
  5
7C71
331
7C5E
  5
7C60
331
7C4D
  5
7C4F
331
7C3C
  5
7C3E
331
7C2B
  5
7C2D
331
80A9
  5
80AB
331
7C81
  5
7C83
331
7C70
  5
7C72
331
80BA
  5
80BC
331
7C92
  5
7C94
331
7D01
  5
7D03
331
7CF0
  5
7CF3
331
7CCE
  5
7CD0
331
7CAC
  5
7CAE
331
7C5F
  5
7C61
331
7C4E
  5
7C50
331
7C3D
  5
7C3F
331
7C2C
  5
7C2E
331
80AA
  5
80AC
331
7C82
  5
7C84
331
7C71
  5
7C73
331
7C60
  5
7C62
331
80BB
  5
80BD
331
7C93
  5
7C95
331
7D02
  5
7D04
331
7CF1
  5
7CF4
331
7CE0
  5
7CE2
331
7CCF
  5
7CD1
331
7CBE
  5
7CC0
331
7CAD
  5
7CAF
331
7C4F
  5
7C51
331
7C3E
  5
7C40
331
7C2D
  5
7C2F
331
80AB
  5
80AD
331
7C83
  5
7C85
331
7C72
  5
7C74
331
7C61
  5
7C63
331
7C50
  5
7C52
331
80BC
  5
80BE
331
7C94
  5
7C96
331
7D03
  5
7D05
331
7CE1
  5
7CE3
331
7CD0
  5
7CD3
331
7CBF
  5
7CC1
331
7CAE
  5
7CB0
331
7C3F
  5
7C41
331
7C2E
  5
7C30
331
80AC
  5
80AF
331
7C84
  5
7C86
331
7C73
  5
7C75
331
7C62
  5
7C64
331
7C51
  5
7C53
331
7C40
  5
7C42
331
80BD
  5
80BF
331
7C95
  5
7C97
331
7D04
  5
7D06
331
7CF3
  5
7CF5
331
7CE2
  5
7CE5
331
7CD1
  5
7CD4
331
7CC0
  5
7CC2
331
7CAF
  5
7CB2
331
7C2F
  5
7C31
331
7C52
  5
7C54
331
7C41
  5
7C43
331
7C30
  5
7C32
331
80AD
  5
80B0
331
7C85
  5
7C87
331
7C74
  5
7C76
331
7C63
  5
7C65
331
80BE
  5
80C0
331
7C96
  5
7C98
331
7D05
  5
7D07
331
7CF4
  5
7CF6
331
7CE3
  5
7CE6
331
7CC1
  5
7CC3
331
7CB0
  5
7CB3
331
849B
  5
84AB
331
7C42
  5
7C44
331
7C31
  5
7C33
331
80BF
  5
80C1
331
7C97
  5
7C99
331
7C86
  5
7C88
331
7C75
  5
7C77
331
7C64
  5
7C69
331
7C53
  5
7C55
331
7D06
  5
7D09
331
7CF5
  5
7CF7
331
7CD3
  5
7CD7
331
7CC2
  5
7CC7
331
7CA0
  5
7CA3
331
80C0
  5
8190
331
80AF
  5
80B1
331
7C87
  5
7C89
331
7C76
  5
7C78
331
7C65
  5
7C6A
331
7C54
  5
7C56
331
7C43
  5
7C45
331
7C32
  5
7C34
331
7D07
  5
7D0A
331
7CF6
  5
7CF8
331
7CE5
  5
7CE7
331
7CD4
  5
7CDA
331
7CC3
  5
7CC8
331
7CB2
  5
7CB4
331
7C21
  5
7C21
331
81AA
  5
81C6
331
80C1
  5
819D
331
80B0
  5
80B2
331
7C88
  5
7C8A
331
7C77
  5
7C79
331
7C55
  5
7C57
331
7C44
  5
7C46
331
7C33
  5
7C35
331
7CF7
  5
7CF9
331
7CE6
  5
7CE8
331
7CB3
  5
7CB5
331
7CA2
  5
7CA4
331
7C22
  5
7C22
331
7CF8
  5
7CFA
331
7C56
  5
7C58
331
7C45
  5
7C47
331
7C34
  5
7C36
331
80B1
  5
80B3
331
7C89
  5
7C8B
331
7C78
  5
7C7A
331
7CE7
  5
7CEB
331
7CB4
  5
7CB6
331
7CA3
  5
7CA5
331
7C23
  5
7C23
331
7D0A
  5
7D0C
331
7CE8
  5
7CEC
331
848E
  5
84A8
331
7C35
  5
7C37
331
80B2
  5
80B4
331
7C8A
  5
7C8C
331
7C79
  5
7C7B
331
7C57
  5
7C59
331
7C46
  5
7C48
331
7CD7
  5
7CDD
331
7CB5
  5
7CB7
331
7CA4
  5
7CA6
331
7C24
  5
7C24
331
7D0B
  5
7D0D
331
80B3
  5
80B5
331
7C8B
  5
7C8D
331
7C7A
  5
7C7C
331
7C69
  5
7C6B
331
7C58
  5
7C5B
331
7C47
  5
7C49
331
7C36
  5
7C38
331
7CC7
  5
7CC9
331
7CB6
  5
7CB8
331
7CA5
  5
7CA7
331
7C25
  5
7C25
  0
ACDBDETAILVIEWSTYLE
  5
83DB
102
{ACAD_XDICTIONARY
360
872C
102
}
102
{ACAD_REACTORS
330
83DA
102
}
330
83DA
100
AcDbModelDocViewStyle
 70
     0
  3
Imperial24
290
     0
100
AcDbDetailViewStyle
 70
     0
 71
     0
 90
        3
 71
     1
340
83C6
 40
0.24
340
0
 40
0.24
300

 40
0.36
280
     3
 71
     2
340
83CD
 90
       25
 71
     3
340
83C6
 40
0.24
 90
        1
 40
0.75
 90
        1
300
%<\AcVar ViewType \f "%tc1">% %<\AcVar ViewDetailId>%\PSCALE %<\AcVar ViewScale \f "%sn">%
 71
     4
340
83CD
 90
       25
340
83CD
 90
       25
280
     0
  0
LAYOUT
  5
83E3
102
{ACAD_XDICTIONARY
360
8730
102
}
102
{ACAD_REACTORS
330
83D2
102
}
330
83D2
100
AcDbPlotSettings
  1

  2
RICOH imagio MP W3600 RPCS
  4

  6

 40
0.0
 41
0.0
 42
0.0
 43
0.0
 44
0.0
 45
0.0
 46
0.0
 47
0.0
 48
0.0
 49
0.0
140
0.0
141
0.0
142
1.0
143
1.0
 70
  1712
 72
     0
 73
     0
 74
     0
  7

 75
     0
147
1.0
148
0.0
149
0.0
100
AcDbLayout
  1
Model
 70
     1
 71
     0
 10
0.0
 20
0.0
 11
12.0
 21
9.0
 12
0.0
 22
0.0
 32
0.0
 14
0.0
 24
0.0
 34
0.0
 15
0.0
 25
0.0
 35
0.0
146
0.0
 13
0.0
 23
0.0
 33
0.0
 16
1.0
 26
0.0
 36
0.0
 17
0.0
 27
1.0
 37
0.0
 76
     0
330
83E0
331
83E5
  0
LAYOUT
  5
83DF
102
{ACAD_XDICTIONARY
360
872E
102
}
102
{ACAD_REACTORS
330
83D2
102
}
330
83D2
100
AcDbPlotSettings
  1

  2
RICOH imagio MP W3600 RPCS
  4

  6

 40
0.0
 41
0.0
 42
0.0
 43
0.0
 44
0.0
 45
0.0
 46
0.0
 47
0.0
 48
0.0
 49
0.0
140
0.0
141
0.0
142
1.0
143
1.0
 70
   688
 72
     0
 73
     0
 74
     5
  7

 75
    16
147
1.0
148
0.0
149
0.0
100
AcDbLayout
  1
レイアウト1
 70
     1
 71
     1
 10
0.0
 20
0.0
 11
12.0
 21
9.0
 12
0.0
 22
0.0
 32
0.0
 14
1.000000000000000E+20
 24
1.000000000000000E+20
 34
1.000000000000000E+20
 15
-1.000000000000000E+20
 25
-1.000000000000000E+20
 35
-1.000000000000000E+20
146
0.0
 13
0.0
 23
0.0
 33
0.0
 16
1.0
 26
0.0
 36
0.0
 17
0.0
 27
1.0
 37
0.0
 76
     0
330
83DC
  0
MATERIAL
  5
838A
102
{ACAD_XDICTIONARY
360
838B
102
}
102
{ACAD_REACTORS
330
8381
102
}
330
8381
100
AcDbMaterial
  1
ByBlock
 72
     0
 43
0.0208333333333333
 43
0.0
 43
0.0
 43
0.0
 43
0.0
 43
0.0208333333333333
 43
0.0
 43
0.0
 43
0.0
 43
0.0
 43
1.0
 43
0.0
 43
0.0
 43
0.0
 43
0.0
 43
1.0
 77
     0
 47
0.0208333333333333
 47
0.0
 47
0.0
 47
0.0
 47
0.0
 47
0.0208333333333333
 47
0.0
 47
0.0
 47
0.0
 47
0.0
 47
1.0
 47
0.0
 47
0.0
 47
0.0
 47
0.0
 47
1.0
171
     0
 49
0.0208333333333333
 49
0.0
 49
0.0
 49
0.0
 49
0.0
 49
0.0208333333333333
 49
0.0
 49
0.0
 49
0.0
 49
0.0
 49
1.0
 49
0.0
 49
0.0
 49
0.0
 49
0.0
 49
1.0
175
     0
142
0.0208333333333333
142
0.0
142
0.0
142
0.0
142
0.0
142
0.0208333333333333
142
0.0
142
0.0
142
0.0
142
0.0
142
1.0
142
0.0
142
0.0
142
0.0
142
0.0
142
1.0
179
     0
144
0.0208333333333333
144
0.0
144
0.0
144
0.0
144
0.0
144
0.0208333333333333
144
0.0
144
0.0
144
0.0
144
0.0
144
1.0
144
0.0
144
0.0
144
0.0
144
0.0
144
1.0
147
0.0208333333333333
147
0.0
147
0.0
147
0.0
147
0.0
147
0.0208333333333333
147
0.0
147
0.0
147
0.0
147
0.0
147
1.0
147
0.0
147
0.0
147
0.0
147
0.0
147
1.0
  0
MATERIAL
  5
8382
102
{ACAD_XDICTIONARY
360
8383
102
}
102
{ACAD_REACTORS
330
8381
102
}
330
8381
100
AcDbMaterial
  1
ByLayer
 72
     0
 43
0.0208333333333333
 43
0.0
 43
0.0
 43
0.0
 43
0.0
 43
0.0208333333333333
 43
0.0
 43
0.0
 43
0.0
 43
0.0
 43
1.0
 43
0.0
 43
0.0
 43
0.0
 43
0.0
 43
1.0
 77
     0
 47
0.0208333333333333
 47
0.0
 47
0.0
 47
0.0
 47
0.0
 47
0.0208333333333333
 47
0.0
 47
0.0
 47
0.0
 47
0.0
 47
1.0
 47
0.0
 47
0.0
 47
0.0
 47
0.0
 47
1.0
171
     0
 49
0.0208333333333333
 49
0.0
 49
0.0
 49
0.0
 49
0.0
 49
0.0208333333333333
 49
0.0
 49
0.0
 49
0.0
 49
0.0
 49
1.0
 49
0.0
 49
0.0
 49
0.0
 49
0.0
 49
1.0
175
     0
142
0.0208333333333333
142
0.0
142
0.0
142
0.0
142
0.0
142
0.0208333333333333
142
0.0
142
0.0
142
0.0
142
0.0
142
1.0
142
0.0
142
0.0
142
0.0
142
0.0
142
1.0
179
     0
144
0.0208333333333333
144
0.0
144
0.0
144
0.0
144
0.0
144
0.0208333333333333
144
0.0
144
0.0
144
0.0
144
0.0
144
1.0
144
0.0
144
0.0
144
0.0
144
0.0
144
1.0
147
0.0208333333333333
147
0.0
147
0.0
147
0.0
147
0.0
147
0.0208333333333333
147
0.0
147
0.0
147
0.0
147
0.0
147
1.0
147
0.0
147
0.0
147
0.0
147
0.0
147
1.0
  0
MATERIAL
  5
8392
102
{ACAD_XDICTIONARY
360
8393
102
}
102
{ACAD_REACTORS
330
8381
102
}
330
8381
100
AcDbMaterial
  1
Global
 72
     0
 43
0.0208333333333333
 43
0.0
 43
0.0
 43
0.0
 43
0.0
 43
0.0208333333333333
 43
0.0
 43
0.0
 43
0.0
 43
0.0
 43
1.0
 43
0.0
 43
0.0
 43
0.0
 43
0.0
 43
1.0
 77
     0
 47
0.0208333333333333
 47
0.0
 47
0.0
 47
0.0
 47
0.0
 47
0.0208333333333333
 47
0.0
 47
0.0
 47
0.0
 47
0.0
 47
1.0
 47
0.0
 47
0.0
 47
0.0
 47
0.0
 47
1.0
171
     0
 49
0.0208333333333333
 49
0.0
 49
0.0
 49
0.0
 49
0.0
 49
0.0208333333333333
 49
0.0
 49
0.0
 49
0.0
 49
0.0
 49
1.0
 49
0.0
 49
0.0
 49
0.0
 49
0.0
 49
1.0
175
     0
142
0.0208333333333333
142
0.0
142
0.0
142
0.0
142
0.0
142
0.0208333333333333
142
0.0
142
0.0
142
0.0
142
0.0
142
1.0
142
0.0
142
0.0
142
0.0
142
0.0
142
1.0
179
     0
144
0.0208333333333333
144
0.0
144
0.0
144
0.0
144
0.0
144
0.0208333333333333
144
0.0
144
0.0
144
0.0
144
0.0
144
1.0
144
0.0
144
0.0
144
0.0
144
0.0
144
1.0
147
0.0208333333333333
147
0.0
147
0.0
147
0.0
147
0.0
147
0.0208333333333333
147
0.0
147
0.0
147
0.0
147
0.0
147
1.0
147
0.0
147
0.0
147
0.0
147
0.0
147
1.0
  0
MLEADERSTYLE
  5
83D7
102
{ACAD_REACTORS
330
83D6
102
}
330
83D6
100
AcDbMLeaderStyle
170
     2
171
     1
172
     0
 90
        2
 40
0.0
 41
0.0
173
     1
 91
-1056964608
340
83CB
 92
       -2
290
     1
 42
0.09
291
     1
 43
0.36
  3
Standard
 44
0.18
300

342
83C6
174
     1
178
     6
175
     1
176
     0
 93
-1056964608
 45
0.18
292
     0
297
     0
 46
0.18
 94
-1056964608
 47
1.0
 49
1.0
140
1.0
293
     1
141
0.0
294
     1
177
     0
142
1.0
295
     0
296
     0
143
0.125
1001
ACAD_MLEADERVER
1070
     2
  0
MLINESTYLE
  5
83D0
102
{ACAD_REACTORS
330
83CF
102
}
330
83CF
100
AcDbMlineStyle
  2
STANDARD
 70
     0
  3

 62
   256
 51
90.0
 52
90.0
 71
     2
 49
0.5
 62
   256
  6
BYLAYER
 49
-0.5
 62
   256
  6
BYLAYER
  0
ACDBPLACEHOLDER
  5
8380
102
{ACAD_REACTORS
330
837F
102
}
330
837F
  0
SCALE
  5
83B4
102
{ACAD_REACTORS
330
83B3
102
}
330
83B3
100
AcDbScale
 70
     0
300
1:1
140
1.0
141
1.0
290
     1
  0
SCALE
  5
83B5
102
{ACAD_REACTORS
330
83B3
102
}
330
83B3
100
AcDbScale
 70
     0
300
1/128" = 1'-0"
140
0.0078125
141
12.0
290
     0
  0
SCALE
  5
83B6
102
{ACAD_REACTORS
330
83B3
102
}
330
83B3
100
AcDbScale
 70
     0
300
1/64" = 1'-0"
140
0.015625
141
12.0
290
     0
  0
SCALE
  5
83B7
102
{ACAD_REACTORS
330
83B3
102
}
330
83B3
100
AcDbScale
 70
     0
300
1/32" = 1'-0"
140
0.03125
141
12.0
290
     0
  0
SCALE
  5
83B8
102
{ACAD_REACTORS
330
83B3
102
}
330
83B3
100
AcDbScale
 70
     0
300
1/16" = 1'-0"
140
0.0625
141
12.0
290
     0
  0
SCALE
  5
83B9
102
{ACAD_REACTORS
330
83B3
102
}
330
83B3
100
AcDbScale
 70
     0
300
3/32" = 1'-0"
140
0.09375
141
12.0
290
     0
  0
SCALE
  5
83BA
102
{ACAD_REACTORS
330
83B3
102
}
330
83B3
100
AcDbScale
 70
     0
300
1/8" = 1'-0"
140
0.125
141
12.0
290
     0
  0
SCALE
  5
83BB
102
{ACAD_REACTORS
330
83B3
102
}
330
83B3
100
AcDbScale
 70
     0
300
3/16" = 1'-0"
140
0.1875
141
12.0
290
     0
  0
SCALE
  5
83BC
102
{ACAD_REACTORS
330
83B3
102
}
330
83B3
100
AcDbScale
 70
     0
300
1/4" = 1'-0"
140
0.25
141
12.0
290
     0
  0
SCALE
  5
83BD
102
{ACAD_REACTORS
330
83B3
102
}
330
83B3
100
AcDbScale
 70
     0
300
3/8" = 1'-0"
140
0.375
141
12.0
290
     0
  0
SCALE
  5
83BE
102
{ACAD_REACTORS
330
83B3
102
}
330
83B3
100
AcDbScale
 70
     0
300
1/2" = 1'-0"
140
0.5
141
12.0
290
     0
  0
SCALE
  5
83BF
102
{ACAD_REACTORS
330
83B3
102
}
330
83B3
100
AcDbScale
 70
     0
300
3/4" = 1'-0"
140
0.75
141
12.0
290
     0
  0
SCALE
  5
83C0
102
{ACAD_REACTORS
330
83B3
102
}
330
83B3
100
AcDbScale
 70
     0
300
1" = 1'-0"
140
1.0
141
12.0
290
     0
  0
SCALE
  5
83C1
102
{ACAD_REACTORS
330
83B3
102
}
330
83B3
100
AcDbScale
 70
     0
300
1-1/2" = 1'-0"
140
1.5
141
12.0
290
     0
  0
SCALE
  5
83C2
102
{ACAD_REACTORS
330
83B3
102
}
330
83B3
100
AcDbScale
 70
     0
300
3" = 1'-0"
140
3.0
141
12.0
290
     0
  0
SCALE
  5
83C3
102
{ACAD_REACTORS
330
83B3
102
}
330
83B3
100
AcDbScale
 70
     0
300
6" = 1'-0"
140
6.0
141
12.0
290
     0
  0
SCALE
  5
83C4
102
{ACAD_REACTORS
330
83B3
102
}
330
83B3
100
AcDbScale
 70
     0
300
1'-0" = 1'-0"
140
12.0
141
12.0
290
     0
  0
ACDBSECTIONVIEWSTYLE
  5
83D9
102
{ACAD_XDICTIONARY
360
872A
102
}
102
{ACAD_REACTORS
330
83D8
102
}
330
83D8
100
AcDbModelDocViewStyle
 70
     0
  3
Imperial24
290
     0
100
AcDbSectionViewStyle
 70
     0
 71
     0
 90
       78
 71
     1
340
83C6
 40
0.24
340
0
340
0
 40
0.24
300
I, O, Q, S, X, Z
 40
0.48
 90
        3
 40
0.18
 90
        1
 71
     2
340
83CD
 90
       25
340
83CD
 90
       50
 40
0.24
 40
0.0
 40
0.24
 71
     3
340
83C6
 40
0.24
 90
        1
 40
0.75
 90
        1
300
%<\AcVar ViewType \f "%tc1">% %<\AcVar ViewSectionStartId>%-%<\AcVar ViewSectionEndId>%\PSCALE %<\AcVar ViewScale \f "%sn">%
 71
     4
300
ANSI31
 40
1.0
 90
        0
290
     0
290
     0
 90
        6
 40
0.0
 40
1.570796326794896
 40
0.2617993877991494
 40
1.308996938995747
 40
-0.2617993877991494
 40
1.832595714594046
  0
TABLESTYLE
  5
83D5
102
{ACAD_XDICTIONARY
360
86F1
102
}
102
{ACAD_REACTORS
330
83D4
102
}
330
83D4
100
AcDbTableStyle
  3
Standard
 70
     0
 71
     0
 40
0.06
 41
0.06
280
     0
281
     0
  7
STANDARD
140
0.18
170
     2
 62
     0
 63
     7
283
     0
274
    -2
284
     1
 64
     0
275
    -2
285
     1
 65
     0
276
    -2
286
     1
 66
     0
277
    -2
287
     1
 67
     0
278
    -2
288
     1
 68
     0
279
    -2
289
     1
 69
     0
  7
STANDARD
140
0.25
170
     5
 62
     0
 63
     7
283
     0
274
    -2
284
     1
 64
     0
275
    -2
285
     1
 65
     0
276
    -2
286
     1
 66
     0
277
    -2
287
     1
 67
     0
278
    -2
288
     1
 68
     0
279
    -2
289
     1
 69
     0
  7
STANDARD
140
0.18
170
     5
 62
     0
 63
     7
283
     0
274
    -2
284
     1
 64
     0
275
    -2
285
     1
 65
     0
276
    -2
286
     1
 66
     0
277
    -2
287
     1
 67
     0
278
    -2
288
     1
 68
     0
279
    -2
289
     1
 69
     0
  0
VISUALSTYLE
  5
83A0
102
{ACAD_XDICTIONARY
360
8702
102
}
102
{ACAD_REACTORS
330
839A
102
}
330
839A
100
AcDbVisualStyle
  2
2dWireframe
 70
     4
 71
     0
 72
     2
 73
     0
 90
        0
 40
-0.6
 41
-30.0
 62
     5
 63
     7
 74
     1
 91
        4
 64
     7
 65
   257
 75
     1
175
     1
 42
1.0
 92
        0
 66
   257
 43
1.0
 76
     1
 77
     6
 78
     2
 67
     7
 79
     5
170
     0
171
     0
290
     0
174
     0
 93
        1
 44
0.0
173
     0
291
     0
 45
0.0
1001
ACAD
1000
AcDbSavedByObjectVersion
1070
     0
  0
VISUALSTYLE
  5
839F
102
{ACAD_XDICTIONARY
360
8700
102
}
102
{ACAD_REACTORS
330
839A
102
}
330
839A
100
AcDbVisualStyle
  2
Basic
 70
     7
 71
     1
 72
     0
 73
     1
 90
        0
 40
-0.6
 41
-30.0
 62
     5
 63
     7
 74
     0
 91
        4
 64
     7
 65
   257
 75
     1
175
     1
 42
1.0
 92
        8
 66
     7
 43
1.0
 76
     1
 77
     6
 78
     2
 67
     7
 79
     5
170
     0
171
     0
290
     0
174
     0
 93
        1
 44
0.0
173
     0
291
     1
 45
0.0
1001
ACAD
1000
AcDbSavedByObjectVersion
1070
     0
  0
VISUALSTYLE
  5
83A6
102
{ACAD_XDICTIONARY
360
870E
102
}
102
{ACAD_REACTORS
330
839A
102
}
330
839A
100
AcDbVisualStyle
  2
Brighten
 70
    12
 71
     2
 72
     2
 73
     0
 90
        0
 40
-0.6
 41
-30.0
 62
     5
 63
     7
 74
     1
 91
        4
 64
     7
 65
   257
 75
     1
175
     1
 42
1.0
 92
        8
 66
     7
 43
1.0
 76
     1
 77
     6
 78
     2
 67
     7
 79
     5
170
     0
171
     0
290
     0
174
     0
 93
        1
 44
50.0
173
     0
291
     1
 45
0.0
1001
ACAD
1000
AcDbSavedByObjectVersion
1070
     0
  0
VISUALSTYLE
  5
83AA
102
{ACAD_XDICTIONARY
360
8716
102
}
102
{ACAD_REACTORS
330
839A
102
}
330
839A
100
AcDbVisualStyle
  2
ColorChange
 70
    16
 71
     2
 72
     2
 73
     3
 90
        0
 40
-0.6
 41
-30.0
 62
     5
 63
     8
 74
     1
 91
        4
 64
     7
 65
   257
 75
     1
175
     1
 42
1.0
 92
        8
 66
     8
 43
1.0
 76
     1
 77
     6
 78
     2
 67
     7
 79
     5
170
     0
171
     0
290
     0
174
     0
 93
        1
 44
0.0
173
     0
291
     1
 45
0.0
1001
ACAD
1000
AcDbSavedByObjectVersion
1070
     0
  0
VISUALSTYLE
  5
83A3
102
{ACAD_XDICTIONARY
360
8708
102
}
102
{ACAD_REACTORS
330
839A
102
}
330
839A
100
AcDbVisualStyle
  2
Conceptual
 70
     9
 71
     3
 72
     2
 73
     0
 90
        0
 40
-0.6
 41
-30.0
 62
     5
 63
     7
 74
     2
 91
        2
 64
     7
 65
   257
 75
     1
175
     1
 42
179.0
 92
        8
 66
     7
 43
1.0
 76
     1
 77
     6
 78
     2
 67
     7
 79
     3
170
     0
171
     0
290
     0
174
     0
 93
        1
 44
0.0
173
     0
291
     0
 45
0.0
1001
ACAD
1000
AcDbSavedByObjectVersion
1070
     0
  0
VISUALSTYLE
  5
83A5
102
{ACAD_XDICTIONARY
360
870C
102
}
102
{ACAD_REACTORS
330
839A
102
}
330
839A
100
AcDbVisualStyle
  2
Dim
 70
    11
 71
     2
 72
     2
 73
     0
 90
        0
 40
-0.6
 41
-30.0
 62
     5
 63
     7
 74
     1
 91
        4
 64
     7
 65
   257
 75
     1
175
     1
 42
1.0
 92
        8
 66
     7
 43
1.0
 76
     1
 77
     6
 78
     2
 67
     7
 79
     5
170
     0
171
     0
290
     0
174
     0
 93
        1
 44
-50.0
173
     0
291
     1
 45
0.0
1001
ACAD
1000
AcDbSavedByObjectVersion
1070
     0
  0
VISUALSTYLE
  5
83B2
102
{ACAD_XDICTIONARY
360
8726
102
}
102
{ACAD_REACTORS
330
839A
102
}
330
839A
100
AcDbVisualStyle
  2
EdgeColorOff
 70
    22
 71
     2
 72
     2
 73
     0
 90
        0
 40
-0.6
 41
-30.0
 62
     5
 63
     7
 74
     1
 91
        4
 64
     7
 65
   257
 75
     1
175
     1
 42
1.0
 92
        8
 66
     7
 43
1.0
 76
     1
 77
     6
 78
     2
 67
     7
 79
     5
170
     0
171
     0
290
     0
174
     0
 93
        1
 44
0.0
173
     0
291
     1
 45
0.0
1001
ACAD
1000
AcDbSavedByObjectVersion
1070
     0
  0
VISUALSTYLE
  5
83A9
102
{ACAD_XDICTIONARY
360
8714
102
}
102
{ACAD_REACTORS
330
839A
102
}
330
839A
100
AcDbVisualStyle
  2
Facepattern
 70
    15
 71
     2
 72
     2
 73
     0
 90
        0
 40
-0.6
 41
-30.0
 62
     5
 63
     7
 74
     1
 91
        4
 64
     7
 65
   257
 75
     1
175
     1
 42
1.0
 92
        8
 66
     7
 43
1.0
 76
     1
 77
     6
 78
     2
 67
     7
 79
     5
170
     0
171
     0
290
     0
174
     0
 93
        1
 44
0.0
173
     0
291
     1
 45
0.0
1001
ACAD
1000
AcDbSavedByObjectVersion
1070
     0
  0
VISUALSTYLE
  5
839B
102
{ACAD_XDICTIONARY
360
86F8
102
}
102
{ACAD_REACTORS
330
839A
102
}
330
839A
100
AcDbVisualStyle
  2
Flat
 70
     0
 71
     2
 72
     1
 73
     1
 90
        2
 40
-0.6
 41
30.0
 62
     5
 63
     7
 74
     0
 91
        0
 64
     7
 65
   257
 75
     1
175
     1
 42
1.0
 92
        8
 66
     7
 43
1.0
 76
     1
 77
     6
 78
     2
 67
     7
 79
     5
170
     0
171
     0
290
     0
174
     0
 93
       13
 44
0.0
173
     0
291
     1
 45
0.0
1001
ACAD
1000
AcDbSavedByObjectVersion
1070
     0
  0
VISUALSTYLE
  5
839C
102
{ACAD_XDICTIONARY
360
86FA
102
}
102
{ACAD_REACTORS
330
839A
102
}
330
839A
100
AcDbVisualStyle
  2
FlatWithEdges
 70
     1
 71
     2
 72
     1
 73
     1
 90
        2
 40
-0.6
 41
30.0
 62
     5
 63
     7
 74
     1
 91
        0
 64
     7
 65
   257
 75
     1
175
     1
 42
1.0
 92
        0
 66
   257
 43
1.0
 76
     1
 77
     6
 78
     2
 67
     7
 79
     5
170
     0
171
     0
290
     0
174
     0
 93
       13
 44
0.0
173
     0
291
     1
 45
0.0
1001
ACAD
1000
AcDbSavedByObjectVersion
1070
     0
  0
VISUALSTYLE
  5
839D
102
{ACAD_XDICTIONARY
360
86FC
102
}
102
{ACAD_REACTORS
330
839A
102
}
330
839A
100
AcDbVisualStyle
  2
Gouraud
 70
     2
 71
     2
 72
     2
 73
     1
 90
        2
 40
-0.6
 41
30.0
 62
     5
 63
     7
 74
     0
 91
        0
 64
     7
 65
   257
 75
     1
175
     1
 42
1.0
 92
        0
 66
     7
 43
1.0
 76
     1
 77
     6
 78
     2
 67
     7
 79
     5
170
     0
171
     0
290
     0
174
     0
 93
       13
 44
0.0
173
     0
291
     1
 45
0.0
1001
ACAD
1000
AcDbSavedByObjectVersion
1070
     0
  0
VISUALSTYLE
  5
839E
102
{ACAD_XDICTIONARY
360
86FE
102
}
102
{ACAD_REACTORS
330
839A
102
}
330
839A
100
AcDbVisualStyle
  2
GouraudWithEdges
 70
     3
 71
     2
 72
     2
 73
     1
 90
        2
 40
-0.6
 41
30.0
 62
     5
 63
     7
 74
     1
 91
        0
 64
     7
 65
   257
 75
     1
175
     1
 42
1.0
 92
        0
 66
   257
 43
1.0
 76
     1
 77
     6
 78
     2
 67
     7
 79
     5
170
     0
171
     0
290
     0
174
     0
 93
       13
 44
0.0
173
     0
291
     1
 45
0.0
1001
ACAD
1000
AcDbSavedByObjectVersion
1070
     0
  0
VISUALSTYLE
  5
83A2
102
{ACAD_XDICTIONARY
360
8706
102
}
102
{ACAD_REACTORS
330
839A
102
}
330
839A
100
AcDbVisualStyle
  2
Hidden
 70
     6
 71
     1
 72
     2
 73
     2
 90
        0
 40
-0.6
 41
-30.0
 62
     5
 63
     7
 74
     2
 91
        2
 64
     7
 65
   257
 75
     2
175
     1
 42
40.0
 92
        0
 66
   257
 43
1.0
 76
     1
 77
     6
 78
     2
 67
     7
 79
     3
170
     0
171
     0
290
     0
174
     0
 93
        1
 44
0.0
173
     0
291
     0
 45
0.0
1001
ACAD
1000
AcDbSavedByObjectVersion
1070
     0
  0
VISUALSTYLE
  5
83B0
102
{ACAD_XDICTIONARY
360
8722
102
}
102
{ACAD_REACTORS
330
839A
102
}
330
839A
100
AcDbVisualStyle
  2
JitterOff
 70
    20
 71
     2
 72
     2
 73
     0
 90
        0
 40
-0.6
 41
-30.0
 62
     5
 63
     7
 74
     1
 91
        4
 64
     7
 65
   257
 75
     1
175
     1
 42
1.0
 92
       10
 66
     7
 43
1.0
 76
     1
 77
     6
 78
     2
 67
     7
 79
     5
170
     0
171
     0
290
     0
174
     0
 93
        1
 44
0.0
173
     0
291
     1
 45
0.0
1001
ACAD
1000
AcDbSavedByObjectVersion
1070
     0
  0
VISUALSTYLE
  5
83A8
102
{ACAD_XDICTIONARY
360
8712
102
}
102
{ACAD_REACTORS
330
839A
102
}
330
839A
100
AcDbVisualStyle
  2
Linepattern
 70
    14
 71
     2
 72
     2
 73
     0
 90
        0
 40
-0.6
 41
-30.0
 62
     5
 63
     7
 74
     1
 91
        4
 64
     7
 65
   257
 75
     7
175
     7
 42
1.0
 92
        8
 66
     7
 43
1.0
 76
     1
 77
     6
 78
     2
 67
     7
 79
     5
170
     0
171
     0
290
     0
174
     0
 93
        1
 44
0.0
173
     0
291
     1
 45
0.0
1001
ACAD
1000
AcDbSavedByObjectVersion
1070
     0
  0
VISUALSTYLE
  5
83B1
102
{ACAD_XDICTIONARY
360
8724
102
}
102
{ACAD_REACTORS
330
839A
102
}
330
839A
100
AcDbVisualStyle
  2
OverhangOff
 70
    21
 71
     2
 72
     2
 73
     0
 90
        0
 40
-0.6
 41
-30.0
 62
     5
 63
     7
 74
     1
 91
        4
 64
     7
 65
   257
 75
     1
175
     1
 42
1.0
 92
        9
 66
     7
 43
1.0
 76
     1
 77
     6
 78
     2
 67
     7
 79
     5
170
     0
171
     0
290
     0
174
     0
 93
        1
 44
0.0
173
     0
291
     1
 45
0.0
1001
ACAD
1000
AcDbSavedByObjectVersion
1070
     0
  0
VISUALSTYLE
  5
83A4
102
{ACAD_XDICTIONARY
360
870A
102
}
102
{ACAD_REACTORS
330
839A
102
}
330
839A
100
AcDbVisualStyle
  2
Realistic
 70
     8
 71
     2
 72
     3
 73
     0
 90
        2
 40
-0.6
 41
30.0
 62
     5
 63
     7
 74
     0
 91
        0
 64
     7
 65
   257
 75
     1
175
     1
 42
1.0
 92
        8
 66
   257
 43
1.0
 76
     1
 77
     6
 78
     2
 67
     7
 79
     3
170
     0
171
     0
290
     0
174
     0
 93
       13
 44
0.0
173
     0
291
     0
 45
0.0
1001
ACAD
1000
AcDbSavedByObjectVersion
1070
     0
  0
VISUALSTYLE
  5
83AF
102
{ACAD_XDICTIONARY
360
8720
102
}
102
{ACAD_REACTORS
330
839A
102
}
330
839A
100
AcDbVisualStyle
  2
Shaded
 70
    27
 71
     2
 72
     2
 73
     1
 90
        2
 40
-0.6
 41
30.0
 62
     5
 63
     7
 74
     0
 91
        4
 64
     7
 65
   257
 75
     1
175
     1
 42
1.0
 92
        8
 66
   257
 43
1.0
 76
     1
 77
     6
 78
     2
 67
     8
 79
     3
170
     0
171
     0
290
     0
174
     0
 93
        5
 44
0.0
173
     0
291
     0
 45
0.0
1001
ACAD
1000
AcDbSavedByObjectVersion
1070
     0
  0
VISUALSTYLE
  5
83AE
102
{ACAD_XDICTIONARY
360
871E
102
}
102
{ACAD_REACTORS
330
839A
102
}
330
839A
100
AcDbVisualStyle
  2
Shaded with edges
 70
    26
 71
     2
 72
     2
 73
     1
 90
        2
 40
-0.6
 41
30.0
 62
     5
 63
     7
 74
     1
 91
       10
 64
     7
 65
   257
 75
     2
175
     1
 42
1.0
 92
        8
 66
   257
 43
1.0
 76
     1
 77
     6
 78
     2
 67
     7
 79
     3
170
     0
171
     0
290
     0
174
     0
 93
        5
 44
0.0
173
     0
291
     0
 45
0.0
1001
ACAD
1000
AcDbSavedByObjectVersion
1070
     0
  0
VISUALSTYLE
  5
83AB
102
{ACAD_XDICTIONARY
360
8718
102
}
102
{ACAD_REACTORS
330
839A
102
}
330
839A
100
AcDbVisualStyle
  2
Shades of Gray
 70
    23
 71
     2
 72
     2
 73
     3
 90
        0
 40
-0.6
 41
-30.0
 62
     5
 63
     7
 74
     2
 91
        2
 64
     7
 65
     7
 75
     1
175
     1
 42
40.0
 92
        8
 66
     7
 43
1.0
 76
     1
 77
     6
 78
     2
 67
     7
 79
     3
170
     0
171
     0
290
     0
174
     0
 93
        1
 44
0.0
173
     0
291
     0
 45
0.0
1001
ACAD
1000
AcDbSavedByObjectVersion
1070
     0
  0
VISUALSTYLE
  5
83AC
102
{ACAD_XDICTIONARY
360
871A
102
}
102
{ACAD_REACTORS
330
839A
102
}
330
839A
100
AcDbVisualStyle
  2
Sketchy
 70
    24
 71
     1
 72
     2
 73
     2
 90
        0
 40
-0.6
 41
-30.0
 62
     5
 63
     7
 74
     2
 91
        2
 64
     7
 65
     7
 75
     1
175
     1
 42
40.0
 92
       11
 66
     7
 43
1.0
 76
     1
 77
     6
 78
     2
 67
     7
 79
     6
170
     0
171
     0
290
     0
174
     0
 93
        1
 44
0.0
173
     0
291
     0
 45
0.0
1001
ACAD
1000
AcDbSavedByObjectVersion
1070
     0
  0
VISUALSTYLE
  5
83A7
102
{ACAD_XDICTIONARY
360
8710
102
}
102
{ACAD_REACTORS
330
839A
102
}
330
839A
100
AcDbVisualStyle
  2
Thicken
 70
    13
 71
     2
 72
     2
 73
     0
 90
        0
 40
-0.6
 41
-30.0
 62
     5
 63
     7
 74
     1
 91
        4
 64
     7
 65
   257
 75
     1
175
     1
 42
1.0
 92
       12
 66
     7
 43
1.0
 76
     1
 77
     6
 78
     2
 67
     7
 79
     5
170
     0
171
     0
290
     0
174
     0
 93
        1
 44
0.0
173
     0
291
     1
 45
0.0
1001
ACAD
1000
AcDbSavedByObjectVersion
1070
     0
  0
VISUALSTYLE
  5
83A1
102
{ACAD_XDICTIONARY
360
8704
102
}
102
{ACAD_REACTORS
330
839A
102
}
330
839A
100
AcDbVisualStyle
  2
Wireframe
 70
     5
 71
     0
 72
     2
 73
     0
 90
        0
 40
-0.6
 41
-30.0
 62
     5
 63
     7
 74
     1
 91
        4
 64
     7
 65
   257
 75
     1
175
     1
 42
1.0
 92
        0
 66
   257
 43
1.0
 76
     1
 77
     6
 78
     2
 67
     7
 79
     3
170
     0
171
     0
290
     0
174
     0
 93
        1
 44
0.0
173
     0
291
     0
 45
0.0
1001
ACAD
1000
AcDbSavedByObjectVersion
1070
     0
  0
VISUALSTYLE
  5
83AD
102
{ACAD_XDICTIONARY
360
871C
102
}
102
{ACAD_REACTORS
330
839A
102
}
330
839A
100
AcDbVisualStyle
  2
X-Ray
 70
    25
 71
     2
 72
     2
 73
     1
 90
        1
 40
0.5
 41
-30.0
 62
     5
 63
     7
 74
     1
 91
        0
 64
     7
 65
   257
 75
     1
175
     1
 42
1.0
 92
        8
 66
     7
 43
1.0
 76
     1
 77
     6
 78
     2
 67
     7
 79
     3
170
     0
171
     0
290
     0
174
     0
 93
       13
 44
0.0
173
     0
291
     0
 45
0.0
1001
ACAD
1000
AcDbSavedByObjectVersion
1070
     0
  0
DICTIONARYVAR
  5
8437
102
{ACAD_REACTORS
330
8432
102
}
330
8432
100
DictionaryVariables
280
     0
  1
1:1
  0
DICTIONARYVAR
  5
8434
102
{ACAD_REACTORS
330
8432
102
}
330
8432
100
DictionaryVariables
280
     0
  1
STANDARD
  0
DICTIONARYVAR
  5
8433
102
{ACAD_REACTORS
330
8432
102
}
330
8432
100
DictionaryVariables
280
     0
  1
STANDARD
  0
DICTIONARYVAR
  5
8435
102
{ACAD_REACTORS
330
8432
102
}
330
8432
100
DictionaryVariables
280
     0
  1
Imperial24
  0
DICTIONARYVAR
  5
8436
102
{ACAD_REACTORS
330
8432
102
}
330
8432
100
DictionaryVariables
280
     0
  1
Imperial24
  0
DICTIONARYVAR
  5
843A
102
{ACAD_REACTORS
330
8432
102
}
330
8432
100
DictionaryVariables
280
     0
  1
1
  0
DICTIONARYVAR
  5
8439
102
{ACAD_REACTORS
330
8432
102
}
330
8432
100
DictionaryVariables
280
     0
  1
0
  0
DICTIONARYVAR
  5
8438
102
{ACAD_REACTORS
330
8432
102
}
330
8432
100
DictionaryVariables
280
     0
  1
127
  0
DICTIONARYVAR
  5
843B
102
{ACAD_REACTORS
330
8432
102
}
330
8432
100
DictionaryVariables
280
     0
  1
2
  0
DICTIONARY
  5
872C
330
83DB
100
AcDbDictionary
280
     1
281
     1
  3
ACAD_XREC_ROUNDTRIP
360
872D
  0
DICTIONARY
  5
8730
330
83E3
100
AcDbDictionary
280
     1
281
     1
  3
ACAD_XREC_ROUNDTRIP
360
8731
  0
DICTIONARY
  5
872E
330
83DF
100
AcDbDictionary
280
     1
281
     1
  3
ACAD_XREC_ROUNDTRIP
360
872F
  0
DICTIONARY
  5
838B
330
838A
100
AcDbDictionary
280
     1
281
     1
  3
ACAD_XREC_ROUNDTRIP
360
86F6
  3
BUMPTILE
360
838D
  3
DIFFUSETILE
360
838C
  3
OPACITYTILE
360
8390
  3
REFLECTIONTILE
360
838F
  3
REFRACTIONTILE
360
8391
  3
SPECULARTILE
360
838E
  0
DICTIONARY
  5
8383
330
8382
100
AcDbDictionary
280
     1
281
     1
  3
ACAD_XREC_ROUNDTRIP
360
86F5
  3
BUMPTILE
360
8385
  3
DIFFUSETILE
360
8384
  3
OPACITYTILE
360
8388
  3
REFLECTIONTILE
360
8387
  3
REFRACTIONTILE
360
8389
  3
SPECULARTILE
360
8386
  0
DICTIONARY
  5
8393
330
8392
100
AcDbDictionary
280
     1
281
     1
  3
ACAD_XREC_ROUNDTRIP
360
86F7
  3
BUMPTILE
360
8395
  3
DIFFUSETILE
360
8394
  3
FBXASSET
360
847E
  3
OPACITYTILE
360
8398
  3
REFLECTIONTILE
360
8397
  3
REFRACTIONTILE
360
8399
  3
SPECULARTILE
360
8396
  0
DICTIONARY
  5
872A
330
83D9
100
AcDbDictionary
280
     1
281
     1
  3
ACAD_XREC_ROUNDTRIP
360
872B
  0
DICTIONARY
  5
86F1
330
83D5
100
AcDbDictionary
280
     1
281
     1
  3
ACAD_ROUNDTRIP_2008_TABLESTYLE_CELLSTYLEMAP
360
86F2
  3
ACAD_XREC_ROUNDTRIP
360
8728
  0
DICTIONARY
  5
8702
330
83A0
100
AcDbDictionary
280
     1
281
     1
  3
ACAD_XREC_ROUNDTRIP
360
8703
  0
DICTIONARY
  5
8700
330
839F
100
AcDbDictionary
280
     1
281
     1
  3
ACAD_XREC_ROUNDTRIP
360
8701
  0
DICTIONARY
  5
870E
330
83A6
100
AcDbDictionary
280
     1
281
     1
  3
ACAD_XREC_ROUNDTRIP
360
870F
  0
DICTIONARY
  5
8716
330
83AA
100
AcDbDictionary
280
     1
281
     1
  3
ACAD_XREC_ROUNDTRIP
360
8717
  0
DICTIONARY
  5
8708
330
83A3
100
AcDbDictionary
280
     1
281
     1
  3
ACAD_XREC_ROUNDTRIP
360
8709
  0
DICTIONARY
  5
870C
330
83A5
100
AcDbDictionary
280
     1
281
     1
  3
ACAD_XREC_ROUNDTRIP
360
870D
  0
DICTIONARY
  5
8726
330
83B2
100
AcDbDictionary
280
     1
281
     1
  3
ACAD_XREC_ROUNDTRIP
360
8727
  0
DICTIONARY
  5
8714
330
83A9
100
AcDbDictionary
280
     1
281
     1
  3
ACAD_XREC_ROUNDTRIP
360
8715
  0
DICTIONARY
  5
86F8
330
839B
100
AcDbDictionary
280
     1
281
     1
  3
ACAD_XREC_ROUNDTRIP
360
86F9
  0
DICTIONARY
  5
86FA
330
839C
100
AcDbDictionary
280
     1
281
     1
  3
ACAD_XREC_ROUNDTRIP
360
86FB
  0
DICTIONARY
  5
86FC
330
839D
100
AcDbDictionary
280
     1
281
     1
  3
ACAD_XREC_ROUNDTRIP
360
86FD
  0
DICTIONARY
  5
86FE
330
839E
100
AcDbDictionary
280
     1
281
     1
  3
ACAD_XREC_ROUNDTRIP
360
86FF
  0
DICTIONARY
  5
8706
330
83A2
100
AcDbDictionary
280
     1
281
     1
  3
ACAD_XREC_ROUNDTRIP
360
8707
  0
DICTIONARY
  5
8722
330
83B0
100
AcDbDictionary
280
     1
281
     1
  3
ACAD_XREC_ROUNDTRIP
360
8723
  0
DICTIONARY
  5
8712
330
83A8
100
AcDbDictionary
280
     1
281
     1
  3
ACAD_XREC_ROUNDTRIP
360
8713
  0
DICTIONARY
  5
8724
330
83B1
100
AcDbDictionary
280
     1
281
     1
  3
ACAD_XREC_ROUNDTRIP
360
8725
  0
DICTIONARY
  5
870A
330
83A4
100
AcDbDictionary
280
     1
281
     1
  3
ACAD_XREC_ROUNDTRIP
360
870B
  0
DICTIONARY
  5
8720
330
83AF
100
AcDbDictionary
280
     1
281
     1
  3
ACAD_XREC_ROUNDTRIP
360
8721
  0
DICTIONARY
  5
871E
330
83AE
100
AcDbDictionary
280
     1
281
     1
  3
ACAD_XREC_ROUNDTRIP
360
871F
  0
DICTIONARY
  5
8718
330
83AB
100
AcDbDictionary
280
     1
281
     1
  3
ACAD_XREC_ROUNDTRIP
360
8719
  0
DICTIONARY
  5
871A
330
83AC
100
AcDbDictionary
280
     1
281
     1
  3
ACAD_XREC_ROUNDTRIP
360
871B
  0
DICTIONARY
  5
8710
330
83A7
100
AcDbDictionary
280
     1
281
     1
  3
ACAD_XREC_ROUNDTRIP
360
8711
  0
DICTIONARY
  5
8704
330
83A1
100
AcDbDictionary
280
     1
281
     1
  3
ACAD_XREC_ROUNDTRIP
360
8705
  0
DICTIONARY
  5
871C
330
83AD
100
AcDbDictionary
280
     1
281
     1
  3
ACAD_XREC_ROUNDTRIP
360
871D
  0
XRECORD
  5
872D
102
{ACAD_REACTORS
330
872C
102
}
330
872C
100
AcDbXrecord
280
     1
102
DISPLAYNAME
  1
Imperial24
102
FLAGS
 90
        0
  0
XRECORD
  5
8731
102
{ACAD_REACTORS
330
8730
102
}
330
8730
100
AcDbXrecord
280
     1
102
SHADEPLOT
 70
     0
102
SHADEPLOTRESLEVEL
 70
     2
102
SHADEPLOTCUSTOMDPI
 70
   300
  0
XRECORD
  5
872F
102
{ACAD_REACTORS
330
872E
102
}
330
872E
100
AcDbXrecord
280
     1
102
SHADEPLOT
 70
     0
102
SHADEPLOTRESLEVEL
 70
     2
102
SHADEPLOTCUSTOMDPI
 70
   300
  0
XRECORD
  5
86F6
102
{ACAD_REACTORS
330
838B
102
}
330
838B
100
AcDbXrecord
280
     1
102
MATERIAL
148
0.0
149
0.0
149
0.0
 93
        0
 94
      127
282
     0
 72
     0
 77
     0
171
     0
175
     0
179
     0
273
     0
  0
XRECORD
  5
838D
102
{ACAD_REACTORS
330
838B
102
}
330
838B
100
AcDbXrecord
280
     1
270
     1
271
     1
  0
XRECORD
  5
838C
102
{ACAD_REACTORS
330
838B
102
}
330
838B
100
AcDbXrecord
280
     1
270
     1
271
     1
  0
XRECORD
  5
8390
102
{ACAD_REACTORS
330
838B
102
}
330
838B
100
AcDbXrecord
280
     1
270
     1
271
     1
  0
XRECORD
  5
838F
102
{ACAD_REACTORS
330
838B
102
}
330
838B
100
AcDbXrecord
280
     1
270
     1
271
     1
  0
XRECORD
  5
8391
102
{ACAD_REACTORS
330
838B
102
}
330
838B
100
AcDbXrecord
280
     1
270
     1
271
     1
  0
XRECORD
  5
838E
102
{ACAD_REACTORS
330
838B
102
}
330
838B
100
AcDbXrecord
280
     1
270
     1
271
     1
  0
XRECORD
  5
86F5
102
{ACAD_REACTORS
330
8383
102
}
330
8383
100
AcDbXrecord
280
     1
102
MATERIAL
148
0.0
149
0.0
149
0.0
 93
        0
 94
      127
282
     0
 72
     0
 77
     0
171
     0
175
     0
179
     0
273
     0
  0
XRECORD
  5
8385
102
{ACAD_REACTORS
330
8383
102
}
330
8383
100
AcDbXrecord
280
     1
270
     1
271
     1
  0
XRECORD
  5
8384
102
{ACAD_REACTORS
330
8383
102
}
330
8383
100
AcDbXrecord
280
     1
270
     1
271
     1
  0
XRECORD
  5
8388
102
{ACAD_REACTORS
330
8383
102
}
330
8383
100
AcDbXrecord
280
     1
270
     1
271
     1
  0
XRECORD
  5
8387
102
{ACAD_REACTORS
330
8383
102
}
330
8383
100
AcDbXrecord
280
     1
270
     1
271
     1
  0
XRECORD
  5
8389
102
{ACAD_REACTORS
330
8383
102
}
330
8383
100
AcDbXrecord
280
     1
270
     1
271
     1
  0
XRECORD
  5
8386
102
{ACAD_REACTORS
330
8383
102
}
330
8383
100
AcDbXrecord
280
     1
270
     1
271
     1
  0
XRECORD
  5
86F7
102
{ACAD_REACTORS
330
8393
102
}
330
8393
100
AcDbXrecord
280
     1
102
MATERIAL
148
0.0
149
0.0
149
0.0
 93
        0
 94
      127
282
     0
 72
     0
 77
     0
171
     0
175
     0
179
     0
273
     0
  0
XRECORD
  5
8395
102
{ACAD_REACTORS
330
8393
102
}
330
8393
100
AcDbXrecord
280
     1
270
     1
271
     1
  0
XRECORD
  5
8394
102
{ACAD_REACTORS
330
8393
102
}
330
8393
100
AcDbXrecord
280
     1
270
     1
271
     1
  0
XRECORD
  5
847E
102
{ACAD_REACTORS
330
8393
102
}
330
8393
100
AcDbXrecord
280
     1
 70
     1
 90
1959938040
 71
     1
  1
37B2A1B0-F713-4D8D-BD40-13CE83942AA8
311
504B0304140006080800F58A81578F0924F0D7000000200100004F00000033373038333631352D383741432D343030382D394442462D3331453642423534344346312F4173736574446174612F446566696E6974696F6E4974657261746F7250726F706572746965732E62696EEB606060F80F0540260323103700495E20ED
311
9E9A975A94991C9C9C919A9BC8C00612C9C94F4ACC6147C831019920AE4B6A5A62694E0948976F6671726A4E4E625E6A7E69B12042A9426E6209D0B8C41C3D90264E20860914834C48875806B2DF0F88414E02D189290556F689C5C5A925B6FA694915FA064E868E2ECEAE8EBA46A66616BA26CEE696BA8E66CECEBA96A6E6
311
46AE962E962606CE8EFA45A9C5F9A545C9A9C5FA46FA06F15093E30BF2D283221DEB0C19188280D6B330BCDF77326CA76B5DB8E1043DA0452EE9CD313B0D666E023291C03E00504B0304140006080800F58A8157E42F8E95EE000000300200004500000033373038333631352D383741432D343030382D394442462D333145
311
3642423534344346312F4173736574446174612F496E7374616E636550726F706572746965732E62696EEB606060F80F0540260323103700495E20ED9E9A975A94991C9C9C919A9BA802143036773272347432D075333734D63571B170D175723131D035347676B530B634317274B4604768046B313471713532B5D4353531
311
016A313332D475727372D13534373670367376B67474B504EA00DBCBA019D37FE8ABC6157B20CD04146B0062181F4C03F940F0C11EA29A8141C08141002C0426541C106CAC2CA046088033B02A030AC2157C6006F21A8018AAF50194E6010A610250382264E08660284CD9E98021862280A91564B406929A0FF62C401E28B6
311
F88038B83CB1243943D7A928312F25350524131B1BFB9F161800504B0304140006080800F58A815728BB58AF800100009E0500003D00000033373038333631352D383741432D343030382D394442462D3331453642423534344346312F536368656D61732F436F6D6D6F6E536368656D612E786D6CBD544D4FC23018BEFB2B
311
96DE15493C78601010A34B880709DEDFB52FD0D8B54BD70DF6EFED3AC0B12E6442E2716BFB3CEFF3D18E26FB440405EA8C2B1992E1C323095052C5B8DC842437EBFB673219DF8DA659866649B798C078B48AE6410122242F2A4994AC7F93815DF85C049C8564CA0A901499DD886B2EB9B1E02448F358701A9235880C49A011
311
9892A20C89D1B9FD768815CAD268CB5E0355B40B1E47F3E37A2020464BED06AA57CE8FCC20C3C3446D46761A2632A8C1283D07031EFF2AE7CCB1BFEEE916E406DFAC8E36FFD99A9D60A6944090EEDC3B670C7DC13DE86B6B2C5C240D6E503BB85ACD579D513F1B9F9A69DC9CC22AFA80C426D40AF0B21EA168559156B6276F
311
0F726A6BFF04DCD513A87A62CAD41FB24FCB2858B3952E3D852084DA25B9303C15687973CC8E8AAE11DF2836C38C6A9E765E8C1BA1BFB1DC29CDFE518C8B5A7655A4ED7E77291ABEB80DBD82EC866ADE1B8D05AF9E35CF09D7A061F38A986D9EC412B8F0F65E5D81534D9B231D1E5A8FE577A241F3A5FD01504B0304140006
311
080800F58A81572CCEBD668A040000E01200003E00000033373038333631352D383741432D343030382D394442462D3331453642423534344346312F536368656D61732F47656E65726963536368656D612E786D6CD5586D6FDB380CFE7EBF42F0F7A649B70E1B90744856B4970F450FCD7A5F05459613EDE4174872DADCAF
311
3F522F8ED3B88D2F1D06AC4050DBA2493EE4438AF2F8EB73AEC8466823CB62928C06C384888297A92C5693A4B6D9D9E7E4EBD51FE3A931C22EF85AE4EC6AFC38BF261BA626C9AD288496DC3F4FCEAFC63366845F7A10452AF41DB320C0D44EC26EAB20918735565582695670811A6A49643A49A6E9069FA4604A64B29016DC
311
4B48552F95E4932463CA888468C1D2B250DB4962750DF7CE273069CE8363F1FF4EDB00E0A21999574AE4A2B00C353B93F3BD4777B8A61ED8F604ABFEDD79CE56A2B7BDFBDBC50996E0ADDE16FED26223C5D30956C29BDF4A55EA686E5E58B112DA45CE67F76F4FA27EFA3FB672FD7372FC388FAECDCA5209E693CAD167BADC
311
D272F943701B3812F8A3D852008B1D2E32DB927B2F833C6EA95879925356D254582695095A3CE982924720BE5774A3CB9CDCDB350427D2DF20DA1B5532EBE2D5D6288D75D4F7E4FD9890A0EF8E3D93EBB8F8BA4758158EF6FB90A6F9520281C93DE7AAC6D24607DA296BB96018123F821A7D6A5C5884050C475DA486544273
311
2C8B95684A50165CBB3A32F25F783A4A480ED59AD7F924B968AEA50131F46303223E6A397B0E52976030DC1DCA81D7E7C1EDEEA42C19FF27635C505E2BD5198A599020DF50A2330FCB3AAF28CB0124108429553EF1B228802E2265D8F7CC2401042B155BCC7070F1E5C55F13B4A9577362CCCE46C32174E010C3C378C44841
311
A4BDA00FE3A12006CE11EE6AEC59894D3526DDE1CD59D503ECC324017F8061B7F162162FA62EDD81AE3308617770796DCBDAD2B2625C5AE8A63DE20B2C8AA5E95E76E5730823955956E33E705425A2187C185D36489A1B44D3DCEC2172F6BA2105C3546287A7194B2331768EBBE64F6E70A9930ABE0ADEA89E9E2C38523B81
311
0287AD67A54A039C1606EAFE68F8304610BB9093DBDDABC0B2AE4E290DCDA15376D7E39F72B556F0B32EAB5D3D498B4C41ABADEC3A1434C422D87E8025A84BDCB2B1417ED750FAE4DA8976863974C577C7F902D3F156AD354DEA3540DE6BEAE2BEA52F7A2EB4CA43802ECE5BF2CE2EDC9347179FFB023CE412E60BE16DA0BE
311
29B374988A553F561DC04615DD35F7D2C8979F60E5955CE93DF29DED8AFA1EE6642D53418086C03C47C377910F75F7E8F5EF665F70B60FFB22AEDF897D119E8423C773E819A3C1E55E550599EE6EDCA34D0C86FD72057DF2CD46F16A470682471C164E4346D5306BF12D7D12D82CFF673D41636C347443FEB51B50D72EA171
311
A8E4A58623A4A16E0FA2B8B10A0D23268D87C33896EE8FB73305A74BF224EDBADFA0BD674AB354D63DB7BD5D83426761C077DE767728235446A552754EB93B755891C3C4CC6CADE37CF0E912A7BB38DBA010F9DE1282EDF470CA69A9CDA482E334C4A6EA4107987980B17E72F31730EBF88BBD39E7C629F56797A3C0009C2C
311
5AE7951D9A05A02773440F02EEB4DE396A3B6A570C72CCFBCD823B0B8ED3F1D5CEDDFED772FA70236C83FB7D86C385D570B87107535572A60A96035F8F7C6A7192F13007246BBE0521855E6AC46F3E27689CEE7D186A6FD679D98CDCAD13333E04EBE7ED6F55FF01504B0304140006080800F58A81576180134D5F0100006B
311
0300004500000033373038333631352D383741432D343030382D394442462D3331453642423534344346312F536368656D61732F52656E6465724D6174657269616C536368656D612E786D6CA5934D6FC2300C86EFFB1551EEE343DBA41D1A103009551ADAD40EAE28A4A68D9426284961FCFBE5A340113B2071746D3F765E
311
BF4DC6BFB5407BD0862B49F0B037C0082453059725C18DDD3EBFE3F1E829991803366715D474942CD30FB4A782E00C64017A412D684E454CE3FE28995203B162A6EA5AC94B66997D225E109CD63B0135484BAD1B3C07E9080CA35DB3119C11BCA5C200461A68A1A438126C75E3E230D40FF81FB3F03C91D1E3A3A0AF79FE28
311
E25BC39EC3E17E4C2A2D94A0833A51AF55BCCA7D88572FCBAC529C4140B020FC3AAFA886621DCED7EAD7664CC86024E806DC297DA1BB393E4156543457A4537DB8817349A70F8ACBF09B3EEE2CB2F33E91B65D60786E4E3B39B77E3FEEEF5650424525DA657FB8B46BE6BF064646F0A0F7327C0BC1BC1B4CBBC1C419FA3CCB
311
23500007872A2580CAAE5461865565294E4EDB4617B62FF579DF9A5B2F54E834076A597573A020912FED777F9B3F504B0304140006080800F58A8157EA0C881451000000570000004700000033373038333631352D383741432D343030382D394442462D3331453642423534344346312F4173736574446174612F41737365
311
745461626C654F66436F6E74656E74732E62696E536160603036773272347432D075333734D63571B170D175723131D035347676B530B634317274B41002AACB4D2C492DCA4CCC492C28484D2C4ACC4B4E050A82012F90744FCD03CA26072767A4E6260200504B0304140006080800F58A8157F86583405800000068000000
311
4500000033373038333631352D383741432D343030382D394442462D3331453642423534344346312F4173736574446174612F53747265616D56657273696F6E5461626C652E696E66558CBD0A80300C06F73E4B117FB66E451741D041DC5BF98480A492E4FDD18EAEC7DD4555D89EF28DF51A0B1BD8340C4DE7DD848B988C
311
0ACF0649566493F2408C508DDEBB99D5129FF8F1AF8CF5B9503E20FAE5A16B5AF702504B0304140006080800F58A81577AB3E336340100009A0400003600000033373038333631352D383741432D343030382D394442462D3331453642423534344346312F4173736574446174612F636E782E786D6CCD94314FC3301085FF
311
4AE43D769222812AC71582A51348540C6C57E752AC3A76645F10FC7BEC3403A888A943D7F3BBF3F327BF939BCFC1161F18A2F1AE6535AF58814EFBCEB843CB26EACB3B566C940CDED30F192B1C0CD8B25C664A1E829FC6A5D4610F93CD556BDC7129DEC788B483BDC5A7FEC13B42479115DA428C2D8BFA1D07E03091EF301E
311
790704BCE601A39F82C63489CC80CB241D10083BA69AAA5995755356F5AEBE5D37ABF54DF32645562AB9F7DE2E7A932E0B7E2CF4E956A62A29F2B19253308B26BF85A9BF3CF2BD715224A592914262B274D0D7983A601CADD140099DF09A90CA244218A43889951499C12F128FD81B6772CB361903F2E139D9C34006AF8EC8
311
7F5E2F4F66EB2281D378BD3CCE1D5E9EC2CBFC835E4F819C13736D393977C88DEB2F901231AF91149ABC55D437504B0304140006080800F58A81576D29AD09080100004F0300003400000033373038333631352D383741432D343030382D394442462D3331453642423534344346312F536368656D61732F636E782E786D6C
311
CD93BD4E042114855F85D02FCCCC9A68360C5B5858D9A8951DC2DD952C7027FC187D7B61A4D84DECB4D80E0E5FC839878BD87F7A473E20268B61A6231B2881A0D1D8709C69C987CD1D257B2922623EC32809CAC34C9B4CA538462C4B970C1C54714D75369CBA788FDE6378D6EFE01525DAA994669AD62D5325A38174624665
311
C546162161891AEA0DD97AE837E8082A83A1721AA6ED669C36C3F832DEEEA6EDEE667A15BC9152BC21BACEDB9021E24234D645A87606C1DBB11425DACEB40C549E7B63B50DC12B2145CAB176D0C9FCB554522D8BB35AE55A155FC11F460ADEA25E047E8000D1EAEB4C7C61EEDF223F4130101FEB2B45ABDC7526FFCDE3DF0A
311
E0EBECD711685F417E03504B0304140006080800F58A8157410A3D5871000000A40000002C00000033373038333631352D383741432D343030382D394442462D3331453642423534344346312F636E782E786D6C55CC4D0E82301086E1AB34B31774E7A22D31F1069E60020334B633A63FC6E34B0909B07DDE2F9FEE7EC1AB
311
2FC5E4840DDC9A2B28E25E06C7938192C7CB1D54677514C9871928C640062A83D55394F2D968A0118BAFEA1DBF377CA444F98919176EAB9FEAAB9F2960DA5BBB1E2ED3FA6FFF504B0304140006080800F58A8157F54EE9D57F000000A300000007000000636E782E786D6C4D8CD10E822018465F85FDF7140C54DA101796EF
311
E1121D13A191B41E3F685E74F56D67DF39B2FB6C0EBD4D7CD9E05BA02702C8F84798AC5F5A48FB8C05A04EC918C2FE7703E4C7CDB4503028B9C4909E079ACC3C2657A8B37E3D206B886035ADB068AE3DE684087CB9E901337AAFB5AE38EF079A8D7351F2FC7A794B5E7D01504B0304140006080800F58A815716E99B5DA600
311
000035010000130000005B436F6E74656E745F54797065735D2E786D6C9590410E82301045AFD2740F4517C6180A0BF5065E60AC53688469D30E066F6F91AD9AB89CF9FFFD3F99BA9DC7413C3026E749CB4D59498164FCCD51A7E5C4B6D84BD136F5E5193089ECA5A465CF1C0E4A25D3E308A9F401292BD6C711388FB15301
311
CC1D3A54DBAADA29E38991B8E0254336F5092D4C038BF39CD76B6FC6A538AEBEA54A4B08617006389FA516557DE4AE8E7E70DE30729138228C5F021CD93F02D4FB0DCD0B504B0304140006080800F58A81573DEE336E64000000790000001B0000006175746F6465736B2D64657369676E2D7061636B6167652E786D6C35CB
311
C10E83200C00D05F21DCA56CA76D41FC96062B120735B69A7DBE268BB7777961F8D5AF396893C2ADB70FE7ADA196782C2DF776D7A97B5933C430F15651E5469C55D70F80A4992A3ADC954792C525AE70A1E4D6AD9816CC044FEFDF01FE3FDE907802504B0304140006080800F58A8157B7C1D4BDF700000096010000370000
311
0033373038333631352D383741432D343030382D394442462D3331453642423534344346312F4173736574446174612F636F72652E786D6C8550CB6EC32010FC156BEFD806A3248E3091D5D65FD0536F0888831283C5A3EAE71762576A4F3DA045B333B3BBC32E5FCBA3FAD43E186707C0750B95B6D22963E70152BCA21354
311
17CEBC73F1170D2A2B163D408181B3D9BBB4EE9074366A5B50EB94DE4111828E50C947FE0C10E44D2FA216296646B8D7AB907731EB1AD71B8FB3948CDAA54665377335DA03A7D374EADBF1054D743A224AFA3734F614A396D0433F1D0F383FD6143167D12C3FD3A5D7226A059CB4A44398A016BFE3E39974674A3E5853989C
311
85E8F3CDFBD0721DF0B16CFD2AA260CDD6FDE39A56F5BF6B3236766477DD140138CE4B3E1B9C3525A55C9E11E65A12E5DF504B0304140006080800F58A8157E8702E37F6000000940100003500000033373038333631352D383741432D343030382D394442462D3331453642423534344346312F536368656D61732F636F72
311
652E786D6C8550CB6EC32010FC156BEFD806A3388E305154D53FD09E7A43401C94182C1E553FBF10BB527BEA012D9A9D99DD1D76FE5A1ED5A7F6C1383B02AE5BA8B4954E193B8F90E2151DA13A73E69D8BBF685059B1E8110A0C9CCDDEA57587A4B351DB825AA7F40E8A1074844A3EF26784206F7A11B5483133C2BD5E85BC
311
8B59D7B8DE789CA564D42E352ABB99ABD11E389DA6E3D05E5ED044A71E5132BCA2CB40316A093D0C537FC0F9B1A688398B66F9992EBD16512BE0A4251DC204B5F81DF727D29D28F9604D617216A2CF37EF43CB75C0DF9E7B06D66CBD3F9E6955FF7B2663634776CF4D1180E3BCE2B3C1595332CAE51960AE254FFE0D504B03
311
04140006080800F58A8157F941DDB903010000D70100002D00000033373038333631352D383741432D343030382D394442462D3331453642423534344346312F636F72652E786D6C9551416E833010FC0ADABB01DB90D0C8382A69F3829E7A73F1865A0936C2A6EAF36B072AB5B7F6B4D678667767561C3FC75BF681B337CE
311
B640F31232B4BDD3C60E2D2CE1421AC88E52CCCE851F34C8AC1AB185048314C3EC9669837A6703DA845AA7710395F71820EB6FF1D182EFDF7154B95A4264F86B3EA9FEAA06CC69BEF2A40866FC96F633AA801A242B1927949192BED0FD81F143C55E459198522CC606CEB66138BEA1CEDC14A22590B528D6DFC85A8CDE3846
311
C71DCDC5E00C92EFCB86EF684D9AFDE3895465D99087A7EE4C387DDE755D5D55A7338D4DA2580A1FE698CCD62465F057F92AFCE56C99F43F9DAD0A0F32ED73B72C4591628EE57E8358D349E417504B0304140006080800F58A8157CA2EBB1C06010000B201000008000000636F72652E786D6C8D50416EC32010FC0ADA3BB6
311
C1288E234C1455F50B7AEA8D1AE2A0D8601988DADF1762576A6F3DA04533B33BB3CBCF9FF3841E7AF5C6D90E485101D27670CAD8B18318AEF808E82CF8EA5CF8250364E5AC3BC830083EAE2E2E3B34381BB4CDA8754AEFA0F45E0740C3943E1DF8E1A66759C81892C2DF8B450E7739EA82149B4EF060E69FD661D532680582
311
56B4C684E28ABC91E644EB13A3EFBCCC4AC163346AB7322AB99BABD12B08D6F7C7B6BABCE09EF50D66B47DC59796115C517668FBE640D2E3656E16DC8735EDBC0F493903F2F2917D79B951827F3837ED82144A2167A72F10152F33F127745CD43F421B1B6ABA0FDC3A3C0892023D89649C2F98CAF3BCA9E66B8B6F504B0102
311
1400140006080800F58A81578F0924F0D7000000200100004F000000000000000000000000000000000033373038333631352D383741432D343030382D394442462D3331453642423534344346312F4173736574446174612F446566696E6974696F6E4974657261746F7250726F706572746965732E62696E504B01021400
311
140006080800F58A8157E42F8E95EE0000003002000045000000000000000000000000004401000033373038333631352D383741432D343030382D394442462D3331453642423534344346312F4173736574446174612F496E7374616E636550726F706572746965732E62696E504B01021400140006080800F58A815728BB
311
58AF800100009E0500003D000000000000000000000000009502000033373038333631352D383741432D343030382D394442462D3331453642423534344346312F536368656D61732F436F6D6D6F6E536368656D612E786D6C504B01021400140006080800F58A81572CCEBD668A040000E01200003E000000000000000000
311
000000007004000033373038333631352D383741432D343030382D394442462D3331453642423534344346312F536368656D61732F47656E65726963536368656D612E786D6C504B01021400140006080800F58A81576180134D5F0100006B03000045000000000000000000000000005609000033373038333631352D3837
311
41432D343030382D394442462D3331453642423534344346312F536368656D61732F52656E6465724D6174657269616C536368656D612E786D6C504B01021400140006080800F58A8157EA0C881451000000570000004700000000000000000000000000180B000033373038333631352D383741432D343030382D39444246
311
2D3331453642423534344346312F4173736574446174612F41737365745461626C654F66436F6E74656E74732E62696E504B01021400140006080800F58A8157F865834058000000680000004500000000000000000000000000CE0B000033373038333631352D383741432D343030382D394442462D333145364242353434
311
4346312F4173736574446174612F53747265616D56657273696F6E5461626C652E696E66504B01021400140006080800F58A81577AB3E336340100009A0400003600000000000000000000000000890C000033373038333631352D383741432D343030382D394442462D3331453642423534344346312F4173736574446174
311
612F636E782E786D6C504B01021400140006080800F58A81576D29AD09080100004F0300003400000000000000000000000000110E000033373038333631352D383741432D343030382D394442462D3331453642423534344346312F536368656D61732F636E782E786D6C504B01021400140006080800F58A8157410A3D58
311
71000000A40000002C000000000000000000000000006B0F000033373038333631352D383741432D343030382D394442462D3331453642423534344346312F636E782E786D6C504B01021400140006080800F58A8157F54EE9D57F000000A3000000070000000000000000000000000026100000636E782E786D6C504B0102
311
1400140006080800F58A815716E99B5DA6000000350100001300000000000000000000000000CA1000005B436F6E74656E745F54797065735D2E786D6C504B01021400140006080800F58A81573DEE336E64000000790000001B00000000000000000000000000A11100006175746F6465736B2D64657369676E2D7061636B
311
6167652E786D6C504B01021400140006080800F58A8157B7C1D4BDF70000009601000037000000000000000000000000003E12000033373038333631352D383741432D343030382D394442462D3331453642423534344346312F4173736574446174612F636F72652E786D6C504B01021400140006080800F58A8157E8702E
311
37F60000009401000035000000000000000000000000008A13000033373038333631352D383741432D343030382D394442462D3331453642423534344346312F536368656D61732F636F72652E786D6C504B01021400140006080800F58A8157F941DDB903010000D70100002D00000000000000000000000000D314000033
311
373038333631352D383741432D343030382D394442462D3331453642423534344346312F636F72652E786D6C504B01021400140006080800F58A8157CA2EBB1C06010000B2010000080000000000000000000000000021160000636F72652E786D6C504B050600000000110011005A0600004D1700000000
310
504B0304140006080800F58A8157000000000000000000000000370000006662782F31353232333531442D433339322D343235312D383133322D4530313433393344354135442F617474726962757465732E62696E504B0304140006080800F58A8157000000000000000000000000350000006662782F3135323233353144
310
2D433339322D343235312D383133322D4530313433393344354135442F76657274696365732E62696E504B0304140006080800F58A8157F270F1330600000004000000360000006662782F31353232333531442D433339322D343235312D383133322D4530313433393344354135442F747269616E676C65732E62696E6366
310
60600000504B0304140006080800F58A815751464CB48900000043010000360000006662782F31353232333531442D433339322D343235312D383133322D4530313433393344354135442F6469726563746F72792E786D6C9D8F310EC2300C45AF127987122606C71DD918B841D4B851A43646695A717C52A85029031293A5
310
A76FBF6FACEF7DA7264E43906840EF0FA03836E242F406C6DCEE4EA06AC22492573150D1F66C60C640E8938CB705396EEDD86DE9B5042FE27813D640EA63BB001C722AF6E55CB61E4863F58284D5D3F53DD715CE1C3985E63FD7F1B7EBDD617E9F1E504B0304140006080800F58A8157E674A55C3D070000201C0000340000
310
006662782F31353232333531442D433339322D343235312D383133322D4530313433393344354135442F6F626A656374732E786D6CDD59596FDB3810FE2B84F665F741978FC42E1C173E92C228D21635BAD837819669871BEA002525CEFEFA1D52A42C2AB2ADF400169B00B14391C3996FEED1E4FD2162E889F08C26F18DE5
310
3B9E85481C265B1AEF6FAC22DFD9230BBD9FA2094F92BCB6CF42318EC88D2596ADE964CF9322554B5BB2C3056BAEDECDFF4259486262A190E12CBBB1B2F08144D8C1459E6C49F6E86C718E9DFDEEE0F84EB9D124BBE7387D685C95624EE21C5885F518A8280E7CF35F10C99D4E5CB1C1D8D6EFB6AD77669B2B053719A57196
310
E3387CC555E3BADE09AE1AD7F5FDC1F2B6371CDBC3C1A06F0FAE7ABE3DBF9B2F6DFFBAEF2DAE168BF1EC766CA1E9649324AC52404AE22D68F1C59AFA13573CA9C45728B4F11D26714C428566DB862D517429C99A9818C0FA52B49A424A596B0BFD8EC29FD8D609148325036D2D9CFEAC5B6FB2F91B40C8BA5829CF88B0F22C
310
E7A06B857DE90FDEC42D570DBDD00C4538279C628618DD70CC4141B0B554904146788B20850466528B9A5E9D5730ECCBBED4C6E5AE604CF8AF35959E16803F923C939CD17F083F725FBF0D7802690B1AE723256CFE920289F1C4958BE5B37E4F3D2C81443B86F7602D20A6D8D4EF35F05A8858B05A5AD38F779BC35AC487F6
310
CB539EA484E7C2F2A4332BBFD31AAC9916185F07504A5C4DDD1D51F90AD07F02E42B5ED00434C7E961701868D9398EB35DC223D00EF290EDC11F0F89AFAFBE4DDCEAF0142123569EC214DCF627616A8861DC5D83743A7902A34F785F09B70E31039BBEA7B1F0733014C412588278BFDB1CACE90A82292CC229CC407AF89DB8
310
E22B828F920EC49B8686DAC26F0745698769FAD951571FC066380D2B5519329EC277F853F09D2DD71FD705DFE190DC2BC75E921D8D690EC9B49D210374C3E5BFAD3E498FFCC0920D66C7D3C6A610AED927226EB4A865ADD482A45E801391864BCDC8957B0ADECE188E4952646ABD2D4E85094B78B079094A176EBDEB4F6D03
310
E565CA005A631924F790D35460624D95B6AA40E8D404050BC35C59E0BED46AB029A234C05152C422D4BE36C5261F106784250255494D1BB6F65A4D764B77BB2283E0D54A726100A9FC59132E2D7C0071AC8D5F4E761C43124DE280420E066769BDC1B8A002EF3CCF1961BB80325644C18E32C8234184D313F43B4A50CF5C8F
310
E4E539E1DB5682A665699FD436240057C06A9074B62A63BED229274F549499329FE96C60EC5075A8351D9C48172253B400AA8D519A79FF7ADE9BF973CFBEBBF6A1625A8E96F67C39F06CBFBFB81DF5C783DE6C366AF2A9A3553DDF812A459963F85FFE50449B1853060F84D8789BBE7B2FB3E78D0BA1D1F5E6FE6CB9B89DD9
310
BDE1D5C81E2CAEC7F60C8A347B3CBCEEDD8E97E381B798B99C6449C14392B93DD70BB449A6F1FE14579ABBD73114CA9ACBC94EEBAB29CCFF3886367382A1C4FF6A10AD62574B41D835888AA3CD108AC34791A28210AABE56F76904D1261F6D71EE8D71D973FA9EFCF1FD71CF1BF746E3ABCAD8CF066A79CF0FC7B9360942E8
310
3B8B3C48521CD2BC3DA13670E918A7DF945B9CBE3F44804EF5B7BAE47C9E51970434C27B12ECB0E8125A02E325095A73D89E2559466392C92EEF55F5D7A0E939504C9939B7C50869164424C7DF637FB26D68D834C46616403F9A8B89C0C5AAA03268D5819CA228BA5F48DC52FE9720C351CACA4EF712067E4F43A07B9C368B
310
134C8B2B9EC0DE029C07DE96C8C1C525EA15FBBA3E68D55A93FAF8BBC99F8047D735BF101E7D45F7D2C919FA63F13382A07235F4FBD75A1197B0D257E5A28F6305749EE14BF04CE8FEA153A1D94D27B592AD2CAA7312411B8BF38277F2D7ABA1F7EA2215171A0E51BBE98DC5A1ECDF740707E8C906EE54795BBB06EA501AC3
310
9CAB9320AFA4683561A90B39D313A3AB37F8F55965D7A9FE70BCFCE51573DDF92239FCB98C0354CB650056D1C7A8A95BAB6EA31ECA9E711E42205DCB4F7B0E1EB125DB636366906B2BD1757D7AA97A5E89801AC1C4168B387B2FBEB0AF18540DDD73E67E288B36B75C5F89C4E6C070FAC887C1B449EBF38775830AAC743EFD
310
4560449E1B14D4EA4274C367487D5B1D7BFE060525D1B7D599E3FF898E422BB0364683697096300A4379B2457B9240F686B143876E8347249359198C570529FD46A0C3E9A772A69AE30DD3A7C3070C8369A67AB12284A12864CC1B4BADA3DF600C2A26917238E53C421BA66298850A4E6F2CB0D89C42B7E56C609C25878792
310
7A635C098E8DE3BDC8F7E5A9EAFFE331810E44A5A35CD59E2EB828C90C6782C23695EF09A0EA2B1F4C27DF2FBA6607E11CBE6E8ABC12E6B870944681A05F0894C2C1D4EF51C17B8082E2BC5CBE23F71890749ACC9FB58392AA9D63BE97E3F51ADEB3E517574CC6579F51CA8ABD50E7B9EED7A0648BAE9B15E5146A0286A1C4
310
4CB1A82117EFDC2F3C81574C11BAA36004E8F7C3E8EA0F7791445112974BEE4CBDA842EB0778EDB475F5C80FDA78CF1FBA720AA0C6FAC10667C4C1DBEC111640B59C8AD96809B161005534AD1980D688D0051C33F6AF9648D546B509493DEC0A78E44C1F8123897739C26DEA1B6A0348F005E04A3E3C7ED10B1397C3107CFA
310
2F504B0304140006080800F58A8157718B48DE3E01000046050000300000006662782F31353232333531442D433339322D343235312D383133322D4530313433393344354135442F636E782E786D6CCD94414EC3301045AF62799F3849914095E34A2C38010BC4CE71A6C134B1237B8CE8EDB18B5340A88845A576678DFF48
310
FFCD7C0DDFBC4F237903E7B5352DADCB8A1230CAF6DA0C2D0DB82DEE28D908EEACC56F324A8C9CA0A5A94C051F9C0D732EF5B095614CD5519B5D2E4A44A7BB80E02951A3F4BEA55EBDC0244B19D0F6E077652F519675E9C0DBE014C47ED413E47EE54022F4543455B32AEAA6A8EAC7FA76DDACD637CD336749297867ED98F5
310
DA20383B1365E3C344331567E95BF0E074D624022ABE9C959D369CC57FC17D746B86ACC3FD9C74F33C6A25318E895985804514819C38FB140BCE12EF0FEA87FBA7C501E9B50385D6ED2F3480FAD4008EC6CA9884FFF11F847F63DBEE35E25E6ADB2761B3ADB3A12E69F531AEBFF71F5324CD305E5FE88FC6CE9FF9784A50AB
310
EB435E7C9D89981D4E5E5C7ABA80E203504B0304140006080800F58A81576BD6F4C57D000000A30000000B0000006662782F636E782E786D6C4D8CD10A832018465F45FE7B5BBF2614A831720F12CB42663A5C8E3DFE7474B1AB0F0EDF3972FCEC9EBC6D7AB9181460D302B1E11E17173605F958690F64D432C578FCDD8084
310
79B70A2A062DB714F3F3448B5DE7EC2BF52E3C4E8882312ED0D0890F8C764C20ED91337A6BB1E30337E22A4C312E5529F3EB95AD79FD05504B0304140006080800F58A8157A6D797065F0000008200000007000000636E782E786D6C4DCB3B0E80201045D1AD90E9FD7516806B51190811670C8A61F982B1B0BAC9C97B72CA
310
7B1037C6D3332918DA1E04D2CAC69353902EDB8C20262D23F3F59B81A079470595414B17391D1F19B4730A5583A7ED43BBE4025D9592775E5ADFFA01504B0304140006080800F58A81574FEB6A7CA0000000F4000000130000005B436F6E74656E745F54797065735D2E786D6C7D8F4B0EC2300C44AF1279DFA6B0400835ED
310
02B8011730C16D239A8F121795DB93D02D6269CFBC19BBED573B8B17C564BC53B0AB1B10E4B47F18372A5878A88E20FAAEBDBD032591BD2E299898C349CAA427B2986A1FC86565F0D122E7318E32A07EE24872DF3407A9BD63725C71C980AEBDD080CBCCE2BAE6F5D69B7110E7CD57AA146008B3D1C8F92C5954F993BB1BF7
310
87F39A89ABC491D09600F9FDA2FB00504B0304140006080800F58A81573DEE336E64000000790000001B0000006175746F6465736B2D64657369676E2D7061636B6167652E786D6C35CBC10E83200C00D05F21DCA56CA76D41FC96062B120735B69A7DBE268BB7777961F8D5AF396893C2ADB70FE7ADA196782C2DF776D7A9
310
7B5933C430F15651E5469C55D70F80A4992A3ADC954792C525AE70A1E4D6AD9816CC044FEFDF01FE3FDE907802504B0304140006080800F58A8157E1D514DFF8000000960100003B0000006662782F31353232333531442D433339322D343235312D383133322D4530313433393344354135442F7265736F75726365732F63
310
6F72652E786D6C8550496EC3300CFC8AC1BB17492E1C07B282A2715ED0536F82CC384262C9D052F4F9956217684F3D9118CE0CC9E1A7AFE5517CA2F3DA9A0148D5408146D9499B798018AEE5018A93E0CEDAF08B0685910B0E9061107C7636AE3BA4AC0968326AEC843B28BDC700857AA46600AF6EB8C84AC69018FE5EAD52
310
DDE58C15A9369EE031EA6997EA29B9E9AB4607E2D0D3F6D2D2AE7C3B7787B2A58C95AF23A1E578668CF5FDF8D275175E67B1E0412F3FDB9543197002411BCACAC46FC83BE98E941D5BFAC1EBCC14DC07977EDE97E6EF4038F4363A859ED7DBF48F6B5CA7FF5DA33681D1DD75537810241DF91C085EE794527946986A4E547C
310
03504B0304140006080800F58A8157036EC025EF000000B1010000310000006662782F31353232333531442D433339322D343235312D383133322D4530313433393344354135442F636F72652E786D6C8D50CB6EC32010FC158B3BD82CB69A4498A8AAFB073DF58680382831583CAA7E7E2176A5F696D3A2D9196676F8F97B
310
B9375F2644EBDD8828E950639CF2DABA7944395DF0013567C183F7E90F0D354E2E6644154682CFC1E775879477C9B88A3AAFCD0ECA184D428DBA97C788A2BA9A4512995361C41B59A5BAC9D9104A369EE0C92EBF52158C4C4623011D304C0177F483BE9C809D7AF8E46D650A9EB3D5BB95D5C5DD5EAC0948D001800D74C26F
310
EC08B88781E2036580DF3BDAB3239B86D761E26D150B1E532837EF9FD4EB9E956FC27F99F3AA9FC86C5D62B01B6E8A583C4B9EC742F0B61658C6A3DD326BD9E207504B0304140006080800F58A81571A0F295252010000DD0200000C0000006662782F636F72652E786D6C8D52CB6EC32010FC158BBB5FE0CA498589AA26F9
310
829E7A2398B828365818AC7C7E173F94FAD0B4B284D1ECEEECCC087AB8776D344A3B28A32B9427198AA416A656BAA99077D77887A203A3D618F7A30D459A77B24201468C36D6F87E8184D14EEA806A53CB05E4C3201D8A440B970A0DE24B763CE1DE41C7704B7A2E6EBC91499ECC7D8C7AAFEA6554D5C0A6AE4A5AC4767B5C
310
9C0B5CC6EFC77217179890F8ED94E3F8742484ECF7A797B23CD3340C33EA54B76E175672276BC47086490CFD59FE9197AF98BC16F893A6A193D1C159F0BC2C0DEE10BB5EEE349DF10D9FEFEBBFF9BCD28EE0856F9E1810CB41DE5460340DF9C06F0A6F9B212C86FC1CBFB4AB851B40A314CED8022AB5F18FD2C85B2F813A8B
310
A68FA67315982782DF78F0139EE71C1014D70D48E30EAE17EFC2F6ADA65EDA7874F7481BDBF1F6216E96F8381F8B3696D671615A63FF33BD5A5DC34CC3C364DF504B0304140006080800F58A81575EFF9CF705010000B201000008000000636F72652E786D6C8D50CD6E8420107E15327754C04677836C9AAEFB043DF54685
310
B564158CE0A67DFBC24A93F6D6D3906FBE3F869F3EE709DDF5EA8DB31D90A202A4EDE094B163075BB8E216D049F0D5B9F08B06C8CA59779060107C5CDDB664687036689B50EB94CEA0F45E0740C3141F1DF8E143CFB2905B880C7F2B1639DCE4A80B52EC3CC183997FA4C3AA65D00A04AD28C384E28ABC92E648D9B1A66FBC
310
4C4CC1B7CDA81C65544C3757A35710ED81D6979A36F8E5DCB4B8A68CE1E73E5AF467C6D8E1D03F35CD8597492CB80F6BFC7336893D03F2F29E7279B9AF047F776ECA84584A2167A72F10152FD3E24FE96D51FF286D6C60341BEE0A0F82C4428F450C4E178CE371DE38D3B5C537504B01021400140006080800F58A81570000
310
000000000000000000003700000000000000000000000000000000006662782F31353232333531442D433339322D343235312D383133322D4530313433393344354135442F617474726962757465732E62696E504B01021400140006080800F58A815700000000000000000000000035000000000000000000000000005500
310
00006662782F31353232333531442D433339322D343235312D383133322D4530313433393344354135442F76657274696365732E62696E504B01021400140006080800F58A8157F270F13306000000040000003600000000000000000000000000A80000006662782F31353232333531442D433339322D343235312D383133
310
322D4530313433393344354135442F747269616E676C65732E62696E504B01021400140006080800F58A815751464CB489000000430100003600000000000000000000000000020100006662782F31353232333531442D433339322D343235312D383133322D4530313433393344354135442F6469726563746F72792E786D
310
6C504B01021400140006080800F58A8157E674A55C3D070000201C00003400000000000000000000000000DF0100006662782F31353232333531442D433339322D343235312D383133322D4530313433393344354135442F6F626A656374732E786D6C504B01021400140006080800F58A8157718B48DE3E01000046050000
310
30000000000000000000000000006E0900006662782F31353232333531442D433339322D343235312D383133322D4530313433393344354135442F636E782E786D6C504B01021400140006080800F58A81576BD6F4C57D000000A30000000B00000000000000000000000000FA0A00006662782F636E782E786D6C504B0102
310
1400140006080800F58A8157A6D797065F000000820000000700000000000000000000000000A00B0000636E782E786D6C504B01021400140006080800F58A81574FEB6A7CA0000000F40000001300000000000000000000000000240C00005B436F6E74656E745F54797065735D2E786D6C504B01021400140006080800F5
310
8A81573DEE336E64000000790000001B00000000000000000000000000F50C00006175746F6465736B2D64657369676E2D7061636B6167652E786D6C504B01021400140006080800F58A8157E1D514DFF8000000960100003B00000000000000000000000000920D00006662782F31353232333531442D433339322D343235
310
312D383133322D4530313433393344354135442F7265736F75726365732F636F72652E786D6C504B01021400140006080800F58A8157036EC025EF000000B10100003100000000000000000000000000E30E00006662782F31353232333531442D433339322D343235312D383133322D4530313433393344354135442F636F
310
72652E786D6C504B01021400140006080800F58A81571A0F295252010000DD0200000C00000000000000000000000000211000006662782F636F72652E786D6C504B01021400140006080800F58A81575EFF9CF705010000B201000008000000000000000000000000009D110000636F72652E786D6C504B0506000000000E
310
000E0080040000C81200000000
  0
XRECORD
  5
8398
102
{ACAD_REACTORS
330
8393
102
}
330
8393
100
AcDbXrecord
280
     1
270
     1
271
     1
  0
XRECORD
  5
8397
102
{ACAD_REACTORS
330
8393
102
}
330
8393
100
AcDbXrecord
280
     1
270
     1
271
     1
  0
XRECORD
  5
8399
102
{ACAD_REACTORS
330
8393
102
}
330
8393
100
AcDbXrecord
280
     1
270
     1
271
     1
  0
XRECORD
  5
8396
102
{ACAD_REACTORS
330
8393
102
}
330
8393
100
AcDbXrecord
280
     1
270
     1
271
     1
  0
XRECORD
  5
872B
102
{ACAD_REACTORS
330
872A
102
}
330
872A
100
AcDbXrecord
280
     1
102
DISPLAYNAME
  1
Imperial24
102
FLAGS
 90
        0
  0
CELLSTYLEMAP
  5
86F2
102
{ACAD_REACTORS
330
86F1
102
}
330
86F1
100
AcDbCellStyleMap
 90
        3
300
CELLSTYLE
  1
TABLEFORMAT_BEGIN
 90
        5
170
     1
 91
        0
 92
    32768
 62
   257
 93
        1
300
CONTENTFORMAT
  1
CONTENTFORMAT_BEGIN
 90
        0
 91
        0
 92
      512
 93
        0
300

 40
0.0
140
1.0
 94
        5
 62
     0
340
83C6
144
0.25
309
CONTENTFORMAT_END
171
     0
 94
        0
309
TABLEFORMAT_END
  1
CELLSTYLE_BEGIN
 90
        1
 91
        1
300
_TITLE
309
CELLSTYLE_END
300
CELLSTYLE
  1
TABLEFORMAT_BEGIN
 90
        5
170
     1
 91
        0
 92
        0
 62
   257
 93
        1
300
CONTENTFORMAT
  1
CONTENTFORMAT_BEGIN
 90
        0
 91
        0
 92
      512
 93
        0
300

 40
0.0
140
1.0
 94
        5
 62
     0
340
83C6
144
0.18
309
CONTENTFORMAT_END
171
     0
 94
        0
309
TABLEFORMAT_END
  1
CELLSTYLE_BEGIN
 90
        2
 91
        1
300
_HEADER
309
CELLSTYLE_END
300
CELLSTYLE
  1
TABLEFORMAT_BEGIN
 90
        5
170
     1
 91
        0
 92
        0
 62
   257
 93
        1
300
CONTENTFORMAT
  1
CONTENTFORMAT_BEGIN
 90
        0
 91
        0
 92
      512
 93
        0
300

 40
0.0
140
1.0
 94
        2
 62
     0
340
83C6
144
0.18
309
CONTENTFORMAT_END
171
     0
 94
        0
309
TABLEFORMAT_END
  1
CELLSTYLE_BEGIN
 90
        3
 91
        2
300
_DATA
309
CELLSTYLE_END
  0
XRECORD
  5
8728
102
{ACAD_REACTORS
330
86F1
102
}
330
86F1
100
AcDbXrecord
280
     1
102
ACAD_ROUNDTRIP_PRE2007_TABLESTYLE
 90
      512
 91
        0
  1

 92
      512
 93
        0
  2

 94
      512
 95
        0
  3

  0
XRECORD
  5
8703
102
{ACAD_REACTORS
330
8702
102
}
330
8702
100
AcDbXrecord
280
     1
102
RTVSPost2010Prop28
280
     1
102
RTVSPost2010PropOp28
 70
     1
102
RTVSPost2010Prop29
280
     1
102
RTVSPost2010PropOp29
 70
     1
102
RTVSPost2010Prop30
280
     0
102
RTVSPost2010PropOp30
 70
     1
102
RTVSPost2010Prop31
280
     0
102
RTVSPost2010PropOp31
 70
     1
102
RTVSPost2010Prop32
280
     0
102
RTVSPost2010PropOp32
 70
     1
102
RTVSPost2010Prop33
280
     0
102
RTVSPost2010PropOp33
 70
     1
102
RTVSPost2010Prop34
280
     0
102
RTVSPost2010PropOp34
 70
     1
102
RTVSPost2010Prop35
280
     0
102
RTVSPost2010PropOp35
 70
     1
102
RTVSPost2010Prop36
280
     0
102
RTVSPost2010PropOp36
 70
     1
102
RTVSPost2010Prop37
 90
       50
102
RTVSPost2010PropOp37
 70
     1
102
RTVSPost2010Prop38
140
0.0
102
RTVSPost2010PropOp38
 70
     1
102
RTVSPost2010Prop39
140
1.0
102
RTVSPost2010PropOp39
 70
     1
102
RTVSPost2010Prop40
 90
        0
102
RTVSPost2010PropOp40
 70
     1
102
RTVSPost2010Prop41ColorIndex
 90
       18
102
RTVSPost2010Prop41ColorRGB
 90
        0
102
RTVSPost2010PropOp41
 70
     1
102
RTVSPost2010Prop42
 90
       50
102
RTVSPost2010PropOp42
 70
     1
102
RTVSPost2010Prop43
 90
        3
102
RTVSPost2010PropOp43
 70
     1
102
RTVSPost2010Prop44ColorIndex
 90
        5
102
RTVSPost2010Prop44ColorRGB
 90
      255
102
RTVSPost2010PropOp44
 70
     1
102
RTVSPost2010Prop45
280
     0
102
RTVSPost2010PropOp45
 70
     1
102
RTVSPost2010Prop46
 90
       50
102
RTVSPost2010PropOp46
 70
     1
102
RTVSPost2010Prop47
 90
       50
102
RTVSPost2010PropOp47
 70
     1
102
RTVSPost2010Prop48
 90
       50
102
RTVSPost2010PropOp48
 70
     1
102
RTVSPost2010Prop49
280
     0
102
RTVSPost2010PropOp49
 70
     1
102
RTVSPost2010Prop50
 90
       50
102
RTVSPost2010PropOp50
 70
     1
102
RTVSPost2010Prop51ColorIndex
 90
      256
102
RTVSPost2010Prop51ColorRGB
 90
-16777216
102
RTVSPost2010PropOp51
 70
     0
102
RTVSPost2010Prop52
140
1.0
102
RTVSPost2010PropOp52
 70
     0
102
RTVSPost2010Prop53
 90
        2
102
RTVSPost2010PropOp53
 70
     1
102
RTVSPost2010Prop54
  1
strokes_ogs.tif
102
RTVSPost2010PropOp54
 70
     1
102
RTVSPost2010Prop55
280
     0
102
RTVSPost2010PropOp55
 70
     1
102
RTVSPost2010Prop56
140
1.0
102
RTVSPost2010PropOp56
 70
     1
102
RTVSPost2010Prop57
140
1.0
102
RTVSPost2010PropOp57
 70
     1
102
RTVSPropertyOp0
 70
     1
102
RTVSPropertyOp1
 70
     1
102
RTVSPropertyOp2
 70
     1
102
RTVSPropertyOp3
 70
     1
102
RTVSPropertyOp4
 70
     1
102
RTVSPropertyOp5
 70
     1
102
RTVSPropertyOp6
 70
     1
102
RTVSPropertyOp7
 70
     1
102
RTVSPropertyOp8
 70
     1
102
RTVSPropertyOp9
 70
     1
102
RTVSPropertyOp10
 70
     1
102
RTVSPropertyOp11
 70
     1
102
RTVSPropertyOp12
 70
     1
102
RTVSPropertyOp13
 70
     1
102
RTVSPropertyOp14
 70
     1
102
RTVSPropertyOp15
 70
     1
102
RTVSPropertyOp16
 70
     1
102
RTVSPropertyOp17
 70
     1
102
RTVSPropertyOp18
 70
     1
102
RTVSPropertyOp19
 70
     1
102
RTVSPropertyOp20
 70
     1
102
RTVSPropertyOp21
 70
     1
102
RTVSPropertyOp22
 70
     1
102
RTVSPropertyOp23
 70
     1
102
RTVSPropertyOp24
 70
     1
102
RTVSPropertyOp25
 70
     1
102
RTVSPropertyOp26
 70
     1
102
RTVSPropertyOp27
 70
     1
102
RTVSPropertyOp28
 70
     1
102
RTVSPropertyOp29
 70
     1
102
RTVSPropertyOp30
 70
     1
102
RTVSPropertyOp31
 70
     1
102
RTVSPropertyOp32
 70
     1
102
RTVSPropertyOp33
 70
     1
102
RTVSPropertyOp34
 70
     1
102
RTVSPropertyOp35
 70
     1
102
RTVSPropertyOp36
 70
     1
102
RTVSPropertyOp37
 70
     1
102
RTVSPropertyOp38
 70
     1
102
RTVSPropertyOp39
 70
     1
102
RTVSPropertyOp40
 70
     1
102
RTVSPropertyOp41
 70
     1
102
RTVSPropertyOp42
 70
     1
102
RTVSPropertyOp43
 70
     1
102
RTVSPropertyOp44
 70
     1
102
RTVSPropertyOp45
 70
     1
102
RTVSPropertyOp46
 70
     1
102
RTVSPropertyOp47
 70
     1
102
RTVSPropertyOp48
 70
     1
102
RTVSPropertyOp49
 70
     1
102
RTVSPropertyOp50
 70
     1
102
RTVSPropertyOp51
 70
     0
102
RTVSPropertyOp52
 70
     0
102
RTVSPropertyOp53
 70
     1
102
RTVSPropertyOp54
 70
     1
102
RTVSPropertyOp55
 70
     1
102
RTVSPropertyOp56
 70
     1
102
RTVSPropertyOp57
 70
     1
102
RTVSPropertyOp58
 70
     1
102
RTVSPropertyOp59
 70
     1
102
RTVSPropertyOp60
 70
     1
102
RTVSPropertyOp61
 70
     1
102
RTVSPropertyOp62
 70
     1
  0
XRECORD
  5
8701
102
{ACAD_REACTORS
330
8700
102
}
330
8700
100
AcDbXrecord
280
     1
102
RTVSPost2010Prop28
280
     0
102
RTVSPost2010PropOp28
 70
     1
102
RTVSPost2010Prop29
280
     1
102
RTVSPost2010PropOp29
 70
     1
102
RTVSPost2010Prop30
280
     1
102
RTVSPost2010PropOp30
 70
     1
102
RTVSPost2010Prop31
280
     0
102
RTVSPost2010PropOp31
 70
     1
102
RTVSPost2010Prop32
280
     0
102
RTVSPost2010PropOp32
 70
     1
102
RTVSPost2010Prop33
280
     0
102
RTVSPost2010PropOp33
 70
     1
102
RTVSPost2010Prop34
280
     0
102
RTVSPost2010PropOp34
 70
     1
102
RTVSPost2010Prop35
280
     0
102
RTVSPost2010PropOp35
 70
     1
102
RTVSPost2010Prop36
280
     0
102
RTVSPost2010PropOp36
 70
     1
102
RTVSPost2010Prop37
 90
       50
102
RTVSPost2010PropOp37
 70
     1
102
RTVSPost2010Prop38
140
0.0
102
RTVSPost2010PropOp38
 70
     1
102
RTVSPost2010Prop39
140
1.0
102
RTVSPost2010PropOp39
 70
     1
102
RTVSPost2010Prop40
 90
        0
102
RTVSPost2010PropOp40
 70
     1
102
RTVSPost2010Prop41ColorIndex
 90
       18
102
RTVSPost2010Prop41ColorRGB
 90
        0
102
RTVSPost2010PropOp41
 70
     1
102
RTVSPost2010Prop42
 90
       50
102
RTVSPost2010PropOp42
 70
     1
102
RTVSPost2010Prop43
 90
        3
102
RTVSPost2010PropOp43
 70
     1
102
RTVSPost2010Prop44ColorIndex
 90
        5
102
RTVSPost2010Prop44ColorRGB
 90
      255
102
RTVSPost2010PropOp44
 70
     1
102
RTVSPost2010Prop45
280
     0
102
RTVSPost2010PropOp45
 70
     1
102
RTVSPost2010Prop46
 90
       50
102
RTVSPost2010PropOp46
 70
     1
102
RTVSPost2010Prop47
 90
       50
102
RTVSPost2010PropOp47
 70
     1
102
RTVSPost2010Prop48
 90
       50
102
RTVSPost2010PropOp48
 70
     1
102
RTVSPost2010Prop49
280
     0
102
RTVSPost2010PropOp49
 70
     1
102
RTVSPost2010Prop50
 90
       50
102
RTVSPost2010PropOp50
 70
     1
102
RTVSPost2010Prop51ColorIndex
 90
      256
102
RTVSPost2010Prop51ColorRGB
 90
-16777216
102
RTVSPost2010PropOp51
 70
     0
102
RTVSPost2010Prop52
140
1.0
102
RTVSPost2010PropOp52
 70
     0
102
RTVSPost2010Prop53
 90
        2
102
RTVSPost2010PropOp53
 70
     1
102
RTVSPost2010Prop54
  1
strokes_ogs.tif
102
RTVSPost2010PropOp54
 70
     1
102
RTVSPost2010Prop55
280
     0
102
RTVSPost2010PropOp55
 70
     1
102
RTVSPost2010Prop56
140
1.0
102
RTVSPost2010PropOp56
 70
     1
102
RTVSPost2010Prop57
140
1.0
102
RTVSPost2010PropOp57
 70
     1
102
RTVSPropertyOp0
 70
     1
102
RTVSPropertyOp1
 70
     1
102
RTVSPropertyOp2
 70
     1
102
RTVSPropertyOp3
 70
     1
102
RTVSPropertyOp4
 70
     1
102
RTVSPropertyOp5
 70
     1
102
RTVSPropertyOp6
 70
     1
102
RTVSPropertyOp7
 70
     1
102
RTVSPropertyOp8
 70
     1
102
RTVSPropertyOp9
 70
     1
102
RTVSPropertyOp10
 70
     1
102
RTVSPropertyOp11
 70
     1
102
RTVSPropertyOp12
 70
     1
102
RTVSPropertyOp13
 70
     1
102
RTVSPropertyOp14
 70
     1
102
RTVSPropertyOp15
 70
     1
102
RTVSPropertyOp16
 70
     1
102
RTVSPropertyOp17
 70
     1
102
RTVSPropertyOp18
 70
     1
102
RTVSPropertyOp19
 70
     1
102
RTVSPropertyOp20
 70
     1
102
RTVSPropertyOp21
 70
     1
102
RTVSPropertyOp22
 70
     1
102
RTVSPropertyOp23
 70
     1
102
RTVSPropertyOp24
 70
     1
102
RTVSPropertyOp25
 70
     1
102
RTVSPropertyOp26
 70
     1
102
RTVSPropertyOp27
 70
     1
102
RTVSPropertyOp28
 70
     1
102
RTVSPropertyOp29
 70
     1
102
RTVSPropertyOp30
 70
     1
102
RTVSPropertyOp31
 70
     1
102
RTVSPropertyOp32
 70
     1
102
RTVSPropertyOp33
 70
     1
102
RTVSPropertyOp34
 70
     1
102
RTVSPropertyOp35
 70
     1
102
RTVSPropertyOp36
 70
     1
102
RTVSPropertyOp37
 70
     1
102
RTVSPropertyOp38
 70
     1
102
RTVSPropertyOp39
 70
     1
102
RTVSPropertyOp40
 70
     1
102
RTVSPropertyOp41
 70
     1
102
RTVSPropertyOp42
 70
     1
102
RTVSPropertyOp43
 70
     1
102
RTVSPropertyOp44
 70
     1
102
RTVSPropertyOp45
 70
     1
102
RTVSPropertyOp46
 70
     1
102
RTVSPropertyOp47
 70
     1
102
RTVSPropertyOp48
 70
     1
102
RTVSPropertyOp49
 70
     1
102
RTVSPropertyOp50
 70
     1
102
RTVSPropertyOp51
 70
     0
102
RTVSPropertyOp52
 70
     0
102
RTVSPropertyOp53
 70
     1
102
RTVSPropertyOp54
 70
     1
102
RTVSPropertyOp55
 70
     1
102
RTVSPropertyOp56
 70
     1
102
RTVSPropertyOp57
 70
     1
102
RTVSPropertyOp58
 70
     1
102
RTVSPropertyOp59
 70
     1
102
RTVSPropertyOp60
 70
     1
102
RTVSPropertyOp61
 70
     1
102
RTVSPropertyOp62
 70
     1
  0
XRECORD
  5
870F
102
{ACAD_REACTORS
330
870E
102
}
330
870E
100
AcDbXrecord
280
     1
102
RTVSPost2010Prop28
280
     0
102
RTVSPost2010PropOp28
 70
     1
102
RTVSPost2010Prop29
280
     1
102
RTVSPost2010PropOp29
 70
     1
102
RTVSPost2010Prop30
280
     1
102
RTVSPost2010PropOp30
 70
     1
102
RTVSPost2010Prop31
280
     0
102
RTVSPost2010PropOp31
 70
     1
102
RTVSPost2010Prop32
280
     0
102
RTVSPost2010PropOp32
 70
     1
102
RTVSPost2010Prop33
280
     0
102
RTVSPost2010PropOp33
 70
     1
102
RTVSPost2010Prop34
280
     0
102
RTVSPost2010PropOp34
 70
     1
102
RTVSPost2010Prop35
280
     0
102
RTVSPost2010PropOp35
 70
     1
102
RTVSPost2010Prop36
280
     0
102
RTVSPost2010PropOp36
 70
     1
102
RTVSPost2010Prop37
 90
       50
102
RTVSPost2010PropOp37
 70
     1
102
RTVSPost2010Prop38
140
0.0
102
RTVSPost2010PropOp38
 70
     1
102
RTVSPost2010Prop39
140
1.0
102
RTVSPost2010PropOp39
 70
     1
102
RTVSPost2010Prop40
 90
        0
102
RTVSPost2010PropOp40
 70
     1
102
RTVSPost2010Prop41ColorIndex
 90
       18
102
RTVSPost2010Prop41ColorRGB
 90
        0
102
RTVSPost2010PropOp41
 70
     1
102
RTVSPost2010Prop42
 90
       50
102
RTVSPost2010PropOp42
 70
     1
102
RTVSPost2010Prop43
 90
        3
102
RTVSPost2010PropOp43
 70
     1
102
RTVSPost2010Prop44ColorIndex
 90
        5
102
RTVSPost2010Prop44ColorRGB
 90
      255
102
RTVSPost2010PropOp44
 70
     1
102
RTVSPost2010Prop45
280
     0
102
RTVSPost2010PropOp45
 70
     1
102
RTVSPost2010Prop46
 90
       50
102
RTVSPost2010PropOp46
 70
     1
102
RTVSPost2010Prop47
 90
       50
102
RTVSPost2010PropOp47
 70
     1
102
RTVSPost2010Prop48
 90
       50
102
RTVSPost2010PropOp48
 70
     1
102
RTVSPost2010Prop49
280
     0
102
RTVSPost2010PropOp49
 70
     1
102
RTVSPost2010Prop50
 90
       50
102
RTVSPost2010PropOp50
 70
     1
102
RTVSPost2010Prop51ColorIndex
 90
      256
102
RTVSPost2010Prop51ColorRGB
 90
-16777216
102
RTVSPost2010PropOp51
 70
     0
102
RTVSPost2010Prop52
140
1.0
102
RTVSPost2010PropOp52
 70
     0
102
RTVSPost2010Prop53
 90
        2
102
RTVSPost2010PropOp53
 70
     1
102
RTVSPost2010Prop54
  1
strokes_ogs.tif
102
RTVSPost2010PropOp54
 70
     1
102
RTVSPost2010Prop55
280
     0
102
RTVSPost2010PropOp55
 70
     1
102
RTVSPost2010Prop56
140
1.0
102
RTVSPost2010PropOp56
 70
     1
102
RTVSPost2010Prop57
140
1.0
102
RTVSPost2010PropOp57
 70
     1
102
RTVSPropertyOp0
 70
     1
102
RTVSPropertyOp1
 70
     1
102
RTVSPropertyOp2
 70
     1
102
RTVSPropertyOp3
 70
     1
102
RTVSPropertyOp4
 70
     1
102
RTVSPropertyOp5
 70
     1
102
RTVSPropertyOp6
 70
     1
102
RTVSPropertyOp7
 70
     1
102
RTVSPropertyOp8
 70
     1
102
RTVSPropertyOp9
 70
     1
102
RTVSPropertyOp10
 70
     1
102
RTVSPropertyOp11
 70
     1
102
RTVSPropertyOp12
 70
     1
102
RTVSPropertyOp13
 70
     1
102
RTVSPropertyOp14
 70
     1
102
RTVSPropertyOp15
 70
     1
102
RTVSPropertyOp16
 70
     1
102
RTVSPropertyOp17
 70
     1
102
RTVSPropertyOp18
 70
     1
102
RTVSPropertyOp19
 70
     1
102
RTVSPropertyOp20
 70
     1
102
RTVSPropertyOp21
 70
     1
102
RTVSPropertyOp22
 70
     1
102
RTVSPropertyOp23
 70
     1
102
RTVSPropertyOp24
 70
     1
102
RTVSPropertyOp25
 70
     1
102
RTVSPropertyOp26
 70
     1
102
RTVSPropertyOp27
 70
     1
102
RTVSPropertyOp28
 70
     1
102
RTVSPropertyOp29
 70
     1
102
RTVSPropertyOp30
 70
     1
102
RTVSPropertyOp31
 70
     1
102
RTVSPropertyOp32
 70
     1
102
RTVSPropertyOp33
 70
     1
102
RTVSPropertyOp34
 70
     1
102
RTVSPropertyOp35
 70
     1
102
RTVSPropertyOp36
 70
     1
102
RTVSPropertyOp37
 70
     1
102
RTVSPropertyOp38
 70
     1
102
RTVSPropertyOp39
 70
     1
102
RTVSPropertyOp40
 70
     1
102
RTVSPropertyOp41
 70
     1
102
RTVSPropertyOp42
 70
     1
102
RTVSPropertyOp43
 70
     1
102
RTVSPropertyOp44
 70
     1
102
RTVSPropertyOp45
 70
     1
102
RTVSPropertyOp46
 70
     1
102
RTVSPropertyOp47
 70
     1
102
RTVSPropertyOp48
 70
     1
102
RTVSPropertyOp49
 70
     1
102
RTVSPropertyOp50
 70
     1
102
RTVSPropertyOp51
 70
     0
102
RTVSPropertyOp52
 70
     0
102
RTVSPropertyOp53
 70
     1
102
RTVSPropertyOp54
 70
     1
102
RTVSPropertyOp55
 70
     1
102
RTVSPropertyOp56
 70
     1
102
RTVSPropertyOp57
 70
     1
102
RTVSPropertyOp58
 70
     1
102
RTVSPropertyOp59
 70
     1
102
RTVSPropertyOp60
 70
     1
102
RTVSPropertyOp61
 70
     1
102
RTVSPropertyOp62
 70
     1
  0
XRECORD
  5
8717
102
{ACAD_REACTORS
330
8716
102
}
330
8716
100
AcDbXrecord
280
     1
102
RTVSPost2010Prop28
280
     0
102
RTVSPost2010PropOp28
 70
     1
102
RTVSPost2010Prop29
280
     1
102
RTVSPost2010PropOp29
 70
     1
102
RTVSPost2010Prop30
280
     1
102
RTVSPost2010PropOp30
 70
     1
102
RTVSPost2010Prop31
280
     0
102
RTVSPost2010PropOp31
 70
     1
102
RTVSPost2010Prop32
280
     0
102
RTVSPost2010PropOp32
 70
     1
102
RTVSPost2010Prop33
280
     0
102
RTVSPost2010PropOp33
 70
     1
102
RTVSPost2010Prop34
280
     0
102
RTVSPost2010PropOp34
 70
     1
102
RTVSPost2010Prop35
280
     0
102
RTVSPost2010PropOp35
 70
     1
102
RTVSPost2010Prop36
280
     0
102
RTVSPost2010PropOp36
 70
     1
102
RTVSPost2010Prop37
 90
       50
102
RTVSPost2010PropOp37
 70
     1
102
RTVSPost2010Prop38
140
0.0
102
RTVSPost2010PropOp38
 70
     1
102
RTVSPost2010Prop39
140
1.0
102
RTVSPost2010PropOp39
 70
     1
102
RTVSPost2010Prop40
 90
        0
102
RTVSPost2010PropOp40
 70
     1
102
RTVSPost2010Prop41ColorIndex
 90
       18
102
RTVSPost2010Prop41ColorRGB
 90
        0
102
RTVSPost2010PropOp41
 70
     1
102
RTVSPost2010Prop42
 90
       50
102
RTVSPost2010PropOp42
 70
     1
102
RTVSPost2010Prop43
 90
        3
102
RTVSPost2010PropOp43
 70
     1
102
RTVSPost2010Prop44ColorIndex
 90
        5
102
RTVSPost2010Prop44ColorRGB
 90
      255
102
RTVSPost2010PropOp44
 70
     1
102
RTVSPost2010Prop45
280
     0
102
RTVSPost2010PropOp45
 70
     1
102
RTVSPost2010Prop46
 90
       50
102
RTVSPost2010PropOp46
 70
     1
102
RTVSPost2010Prop47
 90
       50
102
RTVSPost2010PropOp47
 70
     1
102
RTVSPost2010Prop48
 90
       50
102
RTVSPost2010PropOp48
 70
     1
102
RTVSPost2010Prop49
280
     0
102
RTVSPost2010PropOp49
 70
     1
102
RTVSPost2010Prop50
 90
       50
102
RTVSPost2010PropOp50
 70
     1
102
RTVSPost2010Prop51ColorIndex
 90
      256
102
RTVSPost2010Prop51ColorRGB
 90
-16777216
102
RTVSPost2010PropOp51
 70
     0
102
RTVSPost2010Prop52
140
1.0
102
RTVSPost2010PropOp52
 70
     0
102
RTVSPost2010Prop53
 90
        2
102
RTVSPost2010PropOp53
 70
     1
102
RTVSPost2010Prop54
  1
strokes_ogs.tif
102
RTVSPost2010PropOp54
 70
     1
102
RTVSPost2010Prop55
280
     0
102
RTVSPost2010PropOp55
 70
     1
102
RTVSPost2010Prop56
140
1.0
102
RTVSPost2010PropOp56
 70
     1
102
RTVSPost2010Prop57
140
1.0
102
RTVSPost2010PropOp57
 70
     1
102
RTVSPropertyOp0
 70
     1
102
RTVSPropertyOp1
 70
     1
102
RTVSPropertyOp2
 70
     1
102
RTVSPropertyOp3
 70
     1
102
RTVSPropertyOp4
 70
     1
102
RTVSPropertyOp5
 70
     1
102
RTVSPropertyOp6
 70
     1
102
RTVSPropertyOp7
 70
     1
102
RTVSPropertyOp8
 70
     1
102
RTVSPropertyOp9
 70
     1
102
RTVSPropertyOp10
 70
     1
102
RTVSPropertyOp11
 70
     1
102
RTVSPropertyOp12
 70
     1
102
RTVSPropertyOp13
 70
     1
102
RTVSPropertyOp14
 70
     1
102
RTVSPropertyOp15
 70
     1
102
RTVSPropertyOp16
 70
     1
102
RTVSPropertyOp17
 70
     1
102
RTVSPropertyOp18
 70
     1
102
RTVSPropertyOp19
 70
     1
102
RTVSPropertyOp20
 70
     1
102
RTVSPropertyOp21
 70
     1
102
RTVSPropertyOp22
 70
     1
102
RTVSPropertyOp23
 70
     1
102
RTVSPropertyOp24
 70
     1
102
RTVSPropertyOp25
 70
     1
102
RTVSPropertyOp26
 70
     1
102
RTVSPropertyOp27
 70
     1
102
RTVSPropertyOp28
 70
     1
102
RTVSPropertyOp29
 70
     1
102
RTVSPropertyOp30
 70
     1
102
RTVSPropertyOp31
 70
     1
102
RTVSPropertyOp32
 70
     1
102
RTVSPropertyOp33
 70
     1
102
RTVSPropertyOp34
 70
     1
102
RTVSPropertyOp35
 70
     1
102
RTVSPropertyOp36
 70
     1
102
RTVSPropertyOp37
 70
     1
102
RTVSPropertyOp38
 70
     1
102
RTVSPropertyOp39
 70
     1
102
RTVSPropertyOp40
 70
     1
102
RTVSPropertyOp41
 70
     1
102
RTVSPropertyOp42
 70
     1
102
RTVSPropertyOp43
 70
     1
102
RTVSPropertyOp44
 70
     1
102
RTVSPropertyOp45
 70
     1
102
RTVSPropertyOp46
 70
     1
102
RTVSPropertyOp47
 70
     1
102
RTVSPropertyOp48
 70
     1
102
RTVSPropertyOp49
 70
     1
102
RTVSPropertyOp50
 70
     1
102
RTVSPropertyOp51
 70
     0
102
RTVSPropertyOp52
 70
     0
102
RTVSPropertyOp53
 70
     1
102
RTVSPropertyOp54
 70
     1
102
RTVSPropertyOp55
 70
     1
102
RTVSPropertyOp56
 70
     1
102
RTVSPropertyOp57
 70
     1
102
RTVSPropertyOp58
 70
     1
102
RTVSPropertyOp59
 70
     1
102
RTVSPropertyOp60
 70
     1
102
RTVSPropertyOp61
 70
     1
102
RTVSPropertyOp62
 70
     1
  0
XRECORD
  5
8709
102
{ACAD_REACTORS
330
8708
102
}
330
8708
100
AcDbXrecord
280
     1
102
RTVSPost2010Prop28
280
     0
102
RTVSPost2010PropOp28
 70
     1
102
RTVSPost2010Prop29
280
     1
102
RTVSPost2010PropOp29
 70
     1
102
RTVSPost2010Prop30
280
     1
102
RTVSPost2010PropOp30
 70
     1
102
RTVSPost2010Prop31
280
     0
102
RTVSPost2010PropOp31
 70
     1
102
RTVSPost2010Prop32
280
     0
102
RTVSPost2010PropOp32
 70
     1
102
RTVSPost2010Prop33
280
     0
102
RTVSPost2010PropOp33
 70
     1
102
RTVSPost2010Prop34
280
     0
102
RTVSPost2010PropOp34
 70
     1
102
RTVSPost2010Prop35
280
     0
102
RTVSPost2010PropOp35
 70
     1
102
RTVSPost2010Prop36
280
     0
102
RTVSPost2010PropOp36
 70
     1
102
RTVSPost2010Prop37
 90
       50
102
RTVSPost2010PropOp37
 70
     1
102
RTVSPost2010Prop38
140
0.0
102
RTVSPost2010PropOp38
 70
     1
102
RTVSPost2010Prop39
140
1.0
102
RTVSPost2010PropOp39
 70
     1
102
RTVSPost2010Prop40
 90
        0
102
RTVSPost2010PropOp40
 70
     1
102
RTVSPost2010Prop41ColorIndex
 90
       18
102
RTVSPost2010Prop41ColorRGB
 90
        0
102
RTVSPost2010PropOp41
 70
     1
102
RTVSPost2010Prop42
 90
       50
102
RTVSPost2010PropOp42
 70
     1
102
RTVSPost2010Prop43
 90
        3
102
RTVSPost2010PropOp43
 70
     1
102
RTVSPost2010Prop44ColorIndex
 90
        5
102
RTVSPost2010Prop44ColorRGB
 90
      255
102
RTVSPost2010PropOp44
 70
     1
102
RTVSPost2010Prop45
280
     0
102
RTVSPost2010PropOp45
 70
     1
102
RTVSPost2010Prop46
 90
       50
102
RTVSPost2010PropOp46
 70
     1
102
RTVSPost2010Prop47
 90
       50
102
RTVSPost2010PropOp47
 70
     1
102
RTVSPost2010Prop48
 90
       50
102
RTVSPost2010PropOp48
 70
     1
102
RTVSPost2010Prop49
280
     0
102
RTVSPost2010PropOp49
 70
     1
102
RTVSPost2010Prop50
 90
       50
102
RTVSPost2010PropOp50
 70
     1
102
RTVSPost2010Prop51ColorIndex
 90
      256
102
RTVSPost2010Prop51ColorRGB
 90
-16777216
102
RTVSPost2010PropOp51
 70
     0
102
RTVSPost2010Prop52
140
1.0
102
RTVSPost2010PropOp52
 70
     0
102
RTVSPost2010Prop53
 90
        2
102
RTVSPost2010PropOp53
 70
     1
102
RTVSPost2010Prop54
  1
strokes_ogs.tif
102
RTVSPost2010PropOp54
 70
     1
102
RTVSPost2010Prop55
280
     0
102
RTVSPost2010PropOp55
 70
     1
102
RTVSPost2010Prop56
140
1.0
102
RTVSPost2010PropOp56
 70
     1
102
RTVSPost2010Prop57
140
1.0
102
RTVSPost2010PropOp57
 70
     1
102
RTVSPropertyOp0
 70
     1
102
RTVSPropertyOp1
 70
     1
102
RTVSPropertyOp2
 70
     1
102
RTVSPropertyOp3
 70
     1
102
RTVSPropertyOp4
 70
     1
102
RTVSPropertyOp5
 70
     1
102
RTVSPropertyOp6
 70
     1
102
RTVSPropertyOp7
 70
     1
102
RTVSPropertyOp8
 70
     1
102
RTVSPropertyOp9
 70
     1
102
RTVSPropertyOp10
 70
     1
102
RTVSPropertyOp11
 70
     1
102
RTVSPropertyOp12
 70
     1
102
RTVSPropertyOp13
 70
     1
102
RTVSPropertyOp14
 70
     1
102
RTVSPropertyOp15
 70
     1
102
RTVSPropertyOp16
 70
     1
102
RTVSPropertyOp17
 70
     1
102
RTVSPropertyOp18
 70
     1
102
RTVSPropertyOp19
 70
     1
102
RTVSPropertyOp20
 70
     1
102
RTVSPropertyOp21
 70
     1
102
RTVSPropertyOp22
 70
     1
102
RTVSPropertyOp23
 70
     1
102
RTVSPropertyOp24
 70
     1
102
RTVSPropertyOp25
 70
     1
102
RTVSPropertyOp26
 70
     1
102
RTVSPropertyOp27
 70
     1
102
RTVSPropertyOp28
 70
     1
102
RTVSPropertyOp29
 70
     1
102
RTVSPropertyOp30
 70
     1
102
RTVSPropertyOp31
 70
     1
102
RTVSPropertyOp32
 70
     1
102
RTVSPropertyOp33
 70
     1
102
RTVSPropertyOp34
 70
     1
102
RTVSPropertyOp35
 70
     1
102
RTVSPropertyOp36
 70
     1
102
RTVSPropertyOp37
 70
     1
102
RTVSPropertyOp38
 70
     1
102
RTVSPropertyOp39
 70
     1
102
RTVSPropertyOp40
 70
     1
102
RTVSPropertyOp41
 70
     1
102
RTVSPropertyOp42
 70
     1
102
RTVSPropertyOp43
 70
     1
102
RTVSPropertyOp44
 70
     1
102
RTVSPropertyOp45
 70
     1
102
RTVSPropertyOp46
 70
     1
102
RTVSPropertyOp47
 70
     1
102
RTVSPropertyOp48
 70
     1
102
RTVSPropertyOp49
 70
     1
102
RTVSPropertyOp50
 70
     1
102
RTVSPropertyOp51
 70
     0
102
RTVSPropertyOp52
 70
     0
102
RTVSPropertyOp53
 70
     1
102
RTVSPropertyOp54
 70
     1
102
RTVSPropertyOp55
 70
     1
102
RTVSPropertyOp56
 70
     1
102
RTVSPropertyOp57
 70
     1
102
RTVSPropertyOp58
 70
     1
102
RTVSPropertyOp59
 70
     1
102
RTVSPropertyOp60
 70
     1
102
RTVSPropertyOp61
 70
     1
102
RTVSPropertyOp62
 70
     1
  0
XRECORD
  5
870D
102
{ACAD_REACTORS
330
870C
102
}
330
870C
100
AcDbXrecord
280
     1
102
RTVSPost2010Prop28
280
     0
102
RTVSPost2010PropOp28
 70
     1
102
RTVSPost2010Prop29
280
     1
102
RTVSPost2010PropOp29
 70
     1
102
RTVSPost2010Prop30
280
     1
102
RTVSPost2010PropOp30
 70
     1
102
RTVSPost2010Prop31
280
     0
102
RTVSPost2010PropOp31
 70
     1
102
RTVSPost2010Prop32
280
     0
102
RTVSPost2010PropOp32
 70
     1
102
RTVSPost2010Prop33
280
     0
102
RTVSPost2010PropOp33
 70
     1
102
RTVSPost2010Prop34
280
     0
102
RTVSPost2010PropOp34
 70
     1
102
RTVSPost2010Prop35
280
     0
102
RTVSPost2010PropOp35
 70
     1
102
RTVSPost2010Prop36
280
     0
102
RTVSPost2010PropOp36
 70
     1
102
RTVSPost2010Prop37
 90
       50
102
RTVSPost2010PropOp37
 70
     1
102
RTVSPost2010Prop38
140
0.0
102
RTVSPost2010PropOp38
 70
     1
102
RTVSPost2010Prop39
140
1.0
102
RTVSPost2010PropOp39
 70
     1
102
RTVSPost2010Prop40
 90
        0
102
RTVSPost2010PropOp40
 70
     1
102
RTVSPost2010Prop41ColorIndex
 90
       18
102
RTVSPost2010Prop41ColorRGB
 90
        0
102
RTVSPost2010PropOp41
 70
     1
102
RTVSPost2010Prop42
 90
       50
102
RTVSPost2010PropOp42
 70
     1
102
RTVSPost2010Prop43
 90
        3
102
RTVSPost2010PropOp43
 70
     1
102
RTVSPost2010Prop44ColorIndex
 90
        5
102
RTVSPost2010Prop44ColorRGB
 90
      255
102
RTVSPost2010PropOp44
 70
     1
102
RTVSPost2010Prop45
280
     0
102
RTVSPost2010PropOp45
 70
     1
102
RTVSPost2010Prop46
 90
       50
102
RTVSPost2010PropOp46
 70
     1
102
RTVSPost2010Prop47
 90
       50
102
RTVSPost2010PropOp47
 70
     1
102
RTVSPost2010Prop48
 90
       50
102
RTVSPost2010PropOp48
 70
     1
102
RTVSPost2010Prop49
280
     0
102
RTVSPost2010PropOp49
 70
     1
102
RTVSPost2010Prop50
 90
       50
102
RTVSPost2010PropOp50
 70
     1
102
RTVSPost2010Prop51ColorIndex
 90
      256
102
RTVSPost2010Prop51ColorRGB
 90
-16777216
102
RTVSPost2010PropOp51
 70
     0
102
RTVSPost2010Prop52
140
1.0
102
RTVSPost2010PropOp52
 70
     0
102
RTVSPost2010Prop53
 90
        2
102
RTVSPost2010PropOp53
 70
     1
102
RTVSPost2010Prop54
  1
strokes_ogs.tif
102
RTVSPost2010PropOp54
 70
     1
102
RTVSPost2010Prop55
280
     0
102
RTVSPost2010PropOp55
 70
     1
102
RTVSPost2010Prop56
140
1.0
102
RTVSPost2010PropOp56
 70
     1
102
RTVSPost2010Prop57
140
1.0
102
RTVSPost2010PropOp57
 70
     1
102
RTVSPropertyOp0
 70
     1
102
RTVSPropertyOp1
 70
     1
102
RTVSPropertyOp2
 70
     1
102
RTVSPropertyOp3
 70
     1
102
RTVSPropertyOp4
 70
     1
102
RTVSPropertyOp5
 70
     1
102
RTVSPropertyOp6
 70
     1
102
RTVSPropertyOp7
 70
     1
102
RTVSPropertyOp8
 70
     1
102
RTVSPropertyOp9
 70
     1
102
RTVSPropertyOp10
 70
     1
102
RTVSPropertyOp11
 70
     1
102
RTVSPropertyOp12
 70
     1
102
RTVSPropertyOp13
 70
     1
102
RTVSPropertyOp14
 70
     1
102
RTVSPropertyOp15
 70
     1
102
RTVSPropertyOp16
 70
     1
102
RTVSPropertyOp17
 70
     1
102
RTVSPropertyOp18
 70
     1
102
RTVSPropertyOp19
 70
     1
102
RTVSPropertyOp20
 70
     1
102
RTVSPropertyOp21
 70
     1
102
RTVSPropertyOp22
 70
     1
102
RTVSPropertyOp23
 70
     1
102
RTVSPropertyOp24
 70
     1
102
RTVSPropertyOp25
 70
     1
102
RTVSPropertyOp26
 70
     1
102
RTVSPropertyOp27
 70
     1
102
RTVSPropertyOp28
 70
     1
102
RTVSPropertyOp29
 70
     1
102
RTVSPropertyOp30
 70
     1
102
RTVSPropertyOp31
 70
     1
102
RTVSPropertyOp32
 70
     1
102
RTVSPropertyOp33
 70
     1
102
RTVSPropertyOp34
 70
     1
102
RTVSPropertyOp35
 70
     1
102
RTVSPropertyOp36
 70
     1
102
RTVSPropertyOp37
 70
     1
102
RTVSPropertyOp38
 70
     1
102
RTVSPropertyOp39
 70
     1
102
RTVSPropertyOp40
 70
     1
102
RTVSPropertyOp41
 70
     1
102
RTVSPropertyOp42
 70
     1
102
RTVSPropertyOp43
 70
     1
102
RTVSPropertyOp44
 70
     1
102
RTVSPropertyOp45
 70
     1
102
RTVSPropertyOp46
 70
     1
102
RTVSPropertyOp47
 70
     1
102
RTVSPropertyOp48
 70
     1
102
RTVSPropertyOp49
 70
     1
102
RTVSPropertyOp50
 70
     1
102
RTVSPropertyOp51
 70
     0
102
RTVSPropertyOp52
 70
     0
102
RTVSPropertyOp53
 70
     1
102
RTVSPropertyOp54
 70
     1
102
RTVSPropertyOp55
 70
     1
102
RTVSPropertyOp56
 70
     1
102
RTVSPropertyOp57
 70
     1
102
RTVSPropertyOp58
 70
     1
102
RTVSPropertyOp59
 70
     1
102
RTVSPropertyOp60
 70
     1
102
RTVSPropertyOp61
 70
     1
102
RTVSPropertyOp62
 70
     1
  0
XRECORD
  5
8727
102
{ACAD_REACTORS
330
8726
102
}
330
8726
100
AcDbXrecord
280
     1
102
RTVSPost2010Prop28
280
     0
102
RTVSPost2010PropOp28
 70
     1
102
RTVSPost2010Prop29
280
     1
102
RTVSPost2010PropOp29
 70
     1
102
RTVSPost2010Prop30
280
     1
102
RTVSPost2010PropOp30
 70
     1
102
RTVSPost2010Prop31
280
     0
102
RTVSPost2010PropOp31
 70
     1
102
RTVSPost2010Prop32
280
     0
102
RTVSPost2010PropOp32
 70
     1
102
RTVSPost2010Prop33
280
     0
102
RTVSPost2010PropOp33
 70
     1
102
RTVSPost2010Prop34
280
     0
102
RTVSPost2010PropOp34
 70
     1
102
RTVSPost2010Prop35
280
     0
102
RTVSPost2010PropOp35
 70
     1
102
RTVSPost2010Prop36
280
     0
102
RTVSPost2010PropOp36
 70
     1
102
RTVSPost2010Prop37
 90
       50
102
RTVSPost2010PropOp37
 70
     0
102
RTVSPost2010Prop38
140
0.0
102
RTVSPost2010PropOp38
 70
     0
102
RTVSPost2010Prop39
140
1.0
102
RTVSPost2010PropOp39
 70
     0
102
RTVSPost2010Prop40
 90
        0
102
RTVSPost2010PropOp40
 70
     0
102
RTVSPost2010Prop41ColorIndex
 90
       18
102
RTVSPost2010Prop41ColorRGB
 90
        0
102
RTVSPost2010PropOp41
 70
     0
102
RTVSPost2010Prop42
 90
       50
102
RTVSPost2010PropOp42
 70
     0
102
RTVSPost2010Prop43
 90
        3
102
RTVSPost2010PropOp43
 70
     0
102
RTVSPost2010Prop44ColorIndex
 90
        5
102
RTVSPost2010Prop44ColorRGB
 90
      255
102
RTVSPost2010PropOp44
 70
     0
102
RTVSPost2010Prop45
280
     0
102
RTVSPost2010PropOp45
 70
     1
102
RTVSPost2010Prop46
 90
       50
102
RTVSPost2010PropOp46
 70
     0
102
RTVSPost2010Prop47
 90
       50
102
RTVSPost2010PropOp47
 70
     0
102
RTVSPost2010Prop48
 90
       50
102
RTVSPost2010PropOp48
 70
     0
102
RTVSPost2010Prop49
280
     0
102
RTVSPost2010PropOp49
 70
     1
102
RTVSPost2010Prop50
 90
       50
102
RTVSPost2010PropOp50
 70
     0
102
RTVSPost2010Prop51ColorIndex
 90
      256
102
RTVSPost2010Prop51ColorRGB
 90
-16777216
102
RTVSPost2010PropOp51
 70
     0
102
RTVSPost2010Prop52
140
1.0
102
RTVSPost2010PropOp52
 70
     0
102
RTVSPost2010Prop53
 90
        2
102
RTVSPost2010PropOp53
 70
     0
102
RTVSPost2010Prop54
  1
strokes_ogs.tif
102
RTVSPost2010PropOp54
 70
     0
102
RTVSPost2010Prop55
280
     0
102
RTVSPost2010PropOp55
 70
     1
102
RTVSPost2010Prop56
140
1.0
102
RTVSPost2010PropOp56
 70
     0
102
RTVSPost2010Prop57
140
1.0
102
RTVSPost2010PropOp57
 70
     0
102
RTVSPropertyOp0
 70
     0
102
RTVSPropertyOp1
 70
     0
102
RTVSPropertyOp2
 70
     0
102
RTVSPropertyOp3
 70
     0
102
RTVSPropertyOp4
 70
     0
102
RTVSPropertyOp5
 70
     0
102
RTVSPropertyOp6
 70
     0
102
RTVSPropertyOp7
 70
     0
102
RTVSPropertyOp8
 70
     0
102
RTVSPropertyOp9
 70
     0
102
RTVSPropertyOp10
 70
     0
102
RTVSPropertyOp11
 70
     0
102
RTVSPropertyOp12
 70
     0
102
RTVSPropertyOp13
 70
     0
102
RTVSPropertyOp14
 70
     2
102
RTVSPropertyOp15
 70
     0
102
RTVSPropertyOp16
 70
     0
102
RTVSPropertyOp17
 70
     0
102
RTVSPropertyOp18
 70
     0
102
RTVSPropertyOp19
 70
     0
102
RTVSPropertyOp20
 70
     0
102
RTVSPropertyOp21
 70
     0
102
RTVSPropertyOp22
 70
     0
102
RTVSPropertyOp23
 70
     0
102
RTVSPropertyOp24
 70
     0
102
RTVSPropertyOp25
 70
     0
102
RTVSPropertyOp26
 70
     0
102
RTVSPropertyOp27
 70
     0
102
RTVSPropertyOp28
 70
     1
102
RTVSPropertyOp29
 70
     1
102
RTVSPropertyOp30
 70
     1
102
RTVSPropertyOp31
 70
     1
102
RTVSPropertyOp32
 70
     1
102
RTVSPropertyOp33
 70
     1
102
RTVSPropertyOp34
 70
     1
102
RTVSPropertyOp35
 70
     1
102
RTVSPropertyOp36
 70
     1
102
RTVSPropertyOp37
 70
     0
102
RTVSPropertyOp38
 70
     0
102
RTVSPropertyOp39
 70
     0
102
RTVSPropertyOp40
 70
     0
102
RTVSPropertyOp41
 70
     0
102
RTVSPropertyOp42
 70
     0
102
RTVSPropertyOp43
 70
     0
102
RTVSPropertyOp44
 70
     0
102
RTVSPropertyOp45
 70
     1
102
RTVSPropertyOp46
 70
     0
102
RTVSPropertyOp47
 70
     0
102
RTVSPropertyOp48
 70
     0
102
RTVSPropertyOp49
 70
     1
102
RTVSPropertyOp50
 70
     0
102
RTVSPropertyOp51
 70
     0
102
RTVSPropertyOp52
 70
     0
102
RTVSPropertyOp53
 70
     0
102
RTVSPropertyOp54
 70
     0
102
RTVSPropertyOp55
 70
     1
102
RTVSPropertyOp56
 70
     0
102
RTVSPropertyOp57
 70
     0
102
RTVSPropertyOp58
 70
     0
102
RTVSPropertyOp59
 70
     0
102
RTVSPropertyOp60
 70
     0
102
RTVSPropertyOp61
 70
     0
102
RTVSPropertyOp62
 70
     0
  0
XRECORD
  5
8715
102
{ACAD_REACTORS
330
8714
102
}
330
8714
100
AcDbXrecord
280
     1
102
RTVSPost2010Prop28
280
     0
102
RTVSPost2010PropOp28
 70
     1
102
RTVSPost2010Prop29
280
     1
102
RTVSPost2010PropOp29
 70
     1
102
RTVSPost2010Prop30
280
     1
102
RTVSPost2010PropOp30
 70
     1
102
RTVSPost2010Prop31
280
     0
102
RTVSPost2010PropOp31
 70
     1
102
RTVSPost2010Prop32
280
     0
102
RTVSPost2010PropOp32
 70
     1
102
RTVSPost2010Prop33
280
     0
102
RTVSPost2010PropOp33
 70
     1
102
RTVSPost2010Prop34
280
     0
102
RTVSPost2010PropOp34
 70
     1
102
RTVSPost2010Prop35
280
     0
102
RTVSPost2010PropOp35
 70
     1
102
RTVSPost2010Prop36
280
     0
102
RTVSPost2010PropOp36
 70
     1
102
RTVSPost2010Prop37
 90
       50
102
RTVSPost2010PropOp37
 70
     1
102
RTVSPost2010Prop38
140
0.0
102
RTVSPost2010PropOp38
 70
     1
102
RTVSPost2010Prop39
140
1.0
102
RTVSPost2010PropOp39
 70
     1
102
RTVSPost2010Prop40
 90
        0
102
RTVSPost2010PropOp40
 70
     1
102
RTVSPost2010Prop41ColorIndex
 90
       18
102
RTVSPost2010Prop41ColorRGB
 90
        0
102
RTVSPost2010PropOp41
 70
     1
102
RTVSPost2010Prop42
 90
       50
102
RTVSPost2010PropOp42
 70
     1
102
RTVSPost2010Prop43
 90
        3
102
RTVSPost2010PropOp43
 70
     1
102
RTVSPost2010Prop44ColorIndex
 90
        5
102
RTVSPost2010Prop44ColorRGB
 90
      255
102
RTVSPost2010PropOp44
 70
     1
102
RTVSPost2010Prop45
280
     0
102
RTVSPost2010PropOp45
 70
     1
102
RTVSPost2010Prop46
 90
       50
102
RTVSPost2010PropOp46
 70
     1
102
RTVSPost2010Prop47
 90
       50
102
RTVSPost2010PropOp47
 70
     1
102
RTVSPost2010Prop48
 90
       50
102
RTVSPost2010PropOp48
 70
     1
102
RTVSPost2010Prop49
280
     0
102
RTVSPost2010PropOp49
 70
     1
102
RTVSPost2010Prop50
 90
       50
102
RTVSPost2010PropOp50
 70
     1
102
RTVSPost2010Prop51ColorIndex
 90
      256
102
RTVSPost2010Prop51ColorRGB
 90
-16777216
102
RTVSPost2010PropOp51
 70
     0
102
RTVSPost2010Prop52
140
1.0
102
RTVSPost2010PropOp52
 70
     0
102
RTVSPost2010Prop53
 90
        2
102
RTVSPost2010PropOp53
 70
     1
102
RTVSPost2010Prop54
  1
strokes_ogs.tif
102
RTVSPost2010PropOp54
 70
     1
102
RTVSPost2010Prop55
280
     0
102
RTVSPost2010PropOp55
 70
     1
102
RTVSPost2010Prop56
140
1.0
102
RTVSPost2010PropOp56
 70
     1
102
RTVSPost2010Prop57
140
1.0
102
RTVSPost2010PropOp57
 70
     1
102
RTVSPropertyOp0
 70
     1
102
RTVSPropertyOp1
 70
     1
102
RTVSPropertyOp2
 70
     1
102
RTVSPropertyOp3
 70
     1
102
RTVSPropertyOp4
 70
     1
102
RTVSPropertyOp5
 70
     1
102
RTVSPropertyOp6
 70
     1
102
RTVSPropertyOp7
 70
     1
102
RTVSPropertyOp8
 70
     1
102
RTVSPropertyOp9
 70
     1
102
RTVSPropertyOp10
 70
     1
102
RTVSPropertyOp11
 70
     1
102
RTVSPropertyOp12
 70
     1
102
RTVSPropertyOp13
 70
     1
102
RTVSPropertyOp14
 70
     1
102
RTVSPropertyOp15
 70
     1
102
RTVSPropertyOp16
 70
     1
102
RTVSPropertyOp17
 70
     1
102
RTVSPropertyOp18
 70
     1
102
RTVSPropertyOp19
 70
     1
102
RTVSPropertyOp20
 70
     1
102
RTVSPropertyOp21
 70
     1
102
RTVSPropertyOp22
 70
     1
102
RTVSPropertyOp23
 70
     1
102
RTVSPropertyOp24
 70
     1
102
RTVSPropertyOp25
 70
     1
102
RTVSPropertyOp26
 70
     1
102
RTVSPropertyOp27
 70
     1
102
RTVSPropertyOp28
 70
     1
102
RTVSPropertyOp29
 70
     1
102
RTVSPropertyOp30
 70
     1
102
RTVSPropertyOp31
 70
     1
102
RTVSPropertyOp32
 70
     1
102
RTVSPropertyOp33
 70
     1
102
RTVSPropertyOp34
 70
     1
102
RTVSPropertyOp35
 70
     1
102
RTVSPropertyOp36
 70
     1
102
RTVSPropertyOp37
 70
     1
102
RTVSPropertyOp38
 70
     1
102
RTVSPropertyOp39
 70
     1
102
RTVSPropertyOp40
 70
     1
102
RTVSPropertyOp41
 70
     1
102
RTVSPropertyOp42
 70
     1
102
RTVSPropertyOp43
 70
     1
102
RTVSPropertyOp44
 70
     1
102
RTVSPropertyOp45
 70
     1
102
RTVSPropertyOp46
 70
     1
102
RTVSPropertyOp47
 70
     1
102
RTVSPropertyOp48
 70
     1
102
RTVSPropertyOp49
 70
     1
102
RTVSPropertyOp50
 70
     1
102
RTVSPropertyOp51
 70
     0
102
RTVSPropertyOp52
 70
     0
102
RTVSPropertyOp53
 70
     1
102
RTVSPropertyOp54
 70
     1
102
RTVSPropertyOp55
 70
     1
102
RTVSPropertyOp56
 70
     1
102
RTVSPropertyOp57
 70
     1
102
RTVSPropertyOp58
 70
     1
102
RTVSPropertyOp59
 70
     1
102
RTVSPropertyOp60
 70
     1
102
RTVSPropertyOp61
 70
     1
102
RTVSPropertyOp62
 70
     1
  0
XRECORD
  5
86F9
102
{ACAD_REACTORS
330
86F8
102
}
330
86F8
100
AcDbXrecord
280
     1
102
RTVSPost2010Prop28
280
     0
102
RTVSPost2010PropOp28
 70
     1
102
RTVSPost2010Prop29
280
     1
102
RTVSPost2010PropOp29
 70
     1
102
RTVSPost2010Prop30
280
     1
102
RTVSPost2010PropOp30
 70
     1
102
RTVSPost2010Prop31
280
     0
102
RTVSPost2010PropOp31
 70
     1
102
RTVSPost2010Prop32
280
     0
102
RTVSPost2010PropOp32
 70
     1
102
RTVSPost2010Prop33
280
     0
102
RTVSPost2010PropOp33
 70
     1
102
RTVSPost2010Prop34
280
     0
102
RTVSPost2010PropOp34
 70
     1
102
RTVSPost2010Prop35
280
     0
102
RTVSPost2010PropOp35
 70
     1
102
RTVSPost2010Prop36
280
     0
102
RTVSPost2010PropOp36
 70
     1
102
RTVSPost2010Prop37
 90
       50
102
RTVSPost2010PropOp37
 70
     1
102
RTVSPost2010Prop38
140
0.0
102
RTVSPost2010PropOp38
 70
     1
102
RTVSPost2010Prop39
140
1.0
102
RTVSPost2010PropOp39
 70
     1
102
RTVSPost2010Prop40
 90
        0
102
RTVSPost2010PropOp40
 70
     1
102
RTVSPost2010Prop41ColorIndex
 90
       18
102
RTVSPost2010Prop41ColorRGB
 90
        0
102
RTVSPost2010PropOp41
 70
     1
102
RTVSPost2010Prop42
 90
       50
102
RTVSPost2010PropOp42
 70
     1
102
RTVSPost2010Prop43
 90
        3
102
RTVSPost2010PropOp43
 70
     1
102
RTVSPost2010Prop44ColorIndex
 90
        5
102
RTVSPost2010Prop44ColorRGB
 90
      255
102
RTVSPost2010PropOp44
 70
     1
102
RTVSPost2010Prop45
280
     0
102
RTVSPost2010PropOp45
 70
     1
102
RTVSPost2010Prop46
 90
       50
102
RTVSPost2010PropOp46
 70
     1
102
RTVSPost2010Prop47
 90
       50
102
RTVSPost2010PropOp47
 70
     1
102
RTVSPost2010Prop48
 90
       50
102
RTVSPost2010PropOp48
 70
     1
102
RTVSPost2010Prop49
280
     0
102
RTVSPost2010PropOp49
 70
     1
102
RTVSPost2010Prop50
 90
       50
102
RTVSPost2010PropOp50
 70
     1
102
RTVSPost2010Prop51ColorIndex
 90
      256
102
RTVSPost2010Prop51ColorRGB
 90
-16777216
102
RTVSPost2010PropOp51
 70
     0
102
RTVSPost2010Prop52
140
1.0
102
RTVSPost2010PropOp52
 70
     0
102
RTVSPost2010Prop53
 90
        2
102
RTVSPost2010PropOp53
 70
     1
102
RTVSPost2010Prop54
  1
strokes_ogs.tif
102
RTVSPost2010PropOp54
 70
     1
102
RTVSPost2010Prop55
280
     0
102
RTVSPost2010PropOp55
 70
     1
102
RTVSPost2010Prop56
140
1.0
102
RTVSPost2010PropOp56
 70
     1
102
RTVSPost2010Prop57
140
1.0
102
RTVSPost2010PropOp57
 70
     1
102
RTVSPropertyOp0
 70
     1
102
RTVSPropertyOp1
 70
     1
102
RTVSPropertyOp2
 70
     1
102
RTVSPropertyOp3
 70
     1
102
RTVSPropertyOp4
 70
     1
102
RTVSPropertyOp5
 70
     1
102
RTVSPropertyOp6
 70
     1
102
RTVSPropertyOp7
 70
     1
102
RTVSPropertyOp8
 70
     1
102
RTVSPropertyOp9
 70
     1
102
RTVSPropertyOp10
 70
     1
102
RTVSPropertyOp11
 70
     1
102
RTVSPropertyOp12
 70
     1
102
RTVSPropertyOp13
 70
     1
102
RTVSPropertyOp14
 70
     1
102
RTVSPropertyOp15
 70
     1
102
RTVSPropertyOp16
 70
     1
102
RTVSPropertyOp17
 70
     1
102
RTVSPropertyOp18
 70
     1
102
RTVSPropertyOp19
 70
     1
102
RTVSPropertyOp20
 70
     1
102
RTVSPropertyOp21
 70
     1
102
RTVSPropertyOp22
 70
     1
102
RTVSPropertyOp23
 70
     1
102
RTVSPropertyOp24
 70
     1
102
RTVSPropertyOp25
 70
     1
102
RTVSPropertyOp26
 70
     1
102
RTVSPropertyOp27
 70
     1
102
RTVSPropertyOp28
 70
     1
102
RTVSPropertyOp29
 70
     1
102
RTVSPropertyOp30
 70
     1
102
RTVSPropertyOp31
 70
     1
102
RTVSPropertyOp32
 70
     1
102
RTVSPropertyOp33
 70
     1
102
RTVSPropertyOp34
 70
     1
102
RTVSPropertyOp35
 70
     1
102
RTVSPropertyOp36
 70
     1
102
RTVSPropertyOp37
 70
     1
102
RTVSPropertyOp38
 70
     1
102
RTVSPropertyOp39
 70
     1
102
RTVSPropertyOp40
 70
     1
102
RTVSPropertyOp41
 70
     1
102
RTVSPropertyOp42
 70
     1
102
RTVSPropertyOp43
 70
     1
102
RTVSPropertyOp44
 70
     1
102
RTVSPropertyOp45
 70
     1
102
RTVSPropertyOp46
 70
     1
102
RTVSPropertyOp47
 70
     1
102
RTVSPropertyOp48
 70
     1
102
RTVSPropertyOp49
 70
     1
102
RTVSPropertyOp50
 70
     1
102
RTVSPropertyOp51
 70
     0
102
RTVSPropertyOp52
 70
     0
102
RTVSPropertyOp53
 70
     1
102
RTVSPropertyOp54
 70
     1
102
RTVSPropertyOp55
 70
     1
102
RTVSPropertyOp56
 70
     1
102
RTVSPropertyOp57
 70
     1
102
RTVSPropertyOp58
 70
     1
102
RTVSPropertyOp59
 70
     1
102
RTVSPropertyOp60
 70
     1
102
RTVSPropertyOp61
 70
     1
102
RTVSPropertyOp62
 70
     1
  0
XRECORD
  5
86FB
102
{ACAD_REACTORS
330
86FA
102
}
330
86FA
100
AcDbXrecord
280
     1
102
RTVSPost2010Prop28
280
     0
102
RTVSPost2010PropOp28
 70
     1
102
RTVSPost2010Prop29
280
     1
102
RTVSPost2010PropOp29
 70
     1
102
RTVSPost2010Prop30
280
     1
102
RTVSPost2010PropOp30
 70
     1
102
RTVSPost2010Prop31
280
     0
102
RTVSPost2010PropOp31
 70
     1
102
RTVSPost2010Prop32
280
     0
102
RTVSPost2010PropOp32
 70
     1
102
RTVSPost2010Prop33
280
     0
102
RTVSPost2010PropOp33
 70
     1
102
RTVSPost2010Prop34
280
     0
102
RTVSPost2010PropOp34
 70
     1
102
RTVSPost2010Prop35
280
     0
102
RTVSPost2010PropOp35
 70
     1
102
RTVSPost2010Prop36
280
     0
102
RTVSPost2010PropOp36
 70
     1
102
RTVSPost2010Prop37
 90
       50
102
RTVSPost2010PropOp37
 70
     1
102
RTVSPost2010Prop38
140
0.0
102
RTVSPost2010PropOp38
 70
     1
102
RTVSPost2010Prop39
140
1.0
102
RTVSPost2010PropOp39
 70
     1
102
RTVSPost2010Prop40
 90
        0
102
RTVSPost2010PropOp40
 70
     1
102
RTVSPost2010Prop41ColorIndex
 90
       18
102
RTVSPost2010Prop41ColorRGB
 90
        0
102
RTVSPost2010PropOp41
 70
     1
102
RTVSPost2010Prop42
 90
       50
102
RTVSPost2010PropOp42
 70
     1
102
RTVSPost2010Prop43
 90
        3
102
RTVSPost2010PropOp43
 70
     1
102
RTVSPost2010Prop44ColorIndex
 90
        5
102
RTVSPost2010Prop44ColorRGB
 90
      255
102
RTVSPost2010PropOp44
 70
     1
102
RTVSPost2010Prop45
280
     0
102
RTVSPost2010PropOp45
 70
     1
102
RTVSPost2010Prop46
 90
       50
102
RTVSPost2010PropOp46
 70
     1
102
RTVSPost2010Prop47
 90
       50
102
RTVSPost2010PropOp47
 70
     1
102
RTVSPost2010Prop48
 90
       50
102
RTVSPost2010PropOp48
 70
     1
102
RTVSPost2010Prop49
280
     0
102
RTVSPost2010PropOp49
 70
     1
102
RTVSPost2010Prop50
 90
       50
102
RTVSPost2010PropOp50
 70
     1
102
RTVSPost2010Prop51ColorIndex
 90
      256
102
RTVSPost2010Prop51ColorRGB
 90
-16777216
102
RTVSPost2010PropOp51
 70
     0
102
RTVSPost2010Prop52
140
1.0
102
RTVSPost2010PropOp52
 70
     0
102
RTVSPost2010Prop53
 90
        2
102
RTVSPost2010PropOp53
 70
     1
102
RTVSPost2010Prop54
  1
strokes_ogs.tif
102
RTVSPost2010PropOp54
 70
     1
102
RTVSPost2010Prop55
280
     0
102
RTVSPost2010PropOp55
 70
     1
102
RTVSPost2010Prop56
140
1.0
102
RTVSPost2010PropOp56
 70
     1
102
RTVSPost2010Prop57
140
1.0
102
RTVSPost2010PropOp57
 70
     1
102
RTVSPropertyOp0
 70
     1
102
RTVSPropertyOp1
 70
     1
102
RTVSPropertyOp2
 70
     1
102
RTVSPropertyOp3
 70
     1
102
RTVSPropertyOp4
 70
     1
102
RTVSPropertyOp5
 70
     1
102
RTVSPropertyOp6
 70
     1
102
RTVSPropertyOp7
 70
     1
102
RTVSPropertyOp8
 70
     1
102
RTVSPropertyOp9
 70
     1
102
RTVSPropertyOp10
 70
     1
102
RTVSPropertyOp11
 70
     1
102
RTVSPropertyOp12
 70
     1
102
RTVSPropertyOp13
 70
     1
102
RTVSPropertyOp14
 70
     1
102
RTVSPropertyOp15
 70
     1
102
RTVSPropertyOp16
 70
     1
102
RTVSPropertyOp17
 70
     1
102
RTVSPropertyOp18
 70
     1
102
RTVSPropertyOp19
 70
     1
102
RTVSPropertyOp20
 70
     1
102
RTVSPropertyOp21
 70
     1
102
RTVSPropertyOp22
 70
     1
102
RTVSPropertyOp23
 70
     1
102
RTVSPropertyOp24
 70
     1
102
RTVSPropertyOp25
 70
     1
102
RTVSPropertyOp26
 70
     1
102
RTVSPropertyOp27
 70
     1
102
RTVSPropertyOp28
 70
     1
102
RTVSPropertyOp29
 70
     1
102
RTVSPropertyOp30
 70
     1
102
RTVSPropertyOp31
 70
     1
102
RTVSPropertyOp32
 70
     1
102
RTVSPropertyOp33
 70
     1
102
RTVSPropertyOp34
 70
     1
102
RTVSPropertyOp35
 70
     1
102
RTVSPropertyOp36
 70
     1
102
RTVSPropertyOp37
 70
     1
102
RTVSPropertyOp38
 70
     1
102
RTVSPropertyOp39
 70
     1
102
RTVSPropertyOp40
 70
     1
102
RTVSPropertyOp41
 70
     1
102
RTVSPropertyOp42
 70
     1
102
RTVSPropertyOp43
 70
     1
102
RTVSPropertyOp44
 70
     1
102
RTVSPropertyOp45
 70
     1
102
RTVSPropertyOp46
 70
     1
102
RTVSPropertyOp47
 70
     1
102
RTVSPropertyOp48
 70
     1
102
RTVSPropertyOp49
 70
     1
102
RTVSPropertyOp50
 70
     1
102
RTVSPropertyOp51
 70
     0
102
RTVSPropertyOp52
 70
     0
102
RTVSPropertyOp53
 70
     1
102
RTVSPropertyOp54
 70
     1
102
RTVSPropertyOp55
 70
     1
102
RTVSPropertyOp56
 70
     1
102
RTVSPropertyOp57
 70
     1
102
RTVSPropertyOp58
 70
     1
102
RTVSPropertyOp59
 70
     1
102
RTVSPropertyOp60
 70
     1
102
RTVSPropertyOp61
 70
     1
102
RTVSPropertyOp62
 70
     1
  0
XRECORD
  5
86FD
102
{ACAD_REACTORS
330
86FC
102
}
330
86FC
100
AcDbXrecord
280
     1
102
RTVSPost2010Prop28
280
     0
102
RTVSPost2010PropOp28
 70
     1
102
RTVSPost2010Prop29
280
     1
102
RTVSPost2010PropOp29
 70
     1
102
RTVSPost2010Prop30
280
     1
102
RTVSPost2010PropOp30
 70
     1
102
RTVSPost2010Prop31
280
     0
102
RTVSPost2010PropOp31
 70
     1
102
RTVSPost2010Prop32
280
     0
102
RTVSPost2010PropOp32
 70
     1
102
RTVSPost2010Prop33
280
     0
102
RTVSPost2010PropOp33
 70
     1
102
RTVSPost2010Prop34
280
     0
102
RTVSPost2010PropOp34
 70
     1
102
RTVSPost2010Prop35
280
     0
102
RTVSPost2010PropOp35
 70
     1
102
RTVSPost2010Prop36
280
     0
102
RTVSPost2010PropOp36
 70
     1
102
RTVSPost2010Prop37
 90
       50
102
RTVSPost2010PropOp37
 70
     1
102
RTVSPost2010Prop38
140
0.0
102
RTVSPost2010PropOp38
 70
     1
102
RTVSPost2010Prop39
140
1.0
102
RTVSPost2010PropOp39
 70
     1
102
RTVSPost2010Prop40
 90
        0
102
RTVSPost2010PropOp40
 70
     1
102
RTVSPost2010Prop41ColorIndex
 90
       18
102
RTVSPost2010Prop41ColorRGB
 90
        0
102
RTVSPost2010PropOp41
 70
     1
102
RTVSPost2010Prop42
 90
       50
102
RTVSPost2010PropOp42
 70
     1
102
RTVSPost2010Prop43
 90
        3
102
RTVSPost2010PropOp43
 70
     1
102
RTVSPost2010Prop44ColorIndex
 90
        5
102
RTVSPost2010Prop44ColorRGB
 90
      255
102
RTVSPost2010PropOp44
 70
     1
102
RTVSPost2010Prop45
280
     0
102
RTVSPost2010PropOp45
 70
     1
102
RTVSPost2010Prop46
 90
       50
102
RTVSPost2010PropOp46
 70
     1
102
RTVSPost2010Prop47
 90
       50
102
RTVSPost2010PropOp47
 70
     1
102
RTVSPost2010Prop48
 90
       50
102
RTVSPost2010PropOp48
 70
     1
102
RTVSPost2010Prop49
280
     0
102
RTVSPost2010PropOp49
 70
     1
102
RTVSPost2010Prop50
 90
       50
102
RTVSPost2010PropOp50
 70
     1
102
RTVSPost2010Prop51ColorIndex
 90
      256
102
RTVSPost2010Prop51ColorRGB
 90
-16777216
102
RTVSPost2010PropOp51
 70
     0
102
RTVSPost2010Prop52
140
1.0
102
RTVSPost2010PropOp52
 70
     0
102
RTVSPost2010Prop53
 90
        2
102
RTVSPost2010PropOp53
 70
     1
102
RTVSPost2010Prop54
  1
strokes_ogs.tif
102
RTVSPost2010PropOp54
 70
     1
102
RTVSPost2010Prop55
280
     0
102
RTVSPost2010PropOp55
 70
     1
102
RTVSPost2010Prop56
140
1.0
102
RTVSPost2010PropOp56
 70
     1
102
RTVSPost2010Prop57
140
1.0
102
RTVSPost2010PropOp57
 70
     1
102
RTVSPropertyOp0
 70
     1
102
RTVSPropertyOp1
 70
     1
102
RTVSPropertyOp2
 70
     1
102
RTVSPropertyOp3
 70
     1
102
RTVSPropertyOp4
 70
     1
102
RTVSPropertyOp5
 70
     1
102
RTVSPropertyOp6
 70
     1
102
RTVSPropertyOp7
 70
     1
102
RTVSPropertyOp8
 70
     1
102
RTVSPropertyOp9
 70
     1
102
RTVSPropertyOp10
 70
     1
102
RTVSPropertyOp11
 70
     1
102
RTVSPropertyOp12
 70
     1
102
RTVSPropertyOp13
 70
     1
102
RTVSPropertyOp14
 70
     1
102
RTVSPropertyOp15
 70
     1
102
RTVSPropertyOp16
 70
     1
102
RTVSPropertyOp17
 70
     1
102
RTVSPropertyOp18
 70
     1
102
RTVSPropertyOp19
 70
     1
102
RTVSPropertyOp20
 70
     1
102
RTVSPropertyOp21
 70
     1
102
RTVSPropertyOp22
 70
     1
102
RTVSPropertyOp23
 70
     1
102
RTVSPropertyOp24
 70
     1
102
RTVSPropertyOp25
 70
     1
102
RTVSPropertyOp26
 70
     1
102
RTVSPropertyOp27
 70
     1
102
RTVSPropertyOp28
 70
     1
102
RTVSPropertyOp29
 70
     1
102
RTVSPropertyOp30
 70
     1
102
RTVSPropertyOp31
 70
     1
102
RTVSPropertyOp32
 70
     1
102
RTVSPropertyOp33
 70
     1
102
RTVSPropertyOp34
 70
     1
102
RTVSPropertyOp35
 70
     1
102
RTVSPropertyOp36
 70
     1
102
RTVSPropertyOp37
 70
     1
102
RTVSPropertyOp38
 70
     1
102
RTVSPropertyOp39
 70
     1
102
RTVSPropertyOp40
 70
     1
102
RTVSPropertyOp41
 70
     1
102
RTVSPropertyOp42
 70
     1
102
RTVSPropertyOp43
 70
     1
102
RTVSPropertyOp44
 70
     1
102
RTVSPropertyOp45
 70
     1
102
RTVSPropertyOp46
 70
     1
102
RTVSPropertyOp47
 70
     1
102
RTVSPropertyOp48
 70
     1
102
RTVSPropertyOp49
 70
     1
102
RTVSPropertyOp50
 70
     1
102
RTVSPropertyOp51
 70
     0
102
RTVSPropertyOp52
 70
     0
102
RTVSPropertyOp53
 70
     1
102
RTVSPropertyOp54
 70
     1
102
RTVSPropertyOp55
 70
     1
102
RTVSPropertyOp56
 70
     1
102
RTVSPropertyOp57
 70
     1
102
RTVSPropertyOp58
 70
     1
102
RTVSPropertyOp59
 70
     1
102
RTVSPropertyOp60
 70
     1
102
RTVSPropertyOp61
 70
     1
102
RTVSPropertyOp62
 70
     1
  0
XRECORD
  5
86FF
102
{ACAD_REACTORS
330
86FE
102
}
330
86FE
100
AcDbXrecord
280
     1
102
RTVSPost2010Prop28
280
     0
102
RTVSPost2010PropOp28
 70
     1
102
RTVSPost2010Prop29
280
     1
102
RTVSPost2010PropOp29
 70
     1
102
RTVSPost2010Prop30
280
     1
102
RTVSPost2010PropOp30
 70
     1
102
RTVSPost2010Prop31
280
     0
102
RTVSPost2010PropOp31
 70
     1
102
RTVSPost2010Prop32
280
     0
102
RTVSPost2010PropOp32
 70
     1
102
RTVSPost2010Prop33
280
     0
102
RTVSPost2010PropOp33
 70
     1
102
RTVSPost2010Prop34
280
     0
102
RTVSPost2010PropOp34
 70
     1
102
RTVSPost2010Prop35
280
     0
102
RTVSPost2010PropOp35
 70
     1
102
RTVSPost2010Prop36
280
     0
102
RTVSPost2010PropOp36
 70
     1
102
RTVSPost2010Prop37
 90
       50
102
RTVSPost2010PropOp37
 70
     1
102
RTVSPost2010Prop38
140
0.0
102
RTVSPost2010PropOp38
 70
     1
102
RTVSPost2010Prop39
140
1.0
102
RTVSPost2010PropOp39
 70
     1
102
RTVSPost2010Prop40
 90
        0
102
RTVSPost2010PropOp40
 70
     1
102
RTVSPost2010Prop41ColorIndex
 90
       18
102
RTVSPost2010Prop41ColorRGB
 90
        0
102
RTVSPost2010PropOp41
 70
     1
102
RTVSPost2010Prop42
 90
       50
102
RTVSPost2010PropOp42
 70
     1
102
RTVSPost2010Prop43
 90
        3
102
RTVSPost2010PropOp43
 70
     1
102
RTVSPost2010Prop44ColorIndex
 90
        5
102
RTVSPost2010Prop44ColorRGB
 90
      255
102
RTVSPost2010PropOp44
 70
     1
102
RTVSPost2010Prop45
280
     0
102
RTVSPost2010PropOp45
 70
     1
102
RTVSPost2010Prop46
 90
       50
102
RTVSPost2010PropOp46
 70
     1
102
RTVSPost2010Prop47
 90
       50
102
RTVSPost2010PropOp47
 70
     1
102
RTVSPost2010Prop48
 90
       50
102
RTVSPost2010PropOp48
 70
     1
102
RTVSPost2010Prop49
280
     0
102
RTVSPost2010PropOp49
 70
     1
102
RTVSPost2010Prop50
 90
       50
102
RTVSPost2010PropOp50
 70
     1
102
RTVSPost2010Prop51ColorIndex
 90
      256
102
RTVSPost2010Prop51ColorRGB
 90
-16777216
102
RTVSPost2010PropOp51
 70
     0
102
RTVSPost2010Prop52
140
1.0
102
RTVSPost2010PropOp52
 70
     0
102
RTVSPost2010Prop53
 90
        2
102
RTVSPost2010PropOp53
 70
     1
102
RTVSPost2010Prop54
  1
strokes_ogs.tif
102
RTVSPost2010PropOp54
 70
     1
102
RTVSPost2010Prop55
280
     0
102
RTVSPost2010PropOp55
 70
     1
102
RTVSPost2010Prop56
140
1.0
102
RTVSPost2010PropOp56
 70
     1
102
RTVSPost2010Prop57
140
1.0
102
RTVSPost2010PropOp57
 70
     1
102
RTVSPropertyOp0
 70
     1
102
RTVSPropertyOp1
 70
     1
102
RTVSPropertyOp2
 70
     1
102
RTVSPropertyOp3
 70
     1
102
RTVSPropertyOp4
 70
     1
102
RTVSPropertyOp5
 70
     1
102
RTVSPropertyOp6
 70
     1
102
RTVSPropertyOp7
 70
     1
102
RTVSPropertyOp8
 70
     1
102
RTVSPropertyOp9
 70
     1
102
RTVSPropertyOp10
 70
     1
102
RTVSPropertyOp11
 70
     1
102
RTVSPropertyOp12
 70
     1
102
RTVSPropertyOp13
 70
     1
102
RTVSPropertyOp14
 70
     1
102
RTVSPropertyOp15
 70
     1
102
RTVSPropertyOp16
 70
     1
102
RTVSPropertyOp17
 70
     1
102
RTVSPropertyOp18
 70
     1
102
RTVSPropertyOp19
 70
     1
102
RTVSPropertyOp20
 70
     1
102
RTVSPropertyOp21
 70
     1
102
RTVSPropertyOp22
 70
     1
102
RTVSPropertyOp23
 70
     1
102
RTVSPropertyOp24
 70
     1
102
RTVSPropertyOp25
 70
     1
102
RTVSPropertyOp26
 70
     1
102
RTVSPropertyOp27
 70
     1
102
RTVSPropertyOp28
 70
     1
102
RTVSPropertyOp29
 70
     1
102
RTVSPropertyOp30
 70
     1
102
RTVSPropertyOp31
 70
     1
102
RTVSPropertyOp32
 70
     1
102
RTVSPropertyOp33
 70
     1
102
RTVSPropertyOp34
 70
     1
102
RTVSPropertyOp35
 70
     1
102
RTVSPropertyOp36
 70
     1
102
RTVSPropertyOp37
 70
     1
102
RTVSPropertyOp38
 70
     1
102
RTVSPropertyOp39
 70
     1
102
RTVSPropertyOp40
 70
     1
102
RTVSPropertyOp41
 70
     1
102
RTVSPropertyOp42
 70
     1
102
RTVSPropertyOp43
 70
     1
102
RTVSPropertyOp44
 70
     1
102
RTVSPropertyOp45
 70
     1
102
RTVSPropertyOp46
 70
     1
102
RTVSPropertyOp47
 70
     1
102
RTVSPropertyOp48
 70
     1
102
RTVSPropertyOp49
 70
     1
102
RTVSPropertyOp50
 70
     1
102
RTVSPropertyOp51
 70
     0
102
RTVSPropertyOp52
 70
     0
102
RTVSPropertyOp53
 70
     1
102
RTVSPropertyOp54
 70
     1
102
RTVSPropertyOp55
 70
     1
102
RTVSPropertyOp56
 70
     1
102
RTVSPropertyOp57
 70
     1
102
RTVSPropertyOp58
 70
     1
102
RTVSPropertyOp59
 70
     1
102
RTVSPropertyOp60
 70
     1
102
RTVSPropertyOp61
 70
     1
102
RTVSPropertyOp62
 70
     1
  0
XRECORD
  5
8707
102
{ACAD_REACTORS
330
8706
102
}
330
8706
100
AcDbXrecord
280
     1
102
RTVSPost2010Prop28
280
     0
102
RTVSPost2010PropOp28
 70
     1
102
RTVSPost2010Prop29
280
     1
102
RTVSPost2010PropOp29
 70
     1
102
RTVSPost2010Prop30
280
     1
102
RTVSPost2010PropOp30
 70
     1
102
RTVSPost2010Prop31
280
     0
102
RTVSPost2010PropOp31
 70
     1
102
RTVSPost2010Prop32
280
     0
102
RTVSPost2010PropOp32
 70
     1
102
RTVSPost2010Prop33
280
     0
102
RTVSPost2010PropOp33
 70
     1
102
RTVSPost2010Prop34
280
     0
102
RTVSPost2010PropOp34
 70
     1
102
RTVSPost2010Prop35
280
     0
102
RTVSPost2010PropOp35
 70
     1
102
RTVSPost2010Prop36
280
     0
102
RTVSPost2010PropOp36
 70
     1
102
RTVSPost2010Prop37
 90
       50
102
RTVSPost2010PropOp37
 70
     1
102
RTVSPost2010Prop38
140
0.0
102
RTVSPost2010PropOp38
 70
     1
102
RTVSPost2010Prop39
140
1.0
102
RTVSPost2010PropOp39
 70
     1
102
RTVSPost2010Prop40
 90
        0
102
RTVSPost2010PropOp40
 70
     1
102
RTVSPost2010Prop41ColorIndex
 90
       18
102
RTVSPost2010Prop41ColorRGB
 90
        0
102
RTVSPost2010PropOp41
 70
     1
102
RTVSPost2010Prop42
 90
       50
102
RTVSPost2010PropOp42
 70
     1
102
RTVSPost2010Prop43
 90
        3
102
RTVSPost2010PropOp43
 70
     1
102
RTVSPost2010Prop44ColorIndex
 90
        5
102
RTVSPost2010Prop44ColorRGB
 90
      255
102
RTVSPost2010PropOp44
 70
     1
102
RTVSPost2010Prop45
280
     0
102
RTVSPost2010PropOp45
 70
     1
102
RTVSPost2010Prop46
 90
       50
102
RTVSPost2010PropOp46
 70
     1
102
RTVSPost2010Prop47
 90
       50
102
RTVSPost2010PropOp47
 70
     1
102
RTVSPost2010Prop48
 90
       50
102
RTVSPost2010PropOp48
 70
     1
102
RTVSPost2010Prop49
280
     0
102
RTVSPost2010PropOp49
 70
     1
102
RTVSPost2010Prop50
 90
       50
102
RTVSPost2010PropOp50
 70
     1
102
RTVSPost2010Prop51ColorIndex
 90
      256
102
RTVSPost2010Prop51ColorRGB
 90
-16777216
102
RTVSPost2010PropOp51
 70
     0
102
RTVSPost2010Prop52
140
1.0
102
RTVSPost2010PropOp52
 70
     0
102
RTVSPost2010Prop53
 90
        2
102
RTVSPost2010PropOp53
 70
     1
102
RTVSPost2010Prop54
  1
strokes_ogs.tif
102
RTVSPost2010PropOp54
 70
     1
102
RTVSPost2010Prop55
280
     0
102
RTVSPost2010PropOp55
 70
     1
102
RTVSPost2010Prop56
140
1.0
102
RTVSPost2010PropOp56
 70
     1
102
RTVSPost2010Prop57
140
1.0
102
RTVSPost2010PropOp57
 70
     1
102
RTVSPropertyOp0
 70
     1
102
RTVSPropertyOp1
 70
     1
102
RTVSPropertyOp2
 70
     1
102
RTVSPropertyOp3
 70
     1
102
RTVSPropertyOp4
 70
     1
102
RTVSPropertyOp5
 70
     1
102
RTVSPropertyOp6
 70
     1
102
RTVSPropertyOp7
 70
     1
102
RTVSPropertyOp8
 70
     1
102
RTVSPropertyOp9
 70
     1
102
RTVSPropertyOp10
 70
     1
102
RTVSPropertyOp11
 70
     1
102
RTVSPropertyOp12
 70
     1
102
RTVSPropertyOp13
 70
     1
102
RTVSPropertyOp14
 70
     1
102
RTVSPropertyOp15
 70
     1
102
RTVSPropertyOp16
 70
     1
102
RTVSPropertyOp17
 70
     1
102
RTVSPropertyOp18
 70
     1
102
RTVSPropertyOp19
 70
     1
102
RTVSPropertyOp20
 70
     1
102
RTVSPropertyOp21
 70
     1
102
RTVSPropertyOp22
 70
     1
102
RTVSPropertyOp23
 70
     1
102
RTVSPropertyOp24
 70
     1
102
RTVSPropertyOp25
 70
     1
102
RTVSPropertyOp26
 70
     1
102
RTVSPropertyOp27
 70
     1
102
RTVSPropertyOp28
 70
     1
102
RTVSPropertyOp29
 70
     1
102
RTVSPropertyOp30
 70
     1
102
RTVSPropertyOp31
 70
     1
102
RTVSPropertyOp32
 70
     1
102
RTVSPropertyOp33
 70
     1
102
RTVSPropertyOp34
 70
     1
102
RTVSPropertyOp35
 70
     1
102
RTVSPropertyOp36
 70
     1
102
RTVSPropertyOp37
 70
     1
102
RTVSPropertyOp38
 70
     1
102
RTVSPropertyOp39
 70
     1
102
RTVSPropertyOp40
 70
     1
102
RTVSPropertyOp41
 70
     1
102
RTVSPropertyOp42
 70
     1
102
RTVSPropertyOp43
 70
     1
102
RTVSPropertyOp44
 70
     1
102
RTVSPropertyOp45
 70
     1
102
RTVSPropertyOp46
 70
     1
102
RTVSPropertyOp47
 70
     1
102
RTVSPropertyOp48
 70
     1
102
RTVSPropertyOp49
 70
     1
102
RTVSPropertyOp50
 70
     1
102
RTVSPropertyOp51
 70
     0
102
RTVSPropertyOp52
 70
     0
102
RTVSPropertyOp53
 70
     1
102
RTVSPropertyOp54
 70
     1
102
RTVSPropertyOp55
 70
     1
102
RTVSPropertyOp56
 70
     1
102
RTVSPropertyOp57
 70
     1
102
RTVSPropertyOp58
 70
     1
102
RTVSPropertyOp59
 70
     1
102
RTVSPropertyOp60
 70
     1
102
RTVSPropertyOp61
 70
     1
102
RTVSPropertyOp62
 70
     1
  0
XRECORD
  5
8723
102
{ACAD_REACTORS
330
8722
102
}
330
8722
100
AcDbXrecord
280
     1
102
RTVSPost2010Prop28
280
     0
102
RTVSPost2010PropOp28
 70
     1
102
RTVSPost2010Prop29
280
     1
102
RTVSPost2010PropOp29
 70
     1
102
RTVSPost2010Prop30
280
     1
102
RTVSPost2010PropOp30
 70
     1
102
RTVSPost2010Prop31
280
     0
102
RTVSPost2010PropOp31
 70
     1
102
RTVSPost2010Prop32
280
     0
102
RTVSPost2010PropOp32
 70
     1
102
RTVSPost2010Prop33
280
     0
102
RTVSPost2010PropOp33
 70
     1
102
RTVSPost2010Prop34
280
     0
102
RTVSPost2010PropOp34
 70
     1
102
RTVSPost2010Prop35
280
     0
102
RTVSPost2010PropOp35
 70
     1
102
RTVSPost2010Prop36
280
     0
102
RTVSPost2010PropOp36
 70
     1
102
RTVSPost2010Prop37
 90
       50
102
RTVSPost2010PropOp37
 70
     0
102
RTVSPost2010Prop38
140
0.0
102
RTVSPost2010PropOp38
 70
     0
102
RTVSPost2010Prop39
140
1.0
102
RTVSPost2010PropOp39
 70
     0
102
RTVSPost2010Prop40
 90
        0
102
RTVSPost2010PropOp40
 70
     0
102
RTVSPost2010Prop41ColorIndex
 90
       18
102
RTVSPost2010Prop41ColorRGB
 90
        0
102
RTVSPost2010PropOp41
 70
     0
102
RTVSPost2010Prop42
 90
       50
102
RTVSPost2010PropOp42
 70
     0
102
RTVSPost2010Prop43
 90
        3
102
RTVSPost2010PropOp43
 70
     0
102
RTVSPost2010Prop44ColorIndex
 90
        5
102
RTVSPost2010Prop44ColorRGB
 90
      255
102
RTVSPost2010PropOp44
 70
     0
102
RTVSPost2010Prop45
280
     0
102
RTVSPost2010PropOp45
 70
     1
102
RTVSPost2010Prop46
 90
       50
102
RTVSPost2010PropOp46
 70
     0
102
RTVSPost2010Prop47
 90
       50
102
RTVSPost2010PropOp47
 70
     0
102
RTVSPost2010Prop48
 90
       50
102
RTVSPost2010PropOp48
 70
     0
102
RTVSPost2010Prop49
280
     0
102
RTVSPost2010PropOp49
 70
     1
102
RTVSPost2010Prop50
 90
       50
102
RTVSPost2010PropOp50
 70
     0
102
RTVSPost2010Prop51ColorIndex
 90
      256
102
RTVSPost2010Prop51ColorRGB
 90
-16777216
102
RTVSPost2010PropOp51
 70
     0
102
RTVSPost2010Prop52
140
1.0
102
RTVSPost2010PropOp52
 70
     0
102
RTVSPost2010Prop53
 90
        2
102
RTVSPost2010PropOp53
 70
     0
102
RTVSPost2010Prop54
  1
strokes_ogs.tif
102
RTVSPost2010PropOp54
 70
     0
102
RTVSPost2010Prop55
280
     0
102
RTVSPost2010PropOp55
 70
     1
102
RTVSPost2010Prop56
140
1.0
102
RTVSPost2010PropOp56
 70
     0
102
RTVSPost2010Prop57
140
1.0
102
RTVSPost2010PropOp57
 70
     0
102
RTVSPropertyOp0
 70
     0
102
RTVSPropertyOp1
 70
     0
102
RTVSPropertyOp2
 70
     0
102
RTVSPropertyOp3
 70
     0
102
RTVSPropertyOp4
 70
     0
102
RTVSPropertyOp5
 70
     0
102
RTVSPropertyOp6
 70
     0
102
RTVSPropertyOp7
 70
     0
102
RTVSPropertyOp8
 70
     0
102
RTVSPropertyOp9
 70
     0
102
RTVSPropertyOp10
 70
     0
102
RTVSPropertyOp11
 70
     0
102
RTVSPropertyOp12
 70
     0
102
RTVSPropertyOp13
 70
     0
102
RTVSPropertyOp14
 70
     2
102
RTVSPropertyOp15
 70
     0
102
RTVSPropertyOp16
 70
     0
102
RTVSPropertyOp17
 70
     0
102
RTVSPropertyOp18
 70
     0
102
RTVSPropertyOp19
 70
     0
102
RTVSPropertyOp20
 70
     0
102
RTVSPropertyOp21
 70
     0
102
RTVSPropertyOp22
 70
     0
102
RTVSPropertyOp23
 70
     0
102
RTVSPropertyOp24
 70
     0
102
RTVSPropertyOp25
 70
     0
102
RTVSPropertyOp26
 70
     0
102
RTVSPropertyOp27
 70
     0
102
RTVSPropertyOp28
 70
     1
102
RTVSPropertyOp29
 70
     1
102
RTVSPropertyOp30
 70
     1
102
RTVSPropertyOp31
 70
     1
102
RTVSPropertyOp32
 70
     1
102
RTVSPropertyOp33
 70
     1
102
RTVSPropertyOp34
 70
     1
102
RTVSPropertyOp35
 70
     1
102
RTVSPropertyOp36
 70
     1
102
RTVSPropertyOp37
 70
     0
102
RTVSPropertyOp38
 70
     0
102
RTVSPropertyOp39
 70
     0
102
RTVSPropertyOp40
 70
     0
102
RTVSPropertyOp41
 70
     0
102
RTVSPropertyOp42
 70
     0
102
RTVSPropertyOp43
 70
     0
102
RTVSPropertyOp44
 70
     0
102
RTVSPropertyOp45
 70
     1
102
RTVSPropertyOp46
 70
     0
102
RTVSPropertyOp47
 70
     0
102
RTVSPropertyOp48
 70
     0
102
RTVSPropertyOp49
 70
     1
102
RTVSPropertyOp50
 70
     0
102
RTVSPropertyOp51
 70
     0
102
RTVSPropertyOp52
 70
     0
102
RTVSPropertyOp53
 70
     0
102
RTVSPropertyOp54
 70
     0
102
RTVSPropertyOp55
 70
     1
102
RTVSPropertyOp56
 70
     0
102
RTVSPropertyOp57
 70
     0
102
RTVSPropertyOp58
 70
     0
102
RTVSPropertyOp59
 70
     0
102
RTVSPropertyOp60
 70
     0
102
RTVSPropertyOp61
 70
     0
102
RTVSPropertyOp62
 70
     0
  0
XRECORD
  5
8713
102
{ACAD_REACTORS
330
8712
102
}
330
8712
100
AcDbXrecord
280
     1
102
RTVSPost2010Prop28
280
     0
102
RTVSPost2010PropOp28
 70
     1
102
RTVSPost2010Prop29
280
     1
102
RTVSPost2010PropOp29
 70
     1
102
RTVSPost2010Prop30
280
     1
102
RTVSPost2010PropOp30
 70
     1
102
RTVSPost2010Prop31
280
     0
102
RTVSPost2010PropOp31
 70
     1
102
RTVSPost2010Prop32
280
     0
102
RTVSPost2010PropOp32
 70
     1
102
RTVSPost2010Prop33
280
     0
102
RTVSPost2010PropOp33
 70
     1
102
RTVSPost2010Prop34
280
     0
102
RTVSPost2010PropOp34
 70
     1
102
RTVSPost2010Prop35
280
     0
102
RTVSPost2010PropOp35
 70
     1
102
RTVSPost2010Prop36
280
     0
102
RTVSPost2010PropOp36
 70
     1
102
RTVSPost2010Prop37
 90
       50
102
RTVSPost2010PropOp37
 70
     1
102
RTVSPost2010Prop38
140
0.0
102
RTVSPost2010PropOp38
 70
     1
102
RTVSPost2010Prop39
140
1.0
102
RTVSPost2010PropOp39
 70
     1
102
RTVSPost2010Prop40
 90
        0
102
RTVSPost2010PropOp40
 70
     1
102
RTVSPost2010Prop41ColorIndex
 90
       18
102
RTVSPost2010Prop41ColorRGB
 90
        0
102
RTVSPost2010PropOp41
 70
     1
102
RTVSPost2010Prop42
 90
       50
102
RTVSPost2010PropOp42
 70
     1
102
RTVSPost2010Prop43
 90
        3
102
RTVSPost2010PropOp43
 70
     1
102
RTVSPost2010Prop44ColorIndex
 90
        5
102
RTVSPost2010Prop44ColorRGB
 90
      255
102
RTVSPost2010PropOp44
 70
     1
102
RTVSPost2010Prop45
280
     0
102
RTVSPost2010PropOp45
 70
     1
102
RTVSPost2010Prop46
 90
       50
102
RTVSPost2010PropOp46
 70
     1
102
RTVSPost2010Prop47
 90
       50
102
RTVSPost2010PropOp47
 70
     1
102
RTVSPost2010Prop48
 90
       50
102
RTVSPost2010PropOp48
 70
     1
102
RTVSPost2010Prop49
280
     0
102
RTVSPost2010PropOp49
 70
     1
102
RTVSPost2010Prop50
 90
       50
102
RTVSPost2010PropOp50
 70
     1
102
RTVSPost2010Prop51ColorIndex
 90
      256
102
RTVSPost2010Prop51ColorRGB
 90
-16777216
102
RTVSPost2010PropOp51
 70
     0
102
RTVSPost2010Prop52
140
1.0
102
RTVSPost2010PropOp52
 70
     0
102
RTVSPost2010Prop53
 90
        2
102
RTVSPost2010PropOp53
 70
     1
102
RTVSPost2010Prop54
  1
strokes_ogs.tif
102
RTVSPost2010PropOp54
 70
     1
102
RTVSPost2010Prop55
280
     0
102
RTVSPost2010PropOp55
 70
     1
102
RTVSPost2010Prop56
140
1.0
102
RTVSPost2010PropOp56
 70
     1
102
RTVSPost2010Prop57
140
1.0
102
RTVSPost2010PropOp57
 70
     1
102
RTVSPropertyOp0
 70
     1
102
RTVSPropertyOp1
 70
     1
102
RTVSPropertyOp2
 70
     1
102
RTVSPropertyOp3
 70
     1
102
RTVSPropertyOp4
 70
     1
102
RTVSPropertyOp5
 70
     1
102
RTVSPropertyOp6
 70
     1
102
RTVSPropertyOp7
 70
     1
102
RTVSPropertyOp8
 70
     1
102
RTVSPropertyOp9
 70
     1
102
RTVSPropertyOp10
 70
     1
102
RTVSPropertyOp11
 70
     1
102
RTVSPropertyOp12
 70
     1
102
RTVSPropertyOp13
 70
     1
102
RTVSPropertyOp14
 70
     1
102
RTVSPropertyOp15
 70
     1
102
RTVSPropertyOp16
 70
     1
102
RTVSPropertyOp17
 70
     1
102
RTVSPropertyOp18
 70
     1
102
RTVSPropertyOp19
 70
     1
102
RTVSPropertyOp20
 70
     1
102
RTVSPropertyOp21
 70
     1
102
RTVSPropertyOp22
 70
     1
102
RTVSPropertyOp23
 70
     1
102
RTVSPropertyOp24
 70
     1
102
RTVSPropertyOp25
 70
     1
102
RTVSPropertyOp26
 70
     1
102
RTVSPropertyOp27
 70
     1
102
RTVSPropertyOp28
 70
     1
102
RTVSPropertyOp29
 70
     1
102
RTVSPropertyOp30
 70
     1
102
RTVSPropertyOp31
 70
     1
102
RTVSPropertyOp32
 70
     1
102
RTVSPropertyOp33
 70
     1
102
RTVSPropertyOp34
 70
     1
102
RTVSPropertyOp35
 70
     1
102
RTVSPropertyOp36
 70
     1
102
RTVSPropertyOp37
 70
     1
102
RTVSPropertyOp38
 70
     1
102
RTVSPropertyOp39
 70
     1
102
RTVSPropertyOp40
 70
     1
102
RTVSPropertyOp41
 70
     1
102
RTVSPropertyOp42
 70
     1
102
RTVSPropertyOp43
 70
     1
102
RTVSPropertyOp44
 70
     1
102
RTVSPropertyOp45
 70
     1
102
RTVSPropertyOp46
 70
     1
102
RTVSPropertyOp47
 70
     1
102
RTVSPropertyOp48
 70
     1
102
RTVSPropertyOp49
 70
     1
102
RTVSPropertyOp50
 70
     1
102
RTVSPropertyOp51
 70
     0
102
RTVSPropertyOp52
 70
     0
102
RTVSPropertyOp53
 70
     1
102
RTVSPropertyOp54
 70
     1
102
RTVSPropertyOp55
 70
     1
102
RTVSPropertyOp56
 70
     1
102
RTVSPropertyOp57
 70
     1
102
RTVSPropertyOp58
 70
     1
102
RTVSPropertyOp59
 70
     1
102
RTVSPropertyOp60
 70
     1
102
RTVSPropertyOp61
 70
     1
102
RTVSPropertyOp62
 70
     1
  0
XRECORD
  5
8725
102
{ACAD_REACTORS
330
8724
102
}
330
8724
100
AcDbXrecord
280
     1
102
RTVSPost2010Prop28
280
     0
102
RTVSPost2010PropOp28
 70
     1
102
RTVSPost2010Prop29
280
     1
102
RTVSPost2010PropOp29
 70
     1
102
RTVSPost2010Prop30
280
     1
102
RTVSPost2010PropOp30
 70
     1
102
RTVSPost2010Prop31
280
     0
102
RTVSPost2010PropOp31
 70
     1
102
RTVSPost2010Prop32
280
     0
102
RTVSPost2010PropOp32
 70
     1
102
RTVSPost2010Prop33
280
     0
102
RTVSPost2010PropOp33
 70
     1
102
RTVSPost2010Prop34
280
     0
102
RTVSPost2010PropOp34
 70
     1
102
RTVSPost2010Prop35
280
     0
102
RTVSPost2010PropOp35
 70
     1
102
RTVSPost2010Prop36
280
     0
102
RTVSPost2010PropOp36
 70
     1
102
RTVSPost2010Prop37
 90
       50
102
RTVSPost2010PropOp37
 70
     0
102
RTVSPost2010Prop38
140
0.0
102
RTVSPost2010PropOp38
 70
     0
102
RTVSPost2010Prop39
140
1.0
102
RTVSPost2010PropOp39
 70
     0
102
RTVSPost2010Prop40
 90
        0
102
RTVSPost2010PropOp40
 70
     0
102
RTVSPost2010Prop41ColorIndex
 90
       18
102
RTVSPost2010Prop41ColorRGB
 90
        0
102
RTVSPost2010PropOp41
 70
     0
102
RTVSPost2010Prop42
 90
       50
102
RTVSPost2010PropOp42
 70
     0
102
RTVSPost2010Prop43
 90
        3
102
RTVSPost2010PropOp43
 70
     0
102
RTVSPost2010Prop44ColorIndex
 90
        5
102
RTVSPost2010Prop44ColorRGB
 90
      255
102
RTVSPost2010PropOp44
 70
     0
102
RTVSPost2010Prop45
280
     0
102
RTVSPost2010PropOp45
 70
     1
102
RTVSPost2010Prop46
 90
       50
102
RTVSPost2010PropOp46
 70
     0
102
RTVSPost2010Prop47
 90
       50
102
RTVSPost2010PropOp47
 70
     0
102
RTVSPost2010Prop48
 90
       50
102
RTVSPost2010PropOp48
 70
     0
102
RTVSPost2010Prop49
280
     0
102
RTVSPost2010PropOp49
 70
     1
102
RTVSPost2010Prop50
 90
       50
102
RTVSPost2010PropOp50
 70
     0
102
RTVSPost2010Prop51ColorIndex
 90
      256
102
RTVSPost2010Prop51ColorRGB
 90
-16777216
102
RTVSPost2010PropOp51
 70
     0
102
RTVSPost2010Prop52
140
1.0
102
RTVSPost2010PropOp52
 70
     0
102
RTVSPost2010Prop53
 90
        2
102
RTVSPost2010PropOp53
 70
     0
102
RTVSPost2010Prop54
  1
strokes_ogs.tif
102
RTVSPost2010PropOp54
 70
     0
102
RTVSPost2010Prop55
280
     0
102
RTVSPost2010PropOp55
 70
     1
102
RTVSPost2010Prop56
140
1.0
102
RTVSPost2010PropOp56
 70
     0
102
RTVSPost2010Prop57
140
1.0
102
RTVSPost2010PropOp57
 70
     0
102
RTVSPropertyOp0
 70
     0
102
RTVSPropertyOp1
 70
     0
102
RTVSPropertyOp2
 70
     0
102
RTVSPropertyOp3
 70
     0
102
RTVSPropertyOp4
 70
     0
102
RTVSPropertyOp5
 70
     0
102
RTVSPropertyOp6
 70
     0
102
RTVSPropertyOp7
 70
     0
102
RTVSPropertyOp8
 70
     0
102
RTVSPropertyOp9
 70
     0
102
RTVSPropertyOp10
 70
     0
102
RTVSPropertyOp11
 70
     0
102
RTVSPropertyOp12
 70
     0
102
RTVSPropertyOp13
 70
     0
102
RTVSPropertyOp14
 70
     2
102
RTVSPropertyOp15
 70
     0
102
RTVSPropertyOp16
 70
     0
102
RTVSPropertyOp17
 70
     0
102
RTVSPropertyOp18
 70
     0
102
RTVSPropertyOp19
 70
     0
102
RTVSPropertyOp20
 70
     0
102
RTVSPropertyOp21
 70
     0
102
RTVSPropertyOp22
 70
     0
102
RTVSPropertyOp23
 70
     0
102
RTVSPropertyOp24
 70
     0
102
RTVSPropertyOp25
 70
     0
102
RTVSPropertyOp26
 70
     0
102
RTVSPropertyOp27
 70
     0
102
RTVSPropertyOp28
 70
     1
102
RTVSPropertyOp29
 70
     1
102
RTVSPropertyOp30
 70
     1
102
RTVSPropertyOp31
 70
     1
102
RTVSPropertyOp32
 70
     1
102
RTVSPropertyOp33
 70
     1
102
RTVSPropertyOp34
 70
     1
102
RTVSPropertyOp35
 70
     1
102
RTVSPropertyOp36
 70
     1
102
RTVSPropertyOp37
 70
     0
102
RTVSPropertyOp38
 70
     0
102
RTVSPropertyOp39
 70
     0
102
RTVSPropertyOp40
 70
     0
102
RTVSPropertyOp41
 70
     0
102
RTVSPropertyOp42
 70
     0
102
RTVSPropertyOp43
 70
     0
102
RTVSPropertyOp44
 70
     0
102
RTVSPropertyOp45
 70
     1
102
RTVSPropertyOp46
 70
     0
102
RTVSPropertyOp47
 70
     0
102
RTVSPropertyOp48
 70
     0
102
RTVSPropertyOp49
 70
     1
102
RTVSPropertyOp50
 70
     0
102
RTVSPropertyOp51
 70
     0
102
RTVSPropertyOp52
 70
     0
102
RTVSPropertyOp53
 70
     0
102
RTVSPropertyOp54
 70
     0
102
RTVSPropertyOp55
 70
     1
102
RTVSPropertyOp56
 70
     0
102
RTVSPropertyOp57
 70
     0
102
RTVSPropertyOp58
 70
     0
102
RTVSPropertyOp59
 70
     0
102
RTVSPropertyOp60
 70
     0
102
RTVSPropertyOp61
 70
     0
102
RTVSPropertyOp62
 70
     0
  0
XRECORD
  5
870B
102
{ACAD_REACTORS
330
870A
102
}
330
870A
100
AcDbXrecord
280
     1
102
RTVSPost2010Prop28
280
     0
102
RTVSPost2010PropOp28
 70
     1
102
RTVSPost2010Prop29
280
     1
102
RTVSPost2010PropOp29
 70
     1
102
RTVSPost2010Prop30
280
     1
102
RTVSPost2010PropOp30
 70
     1
102
RTVSPost2010Prop31
280
     0
102
RTVSPost2010PropOp31
 70
     1
102
RTVSPost2010Prop32
280
     0
102
RTVSPost2010PropOp32
 70
     1
102
RTVSPost2010Prop33
280
     0
102
RTVSPost2010PropOp33
 70
     1
102
RTVSPost2010Prop34
280
     0
102
RTVSPost2010PropOp34
 70
     1
102
RTVSPost2010Prop35
280
     0
102
RTVSPost2010PropOp35
 70
     1
102
RTVSPost2010Prop36
280
     0
102
RTVSPost2010PropOp36
 70
     1
102
RTVSPost2010Prop37
 90
       50
102
RTVSPost2010PropOp37
 70
     1
102
RTVSPost2010Prop38
140
0.0
102
RTVSPost2010PropOp38
 70
     1
102
RTVSPost2010Prop39
140
1.0
102
RTVSPost2010PropOp39
 70
     1
102
RTVSPost2010Prop40
 90
        0
102
RTVSPost2010PropOp40
 70
     1
102
RTVSPost2010Prop41ColorIndex
 90
       18
102
RTVSPost2010Prop41ColorRGB
 90
        0
102
RTVSPost2010PropOp41
 70
     1
102
RTVSPost2010Prop42
 90
       50
102
RTVSPost2010PropOp42
 70
     1
102
RTVSPost2010Prop43
 90
        3
102
RTVSPost2010PropOp43
 70
     1
102
RTVSPost2010Prop44ColorIndex
 90
        5
102
RTVSPost2010Prop44ColorRGB
 90
      255
102
RTVSPost2010PropOp44
 70
     1
102
RTVSPost2010Prop45
280
     0
102
RTVSPost2010PropOp45
 70
     1
102
RTVSPost2010Prop46
 90
       50
102
RTVSPost2010PropOp46
 70
     1
102
RTVSPost2010Prop47
 90
       50
102
RTVSPost2010PropOp47
 70
     1
102
RTVSPost2010Prop48
 90
       50
102
RTVSPost2010PropOp48
 70
     1
102
RTVSPost2010Prop49
280
     0
102
RTVSPost2010PropOp49
 70
     1
102
RTVSPost2010Prop50
 90
       50
102
RTVSPost2010PropOp50
 70
     1
102
RTVSPost2010Prop51ColorIndex
 90
      256
102
RTVSPost2010Prop51ColorRGB
 90
-16777216
102
RTVSPost2010PropOp51
 70
     0
102
RTVSPost2010Prop52
140
1.0
102
RTVSPost2010PropOp52
 70
     0
102
RTVSPost2010Prop53
 90
        2
102
RTVSPost2010PropOp53
 70
     1
102
RTVSPost2010Prop54
  1
strokes_ogs.tif
102
RTVSPost2010PropOp54
 70
     1
102
RTVSPost2010Prop55
280
     0
102
RTVSPost2010PropOp55
 70
     1
102
RTVSPost2010Prop56
140
1.0
102
RTVSPost2010PropOp56
 70
     1
102
RTVSPost2010Prop57
140
1.0
102
RTVSPost2010PropOp57
 70
     1
102
RTVSPropertyOp0
 70
     1
102
RTVSPropertyOp1
 70
     1
102
RTVSPropertyOp2
 70
     1
102
RTVSPropertyOp3
 70
     1
102
RTVSPropertyOp4
 70
     1
102
RTVSPropertyOp5
 70
     1
102
RTVSPropertyOp6
 70
     1
102
RTVSPropertyOp7
 70
     1
102
RTVSPropertyOp8
 70
     1
102
RTVSPropertyOp9
 70
     1
102
RTVSPropertyOp10
 70
     1
102
RTVSPropertyOp11
 70
     1
102
RTVSPropertyOp12
 70
     1
102
RTVSPropertyOp13
 70
     1
102
RTVSPropertyOp14
 70
     1
102
RTVSPropertyOp15
 70
     1
102
RTVSPropertyOp16
 70
     1
102
RTVSPropertyOp17
 70
     1
102
RTVSPropertyOp18
 70
     1
102
RTVSPropertyOp19
 70
     1
102
RTVSPropertyOp20
 70
     1
102
RTVSPropertyOp21
 70
     1
102
RTVSPropertyOp22
 70
     1
102
RTVSPropertyOp23
 70
     1
102
RTVSPropertyOp24
 70
     1
102
RTVSPropertyOp25
 70
     1
102
RTVSPropertyOp26
 70
     1
102
RTVSPropertyOp27
 70
     1
102
RTVSPropertyOp28
 70
     1
102
RTVSPropertyOp29
 70
     1
102
RTVSPropertyOp30
 70
     1
102
RTVSPropertyOp31
 70
     1
102
RTVSPropertyOp32
 70
     1
102
RTVSPropertyOp33
 70
     1
102
RTVSPropertyOp34
 70
     1
102
RTVSPropertyOp35
 70
     1
102
RTVSPropertyOp36
 70
     1
102
RTVSPropertyOp37
 70
     1
102
RTVSPropertyOp38
 70
     1
102
RTVSPropertyOp39
 70
     1
102
RTVSPropertyOp40
 70
     1
102
RTVSPropertyOp41
 70
     1
102
RTVSPropertyOp42
 70
     1
102
RTVSPropertyOp43
 70
     1
102
RTVSPropertyOp44
 70
     1
102
RTVSPropertyOp45
 70
     1
102
RTVSPropertyOp46
 70
     1
102
RTVSPropertyOp47
 70
     1
102
RTVSPropertyOp48
 70
     1
102
RTVSPropertyOp49
 70
     1
102
RTVSPropertyOp50
 70
     1
102
RTVSPropertyOp51
 70
     0
102
RTVSPropertyOp52
 70
     0
102
RTVSPropertyOp53
 70
     1
102
RTVSPropertyOp54
 70
     1
102
RTVSPropertyOp55
 70
     1
102
RTVSPropertyOp56
 70
     1
102
RTVSPropertyOp57
 70
     1
102
RTVSPropertyOp58
 70
     1
102
RTVSPropertyOp59
 70
     1
102
RTVSPropertyOp60
 70
     1
102
RTVSPropertyOp61
 70
     1
102
RTVSPropertyOp62
 70
     1
  0
XRECORD
  5
8721
102
{ACAD_REACTORS
330
8720
102
}
330
8720
100
AcDbXrecord
280
     1
102
RTVSPost2010Prop28
280
     0
102
RTVSPost2010PropOp28
 70
     1
102
RTVSPost2010Prop29
280
     1
102
RTVSPost2010PropOp29
 70
     1
102
RTVSPost2010Prop30
280
     1
102
RTVSPost2010PropOp30
 70
     1
102
RTVSPost2010Prop31
280
     0
102
RTVSPost2010PropOp31
 70
     1
102
RTVSPost2010Prop32
280
     0
102
RTVSPost2010PropOp32
 70
     1
102
RTVSPost2010Prop33
280
     0
102
RTVSPost2010PropOp33
 70
     1
102
RTVSPost2010Prop34
280
     0
102
RTVSPost2010PropOp34
 70
     1
102
RTVSPost2010Prop35
280
     0
102
RTVSPost2010PropOp35
 70
     1
102
RTVSPost2010Prop36
280
     0
102
RTVSPost2010PropOp36
 70
     1
102
RTVSPost2010Prop37
 90
       50
102
RTVSPost2010PropOp37
 70
     1
102
RTVSPost2010Prop38
140
0.0
102
RTVSPost2010PropOp38
 70
     1
102
RTVSPost2010Prop39
140
1.0
102
RTVSPost2010PropOp39
 70
     1
102
RTVSPost2010Prop40
 90
        0
102
RTVSPost2010PropOp40
 70
     1
102
RTVSPost2010Prop41ColorIndex
 90
       18
102
RTVSPost2010Prop41ColorRGB
 90
        0
102
RTVSPost2010PropOp41
 70
     1
102
RTVSPost2010Prop42
 90
       50
102
RTVSPost2010PropOp42
 70
     1
102
RTVSPost2010Prop43
 90
        3
102
RTVSPost2010PropOp43
 70
     1
102
RTVSPost2010Prop44ColorIndex
 90
        5
102
RTVSPost2010Prop44ColorRGB
 90
      255
102
RTVSPost2010PropOp44
 70
     1
102
RTVSPost2010Prop45
280
     0
102
RTVSPost2010PropOp45
 70
     1
102
RTVSPost2010Prop46
 90
       50
102
RTVSPost2010PropOp46
 70
     1
102
RTVSPost2010Prop47
 90
       50
102
RTVSPost2010PropOp47
 70
     1
102
RTVSPost2010Prop48
 90
       50
102
RTVSPost2010PropOp48
 70
     1
102
RTVSPost2010Prop49
280
     0
102
RTVSPost2010PropOp49
 70
     1
102
RTVSPost2010Prop50
 90
       50
102
RTVSPost2010PropOp50
 70
     1
102
RTVSPost2010Prop51ColorIndex
 90
      256
102
RTVSPost2010Prop51ColorRGB
 90
-16777216
102
RTVSPost2010PropOp51
 70
     0
102
RTVSPost2010Prop52
140
1.0
102
RTVSPost2010PropOp52
 70
     0
102
RTVSPost2010Prop53
 90
        2
102
RTVSPost2010PropOp53
 70
     1
102
RTVSPost2010Prop54
  1
strokes_ogs.tif
102
RTVSPost2010PropOp54
 70
     1
102
RTVSPost2010Prop55
280
     0
102
RTVSPost2010PropOp55
 70
     1
102
RTVSPost2010Prop56
140
1.0
102
RTVSPost2010PropOp56
 70
     1
102
RTVSPost2010Prop57
140
1.0
102
RTVSPost2010PropOp57
 70
     1
102
RTVSPropertyOp0
 70
     1
102
RTVSPropertyOp1
 70
     1
102
RTVSPropertyOp2
 70
     1
102
RTVSPropertyOp3
 70
     1
102
RTVSPropertyOp4
 70
     1
102
RTVSPropertyOp5
 70
     1
102
RTVSPropertyOp6
 70
     1
102
RTVSPropertyOp7
 70
     1
102
RTVSPropertyOp8
 70
     1
102
RTVSPropertyOp9
 70
     1
102
RTVSPropertyOp10
 70
     1
102
RTVSPropertyOp11
 70
     1
102
RTVSPropertyOp12
 70
     1
102
RTVSPropertyOp13
 70
     1
102
RTVSPropertyOp14
 70
     1
102
RTVSPropertyOp15
 70
     1
102
RTVSPropertyOp16
 70
     1
102
RTVSPropertyOp17
 70
     1
102
RTVSPropertyOp18
 70
     1
102
RTVSPropertyOp19
 70
     1
102
RTVSPropertyOp20
 70
     1
102
RTVSPropertyOp21
 70
     1
102
RTVSPropertyOp22
 70
     1
102
RTVSPropertyOp23
 70
     1
102
RTVSPropertyOp24
 70
     1
102
RTVSPropertyOp25
 70
     1
102
RTVSPropertyOp26
 70
     1
102
RTVSPropertyOp27
 70
     1
102
RTVSPropertyOp28
 70
     1
102
RTVSPropertyOp29
 70
     1
102
RTVSPropertyOp30
 70
     1
102
RTVSPropertyOp31
 70
     1
102
RTVSPropertyOp32
 70
     1
102
RTVSPropertyOp33
 70
     1
102
RTVSPropertyOp34
 70
     1
102
RTVSPropertyOp35
 70
     1
102
RTVSPropertyOp36
 70
     1
102
RTVSPropertyOp37
 70
     1
102
RTVSPropertyOp38
 70
     1
102
RTVSPropertyOp39
 70
     1
102
RTVSPropertyOp40
 70
     1
102
RTVSPropertyOp41
 70
     1
102
RTVSPropertyOp42
 70
     1
102
RTVSPropertyOp43
 70
     1
102
RTVSPropertyOp44
 70
     1
102
RTVSPropertyOp45
 70
     1
102
RTVSPropertyOp46
 70
     1
102
RTVSPropertyOp47
 70
     1
102
RTVSPropertyOp48
 70
     1
102
RTVSPropertyOp49
 70
     1
102
RTVSPropertyOp50
 70
     1
102
RTVSPropertyOp51
 70
     0
102
RTVSPropertyOp52
 70
     0
102
RTVSPropertyOp53
 70
     1
102
RTVSPropertyOp54
 70
     1
102
RTVSPropertyOp55
 70
     1
102
RTVSPropertyOp56
 70
     1
102
RTVSPropertyOp57
 70
     1
102
RTVSPropertyOp58
 70
     1
102
RTVSPropertyOp59
 70
     1
102
RTVSPropertyOp60
 70
     1
102
RTVSPropertyOp61
 70
     1
102
RTVSPropertyOp62
 70
     1
  0
XRECORD
  5
871F
102
{ACAD_REACTORS
330
871E
102
}
330
871E
100
AcDbXrecord
280
     1
102
RTVSPost2010Prop28
280
     0
102
RTVSPost2010PropOp28
 70
     1
102
RTVSPost2010Prop29
280
     1
102
RTVSPost2010PropOp29
 70
     1
102
RTVSPost2010Prop30
280
     1
102
RTVSPost2010PropOp30
 70
     1
102
RTVSPost2010Prop31
280
     0
102
RTVSPost2010PropOp31
 70
     1
102
RTVSPost2010Prop32
280
     0
102
RTVSPost2010PropOp32
 70
     1
102
RTVSPost2010Prop33
280
     0
102
RTVSPost2010PropOp33
 70
     1
102
RTVSPost2010Prop34
280
     0
102
RTVSPost2010PropOp34
 70
     1
102
RTVSPost2010Prop35
280
     0
102
RTVSPost2010PropOp35
 70
     1
102
RTVSPost2010Prop36
280
     0
102
RTVSPost2010PropOp36
 70
     1
102
RTVSPost2010Prop37
 90
       50
102
RTVSPost2010PropOp37
 70
     1
102
RTVSPost2010Prop38
140
0.0
102
RTVSPost2010PropOp38
 70
     1
102
RTVSPost2010Prop39
140
1.0
102
RTVSPost2010PropOp39
 70
     1
102
RTVSPost2010Prop40
 90
        0
102
RTVSPost2010PropOp40
 70
     1
102
RTVSPost2010Prop41ColorIndex
 90
       18
102
RTVSPost2010Prop41ColorRGB
 90
        0
102
RTVSPost2010PropOp41
 70
     1
102
RTVSPost2010Prop42
 90
       50
102
RTVSPost2010PropOp42
 70
     1
102
RTVSPost2010Prop43
 90
        3
102
RTVSPost2010PropOp43
 70
     1
102
RTVSPost2010Prop44ColorIndex
 90
        5
102
RTVSPost2010Prop44ColorRGB
 90
      255
102
RTVSPost2010PropOp44
 70
     1
102
RTVSPost2010Prop45
280
     0
102
RTVSPost2010PropOp45
 70
     1
102
RTVSPost2010Prop46
 90
       50
102
RTVSPost2010PropOp46
 70
     1
102
RTVSPost2010Prop47
 90
       50
102
RTVSPost2010PropOp47
 70
     1
102
RTVSPost2010Prop48
 90
       50
102
RTVSPost2010PropOp48
 70
     1
102
RTVSPost2010Prop49
280
     0
102
RTVSPost2010PropOp49
 70
     1
102
RTVSPost2010Prop50
 90
       50
102
RTVSPost2010PropOp50
 70
     1
102
RTVSPost2010Prop51ColorIndex
 90
      256
102
RTVSPost2010Prop51ColorRGB
 90
-16777216
102
RTVSPost2010PropOp51
 70
     0
102
RTVSPost2010Prop52
140
1.0
102
RTVSPost2010PropOp52
 70
     0
102
RTVSPost2010Prop53
 90
        2
102
RTVSPost2010PropOp53
 70
     1
102
RTVSPost2010Prop54
  1
strokes_ogs.tif
102
RTVSPost2010PropOp54
 70
     1
102
RTVSPost2010Prop55
280
     0
102
RTVSPost2010PropOp55
 70
     1
102
RTVSPost2010Prop56
140
1.0
102
RTVSPost2010PropOp56
 70
     1
102
RTVSPost2010Prop57
140
1.0
102
RTVSPost2010PropOp57
 70
     1
102
RTVSPropertyOp0
 70
     1
102
RTVSPropertyOp1
 70
     1
102
RTVSPropertyOp2
 70
     1
102
RTVSPropertyOp3
 70
     1
102
RTVSPropertyOp4
 70
     1
102
RTVSPropertyOp5
 70
     1
102
RTVSPropertyOp6
 70
     1
102
RTVSPropertyOp7
 70
     1
102
RTVSPropertyOp8
 70
     1
102
RTVSPropertyOp9
 70
     1
102
RTVSPropertyOp10
 70
     1
102
RTVSPropertyOp11
 70
     1
102
RTVSPropertyOp12
 70
     1
102
RTVSPropertyOp13
 70
     1
102
RTVSPropertyOp14
 70
     1
102
RTVSPropertyOp15
 70
     1
102
RTVSPropertyOp16
 70
     1
102
RTVSPropertyOp17
 70
     1
102
RTVSPropertyOp18
 70
     1
102
RTVSPropertyOp19
 70
     1
102
RTVSPropertyOp20
 70
     1
102
RTVSPropertyOp21
 70
     1
102
RTVSPropertyOp22
 70
     1
102
RTVSPropertyOp23
 70
     1
102
RTVSPropertyOp24
 70
     1
102
RTVSPropertyOp25
 70
     1
102
RTVSPropertyOp26
 70
     1
102
RTVSPropertyOp27
 70
     1
102
RTVSPropertyOp28
 70
     1
102
RTVSPropertyOp29
 70
     1
102
RTVSPropertyOp30
 70
     1
102
RTVSPropertyOp31
 70
     1
102
RTVSPropertyOp32
 70
     1
102
RTVSPropertyOp33
 70
     1
102
RTVSPropertyOp34
 70
     1
102
RTVSPropertyOp35
 70
     1
102
RTVSPropertyOp36
 70
     1
102
RTVSPropertyOp37
 70
     1
102
RTVSPropertyOp38
 70
     1
102
RTVSPropertyOp39
 70
     1
102
RTVSPropertyOp40
 70
     1
102
RTVSPropertyOp41
 70
     1
102
RTVSPropertyOp42
 70
     1
102
RTVSPropertyOp43
 70
     1
102
RTVSPropertyOp44
 70
     1
102
RTVSPropertyOp45
 70
     1
102
RTVSPropertyOp46
 70
     1
102
RTVSPropertyOp47
 70
     1
102
RTVSPropertyOp48
 70
     1
102
RTVSPropertyOp49
 70
     1
102
RTVSPropertyOp50
 70
     1
102
RTVSPropertyOp51
 70
     0
102
RTVSPropertyOp52
 70
     0
102
RTVSPropertyOp53
 70
     1
102
RTVSPropertyOp54
 70
     1
102
RTVSPropertyOp55
 70
     1
102
RTVSPropertyOp56
 70
     1
102
RTVSPropertyOp57
 70
     1
102
RTVSPropertyOp58
 70
     1
102
RTVSPropertyOp59
 70
     1
102
RTVSPropertyOp60
 70
     1
102
RTVSPropertyOp61
 70
     1
102
RTVSPropertyOp62
 70
     1
  0
XRECORD
  5
8719
102
{ACAD_REACTORS
330
8718
102
}
330
8718
100
AcDbXrecord
280
     1
102
RTVSPost2010Prop28
280
     0
102
RTVSPost2010PropOp28
 70
     1
102
RTVSPost2010Prop29
280
     1
102
RTVSPost2010PropOp29
 70
     1
102
RTVSPost2010Prop30
280
     1
102
RTVSPost2010PropOp30
 70
     1
102
RTVSPost2010Prop31
280
     0
102
RTVSPost2010PropOp31
 70
     1
102
RTVSPost2010Prop32
280
     0
102
RTVSPost2010PropOp32
 70
     1
102
RTVSPost2010Prop33
280
     0
102
RTVSPost2010PropOp33
 70
     1
102
RTVSPost2010Prop34
280
     0
102
RTVSPost2010PropOp34
 70
     1
102
RTVSPost2010Prop35
280
     0
102
RTVSPost2010PropOp35
 70
     1
102
RTVSPost2010Prop36
280
     0
102
RTVSPost2010PropOp36
 70
     1
102
RTVSPost2010Prop37
 90
       50
102
RTVSPost2010PropOp37
 70
     1
102
RTVSPost2010Prop38
140
0.0
102
RTVSPost2010PropOp38
 70
     1
102
RTVSPost2010Prop39
140
1.0
102
RTVSPost2010PropOp39
 70
     1
102
RTVSPost2010Prop40
 90
        0
102
RTVSPost2010PropOp40
 70
     1
102
RTVSPost2010Prop41ColorIndex
 90
       18
102
RTVSPost2010Prop41ColorRGB
 90
        0
102
RTVSPost2010PropOp41
 70
     1
102
RTVSPost2010Prop42
 90
       50
102
RTVSPost2010PropOp42
 70
     1
102
RTVSPost2010Prop43
 90
        3
102
RTVSPost2010PropOp43
 70
     1
102
RTVSPost2010Prop44ColorIndex
 90
        5
102
RTVSPost2010Prop44ColorRGB
 90
      255
102
RTVSPost2010PropOp44
 70
     1
102
RTVSPost2010Prop45
280
     0
102
RTVSPost2010PropOp45
 70
     1
102
RTVSPost2010Prop46
 90
       50
102
RTVSPost2010PropOp46
 70
     1
102
RTVSPost2010Prop47
 90
       50
102
RTVSPost2010PropOp47
 70
     1
102
RTVSPost2010Prop48
 90
       50
102
RTVSPost2010PropOp48
 70
     1
102
RTVSPost2010Prop49
280
     0
102
RTVSPost2010PropOp49
 70
     1
102
RTVSPost2010Prop50
 90
       50
102
RTVSPost2010PropOp50
 70
     1
102
RTVSPost2010Prop51ColorIndex
 90
      256
102
RTVSPost2010Prop51ColorRGB
 90
-16777216
102
RTVSPost2010PropOp51
 70
     0
102
RTVSPost2010Prop52
140
1.0
102
RTVSPost2010PropOp52
 70
     0
102
RTVSPost2010Prop53
 90
        2
102
RTVSPost2010PropOp53
 70
     1
102
RTVSPost2010Prop54
  1
strokes_ogs.tif
102
RTVSPost2010PropOp54
 70
     1
102
RTVSPost2010Prop55
280
     0
102
RTVSPost2010PropOp55
 70
     1
102
RTVSPost2010Prop56
140
1.0
102
RTVSPost2010PropOp56
 70
     1
102
RTVSPost2010Prop57
140
1.0
102
RTVSPost2010PropOp57
 70
     1
102
RTVSPropertyOp0
 70
     1
102
RTVSPropertyOp1
 70
     1
102
RTVSPropertyOp2
 70
     1
102
RTVSPropertyOp3
 70
     1
102
RTVSPropertyOp4
 70
     1
102
RTVSPropertyOp5
 70
     1
102
RTVSPropertyOp6
 70
     1
102
RTVSPropertyOp7
 70
     1
102
RTVSPropertyOp8
 70
     1
102
RTVSPropertyOp9
 70
     1
102
RTVSPropertyOp10
 70
     1
102
RTVSPropertyOp11
 70
     1
102
RTVSPropertyOp12
 70
     1
102
RTVSPropertyOp13
 70
     1
102
RTVSPropertyOp14
 70
     1
102
RTVSPropertyOp15
 70
     1
102
RTVSPropertyOp16
 70
     1
102
RTVSPropertyOp17
 70
     1
102
RTVSPropertyOp18
 70
     1
102
RTVSPropertyOp19
 70
     1
102
RTVSPropertyOp20
 70
     1
102
RTVSPropertyOp21
 70
     1
102
RTVSPropertyOp22
 70
     1
102
RTVSPropertyOp23
 70
     1
102
RTVSPropertyOp24
 70
     1
102
RTVSPropertyOp25
 70
     1
102
RTVSPropertyOp26
 70
     1
102
RTVSPropertyOp27
 70
     1
102
RTVSPropertyOp28
 70
     1
102
RTVSPropertyOp29
 70
     1
102
RTVSPropertyOp30
 70
     1
102
RTVSPropertyOp31
 70
     1
102
RTVSPropertyOp32
 70
     1
102
RTVSPropertyOp33
 70
     1
102
RTVSPropertyOp34
 70
     1
102
RTVSPropertyOp35
 70
     1
102
RTVSPropertyOp36
 70
     1
102
RTVSPropertyOp37
 70
     1
102
RTVSPropertyOp38
 70
     1
102
RTVSPropertyOp39
 70
     1
102
RTVSPropertyOp40
 70
     1
102
RTVSPropertyOp41
 70
     1
102
RTVSPropertyOp42
 70
     1
102
RTVSPropertyOp43
 70
     1
102
RTVSPropertyOp44
 70
     1
102
RTVSPropertyOp45
 70
     1
102
RTVSPropertyOp46
 70
     1
102
RTVSPropertyOp47
 70
     1
102
RTVSPropertyOp48
 70
     1
102
RTVSPropertyOp49
 70
     1
102
RTVSPropertyOp50
 70
     1
102
RTVSPropertyOp51
 70
     0
102
RTVSPropertyOp52
 70
     0
102
RTVSPropertyOp53
 70
     1
102
RTVSPropertyOp54
 70
     1
102
RTVSPropertyOp55
 70
     1
102
RTVSPropertyOp56
 70
     1
102
RTVSPropertyOp57
 70
     1
102
RTVSPropertyOp58
 70
     1
102
RTVSPropertyOp59
 70
     1
102
RTVSPropertyOp60
 70
     1
102
RTVSPropertyOp61
 70
     1
102
RTVSPropertyOp62
 70
     1
  0
XRECORD
  5
871B
102
{ACAD_REACTORS
330
871A
102
}
330
871A
100
AcDbXrecord
280
     1
102
RTVSPost2010Prop28
280
     0
102
RTVSPost2010PropOp28
 70
     1
102
RTVSPost2010Prop29
280
     1
102
RTVSPost2010PropOp29
 70
     1
102
RTVSPost2010Prop30
280
     1
102
RTVSPost2010PropOp30
 70
     1
102
RTVSPost2010Prop31
280
     0
102
RTVSPost2010PropOp31
 70
     1
102
RTVSPost2010Prop32
280
     0
102
RTVSPost2010PropOp32
 70
     1
102
RTVSPost2010Prop33
280
     0
102
RTVSPost2010PropOp33
 70
     1
102
RTVSPost2010Prop34
280
     0
102
RTVSPost2010PropOp34
 70
     1
102
RTVSPost2010Prop35
280
     0
102
RTVSPost2010PropOp35
 70
     1
102
RTVSPost2010Prop36
280
     0
102
RTVSPost2010PropOp36
 70
     1
102
RTVSPost2010Prop37
 90
       50
102
RTVSPost2010PropOp37
 70
     1
102
RTVSPost2010Prop38
140
0.0
102
RTVSPost2010PropOp38
 70
     1
102
RTVSPost2010Prop39
140
1.0
102
RTVSPost2010PropOp39
 70
     1
102
RTVSPost2010Prop40
 90
        0
102
RTVSPost2010PropOp40
 70
     1
102
RTVSPost2010Prop41ColorIndex
 90
       18
102
RTVSPost2010Prop41ColorRGB
 90
        0
102
RTVSPost2010PropOp41
 70
     1
102
RTVSPost2010Prop42
 90
       50
102
RTVSPost2010PropOp42
 70
     1
102
RTVSPost2010Prop43
 90
        3
102
RTVSPost2010PropOp43
 70
     1
102
RTVSPost2010Prop44ColorIndex
 90
        5
102
RTVSPost2010Prop44ColorRGB
 90
      255
102
RTVSPost2010PropOp44
 70
     1
102
RTVSPost2010Prop45
280
     0
102
RTVSPost2010PropOp45
 70
     1
102
RTVSPost2010Prop46
 90
       50
102
RTVSPost2010PropOp46
 70
     1
102
RTVSPost2010Prop47
 90
       50
102
RTVSPost2010PropOp47
 70
     1
102
RTVSPost2010Prop48
 90
       50
102
RTVSPost2010PropOp48
 70
     1
102
RTVSPost2010Prop49
280
     0
102
RTVSPost2010PropOp49
 70
     1
102
RTVSPost2010Prop50
 90
       50
102
RTVSPost2010PropOp50
 70
     1
102
RTVSPost2010Prop51ColorIndex
 90
      256
102
RTVSPost2010Prop51ColorRGB
 90
-16777216
102
RTVSPost2010PropOp51
 70
     0
102
RTVSPost2010Prop52
140
1.0
102
RTVSPost2010PropOp52
 70
     0
102
RTVSPost2010Prop53
 90
        2
102
RTVSPost2010PropOp53
 70
     1
102
RTVSPost2010Prop54
  1
strokes_ogs.tif
102
RTVSPost2010PropOp54
 70
     1
102
RTVSPost2010Prop55
280
     0
102
RTVSPost2010PropOp55
 70
     1
102
RTVSPost2010Prop56
140
1.0
102
RTVSPost2010PropOp56
 70
     1
102
RTVSPost2010Prop57
140
1.0
102
RTVSPost2010PropOp57
 70
     1
102
RTVSPropertyOp0
 70
     1
102
RTVSPropertyOp1
 70
     1
102
RTVSPropertyOp2
 70
     1
102
RTVSPropertyOp3
 70
     1
102
RTVSPropertyOp4
 70
     1
102
RTVSPropertyOp5
 70
     1
102
RTVSPropertyOp6
 70
     1
102
RTVSPropertyOp7
 70
     1
102
RTVSPropertyOp8
 70
     1
102
RTVSPropertyOp9
 70
     1
102
RTVSPropertyOp10
 70
     1
102
RTVSPropertyOp11
 70
     1
102
RTVSPropertyOp12
 70
     1
102
RTVSPropertyOp13
 70
     1
102
RTVSPropertyOp14
 70
     1
102
RTVSPropertyOp15
 70
     1
102
RTVSPropertyOp16
 70
     1
102
RTVSPropertyOp17
 70
     1
102
RTVSPropertyOp18
 70
     1
102
RTVSPropertyOp19
 70
     1
102
RTVSPropertyOp20
 70
     1
102
RTVSPropertyOp21
 70
     1
102
RTVSPropertyOp22
 70
     1
102
RTVSPropertyOp23
 70
     1
102
RTVSPropertyOp24
 70
     1
102
RTVSPropertyOp25
 70
     1
102
RTVSPropertyOp26
 70
     1
102
RTVSPropertyOp27
 70
     1
102
RTVSPropertyOp28
 70
     1
102
RTVSPropertyOp29
 70
     1
102
RTVSPropertyOp30
 70
     1
102
RTVSPropertyOp31
 70
     1
102
RTVSPropertyOp32
 70
     1
102
RTVSPropertyOp33
 70
     1
102
RTVSPropertyOp34
 70
     1
102
RTVSPropertyOp35
 70
     1
102
RTVSPropertyOp36
 70
     1
102
RTVSPropertyOp37
 70
     1
102
RTVSPropertyOp38
 70
     1
102
RTVSPropertyOp39
 70
     1
102
RTVSPropertyOp40
 70
     1
102
RTVSPropertyOp41
 70
     1
102
RTVSPropertyOp42
 70
     1
102
RTVSPropertyOp43
 70
     1
102
RTVSPropertyOp44
 70
     1
102
RTVSPropertyOp45
 70
     1
102
RTVSPropertyOp46
 70
     1
102
RTVSPropertyOp47
 70
     1
102
RTVSPropertyOp48
 70
     1
102
RTVSPropertyOp49
 70
     1
102
RTVSPropertyOp50
 70
     1
102
RTVSPropertyOp51
 70
     0
102
RTVSPropertyOp52
 70
     0
102
RTVSPropertyOp53
 70
     1
102
RTVSPropertyOp54
 70
     1
102
RTVSPropertyOp55
 70
     1
102
RTVSPropertyOp56
 70
     1
102
RTVSPropertyOp57
 70
     1
102
RTVSPropertyOp58
 70
     1
102
RTVSPropertyOp59
 70
     1
102
RTVSPropertyOp60
 70
     1
102
RTVSPropertyOp61
 70
     1
102
RTVSPropertyOp62
 70
     1
  0
XRECORD
  5
8711
102
{ACAD_REACTORS
330
8710
102
}
330
8710
100
AcDbXrecord
280
     1
102
RTVSPost2010Prop28
280
     0
102
RTVSPost2010PropOp28
 70
     1
102
RTVSPost2010Prop29
280
     1
102
RTVSPost2010PropOp29
 70
     1
102
RTVSPost2010Prop30
280
     1
102
RTVSPost2010PropOp30
 70
     1
102
RTVSPost2010Prop31
280
     0
102
RTVSPost2010PropOp31
 70
     1
102
RTVSPost2010Prop32
280
     0
102
RTVSPost2010PropOp32
 70
     1
102
RTVSPost2010Prop33
280
     0
102
RTVSPost2010PropOp33
 70
     1
102
RTVSPost2010Prop34
280
     0
102
RTVSPost2010PropOp34
 70
     1
102
RTVSPost2010Prop35
280
     0
102
RTVSPost2010PropOp35
 70
     1
102
RTVSPost2010Prop36
280
     0
102
RTVSPost2010PropOp36
 70
     1
102
RTVSPost2010Prop37
 90
       50
102
RTVSPost2010PropOp37
 70
     1
102
RTVSPost2010Prop38
140
0.0
102
RTVSPost2010PropOp38
 70
     1
102
RTVSPost2010Prop39
140
1.0
102
RTVSPost2010PropOp39
 70
     1
102
RTVSPost2010Prop40
 90
        0
102
RTVSPost2010PropOp40
 70
     1
102
RTVSPost2010Prop41ColorIndex
 90
       18
102
RTVSPost2010Prop41ColorRGB
 90
        0
102
RTVSPost2010PropOp41
 70
     1
102
RTVSPost2010Prop42
 90
       50
102
RTVSPost2010PropOp42
 70
     1
102
RTVSPost2010Prop43
 90
        3
102
RTVSPost2010PropOp43
 70
     1
102
RTVSPost2010Prop44ColorIndex
 90
        5
102
RTVSPost2010Prop44ColorRGB
 90
      255
102
RTVSPost2010PropOp44
 70
     1
102
RTVSPost2010Prop45
280
     0
102
RTVSPost2010PropOp45
 70
     1
102
RTVSPost2010Prop46
 90
       50
102
RTVSPost2010PropOp46
 70
     1
102
RTVSPost2010Prop47
 90
       50
102
RTVSPost2010PropOp47
 70
     1
102
RTVSPost2010Prop48
 90
       50
102
RTVSPost2010PropOp48
 70
     1
102
RTVSPost2010Prop49
280
     0
102
RTVSPost2010PropOp49
 70
     1
102
RTVSPost2010Prop50
 90
       50
102
RTVSPost2010PropOp50
 70
     1
102
RTVSPost2010Prop51ColorIndex
 90
      256
102
RTVSPost2010Prop51ColorRGB
 90
-16777216
102
RTVSPost2010PropOp51
 70
     0
102
RTVSPost2010Prop52
140
1.0
102
RTVSPost2010PropOp52
 70
     0
102
RTVSPost2010Prop53
 90
        2
102
RTVSPost2010PropOp53
 70
     1
102
RTVSPost2010Prop54
  1
strokes_ogs.tif
102
RTVSPost2010PropOp54
 70
     1
102
RTVSPost2010Prop55
280
     0
102
RTVSPost2010PropOp55
 70
     1
102
RTVSPost2010Prop56
140
1.0
102
RTVSPost2010PropOp56
 70
     1
102
RTVSPost2010Prop57
140
1.0
102
RTVSPost2010PropOp57
 70
     1
102
RTVSPropertyOp0
 70
     1
102
RTVSPropertyOp1
 70
     1
102
RTVSPropertyOp2
 70
     1
102
RTVSPropertyOp3
 70
     1
102
RTVSPropertyOp4
 70
     1
102
RTVSPropertyOp5
 70
     1
102
RTVSPropertyOp6
 70
     1
102
RTVSPropertyOp7
 70
     1
102
RTVSPropertyOp8
 70
     1
102
RTVSPropertyOp9
 70
     1
102
RTVSPropertyOp10
 70
     1
102
RTVSPropertyOp11
 70
     1
102
RTVSPropertyOp12
 70
     1
102
RTVSPropertyOp13
 70
     1
102
RTVSPropertyOp14
 70
     1
102
RTVSPropertyOp15
 70
     1
102
RTVSPropertyOp16
 70
     1
102
RTVSPropertyOp17
 70
     1
102
RTVSPropertyOp18
 70
     1
102
RTVSPropertyOp19
 70
     1
102
RTVSPropertyOp20
 70
     1
102
RTVSPropertyOp21
 70
     1
102
RTVSPropertyOp22
 70
     1
102
RTVSPropertyOp23
 70
     1
102
RTVSPropertyOp24
 70
     1
102
RTVSPropertyOp25
 70
     1
102
RTVSPropertyOp26
 70
     1
102
RTVSPropertyOp27
 70
     1
102
RTVSPropertyOp28
 70
     1
102
RTVSPropertyOp29
 70
     1
102
RTVSPropertyOp30
 70
     1
102
RTVSPropertyOp31
 70
     1
102
RTVSPropertyOp32
 70
     1
102
RTVSPropertyOp33
 70
     1
102
RTVSPropertyOp34
 70
     1
102
RTVSPropertyOp35
 70
     1
102
RTVSPropertyOp36
 70
     1
102
RTVSPropertyOp37
 70
     1
102
RTVSPropertyOp38
 70
     1
102
RTVSPropertyOp39
 70
     1
102
RTVSPropertyOp40
 70
     1
102
RTVSPropertyOp41
 70
     1
102
RTVSPropertyOp42
 70
     1
102
RTVSPropertyOp43
 70
     1
102
RTVSPropertyOp44
 70
     1
102
RTVSPropertyOp45
 70
     1
102
RTVSPropertyOp46
 70
     1
102
RTVSPropertyOp47
 70
     1
102
RTVSPropertyOp48
 70
     1
102
RTVSPropertyOp49
 70
     1
102
RTVSPropertyOp50
 70
     1
102
RTVSPropertyOp51
 70
     0
102
RTVSPropertyOp52
 70
     0
102
RTVSPropertyOp53
 70
     1
102
RTVSPropertyOp54
 70
     1
102
RTVSPropertyOp55
 70
     1
102
RTVSPropertyOp56
 70
     1
102
RTVSPropertyOp57
 70
     1
102
RTVSPropertyOp58
 70
     1
102
RTVSPropertyOp59
 70
     1
102
RTVSPropertyOp60
 70
     1
102
RTVSPropertyOp61
 70
     1
102
RTVSPropertyOp62
 70
     1
  0
XRECORD
  5
8705
102
{ACAD_REACTORS
330
8704
102
}
330
8704
100
AcDbXrecord
280
     1
102
RTVSPost2010Prop28
280
     0
102
RTVSPost2010PropOp28
 70
     1
102
RTVSPost2010Prop29
280
     1
102
RTVSPost2010PropOp29
 70
     1
102
RTVSPost2010Prop30
280
     1
102
RTVSPost2010PropOp30
 70
     1
102
RTVSPost2010Prop31
280
     0
102
RTVSPost2010PropOp31
 70
     1
102
RTVSPost2010Prop32
280
     0
102
RTVSPost2010PropOp32
 70
     1
102
RTVSPost2010Prop33
280
     0
102
RTVSPost2010PropOp33
 70
     1
102
RTVSPost2010Prop34
280
     0
102
RTVSPost2010PropOp34
 70
     1
102
RTVSPost2010Prop35
280
     0
102
RTVSPost2010PropOp35
 70
     1
102
RTVSPost2010Prop36
280
     0
102
RTVSPost2010PropOp36
 70
     1
102
RTVSPost2010Prop37
 90
       50
102
RTVSPost2010PropOp37
 70
     1
102
RTVSPost2010Prop38
140
0.0
102
RTVSPost2010PropOp38
 70
     1
102
RTVSPost2010Prop39
140
1.0
102
RTVSPost2010PropOp39
 70
     1
102
RTVSPost2010Prop40
 90
        0
102
RTVSPost2010PropOp40
 70
     1
102
RTVSPost2010Prop41ColorIndex
 90
       18
102
RTVSPost2010Prop41ColorRGB
 90
        0
102
RTVSPost2010PropOp41
 70
     1
102
RTVSPost2010Prop42
 90
       50
102
RTVSPost2010PropOp42
 70
     1
102
RTVSPost2010Prop43
 90
        3
102
RTVSPost2010PropOp43
 70
     1
102
RTVSPost2010Prop44ColorIndex
 90
        5
102
RTVSPost2010Prop44ColorRGB
 90
      255
102
RTVSPost2010PropOp44
 70
     1
102
RTVSPost2010Prop45
280
     0
102
RTVSPost2010PropOp45
 70
     1
102
RTVSPost2010Prop46
 90
       50
102
RTVSPost2010PropOp46
 70
     1
102
RTVSPost2010Prop47
 90
       50
102
RTVSPost2010PropOp47
 70
     1
102
RTVSPost2010Prop48
 90
       50
102
RTVSPost2010PropOp48
 70
     1
102
RTVSPost2010Prop49
280
     0
102
RTVSPost2010PropOp49
 70
     1
102
RTVSPost2010Prop50
 90
       50
102
RTVSPost2010PropOp50
 70
     1
102
RTVSPost2010Prop51ColorIndex
 90
      256
102
RTVSPost2010Prop51ColorRGB
 90
-16777216
102
RTVSPost2010PropOp51
 70
     0
102
RTVSPost2010Prop52
140
1.0
102
RTVSPost2010PropOp52
 70
     0
102
RTVSPost2010Prop53
 90
        2
102
RTVSPost2010PropOp53
 70
     1
102
RTVSPost2010Prop54
  1
strokes_ogs.tif
102
RTVSPost2010PropOp54
 70
     1
102
RTVSPost2010Prop55
280
     0
102
RTVSPost2010PropOp55
 70
     1
102
RTVSPost2010Prop56
140
1.0
102
RTVSPost2010PropOp56
 70
     1
102
RTVSPost2010Prop57
140
1.0
102
RTVSPost2010PropOp57
 70
     1
102
RTVSPropertyOp0
 70
     1
102
RTVSPropertyOp1
 70
     1
102
RTVSPropertyOp2
 70
     1
102
RTVSPropertyOp3
 70
     1
102
RTVSPropertyOp4
 70
     1
102
RTVSPropertyOp5
 70
     1
102
RTVSPropertyOp6
 70
     1
102
RTVSPropertyOp7
 70
     1
102
RTVSPropertyOp8
 70
     1
102
RTVSPropertyOp9
 70
     1
102
RTVSPropertyOp10
 70
     1
102
RTVSPropertyOp11
 70
     1
102
RTVSPropertyOp12
 70
     1
102
RTVSPropertyOp13
 70
     1
102
RTVSPropertyOp14
 70
     1
102
RTVSPropertyOp15
 70
     1
102
RTVSPropertyOp16
 70
     1
102
RTVSPropertyOp17
 70
     1
102
RTVSPropertyOp18
 70
     1
102
RTVSPropertyOp19
 70
     1
102
RTVSPropertyOp20
 70
     1
102
RTVSPropertyOp21
 70
     1
102
RTVSPropertyOp22
 70
     1
102
RTVSPropertyOp23
 70
     1
102
RTVSPropertyOp24
 70
     1
102
RTVSPropertyOp25
 70
     1
102
RTVSPropertyOp26
 70
     1
102
RTVSPropertyOp27
 70
     1
102
RTVSPropertyOp28
 70
     1
102
RTVSPropertyOp29
 70
     1
102
RTVSPropertyOp30
 70
     1
102
RTVSPropertyOp31
 70
     1
102
RTVSPropertyOp32
 70
     1
102
RTVSPropertyOp33
 70
     1
102
RTVSPropertyOp34
 70
     1
102
RTVSPropertyOp35
 70
     1
102
RTVSPropertyOp36
 70
     1
102
RTVSPropertyOp37
 70
     1
102
RTVSPropertyOp38
 70
     1
102
RTVSPropertyOp39
 70
     1
102
RTVSPropertyOp40
 70
     1
102
RTVSPropertyOp41
 70
     1
102
RTVSPropertyOp42
 70
     1
102
RTVSPropertyOp43
 70
     1
102
RTVSPropertyOp44
 70
     1
102
RTVSPropertyOp45
 70
     1
102
RTVSPropertyOp46
 70
     1
102
RTVSPropertyOp47
 70
     1
102
RTVSPropertyOp48
 70
     1
102
RTVSPropertyOp49
 70
     1
102
RTVSPropertyOp50
 70
     1
102
RTVSPropertyOp51
 70
     0
102
RTVSPropertyOp52
 70
     0
102
RTVSPropertyOp53
 70
     1
102
RTVSPropertyOp54
 70
     1
102
RTVSPropertyOp55
 70
     1
102
RTVSPropertyOp56
 70
     1
102
RTVSPropertyOp57
 70
     1
102
RTVSPropertyOp58
 70
     1
102
RTVSPropertyOp59
 70
     1
102
RTVSPropertyOp60
 70
     1
102
RTVSPropertyOp61
 70
     1
102
RTVSPropertyOp62
 70
     1
  0
XRECORD
  5
871D
102
{ACAD_REACTORS
330
871C
102
}
330
871C
100
AcDbXrecord
280
     1
102
RTVSPost2010Prop28
280
     0
102
RTVSPost2010PropOp28
 70
     1
102
RTVSPost2010Prop29
280
     1
102
RTVSPost2010PropOp29
 70
     1
102
RTVSPost2010Prop30
280
     1
102
RTVSPost2010PropOp30
 70
     1
102
RTVSPost2010Prop31
280
     0
102
RTVSPost2010PropOp31
 70
     1
102
RTVSPost2010Prop32
280
     0
102
RTVSPost2010PropOp32
 70
     1
102
RTVSPost2010Prop33
280
     0
102
RTVSPost2010PropOp33
 70
     1
102
RTVSPost2010Prop34
280
     0
102
RTVSPost2010PropOp34
 70
     1
102
RTVSPost2010Prop35
280
     0
102
RTVSPost2010PropOp35
 70
     1
102
RTVSPost2010Prop36
280
     0
102
RTVSPost2010PropOp36
 70
     1
102
RTVSPost2010Prop37
 90
       50
102
RTVSPost2010PropOp37
 70
     1
102
RTVSPost2010Prop38
140
0.0
102
RTVSPost2010PropOp38
 70
     1
102
RTVSPost2010Prop39
140
1.0
102
RTVSPost2010PropOp39
 70
     1
102
RTVSPost2010Prop40
 90
        0
102
RTVSPost2010PropOp40
 70
     1
102
RTVSPost2010Prop41ColorIndex
 90
       18
102
RTVSPost2010Prop41ColorRGB
 90
        0
102
RTVSPost2010PropOp41
 70
     1
102
RTVSPost2010Prop42
 90
       50
102
RTVSPost2010PropOp42
 70
     1
102
RTVSPost2010Prop43
 90
        3
102
RTVSPost2010PropOp43
 70
     1
102
RTVSPost2010Prop44ColorIndex
 90
        5
102
RTVSPost2010Prop44ColorRGB
 90
      255
102
RTVSPost2010PropOp44
 70
     1
102
RTVSPost2010Prop45
280
     0
102
RTVSPost2010PropOp45
 70
     1
102
RTVSPost2010Prop46
 90
       50
102
RTVSPost2010PropOp46
 70
     1
102
RTVSPost2010Prop47
 90
       50
102
RTVSPost2010PropOp47
 70
     1
102
RTVSPost2010Prop48
 90
       50
102
RTVSPost2010PropOp48
 70
     1
102
RTVSPost2010Prop49
280
     0
102
RTVSPost2010PropOp49
 70
     1
102
RTVSPost2010Prop50
 90
       50
102
RTVSPost2010PropOp50
 70
     1
102
RTVSPost2010Prop51ColorIndex
 90
      256
102
RTVSPost2010Prop51ColorRGB
 90
-16777216
102
RTVSPost2010PropOp51
 70
     0
102
RTVSPost2010Prop52
140
1.0
102
RTVSPost2010PropOp52
 70
     0
102
RTVSPost2010Prop53
 90
        2
102
RTVSPost2010PropOp53
 70
     1
102
RTVSPost2010Prop54
  1
strokes_ogs.tif
102
RTVSPost2010PropOp54
 70
     1
102
RTVSPost2010Prop55
280
     0
102
RTVSPost2010PropOp55
 70
     1
102
RTVSPost2010Prop56
140
1.0
102
RTVSPost2010PropOp56
 70
     1
102
RTVSPost2010Prop57
140
1.0
102
RTVSPost2010PropOp57
 70
     1
102
RTVSPropertyOp0
 70
     1
102
RTVSPropertyOp1
 70
     1
102
RTVSPropertyOp2
 70
     1
102
RTVSPropertyOp3
 70
     1
102
RTVSPropertyOp4
 70
     1
102
RTVSPropertyOp5
 70
     1
102
RTVSPropertyOp6
 70
     1
102
RTVSPropertyOp7
 70
     1
102
RTVSPropertyOp8
 70
     1
102
RTVSPropertyOp9
 70
     1
102
RTVSPropertyOp10
 70
     1
102
RTVSPropertyOp11
 70
     1
102
RTVSPropertyOp12
 70
     1
102
RTVSPropertyOp13
 70
     1
102
RTVSPropertyOp14
 70
     1
102
RTVSPropertyOp15
 70
     1
102
RTVSPropertyOp16
 70
     1
102
RTVSPropertyOp17
 70
     1
102
RTVSPropertyOp18
 70
     1
102
RTVSPropertyOp19
 70
     1
102
RTVSPropertyOp20
 70
     1
102
RTVSPropertyOp21
 70
     1
102
RTVSPropertyOp22
 70
     1
102
RTVSPropertyOp23
 70
     1
102
RTVSPropertyOp24
 70
     1
102
RTVSPropertyOp25
 70
     1
102
RTVSPropertyOp26
 70
     1
102
RTVSPropertyOp27
 70
     1
102
RTVSPropertyOp28
 70
     1
102
RTVSPropertyOp29
 70
     1
102
RTVSPropertyOp30
 70
     1
102
RTVSPropertyOp31
 70
     1
102
RTVSPropertyOp32
 70
     1
102
RTVSPropertyOp33
 70
     1
102
RTVSPropertyOp34
 70
     1
102
RTVSPropertyOp35
 70
     1
102
RTVSPropertyOp36
 70
     1
102
RTVSPropertyOp37
 70
     1
102
RTVSPropertyOp38
 70
     1
102
RTVSPropertyOp39
 70
     1
102
RTVSPropertyOp40
 70
     1
102
RTVSPropertyOp41
 70
     1
102
RTVSPropertyOp42
 70
     1
102
RTVSPropertyOp43
 70
     1
102
RTVSPropertyOp44
 70
     1
102
RTVSPropertyOp45
 70
     1
102
RTVSPropertyOp46
 70
     1
102
RTVSPropertyOp47
 70
     1
102
RTVSPropertyOp48
 70
     1
102
RTVSPropertyOp49
 70
     1
102
RTVSPropertyOp50
 70
     1
102
RTVSPropertyOp51
 70
     0
102
RTVSPropertyOp52
 70
     0
102
RTVSPropertyOp53
 70
     1
102
RTVSPropertyOp54
 70
     1
102
RTVSPropertyOp55
 70
     1
102
RTVSPropertyOp56
 70
     1
102
RTVSPropertyOp57
 70
     1
102
RTVSPropertyOp58
 70
     1
102
RTVSPropertyOp59
 70
     1
102
RTVSPropertyOp60
 70
     1
102
RTVSPropertyOp61
 70
     1
102
RTVSPropertyOp62
 70
     1
  0
ENDSEC
  0
EOF
