  0
SECTION
  2
HEADER
  9
$ACADVER
  1
AC1015
  9
$ACADMAINTVER
 70
    20
  9
$DWGCODEPAGE
  3
ANSI_932
  9
$INSBASE
 10
0.0
 20
0.0
 30
0.0
  9
$EXTMIN
 10
-0.2563280987742473
 20
-0.3600799482810544
 30
-0.0015258207003583
  9
$EXTMAX
 10
8400.256367214323
 20
11800.3601348963
 30
0.0000000349246037
  9
$LIMMIN
 10
0.0
 20
0.0
  9
$LIMMAX
 10
297.0
 20
210.0
  9
$ORTHOMODE
 70
     1
  9
$REGENMODE
 70
     1
  9
$FILLMODE
 70
     0
  9
$QTEXTMODE
 70
     0
  9
$MIRRTEXT
 70
     1
  9
$LTSCALE
 40
100.0
  9
$ATTMODE
 70
     1
  9
$TEXTSIZE
 40
180.0
  9
$TRACEWID
 40
0.05
  9
$TEXTSTYLE
  7
STANDARD
  9
$CLAYER
  8
3
  9
$CELTYPE
  6
ByLayer
  9
$CECOLOR
 62
   256
  9
$CELTSCALE
 40
1.0
  9
$DISPSILH
 70
     0
  9
$DIMSCALE
 40
40.0
  9
$DIMASZ
 40
2.0
  9
$DIMEXO
 40
0.5
  9
$DIMDLI
 40
10.0
  9
$DIMRND
 40
0.0
  9
$DIMDLE
 40
0.0
  9
$DIMEXE
 40
1.0
  9
$DIMTP
 40
1.0
  9
$DIMTM
 40
1.0
  9
$DIMTXT
 40
3.0
  9
$DIMCEN
 40
0.0
  9
$DIMTSZ
 40
0.0
  9
$DIMTOL
 70
     0
  9
$DIMLIM
 70
     0
  9
$DIMTIH
 70
     0
  9
$DIMTOH
 70
     0
  9
$DIMSE1
 70
     0
  9
$DIMSE2
 70
     0
  9
$DIMTAD
 70
     1
  9
$DIMZIN
 70
     8
  9
$DIMBLK
  1

  9
$DIMASO
 70
     1
  9
$DIMSHO
 70
     1
  9
$DIMPOST
  1

  9
$DIMAPOST
  1

  9
$DIMALT
 70
     0
  9
$DIMALTD
 70
     2
  9
$DIMALTF
 40
0.039
  9
$DIMLFAC
 40
1.0
  9
$DIMTOFL
 70
     1
  9
$DIMTVP
 40
0.0
  9
$DIMTIX
 70
     0
  9
$DIMSOXD
 70
     0
  9
$DIMSAH
 70
     1
  9
$DIMBLK1
  1
OPEN
  9
$DIMBLK2
  1
OPEN
  9
$DIMSTYLE
  2
IGA
  9
$DIMCLRD
 70
     0
  9
$DIMCLRE
 70
     0
  9
$DIMCLRT
 70
     0
  9
$DIMTFAC
 40
10.0
  9
$DIMGAP
 40
1.0
  9
$DIMJUST
 70
     0
  9
$DIMSD1
 70
     0
  9
$DIMSD2
 70
     0
  9
$DIMTOLJ
 70
     1
  9
$DIMTZIN
 70
     0
  9
$DIMALTZ
 70
     0
  9
$DIMALTTZ
 70
     0
  9
$DIMUPT
 70
     0
  9
$DIMDEC
 70
     4
  9
$DIMTDEC
 70
     4
  9
$DIMALTU
 70
     2
  9
$DIMALTTD
 70
     2
  9
$DIMTXSTY
  7
STANDARD
  9
$DIMAUNIT
 70
     0
  9
$DIMADEC
 70
     0
  9
$DIMALTRND
 40
0.0
  9
$DIMAZIN
 70
     0
  9
$DIMDSEP
 70
    46
  9
$DIMATFIT
 70
     3
  9
$DIMFRAC
 70
     0
  9
$DIMLDRBLK
  1
OPEN
  9
$DIMLUNIT
 70
     2
  9
$DIMLWD
 70
    -2
  9
$DIMLWE
 70
    -2
  9
$DIMTMOVE
 70
     0
  9
$LUNITS
 70
     2
  9
$LUPREC
 70
     3
  9
$SKETCHINC
 40
0.1
  9
$FILLETRAD
 40
50.0
  9
$AUNITS
 70
     0
  9
$AUPREC
 70
     0
  9
$MENU
  1
acad
  9
$ELEVATION
 40
0.0
  9
$PELEVATION
 40
0.0
  9
$THICKNESS
 40
0.0
  9
$LIMCHECK
 70
     0
  9
$CHAMFERA
 40
0.5
  9
$CHAMFERB
 40
0.5
  9
$CHAMFERC
 40
0.0
  9
$CHAMFERD
 40
0.0
  9
$SKPOLY
 70
     0
  9
$TDCREATE
 40
2451898.461951968
  9
$TDUCREATE
 40
2451898.086951968
  9
$TDUPDATE
 40
2460280.718255104
  9
$TDUUPDATE
 40
2460280.343255104
  9
$TDINDWG
 40
0.0220755556
  9
$TDUSRTIMER
 40
0.0220755324
  9
$USRTIMER
 70
     1
  9
$ANGBASE
 50
0.0
  9
$ANGDIR
 70
     0
  9
$PDMODE
 70
     0
  9
$PDSIZE
 40
0.0
  9
$PLINEWID
 40
0.0
  9
$SPLFRAME
 70
     0
  9
$SPLINETYPE
 70
     6
  9
$SPLINESEGS
 70
     8
  9
$HANDSEED
  5
8695
  9
$SURFTAB1
 70
     6
  9
$SURFTAB2
 70
     6
  9
$SURFTYPE
 70
     6
  9
$SURFU
 70
     6
  9
$SURFV
 70
     6
  9
$UCSBASE
  2

  9
$UCSNAME
  2

  9
$UCSORG
 10
0.0
 20
0.0
 30
0.0
  9
$UCSXDIR
 10
1.0
 20
0.0
 30
0.0
  9
$UCSYDIR
 10
0.0
 20
1.0
 30
0.0
  9
$UCSORTHOREF
  2

  9
$UCSORTHOVIEW
 70
     0
  9
$UCSORGTOP
 10
0.0
 20
0.0
 30
0.0
  9
$UCSORGBOTTOM
 10
0.0
 20
0.0
 30
0.0
  9
$UCSORGLEFT
 10
0.0
 20
0.0
 30
0.0
  9
$UCSORGRIGHT
 10
0.0
 20
0.0
 30
0.0
  9
$UCSORGFRONT
 10
0.0
 20
0.0
 30
0.0
  9
$UCSORGBACK
 10
0.0
 20
0.0
 30
0.0
  9
$PUCSBASE
  2

  9
$PUCSNAME
  2

  9
$PUCSORG
 10
0.0
 20
0.0
 30
0.0
  9
$PUCSXDIR
 10
1.0
 20
0.0
 30
0.0
  9
$PUCSYDIR
 10
0.0
 20
1.0
 30
0.0
  9
$PUCSORTHOREF
  2

  9
$PUCSORTHOVIEW
 70
     0
  9
$PUCSORGTOP
 10
0.0
 20
0.0
 30
0.0
  9
$PUCSORGBOTTOM
 10
0.0
 20
0.0
 30
0.0
  9
$PUCSORGLEFT
 10
0.0
 20
0.0
 30
0.0
  9
$PUCSORGRIGHT
 10
0.0
 20
0.0
 30
0.0
  9
$PUCSORGFRONT
 10
0.0
 20
0.0
 30
0.0
  9
$PUCSORGBACK
 10
0.0
 20
0.0
 30
0.0
  9
$USERI1
 70
     0
  9
$USERI2
 70
     0
  9
$USERI3
 70
     0
  9
$USERI4
 70
     0
  9
$USERI5
 70
     0
  9
$USERR1
 40
0.0
  9
$USERR2
 40
0.0
  9
$USERR3
 40
0.0
  9
$USERR4
 40
0.0
  9
$USERR5
 40
0.0
  9
$WORLDVIEW
 70
     1
  9
$SHADEDGE
 70
     3
  9
$SHADEDIF
 70
    70
  9
$TILEMODE
 70
     1
  9
$MAXACTVP
 70
    16
  9
$PINSBASE
 10
0.0
 20
0.0
 30
0.0
  9
$PLIMCHECK
 70
     0
  9
$PEXTMIN
 10
1.000000000000000E+20
 20
1.000000000000000E+20
 30
1.000000000000000E+20
  9
$PEXTMAX
 10
-1.000000000000000E+20
 20
-1.000000000000000E+20
 30
-1.000000000000000E+20
  9
$PLIMMIN
 10
0.0
 20
0.0
  9
$PLIMMAX
 10
12.0
 20
9.0
  9
$UNITMODE
 70
     0
  9
$VISRETAIN
 70
     0
  9
$PLINEGEN
 70
     0
  9
$PSLTSCALE
 70
     1
  9
$TREEDEPTH
 70
  3020
  9
$CMLSTYLE
  2
Standard
  9
$CMLJUST
 70
     0
  9
$CMLSCALE
 40
1.0
  9
$PROXYGRAPHICS
 70
     1
  9
$MEASUREMENT
 70
     0
  9
$CELWEIGHT
370
    -1
  9
$ENDCAPS
280
     0
  9
$JOINSTYLE
280
     0
  9
$LWDISPLAY
290
     0
  9
$INSUNITS
 70
     0
  9
$HYPERLINKBASE
  1

  9
$STYLESHEET
  1

  9
$XEDIT
290
     1
  9
$CEPSNTYPE
380
     0
  9
$PSTYLEMODE
290
     1
  9
$FINGERPRINTGUID
  2
{0A06EBF8-CC1D-4730-B48B-E98042AF9DCA}
  9
$VERSIONGUID
  2
{060071FA-2708-451A-BEED-3C05CD3E7F70}
  9
$EXTNAMES
290
     1
  9
$PSVPSCALE
 40
0.0
  9
$OLESTARTUP
290
     0
  0
ENDSEC
  0
SECTION
  2
CLASSES
  0
CLASS
  1
ACDBDICTIONARYWDFLT
  2
AcDbDictionaryWithDefault
  3
ObjectDBX Classes
 90
        0
280
     0
281
     0
  0
CLASS
  1
MATERIAL
  2
AcDbMaterial
  3
ObjectDBX Classes
 90
     1153
280
     0
281
     0
  0
CLASS
  1
VISUALSTYLE
  2
AcDbVisualStyle
  3
ObjectDBX Classes
 90
     4095
280
     0
281
     0
  0
CLASS
  1
SCALE
  2
AcDbScale
  3
ObjectDBX Classes
 90
     1153
280
     0
281
     0
  0
CLASS
  1
TABLESTYLE
  2
AcDbTableStyle
  3
ObjectDBX Classes
 90
     4095
280
     0
281
     0
  0
CLASS
  1
MLEADERSTYLE
  2
AcDbMLeaderStyle
  3
ACDB_MLEADERSTYLE_CLASS
 90
     4095
280
     0
281
     0
  0
CLASS
  1
ACDBSECTIONVIEWSTYLE
  2
AcDbSectionViewStyle
  3
ObjectDBX Classes
 90
     1025
280
     0
281
     0
  0
CLASS
  1
ACDBDETAILVIEWSTYLE
  2
AcDbDetailViewStyle
  3
ObjectDBX Classes
 90
     1025
280
     0
281
     0
  0
CLASS
  1
DICTIONARYVAR
  2
AcDbDictionaryVar
  3
ObjectDBX Classes
 90
        0
280
     0
281
     0
  0
CLASS
  1
CELLSTYLEMAP
  2
AcDbCellStyleMap
  3
ObjectDBX Classes
 90
     1152
280
     0
281
     0
  0
CLASS
  1
SORTENTSTABLE
  2
AcDbSortentsTable
  3
ObjectDBX Classes
 90
        0
280
     0
281
     0
  0
CLASS
  1
ACDBPLACEHOLDER
  2
AcDbPlaceHolder
  3
ObjectDBX Classes
 90
        0
280
     0
281
     0
  0
CLASS
  1
LAYOUT
  2
AcDbLayout
  3
ObjectDBX Classes
 90
        0
280
     0
281
     0
  0
ENDSEC
  0
SECTION
  2
TABLES
  0
TABLE
  2
VPORT
  5
840A
330
0
100
AcDbSymbolTable
 70
     1
  0
VPORT
  5
8476
330
840A
100
AcDbSymbolTableRecord
100
AcDbViewportTableRecord
  2
*ACTIVE
 70
     0
 10
0.0
 20
0.0
 11
1.0
 21
1.0
 12
4200.000019557773
 22
5900.000027474012
 13
0.0
 23
0.0
 14
10.0
 24
10.0
 15
10.0
 25
10.0
 16
0.0
 26
0.0
 36
1.0
 17
0.0
 27
0.0
 37
0.0
 40
11876.28512550527
 41
2.050213675213675
 42
50.0
 43
0.0
 44
0.0
 50
0.0
 51
0.0
 71
     0
 72
   100
 73
     1
 74
     0
 75
     0
 76
     0
 77
     0
 78
     0
281
     0
 65
     1
110
0.0
120
0.0
130
0.0
111
1.0
121
0.0
131
0.0
112
0.0
122
1.0
132
0.0
 79
     0
146
0.0
1001
ACAD_NAV_VCDISPLAY
1070
     3
  0
ENDTAB
  0
TABLE
  2
LTYPE
  5
8407
330
0
100
AcDbSymbolTable
 70
     3
  0
LTYPE
  5
845C
330
8407
100
AcDbSymbolTableRecord
100
AcDbLinetypeTableRecord
  2
ByBlock
 70
     0
  3

 72
    65
 73
     0
 40
0.0
  0
LTYPE
  5
845D
330
8407
100
AcDbSymbolTableRecord
100
AcDbLinetypeTableRecord
  2
ByLayer
 70
     0
  3

 72
    65
 73
     0
 40
0.0
  0
LTYPE
  5
845E
330
8407
100
AcDbSymbolTableRecord
100
AcDbLinetypeTableRecord
  2
CONTINUOUS
 70
     0
  3
Solid line
 72
    65
 73
     0
 40
0.0
  0
LTYPE
  5
8477
330
8407
100
AcDbSymbolTableRecord
100
AcDbLinetypeTableRecord
  2
CENTER
 70
     0
  3
____ _ ____ _ ____ _ ____ _ ____ _ ____ _ ____ 
 72
    65
 73
     4
 40
2.0
 49
1.25
 74
     0
 49
-0.25
 74
     0
 49
0.25
 74
     0
 49
-0.25
 74
     0
  0
ENDTAB
  0
TABLE
  2
LAYER
  5
8404
330
0
100
AcDbSymbolTable
 70
     6
  0
LAYER
  5
8456
102
{ACAD_XDICTIONARY
360
84B7
102
}
330
8404
100
AcDbSymbolTableRecord
100
AcDbLayerTableRecord
  2
0
 70
     0
 62
     7
  6
CONTINUOUS
370
    -3
390
8411
  0
LAYER
  5
8475
102
{ACAD_XDICTIONARY
360
84B9
102
}
330
8404
100
AcDbSymbolTableRecord
100
AcDbLayerTableRecord
  2
3
 70
     0
 62
     2
  6
CONTINUOUS
370
    -3
390
8411
  0
LAYER
  5
8478
102
{ACAD_XDICTIONARY
360
84BB
102
}
330
8404
100
AcDbSymbolTableRecord
100
AcDbLayerTableRecord
  2
2
 70
     0
 62
     3
  6
CENTER
370
    -3
390
8411
  0
LAYER
  5
8479
102
{ACAD_XDICTIONARY
360
84BD
102
}
330
8404
100
AcDbSymbolTableRecord
100
AcDbLayerTableRecord
  2
1
 70
     0
 62
     4
  6
CONTINUOUS
370
    -3
390
8411
  0
LAYER
  5
847A
102
{ACAD_XDICTIONARY
360
84BF
102
}
330
8404
100
AcDbSymbolTableRecord
100
AcDbLayerTableRecord
  2
4
 70
     0
 62
     7
  6
CONTINUOUS
370
    -3
390
8411
  0
LAYER
  5
847B
330
8404
100
AcDbSymbolTableRecord
100
AcDbLayerTableRecord
  2
DEFPOINTS
 70
     0
 62
     7
  6
CONTINUOUS
290
     0
370
    -3
390
8411
  0
ENDTAB
  0
TABLE
  2
STYLE
  5
8405
330
0
100
AcDbSymbolTable
 70
     2
  0
STYLE
  5
8457
330
8405
100
AcDbSymbolTableRecord
100
AcDbTextStyleTableRecord
  2
STANDARD
 70
     0
 40
0.0
 41
1.0
 50
0.0
 71
     0
 42
180.0
  3
simplex.shx
  4
extfont.shx
  0
STYLE
  5
845B
330
8405
100
AcDbSymbolTableRecord
100
AcDbTextStyleTableRecord
  2
Annotative
 70
     0
 40
0.0
 41
1.0
 50
0.0
 71
     0
 42
0.2
  3
txt
  4

1001
AcadAnnotative
1000
AnnotativeData
1002
{
1070
     1
1070
     1
1002
}
  0
ENDTAB
  0
TABLE
  2
VIEW
  5
8408
330
0
100
AcDbSymbolTable
 70
     0
  0
ENDTAB
  0
TABLE
  2
UCS
  5
8409
330
0
100
AcDbSymbolTable
 70
     0
  0
ENDTAB
  0
TABLE
  2
APPID
  5
840B
330
0
100
AcDbSymbolTable
 70
     6
  0
APPID
  5
8458
330
840B
100
AcDbSymbolTableRecord
100
AcDbRegAppTableRecord
  2
ACAD
 70
     0
  0
APPID
  5
845F
330
840B
100
AcDbSymbolTableRecord
100
AcDbRegAppTableRecord
  2
AcadAnnotative
 70
     0
  0
APPID
  5
84CB
330
840B
100
AcDbSymbolTableRecord
100
AcDbRegAppTableRecord
  2
ACAD_NAV_VCDISPLAY
 70
     0
  0
APPID
  5
8545
330
840B
100
AcDbSymbolTableRecord
100
AcDbRegAppTableRecord
  2
AcadAnnoMonitorAlertIconDisabled
 70
     0
  0
APPID
  5
8546
330
840B
100
AcDbSymbolTableRecord
100
AcDbRegAppTableRecord
  2
ACAD_EXEMPT_FROM_CAD_STANDARDS
 70
     0
  0
APPID
  5
868C
330
840B
100
AcDbSymbolTableRecord
100
AcDbRegAppTableRecord
  2
ACAD_MLEADERVER
 70
     0
  0
ENDTAB
  0
TABLE
  2
DIMSTYLE
  5
840C
330
0
100
AcDbSymbolTable
 70
     3
100
AcDbDimStyleTable
 71
     1
340
847C
  0
DIMSTYLE
105
8459
102
{ACAD_REACTORS
330
8214
330
825C
330
8269
330
8276
330
8283
330
8290
102
}
330
840C
100
AcDbSymbolTableRecord
100
AcDbDimStyleTableRecord
  2
Standard
 70
     0
340
8457
  0
DIMSTYLE
105
845A
330
840C
100
AcDbSymbolTableRecord
100
AcDbDimStyleTableRecord
  2
Annotative
 70
     0
340
8457
1001
AcadAnnotative
1000
AnnotativeData
1002
{
1070
     1
1070
     1
1002
}
  0
DIMSTYLE
105
847C
102
{ACAD_REACTORS
330
850D
330
851A
330
8527
330
8538
330
85AF
330
85BC
330
85C9
330
85D6
330
85E3
330
85F9
330
8606
330
8613
330
862D
330
863A
330
8647
102
}
330
840C
100
AcDbSymbolTableRecord
100
AcDbDimStyleTableRecord
  2
IGA
 70
     0
 40
2.0
 41
2.0
 42
0.5
 43
10.0
 44
1.0
 47
1.0
 48
1.0
 73
     0
 74
     0
 77
     1
 78
     8
140
3.0
141
0.0
143
0.03937
146
10.0
147
1.0
173
     1
271
     3
272
     3
279
     2
284
     8
285
     8
286
     8
340
8457
  0
ENDTAB
  0
TABLE
  2
BLOCK_RECORD
  5
8403
330
0
100
AcDbSymbolTable
 70
    44
  0
BLOCK_RECORD
  5
8471
102
{ACAD_XDICTIONARY
360
8535
102
}
330
8403
100
AcDbSymbolTableRecord
100
AcDbBlockTableRecord
  2
*Model_Space
340
8474
  0
BLOCK_RECORD
  5
846D
330
8403
100
AcDbSymbolTableRecord
100
AcDbBlockTableRecord
  2
*Paper_Space
340
8470
  0
BLOCK_RECORD
  5
8480
330
8403
100
AcDbSymbolTableRecord
100
AcDbBlockTableRecord
  2
$MODEL_SPACE
340
0
  0
BLOCK_RECORD
  5
8482
330
8403
100
AcDbSymbolTableRecord
100
AcDbBlockTableRecord
  2
$PAPER_SPACE
340
0
  0
BLOCK_RECORD
  5
8484
330
8403
100
AcDbSymbolTableRecord
100
AcDbBlockTableRecord
  2
YA_N
340
0
102
{BLKREFS
331
7C0C
331
7C28
331
7C29
331
7C4E
331
7C8E
331
7CA1
331
7CC7
331
7CDE
102
}
  0
BLOCK_RECORD
  5
8486
330
8403
100
AcDbSymbolTableRecord
100
AcDbBlockTableRecord
  2
*D3
340
0
  0
BLOCK_RECORD
  5
8488
330
8403
100
AcDbSymbolTableRecord
100
AcDbBlockTableRecord
  2
_OPEN
340
0
102
{BLKREFS
331
836C
331
836D
331
8375
331
8376
331
837E
331
837F
331
8387
331
8388
331
8390
331
8391
331
8399
331
839A
331
83A2
331
83A3
331
83AB
331
83AC
331
83B4
331
83B5
331
83BD
331
83BE
331
83C6
331
83C7
331
83CF
331
83D0
331
860D
331
860E
331
861A
331
861B
331
8627
331
8628
331
8634
331
8635
331
8641
331
8642
331
864E
331
864F
331
83D8
331
83D9
331
85B6
331
85B7
331
85C3
331
85C4
331
85D0
331
85D1
331
85DD
331
85DE
331
85EA
331
85EB
331
85F3
331
85F4
331
8600
331
8601
331
83E1
331
83E2
331
8554
331
8555
331
858A
331
858B
331
859C
331
859D
331
8270
331
827C
331
827D
331
8289
331
828A
331
8514
331
8515
331
83EA
331
83EB
331
820D
331
820E
331
8255
331
8256
331
8262
331
8263
331
826F
102
}
  0
BLOCK_RECORD
  5
8489
330
8403
100
AcDbSymbolTableRecord
100
AcDbBlockTableRecord
  2
*D5
340
0
  0
BLOCK_RECORD
  5
848B
330
8403
100
AcDbSymbolTableRecord
100
AcDbBlockTableRecord
  2
*D6
340
0
  0
BLOCK_RECORD
  5
848D
330
8403
100
AcDbSymbolTableRecord
100
AcDbBlockTableRecord
  2
*D7
340
0
  0
BLOCK_RECORD
  5
848F
330
8403
100
AcDbSymbolTableRecord
100
AcDbBlockTableRecord
  2
*D8
340
0
  0
BLOCK_RECORD
  5
8491
330
8403
100
AcDbSymbolTableRecord
100
AcDbBlockTableRecord
  2
*D9
340
0
  0
BLOCK_RECORD
  5
8493
330
8403
100
AcDbSymbolTableRecord
100
AcDbBlockTableRecord
  2
*D10
340
0
  0
BLOCK_RECORD
  5
8495
330
8403
100
AcDbSymbolTableRecord
100
AcDbBlockTableRecord
  2
*D11
340
0
  0
BLOCK_RECORD
  5
8497
330
8403
100
AcDbSymbolTableRecord
100
AcDbBlockTableRecord
  2
*D12
340
0
  0
BLOCK_RECORD
  5
8499
330
8403
100
AcDbSymbolTableRecord
100
AcDbBlockTableRecord
  2
*D13
340
0
  0
BLOCK_RECORD
  5
849B
330
8403
100
AcDbSymbolTableRecord
100
AcDbBlockTableRecord
  2
*D14
340
0
  0
BLOCK_RECORD
  5
849D
330
8403
100
AcDbSymbolTableRecord
100
AcDbBlockTableRecord
  2
*D15
340
0
  0
BLOCK_RECORD
  5
849F
330
8403
100
AcDbSymbolTableRecord
100
AcDbBlockTableRecord
  2
*D16
340
0
  0
BLOCK_RECORD
  5
84A1
330
8403
100
AcDbSymbolTableRecord
100
AcDbBlockTableRecord
  2
*D17
340
0
  0
BLOCK_RECORD
  5
84A4
330
8403
100
AcDbSymbolTableRecord
100
AcDbBlockTableRecord
  2
*D18
340
0
  0
BLOCK_RECORD
  5
84A6
330
8403
100
AcDbSymbolTableRecord
100
AcDbBlockTableRecord
  2
_DOT
340
0
  0
BLOCK_RECORD
  5
84A8
330
8403
100
AcDbSymbolTableRecord
100
AcDbBlockTableRecord
  2
_NONE
340
0
  0
BLOCK_RECORD
  5
84AA
330
8403
100
AcDbSymbolTableRecord
100
AcDbBlockTableRecord
  2
*D21
340
0
  0
BLOCK_RECORD
  5
84AC
330
8403
100
AcDbSymbolTableRecord
100
AcDbBlockTableRecord
  2
*D22
340
0
  0
BLOCK_RECORD
  5
84AE
330
8403
100
AcDbSymbolTableRecord
100
AcDbBlockTableRecord
  2
*D23
340
0
  0
BLOCK_RECORD
  5
84B0
330
8403
100
AcDbSymbolTableRecord
100
AcDbBlockTableRecord
  2
*D24
340
0
  0
BLOCK_RECORD
  5
84B2
330
8403
100
AcDbSymbolTableRecord
100
AcDbBlockTableRecord
  2
*D25
340
0
  0
BLOCK_RECORD
  5
84B4
330
8403
100
AcDbSymbolTableRecord
100
AcDbBlockTableRecord
  2
*D26
340
0
  0
BLOCK_RECORD
  5
850E
330
8403
100
AcDbSymbolTableRecord
100
AcDbBlockTableRecord
  2
*D27
340
0
  0
BLOCK_RECORD
  5
851B
330
8403
100
AcDbSymbolTableRecord
100
AcDbBlockTableRecord
  2
*D28
340
0
  0
BLOCK_RECORD
  5
8528
330
8403
100
AcDbSymbolTableRecord
100
AcDbBlockTableRecord
  2
*D29
340
0
  0
BLOCK_RECORD
  5
8539
330
8403
100
AcDbSymbolTableRecord
100
AcDbBlockTableRecord
  2
*D30
340
0
  0
BLOCK_RECORD
  5
85A3
330
8403
100
AcDbSymbolTableRecord
100
AcDbBlockTableRecord
  2
*D31
340
0
  0
BLOCK_RECORD
  5
85B0
330
8403
100
AcDbSymbolTableRecord
100
AcDbBlockTableRecord
  2
*D32
340
0
  0
BLOCK_RECORD
  5
85BD
330
8403
100
AcDbSymbolTableRecord
100
AcDbBlockTableRecord
  2
*D33
340
0
  0
BLOCK_RECORD
  5
85CA
330
8403
100
AcDbSymbolTableRecord
100
AcDbBlockTableRecord
  2
*D34
340
0
  0
BLOCK_RECORD
  5
85D7
330
8403
100
AcDbSymbolTableRecord
100
AcDbBlockTableRecord
  2
*D35
340
0
  0
BLOCK_RECORD
  5
85E4
330
8403
100
AcDbSymbolTableRecord
100
AcDbBlockTableRecord
  2
*D36
340
0
  0
BLOCK_RECORD
  5
85FA
330
8403
100
AcDbSymbolTableRecord
100
AcDbBlockTableRecord
  2
*D37
340
0
  0
BLOCK_RECORD
  5
8607
330
8403
100
AcDbSymbolTableRecord
100
AcDbBlockTableRecord
  2
*D38
340
0
  0
BLOCK_RECORD
  5
8614
330
8403
100
AcDbSymbolTableRecord
100
AcDbBlockTableRecord
  2
*D39
340
0
  0
BLOCK_RECORD
  5
8621
330
8403
100
AcDbSymbolTableRecord
100
AcDbBlockTableRecord
  2
*D40
340
0
  0
BLOCK_RECORD
  5
862E
330
8403
100
AcDbSymbolTableRecord
100
AcDbBlockTableRecord
  2
*D41
340
0
  0
BLOCK_RECORD
  5
863B
330
8403
100
AcDbSymbolTableRecord
100
AcDbBlockTableRecord
  2
*D42
340
0
  0
BLOCK_RECORD
  5
8648
330
8403
100
AcDbSymbolTableRecord
100
AcDbBlockTableRecord
  2
*D43
340
0
  0
ENDTAB
  0
ENDSEC
  0
SECTION
  2
BLOCKS
  0
BLOCK
  5
8472
330
8471
100
AcDbEntity
  8
0
100
AcDbBlockBegin
  2
*Model_Space
 70
     0
 10
0.0
 20
0.0
 30
0.0
  3
*Model_Space
  1

  0
ENDBLK
  5
8473
330
8471
100
AcDbEntity
  8
0
100
AcDbBlockEnd
  0
BLOCK
  5
846E
330
846D
100
AcDbEntity
 67
     1
  8
0
100
AcDbBlockBegin
  2
*Paper_Space
 70
     0
 10
0.0
 20
0.0
 30
0.0
  3
*Paper_Space
  1

  0
ENDBLK
  5
846F
330
846D
100
AcDbEntity
 67
     1
  8
0
100
AcDbBlockEnd
  0
BLOCK
  5
8481
330
8480
100
AcDbEntity
  8
0
100
AcDbBlockBegin
  2
$MODEL_SPACE
 70
     0
 10
0.0
 20
0.0
 30
0.0
  3
$MODEL_SPACE
  1

  0
ENDBLK
  5
1B
330
8480
100
AcDbEntity
  8
0
100
AcDbBlockEnd
  0
BLOCK
  5
8483
330
8482
100
AcDbEntity
  8
0
100
AcDbBlockBegin
  2
$PAPER_SPACE
 70
     0
 10
0.0
 20
0.0
 30
0.0
  3
$PAPER_SPACE
  1

  0
ENDBLK
  5
18
330
8482
100
AcDbEntity
  8
0
100
AcDbBlockEnd
  0
BLOCK
  5
8485
330
8484
100
AcDbEntity
  8
0
100
AcDbBlockBegin
  2
YA_N
 70
     0
 10
0.0
 20
0.0
 30
0.0
  3
YA_N
  1

  0
ENDBLK
  5
79FE
330
8484
100
AcDbEntity
  8
0
100
AcDbBlockEnd
  0
BLOCK
  5
8487
330
8486
100
AcDbEntity
  8
0
100
AcDbBlockBegin
  2
*D3
 70
     1
 10
0.0
 20
0.0
 30
0.0
  3
*D3
  1

  0
LINE
  5
8369
330
8486
100
AcDbEntity
  8
3
 62
     0
100
AcDbLine
 10
5531.407928765325
 20
5310.856382047695
 30
0.0
 11
5531.407928765325
 21
5579.256168514262
 31
0.0
  0
LINE
  5
836A
330
8486
100
AcDbEntity
  8
3
 62
     0
100
AcDbLine
 10
7231.407928765325
 20
5310.856382047695
 30
0.0
 11
7231.407928765325
 21
5579.256168514262
 31
0.0
  0
LINE
  5
836B
330
8486
100
AcDbEntity
  8
3
 62
     0
100
AcDbLine
 10
5611.407928765326
 20
5539.256168514262
 30
0.0
 11
7151.407928765326
 21
5539.256168514262
 31
0.0
  0
INSERT
  5
836C
330
8486
100
AcDbEntity
  8
3
 62
     0
100
AcDbBlockReference
  2
_OPEN
 10
5531.407928765325
 20
5539.256168514262
 30
0.0
 41
80.0
 42
80.0
 43
80.0
 50
180.0
  0
INSERT
  5
836D
330
8486
100
AcDbEntity
  8
3
 62
     0
100
AcDbBlockReference
  2
_OPEN
 10
7231.407928765325
 20
5539.256168514262
 30
0.0
 41
80.0
 42
80.0
 43
80.0
  0
TEXT
  5
83F3
330
8486
100
AcDbEntity
  8
3
 62
     0
100
AcDbText
 10
6141.41
 20
5426.86
 30
0.0
 40
120.0
  1
1700
100
AcDbText
  0
POINT
  5
836F
330
8486
100
AcDbEntity
  8
DEFPOINTS
 62
     0
100
AcDbPoint
 10
5531.407928765325
 20
5290.856382047696
 30
0.0
  0
POINT
  5
8370
330
8486
100
AcDbEntity
  8
DEFPOINTS
 62
     0
100
AcDbPoint
 10
7231.407928765325
 20
5290.856382047696
 30
0.0
  0
POINT
  5
8371
330
8486
100
AcDbEntity
  8
DEFPOINTS
 62
     0
100
AcDbPoint
 10
7231.407928765325
 20
5539.256168514262
 30
0.0
  0
ENDBLK
  5
8046
330
8486
100
AcDbEntity
  8
0
100
AcDbBlockEnd
  0
BLOCK
  5
84A3
330
8488
100
AcDbEntity
  8
0
100
AcDbBlockBegin
  2
_OPEN
 70
     0
 10
0.0
 20
0.0
 30
0.0
  3
_OPEN
  1

  0
LINE
  5
7EFD
330
8488
100
AcDbEntity
  8
0
  6
ByBlock
 62
     0
100
AcDbLine
 10
-1.0
 20
0.1666666666666666
 30
0.0
 11
0.0
 21
0.0
 31
0.0
  0
LINE
  5
7EFE
330
8488
100
AcDbEntity
  8
0
  6
ByBlock
 62
     0
100
AcDbLine
 10
0.0
 20
0.0
 30
0.0
 11
-1.0
 21
-0.1666666666666666
 31
0.0
  0
LINE
  5
7EFF
330
8488
100
AcDbEntity
  8
0
  6
ByBlock
 62
     0
100
AcDbLine
 10
0.0
 20
0.0
 30
0.0
 11
-1.0
 21
0.0
 31
0.0
  0
ENDBLK
  5
7F00
330
8488
100
AcDbEntity
  8
0
100
AcDbBlockEnd
  0
BLOCK
  5
848A
330
8489
100
AcDbEntity
  8
0
100
AcDbBlockBegin
  2
*D5
 70
     1
 10
0.0
 20
0.0
 30
0.0
  3
*D5
  1

  0
LINE
  5
8372
330
8489
100
AcDbEntity
  8
3
 62
     0
100
AcDbLine
 10
5146.407928765327
 20
4669.935954207627
 30
0.0
 11
5146.407928765327
 21
5861.298092940816
 31
0.0
  0
LINE
  5
8373
330
8489
100
AcDbEntity
  8
3
 62
     0
100
AcDbLine
 10
6381.407928765326
 20
5742.787629067658
 30
0.0
 11
6381.407928765326
 21
5861.298092940816
 31
0.0
  0
LINE
  5
8374
330
8489
100
AcDbEntity
  8
3
 62
     0
100
AcDbLine
 10
5226.407928765326
 20
5821.298092940816
 30
0.0
 11
6301.407928765326
 21
5821.298092940816
 31
0.0
  0
INSERT
  5
8375
330
8489
100
AcDbEntity
  8
3
 62
     0
100
AcDbBlockReference
  2
_OPEN
 10
5146.407928765327
 20
5821.298092940816
 30
0.0
 41
80.0
 42
80.0
 43
80.0
 50
180.0
  0
INSERT
  5
8376
330
8489
100
AcDbEntity
  8
3
 62
     0
100
AcDbBlockReference
  2
_OPEN
 10
6381.407928765326
 20
5821.298092940816
 30
0.0
 41
80.0
 42
80.0
 43
80.0
  0
TEXT
  5
83F4
330
8489
100
AcDbEntity
  8
3
 62
     0
100
AcDbText
 10
5523.91
 20
5808.9
 30
0.0
 40
120.0
  1
MAX
100
AcDbText
  0
TEXT
  5
83F5
330
8489
100
AcDbEntity
  8
3
 62
     0
100
AcDbText
 10
5523.91
 20
5652.899999999999
 30
0.0
 40
120.0
  1
1280
100
AcDbText
  0
POINT
  5
8378
330
8489
100
AcDbEntity
  8
DEFPOINTS
 62
     0
100
AcDbPoint
 10
5146.407928765327
 20
4649.935954207625
 30
0.0
  0
POINT
  5
8379
330
8489
100
AcDbEntity
  8
DEFPOINTS
 62
     0
100
AcDbPoint
 10
6381.407928765326
 20
5722.787629067657
 30
0.0
  0
POINT
  5
837A
330
8489
100
AcDbEntity
  8
DEFPOINTS
 62
     0
100
AcDbPoint
 10
6381.407928765326
 20
5821.298092940816
 30
0.0
  0
ENDBLK
  5
8174
330
8489
100
AcDbEntity
  8
0
100
AcDbBlockEnd
  0
BLOCK
  5
848C
330
848B
100
AcDbEntity
  8
0
100
AcDbBlockBegin
  2
*D6
 70
     1
 10
0.0
 20
0.0
 30
0.0
  3
*D6
  1

  0
LINE
  5
837B
330
848B
100
AcDbEntity
  8
3
 62
     0
100
AcDbLine
 10
6381.407928765326
 20
5742.787629067658
 30
0.0
 11
6381.407928765326
 21
5860.910505835629
 31
0.0
  0
LINE
  5
837C
330
848B
100
AcDbEntity
  8
3
 62
     0
100
AcDbLine
 10
7391.407928765325
 20
4285.273885309893
 30
0.0
 11
7391.407928765325
 21
5860.910505835629
 31
0.0
  0
LINE
  5
837D
330
848B
100
AcDbEntity
  8
3
 62
     0
100
AcDbLine
 10
6461.407928765325
 20
5820.910505835629
 30
0.0
 11
7311.407928765325
 21
5820.910505835629
 31
0.0
  0
INSERT
  5
837E
330
848B
100
AcDbEntity
  8
3
 62
     0
100
AcDbBlockReference
  2
_OPEN
 10
6381.407928765326
 20
5820.910505835629
 30
0.0
 41
80.0
 42
80.0
 43
80.0
 50
180.0
  0
INSERT
  5
837F
330
848B
100
AcDbEntity
  8
3
 62
     0
100
AcDbBlockReference
  2
_OPEN
 10
7391.407928765325
 20
5820.910505835629
 30
0.0
 41
80.0
 42
80.0
 43
80.0
  0
TEXT
  5
83F6
330
848B
100
AcDbEntity
  8
3
 62
     0
100
AcDbText
 10
6646.41
 20
5739.94
 30
0.0
 40
120.0
  1
(1020)
100
AcDbText
  0
POINT
  5
8381
330
848B
100
AcDbEntity
  8
DEFPOINTS
 62
     0
100
AcDbPoint
 10
6381.407928765326
 20
5722.787629067657
 30
0.0
  0
POINT
  5
8382
330
848B
100
AcDbEntity
  8
DEFPOINTS
 62
     0
100
AcDbPoint
 10
7391.407928765325
 20
4265.273885309894
 30
0.0
  0
POINT
  5
8383
330
848B
100
AcDbEntity
  8
DEFPOINTS
 62
     0
100
AcDbPoint
 10
7391.407928765325
 20
5820.910505835629
 30
0.0
  0
ENDBLK
  5
817F
330
848B
100
AcDbEntity
  8
0
100
AcDbBlockEnd
  0
BLOCK
  5
848E
330
848D
100
AcDbEntity
  8
0
100
AcDbBlockBegin
  2
*D7
 70
     1
 10
0.0
 20
0.0
 30
0.0
  3
*D7
  1

  0
LINE
  5
8384
330
848D
100
AcDbEntity
  8
3
 62
     0
100
AcDbLine
 10
7253.707928765328
 20
4994.935954207627
 30
0.0
 11
7682.67755367783
 21
4994.935954207627
 31
0.0
  0
LINE
  5
8385
330
848D
100
AcDbEntity
  8
3
 62
     0
100
AcDbLine
 10
7253.707928765328
 20
3744.935954207626
 30
0.0
 11
7682.67755367783
 21
3744.935954207626
 31
0.0
  0
LINE
  5
8386
330
848D
100
AcDbEntity
  8
3
 62
     0
100
AcDbLine
 10
7642.677553677827
 20
4914.935954207628
 30
0.0
 11
7642.677553677827
 21
3824.935954207626
 31
0.0
  0
INSERT
  5
8387
330
848D
100
AcDbEntity
  8
3
 62
     0
100
AcDbBlockReference
  2
_OPEN
 10
7642.677553677827
 20
4994.935954207627
 30
0.0
 41
80.0
 42
80.0
 43
80.0
 50
90.0
  0
INSERT
  5
8388
330
848D
100
AcDbEntity
  8
3
 62
     0
100
AcDbBlockReference
  2
_OPEN
 10
7642.677553677827
 20
3744.935954207626
 30
0.0
 41
80.0
 42
80.0
 43
80.0
 50
270.0
  0
TEXT
  5
83F7
330
848D
100
AcDbEntity
  8
3
 62
     0
100
AcDbText
 10
7302.680000000001
 20
4157.54
 30
0.0
 40
120.0
  1
\U+03C61250
100
AcDbText
  0
POINT
  5
838A
330
848D
100
AcDbEntity
  8
DEFPOINTS
 62
     0
100
AcDbPoint
 10
7233.707928765326
 20
4994.935954207627
 30
0.0
  0
POINT
  5
838B
330
848D
100
AcDbEntity
  8
DEFPOINTS
 62
     0
100
AcDbPoint
 10
7233.707928765326
 20
3744.935954207626
 30
0.0
  0
POINT
  5
838C
330
848D
100
AcDbEntity
  8
DEFPOINTS
 62
     0
100
AcDbPoint
 10
7642.677553677827
 20
3744.935954207626
 30
0.0
  0
ENDBLK
  5
8025
330
848D
100
AcDbEntity
  8
0
100
AcDbBlockEnd
  0
BLOCK
  5
8490
330
848F
100
AcDbEntity
  8
0
100
AcDbBlockBegin
  2
*D8
 70
     1
 10
0.0
 20
0.0
 30
0.0
  3
*D8
  1

  0
LINE
  5
838D
330
848F
100
AcDbEntity
  8
3
 62
     0
100
AcDbLine
 10
2006.831659683934
 20
8875.623467839007
 30
0.0
 11
1537.8155184481
 21
8875.623467839007
 31
0.0
  0
LINE
  5
838E
330
848F
100
AcDbEntity
  8
3
 62
     0
100
AcDbLine
 10
2006.831659683934
 20
6755.623467839007
 30
0.0
 11
1537.8155184481
 21
6755.623467839007
 31
0.0
  0
LINE
  5
838F
330
848F
100
AcDbEntity
  8
3
 62
     0
100
AcDbLine
 10
1577.8155184481
 20
8795.623467839005
 30
0.0
 11
1577.8155184481
 21
6835.623467839008
 31
0.0
  0
INSERT
  5
8390
330
848F
100
AcDbEntity
  8
3
 62
     0
100
AcDbBlockReference
  2
_OPEN
 10
1577.8155184481
 20
8875.623467839007
 30
0.0
 41
80.0
 42
80.0
 43
80.0
 50
90.0
  0
INSERT
  5
8391
330
848F
100
AcDbEntity
  8
3
 62
     0
100
AcDbBlockReference
  2
_OPEN
 10
1577.8155184481
 20
6755.623467839007
 30
0.0
 41
80.0
 42
80.0
 43
80.0
 50
270.0
  0
TEXT
  5
83F8
330
848F
100
AcDbEntity
  8
3
 62
     0
100
AcDbText
 10
1237.82
 20
7603.22
 30
0.0
 40
120.0
  1
2120
100
AcDbText
  0
POINT
  5
8393
330
848F
100
AcDbEntity
  8
DEFPOINTS
 62
     0
100
AcDbPoint
 10
2026.831659683934
 20
8875.623467839007
 30
0.0
  0
POINT
  5
8394
330
848F
100
AcDbEntity
  8
DEFPOINTS
 62
     0
100
AcDbPoint
 10
2026.831659683934
 20
6755.623467839007
 30
0.0
  0
POINT
  5
8395
330
848F
100
AcDbEntity
  8
DEFPOINTS
 62
     0
100
AcDbPoint
 10
1577.8155184481
 20
6755.623467839007
 30
0.0
  0
ENDBLK
  5
7FF9
330
848F
100
AcDbEntity
  8
0
100
AcDbBlockEnd
  0
BLOCK
  5
8492
330
8491
100
AcDbEntity
  8
0
100
AcDbBlockBegin
  2
*D9
 70
     1
 10
0.0
 20
0.0
 30
0.0
  3
*D9
  1

  0
LINE
  5
8396
330
8491
100
AcDbEntity
  8
3
 62
     0
100
AcDbLine
 10
2026.831659683934
 20
8895.623467839007
 30
0.0
 11
2026.831659683934
 21
9120.259606344193
 31
0.0
  0
LINE
  5
8397
330
8491
100
AcDbEntity
  8
3
 62
     0
100
AcDbLine
 10
3526.831659683934
 20
8895.623467839008
 30
0.0
 11
3526.831659683934
 21
9120.259606344193
 31
0.0
  0
LINE
  5
8398
330
8491
100
AcDbEntity
  8
3
 62
     0
100
AcDbLine
 10
2106.831659683934
 20
9080.259606344192
 30
0.0
 11
3446.831659683934
 21
9080.259606344192
 31
0.0
  0
INSERT
  5
8399
330
8491
100
AcDbEntity
  8
3
 62
     0
100
AcDbBlockReference
  2
_OPEN
 10
2026.831659683934
 20
9080.259606344192
 30
0.0
 41
80.0
 42
80.0
 43
80.0
 50
180.0
  0
INSERT
  5
839A
330
8491
100
AcDbEntity
  8
3
 62
     0
100
AcDbBlockReference
  2
_OPEN
 10
3526.831659683934
 20
9080.259606344192
 30
0.0
 41
80.0
 42
80.0
 43
80.0
  0
TEXT
  5
83F9
330
8491
100
AcDbEntity
  8
3
 62
     0
100
AcDbText
 10
2536.83
 20
8967.859999999999
 30
0.0
 40
120.0
  1
1500
100
AcDbText
  0
POINT
  5
839C
330
8491
100
AcDbEntity
  8
DEFPOINTS
 62
     0
100
AcDbPoint
 10
2026.831659683934
 20
8875.623467839007
 30
0.0
  0
POINT
  5
839D
330
8491
100
AcDbEntity
  8
DEFPOINTS
 62
     0
100
AcDbPoint
 10
3526.831659683934
 20
8875.623467839009
 30
0.0
  0
POINT
  5
839E
330
8491
100
AcDbEntity
  8
DEFPOINTS
 62
     0
100
AcDbPoint
 10
3526.831659683934
 20
9080.259606344192
 30
0.0
  0
ENDBLK
  5
7FEE
330
8491
100
AcDbEntity
  8
0
100
AcDbBlockEnd
  0
BLOCK
  5
8494
330
8493
100
AcDbEntity
  8
0
100
AcDbBlockBegin
  2
*D10
 70
     1
 10
0.0
 20
0.0
 30
0.0
  3
*D10
  1

  0
LINE
  5
839F
330
8493
100
AcDbEntity
  8
3
 62
     0
100
AcDbLine
 10
3526.831659683934
 20
8895.623467839008
 30
0.0
 11
3526.831659683934
 21
9120.259606344193
 31
0.0
  0
LINE
  5
83A0
330
8493
100
AcDbEntity
  8
3
 62
     0
100
AcDbLine
 10
4476.831659683933
 20
7775.623467839007
 30
0.0
 11
4476.831659683933
 21
9120.259606344193
 31
0.0
  0
LINE
  5
83A1
330
8493
100
AcDbEntity
  8
3
 62
     0
100
AcDbLine
 10
3606.831659683933
 20
9080.259606344192
 30
0.0
 11
4396.831659683934
 21
9080.259606344192
 31
0.0
  0
INSERT
  5
83A2
330
8493
100
AcDbEntity
  8
3
 62
     0
100
AcDbBlockReference
  2
_OPEN
 10
3526.831659683934
 20
9080.259606344192
 30
0.0
 41
80.0
 42
80.0
 43
80.0
 50
180.0
  0
INSERT
  5
83A3
330
8493
100
AcDbEntity
  8
3
 62
     0
100
AcDbBlockReference
  2
_OPEN
 10
4476.831659683933
 20
9080.259606344192
 30
0.0
 41
80.0
 42
80.0
 43
80.0
  0
TEXT
  5
83FA
330
8493
100
AcDbEntity
  8
3
 62
     0
100
AcDbText
 10
3761.83
 20
8967.859999999999
 30
0.0
 40
120.0
  1
950
100
AcDbText
  0
POINT
  5
83A5
330
8493
100
AcDbEntity
  8
DEFPOINTS
 62
     0
100
AcDbPoint
 10
3526.831659683934
 20
8875.623467839009
 30
0.0
  0
POINT
  5
83A6
330
8493
100
AcDbEntity
  8
DEFPOINTS
 62
     0
100
AcDbPoint
 10
4476.831659683933
 20
7755.623467839007
 30
0.0
  0
POINT
  5
83A7
330
8493
100
AcDbEntity
  8
DEFPOINTS
 62
     0
100
AcDbPoint
 10
4476.831659683933
 20
9080.259606344192
 30
0.0
  0
ENDBLK
  5
7FE3
330
8493
100
AcDbEntity
  8
0
100
AcDbBlockEnd
  0
BLOCK
  5
8496
330
8495
100
AcDbEntity
  8
0
100
AcDbBlockBegin
  2
*D11
 70
     1
 10
0.0
 20
0.0
 30
0.0
  3
*D11
  1

  0
LINE
  5
83A8
330
8495
100
AcDbEntity
  8
3
 62
     0
100
AcDbLine
 10
4496.831659683934
 20
7755.623467839007
 30
0.0
 11
4783.158060791513
 21
7755.623467839007
 31
0.0
  0
LINE
  5
83A9
330
8495
100
AcDbEntity
  8
3
 62
     0
100
AcDbLine
 10
4496.831659683934
 20
6755.623467839007
 30
0.0
 11
4783.158060791513
 21
6755.623467839007
 31
0.0
  0
LINE
  5
83AA
330
8495
100
AcDbEntity
  8
3
 62
     0
100
AcDbLine
 10
4743.158060791513
 20
7675.62346783901
 30
0.0
 11
4743.158060791513
 21
6835.623467839008
 31
0.0
  0
INSERT
  5
83AB
330
8495
100
AcDbEntity
  8
3
 62
     0
100
AcDbBlockReference
  2
_OPEN
 10
4743.158060791513
 20
7755.623467839007
 30
0.0
 41
80.0
 42
80.0
 43
80.0
 50
90.0
  0
INSERT
  5
83AC
330
8495
100
AcDbEntity
  8
3
 62
     0
100
AcDbBlockReference
  2
_OPEN
 10
4743.158060791513
 20
6755.623467839007
 30
0.0
 41
80.0
 42
80.0
 43
80.0
 50
270.0
  0
TEXT
  5
83FB
330
8495
100
AcDbEntity
  8
3
 62
     0
100
AcDbText
 10
4403.159999999999
 20
7043.220000000001
 30
0.0
 40
120.0
  1
1000
100
AcDbText
  0
POINT
  5
83AE
330
8495
100
AcDbEntity
  8
DEFPOINTS
 62
     0
100
AcDbPoint
 10
4476.831659683933
 20
7755.623467839007
 30
0.0
  0
POINT
  5
83AF
330
8495
100
AcDbEntity
  8
DEFPOINTS
 62
     0
100
AcDbPoint
 10
4476.831659683933
 20
6755.623467839007
 30
0.0
  0
POINT
  5
83B0
330
8495
100
AcDbEntity
  8
DEFPOINTS
 62
     0
100
AcDbPoint
 10
4743.158060791513
 20
6755.623467839007
 30
0.0
  0
ENDBLK
  5
7FD8
330
8495
100
AcDbEntity
  8
0
100
AcDbBlockEnd
  0
BLOCK
  5
8498
330
8497
100
AcDbEntity
  8
0
100
AcDbBlockBegin
  2
*D12
 70
     1
 10
0.0
 20
0.0
 30
0.0
  3
*D12
  1

  0
LINE
  5
83B1
330
8497
100
AcDbEntity
  8
3
 62
     0
100
AcDbLine
 10
4476.831659683933
 20
6735.623467839008
 30
0.0
 11
4476.831659683933
 21
6350.869589649356
 31
0.0
  0
LINE
  5
83B2
330
8497
100
AcDbEntity
  8
3
 62
     0
100
AcDbLine
 10
2026.831659683934
 20
6735.623467839008
 30
0.0
 11
2026.831659683934
 21
6350.869589649356
 31
0.0
  0
LINE
  5
83B3
330
8497
100
AcDbEntity
  8
3
 62
     0
100
AcDbLine
 10
4396.831659683934
 20
6390.869589649355
 30
0.0
 11
2106.831659683934
 21
6390.869589649355
 31
0.0
  0
INSERT
  5
83B4
330
8497
100
AcDbEntity
  8
3
 62
     0
100
AcDbBlockReference
  2
_OPEN
 10
4476.831659683933
 20
6390.869589649355
 30
0.0
 41
80.0
 42
80.0
 43
80.0
  0
INSERT
  5
83B5
330
8497
100
AcDbEntity
  8
3
 62
     0
100
AcDbBlockReference
  2
_OPEN
 10
2026.831659683934
 20
6390.869589649355
 30
0.0
 41
80.0
 42
80.0
 43
80.0
 50
180.0
  0
TEXT
  5
83FC
330
8497
100
AcDbEntity
  8
3
 62
     0
100
AcDbText
 10
3011.83
 20
6278.47
 30
0.0
 40
120.0
  1
2450
100
AcDbText
  0
POINT
  5
83B7
330
8497
100
AcDbEntity
  8
DEFPOINTS
 62
     0
100
AcDbPoint
 10
4476.831659683933
 20
6755.623467839007
 30
0.0
  0
POINT
  5
83B8
330
8497
100
AcDbEntity
  8
DEFPOINTS
 62
     0
100
AcDbPoint
 10
2026.831659683934
 20
6755.623467839007
 30
0.0
  0
POINT
  5
83B9
330
8497
100
AcDbEntity
  8
DEFPOINTS
 62
     0
100
AcDbPoint
 10
2026.831659683934
 20
6390.869589649355
 30
0.0
  0
ENDBLK
  5
7FCD
330
8497
100
AcDbEntity
  8
0
100
AcDbBlockEnd
  0
BLOCK
  5
849A
330
8499
100
AcDbEntity
  8
0
100
AcDbBlockBegin
  2
*D13
 70
     1
 10
0.0
 20
0.0
 30
0.0
  3
*D13
  1

  0
LINE
  5
83BA
330
8499
100
AcDbEntity
  8
3
 62
     0
100
AcDbLine
 10
1931.831659683934
 20
3035.935954207627
 30
0.0
 11
1658.820626993976
 21
3035.935954207627
 31
0.0
  0
LINE
  5
83BB
330
8499
100
AcDbEntity
  8
3
 62
     0
100
AcDbLine
 10
1931.831659683934
 20
4315.935954207627
 30
0.0
 11
1658.820626993976
 21
4315.935954207627
 31
0.0
  0
LINE
  5
83BC
330
8499
100
AcDbEntity
  8
3
 62
     0
100
AcDbLine
 10
1698.820626993976
 20
3115.935954207627
 30
0.0
 11
1698.820626993976
 21
4235.935954207627
 31
0.0
  0
INSERT
  5
83BD
330
8499
100
AcDbEntity
  8
3
 62
     0
100
AcDbBlockReference
  2
_OPEN
 10
1698.820626993976
 20
3035.935954207627
 30
0.0
 41
80.0
 42
80.0
 43
80.0
 50
270.0
  0
INSERT
  5
83BE
330
8499
100
AcDbEntity
  8
3
 62
     0
100
AcDbBlockReference
  2
_OPEN
 10
1698.820626993976
 20
4315.935954207627
 30
0.0
 41
80.0
 42
80.0
 43
80.0
 50
90.0
  0
TEXT
  5
83FD
330
8499
100
AcDbEntity
  8
3
 62
     0
100
AcDbText
 10
1358.82
 20
3463.54
 30
0.0
 40
120.0
  1
1280
100
AcDbText
  0
POINT
  5
83C0
330
8499
100
AcDbEntity
  8
DEFPOINTS
 62
     0
100
AcDbPoint
 10
1951.831659683934
 20
3035.935954207627
 30
0.0
  0
POINT
  5
83C1
330
8499
100
AcDbEntity
  8
DEFPOINTS
 62
     0
100
AcDbPoint
 10
1951.831659683934
 20
4315.935954207627
 30
0.0
  0
POINT
  5
83C2
330
8499
100
AcDbEntity
  8
DEFPOINTS
 62
     0
100
AcDbPoint
 10
1698.820626993976
 20
4315.935954207627
 30
0.0
  0
ENDBLK
  5
7FB7
330
8499
100
AcDbEntity
  8
0
100
AcDbBlockEnd
  0
BLOCK
  5
849C
330
849B
100
AcDbEntity
  8
0
100
AcDbBlockBegin
  2
*D14
 70
     1
 10
0.0
 20
0.0
 30
0.0
  3
*D14
  1

  0
LINE
  5
83C3
330
849B
100
AcDbEntity
  8
3
 62
     0
100
AcDbLine
 10
1931.831659683934
 20
3035.935954207627
 30
0.0
 11
1411.757784537447
 21
3035.935954207627
 31
0.0
  0
LINE
  5
83C4
330
849B
100
AcDbEntity
  8
3
 62
     0
100
AcDbLine
 10
1853.395121435081
 20
4369.935954207627
 30
0.0
 11
1411.757784537447
 21
4369.935954207627
 31
0.0
  0
LINE
  5
83C5
330
849B
100
AcDbEntity
  8
3
 62
     0
100
AcDbLine
 10
1451.757784537447
 20
3115.935954207627
 30
0.0
 11
1451.757784537447
 21
4289.935954207627
 31
0.0
  0
INSERT
  5
83C6
330
849B
100
AcDbEntity
  8
3
 62
     0
100
AcDbBlockReference
  2
_OPEN
 10
1451.757784537447
 20
3035.935954207627
 30
0.0
 41
80.0
 42
80.0
 43
80.0
 50
270.0
  0
INSERT
  5
83C7
330
849B
100
AcDbEntity
  8
3
 62
     0
100
AcDbBlockReference
  2
_OPEN
 10
1451.757784537447
 20
4369.935954207627
 30
0.0
 41
80.0
 42
80.0
 43
80.0
 50
90.0
  0
TEXT
  5
83FE
330
849B
100
AcDbEntity
  8
3
 62
     0
100
AcDbText
 10
1111.76
 20
3490.54
 30
0.0
 40
120.0
  1
1334
100
AcDbText
  0
POINT
  5
83C9
330
849B
100
AcDbEntity
  8
DEFPOINTS
 62
     0
100
AcDbPoint
 10
1951.831659683934
 20
3035.935954207627
 30
0.0
  0
POINT
  5
83CA
330
849B
100
AcDbEntity
  8
DEFPOINTS
 62
     0
100
AcDbPoint
 10
1873.395121435081
 20
4369.935954207627
 30
0.0
  0
POINT
  5
83CB
330
849B
100
AcDbEntity
  8
DEFPOINTS
 62
     0
100
AcDbPoint
 10
1451.757784537447
 20
4369.935954207627
 30
0.0
  0
ENDBLK
  5
7FAC
330
849B
100
AcDbEntity
  8
0
100
AcDbBlockEnd
  0
BLOCK
  5
849E
330
849D
100
AcDbEntity
  8
0
100
AcDbBlockBegin
  2
*D15
 70
     1
 10
0.0
 20
0.0
 30
0.0
  3
*D15
  1

  0
LINE
  5
83CC
330
849D
100
AcDbEntity
  8
3
 62
     0
100
AcDbLine
 10
3852.287402522041
 20
4389.935954207627
 30
0.0
 11
3852.287402522041
 21
5574.448112292856
 31
0.0
  0
LINE
  5
83CD
330
849D
100
AcDbEntity
  8
3
 62
     0
100
AcDbLine
 10
2776.831659683934
 20
5469.070503599152
 30
0.0
 11
2776.831659683934
 21
5574.448112292856
 31
0.0
  0
LINE
  5
83CE
330
849D
100
AcDbEntity
  8
3
 62
     0
100
AcDbLine
 10
3772.28740252204
 20
5534.448112292857
 30
0.0
 11
2856.831659683934
 21
5534.448112292857
 31
0.0
  0
INSERT
  5
83CF
330
849D
100
AcDbEntity
  8
3
 62
     0
100
AcDbBlockReference
  2
_OPEN
 10
3852.287402522041
 20
5534.448112292857
 30
0.0
 41
80.0
 42
80.0
 43
80.0
  0
INSERT
  5
83D0
330
849D
100
AcDbEntity
  8
3
 62
     0
100
AcDbBlockReference
  2
_OPEN
 10
2776.831659683934
 20
5534.448112292857
 30
0.0
 41
80.0
 42
80.0
 43
80.0
 50
180.0
  0
TEXT
  5
83FF
330
849D
100
AcDbEntity
  8
3
 62
     0
100
AcDbText
 10
3074.56
 20
5422.05
 30
0.0
 40
120.0
  1
1079
100
AcDbText
  0
POINT
  5
83D2
330
849D
100
AcDbEntity
  8
DEFPOINTS
 62
     0
100
AcDbPoint
 10
3852.287402522041
 20
4369.935954207627
 30
0.0
  0
POINT
  5
83D3
330
849D
100
AcDbEntity
  8
DEFPOINTS
 62
     0
100
AcDbPoint
 10
2776.831659683934
 20
5449.070503599152
 30
0.0
  0
POINT
  5
83D4
330
849D
100
AcDbEntity
  8
DEFPOINTS
 62
     0
100
AcDbPoint
 10
2776.831659683934
 20
5534.448112292857
 30
0.0
  0
ENDBLK
  5
7F8B
330
849D
100
AcDbEntity
  8
0
100
AcDbBlockEnd
  0
BLOCK
  5
84A0
330
849F
100
AcDbEntity
  8
0
100
AcDbBlockBegin
  2
*D16
 70
     1
 10
0.0
 20
0.0
 30
0.0
  3
*D16
  1

  0
LINE
  5
83D5
330
849F
100
AcDbEntity
  8
3
 62
     0
100
AcDbLine
 10
2776.831659683934
 20
5469.070503599152
 30
0.0
 11
2776.831659683934
 21
5574.448112292856
 31
0.0
  0
LINE
  5
83D6
330
849F
100
AcDbEntity
  8
3
 62
     0
100
AcDbLine
 10
1951.831659683934
 20
4388.935954207627
 30
0.0
 11
1951.831659683934
 21
5574.448112292856
 31
0.0
  0
LINE
  5
83D7
330
849F
100
AcDbEntity
  8
3
 62
     0
100
AcDbLine
 10
2696.831659683934
 20
5534.448112292857
 30
0.0
 11
2031.831659683934
 21
5534.448112292857
 31
0.0
  0
INSERT
  5
83D8
330
849F
100
AcDbEntity
  8
3
 62
     0
100
AcDbBlockReference
  2
_OPEN
 10
2776.831659683934
 20
5534.448112292857
 30
0.0
 41
80.0
 42
80.0
 43
80.0
  0
INSERT
  5
83D9
330
849F
100
AcDbEntity
  8
3
 62
     0
100
AcDbBlockReference
  2
_OPEN
 10
1951.831659683934
 20
5534.448112292857
 30
0.0
 41
80.0
 42
80.0
 43
80.0
 50
180.0
  0
TEXT
  5
8400
330
849F
100
AcDbEntity
  8
3
 62
     0
100
AcDbText
 10
2124.33
 20
5422.05
 30
0.0
 40
120.0
  1
825
100
AcDbText
  0
POINT
  5
83DB
330
849F
100
AcDbEntity
  8
DEFPOINTS
 62
     0
100
AcDbPoint
 10
2776.831659683934
 20
5449.070503599152
 30
0.0
  0
POINT
  5
83DC
330
849F
100
AcDbEntity
  8
DEFPOINTS
 62
     0
100
AcDbPoint
 10
1951.831659683934
 20
4368.935954207628
 30
0.0
  0
POINT
  5
83DD
330
849F
100
AcDbEntity
  8
DEFPOINTS
 62
     0
100
AcDbPoint
 10
1951.831659683934
 20
5534.448112292857
 30
0.0
  0
ENDBLK
  5
7F80
330
849F
100
AcDbEntity
  8
0
100
AcDbBlockEnd
  0
BLOCK
  5
84A2
330
84A1
100
AcDbEntity
  8
0
100
AcDbBlockBegin
  2
*D17
 70
     1
 10
0.0
 20
0.0
 30
0.0
  3
*D17
  1

  0
LINE
  5
83DE
330
84A1
100
AcDbEntity
  8
3
 62
     0
100
AcDbLine
 10
1853.395121435081
 20
4369.935954207627
 30
0.0
 11
1160.642070885875
 21
4369.935954207627
 31
0.0
  0
LINE
  5
83DF
330
84A1
100
AcDbEntity
  8
3
 62
     0
100
AcDbLine
 10
2006.831659683934
 20
2939.935954207627
 30
0.0
 11
1160.642070885874
 21
2939.935954207627
 31
0.0
  0
LINE
  5
83E0
330
84A1
100
AcDbEntity
  8
3
 62
     0
100
AcDbLine
 10
1200.642070885875
 20
4289.935954207627
 30
0.0
 11
1200.642070885875
 21
3019.935954207627
 31
0.0
  0
INSERT
  5
83E1
330
84A1
100
AcDbEntity
  8
3
 62
     0
100
AcDbBlockReference
  2
_OPEN
 10
1200.642070885875
 20
4369.935954207627
 30
0.0
 41
80.0
 42
80.0
 43
80.0
 50
90.0
  0
INSERT
  5
83E2
330
84A1
100
AcDbEntity
  8
3
 62
     0
100
AcDbBlockReference
  2
_OPEN
 10
1200.642070885875
 20
2939.935954207627
 30
0.0
 41
80.0
 42
80.0
 43
80.0
 50
270.0
  0
TEXT
  5
8401
330
84A1
100
AcDbEntity
  8
3
 62
     0
100
AcDbText
 10
860.6419999999999
 20
3442.540000000001
 30
0.0
 40
120.0
  1
1430
100
AcDbText
  0
POINT
  5
83E4
330
84A1
100
AcDbEntity
  8
DEFPOINTS
 62
     0
100
AcDbPoint
 10
1873.395121435081
 20
4369.935954207627
 30
0.0
  0
POINT
  5
83E5
330
84A1
100
AcDbEntity
  8
DEFPOINTS
 62
     0
100
AcDbPoint
 10
2026.831659683934
 20
2939.935954207627
 30
0.0
  0
POINT
  5
83E6
330
84A1
100
AcDbEntity
  8
DEFPOINTS
 62
     0
100
AcDbPoint
 10
1200.642070885875
 20
2939.935954207627
 30
0.0
  0
ENDBLK
  5
7F6A
330
84A1
100
AcDbEntity
  8
0
100
AcDbBlockEnd
  0
BLOCK
  5
84A5
330
84A4
100
AcDbEntity
  8
0
100
AcDbBlockBegin
  2
*D18
 70
     1
 10
0.0
 20
0.0
 30
0.0
  3
*D18
  1

  0
LINE
  5
83E7
330
84A4
100
AcDbEntity
  8
3
 62
     0
100
AcDbLine
 10
1951.831659683934
 20
4408.935954207627
 30
0.0
 11
1951.831659683934
 21
5855.282770043522
 31
0.0
  0
LINE
  5
83E8
330
84A4
100
AcDbEntity
  8
3
 62
     0
100
AcDbLine
 10
4476.831659683933
 20
3084.935954207627
 30
0.0
 11
4476.831659683933
 21
5855.282770043522
 31
0.0
  0
LINE
  5
83E9
330
84A4
100
AcDbEntity
  8
3
 62
     0
100
AcDbLine
 10
2031.831659683934
 20
5815.282770043522
 30
0.0
 11
4396.831659683934
 21
5815.282770043522
 31
0.0
  0
INSERT
  5
83EA
330
84A4
100
AcDbEntity
  8
3
 62
     0
100
AcDbBlockReference
  2
_OPEN
 10
1951.831659683934
 20
5815.282770043522
 30
0.0
 41
80.0
 42
80.0
 43
80.0
 50
180.0
  0
INSERT
  5
83EB
330
84A4
100
AcDbEntity
  8
3
 62
     0
100
AcDbBlockReference
  2
_OPEN
 10
4476.831659683933
 20
5815.282770043522
 30
0.0
 41
80.0
 42
80.0
 43
80.0
  0
TEXT
  5
8402
330
84A4
100
AcDbEntity
  8
3
 62
     0
100
AcDbText
 10
3058.95
 20
5702.88
 30
0.0
 40
120.0
  1
2525
100
AcDbText
  0
POINT
  5
83ED
330
84A4
100
AcDbEntity
  8
DEFPOINTS
 62
     0
100
AcDbPoint
 10
1951.831659683934
 20
4388.935954207627
 30
0.0
  0
POINT
  5
83EE
330
84A4
100
AcDbEntity
  8
DEFPOINTS
 62
     0
100
AcDbPoint
 10
4476.831659683933
 20
3064.935954207627
 30
0.0
  0
POINT
  5
83EF
330
84A4
100
AcDbEntity
  8
DEFPOINTS
 62
     0
100
AcDbPoint
 10
4476.831659683933
 20
5815.282770043522
 30
0.0
  0
ENDBLK
  5
806B
330
84A4
100
AcDbEntity
  8
0
100
AcDbBlockEnd
  0
BLOCK
  5
84A7
330
84A6
100
AcDbEntity
  8
0
100
AcDbBlockBegin
  2
_DOT
 70
     0
 10
0.0
 20
0.0
 30
0.0
  3
_DOT
  1

  0
LINE
  5
8104
330
84A6
100
AcDbEntity
  8
0
  6
ByBlock
 62
     0
100
AcDbLine
 10
0.0
 20
0.0
 30
0.0
 11
-1.0
 21
-0.0000000000000284
 31
0.0
  0
LWPOLYLINE
  5
8105
330
84A6
100
AcDbEntity
  8
0
  6
ByBlock
 62
     0
100
AcDbPolyline
 90
        2
 70
     1
 43
0.1666666666666666
 10
-0.0833333333333286
 20
-0.0000000000000284
 42
1.0
 10
0.0833333333333286
 20
-0.0000000000000284
 42
1.0
  0
ENDBLK
  5
80C2
330
84A6
100
AcDbEntity
  8
0
100
AcDbBlockEnd
  0
BLOCK
  5
84A9
330
84A8
100
AcDbEntity
  8
0
100
AcDbBlockBegin
  2
_NONE
 70
     0
 10
0.0
 20
0.0
 30
0.0
  3
_NONE
  1

  0
CIRCLE
  5
81D2
330
84A8
100
AcDbEntity
  8
0
  6
ByBlock
 62
     0
100
AcDbCircle
 10
0.0
 20
0.0
 30
0.0
 40
0.25
  0
ENDBLK
  5
81D3
330
84A8
100
AcDbEntity
  8
0
100
AcDbBlockEnd
  0
BLOCK
  5
84AB
330
84AA
100
AcDbEntity
  8
0
100
AcDbBlockBegin
  2
*D21
 70
     1
 10
0.0
 20
0.0
 30
0.0
  3
*D21
  1

  0
LINE
  5
820A
330
84AA
100
AcDbEntity
  8
0
  6
ByBlock
 62
     0
100
AcDbLine
 10
2847.831659683933
 20
5266.935954207628
 30
0.0
 11
1163.170627867308
 21
5266.935954207628
 31
0.0
  0
LINE
  5
820B
330
84AA
100
AcDbEntity
  8
0
  6
ByBlock
 62
     0
100
AcDbLine
 10
1919.310814992313
 20
4369.935954207627
 30
0.0
 11
1163.170627867308
 21
4369.935954207627
 31
0.0
  0
LINE
  5
820C
330
84AA
100
AcDbEntity
  8
0
  6
ByBlock
 62
     0
100
AcDbLine
 10
1203.170627867308
 20
5186.935954207628
 30
0.0
 11
1203.170627867308
 21
4449.935954207627
 31
0.0
  0
INSERT
  5
820D
330
84AA
100
AcDbEntity
  8
0
  6
ByBlock
 62
     0
100
AcDbBlockReference
  2
_OPEN
 10
1203.170627867308
 20
5266.935954207628
 30
0.0
 41
80.0
 42
80.0
 43
80.0
 50
90.0
  0
INSERT
  5
820E
330
84AA
100
AcDbEntity
  8
0
  6
ByBlock
 62
     0
100
AcDbBlockReference
  2
_OPEN
 10
1203.170627867308
 20
4369.935954207627
 30
0.0
 41
80.0
 42
80.0
 43
80.0
 50
270.0
  0
TEXT
  5
820F
330
84AA
100
AcDbEntity
  8
3
 62
     0
100
AcDbText
 10
1163.170627867308
 20
4664.150239921912
 30
0.0
 40
120.0
  1
897
 50
90.0
100
AcDbText
  0
POINT
  5
8210
330
84AA
100
AcDbEntity
  8
DEFPOINTS
  6
ByBlock
 62
     0
100
AcDbPoint
 10
2867.831659683934
 20
5266.935954207628
 30
0.0
  0
POINT
  5
8211
330
84AA
100
AcDbEntity
  8
DEFPOINTS
  6
ByBlock
 62
     0
100
AcDbPoint
 10
1939.310814992313
 20
4369.935954207627
 30
0.0
  0
POINT
  5
8212
330
84AA
100
AcDbEntity
  8
DEFPOINTS
  6
ByBlock
 62
     0
100
AcDbPoint
 10
1203.170627867308
 20
4369.935954207627
 30
0.0
  0
ENDBLK
  5
8213
330
84AA
100
AcDbEntity
  8
0
100
AcDbBlockEnd
  0
BLOCK
  5
84AD
330
84AC
100
AcDbEntity
  8
0
100
AcDbBlockBegin
  2
*D22
 70
     1
 10
0.0
 20
0.0
 30
0.0
  3
*D22
  1

  0
LINE
  5
8252
330
84AC
100
AcDbEntity
  8
0
  6
ByBlock
 62
     0
100
AcDbLine
 10
2026.831659683934
 20
2919.935954207627
 30
0.0
 11
2026.831659683934
 21
2659.935484817176
 31
0.0
  0
LINE
  5
8253
330
84AC
100
AcDbEntity
  8
0
  6
ByBlock
 62
     0
100
AcDbLine
 10
2776.831659683933
 20
2919.935954207627
 30
0.0
 11
2776.831659683933
 21
2659.935484817176
 31
0.0
  0
LINE
  5
8254
330
84AC
100
AcDbEntity
  8
0
  6
ByBlock
 62
     0
100
AcDbLine
 10
2106.831659683934
 20
2699.935484817175
 30
0.0
 11
2696.831659683934
 21
2699.935484817175
 31
0.0
  0
INSERT
  5
8255
330
84AC
100
AcDbEntity
  8
0
  6
ByBlock
 62
     0
100
AcDbBlockReference
  2
_OPEN
 10
2026.831659683934
 20
2699.935484817175
 30
0.0
 41
80.0
 42
80.0
 43
80.0
 50
180.0
  0
INSERT
  5
8256
330
84AC
100
AcDbEntity
  8
0
  6
ByBlock
 62
     0
100
AcDbBlockReference
  2
_OPEN
 10
2776.831659683933
 20
2699.935484817175
 30
0.0
 41
80.0
 42
80.0
 43
80.0
  0
TEXT
  5
8257
330
84AC
100
AcDbEntity
  8
3
 62
     0
100
AcDbText
 10
2247.54594539822
 20
2739.935484817176
 30
0.0
 40
120.0
  1
750
100
AcDbText
  0
POINT
  5
8258
330
84AC
100
AcDbEntity
  8
DEFPOINTS
  6
ByBlock
 62
     0
100
AcDbPoint
 10
2026.831659683934
 20
2939.935954207627
 30
0.0
  0
POINT
  5
8259
330
84AC
100
AcDbEntity
  8
DEFPOINTS
  6
ByBlock
 62
     0
100
AcDbPoint
 10
2776.831659683933
 20
2939.935954207626
 30
0.0
  0
POINT
  5
825A
330
84AC
100
AcDbEntity
  8
DEFPOINTS
  6
ByBlock
 62
     0
100
AcDbPoint
 10
2776.831659683933
 20
2699.935484817175
 30
0.0
  0
ENDBLK
  5
825B
330
84AC
100
AcDbEntity
  8
0
100
AcDbBlockEnd
  0
BLOCK
  5
84AF
330
84AE
100
AcDbEntity
  8
0
100
AcDbBlockBegin
  2
*D23
 70
     1
 10
0.0
 20
0.0
 30
0.0
  3
*D23
  1

  0
LINE
  5
825F
330
84AE
100
AcDbEntity
  8
0
  6
ByBlock
 62
     0
100
AcDbLine
 10
2776.831659683933
 20
2919.935954207627
 30
0.0
 11
2776.831659683933
 21
2659.935484817176
 31
0.0
  0
LINE
  5
8260
330
84AE
100
AcDbEntity
  8
0
  6
ByBlock
 62
     0
100
AcDbLine
 10
4476.831659683933
 20
2919.935954207627
 30
0.0
 11
4476.831659683933
 21
2659.935484817176
 31
0.0
  0
LINE
  5
8261
330
84AE
100
AcDbEntity
  8
0
  6
ByBlock
 62
     0
100
AcDbLine
 10
2856.831659683933
 20
2699.935484817175
 30
0.0
 11
4396.831659683934
 21
2699.935484817175
 31
0.0
  0
INSERT
  5
8262
330
84AE
100
AcDbEntity
  8
0
  6
ByBlock
 62
     0
100
AcDbBlockReference
  2
_OPEN
 10
2776.831659683933
 20
2699.935484817175
 30
0.0
 41
80.0
 42
80.0
 43
80.0
 50
180.0
  0
INSERT
  5
8263
330
84AE
100
AcDbEntity
  8
0
  6
ByBlock
 62
     0
100
AcDbBlockReference
  2
_OPEN
 10
4476.831659683933
 20
2699.935484817175
 30
0.0
 41
80.0
 42
80.0
 43
80.0
  0
TEXT
  5
8264
330
84AE
100
AcDbEntity
  8
3
 62
     0
100
AcDbText
 10
3426.831659683934
 20
2739.935484817176
 30
0.0
 40
120.0
  1
1700
100
AcDbText
  0
POINT
  5
8265
330
84AE
100
AcDbEntity
  8
DEFPOINTS
  6
ByBlock
 62
     0
100
AcDbPoint
 10
2776.831659683933
 20
2939.935954207626
 30
0.0
  0
POINT
  5
8266
330
84AE
100
AcDbEntity
  8
DEFPOINTS
  6
ByBlock
 62
     0
100
AcDbPoint
 10
4476.831659683933
 20
2939.935954207627
 30
0.0
  0
POINT
  5
8267
330
84AE
100
AcDbEntity
  8
DEFPOINTS
  6
ByBlock
 62
     0
100
AcDbPoint
 10
4476.831659683933
 20
2699.935484817175
 30
0.0
  0
ENDBLK
  5
8268
330
84AE
100
AcDbEntity
  8
0
100
AcDbBlockEnd
  0
BLOCK
  5
84B1
330
84B0
100
AcDbEntity
  8
0
100
AcDbBlockBegin
  2
*D24
 70
     1
 10
0.0
 20
0.0
 30
0.0
  3
*D24
  1

  0
LINE
  5
826C
330
84B0
100
AcDbEntity
  8
0
  6
ByBlock
 62
     0
100
AcDbLine
 10
5179.407928765326
 20
2919.935954207627
 30
0.0
 11
5179.407928765326
 21
2659.935484817176
 31
0.0
  0
LINE
  5
826D
330
84B0
100
AcDbEntity
  8
0
  6
ByBlock
 62
     0
100
AcDbLine
 10
6381.407928765328
 20
2919.935954207627
 30
0.0
 11
6381.407928765328
 21
2659.935484817176
 31
0.0
  0
LINE
  5
826E
330
84B0
100
AcDbEntity
  8
0
  6
ByBlock
 62
     0
100
AcDbLine
 10
5259.407928765326
 20
2699.935484817175
 30
0.0
 11
6301.407928765327
 21
2699.935484817175
 31
0.0
  0
INSERT
  5
826F
330
84B0
100
AcDbEntity
  8
0
  6
ByBlock
 62
     0
100
AcDbBlockReference
  2
_OPEN
 10
5179.407928765326
 20
2699.935484817175
 30
0.0
 41
80.0
 42
80.0
 43
80.0
 50
180.0
  0
INSERT
  5
8270
330
84B0
100
AcDbEntity
  8
0
  6
ByBlock
 62
     0
100
AcDbBlockReference
  2
_OPEN
 10
6381.407928765328
 20
2699.935484817175
 30
0.0
 41
80.0
 42
80.0
 43
80.0
  0
TEXT
  5
8271
330
84B0
100
AcDbEntity
  8
3
 62
     0
100
AcDbText
 10
5580.407928765326
 20
2739.935484817176
 30
0.0
 40
120.0
  1
1202
100
AcDbText
  0
POINT
  5
8272
330
84B0
100
AcDbEntity
  8
DEFPOINTS
  6
ByBlock
 62
     0
100
AcDbPoint
 10
5179.407928765326
 20
2939.935954207627
 30
0.0
  0
POINT
  5
8273
330
84B0
100
AcDbEntity
  8
DEFPOINTS
  6
ByBlock
 62
     0
100
AcDbPoint
 10
6381.407928765328
 20
2939.935954207627
 30
0.0
  0
POINT
  5
8274
330
84B0
100
AcDbEntity
  8
DEFPOINTS
  6
ByBlock
 62
     0
100
AcDbPoint
 10
6381.407928765328
 20
2699.935484817175
 30
0.0
  0
ENDBLK
  5
8275
330
84B0
100
AcDbEntity
  8
0
100
AcDbBlockEnd
  0
BLOCK
  5
84B3
330
84B2
100
AcDbEntity
  8
0
100
AcDbBlockBegin
  2
*D25
 70
     1
 10
0.0
 20
0.0
 30
0.0
  3
*D25
  1

  0
LINE
  5
8279
330
84B2
100
AcDbEntity
  8
0
  6
ByBlock
 62
     0
100
AcDbLine
 10
6381.407928765328
 20
2919.935954207627
 30
0.0
 11
6381.407928765328
 21
2659.935484817176
 31
0.0
  0
LINE
  5
827A
330
84B2
100
AcDbEntity
  8
0
  6
ByBlock
 62
     0
100
AcDbLine
 10
7299.407928765326
 20
2919.935954207627
 30
0.0
 11
7299.407928765326
 21
2659.935484817176
 31
0.0
  0
LINE
  5
827B
330
84B2
100
AcDbEntity
  8
0
  6
ByBlock
 62
     0
100
AcDbLine
 10
6461.407928765328
 20
2699.935484817175
 30
0.0
 11
7219.407928765325
 21
2699.935484817175
 31
0.0
  0
INSERT
  5
827C
330
84B2
100
AcDbEntity
  8
0
  6
ByBlock
 62
     0
100
AcDbBlockReference
  2
_OPEN
 10
6381.407928765328
 20
2699.935484817175
 30
0.0
 41
80.0
 42
80.0
 43
80.0
 50
180.0
  0
INSERT
  5
827D
330
84B2
100
AcDbEntity
  8
0
  6
ByBlock
 62
     0
100
AcDbBlockReference
  2
_OPEN
 10
7299.407928765326
 20
2699.935484817175
 30
0.0
 41
80.0
 42
80.0
 43
80.0
  0
TEXT
  5
827E
330
84B2
100
AcDbEntity
  8
3
 62
     0
100
AcDbText
 10
6697.550785908183
 20
2739.935484817176
 30
0.0
 40
120.0
  1
918
100
AcDbText
  0
POINT
  5
827F
330
84B2
100
AcDbEntity
  8
DEFPOINTS
  6
ByBlock
 62
     0
100
AcDbPoint
 10
6381.407928765328
 20
2939.935954207627
 30
0.0
  0
POINT
  5
8280
330
84B2
100
AcDbEntity
  8
DEFPOINTS
  6
ByBlock
 62
     0
100
AcDbPoint
 10
7299.407928765326
 20
2939.935954207627
 30
0.0
  0
POINT
  5
8281
330
84B2
100
AcDbEntity
  8
DEFPOINTS
  6
ByBlock
 62
     0
100
AcDbPoint
 10
7299.407928765326
 20
2699.935484817175
 30
0.0
  0
ENDBLK
  5
8282
330
84B2
100
AcDbEntity
  8
0
100
AcDbBlockEnd
  0
BLOCK
  5
84B5
330
84B4
100
AcDbEntity
  8
0
100
AcDbBlockBegin
  2
*D26
 70
     1
 10
0.0
 20
0.0
 30
0.0
  3
*D26
  1

  0
LINE
  5
8286
330
84B4
100
AcDbEntity
  8
0
  6
ByBlock
 62
     0
100
AcDbLine
 10
2006.831659683934
 20
2939.935954207627
 30
0.0
 11
903.8621911394729
 21
2939.935954207627
 31
0.0
  0
LINE
  5
8287
330
84B4
100
AcDbEntity
  8
0
  6
ByBlock
 62
     0
100
AcDbLine
 10
2827.831659683934
 20
5266.935954207628
 30
0.0
 11
903.8621911394729
 21
5266.935954207628
 31
0.0
  0
LINE
  5
8288
330
84B4
100
AcDbEntity
  8
0
  6
ByBlock
 62
     0
100
AcDbLine
 10
943.8621911394729
 20
3019.935954207627
 30
0.0
 11
943.8621911394729
 21
5186.935954207628
 31
0.0
  0
INSERT
  5
8289
330
84B4
100
AcDbEntity
  8
0
  6
ByBlock
 62
     0
100
AcDbBlockReference
  2
_OPEN
 10
943.8621911394729
 20
2939.935954207627
 30
0.0
 41
80.0
 42
80.0
 43
80.0
 50
270.0
  0
INSERT
  5
828A
330
84B4
100
AcDbEntity
  8
0
  6
ByBlock
 62
     0
100
AcDbBlockReference
  2
_OPEN
 10
943.8621911394729
 20
5266.935954207628
 30
0.0
 41
80.0
 42
80.0
 43
80.0
 50
90.0
  0
TEXT
  5
828B
330
84B4
100
AcDbEntity
  8
3
 62
     0
100
AcDbText
 10
903.8621911394729
 20
3892.007382779056
 30
0.0
 40
120.0
  1
2327
 50
90.0
100
AcDbText
  0
POINT
  5
828C
330
84B4
100
AcDbEntity
  8
DEFPOINTS
  6
ByBlock
 62
     0
100
AcDbPoint
 10
2026.831659683934
 20
2939.935954207627
 30
0.0
  0
POINT
  5
828D
330
84B4
100
AcDbEntity
  8
DEFPOINTS
  6
ByBlock
 62
     0
100
AcDbPoint
 10
2847.831659683933
 20
5266.935954207628
 30
0.0
  0
POINT
  5
828E
330
84B4
100
AcDbEntity
  8
DEFPOINTS
  6
ByBlock
 62
     0
100
AcDbPoint
 10
943.8621911394729
 20
5266.935954207628
 30
0.0
  0
ENDBLK
  5
828F
330
84B4
100
AcDbEntity
  8
0
100
AcDbBlockEnd
  0
BLOCK
  5
850F
330
850E
100
AcDbEntity
  8
0
100
AcDbBlockBegin
  2
*D27
 70
     1
 10
0.0
 20
0.0
 30
0.0
  3
*D27
  1

  0
LINE
  5
8511
330
850E
100
AcDbEntity
  8
3
 62
     0
370
    -2
100
AcDbLine
 10
5531.407928765328
 20
5286.935954207628
 30
0.0
 11
5531.407928765328
 21
5579.256168514262
 31
0.0
  0
LINE
  5
8512
330
850E
100
AcDbEntity
  8
3
 62
     0
370
    -2
100
AcDbLine
 10
7231.407928765325
 20
5286.935954207628
 30
0.0
 11
7231.407928765325
 21
5579.256168514262
 31
0.0
  0
LINE
  5
8513
330
850E
100
AcDbEntity
  8
3
 62
     0
370
    -2
100
AcDbLine
 10
5611.407928765327
 20
5539.256168514262
 30
0.0
 11
7151.407928765326
 21
5539.256168514262
 31
0.0
  0
INSERT
  5
8514
330
850E
100
AcDbEntity
  8
3
 62
     0
370
    -2
100
AcDbBlockReference
  2
_OPEN
 10
5531.407928765328
 20
5539.256168514262
 30
0.0
 41
80.0
 42
80.0
 43
80.0
 50
180.0
  0
INSERT
  5
8515
330
850E
100
AcDbEntity
  8
3
 62
     0
370
    -2
100
AcDbBlockReference
  2
_OPEN
 10
7231.407928765325
 20
5539.256168514262
 30
0.0
 41
80.0
 42
80.0
 43
80.0
  0
MTEXT
  5
8516
330
850E
100
AcDbEntity
  8
3
 62
     0
100
AcDbMText
 10
6381.407928765327
 20
5639.256168514261
 30
0.0
 40
120.0
 41
0.0
 71
     5
 72
     1
  1
\A1;1700
 73
     1
 44
1.0
1001
ACAD
1000
MTEXTBEGIN
1070
    73
1070
     1
1070
    44
1040
1.0
1070
    74
1070
     0
1000
MTEXTEND
  0
POINT
  5
8517
330
850E
100
AcDbEntity
  8
DEFPOINTS
 62
     0
100
AcDbPoint
 10
5531.407928765328
 20
5266.935954207627
 30
0.0
  0
POINT
  5
8518
330
850E
100
AcDbEntity
  8
DEFPOINTS
 62
     0
100
AcDbPoint
 10
7231.407928765325
 20
5266.935954207627
 30
0.0
  0
POINT
  5
8519
330
850E
100
AcDbEntity
  8
DEFPOINTS
 62
     0
100
AcDbPoint
 10
7231.407928765325
 20
5539.256168514262
 30
0.0
  0
ENDBLK
  5
8510
330
850E
100
AcDbEntity
  8
0
100
AcDbBlockEnd
  0
BLOCK
  5
851C
330
851B
100
AcDbEntity
  8
0
100
AcDbBlockBegin
  2
*D28
 70
     1
 10
0.0
 20
0.0
 30
0.0
  3
*D28
  1

  0
LINE
  5
8587
330
851B
100
AcDbEntity
  8
3
 62
     0
370
    -2
100
AcDbLine
 10
5101.407928765326
 20
4769.935954207627
 30
0.0
 11
5101.407928765326
 21
5860.910505835629
 31
0.0
  0
LINE
  5
8588
330
851B
100
AcDbEntity
  8
3
 62
     0
370
    -2
100
AcDbLine
 10
6381.407928765326
 20
5719.256168514262
 30
0.0
 11
6381.407928765326
 21
5860.910505835629
 31
0.0
  0
LINE
  5
8589
330
851B
100
AcDbEntity
  8
3
 62
     0
370
    -2
100
AcDbLine
 10
5181.407928765325
 20
5820.910505835629
 30
0.0
 11
6301.407928765326
 21
5820.910505835629
 31
0.0
  0
INSERT
  5
858A
330
851B
100
AcDbEntity
  8
3
 62
     0
370
    -2
100
AcDbBlockReference
  2
_OPEN
 10
5101.407928765326
 20
5820.910505835629
 30
0.0
 41
80.0
 42
80.0
 43
80.0
 50
180.0
  0
INSERT
  5
858B
330
851B
100
AcDbEntity
  8
3
 62
     0
370
    -2
100
AcDbBlockReference
  2
_OPEN
 10
6381.407928765326
 20
5820.910505835629
 30
0.0
 41
80.0
 42
80.0
 43
80.0
  0
MTEXT
  5
858C
330
851B
100
AcDbEntity
  8
3
 62
     0
100
AcDbMText
 10
5741.407928765326
 20
5952.339077264201
 30
0.0
 40
120.0
 41
0.0
 71
     5
 72
     1
  1
\A1;(1280)
 73
     1
 44
1.0
1001
ACAD
1000
MTEXTBEGIN
1070
    73
1070
     1
1070
    44
1040
1.0
1070
    74
1070
     0
1000
MTEXTEND
  0
POINT
  5
858D
330
851B
100
AcDbEntity
  8
DEFPOINTS
 62
     0
100
AcDbPoint
 10
5101.407928765326
 20
4749.935954207627
 30
0.0
  0
POINT
  5
858E
330
851B
100
AcDbEntity
  8
DEFPOINTS
 62
     0
100
AcDbPoint
 10
6381.407928765326
 20
5699.256168514262
 30
0.0
  0
POINT
  5
858F
330
851B
100
AcDbEntity
  8
DEFPOINTS
 62
     0
100
AcDbPoint
 10
6381.407928765326
 20
5820.910505835629
 30
0.0
  0
ENDBLK
  5
851D
330
851B
100
AcDbEntity
  8
0
100
AcDbBlockEnd
  0
BLOCK
  5
8529
330
8528
100
AcDbEntity
  8
0
100
AcDbBlockBegin
  2
*D29
 70
     1
 10
0.0
 20
0.0
 30
0.0
  3
*D29
  1

  0
LINE
  5
8599
330
8528
100
AcDbEntity
  8
3
 62
     0
370
    -2
100
AcDbLine
 10
6381.407928765326
 20
5719.256168514262
 30
0.0
 11
6381.407928765326
 21
5860.910505835629
 31
0.0
  0
LINE
  5
859A
330
8528
100
AcDbEntity
  8
3
 62
     0
370
    -2
100
AcDbLine
 10
7401.407928765324
 20
4313.935954207627
 30
0.0
 11
7401.407928765324
 21
5860.910505835629
 31
0.0
  0
LINE
  5
859B
330
8528
100
AcDbEntity
  8
3
 62
     0
370
    -2
100
AcDbLine
 10
6461.407928765325
 20
5820.910505835629
 30
0.0
 11
7321.407928765324
 21
5820.910505835629
 31
0.0
  0
INSERT
  5
859C
330
8528
100
AcDbEntity
  8
3
 62
     0
370
    -2
100
AcDbBlockReference
  2
_OPEN
 10
6381.407928765326
 20
5820.910505835629
 30
0.0
 41
80.0
 42
80.0
 43
80.0
 50
180.0
  0
INSERT
  5
859D
330
8528
100
AcDbEntity
  8
3
 62
     0
370
    -2
100
AcDbBlockReference
  2
_OPEN
 10
7401.407928765324
 20
5820.910505835629
 30
0.0
 41
80.0
 42
80.0
 43
80.0
  0
MTEXT
  5
859E
330
8528
100
AcDbEntity
  8
3
 62
     0
100
AcDbMText
 10
6891.407928765326
 20
5952.339077264201
 30
0.0
 40
120.0
 41
0.0
 71
     5
 72
     1
  1
\A1;(1020)
 73
     1
 44
1.0
1001
ACAD
1000
MTEXTBEGIN
1070
    73
1070
     1
1070
    44
1040
1.0
1070
    74
1070
     0
1000
MTEXTEND
  0
POINT
  5
859F
330
8528
100
AcDbEntity
  8
DEFPOINTS
 62
     0
100
AcDbPoint
 10
6381.407928765326
 20
5699.256168514262
 30
0.0
  0
POINT
  5
85A0
330
8528
100
AcDbEntity
  8
DEFPOINTS
 62
     0
100
AcDbPoint
 10
7401.407928765324
 20
4293.935954207627
 30
0.0
  0
POINT
  5
85A1
330
8528
100
AcDbEntity
  8
DEFPOINTS
 62
     0
100
AcDbPoint
 10
7401.407928765324
 20
5820.910505835629
 30
0.0
  0
ENDBLK
  5
852A
330
8528
100
AcDbEntity
  8
0
100
AcDbBlockEnd
  0
BLOCK
  5
853A
330
8539
100
AcDbEntity
  8
0
100
AcDbBlockBegin
  2
*D30
 70
     1
 10
0.0
 20
0.0
 30
0.0
  3
*D30
  1

  0
LINE
  5
8551
330
8539
100
AcDbEntity
  8
3
 62
     0
370
    -2
100
AcDbLine
 10
7251.407928765326
 20
4994.935954207627
 30
0.0
 11
7682.677553677827
 21
4994.935954207627
 31
0.0
  0
LINE
  5
8552
330
8539
100
AcDbEntity
  8
3
 62
     0
370
    -2
100
AcDbLine
 10
7251.407928765326
 20
3744.935954207627
 30
0.0
 11
7682.677553677827
 21
3744.935954207627
 31
0.0
  0
LINE
  5
8553
330
8539
100
AcDbEntity
  8
3
 62
     0
370
    -2
100
AcDbLine
 10
7642.677553677827
 20
4914.935954207628
 30
0.0
 11
7642.677553677827
 21
3824.935954207627
 31
0.0
  0
INSERT
  5
8554
330
8539
100
AcDbEntity
  8
3
 62
     0
370
    -2
100
AcDbBlockReference
  2
_OPEN
 10
7642.677553677827
 20
4994.935954207627
 30
0.0
 41
80.0
 42
80.0
 43
80.0
 50
90.0
  0
INSERT
  5
8555
330
8539
100
AcDbEntity
  8
3
 62
     0
370
    -2
100
AcDbBlockReference
  2
_OPEN
 10
7642.677553677827
 20
3744.935954207627
 30
0.0
 41
80.0
 42
80.0
 43
80.0
 50
270.0
  0
MTEXT
  5
8556
330
8539
100
AcDbEntity
  8
3
 62
     0
100
AcDbMText
 10
7542.677553677826
 20
4369.935954207628
 30
0.0
 40
120.0
 41
0.0
 71
     5
 72
     1
  1
\A1;\U+03C61250
 11
0.0000000000000001
 21
1.0
 31
0.0
 73
     1
 44
1.0
1001
ACAD
1000
MTEXTBEGIN
1070
    73
1070
     1
1070
    44
1040
1.0
1070
    74
1070
     0
1000
MTEXTEND
  0
POINT
  5
8557
330
8539
100
AcDbEntity
  8
DEFPOINTS
 62
     0
100
AcDbPoint
 10
7231.407928765325
 20
4994.935954207627
 30
0.0
  0
POINT
  5
8558
330
8539
100
AcDbEntity
  8
DEFPOINTS
 62
     0
100
AcDbPoint
 10
7231.407928765325
 20
3744.935954207627
 30
0.0
  0
POINT
  5
8559
330
8539
100
AcDbEntity
  8
DEFPOINTS
 62
     0
100
AcDbPoint
 10
7642.677553677827
 20
3744.935954207627
 30
0.0
  0
ENDBLK
  5
853B
330
8539
100
AcDbEntity
  8
0
100
AcDbBlockEnd
  0
BLOCK
  5
85A4
330
85A3
100
AcDbEntity
  8
0
100
AcDbBlockBegin
  2
*D31
 70
     1
 10
0.0
 20
0.0
 30
0.0
  3
*D31
  1

  0
LINE
  5
85F0
330
85A3
100
AcDbEntity
  8
3
 62
     0
370
    -2
100
AcDbLine
 10
1781.004538962214
 20
7957.62346783901
 30
0.0
 11
589.8480825204464
 21
7957.62346783901
 31
0.0
  0
LINE
  5
85F1
330
85A3
100
AcDbEntity
  8
3
 62
     0
370
    -2
100
AcDbLine
 10
2376.831659683934
 20
6677.623467839009
 30
0.0
 11
589.8480825204461
 21
6677.623467839011
 31
0.0
  0
LINE
  5
85F2
330
85A3
100
AcDbEntity
  8
3
 62
     0
370
    -2
100
AcDbLine
 10
629.8480825204462
 20
7877.62346783901
 30
0.0
 11
629.848082520446
 21
6757.62346783901
 31
0.0
  0
INSERT
  5
85F3
330
85A3
100
AcDbEntity
  8
3
 62
     0
370
    -2
100
AcDbBlockReference
  2
_OPEN
 10
629.8480825204464
 20
7957.62346783901
 30
0.0
 41
80.0
 42
80.0
 43
80.0
 50
90.0
  0
INSERT
  5
85F4
330
85A3
100
AcDbEntity
  8
3
 62
     0
370
    -2
100
AcDbBlockReference
  2
_OPEN
 10
629.848082520446
 20
6677.623467839011
 30
0.0
 41
80.0
 42
80.0
 43
80.0
 50
270.0
  0
MTEXT
  5
85F5
330
85A3
100
AcDbEntity
  8
3
 62
     0
100
AcDbMText
 10
529.848082520445
 20
7317.62346783901
 30
0.0
 40
120.0
 41
0.0
 71
     5
 72
     1
  1
\A1;1280
 11
0.0000000000000001
 21
1.0
 31
0.0
 73
     1
 44
1.0
1001
ACAD
1000
MTEXTBEGIN
1070
    73
1070
     1
1070
    44
1040
1.0
1070
    74
1070
     0
1000
MTEXTEND
  0
POINT
  5
85F6
330
85A3
100
AcDbEntity
  8
DEFPOINTS
 62
     0
100
AcDbPoint
 10
1801.004538962214
 20
7957.62346783901
 30
0.0
  0
POINT
  5
85F7
330
85A3
100
AcDbEntity
  8
DEFPOINTS
 62
     0
100
AcDbPoint
 10
2396.831659683934
 20
6677.623467839009
 30
0.0
  0
POINT
  5
85F8
330
85A3
100
AcDbEntity
  8
DEFPOINTS
 62
     0
100
AcDbPoint
 10
629.848082520446
 20
6677.623467839011
 30
0.0
  0
ENDBLK
  5
85A5
330
85A3
100
AcDbEntity
  8
0
100
AcDbBlockEnd
  0
BLOCK
  5
85B1
330
85B0
100
AcDbEntity
  8
0
100
AcDbBlockBegin
  2
*D32
 70
     1
 10
0.0
 20
0.0
 30
0.0
  3
*D32
  1

  0
LINE
  5
85B3
330
85B0
100
AcDbEntity
  8
3
 62
     0
370
    -2
100
AcDbLine
 10
2026.831659683934
 20
6735.623467839008
 30
0.0
 11
2026.831659683934
 21
6350.869589649355
 31
0.0
  0
LINE
  5
85B4
330
85B0
100
AcDbEntity
  8
3
 62
     0
370
    -2
100
AcDbLine
 10
4476.831659683933
 20
6735.623467839008
 30
0.0
 11
4476.831659683933
 21
6350.869589649355
 31
0.0
  0
LINE
  5
85B5
330
85B0
100
AcDbEntity
  8
3
 62
     0
370
    -2
100
AcDbLine
 10
2106.831659683934
 20
6390.869589649355
 30
0.0
 11
4396.831659683932
 21
6390.869589649355
 31
0.0
  0
INSERT
  5
85B6
330
85B0
100
AcDbEntity
  8
3
 62
     0
370
    -2
100
AcDbBlockReference
  2
_OPEN
 10
2026.831659683934
 20
6390.869589649355
 30
0.0
 41
80.0
 42
80.0
 43
80.0
 50
180.0
  0
INSERT
  5
85B7
330
85B0
100
AcDbEntity
  8
3
 62
     0
370
    -2
100
AcDbBlockReference
  2
_OPEN
 10
4476.831659683933
 20
6390.869589649355
 30
0.0
 41
80.0
 42
80.0
 43
80.0
  0
MTEXT
  5
85B8
330
85B0
100
AcDbEntity
  8
3
 62
     0
100
AcDbMText
 10
3251.831659683933
 20
6490.869589649354
 30
0.0
 40
120.0
 41
0.0
 71
     5
 72
     1
  1
\A1;2450
 73
     1
 44
1.0
1001
ACAD
1000
MTEXTBEGIN
1070
    73
1070
     1
1070
    44
1040
1.0
1070
    74
1070
     0
1000
MTEXTEND
  0
POINT
  5
85B9
330
85B0
100
AcDbEntity
  8
DEFPOINTS
 62
     0
100
AcDbPoint
 10
2026.831659683934
 20
6755.623467839007
 30
0.0
  0
POINT
  5
85BA
330
85B0
100
AcDbEntity
  8
DEFPOINTS
 62
     0
100
AcDbPoint
 10
4476.831659683933
 20
6755.623467839007
 30
0.0
  0
POINT
  5
85BB
330
85B0
100
AcDbEntity
  8
DEFPOINTS
 62
     0
100
AcDbPoint
 10
4476.831659683933
 20
6390.869589649355
 30
0.0
  0
ENDBLK
  5
85B2
330
85B0
100
AcDbEntity
  8
0
100
AcDbBlockEnd
  0
BLOCK
  5
85BE
330
85BD
100
AcDbEntity
  8
0
100
AcDbBlockBegin
  2
*D33
 70
     1
 10
0.0
 20
0.0
 30
0.0
  3
*D33
  1

  0
LINE
  5
85C0
330
85BD
100
AcDbEntity
  8
3
 62
     0
370
    -2
100
AcDbLine
 10
4496.831659683933
 20
6755.623467839007
 30
0.0
 11
4783.158060791513
 21
6755.623467839007
 31
0.0
  0
LINE
  5
85C1
330
85BD
100
AcDbEntity
  8
3
 62
     0
370
    -2
100
AcDbLine
 10
4496.831659683933
 20
7755.623467839007
 30
0.0
 11
4783.158060791513
 21
7755.623467839007
 31
0.0
  0
LINE
  5
85C2
330
85BD
100
AcDbEntity
  8
3
 62
     0
370
    -2
100
AcDbLine
 10
4743.158060791513
 20
6835.623467839008
 30
0.0
 11
4743.158060791513
 21
7675.623467839007
 31
0.0
  0
INSERT
  5
85C3
330
85BD
100
AcDbEntity
  8
3
 62
     0
370
    -2
100
AcDbBlockReference
  2
_OPEN
 10
4743.158060791513
 20
6755.623467839007
 30
0.0
 41
80.0
 42
80.0
 43
80.0
 50
270.0
  0
INSERT
  5
85C4
330
85BD
100
AcDbEntity
  8
3
 62
     0
370
    -2
100
AcDbBlockReference
  2
_OPEN
 10
4743.158060791513
 20
7755.623467839007
 30
0.0
 41
80.0
 42
80.0
 43
80.0
 50
90.0
  0
MTEXT
  5
85C5
330
85BD
100
AcDbEntity
  8
3
 62
     0
100
AcDbMText
 10
4643.158060791511
 20
7255.623467839008
 30
0.0
 40
120.0
 41
0.0
 71
     5
 72
     1
  1
\A1;1000
 11
0.0000000000000001
 21
1.0
 31
0.0
 73
     1
 44
1.0
1001
ACAD
1000
MTEXTBEGIN
1070
    73
1070
     1
1070
    44
1040
1.0
1070
    74
1070
     0
1000
MTEXTEND
  0
POINT
  5
85C6
330
85BD
100
AcDbEntity
  8
DEFPOINTS
 62
     0
100
AcDbPoint
 10
4476.831659683933
 20
6755.623467839007
 30
0.0
  0
POINT
  5
85C7
330
85BD
100
AcDbEntity
  8
DEFPOINTS
 62
     0
100
AcDbPoint
 10
4476.831659683933
 20
7755.623467839007
 30
0.0
  0
POINT
  5
85C8
330
85BD
100
AcDbEntity
  8
DEFPOINTS
 62
     0
100
AcDbPoint
 10
4743.158060791513
 20
7755.623467839007
 30
0.0
  0
ENDBLK
  5
85BF
330
85BD
100
AcDbEntity
  8
0
100
AcDbBlockEnd
  0
BLOCK
  5
85CB
330
85CA
100
AcDbEntity
  8
0
100
AcDbBlockBegin
  2
*D34
 70
     1
 10
0.0
 20
0.0
 30
0.0
  3
*D34
  1

  0
LINE
  5
85CD
330
85CA
100
AcDbEntity
  8
3
 62
     0
370
    -2
100
AcDbLine
 10
4476.831659683933
 20
7775.623467839007
 30
0.0
 11
4476.831659683933
 21
9120.259606344193
 31
0.0
  0
LINE
  5
85CE
330
85CA
100
AcDbEntity
  8
3
 62
     0
370
    -2
100
AcDbLine
 10
3526.831659683934
 20
8895.623467839008
 30
0.0
 11
3526.831659683934
 21
9120.259606344193
 31
0.0
  0
LINE
  5
85CF
330
85CA
100
AcDbEntity
  8
3
 62
     0
370
    -2
100
AcDbLine
 10
4396.831659683932
 20
9080.259606344192
 30
0.0
 11
3606.831659683934
 21
9080.259606344192
 31
0.0
  0
INSERT
  5
85D0
330
85CA
100
AcDbEntity
  8
3
 62
     0
370
    -2
100
AcDbBlockReference
  2
_OPEN
 10
4476.831659683933
 20
9080.259606344192
 30
0.0
 41
80.0
 42
80.0
 43
80.0
  0
INSERT
  5
85D1
330
85CA
100
AcDbEntity
  8
3
 62
     0
370
    -2
100
AcDbBlockReference
  2
_OPEN
 10
3526.831659683934
 20
9080.259606344192
 30
0.0
 41
80.0
 42
80.0
 43
80.0
 50
180.0
  0
MTEXT
  5
85D2
330
85CA
100
AcDbEntity
  8
3
 62
     0
100
AcDbMText
 10
4001.831659683933
 20
9180.259606344192
 30
0.0
 40
120.0
 41
0.0
 71
     5
 72
     1
  1
\A1;950
 73
     1
 44
1.0
1001
ACAD
1000
MTEXTBEGIN
1070
    73
1070
     1
1070
    44
1040
1.0
1070
    74
1070
     0
1000
MTEXTEND
  0
POINT
  5
85D3
330
85CA
100
AcDbEntity
  8
DEFPOINTS
 62
     0
100
AcDbPoint
 10
4476.831659683933
 20
7755.623467839007
 30
0.0
  0
POINT
  5
85D4
330
85CA
100
AcDbEntity
  8
DEFPOINTS
 62
     0
100
AcDbPoint
 10
3526.831659683934
 20
8875.623467839009
 30
0.0
  0
POINT
  5
85D5
330
85CA
100
AcDbEntity
  8
DEFPOINTS
 62
     0
100
AcDbPoint
 10
3526.831659683934
 20
9080.259606344192
 30
0.0
  0
ENDBLK
  5
85CC
330
85CA
100
AcDbEntity
  8
0
100
AcDbBlockEnd
  0
BLOCK
  5
85D8
330
85D7
100
AcDbEntity
  8
0
100
AcDbBlockBegin
  2
*D35
 70
     1
 10
0.0
 20
0.0
 30
0.0
  3
*D35
  1

  0
LINE
  5
85DA
330
85D7
100
AcDbEntity
  8
3
 62
     0
370
    -2
100
AcDbLine
 10
3526.831659683934
 20
8895.623467839008
 30
0.0
 11
3526.831659683934
 21
9120.259606344193
 31
0.0
  0
LINE
  5
85DB
330
85D7
100
AcDbEntity
  8
3
 62
     0
370
    -2
100
AcDbLine
 10
2026.831659683934
 20
8895.623467839007
 30
0.0
 11
2026.831659683934
 21
9120.259606344193
 31
0.0
  0
LINE
  5
85DC
330
85D7
100
AcDbEntity
  8
3
 62
     0
370
    -2
100
AcDbLine
 10
3446.831659683934
 20
9080.259606344192
 30
0.0
 11
2106.831659683934
 21
9080.259606344192
 31
0.0
  0
INSERT
  5
85DD
330
85D7
100
AcDbEntity
  8
3
 62
     0
370
    -2
100
AcDbBlockReference
  2
_OPEN
 10
3526.831659683934
 20
9080.259606344192
 30
0.0
 41
80.0
 42
80.0
 43
80.0
  0
INSERT
  5
85DE
330
85D7
100
AcDbEntity
  8
3
 62
     0
370
    -2
100
AcDbBlockReference
  2
_OPEN
 10
2026.831659683934
 20
9080.259606344192
 30
0.0
 41
80.0
 42
80.0
 43
80.0
 50
180.0
  0
MTEXT
  5
85DF
330
85D7
100
AcDbEntity
  8
3
 62
     0
100
AcDbMText
 10
2776.831659683934
 20
9180.259606344192
 30
0.0
 40
120.0
 41
0.0
 71
     5
 72
     1
  1
\A1;1500
 73
     1
 44
1.0
1001
ACAD
1000
MTEXTBEGIN
1070
    73
1070
     1
1070
    44
1040
1.0
1070
    74
1070
     0
1000
MTEXTEND
  0
POINT
  5
85E0
330
85D7
100
AcDbEntity
  8
DEFPOINTS
 62
     0
100
AcDbPoint
 10
3526.831659683934
 20
8875.623467839009
 30
0.0
  0
POINT
  5
85E1
330
85D7
100
AcDbEntity
  8
DEFPOINTS
 62
     0
100
AcDbPoint
 10
2026.831659683934
 20
8875.623467839007
 30
0.0
  0
POINT
  5
85E2
330
85D7
100
AcDbEntity
  8
DEFPOINTS
 62
     0
100
AcDbPoint
 10
2026.831659683934
 20
9080.259606344192
 30
0.0
  0
ENDBLK
  5
85D9
330
85D7
100
AcDbEntity
  8
0
100
AcDbBlockEnd
  0
BLOCK
  5
85E5
330
85E4
100
AcDbEntity
  8
0
100
AcDbBlockBegin
  2
*D36
 70
     1
 10
0.0
 20
0.0
 30
0.0
  3
*D36
  1

  0
LINE
  5
85E7
330
85E4
100
AcDbEntity
  8
3
 62
     0
370
    -2
100
AcDbLine
 10
2006.831659683934
 20
8875.623467839007
 30
0.0
 11
1537.8155184481
 21
8875.623467839007
 31
0.0
  0
LINE
  5
85E8
330
85E4
100
AcDbEntity
  8
3
 62
     0
370
    -2
100
AcDbLine
 10
2006.831659683934
 20
6755.623467839007
 30
0.0
 11
1537.8155184481
 21
6755.623467839007
 31
0.0
  0
LINE
  5
85E9
330
85E4
100
AcDbEntity
  8
3
 62
     0
370
    -2
100
AcDbLine
 10
1577.8155184481
 20
8795.623467839005
 30
0.0
 11
1577.8155184481
 21
6835.623467839008
 31
0.0
  0
INSERT
  5
85EA
330
85E4
100
AcDbEntity
  8
3
 62
     0
370
    -2
100
AcDbBlockReference
  2
_OPEN
 10
1577.8155184481
 20
8875.623467839007
 30
0.0
 41
80.0
 42
80.0
 43
80.0
 50
90.0
  0
INSERT
  5
85EB
330
85E4
100
AcDbEntity
  8
3
 62
     0
370
    -2
100
AcDbBlockReference
  2
_OPEN
 10
1577.8155184481
 20
6755.623467839007
 30
0.0
 41
80.0
 42
80.0
 43
80.0
 50
270.0
  0
MTEXT
  5
85EC
330
85E4
100
AcDbEntity
  8
3
 62
     0
100
AcDbMText
 10
1477.815518448099
 20
7815.623467839007
 30
0.0
 40
120.0
 41
0.0
 71
     5
 72
     1
  1
\A1;2120
 11
0.0000000000000001
 21
1.0
 31
0.0
 73
     1
 44
1.0
1001
ACAD
1000
MTEXTBEGIN
1070
    73
1070
     1
1070
    44
1040
1.0
1070
    74
1070
     0
1000
MTEXTEND
  0
POINT
  5
85ED
330
85E4
100
AcDbEntity
  8
DEFPOINTS
 62
     0
100
AcDbPoint
 10
2026.831659683934
 20
8875.623467839007
 30
0.0
  0
POINT
  5
85EE
330
85E4
100
AcDbEntity
  8
DEFPOINTS
 62
     0
100
AcDbPoint
 10
2026.831659683934
 20
6755.623467839007
 30
0.0
  0
POINT
  5
85EF
330
85E4
100
AcDbEntity
  8
DEFPOINTS
 62
     0
100
AcDbPoint
 10
1577.8155184481
 20
6755.623467839007
 30
0.0
  0
ENDBLK
  5
85E6
330
85E4
100
AcDbEntity
  8
0
100
AcDbBlockEnd
  0
BLOCK
  5
85FB
330
85FA
100
AcDbEntity
  8
0
100
AcDbBlockBegin
  2
*D37
 70
     1
 10
0.0
 20
0.0
 30
0.0
  3
*D37
  1

  0
LINE
  5
85FD
330
85FA
100
AcDbEntity
  8
3
 62
     0
370
    -2
100
AcDbLine
 10
1931.831659683934
 20
3035.935954207627
 30
0.0
 11
1658.820626993976
 21
3035.935954207627
 31
0.0
  0
LINE
  5
85FE
330
85FA
100
AcDbEntity
  8
3
 62
     0
370
    -2
100
AcDbLine
 10
1931.831659683934
 20
4315.935954207627
 30
0.0
 11
1658.820626993976
 21
4315.935954207627
 31
0.0
  0
LINE
  5
85FF
330
85FA
100
AcDbEntity
  8
3
 62
     0
370
    -2
100
AcDbLine
 10
1698.820626993976
 20
3115.935954207627
 30
0.0
 11
1698.820626993976
 21
4235.935954207627
 31
0.0
  0
INSERT
  5
8600
330
85FA
100
AcDbEntity
  8
3
 62
     0
370
    -2
100
AcDbBlockReference
  2
_OPEN
 10
1698.820626993976
 20
3035.935954207627
 30
0.0
 41
80.0
 42
80.0
 43
80.0
 50
270.0
  0
INSERT
  5
8601
330
85FA
100
AcDbEntity
  8
3
 62
     0
370
    -2
100
AcDbBlockReference
  2
_OPEN
 10
1698.820626993976
 20
4315.935954207627
 30
0.0
 41
80.0
 42
80.0
 43
80.0
 50
90.0
  0
MTEXT
  5
8602
330
85FA
100
AcDbEntity
  8
3
 62
     0
100
AcDbMText
 10
1598.820626993975
 20
3675.935954207627
 30
0.0
 40
120.0
 41
0.0
 71
     5
 72
     1
  1
\A1;1280
 11
0.0000000000000001
 21
1.0
 31
0.0
 73
     1
 44
1.0
1001
ACAD
1000
MTEXTBEGIN
1070
    73
1070
     1
1070
    44
1040
1.0
1070
    74
1070
     0
1000
MTEXTEND
  0
POINT
  5
8603
330
85FA
100
AcDbEntity
  8
DEFPOINTS
 62
     0
100
AcDbPoint
 10
1951.831659683934
 20
3035.935954207627
 30
0.0
  0
POINT
  5
8604
330
85FA
100
AcDbEntity
  8
DEFPOINTS
 62
     0
100
AcDbPoint
 10
1951.831659683934
 20
4315.935954207627
 30
0.0
  0
POINT
  5
8605
330
85FA
100
AcDbEntity
  8
DEFPOINTS
 62
     0
100
AcDbPoint
 10
1698.820626993976
 20
4315.935954207627
 30
0.0
  0
ENDBLK
  5
85FC
330
85FA
100
AcDbEntity
  8
0
100
AcDbBlockEnd
  0
BLOCK
  5
8608
330
8607
100
AcDbEntity
  8
0
100
AcDbBlockBegin
  2
*D38
 70
     1
 10
0.0
 20
0.0
 30
0.0
  3
*D38
  1

  0
LINE
  5
860A
330
8607
100
AcDbEntity
  8
3
 62
     0
370
    -2
100
AcDbLine
 10
1931.831659683934
 20
3035.935954207627
 30
0.0
 11
1411.757784537447
 21
3035.935954207627
 31
0.0
  0
LINE
  5
860B
330
8607
100
AcDbEntity
  8
3
 62
     0
370
    -2
100
AcDbLine
 10
1919.310814992313
 20
4369.935954207627
 30
0.0
 11
1411.757784537447
 21
4369.935954207627
 31
0.0
  0
LINE
  5
860C
330
8607
100
AcDbEntity
  8
3
 62
     0
370
    -2
100
AcDbLine
 10
1451.757784537447
 20
3115.935954207627
 30
0.0
 11
1451.757784537447
 21
4289.935954207627
 31
0.0
  0
INSERT
  5
860D
330
8607
100
AcDbEntity
  8
3
 62
     0
370
    -2
100
AcDbBlockReference
  2
_OPEN
 10
1451.757784537447
 20
3035.935954207627
 30
0.0
 41
80.0
 42
80.0
 43
80.0
 50
270.0
  0
INSERT
  5
860E
330
8607
100
AcDbEntity
  8
3
 62
     0
370
    -2
100
AcDbBlockReference
  2
_OPEN
 10
1451.757784537447
 20
4369.935954207627
 30
0.0
 41
80.0
 42
80.0
 43
80.0
 50
90.0
  0
MTEXT
  5
860F
330
8607
100
AcDbEntity
  8
3
 62
     0
100
AcDbMText
 10
1351.757784537446
 20
3702.935954207627
 30
0.0
 40
120.0
 41
0.0
 71
     5
 72
     1
  1
\A1;1334
 11
0.0000000000000001
 21
1.0
 31
0.0
 73
     1
 44
1.0
1001
ACAD
1000
MTEXTBEGIN
1070
    73
1070
     1
1070
    44
1040
1.0
1070
    74
1070
     0
1000
MTEXTEND
  0
POINT
  5
8610
330
8607
100
AcDbEntity
  8
DEFPOINTS
 62
     0
100
AcDbPoint
 10
1951.831659683934
 20
3035.935954207627
 30
0.0
  0
POINT
  5
8611
330
8607
100
AcDbEntity
  8
DEFPOINTS
 62
     0
100
AcDbPoint
 10
1939.310814992313
 20
4369.935954207627
 30
0.0
  0
POINT
  5
8612
330
8607
100
AcDbEntity
  8
DEFPOINTS
 62
     0
100
AcDbPoint
 10
1451.757784537447
 20
4369.935954207627
 30
0.0
  0
ENDBLK
  5
8609
330
8607
100
AcDbEntity
  8
0
100
AcDbBlockEnd
  0
BLOCK
  5
8615
330
8614
100
AcDbEntity
  8
0
100
AcDbBlockBegin
  2
*D39
 70
     1
 10
0.0
 20
0.0
 30
0.0
  3
*D39
  1

  0
LINE
  5
8617
330
8614
100
AcDbEntity
  8
3
 62
     0
370
    -2
100
AcDbLine
 10
2006.831659683934
 20
2939.935954207627
 30
0.0
 11
1163.170627867307
 21
2939.935954207627
 31
0.0
  0
LINE
  5
8618
330
8614
100
AcDbEntity
  8
3
 62
     0
370
    -2
100
AcDbLine
 10
1919.310814992313
 20
4369.935954207627
 30
0.0
 11
1163.170627867308
 21
4369.935954207627
 31
0.0
  0
LINE
  5
8619
330
8614
100
AcDbEntity
  8
3
 62
     0
370
    -2
100
AcDbLine
 10
1203.170627867307
 20
3019.935954207627
 30
0.0
 11
1203.170627867308
 21
4289.935954207627
 31
0.0
  0
INSERT
  5
861A
330
8614
100
AcDbEntity
  8
3
 62
     0
370
    -2
100
AcDbBlockReference
  2
_OPEN
 10
1203.170627867307
 20
2939.935954207627
 30
0.0
 41
80.0
 42
80.0
 43
80.0
 50
270.0
  0
INSERT
  5
861B
330
8614
100
AcDbEntity
  8
3
 62
     0
370
    -2
100
AcDbBlockReference
  2
_OPEN
 10
1203.170627867308
 20
4369.935954207627
 30
0.0
 41
80.0
 42
80.0
 43
80.0
 50
90.0
  0
MTEXT
  5
861C
330
8614
100
AcDbEntity
  8
3
 62
     0
100
AcDbMText
 10
1103.170627867307
 20
3654.935954207628
 30
0.0
 40
120.0
 41
0.0
 71
     5
 72
     1
  1
\A1;1430
 11
0.0000000000000001
 21
1.0
 31
0.0
 73
     1
 44
1.0
1001
ACAD
1000
MTEXTBEGIN
1070
    73
1070
     1
1070
    44
1040
1.0
1070
    74
1070
     0
1000
MTEXTEND
  0
POINT
  5
861D
330
8614
100
AcDbEntity
  8
DEFPOINTS
 62
     0
100
AcDbPoint
 10
2026.831659683934
 20
2939.935954207627
 30
0.0
  0
POINT
  5
861E
330
8614
100
AcDbEntity
  8
DEFPOINTS
 62
     0
100
AcDbPoint
 10
1939.310814992313
 20
4369.935954207627
 30
0.0
  0
POINT
  5
861F
330
8614
100
AcDbEntity
  8
DEFPOINTS
 62
     0
100
AcDbPoint
 10
1203.170627867308
 20
4369.935954207627
 30
0.0
  0
ENDBLK
  5
8616
330
8614
100
AcDbEntity
  8
0
100
AcDbBlockEnd
  0
BLOCK
  5
8622
330
8621
100
AcDbEntity
  8
0
100
AcDbBlockBegin
  2
*D40
 70
     1
 10
0.0
 20
0.0
 30
0.0
  3
*D40
  1

  0
LINE
  5
8624
330
8621
100
AcDbEntity
  8
3
 62
     0
370
    -2
100
AcDbLine
 10
1919.310814992313
 20
4369.935954207627
 30
0.0
 11
1163.170627867308
 21
4369.935954207627
 31
0.0
  0
LINE
  5
8625
330
8621
100
AcDbEntity
  8
3
 62
     0
370
    -2
100
AcDbLine
 10
2847.831659683933
 20
5266.935954207628
 30
0.0
 11
1163.170627867308
 21
5266.935954207629
 31
0.0
  0
LINE
  5
8626
330
8621
100
AcDbEntity
  8
3
 62
     0
370
    -2
100
AcDbLine
 10
1203.170627867308
 20
4449.935954207627
 30
0.0
 11
1203.170627867308
 21
5186.935954207629
 31
0.0
  0
INSERT
  5
8627
330
8621
100
AcDbEntity
  8
3
 62
     0
370
    -2
100
AcDbBlockReference
  2
_OPEN
 10
1203.170627867308
 20
4369.935954207627
 30
0.0
 41
80.0
 42
80.0
 43
80.0
 50
270.0
  0
INSERT
  5
8628
330
8621
100
AcDbEntity
  8
3
 62
     0
370
    -2
100
AcDbBlockReference
  2
_OPEN
 10
1203.170627867308
 20
5266.935954207629
 30
0.0
 41
80.0
 42
80.0
 43
80.0
 50
90.0
  0
MTEXT
  5
8629
330
8621
100
AcDbEntity
  8
3
 62
     0
100
AcDbMText
 10
1103.170627867307
 20
4818.435954207628
 30
0.0
 40
120.0
 41
0.0
 71
     5
 72
     1
  1
\A1;897
 11
0.0000000000000001
 21
1.0
 31
0.0
 73
     1
 44
1.0
1001
ACAD
1000
MTEXTBEGIN
1070
    73
1070
     1
1070
    44
1040
1.0
1070
    74
1070
     0
1000
MTEXTEND
  0
POINT
  5
862A
330
8621
100
AcDbEntity
  8
DEFPOINTS
 62
     0
100
AcDbPoint
 10
1939.310814992313
 20
4369.935954207627
 30
0.0
  0
POINT
  5
862B
330
8621
100
AcDbEntity
  8
DEFPOINTS
 62
     0
100
AcDbPoint
 10
2867.831659683934
 20
5266.935954207628
 30
0.0
  0
POINT
  5
862C
330
8621
100
AcDbEntity
  8
DEFPOINTS
 62
     0
100
AcDbPoint
 10
1203.170627867308
 20
5266.935954207629
 30
0.0
  0
ENDBLK
  5
8623
330
8621
100
AcDbEntity
  8
0
100
AcDbBlockEnd
  0
BLOCK
  5
862F
330
862E
100
AcDbEntity
  8
0
100
AcDbBlockBegin
  2
*D41
 70
     1
 10
0.0
 20
0.0
 30
0.0
  3
*D41
  1

  0
LINE
  5
8631
330
862E
100
AcDbEntity
  8
3
 62
     0
370
    -2
100
AcDbLine
 10
1951.831659683934
 20
4388.935954207628
 30
0.0
 11
1951.831659683934
 21
5574.448112292856
 31
0.0
  0
LINE
  5
8632
330
862E
100
AcDbEntity
  8
3
 62
     0
370
    -2
100
AcDbLine
 10
2776.831659683934
 20
5438.534369238305
 30
0.0
 11
2776.831659683934
 21
5574.448112292856
 31
0.0
  0
LINE
  5
8633
330
862E
100
AcDbEntity
  8
3
 62
     0
370
    -2
100
AcDbLine
 10
2031.831659683934
 20
5534.448112292857
 30
0.0
 11
2696.831659683934
 21
5534.448112292857
 31
0.0
  0
INSERT
  5
8634
330
862E
100
AcDbEntity
  8
3
 62
     0
370
    -2
100
AcDbBlockReference
  2
_OPEN
 10
1951.831659683934
 20
5534.448112292857
 30
0.0
 41
80.0
 42
80.0
 43
80.0
 50
180.0
  0
INSERT
  5
8635
330
862E
100
AcDbEntity
  8
3
 62
     0
370
    -2
100
AcDbBlockReference
  2
_OPEN
 10
2776.831659683934
 20
5534.448112292857
 30
0.0
 41
80.0
 42
80.0
 43
80.0
  0
MTEXT
  5
8636
330
862E
100
AcDbEntity
  8
3
 62
     0
100
AcDbMText
 10
2364.331659683934
 20
5634.448112292856
 30
0.0
 40
120.0
 41
0.0
 71
     5
 72
     1
  1
\A1;825
 73
     1
 44
1.0
1001
ACAD
1000
MTEXTBEGIN
1070
    73
1070
     1
1070
    44
1040
1.0
1070
    74
1070
     0
1000
MTEXTEND
  0
POINT
  5
8637
330
862E
100
AcDbEntity
  8
DEFPOINTS
 62
     0
100
AcDbPoint
 10
1951.831659683934
 20
4368.935954207628
 30
0.0
  0
POINT
  5
8638
330
862E
100
AcDbEntity
  8
DEFPOINTS
 62
     0
100
AcDbPoint
 10
2776.831659683934
 20
5418.534369238305
 30
0.0
  0
POINT
  5
8639
330
862E
100
AcDbEntity
  8
DEFPOINTS
 62
     0
100
AcDbPoint
 10
2776.831659683934
 20
5534.448112292857
 30
0.0
  0
ENDBLK
  5
8630
330
862E
100
AcDbEntity
  8
0
100
AcDbBlockEnd
  0
BLOCK
  5
863C
330
863B
100
AcDbEntity
  8
0
100
AcDbBlockBegin
  2
*D42
 70
     1
 10
0.0
 20
0.0
 30
0.0
  3
*D42
  1

  0
LINE
  5
863E
330
863B
100
AcDbEntity
  8
3
 62
     0
370
    -2
100
AcDbLine
 10
2776.831659683934
 20
5438.534369238305
 30
0.0
 11
2776.831659683934
 21
5574.448112292856
 31
0.0
  0
LINE
  5
863F
330
863B
100
AcDbEntity
  8
3
 62
     0
370
    -2
100
AcDbLine
 10
3855.831659683934
 20
4298.935954207627
 30
0.0
 11
3855.831659683934
 21
5574.448112292856
 31
0.0
  0
LINE
  5
8640
330
863B
100
AcDbEntity
  8
3
 62
     0
370
    -2
100
AcDbLine
 10
2856.831659683934
 20
5534.448112292857
 30
0.0
 11
3775.831659683934
 21
5534.448112292857
 31
0.0
  0
INSERT
  5
8641
330
863B
100
AcDbEntity
  8
3
 62
     0
370
    -2
100
AcDbBlockReference
  2
_OPEN
 10
2776.831659683934
 20
5534.448112292857
 30
0.0
 41
80.0
 42
80.0
 43
80.0
 50
180.0
  0
INSERT
  5
8642
330
863B
100
AcDbEntity
  8
3
 62
     0
370
    -2
100
AcDbBlockReference
  2
_OPEN
 10
3855.831659683934
 20
5534.448112292857
 30
0.0
 41
80.0
 42
80.0
 43
80.0
  0
MTEXT
  5
8643
330
863B
100
AcDbEntity
  8
3
 62
     0
100
AcDbMText
 10
3316.331659683934
 20
5634.448112292856
 30
0.0
 40
120.0
 41
0.0
 71
     5
 72
     1
  1
\A1;1079
 73
     1
 44
1.0
1001
ACAD
1000
MTEXTBEGIN
1070
    73
1070
     1
1070
    44
1040
1.0
1070
    74
1070
     0
1000
MTEXTEND
  0
POINT
  5
8644
330
863B
100
AcDbEntity
  8
DEFPOINTS
 62
     0
100
AcDbPoint
 10
2776.831659683934
 20
5418.534369238305
 30
0.0
  0
POINT
  5
8645
330
863B
100
AcDbEntity
  8
DEFPOINTS
 62
     0
100
AcDbPoint
 10
3855.831659683934
 20
4278.935954207628
 30
0.0
  0
POINT
  5
8646
330
863B
100
AcDbEntity
  8
DEFPOINTS
 62
     0
100
AcDbPoint
 10
3855.831659683934
 20
5534.448112292857
 30
0.0
  0
ENDBLK
  5
863D
330
863B
100
AcDbEntity
  8
0
100
AcDbBlockEnd
  0
BLOCK
  5
8649
330
8648
100
AcDbEntity
  8
0
100
AcDbBlockBegin
  2
*D43
 70
     1
 10
0.0
 20
0.0
 30
0.0
  3
*D43
  1

  0
LINE
  5
864B
330
8648
100
AcDbEntity
  8
3
 62
     0
370
    -2
100
AcDbLine
 10
1951.831659683934
 20
4388.935954207628
 30
0.0
 11
1951.831659683934
 21
5855.282770043522
 31
0.0
  0
LINE
  5
864C
330
8648
100
AcDbEntity
  8
3
 62
     0
370
    -2
100
AcDbLine
 10
4476.831659683933
 20
3084.935954207627
 30
0.0
 11
4476.831659683933
 21
5855.282770043522
 31
0.0
  0
LINE
  5
864D
330
8648
100
AcDbEntity
  8
3
 62
     0
370
    -2
100
AcDbLine
 10
2031.831659683934
 20
5815.282770043522
 30
0.0
 11
4396.831659683932
 21
5815.282770043522
 31
0.0
  0
INSERT
  5
864E
330
8648
100
AcDbEntity
  8
3
 62
     0
370
    -2
100
AcDbBlockReference
  2
_OPEN
 10
1951.831659683934
 20
5815.282770043522
 30
0.0
 41
80.0
 42
80.0
 43
80.0
 50
180.0
  0
INSERT
  5
864F
330
8648
100
AcDbEntity
  8
3
 62
     0
370
    -2
100
AcDbBlockReference
  2
_OPEN
 10
4476.831659683933
 20
5815.282770043522
 30
0.0
 41
80.0
 42
80.0
 43
80.0
  0
MTEXT
  5
8650
330
8648
100
AcDbEntity
  8
3
 62
     0
100
AcDbMText
 10
3214.331659683934
 20
5915.282770043521
 30
0.0
 40
120.0
 41
0.0
 71
     5
 72
     1
  1
\A1;2525
 73
     1
 44
1.0
1001
ACAD
1000
MTEXTBEGIN
1070
    73
1070
     1
1070
    44
1040
1.0
1070
    74
1070
     0
1000
MTEXTEND
  0
POINT
  5
8651
330
8648
100
AcDbEntity
  8
DEFPOINTS
 62
     0
100
AcDbPoint
 10
1951.831659683934
 20
4368.935954207628
 30
0.0
  0
POINT
  5
8652
330
8648
100
AcDbEntity
  8
DEFPOINTS
 62
     0
100
AcDbPoint
 10
4476.831659683933
 20
3064.935954207627
 30
0.0
  0
POINT
  5
8653
330
8648
100
AcDbEntity
  8
DEFPOINTS
 62
     0
100
AcDbPoint
 10
4476.831659683933
 20
5815.282770043522
 30
0.0
  0
ENDBLK
  5
864A
330
8648
100
AcDbEntity
  8
0
100
AcDbBlockEnd
  0
ENDSEC
  0
SECTION
  2
ENTITIES
  0
INSERT
  5
7C0C
330
8471
100
AcDbEntity
  8
1
100
AcDbBlockReference
  2
YA_N
 10
6.0
 20
5.0
 30
0.0
  0
LINE
  5
7C0D
330
8471
100
AcDbEntity
  8
2
100
AcDbLine
 10
2776.831659683934
 20
5418.534369238305
 30
0.0
 11
2776.831659683933
 21
2939.935954207626
 31
0.0
  0
LINE
  5
7C0E
330
8471
100
AcDbEntity
  8
1
100
AcDbLine
 10
5179.407928765326
 20
2939.935954207627
 30
0.0
 11
7299.407928765326
 21
2939.935954207627
 31
0.0
1001
ACAD
1000
ASC_BOUNDS
1002
{
1070
    19
1005
0
1005
0
1002
}
  0
LINE
  5
7C0F
330
8471
100
AcDbEntity
  8
1
100
AcDbLine
 10
5179.407928765326
 20
3064.935954207627
 30
0.0
 11
7299.407928765325
 21
3064.935954207627
 31
0.0
  0
LINE
  5
7C10
330
8471
100
AcDbEntity
  8
1
100
AcDbLine
 10
7231.407928765325
 20
3064.935954207627
 30
0.0
 11
7231.407928765325
 21
4315.935954207627
 31
0.0
  0
LINE
  5
7C12
330
8471
100
AcDbEntity
  8
1
100
AcDbLine
 10
5478.407928765324
 20
3064.935954207627
 30
0.0
 11
5478.407928765324
 21
3124.935954207629
 31
0.0
  0
LINE
  5
7C13
330
8471
100
AcDbEntity
  8
2
100
AcDbLine
 10
3984.37259322367
 20
4369.935954207627
 30
0.0
 11
1939.310814992313
 21
4369.935954207627
 31
0.0
  0
LINE
  5
7C14
330
8471
100
AcDbEntity
  8
2
100
AcDbLine
 10
5166.107928765327
 20
4369.935954207627
 30
0.0
 11
7414.918415004563
 21
4369.935954207627
 31
0.0
  0
LINE
  5
7C15
330
8471
100
AcDbEntity
  8
2
100
AcDbLine
 10
5109.90520216895
 20
3324.935954207627
 30
0.0
 11
6077.581026044529
 21
3324.935954207627
 31
0.0
  0
LINE
  5
7C16
330
8471
100
AcDbEntity
  8
1
100
AcDbLine
 10
5186.407928765326
 20
3430.935954207626
 30
0.0
 11
5264.307928765326
 21
3430.935954207626
 31
0.0
  0
LINE
  5
7C17
330
8471
100
AcDbEntity
  8
1
100
AcDbLine
 10
5186.407928765326
 20
3218.935954207627
 30
0.0
 11
5264.307928765326
 21
3218.935954207627
 31
0.0
  0
LINE
  5
7C18
330
8471
100
AcDbEntity
  8
1
100
AcDbLine
 10
5284.407928765325
 20
4439.935954207627
 30
0.0
 11
5284.407928765325
 21
4299.935954207627
 31
0.0
  0
LINE
  5
7C19
330
8471
100
AcDbEntity
  8
1
100
AcDbLine
 10
5264.307928765326
 20
4623.935954207627
 30
0.0
 11
5264.307928765326
 21
4439.935954207627
 31
0.0
  0
LINE
  5
7C1A
330
8471
100
AcDbEntity
  8
1
100
AcDbLine
 10
5264.307928765326
 20
4439.935954207627
 30
0.0
 11
5284.407928765325
 21
4439.935954207627
 31
0.0
  0
LINE
  5
7C1B
330
8471
100
AcDbEntity
  8
1
100
AcDbLine
 10
5264.307928765326
 20
4299.935954207627
 30
0.0
 11
5284.407928765325
 21
4299.935954207627
 31
0.0
  0
LINE
  5
7C1C
330
8471
100
AcDbEntity
  8
1
100
AcDbLine
 10
5264.307928765326
 20
4299.935954207627
 30
0.0
 11
5264.307928765326
 21
3384.935954207627
 31
0.0
  0
LINE
  5
7C1D
330
8471
100
AcDbEntity
  8
1
100
AcDbLine
 10
5186.407928765326
 20
4623.935954207627
 30
0.0
 11
5186.407928765326
 21
3218.935954207627
 31
0.0
  0
LINE
  5
7C1E
330
8471
100
AcDbEntity
  8
1
100
AcDbLine
 10
5279.407928765326
 20
3384.935954207627
 30
0.0
 11
5279.407928765326
 21
3264.935954207627
 31
0.0
  0
LINE
  5
7C1F
330
8471
100
AcDbEntity
  8
1
100
AcDbLine
 10
5264.307928765326
 20
3384.935954207627
 30
0.0
 11
5279.407928765326
 21
3384.935954207627
 31
0.0
  0
LINE
  5
7C20
330
8471
100
AcDbEntity
  8
1
100
AcDbLine
 10
5264.307928765326
 20
3264.935954207627
 30
0.0
 11
5279.407928765326
 21
3264.935954207627
 31
0.0
  0
LINE
  5
7C21
330
8471
100
AcDbEntity
  8
1
100
AcDbLine
 10
5264.307928765326
 20
3264.935954207627
 30
0.0
 11
5264.307928765326
 21
3218.935954207627
 31
0.0
  0
LINE
  5
7C22
330
8471
100
AcDbEntity
  8
1
100
AcDbLine
 10
5101.407928765327
 20
3104.935954207627
 30
0.0
 11
5346.407928765327
 21
3104.935954207627
 31
0.0
  0
LINE
  5
7C23
330
8471
100
AcDbEntity
  8
1
100
AcDbLine
 10
5101.407928765327
 20
4749.935954207627
 30
0.0
 11
5101.407928765327
 21
3104.935954207627
 31
0.0
  0
LINE
  5
7C24
330
8471
100
AcDbEntity
  8
1
100
AcDbLine
 10
5346.407928765326
 20
4749.935954207627
 30
0.0
 11
5346.407928765327
 21
4729.935954207627
 31
0.0
  0
LINE
  5
7C25
330
8471
100
AcDbEntity
  8
2
100
AcDbLine
 10
2776.831659683934
 20
8975.307810564771
 30
0.0
 11
2776.831659683934
 21
6640.130133296469
 31
0.0
  0
LINE
  5
7C26
330
8471
100
AcDbEntity
  8
2
100
AcDbLine
 10
4196.831659683934
 20
7630.440686962332
 30
0.0
 11
4196.831659683934
 21
6627.011154728186
 31
0.0
  0
LINE
  5
7C27
330
8471
100
AcDbEntity
  8
2
100
AcDbLine
 10
6381.407928765326
 20
5474.212796594279
 30
0.0
 11
6381.407928765328
 21
2939.935954207627
 31
0.0
  0
INSERT
  5
7C28
330
8471
100
AcDbEntity
  8
1
100
AcDbBlockReference
  2
YA_N
 10
-1757.227407310314
 20
-1218.78641745778
 30
0.0
 41
30.0
 42
30.0
 43
30.0
  0
INSERT
  5
7C29
330
8471
100
AcDbEntity
  8
1
100
AcDbBlockReference
  2
YA_N
 10
-755.2436758818473
 20
-538.554984833856
 30
0.0
 41
30.0
 42
30.0
 43
30.0
  0
LINE
  5
7C2D
330
8471
100
AcDbEntity
  8
1
100
AcDbLine
 10
7231.407928765325
 20
4315.935954207627
 30
0.0
 11
7231.407928765325
 21
5266.935954207627
 31
0.0
  0
LINE
  5
7C2E
330
8471
100
AcDbEntity
  8
1
100
AcDbLine
 10
5531.407928765325
 20
4315.935954207627
 30
0.0
 11
5531.407928765328
 21
5266.935954207627
 31
0.0
  0
LINE
  5
7C2F
330
8471
100
AcDbEntity
  8
1
100
AcDbLine
 10
2026.831659683934
 20
8875.623467839007
 30
0.0
 11
3526.831659683934
 21
8875.623467839009
 31
0.0
  0
LINE
  5
7C30
330
8471
100
AcDbEntity
  8
1
100
AcDbLine
 10
2026.831659683934
 20
6755.623467839007
 30
0.0
 11
4476.831659683933
 21
6755.623467839007
 31
0.0
  0
LINE
  5
7C31
330
8471
100
AcDbEntity
  8
1
100
AcDbLine
 10
2026.831659683934
 20
8875.623467839007
 30
0.0
 11
2026.831659683934
 21
8807.623467839011
 31
0.0
  0
LINE
  5
7C32
330
8471
100
AcDbEntity
  8
1
100
AcDbLine
 10
4476.831659683933
 20
7755.623467839007
 30
0.0
 11
4476.831659683933
 21
6755.623467839007
 31
0.0
  0
LINE
  5
7C33
330
8471
100
AcDbEntity
  8
1
100
AcDbLine
 10
3526.831659683934
 20
8875.623467839007
 30
0.0
 11
3526.831659683934
 21
8807.623467839011
 31
0.0
  0
LINE
  5
7C34
330
8471
100
AcDbEntity
  8
1
100
AcDbLine
 10
3855.831659683934
 20
7755.623467839007
 30
0.0
 11
4476.831659683933
 21
7755.623467839007
 31
0.0
  0
LINE
  5
7C36
330
8471
100
AcDbEntity
  8
1
100
AcDbLine
 10
5373.907928765326
 20
4293.935954207627
 30
0.0
 11
5373.907928765326
 21
4163.935954207627
 31
0.0
  0
LINE
  5
7C37
330
8471
100
AcDbEntity
  8
1
100
AcDbLine
 10
5513.907928765326
 20
4303.935954207627
 30
0.0
 11
5513.907928765326
 21
4153.935954207628
 31
0.0
  0
LINE
  5
7C38
330
8471
100
AcDbEntity
  8
1
100
AcDbLine
 10
5383.907928765328
 20
4303.935954207627
 30
0.0
 11
5454.107928765328
 21
4303.935954207627
 31
0.0
  0
LINE
  5
7C39
330
8471
100
AcDbEntity
  8
1
100
AcDbLine
 10
5383.907928765328
 20
4153.935954207628
 30
0.0
 11
5454.107928765328
 21
4153.935954207628
 31
0.0
  0
ARC
  5
7C3A
330
8471
100
AcDbEntity
  8
1
100
AcDbCircle
 10
5383.907928765328
 20
4293.935954207627
 30
0.0
 40
10.0
100
AcDbArc
 50
90.0
 51
180.0
  0
ARC
  5
7C3B
330
8471
100
AcDbEntity
  8
1
100
AcDbCircle
 10
5383.907928765328
 20
4163.935954207627
 30
0.0
 40
10.0
100
AcDbArc
 50
180.0
 51
270.0
  0
LINE
  5
7C3C
330
8471
100
AcDbEntity
  8
1
100
AcDbLine
 10
5454.107928765328
 20
4153.935954207628
 30
0.0
 11
5513.907928765326
 21
4153.935954207628
 31
0.0
  0
LINE
  5
7C3D
330
8471
100
AcDbEntity
  8
1
100
AcDbLine
 10
5454.107928765328
 20
4303.935954207627
 30
0.0
 11
5513.907928765326
 21
4303.935954207627
 31
0.0
  0
LINE
  5
7C3E
330
8471
100
AcDbEntity
  8
1
100
AcDbLine
 10
7401.407928765324
 20
4293.935954207627
 30
0.0
 11
7401.407928765324
 21
4163.935954207627
 31
0.0
  0
LINE
  5
7C3F
330
8471
100
AcDbEntity
  8
1
100
AcDbLine
 10
7248.907928765325
 20
4303.935954207627
 30
0.0
 11
7248.907928765325
 21
4153.935954207628
 31
0.0
  0
LINE
  5
7C40
330
8471
100
AcDbEntity
  8
1
100
AcDbLine
 10
7391.407928765325
 20
4153.935954207628
 30
0.0
 11
7308.707928765326
 21
4153.935954207628
 31
0.0
  0
ARC
  5
7C41
330
8471
100
AcDbEntity
  8
1
100
AcDbCircle
 10
7391.407928765325
 20
4163.935954207627
 30
0.0
 40
10.0
100
AcDbArc
 50
270.0
 51
0.0
  0
LINE
  5
7C42
330
8471
100
AcDbEntity
  8
1
100
AcDbLine
 10
7308.707928765326
 20
4153.935954207628
 30
0.0
 11
7248.907928765325
 21
4153.935954207628
 31
0.0
  0
LINE
  5
7C43
330
8471
100
AcDbEntity
  8
1
100
AcDbLine
 10
7391.407928765325
 20
4303.935954207627
 30
0.0
 11
7308.707928765326
 21
4303.935954207627
 31
0.0
  0
ARC
  5
7C44
330
8471
100
AcDbEntity
  8
1
100
AcDbCircle
 10
7391.407928765325
 20
4293.935954207627
 30
0.0
 40
10.0
100
AcDbArc
 50
0.0
 51
90.0
  0
LINE
  5
7C45
330
8471
100
AcDbEntity
  8
1
100
AcDbLine
 10
7308.707928765326
 20
4303.935954207627
 30
0.0
 11
7248.907928765325
 21
4303.935954207627
 31
0.0
  0
LINE
  5
7C4A
330
8471
100
AcDbEntity
  8
1
100
AcDbLine
 10
5186.407928765326
 20
4623.935954207627
 30
0.0
 11
5264.307928765326
 21
4623.935954207627
 31
0.0
  0
LINE
  5
7C4B
330
8471
100
AcDbEntity
  8
1
100
AcDbLine
 10
5186.407928765326
 20
4115.935954207627
 30
0.0
 11
5264.307928765326
 21
4115.935954207627
 31
0.0
  0
LINE
  5
7C4C
330
8471
100
AcDbEntity
  8
1
100
AcDbLine
 10
5101.407928765326
 20
4749.935954207627
 30
0.0
 11
5346.407928765325
 21
4749.935954207627
 31
0.0
  0
LINE
  5
7C4D
330
8471
100
AcDbEntity
  8
1
100
AcDbLine
 10
5346.407928765327
 20
3124.935954207627
 30
0.0
 11
5346.407928765327
 21
3104.935954207627
 31
0.0
  0
INSERT
  5
7C4E
330
8471
100
AcDbEntity
  8
1
100
AcDbBlockReference
  2
YA_N
 10
4767.943419715615
 20
-1494.695868425496
 30
0.0
  0
LINE
  5
7C4F
330
8471
100
AcDbEntity
  8
1
100
AcDbLine
 10
7299.407928765325
 20
3064.935954207627
 30
0.0
 11
7299.407928765326
 21
2939.935954207627
 31
0.0
  0
LINE
  5
7C51
330
8471
100
AcDbEntity
  8
1
100
AcDbLine
 10
5179.407928765326
 20
3064.935954207627
 30
0.0
 11
5179.407928765326
 21
2939.935954207627
 31
0.0
  0
LINE
  5
7C55
330
8471
100
AcDbEntity
  8
1
100
AcDbLine
 10
5284.407928765325
 20
4407.435954207627
 30
0.0
 11
5531.407928765325
 21
4407.435954207627
 31
0.0
  0
LINE
  5
7C56
330
8471
100
AcDbEntity
  8
1
100
AcDbLine
 10
5284.407928765325
 20
4332.435954207627
 30
0.0
 11
5531.407928765325
 21
4332.435954207627
 31
0.0
  0
LINE
  5
7C57
330
8471
100
AcDbEntity
  8
1
100
AcDbLine
 10
5375.357928765327
 20
3124.935954207627
 30
0.0
 11
5375.357928765327
 21
3324.935954207628
 31
0.0
  0
LINE
  5
7C58
330
8471
100
AcDbEntity
  8
1
100
AcDbLine
 10
5375.357928765327
 20
3124.935954207628
 30
0.0
 11
6025.357928765328
 21
3124.93595420763
 31
0.0
  0
LINE
  5
7C59
330
8471
100
AcDbEntity
  8
1
100
AcDbLine
 10
6025.357928765328
 20
3534.935954207632
 30
0.0
 11
5375.357928765326
 21
3534.935954207627
 31
0.0
  0
LINE
  5
7C5A
330
8471
100
AcDbEntity
  8
1
100
AcDbLine
 10
5365.357928765327
 20
3294.935954207628
 30
0.0
 11
5279.407928765326
 21
3294.935954207628
 31
0.0
  0
LINE
  5
7C5B
330
8471
100
AcDbEntity
  8
1
100
AcDbLine
 10
5365.357928765327
 20
3354.935954207628
 30
0.0
 11
5279.407928765326
 21
3354.935954207627
 31
0.0
  0
LINE
  5
7C5C
330
8471
100
AcDbEntity
  8
1
100
AcDbLine
 10
5375.357928765327
 20
3534.935954207627
 30
0.0
 11
5375.357928765327
 21
3324.935954207628
 31
0.0
  0
LINE
  5
7C5D
330
8471
100
AcDbEntity
  8
1
100
AcDbLine
 10
5365.357928765327
 20
3292.435954207628
 30
0.0
 11
5365.357928765327
 21
3357.435954207628
 31
0.0
  0
LINE
  5
7C5E
330
8471
100
AcDbEntity
  8
1
100
AcDbLine
 10
5365.357928765327
 20
3292.435954207628
 30
0.0
 11
5375.357928765327
 21
3292.435954207628
 31
0.0
  0
LINE
  5
7C5F
330
8471
100
AcDbEntity
  8
1
100
AcDbLine
 10
5365.357928765327
 20
3357.435954207628
 30
0.0
 11
5375.357928765327
 21
3357.435954207628
 31
0.0
  0
LINE
  5
7C60
330
8471
100
AcDbEntity
  8
2
100
AcDbLine
 10
1801.004538962214
 20
7957.62346783901
 30
0.0
 11
3994.815363830051
 21
7957.623467839008
 31
0.0
  0
LINE
  5
7C61
330
8471
100
AcDbEntity
  8
1
100
AcDbLine
 10
2396.831659683934
 20
6677.623467839009
 30
0.0
 11
4416.831659683934
 21
6677.623467839009
 31
0.0
  0
LINE
  5
7C62
330
8471
100
AcDbEntity
  8
1
100
AcDbLine
 10
2522.831659683934
 20
6762.62346783901
 30
0.0
 11
3030.831659683934
 21
6762.62346783901
 31
0.0
  0
LINE
  5
7C63
330
8471
100
AcDbEntity
  8
1
100
AcDbLine
 10
2846.831659683934
 20
6840.52346783901
 30
0.0
 11
3030.831659683934
 21
6840.52346783901
 31
0.0
  0
LINE
  5
7C64
330
8471
100
AcDbEntity
  8
1
100
AcDbLine
 10
4226.831659683933
 20
6941.57346783901
 30
0.0
 11
4226.831659683933
 21
6855.623467839009
 31
0.0
  0
LINE
  5
7C65
330
8471
100
AcDbEntity
  8
1
100
AcDbLine
 10
4166.831659683934
 20
6941.57346783901
 30
0.0
 11
4166.831659683934
 21
6855.623467839009
 31
0.0
  0
LINE
  5
7C66
330
8471
100
AcDbEntity
  8
1
100
AcDbLine
 10
4416.831659683934
 20
6677.623467839009
 30
0.0
 11
4416.831659683934
 21
6922.623467839009
 31
0.0
  0
LINE
  5
7C67
330
8471
100
AcDbEntity
  8
1
100
AcDbLine
 10
3576.831659683934
 20
6755.62346783901
 30
0.0
 11
3701.831659683934
 21
6755.62346783901
 31
0.0
  0
LINE
  5
7C68
330
8471
100
AcDbEntity
  8
1
100
AcDbLine
 10
3720.831659683934
 20
6755.623467839007
 30
0.0
 11
3785.831659683934
 21
6755.62346783901
 31
0.0
  0
LINE
  5
7C69
330
8471
100
AcDbEntity
  8
1
100
AcDbLine
 10
4136.831659683934
 20
6855.623467839009
 30
0.0
 11
4256.831659683934
 21
6855.623467839009
 31
0.0
  0
LINE
  5
7C6A
330
8471
100
AcDbEntity
  8
1
100
AcDbLine
 10
4256.831659683934
 20
6840.52346783901
 30
0.0
 11
4302.831659683934
 21
6840.52346783901
 31
0.0
  0
LINE
  5
7C6B
330
8471
100
AcDbEntity
  8
1
100
AcDbLine
 10
4302.831659683934
 20
6762.62346783901
 30
0.0
 11
4302.831659683934
 21
6840.52346783901
 31
0.0
  0
LINE
  5
7C6C
330
8471
100
AcDbEntity
  8
1
100
AcDbLine
 10
4256.831659683934
 20
6840.52346783901
 30
0.0
 11
4256.831659683934
 21
6855.623467839009
 31
0.0
  0
LINE
  5
7C6D
330
8471
100
AcDbEntity
  8
1
100
AcDbLine
 10
4090.831659683933
 20
6762.62346783901
 30
0.0
 11
4090.831659683933
 21
6840.523467839009
 31
0.0
  0
LINE
  5
7C6E
330
8471
100
AcDbEntity
  8
1
100
AcDbLine
 10
4136.831659683934
 20
6840.52346783901
 30
0.0
 11
4136.831659683934
 21
6855.623467839009
 31
0.0
  0
LINE
  5
7C6F
330
8471
100
AcDbEntity
  8
1
100
AcDbLine
 10
3030.831659683934
 20
6762.62346783901
 30
0.0
 11
3030.831659683934
 21
6840.523467839009
 31
0.0
  0
LINE
  5
7C70
330
8471
100
AcDbEntity
  8
1
100
AcDbLine
 10
3986.831659683934
 20
6951.57346783901
 30
0.0
 11
4196.831659683934
 21
6951.57346783901
 31
0.0
  0
LINE
  5
7C71
330
8471
100
AcDbEntity
  8
1
100
AcDbLine
 10
4229.331659683934
 20
6941.57346783901
 30
0.0
 11
4164.331659683933
 21
6941.57346783901
 31
0.0
  0
LINE
  5
7C72
330
8471
100
AcDbEntity
  8
1
100
AcDbLine
 10
4396.831659683934
 20
6951.57346783901
 30
0.0
 11
4396.831659683925
 21
7601.073467839011
 31
0.0
  0
LINE
  5
7C73
330
8471
100
AcDbEntity
  8
1
100
AcDbLine
 10
4396.831659683934
 20
6951.57346783901
 30
0.0
 11
4196.831659683934
 21
6951.57346783901
 31
0.0
  0
LINE
  5
7C74
330
8471
100
AcDbEntity
  8
1
100
AcDbLine
 10
4229.331659683934
 20
6941.57346783901
 30
0.0
 11
4229.331659683934
 21
6951.57346783901
 31
0.0
  0
LINE
  5
7C75
330
8471
100
AcDbEntity
  8
1
100
AcDbLine
 10
4396.831659683932
 20
7127.07346783901
 30
0.0
 11
4395.831659683932
 21
7127.07346783901
 31
0.0
  0
LINE
  5
7C76
330
8471
100
AcDbEntity
  8
1
100
AcDbLine
 10
3986.831659683927
 20
7601.073467839009
 30
0.0
 11
3986.831659683934
 21
6951.573467839009
 31
0.0
  0
LINE
  5
7C77
330
8471
100
AcDbEntity
  8
1
100
AcDbLine
 10
4164.331659683933
 20
6941.57346783901
 30
0.0
 11
4164.331659683933
 21
6951.57346783901
 31
0.0
  0
LINE
  5
7C78
330
8471
100
AcDbEntity
  8
1
100
AcDbLine
 10
2814.331659683934
 20
6860.623467839011
 30
0.0
 11
2814.331659683934
 21
7107.623467839008
 31
0.0
  0
LINE
  5
7C79
330
8471
100
AcDbEntity
  8
1
100
AcDbLine
 10
2739.331659683934
 20
6860.623467839011
 30
0.0
 11
2739.331659683934
 21
7107.623467839009
 31
0.0
  0
LINE
  5
7C7A
330
8471
100
AcDbEntity
  8
1
100
AcDbLine
 10
2396.831659683934
 20
6677.623467839009
 30
0.0
 11
2396.831659683934
 21
6922.623467839009
 31
0.0
  0
LINE
  5
7C7B
330
8471
100
AcDbEntity
  8
1
100
AcDbLine
 10
2706.831659683934
 20
6860.623467839011
 30
0.0
 11
2846.831659683934
 21
6860.623467839011
 31
0.0
  0
LINE
  5
7C7C
330
8471
100
AcDbEntity
  8
1
100
AcDbLine
 10
2846.831659683934
 20
6840.523467839009
 30
0.0
 11
2846.831659683934
 21
6860.623467839011
 31
0.0
  0
LINE
  5
7C7D
330
8471
100
AcDbEntity
  8
1
100
AcDbLine
 10
2522.831659683934
 20
6840.52346783901
 30
0.0
 11
2706.831659683934
 21
6840.52346783901
 31
0.0
  0
LINE
  5
7C7E
330
8471
100
AcDbEntity
  8
1
100
AcDbLine
 10
2706.831659683934
 20
6840.52346783901
 30
0.0
 11
2706.831659683934
 21
6860.623467839011
 31
0.0
  0
LINE
  5
7C7F
330
8471
100
AcDbEntity
  8
1
100
AcDbLine
 10
2522.831659683934
 20
6762.62346783901
 30
0.0
 11
2522.831659683934
 21
6840.523467839009
 31
0.0
  0
LINE
  5
7C80
330
8471
100
AcDbEntity
  8
1
100
AcDbLine
 10
2396.831659683934
 20
6922.623467839009
 30
0.0
 11
4416.831659683934
 21
6922.623467839102
 31
0.0
  0
LINE
  5
7C81
330
8471
100
AcDbEntity
  8
1
100
AcDbLine
 10
4396.831659683932
 20
7601.073467839011
 30
0.0
 11
3986.831659683927
 21
7601.073467839009
 31
0.0
  0
LINE
  5
7C82
330
8471
100
AcDbEntity
  8
1
100
AcDbLine
 10
1951.831659683933
 20
8807.623467839011
 30
0.0
 11
3855.831659683934
 21
8807.623467839011
 31
0.0
  0
LINE
  5
7C83
330
8471
100
AcDbEntity
  8
1
100
AcDbLine
 10
1951.831659683934
 20
7107.623467839008
 30
0.0
 11
3855.831659683934
 21
7107.623467839008
 31
0.0
  0
LINE
  5
7C84
330
8471
100
AcDbEntity
  8
1
100
AcDbLine
 10
1951.831659683934
 20
8857.62346783901
 30
0.0
 11
1951.831659683933
 21
7057.623467839007
 31
0.0
  0
LINE
  5
7C85
330
8471
100
AcDbEntity
  8
1
100
AcDbLine
 10
3855.831659683934
 20
8807.623467839006
 30
0.0
 11
3855.831659683934
 21
7107.623467839008
 31
0.0
  0
LINE
  5
7C86
330
8471
100
AcDbEntity
  8
1
100
AcDbLine
 10
2026.831659683934
 20
7107.623467839008
 30
0.0
 11
2026.831659683934
 21
6755.623467839007
 31
0.0
  0
LINE
  5
7C87
330
8471
100
AcDbEntity
  8
1
100
AcDbLine
 10
4090.831659683933
 20
6840.52346783901
 30
0.0
 11
4136.831659683934
 21
6840.52346783901
 31
0.0
  0
LINE
  5
7C88
330
8471
100
AcDbEntity
  8
1
100
AcDbLine
 10
4090.831659683933
 20
6762.62346783901
 30
0.0
 11
4302.831659683934
 21
6762.62346783901
 31
0.0
  0
INSERT
  5
7C8E
330
8471
100
AcDbEntity
  8
1
100
AcDbBlockReference
  2
YA_N
 10
10491.49125510566
 20
1972.966762031963
 30
0.0
  0
ARC
  5
7C90
330
8471
100
AcDbEntity
  8
1
100
AcDbCircle
 10
2685.831659683934
 20
4278.935954207628
 30
0.0
 40
1170.0
100
AcDbArc
 50
274.460843697874
 51
4.460843697873976
  0
ARC
  5
7C91
330
8471
100
AcDbEntity
  8
1
100
AcDbCircle
 10
2867.831659683934
 20
4278.935954207628
 30
0.0
 40
988.0
100
AcDbArc
 50
5.284732954534544
 51
95.28473295453455
  0
ARC
  5
7C92
330
8471
100
AcDbEntity
  8
1
100
AcDbCircle
 10
2853.831659683934
 20
4446.935954207627
 30
0.0
 40
820.0
100
AcDbArc
 50
95.38815180432743
 51
182.757514755792
  0
LINE
  5
7C93
330
8471
100
AcDbEntity
  8
1
100
AcDbLine
 10
2776.831659683934
 20
3112.48021136952
 30
0.0
 11
1951.831659683934
 21
3035.935954207627
 31
0.0
  0
LINE
  5
7C94
330
8471
100
AcDbEntity
  8
1
100
AcDbLine
 10
2026.831659683934
 20
2939.935954207627
 30
0.0
 11
4476.831659683933
 21
2939.935954207627
 31
0.0
1001
ACAD
1000
ASC_BOUNDS
1002
{
1070
    19
1002
}
  0
LINE
  5
7C95
330
8471
100
AcDbEntity
  8
1
100
AcDbLine
 10
2026.831659683934
 20
3064.935954207627
 30
0.0
 11
4476.831659683933
 21
3064.935954207627
 31
0.0
  0
LINE
  5
7C96
330
8471
100
AcDbEntity
  8
1
100
AcDbLine
 10
2026.831659683934
 20
3064.935954207627
 30
0.0
 11
2026.831659683934
 21
2939.935954207627
 31
0.0
  0
LINE
  5
7C97
330
8471
100
AcDbEntity
  8
1
100
AcDbLine
 10
4476.831659683933
 20
3064.935954207627
 30
0.0
 11
4476.831659683933
 21
2939.935954207627
 31
0.0
  0
LINE
  5
7C98
330
8471
100
AcDbEntity
  8
2
100
AcDbLine
 10
4196.831659683934
 20
3615.790470813337
 30
0.0
 11
4196.831659683936
 21
2939.935954207627
 31
0.0
  0
LINE
  5
7C99
330
8471
100
AcDbEntity
  8
2
100
AcDbLine
 10
3916.517442925782
 20
3324.935954207627
 30
0.0
 11
4466.937680551182
 21
3324.935954207627
 31
0.0
  0
LINE
  5
7C9C
330
8471
100
AcDbEntity
  8
1
100
AcDbLine
 10
1951.831659683934
 20
4315.935954207627
 30
0.0
 11
2035.79657279533
 21
4315.935954207627
 31
0.0
  0
LINE
  5
7C9D
330
8471
100
AcDbEntity
  8
1
100
AcDbLine
 10
2001.831659683934
 20
3040.575000096227
 30
0.0
 11
2001.831659683934
 21
4315.935954207627
 31
0.0
  0
LINE
  5
7C9E
330
8471
100
AcDbEntity
  8
1
100
AcDbLine
 10
1951.831659683934
 20
2982.935954207627
 30
0.0
 11
1951.831659683934
 21
4368.935954207628
 31
0.0
  0
POINT
  5
7CA0
330
8471
100
AcDbEntity
  8
1
100
AcDbPoint
 10
3851.631944294587
 20
4369.935954207627
 30
0.0
  0
INSERT
  5
7CA1
330
8471
100
AcDbEntity
  8
1
100
AcDbBlockReference
  2
YA_N
 10
8728.26384779535
 20
749.1803445741823
 30
0.0
 41
30.0
 42
30.0
 43
30.0
  0
ARC
  5
7CA7
330
8471
100
AcDbEntity
  8
1
100
AcDbCircle
 10
4196.831659683934
 20
3324.935954207627
 30
0.0
 40
203.5
100
AcDbArc
 50
285.60376
 51
254.396301
  0
LINE
  5
7CA8
330
8471
100
AcDbEntity
  8
1
100
AcDbLine
 10
4251.569696683935
 20
3128.935954207627
 30
0.0
 11
4142.093622683932
 21
3128.935954207627
 31
0.0
  0
ARC
  5
7CA9
330
8471
100
AcDbEntity
  8
1
100
AcDbCircle
 10
4010.831659683933
 20
3141.935954207627
 30
0.0
 40
3.0
100
AcDbArc
 50
90.0
 51
180.0
  0
ARC
  5
7CAA
330
8471
100
AcDbEntity
  8
1
100
AcDbCircle
 10
4012.831659683933
 20
3199.262615207627
 30
0.0
 40
5.000066999999999
100
AcDbArc
 50
124.943665
 51
180.0
  0
LINE
  5
7CAB
330
8471
100
AcDbEntity
  8
1
100
AcDbLine
 10
4007.831659683933
 20
3199.262615207627
 30
0.0
 11
4007.831659683933
 21
3124.935954207627
 31
0.0
  0
LINE
  5
7CAE
330
8471
100
AcDbEntity
  8
1
100
AcDbLine
 10
4092.729089683933
 20
3150.079143207627
 30
0.0
 11
4087.331659683933
 21
3129.935954207627
 31
0.0
  0
LINE
  5
7CAF
330
8471
100
AcDbEntity
  8
1
100
AcDbLine
 10
4087.331659683933
 20
3141.935954207627
 30
0.0
 11
4087.331659683933
 21
3124.935954207627
 31
0.0
  0
LINE
  5
7CB0
330
8471
100
AcDbEntity
  8
1
100
AcDbLine
 10
4084.331659683933
 20
3144.935954207627
 30
0.0
 11
4010.831659683933
 21
3144.935954207627
 31
0.0
  0
ARC
  5
7CB1
330
8471
100
AcDbEntity
  8
1
100
AcDbCircle
 10
4084.331659683933
 20
3141.935954207627
 30
0.0
 40
3.0
100
AcDbArc
 50
0.0
 51
90.0
  0
LINE
  5
7CB2
330
8471
100
AcDbEntity
  8
1
100
AcDbLine
 10
4009.967889683934
 20
3203.361247207627
 30
0.0
 11
4025.905755683933
 21
3214.497722207627
 31
0.0
  0
LINE
  5
7CB3
330
8471
100
AcDbEntity
  8
1
100
AcDbLine
 10
4385.831659683934
 20
3199.262615207627
 30
0.0
 11
4385.831659683934
 21
3124.935954207627
 31
0.0
  0
LINE
  5
7CB6
330
8471
100
AcDbEntity
  8
1
100
AcDbLine
 10
4300.934442683934
 20
3150.079265207627
 30
0.0
 11
4306.331659683934
 21
3129.935954207627
 31
0.0
  0
LINE
  5
7CB7
330
8471
100
AcDbEntity
  8
1
100
AcDbLine
 10
4306.331659683934
 20
3141.935954207627
 30
0.0
 11
4306.331659683934
 21
3124.935954207627
 31
0.0
  0
LINE
  5
7CB8
330
8471
100
AcDbEntity
  8
1
100
AcDbLine
 10
4309.331659683934
 20
3144.935954207627
 30
0.0
 11
4382.831659683934
 21
3144.935954207627
 31
0.0
  0
ARC
  5
7CB9
330
8471
100
AcDbEntity
  8
1
100
AcDbCircle
 10
4309.331659683934
 20
3141.935954207627
 30
0.0
 40
3.0
100
AcDbArc
 50
90.0
 51
180.0
  0
ARC
  5
7CBA
330
8471
100
AcDbEntity
  8
1
100
AcDbCircle
 10
4382.831659683934
 20
3141.935954207627
 30
0.0
 40
3.0
100
AcDbArc
 50
0.0
 51
90.0
  0
LINE
  5
7CBB
330
8471
100
AcDbEntity
  8
1
100
AcDbLine
 10
4383.695550683933
 20
3203.361247207627
 30
0.0
 11
4367.757684683932
 21
3214.497722207627
 31
0.0
  0
ARC
  5
7CBC
330
8471
100
AcDbEntity
  8
1
100
AcDbCircle
 10
4380.831659683933
 20
3199.262615207627
 30
0.0
 40
5.0
100
AcDbArc
 50
0.0
 51
55.05633899999998
  0
LINE
  5
7CBD
330
8471
100
AcDbEntity
  8
1
100
AcDbLine
 10
3953.408634641323
 20
3124.935954207627
 30
0.0
 11
4126.831659683934
 21
3124.935954207627
 31
0.0
  0
LINE
  5
7CBE
330
8471
100
AcDbEntity
  8
1
100
AcDbLine
 10
3936.831659683934
 20
3064.935954207627
 30
0.0
 11
3953.408634641323
 21
3124.935954207627
 31
0.0
  0
LINE
  5
7CBF
330
8471
100
AcDbEntity
  8
1
100
AcDbLine
 10
4456.831659683934
 20
3064.935954207627
 30
0.0
 11
4440.650703138816
 21
3124.935954207627
 31
0.0
  0
LINE
  5
7CC0
330
8471
100
AcDbEntity
  8
1
100
AcDbLine
 10
4126.831659683934
 20
3114.935954207627
 30
0.0
 11
4266.831659683933
 21
3114.935954207627
 31
0.0
  0
LINE
  5
7CC2
330
8471
100
AcDbEntity
  8
1
100
AcDbLine
 10
4266.831659683933
 20
3124.935954207627
 30
0.0
 11
4266.831659683933
 21
3114.935954207627
 31
0.0
  0
LINE
  5
7CC3
330
8471
100
AcDbEntity
  8
1
100
AcDbLine
 10
4126.831659683934
 20
3124.935954207627
 30
0.0
 11
4126.831659683934
 21
3114.935954207627
 31
0.0
  0
LINE
  5
7CC6
330
8471
100
AcDbEntity
  8
1
100
AcDbLine
 10
4266.831659683933
 20
3124.935954207627
 30
0.0
 11
4440.650703138816
 21
3124.935954207627
 31
0.0
  0
INSERT
  5
7CC7
330
8471
100
AcDbEntity
  8
1
100
AcDbBlockReference
  2
YA_N
 10
9730.247579223819
 20
1429.411777198107
 30
0.0
 41
30.0
 42
30.0
 43
30.0
  0
CIRCLE
  5
7CCD
330
8471
100
AcDbEntity
  8
1
100
AcDbCircle
 10
4196.831659683934
 20
3324.935954207627
 30
0.0
 40
107.0
  0
POINT
  5
7CCF
330
8471
100
AcDbEntity
  8
1
100
AcDbPoint
 10
2026.831659683934
 20
2939.935954207627
 30
0.0
  0
ARC
  5
7CD2
330
8471
100
AcDbEntity
  8
1
100
AcDbCircle
 10
2776.831659683934
 20
4369.935954207627
 30
0.0
 40
625.0
100
AcDbArc
 50
0.0
 51
180.0
  0
ARC
  5
7CD3
330
8471
100
AcDbEntity
  8
1
100
AcDbCircle
 10
2776.831659683934
 20
4369.935954207627
 30
0.0
 40
675.0
100
AcDbArc
 50
0.0
 51
180.0
  0
ARC
  5
7CD4
330
8471
100
AcDbEntity
  8
1
100
AcDbCircle
 10
2776.831659683934
 20
4369.935954207627
 30
0.0
 40
625.0
100
AcDbArc
 50
180.0
 51
0.0
  0
ARC
  5
7CD5
330
8471
100
AcDbEntity
  8
1
100
AcDbCircle
 10
2776.831659683934
 20
4369.935954207627
 30
0.0
 40
675.0
100
AcDbArc
 50
180.0
 51
0.0
  0
CIRCLE
  5
7CD8
330
8471
100
AcDbEntity
  8
1
100
AcDbCircle
 10
2776.831659683934
 20
4369.935954207627
 30
0.0
 40
254.0
  0
POINT
  5
7CDC
330
8471
100
AcDbEntity
  8
1
100
AcDbPoint
 10
2026.831659683934
 20
2939.935954207627
 30
0.0
  0
ARC
  5
7CDD
330
8471
100
AcDbEntity
  8
1
100
AcDbCircle
 10
2776.831659683934
 20
4369.935954207627
 30
0.0
 40
743.0
100
AcDbArc
 50
177.103091958974
 51
184.1678363221618
  0
INSERT
  5
7CDE
330
8471
100
AcDbEntity
  8
1
100
AcDbBlockReference
  2
YA_N
 10
15253.43467482128
 20
473.2708936064663
 30
0.0
  0
ARC
  5
7CE0
330
8471
100
AcDbEntity
  8
1
100
AcDbCircle
 10
2776.831659683934
 20
4369.935954207627
 30
0.0
 40
380.0
100
AcDbArc
 50
48.44327906850633
 51
238.8568658610076
  0
ARC
  5
7CE1
330
8471
100
AcDbEntity
  8
1
100
AcDbCircle
 10
4196.831659683934
 20
3324.935954207627
 30
0.0
 40
220.0
100
AcDbArc
 50
238.8568658610076
 51
48.44327906850637
  0
LINE
  5
7CE2
330
8471
100
AcDbEntity
  8
1
100
AcDbLine
 10
3028.908902328605
 20
4654.289719332444
 30
0.0
 11
4342.771115951902
 21
3489.561818227258
 31
0.0
  0
LINE
  5
7CE3
330
8471
100
AcDbEntity
  8
1
100
AcDbLine
 10
2943.913982729283
 20
4561.245905140061
 30
0.0
 11
4267.216732777842
 21
3405.527154009873
 31
0.0
  0
LINE
  5
7CE4
330
8471
100
AcDbEntity
  8
1
100
AcDbLine
 10
2643.863050175184
 20
4153.521192961289
 30
0.0
 11
4140.817324182217
 21
3233.769105966059
 31
0.0
  0
LINE
  5
7CE5
330
8471
100
AcDbEntity
  8
1
100
AcDbLine
 10
2580.304092518002
 20
4044.70232226923
 30
0.0
 11
4083.052541851026
 21
3136.642798874872
 31
0.0
  0
POINT
  5
7CF9
330
8471
100
AcDbEntity
  8
1
100
AcDbPoint
 10
2026.831659683934
 20
2939.935954207627
 30
0.0
  0
LINE
  5
7CFD
330
8471
100
AcDbEntity
  8
1
100
AcDbLine
 10
5531.407928765328
 20
5266.935954207627
 30
0.0
 11
7231.407928765325
 21
5266.935954207627
 31
0.0
  0
LINE
  5
7D00
330
8471
100
AcDbEntity
  8
1
100
AcDbLine
 10
5913.557537593625
 20
3124.93595420763
 30
0.0
 11
5913.557537593625
 21
3070.399788374015
 31
0.0
  0
LINE
  5
7D01
330
8471
100
AcDbEntity
  8
1
100
AcDbLine
 10
7231.407928765325
 20
4368.935954207628
 30
0.0
 11
7284.407928765325
 21
4368.935954207628
 31
0.0
  0
LINE
  5
7D07
330
8471
100
AcDbEntity
  8
1
100
AcDbLine
 10
5531.407928765325
 20
3534.935954207629
 30
0.0
 11
5531.407928765325
 21
4315.935954207627
 31
0.0
  0
LINE
  5
8092
330
8471
100
AcDbEntity
  8
1
100
AcDbLine
 10
6025.357928765328
 20
3534.935954207627
 30
0.0
 11
6025.357928765326
 21
3124.93595420763
 31
0.0
  0
LINE
  5
8093
330
8471
100
AcDbEntity
  8
4
100
AcDbLine
 10
7400.0
 20
2000.0
 30
0.0
 11
7400.0
 21
1200.0
 31
0.0
  0
LINE
  5
8094
330
8471
100
AcDbEntity
  8
4
100
AcDbLine
 10
4600.0
 20
2000.0
 30
0.0
 11
4600.0
 21
1200.0
 31
0.0
  0
LINE
  5
8095
330
8471
100
AcDbEntity
  8
4
100
AcDbLine
 10
2600.0
 20
2000.0
 30
0.0
 11
2600.0
 21
1200.0
 31
0.0
  0
LINE
  5
8098
330
8471
100
AcDbEntity
  8
4
100
AcDbLine
 10
2600.0
 20
1200.0
 30
0.0
 11
7400.0
 21
1200.0
 31
0.0
  0
LINE
  5
8099
330
8471
100
AcDbEntity
  8
4
100
AcDbLine
 10
2600.0
 20
1600.0
 30
0.0
 11
7400.0
 21
1600.0
 31
0.0
  0
TEXT
  5
809A
330
8471
100
AcDbEntity
  8
4
100
AcDbText
 10
2754.008323387607
 20
1726.172103466451
 30
0.0
 40
200.0
  1
機器名称
100
AcDbText
  0
TEXT
  5
809B
330
8471
100
AcDbEntity
  8
4
100
AcDbText
 10
2745.03242409919
 20
1286.580626928043
 30
0.0
 40
200.0
  1
機器型番
100
AcDbText
  0
TEXT
  5
809C
330
8471
100
AcDbEntity
  8
4
100
AcDbText
 10
4710.714981950659
 20
1690.287075830274
 30
0.0
 40
200.0
  1
ミツヤ多翼送風機
100
AcDbText
  0
TEXT
  5
809D
330
8471
100
AcDbEntity
  8
4
100
AcDbText
 10
4746.617982341923
 20
1268.638337119773
 30
0.0
 40
200.0
  1
MF#8-5
100
AcDbText
  0
TEXT
  5
809F
330
8471
100
AcDbEntity
  8
4
100
AcDbText
 10
3261.976911550468
 20
9533.715365330063
 30
0.0
 40
215.9999999999999
  1
床置ベット
100
AcDbText
  0
TEXT
  5
80A0
330
8471
100
AcDbEntity
  8
4
100
AcDbText
 10
1264.670373317785
 20
10135.52390479719
 30
0.0
 40
288.0
  1
遠心式両吸込両持多翼ファン
100
AcDbText
  0
LINE
  5
80A1
330
8471
100
AcDbEntity
  8
4
100
AcDbLine
 10
1000.0
 20
9877.635017059219
 30
0.0
 11
7400.0
 21
9877.635017059219
 31
0.0
  0
LINE
  5
80A2
330
8471
100
AcDbEntity
  8
4
100
AcDbLine
 10
1000.0
 20
10677.63501705921
 30
0.0
 11
7400.0
 21
10677.63501705921
 31
0.0
  0
LINE
  5
80A3
330
8471
100
AcDbEntity
  8
4
100
AcDbLine
 10
2600.0
 20
2000.0
 30
0.0
 11
7400.0
 21
2000.0
 31
0.0
  0
LINE
  5
80A4
330
8471
100
AcDbEntity
  8
4
100
AcDbLine
 10
1000.0
 20
10677.63501705921
 30
0.0
 11
1000.0
 21
9877.635017059219
 31
0.0
  0
TEXT
  5
80A5
330
8471
100
AcDbEntity
  8
4
100
AcDbText
 10
1518.541582579659
 20
9529.277910185374
 30
0.0
 40
215.9999999999999
  1
右回転左横向
100
AcDbText
  0
TEXT
  5
80A6
330
8471
100
AcDbEntity
  8
4
100
AcDbText
 10
5875.878236997159
 20
10824.24432598123
 30
0.0
 40
224.0
  1
No.
100
AcDbText
  0
TEXT
  5
80A7
330
8471
100
AcDbEntity
  8
4
100
AcDbText
 10
5245.184250400053
 20
9533.715365330063
 30
0.0
 40
215.9999999999999
  1
縮尺：1/40
100
AcDbText
  0
LINE
  5
80A8
330
8471
100
AcDbEntity
  8
4
100
AcDbLine
 10
7400.0
 20
10677.63501705921
 30
0.0
 11
7400.0
 21
9877.635017059219
 31
0.0
  0
LINE
  5
80A9
330
8471
100
AcDbEntity
  8
4
100
AcDbLine
 10
8400.0
 20
11800.0
 30
0.0
 11
8400.0
 21
11800.0
 31
0.0
  0
LINE
  5
80AA
330
8471
100
AcDbEntity
  8
4
100
AcDbLine
 10
5762.469689439458
 20
10725.0543325016
 30
0.0
 11
5762.469689439458
 21
11146.609046199
 31
0.0
  0
LINE
  5
80AB
330
8471
100
AcDbEntity
  8
4
100
AcDbLine
 10
5762.469689439458
 20
11146.609046199
 30
0.0
 11
7400.0
 21
11146.609046199
 31
0.0
  0
LINE
  5
80AC
330
8471
100
AcDbEntity
  8
4
100
AcDbLine
 10
7400.0
 20
11146.609046199
 30
0.0
 11
7400.0
 21
10725.0543325016
 31
0.0
  0
LINE
  5
80AD
330
8471
100
AcDbEntity
  8
4
100
AcDbLine
 10
7400.0
 20
10725.0543325016
 30
0.0
 11
5762.469689439458
 21
10725.0543325016
 31
0.0
  0
LINE
  5
80AE
330
8471
100
AcDbEntity
  8
4
100
AcDbLine
 10
0.0
 20
0.0
 30
0.0
 11
0.0
 21
11800.0
 31
0.0
  0
LINE
  5
80AF
330
8471
100
AcDbEntity
  8
4
100
AcDbLine
 10
0.0
 20
11800.0
 30
0.0
 11
8400.0
 21
11800.0
 31
0.0
  0
LINE
  5
80B0
330
8471
100
AcDbEntity
  8
4
100
AcDbLine
 10
8400.0
 20
11800.0
 30
0.0
 11
8400.0
 21
0.0
 31
0.0
  0
LINE
  5
80B1
330
8471
100
AcDbEntity
  8
4
100
AcDbLine
 10
8400.0
 20
0.0
 30
0.0
 11
0.0
 21
0.0
 31
0.0
  0
DIMENSION
  5
8214
330
8471
100
AcDbEntity
  8
3
100
AcDbDimension
  2
*D21
 10
1203.170627867308
 20
4369.935954207627
 30
0.0
 11
1103.170627867308
 21
4818.435954207627
 31
0.0
 71
     5
 42
-1.0
  3
Standard
100
AcDbAlignedDimension
 13
2867.831659683934
 23
5266.935954207628
 33
0.0
 14
1939.310814992313
 24
4369.935954207627
 34
0.0
 50
90.0
100
AcDbRotatedDimension
1001
ACAD
1000
DSTYLE
1002
{
1070
   172
1070
     1
1070
    40
1040
40.0
1070
   271
1070
     0
1070
   143
1040
0.039
1002
}
  0
DIMENSION
  5
825C
330
8471
100
AcDbEntity
  8
3
100
AcDbDimension
  2
*D22
 10
2776.831659683933
 20
2699.935484817175
 30
0.0
 11
2401.831659683934
 21
2799.935484817175
 31
0.0
 71
     5
 42
-1.0
  3
Standard
100
AcDbAlignedDimension
 13
2026.831659683934
 23
2939.935954207627
 33
0.0
 14
2776.831659683933
 24
2939.935954207626
 34
0.0
100
AcDbRotatedDimension
1001
ACAD
1000
DSTYLE
1002
{
1070
   172
1070
     1
1070
    40
1040
40.0
1070
   271
1070
     0
1070
   143
1040
0.039
1002
}
  0
DIMENSION
  5
8269
330
8471
100
AcDbEntity
  8
3
100
AcDbDimension
  2
*D23
 10
4476.831659683933
 20
2699.935484817175
 30
0.0
 11
3626.831659683933
 21
2799.935484817175
 31
0.0
 71
     5
 42
-1.0
  3
Standard
100
AcDbAlignedDimension
 13
2776.831659683933
 23
2939.935954207626
 33
0.0
 14
4476.831659683933
 24
2939.935954207627
 34
0.0
100
AcDbRotatedDimension
1001
ACAD
1000
DSTYLE
1002
{
1070
   172
1070
     1
1070
    40
1040
40.0
1070
   271
1070
     0
1070
   143
1040
0.039
1002
}
  0
DIMENSION
  5
8276
330
8471
100
AcDbEntity
  8
3
100
AcDbDimension
  2
*D24
 10
6381.407928765328
 20
2699.935484817175
 30
0.0
 11
5780.407928765328
 21
2799.935484817175
 31
0.0
 71
     5
 42
-1.0
  3
Standard
100
AcDbAlignedDimension
 13
5179.407928765326
 23
2939.935954207627
 33
0.0
 14
6381.407928765328
 24
2939.935954207627
 34
0.0
100
AcDbRotatedDimension
1001
ACAD
1000
DSTYLE
1002
{
1070
   172
1070
     1
1070
    40
1040
40.0
1070
   271
1070
     0
1070
   143
1040
0.039
1002
}
  0
DIMENSION
  5
8283
330
8471
100
AcDbEntity
  8
3
100
AcDbDimension
  2
*D25
 10
7299.407928765326
 20
2699.935484817175
 30
0.0
 11
6840.407928765326
 21
2799.935484817175
 31
0.0
 71
     5
 42
-1.0
  3
Standard
100
AcDbAlignedDimension
 13
6381.407928765328
 23
2939.935954207627
 33
0.0
 14
7299.407928765326
 24
2939.935954207627
 34
0.0
100
AcDbRotatedDimension
1001
ACAD
1000
DSTYLE
1002
{
1070
   172
1070
     1
1070
    40
1040
40.0
1070
   271
1070
     0
1070
   143
1040
0.039
1002
}
  0
DIMENSION
  5
8290
330
8471
100
AcDbEntity
  8
3
100
AcDbDimension
  2
*D26
 10
943.8621911394729
 20
5266.935954207628
 30
0.0
 11
843.8621911394729
 21
4103.435954207627
 31
0.0
 71
     5
 42
-1.0
  3
Standard
100
AcDbAlignedDimension
 13
2026.831659683934
 23
2939.935954207627
 33
0.0
 14
2847.831659683933
 24
5266.935954207628
 34
0.0
 50
90.0
100
AcDbRotatedDimension
1001
ACAD
1000
DSTYLE
1002
{
1070
   172
1070
     1
1070
    40
1040
40.0
1070
   271
1070
     0
1070
   143
1040
0.039
1002
}
  0
DIMENSION
  5
850D
330
8471
100
AcDbEntity
  8
3
100
AcDbDimension
  2
*D27
 10
7231.407928765325
 20
5539.256168514262
 30
0.0
 11
6381.407928765327
 21
5639.256168514261
 31
0.0
 70
    32
 71
     5
 42
1699.999999999998
  3
IGA
100
AcDbAlignedDimension
 13
5531.407928765328
 23
5266.935954207627
 33
0.0
 14
7231.407928765325
 24
5266.935954207627
 34
0.0
100
AcDbRotatedDimension
1001
ACAD
1000
DSTYLE
1002
{
1070
    40
1040
40.0
1070
   143
1040
0.039
1070
   172
1070
     1
1070
   271
1070
     4
1070
   272
1070
     4
1070
   279
1070
     0
1070
   284
1070
     0
1070
   285
1070
     0
1070
   286
1070
     0
1070
   341
1005
8488
1070
   343
1005
8488
1070
   344
1005
8488
1002
}
  0
DIMENSION
  5
851A
330
8471
100
AcDbEntity
  8
3
100
AcDbDimension
  2
*D28
 10
6381.407928765326
 20
5820.910505835629
 30
0.0
 11
5741.407928765326
 21
5952.339077264201
 31
0.0
 70
    32
  1
(<>)
 71
     5
 42
1280.000000000001
  3
IGA
100
AcDbAlignedDimension
 13
5101.407928765326
 23
4749.935954207627
 33
0.0
 14
6381.407928765326
 24
5699.256168514262
 34
0.0
100
AcDbRotatedDimension
1001
ACAD
1000
DSTYLE
1002
{
1070
    40
1040
40.0
1070
   143
1040
0.039
1070
   172
1070
     1
1070
   271
1070
     4
1070
   272
1070
     4
1070
   279
1070
     0
1070
   284
1070
     0
1070
   285
1070
     0
1070
   286
1070
     0
1070
   341
1005
8488
1070
   343
1005
8488
1070
   344
1005
8488
1002
}
  0
DIMENSION
  5
8527
330
8471
100
AcDbEntity
  8
3
100
AcDbDimension
  2
*D29
 10
7401.407928765324
 20
5820.910505835629
 30
0.0
 11
6891.407928765326
 21
5952.339077264201
 31
0.0
 70
    32
  1
(<>)
 71
     5
 42
1019.999999999999
  3
IGA
100
AcDbAlignedDimension
 13
6381.407928765326
 23
5699.256168514262
 33
0.0
 14
7401.407928765324
 24
4293.935954207627
 34
0.0
100
AcDbRotatedDimension
1001
ACAD
1000
DSTYLE
1002
{
1070
    40
1040
40.0
1070
   143
1040
0.039
1070
   172
1070
     1
1070
   271
1070
     4
1070
   272
1070
     4
1070
   279
1070
     1
1070
   284
1070
     0
1070
   285
1070
     0
1070
   286
1070
     0
1070
   341
1005
8488
1070
   343
1005
8488
1070
   344
1005
8488
1002
}
  0
DIMENSION
  5
8538
330
8471
100
AcDbEntity
  8
3
100
AcDbDimension
  2
*D30
 10
7642.677553677827
 20
3744.935954207627
 30
0.0
 11
7542.677553677826
 21
4369.935954207628
 31
0.0
 70
    32
  1
\U+03C6<>
 71
     5
 42
1250.0
  3
IGA
100
AcDbAlignedDimension
 13
7231.407928765325
 23
4994.935954207627
 33
0.0
 14
7231.407928765325
 24
3744.935954207627
 34
0.0
 50
90.0
100
AcDbRotatedDimension
1001
ACAD
1000
DSTYLE
1002
{
1070
    40
1040
40.0
1070
   143
1040
0.039
1070
   172
1070
     1
1070
   271
1070
     4
1070
   272
1070
     4
1070
   279
1070
     0
1070
   284
1070
     0
1070
   285
1070
     0
1070
   286
1070
     0
1070
   341
1005
8488
1070
   343
1005
8488
1070
   344
1005
8488
1002
}
  0
DIMENSION
  5
85AF
330
8471
100
AcDbEntity
  8
3
100
AcDbDimension
  2
*D32
 10
4476.831659683933
 20
6390.869589649355
 30
0.0
 11
3251.831659683933
 21
6490.869589649354
 31
0.0
 70
    32
 71
     5
 42
2449.999999999999
  3
IGA
100
AcDbAlignedDimension
 13
2026.831659683934
 23
6755.623467839007
 33
0.0
 14
4476.831659683933
 24
6755.623467839007
 34
0.0
100
AcDbRotatedDimension
1001
ACAD
1000
DSTYLE
1002
{
1070
    40
1040
40.0
1070
   143
1040
0.039
1070
   172
1070
     1
1070
   271
1070
     4
1070
   272
1070
     4
1070
   279
1070
     0
1070
   284
1070
     0
1070
   285
1070
     0
1070
   286
1070
     0
1070
   341
1005
8488
1070
   343
1005
8488
1070
   344
1005
8488
1002
}
  0
DIMENSION
  5
85BC
330
8471
100
AcDbEntity
  8
3
100
AcDbDimension
  2
*D33
 10
4743.158060791513
 20
7755.623467839007
 30
0.0
 11
4643.158060791511
 21
7255.623467839008
 31
0.0
 70
    32
 71
     5
 42
1000.0
  3
IGA
100
AcDbAlignedDimension
 13
4476.831659683933
 23
6755.623467839007
 33
0.0
 14
4476.831659683933
 24
7755.623467839007
 34
0.0
 50
90.0
100
AcDbRotatedDimension
1001
ACAD
1000
DSTYLE
1002
{
1070
    40
1040
40.0
1070
   143
1040
0.039
1070
   172
1070
     1
1070
   271
1070
     4
1070
   272
1070
     4
1070
   279
1070
     0
1070
   284
1070
     0
1070
   285
1070
     0
1070
   286
1070
     0
1070
   341
1005
8488
1070
   343
1005
8488
1070
   344
1005
8488
1002
}
  0
DIMENSION
  5
85C9
330
8471
100
AcDbEntity
  8
3
100
AcDbDimension
  2
*D34
 10
3526.831659683934
 20
9080.259606344192
 30
0.0
 11
4001.831659683933
 21
9180.259606344192
 31
0.0
 70
    32
 71
     5
 42
949.9999999999996
  3
IGA
100
AcDbAlignedDimension
 13
4476.831659683933
 23
7755.623467839007
 33
0.0
 14
3526.831659683934
 24
8875.623467839009
 34
0.0
100
AcDbRotatedDimension
1001
ACAD
1000
DSTYLE
1002
{
1070
    40
1040
40.0
1070
   143
1040
0.039
1070
   172
1070
     1
1070
   271
1070
     4
1070
   272
1070
     4
1070
   279
1070
     0
1070
   284
1070
     0
1070
   285
1070
     0
1070
   286
1070
     0
1070
   341
1005
8488
1070
   343
1005
8488
1070
   344
1005
8488
1002
}
  0
DIMENSION
  5
85D6
330
8471
100
AcDbEntity
  8
3
100
AcDbDimension
  2
*D35
 10
2026.831659683934
 20
9080.259606344192
 30
0.0
 11
2776.831659683934
 21
9180.259606344192
 31
0.0
 70
    32
 71
     5
 42
1500.0
  3
IGA
100
AcDbAlignedDimension
 13
3526.831659683934
 23
8875.623467839009
 33
0.0
 14
2026.831659683934
 24
8875.623467839007
 34
0.0
100
AcDbRotatedDimension
1001
ACAD
1000
DSTYLE
1002
{
1070
    40
1040
40.0
1070
   143
1040
0.039
1070
   172
1070
     1
1070
   271
1070
     4
1070
   272
1070
     4
1070
   279
1070
     1
1070
   284
1070
     0
1070
   285
1070
     0
1070
   286
1070
     0
1070
   341
1005
8488
1070
   343
1005
8488
1070
   344
1005
8488
1002
}
  0
DIMENSION
  5
85E3
330
8471
100
AcDbEntity
  8
3
100
AcDbDimension
  2
*D36
 10
1577.8155184481
 20
6755.623467839007
 30
0.0
 11
1477.815518448099
 21
7815.623467839007
 31
0.0
 70
    32
 71
     5
 42
2119.999999999999
  3
IGA
100
AcDbAlignedDimension
 13
2026.831659683934
 23
8875.623467839007
 33
0.0
 14
2026.831659683934
 24
6755.623467839007
 34
0.0
 50
90.0
100
AcDbRotatedDimension
1001
ACAD
1000
DSTYLE
1002
{
1070
    40
1040
40.0
1070
   143
1040
0.039
1070
   172
1070
     1
1070
   271
1070
     4
1070
   272
1070
     4
1070
   279
1070
     0
1070
   284
1070
     0
1070
   285
1070
     0
1070
   286
1070
     0
1070
   341
1005
8488
1070
   343
1005
8488
1070
   344
1005
8488
1002
}
  0
DIMENSION
  5
85F9
330
8471
100
AcDbEntity
  8
3
100
AcDbDimension
  2
*D37
 10
1698.820626993976
 20
4315.935954207627
 30
0.0
 11
1598.820626993975
 21
3675.935954207627
 31
0.0
 70
    32
 71
     5
 42
1280.0
  3
IGA
100
AcDbAlignedDimension
 13
1951.831659683934
 23
3035.935954207627
 33
0.0
 14
1951.831659683934
 24
4315.935954207627
 34
0.0
 50
90.0
100
AcDbRotatedDimension
1001
ACAD
1000
DSTYLE
1002
{
1070
    40
1040
40.0
1070
   143
1040
0.039
1070
   172
1070
     1
1070
   271
1070
     4
1070
   272
1070
     4
1070
   279
1070
     0
1070
   284
1070
     0
1070
   285
1070
     0
1070
   286
1070
     0
1070
   341
1005
8488
1070
   343
1005
8488
1070
   344
1005
8488
1002
}
  0
DIMENSION
  5
8606
330
8471
100
AcDbEntity
  8
3
100
AcDbDimension
  2
*D38
 10
1451.757784537447
 20
4369.935954207627
 30
0.0
 11
1351.757784537446
 21
3702.935954207627
 31
0.0
 70
    32
 71
     5
 42
1334.0
  3
IGA
100
AcDbAlignedDimension
 13
1951.831659683934
 23
3035.935954207627
 33
0.0
 14
1939.310814992313
 24
4369.935954207627
 34
0.0
 50
90.0
100
AcDbRotatedDimension
1001
ACAD
1000
DSTYLE
1002
{
1070
    40
1040
40.0
1070
   143
1040
0.039
1070
   172
1070
     1
1070
   271
1070
     4
1070
   272
1070
     4
1070
   279
1070
     0
1070
   284
1070
     0
1070
   285
1070
     0
1070
   286
1070
     0
1070
   341
1005
8488
1070
   343
1005
8488
1070
   344
1005
8488
1002
}
  0
DIMENSION
  5
8613
330
8471
100
AcDbEntity
  8
3
100
AcDbDimension
  2
*D39
 10
1203.170627867308
 20
4369.935954207627
 30
0.0
 11
1103.170627867307
 21
3654.935954207628
 31
0.0
 70
    32
 71
     5
 42
1430.0
  3
IGA
100
AcDbAlignedDimension
 13
2026.831659683934
 23
2939.935954207627
 33
0.0
 14
1939.310814992313
 24
4369.935954207627
 34
0.0
 50
90.0
100
AcDbRotatedDimension
1001
ACAD
1000
DSTYLE
1002
{
1070
    40
1040
40.0
1070
   143
1040
0.039
1070
   172
1070
     1
1070
   271
1070
     4
1070
   272
1070
     4
1070
   279
1070
     0
1070
   284
1070
     0
1070
   285
1070
     0
1070
   286
1070
     0
1070
   341
1005
8488
1070
   343
1005
8488
1070
   344
1005
8488
1002
}
  0
DIMENSION
  5
862D
330
8471
100
AcDbEntity
  8
3
100
AcDbDimension
  2
*D41
 10
2776.831659683934
 20
5534.448112292857
 30
0.0
 11
2364.331659683934
 21
5634.448112292856
 31
0.0
 70
    32
 71
     5
 42
824.9999999999996
  3
IGA
100
AcDbAlignedDimension
 13
1951.831659683934
 23
4368.935954207628
 33
0.0
 14
2776.831659683934
 24
5418.534369238305
 34
0.0
100
AcDbRotatedDimension
1001
ACAD
1000
DSTYLE
1002
{
1070
    40
1040
40.0
1070
   143
1040
0.039
1070
   172
1070
     1
1070
   271
1070
     4
1070
   272
1070
     4
1070
   279
1070
     0
1070
   284
1070
     0
1070
   285
1070
     0
1070
   286
1070
     0
1070
   341
1005
8488
1070
   343
1005
8488
1070
   344
1005
8488
1002
}
  0
DIMENSION
  5
863A
330
8471
100
AcDbEntity
  8
3
100
AcDbDimension
  2
*D42
 10
3855.831659683934
 20
5534.448112292857
 30
0.0
 11
3316.331659683934
 21
5634.448112292856
 31
0.0
 70
    32
 71
     5
 42
1079.0
  3
IGA
100
AcDbAlignedDimension
 13
2776.831659683934
 23
5418.534369238305
 33
0.0
 14
3855.831659683934
 24
4278.935954207628
 34
0.0
100
AcDbRotatedDimension
1001
ACAD
1000
DSTYLE
1002
{
1070
    40
1040
40.0
1070
   143
1040
0.039
1070
   172
1070
     1
1070
   271
1070
     4
1070
   272
1070
     4
1070
   279
1070
     1
1070
   284
1070
     0
1070
   285
1070
     0
1070
   286
1070
     0
1070
   341
1005
8488
1070
   343
1005
8488
1070
   344
1005
8488
1002
}
  0
DIMENSION
  5
8647
330
8471
100
AcDbEntity
  8
3
100
AcDbDimension
  2
*D43
 10
4476.831659683933
 20
5815.282770043522
 30
0.0
 11
3214.331659683934
 21
5915.282770043521
 31
0.0
 70
    32
 71
     5
 42
2524.999999999999
  3
IGA
100
AcDbAlignedDimension
 13
1951.831659683934
 23
4368.935954207628
 33
0.0
 14
4476.831659683933
 24
3064.935954207627
 34
0.0
100
AcDbRotatedDimension
1001
ACAD
1000
DSTYLE
1002
{
1070
    40
1040
40.0
1070
   143
1040
0.039
1070
   172
1070
     1
1070
   271
1070
     4
1070
   272
1070
     4
1070
   279
1070
     0
1070
   284
1070
     0
1070
   285
1070
     0
1070
   286
1070
     0
1070
   341
1005
8488
1070
   343
1005
8488
1070
   344
1005
8488
1002
}
  0
ENDSEC
  0
SECTION
  2
OBJECTS
  0
DICTIONARY
  5
840E
330
0
100
AcDbDictionary
281
     1
  3
ACAD_CIP_PREVIOUS_PRODUCT_INFO
350
84B6
  3
ACAD_COLOR
350
8464
  3
ACAD_DETAILVIEWSTYLE
350
846B
  3
ACAD_GROUP
350
840F
  3
ACAD_LAYOUT
350
8463
  3
ACAD_MATERIAL
350
8412
  3
ACAD_MLEADERSTYLE
350
8467
  3
ACAD_MLINESTYLE
350
8460
  3
ACAD_PLOTSETTINGS
350
8462
  3
ACAD_PLOTSTYLENAME
350
8410
  3
ACAD_SCALELIST
350
8444
  3
ACAD_SECTIONVIEWSTYLE
350
8469
  3
ACAD_TABLESTYLE
350
8465
  3
ACAD_VISUALSTYLE
350
842B
  3
ACDB_RECOMPOSE_DATA
350
8656
  3
AcDbVariableDictionary
350
84C1
  3
DWGPROPS
350
8657
  0
DICTIONARY
  5
84B7
330
8456
100
AcDbDictionary
280
     1
281
     1
  3
ADSK_XREC_LAYER_RECONCILED
360
84B8
  0
DICTIONARY
  5
84B9
330
8475
100
AcDbDictionary
280
     1
281
     1
  3
ADSK_XREC_LAYER_RECONCILED
360
84BA
  0
DICTIONARY
  5
84BB
330
8478
100
AcDbDictionary
280
     1
281
     1
  3
ADSK_XREC_LAYER_RECONCILED
360
84BC
  0
DICTIONARY
  5
84BD
330
8479
100
AcDbDictionary
280
     1
281
     1
  3
ADSK_XREC_LAYER_RECONCILED
360
84BE
  0
DICTIONARY
  5
84BF
330
847A
100
AcDbDictionary
280
     1
281
     1
  3
ADSK_XREC_LAYER_RECONCILED
360
84C0
  0
DICTIONARY
  5
8535
330
8471
100
AcDbDictionary
280
     1
281
     1
  3
ACAD_SORTENTS
360
8536
  0
XRECORD
  5
84B6
102
{ACAD_REACTORS
330
840E
102
}
330
840E
100
AcDbXrecord
280
     1
300
ACDLT
300
2015
300
INVLTS_F_S
  0
DICTIONARY
  5
8464
102
{ACAD_REACTORS
330
840E
102
}
330
840E
100
AcDbDictionary
281
     1
  0
DICTIONARY
  5
846B
102
{ACAD_REACTORS
330
840E
102
}
330
840E
100
AcDbDictionary
281
     1
  3
Imperial24
350
846C
  0
DICTIONARY
  5
840F
102
{ACAD_REACTORS
330
840E
102
}
330
840E
100
AcDbDictionary
281
     1
  0
DICTIONARY
  5
8463
102
{ACAD_REACTORS
330
840E
102
}
330
840E
100
AcDbDictionary
281
     1
  3
Model
350
8474
  3
レイアウト1
350
8470
  0
DICTIONARY
  5
8412
102
{ACAD_REACTORS
330
840E
102
}
330
840E
100
AcDbDictionary
281
     1
  3
ByBlock
350
841B
  3
ByLayer
350
8413
  3
Global
350
8423
  0
DICTIONARY
  5
8467
102
{ACAD_REACTORS
330
840E
102
}
330
840E
100
AcDbDictionary
281
     1
  3
Standard
350
8468
  0
DICTIONARY
  5
8460
102
{ACAD_REACTORS
330
840E
102
}
330
840E
100
AcDbDictionary
281
     1
  3
Standard
350
8461
  0
DICTIONARY
  5
8462
102
{ACAD_REACTORS
330
840E
102
}
330
840E
100
AcDbDictionary
281
     1
  0
ACDBDICTIONARYWDFLT
  5
8410
102
{ACAD_REACTORS
330
840E
102
}
330
840E
100
AcDbDictionary
281
     1
  3
Normal
350
8411
100
AcDbDictionaryWithDefault
340
8411
  0
DICTIONARY
  5
8444
102
{ACAD_REACTORS
330
840E
102
}
330
840E
100
AcDbDictionary
281
     1
  3
A0
350
8445
  3
A1
350
8446
  3
A2
350
8447
  3
A3
350
8448
  3
A4
350
8449
  3
A5
350
844A
  3
A6
350
844B
  3
A7
350
844C
  3
A8
350
844D
  3
A9
350
844E
  3
B0
350
844F
  3
B1
350
8450
  3
B2
350
8451
  3
B3
350
8452
  3
B4
350
8453
  3
B5
350
8454
  3
B6
350
8455
  0
DICTIONARY
  5
8469
102
{ACAD_REACTORS
330
840E
102
}
330
840E
100
AcDbDictionary
281
     1
  3
Imperial24
350
846A
  0
DICTIONARY
  5
8465
102
{ACAD_REACTORS
330
840E
102
}
330
840E
100
AcDbDictionary
281
     1
  3
Standard
350
8466
  0
DICTIONARY
  5
842B
102
{ACAD_REACTORS
330
840E
102
}
330
840E
100
AcDbDictionary
281
     1
  3
2dWireframe
350
8431
  3
Basic
350
8430
  3
Brighten
350
8437
  3
ColorChange
350
843B
  3
Conceptual
350
8434
  3
Dim
350
8436
  3
EdgeColorOff
350
8443
  3
Facepattern
350
843A
  3
Flat
350
842C
  3
FlatWithEdges
350
842D
  3
Gouraud
350
842E
  3
GouraudWithEdges
350
842F
  3
Hidden
350
8433
  3
JitterOff
350
8441
  3
Linepattern
350
8439
  3
OverhangOff
350
8442
  3
Realistic
350
8435
  3
Shaded
350
8440
  3
Shaded with edges
350
843F
  3
Shades of Gray
350
843C
  3
Sketchy
350
843D
  3
Thicken
350
8438
  3
Wireframe
350
8432
  3
X-Ray
350
843E
  0
XRECORD
  5
8656
102
{ACAD_REACTORS
330
840E
102
}
330
840E
100
AcDbXrecord
280
     1
 90
        1
330
8466
  0
DICTIONARY
  5
84C1
102
{ACAD_REACTORS
330
840E
102
}
330
840E
100
AcDbDictionary
281
     1
  3
CANNOSCALE
350
84C6
  3
CMLEADERSTYLE
350
84C3
  3
CTABLESTYLE
350
84C2
  3
CVIEWDETAILSTYLE
350
84C4
  3
CVIEWSECTIONSTYLE
350
84C5
  3
DIMASSOC
350
84C9
  3
INDEXCTL
350
84C8
  3
SORTENTS
350
84C7
  3
XCLIPFRAME
350
84CA
  0
XRECORD
  5
8657
102
{ACAD_REACTORS
330
840E
102
}
330
840E
100
AcDbXrecord
280
     1
  1
DWGPROPS COOKIE
  2

  3

  4

  6

  7

  8
yasukiyo.ogawa
  9

300
=
301
=
302
=
303
=
304
=
305
=
306
=
307
=
308
=
309
=
 40
0.0220747106481482
 41
2451898.461951968
 42
2460280.718255104
  1

 90
        0
  0
XRECORD
  5
84B8
102
{ACAD_REACTORS
330
84B7
102
}
330
84B7
100
AcDbXrecord
280
     1
290
     1
  0
XRECORD
  5
84BA
102
{ACAD_REACTORS
330
84B9
102
}
330
84B9
100
AcDbXrecord
280
     1
290
     1
  0
XRECORD
  5
84BC
102
{ACAD_REACTORS
330
84BB
102
}
330
84BB
100
AcDbXrecord
280
     1
290
     1
  0
XRECORD
  5
84BE
102
{ACAD_REACTORS
330
84BD
102
}
330
84BD
100
AcDbXrecord
280
     1
290
     1
  0
XRECORD
  5
84C0
102
{ACAD_REACTORS
330
84BF
102
}
330
84BF
100
AcDbXrecord
280
     1
290
     1
  0
SORTENTSTABLE
  5
8536
102
{ACAD_REACTORS
330
8535
102
}
330
8535
100
AcDbSortentsTable
330
8471
331
80B1
  5
825C
331
80A0
  5
80A2
331
7CBD
  5
7CBF
331
7C70
  5
7C72
331
7C5F
  5
7C61
331
7C4E
  5
7C51
331
7C3D
  5
7C3F
331
7C1B
  5
7C1D
331
80A1
  5
80A3
331
7CF9
  5
7D00
331
7CE0
  5
7CE2
331
8269
  5
8283
331
7C71
  5
7C73
331
7C60
  5
7C62
331
7C4F
  5
7C55
331
7C3E
  5
7C40
331
7C2D
  5
7C2F
331
7C1C
  5
7C1E
331
7CCF
  5
7CD3
331
7CBE
  5
7CC0
331
7C9C
  5
7C9E
331
7D00
  5
7D07
331
80A2
  5
80A4
331
7CE1
  5
7CE3
331
7CBF
  5
7CC2
331
7CAE
  5
7CB0
331
7C9D
  5
7CA0
331
7C72
  5
7C74
331
7C61
  5
7C63
331
7C3F
  5
7C41
331
7C2E
  5
7C30
331
7C1D
  5
7C1F
331
7C0C
  5
7C0C
331
7D01
  5
8060
331
7CC0
  5
7CC3
331
851A
  5
8534
331
8092
  5
8094
331
7CE2
  5
7CE4
331
80A3
  5
80A5
331
8276
  5
8290
331
7C9E
  5
7CA1
331
7C73
  5
7C75
331
7C62
  5
7C64
331
7C51
  5
7C56
331
7C40
  5
7C42
331
7C2F
  5
7C31
331
7C1E
  5
7C20
331
7CAF
  5
7CB1
331
7C0D
  5
7C0D
331
80A4
  5
80A6
331
8093
  5
8095
331
7CE3
  5
7CE5
331
7CD2
  5
7CD4
331
7CB0
  5
7CB2
331
7C8E
  5
7C91
331
7C74
  5
7C76
331
7C63
  5
7C65
331
7C41
  5
7C43
331
7C30
  5
7C32
331
7C1F
  5
7C21
331
7C0E
  5
7C0E
331
8094
  5
8098
331
7CE4
  5
7CE6
331
7CD3
  5
7CD5
331
7CC2
  5
7CC6
331
7CB1
  5
7CB3
331
7CA0
  5
7CA7
331
80A5
  5
80A7
331
7CFD
  5
7D01
331
825C
  5
8276
331
7C64
  5
7C66
331
7C42
  5
7C44
331
7C31
  5
7C33
331
7C20
  5
7C22
331
7C75
  5
7C77
331
7C0F
  5
7C0F
331
80A6
  5
80A8
331
8095
  5
8099
331
7CE5
  5
7CE7
331
7CD4
  5
7CD8
331
7CC3
  5
7CC7
331
7CB2
  5
7CB6
331
7CA1
  5
7CA8
331
7C90
  5
7C92
331
8214
  5
8269
331
7C43
  5
7C45
331
7C32
  5
7C34
331
7C21
  5
7C23
331
7C76
  5
7C78
331
7C65
  5
7C67
331
7C10
  5
7C10
331
850D
  5
8527
331
7CD5
  5
7CDC
331
7CB3
  5
7CB7
331
7C91
  5
7C93
331
7C80
  5
7C82
331
8290
  5
851A
331
80A7
  5
80A9
331
7C77
  5
7C79
331
7C66
  5
7C68
331
7C55
  5
7C57
331
7C44
  5
7C47
331
7C33
  5
7C35
331
7C22
  5
7C24
331
80A8
  5
80AA
331
7C92
  5
7C94
331
7C81
  5
7C83
331
7C78
  5
7C7A
331
7C67
  5
7C69
331
7C56
  5
7C58
331
7C45
  5
7C48
331
7C34
  5
7C36
331
7C23
  5
7C25
331
7C12
  5
7C12
331
80A9
  5
80AB
331
8098
  5
809A
331
7D07
  5
8092
331
7CC6
  5
7CCA
331
7C93
  5
7C95
331
7C82
  5
7C84
331
7C79
  5
7C7B
331
7C68
  5
7C6A
331
7C57
  5
7C59
331
7C24
  5
7C26
331
7C13
  5
7C13
331
7CD8
  5
7CDD
331
7CC7
  5
7CCB
331
7CB6
  5
7CB8
331
7C94
  5
7C96
331
7C83
  5
7C85
331
7C7A
  5
7C7C
331
7C69
  5
7C6B
331
7C58
  5
7C5A
331
80AA
  5
80AC
331
8099
  5
809B
331
7C36
  5
7C38
331
7C25
  5
7C27
331
7C14
  5
7C14
331
80AB
  5
80AD
331
809A
  5
809C
331
7CB7
  5
7CB9
331
7C95
  5
7C97
331
7C84
  5
7C86
331
7C7B
  5
7C7D
331
7C6A
  5
7C6C
331
7C59
  5
7C5B
331
7C37
  5
7C39
331
7C26
  5
7C28
331
7C15
  5
7C17
331
80AC
  5
80AE
331
809B
  5
809D
331
7CB8
  5
7CBA
331
7CA7
  5
7CA9
331
7C96
  5
7C98
331
7C85
  5
7C87
331
7C7C
  5
7C7E
331
7C6B
  5
7C6D
331
7C5A
  5
7C5C
331
7C38
  5
7C3A
331
7C27
  5
7C29
331
7C16
  5
7C18
331
80AD
  5
80AF
331
809C
  5
809F
331
7CB9
  5
7CBB
331
7CA8
  5
7CAA
331
7C97
  5
7C99
331
7C86
  5
7C88
331
7C7D
  5
7C7F
331
7C6C
  5
7C6E
331
7C5B
  5
7C5D
331
7C4A
  5
7C4C
331
7C39
  5
7C3B
331
7C28
  5
7C2D
331
7C17
  5
7C19
331
80AE
  5
80B0
331
809D
  5
80A0
331
7CDC
  5
7CDE
331
7CBA
  5
7CBC
331
7CA9
  5
7CAB
331
7C98
  5
7C9C
331
7C87
  5
7C89
331
7C7E
  5
7C80
331
7C6D
  5
7C6F
331
7C5C
  5
7C5E
331
7C4B
  5
7C4D
331
7C3A
  5
7C3C
331
7C29
  5
7C2E
331
7C18
  5
7C1A
331
80AF
  5
80B1
331
7CDD
  5
7CE0
331
7CBB
  5
7CBD
331
7CAA
  5
7CAE
331
7C99
  5
7C9D
331
7C88
  5
7C8A
331
7C7F
  5
7C81
331
7C6E
  5
7C70
331
7C5D
  5
7C5F
331
7C4C
  5
7C4E
331
7C3B
  5
7C3D
331
7C19
  5
7C1B
331
80B0
  5
8214
331
8283
  5
850D
331
7CAB
  5
7CAF
331
7C6F
  5
7C71
331
7C5E
  5
7C60
331
7C4D
  5
7C4F
331
7C3C
  5
7C3E
331
7C1A
  5
7C1C
331
8527
  5
8537
331
809F
  5
80A1
331
7CDE
  5
7CE1
331
7CCD
  5
7CD2
331
7CBC
  5
7CBE
  0
ACDBDETAILVIEWSTYLE
  5
846C
102
{ACAD_XDICTIONARY
360
868F
102
}
102
{ACAD_REACTORS
330
846B
102
}
330
846B
100
AcDbModelDocViewStyle
 70
     0
  3
Imperial24
290
     0
100
AcDbDetailViewStyle
 70
     0
 71
     0
 90
        3
 71
     1
340
8457
 40
0.24
340
0
 40
0.24
300

 40
0.36
280
     3
 71
     2
340
845E
 90
       25
 71
     3
340
8457
 40
0.24
 90
        1
 40
0.75
 90
        1
300
%<\AcVar ViewType \f "%tc1">% %<\AcVar ViewDetailId>%\PSCALE %<\AcVar ViewScale \f "%sn">%
 71
     4
340
845E
 90
       25
340
845E
 90
       25
280
     0
  0
LAYOUT
  5
8474
102
{ACAD_XDICTIONARY
360
8693
102
}
102
{ACAD_REACTORS
330
8463
102
}
330
8463
100
AcDbPlotSettings
  1

  2
RICOH imagio MP W3600 RPCS
  4

  6

 40
0.0
 41
0.0
 42
0.0
 43
0.0
 44
0.0
 45
0.0
 46
0.0
 47
0.0
 48
0.0
 49
0.0
140
0.0
141
0.0
142
1.0
143
1.0
 70
  1712
 72
     0
 73
     0
 74
     0
  7

 75
     0
147
1.0
148
0.0
149
0.0
100
AcDbLayout
  1
Model
 70
     1
 71
     0
 10
0.0
 20
0.0
 11
12.0
 21
9.0
 12
0.0
 22
0.0
 32
0.0
 14
0.0
 24
0.0
 34
0.0
 15
0.0
 25
0.0
 35
0.0
146
0.0
 13
0.0
 23
0.0
 33
0.0
 16
1.0
 26
0.0
 36
0.0
 17
0.0
 27
1.0
 37
0.0
 76
     0
330
8471
331
8476
  0
LAYOUT
  5
8470
102
{ACAD_XDICTIONARY
360
8691
102
}
102
{ACAD_REACTORS
330
8463
102
}
330
8463
100
AcDbPlotSettings
  1

  2
RICOH imagio MP W3600 RPCS
  4

  6

 40
0.0
 41
0.0
 42
0.0
 43
0.0
 44
0.0
 45
0.0
 46
0.0
 47
0.0
 48
0.0
 49
0.0
140
0.0
141
0.0
142
1.0
143
1.0
 70
   688
 72
     0
 73
     0
 74
     5
  7

 75
    16
147
1.0
148
0.0
149
0.0
100
AcDbLayout
  1
レイアウト1
 70
     1
 71
     1
 10
0.0
 20
0.0
 11
12.0
 21
9.0
 12
0.0
 22
0.0
 32
0.0
 14
1.000000000000000E+20
 24
1.000000000000000E+20
 34
1.000000000000000E+20
 15
-1.000000000000000E+20
 25
-1.000000000000000E+20
 35
-1.000000000000000E+20
146
0.0
 13
0.0
 23
0.0
 33
0.0
 16
1.0
 26
0.0
 36
0.0
 17
0.0
 27
1.0
 37
0.0
 76
     0
330
846D
  0
MATERIAL
  5
841B
102
{ACAD_XDICTIONARY
360
841C
102
}
102
{ACAD_REACTORS
330
8412
102
}
330
8412
100
AcDbMaterial
  1
ByBlock
 72
     0
 43
0.0208333333333333
 43
0.0
 43
0.0
 43
0.0
 43
0.0
 43
0.0208333333333333
 43
0.0
 43
0.0
 43
0.0
 43
0.0
 43
1.0
 43
0.0
 43
0.0
 43
0.0
 43
0.0
 43
1.0
 77
     0
 47
0.0208333333333333
 47
0.0
 47
0.0
 47
0.0
 47
0.0
 47
0.0208333333333333
 47
0.0
 47
0.0
 47
0.0
 47
0.0
 47
1.0
 47
0.0
 47
0.0
 47
0.0
 47
0.0
 47
1.0
171
     0
 49
0.0208333333333333
 49
0.0
 49
0.0
 49
0.0
 49
0.0
 49
0.0208333333333333
 49
0.0
 49
0.0
 49
0.0
 49
0.0
 49
1.0
 49
0.0
 49
0.0
 49
0.0
 49
0.0
 49
1.0
175
     0
142
0.0208333333333333
142
0.0
142
0.0
142
0.0
142
0.0
142
0.0208333333333333
142
0.0
142
0.0
142
0.0
142
0.0
142
1.0
142
0.0
142
0.0
142
0.0
142
0.0
142
1.0
179
     0
144
0.0208333333333333
144
0.0
144
0.0
144
0.0
144
0.0
144
0.0208333333333333
144
0.0
144
0.0
144
0.0
144
0.0
144
1.0
144
0.0
144
0.0
144
0.0
144
0.0
144
1.0
147
0.0208333333333333
147
0.0
147
0.0
147
0.0
147
0.0
147
0.0208333333333333
147
0.0
147
0.0
147
0.0
147
0.0
147
1.0
147
0.0
147
0.0
147
0.0
147
0.0
147
1.0
  0
MATERIAL
  5
8413
102
{ACAD_XDICTIONARY
360
8414
102
}
102
{ACAD_REACTORS
330
8412
102
}
330
8412
100
AcDbMaterial
  1
ByLayer
 72
     0
 43
0.0208333333333333
 43
0.0
 43
0.0
 43
0.0
 43
0.0
 43
0.0208333333333333
 43
0.0
 43
0.0
 43
0.0
 43
0.0
 43
1.0
 43
0.0
 43
0.0
 43
0.0
 43
0.0
 43
1.0
 77
     0
 47
0.0208333333333333
 47
0.0
 47
0.0
 47
0.0
 47
0.0
 47
0.0208333333333333
 47
0.0
 47
0.0
 47
0.0
 47
0.0
 47
1.0
 47
0.0
 47
0.0
 47
0.0
 47
0.0
 47
1.0
171
     0
 49
0.0208333333333333
 49
0.0
 49
0.0
 49
0.0
 49
0.0
 49
0.0208333333333333
 49
0.0
 49
0.0
 49
0.0
 49
0.0
 49
1.0
 49
0.0
 49
0.0
 49
0.0
 49
0.0
 49
1.0
175
     0
142
0.0208333333333333
142
0.0
142
0.0
142
0.0
142
0.0
142
0.0208333333333333
142
0.0
142
0.0
142
0.0
142
0.0
142
1.0
142
0.0
142
0.0
142
0.0
142
0.0
142
1.0
179
     0
144
0.0208333333333333
144
0.0
144
0.0
144
0.0
144
0.0
144
0.0208333333333333
144
0.0
144
0.0
144
0.0
144
0.0
144
1.0
144
0.0
144
0.0
144
0.0
144
0.0
144
1.0
147
0.0208333333333333
147
0.0
147
0.0
147
0.0
147
0.0
147
0.0208333333333333
147
0.0
147
0.0
147
0.0
147
0.0
147
1.0
147
0.0
147
0.0
147
0.0
147
0.0
147
1.0
  0
MATERIAL
  5
8423
102
{ACAD_XDICTIONARY
360
8424
102
}
102
{ACAD_REACTORS
330
8412
102
}
330
8412
100
AcDbMaterial
  1
Global
 72
     0
 43
0.0208333333333333
 43
0.0
 43
0.0
 43
0.0
 43
0.0
 43
0.0208333333333333
 43
0.0
 43
0.0
 43
0.0
 43
0.0
 43
1.0
 43
0.0
 43
0.0
 43
0.0
 43
0.0
 43
1.0
 77
     0
 47
0.0208333333333333
 47
0.0
 47
0.0
 47
0.0
 47
0.0
 47
0.0208333333333333
 47
0.0
 47
0.0
 47
0.0
 47
0.0
 47
1.0
 47
0.0
 47
0.0
 47
0.0
 47
0.0
 47
1.0
171
     0
 49
0.0208333333333333
 49
0.0
 49
0.0
 49
0.0
 49
0.0
 49
0.0208333333333333
 49
0.0
 49
0.0
 49
0.0
 49
0.0
 49
1.0
 49
0.0
 49
0.0
 49
0.0
 49
0.0
 49
1.0
175
     0
142
0.0208333333333333
142
0.0
142
0.0
142
0.0
142
0.0
142
0.0208333333333333
142
0.0
142
0.0
142
0.0
142
0.0
142
1.0
142
0.0
142
0.0
142
0.0
142
0.0
142
1.0
179
     0
144
0.0208333333333333
144
0.0
144
0.0
144
0.0
144
0.0
144
0.0208333333333333
144
0.0
144
0.0
144
0.0
144
0.0
144
1.0
144
0.0
144
0.0
144
0.0
144
0.0
144
1.0
147
0.0208333333333333
147
0.0
147
0.0
147
0.0
147
0.0
147
0.0208333333333333
147
0.0
147
0.0
147
0.0
147
0.0
147
1.0
147
0.0
147
0.0
147
0.0
147
0.0
147
1.0
  0
MLEADERSTYLE
  5
8468
102
{ACAD_REACTORS
330
8467
102
}
330
8467
100
AcDbMLeaderStyle
170
     2
171
     1
172
     0
 90
        2
 40
0.0
 41
0.0
173
     1
 91
-1056964608
340
845C
 92
       -2
290
     1
 42
0.09
291
     1
 43
0.36
  3
Standard
 44
0.18
300

342
8457
174
     1
178
     6
175
     1
176
     0
 93
-1056964608
 45
0.18
292
     0
297
     0
 46
0.18
 94
-1056964608
 47
1.0
 49
1.0
140
1.0
293
     1
141
0.0
294
     1
177
     0
142
1.0
295
     0
296
     0
143
0.125
1001
ACAD_MLEADERVER
1070
     2
  0
MLINESTYLE
  5
8461
102
{ACAD_REACTORS
330
8460
102
}
330
8460
100
AcDbMlineStyle
  2
STANDARD
 70
     0
  3

 62
   256
 51
90.0
 52
90.0
 71
     2
 49
0.5
 62
   256
  6
BYLAYER
 49
-0.5
 62
   256
  6
BYLAYER
  0
ACDBPLACEHOLDER
  5
8411
102
{ACAD_REACTORS
330
8410
102
}
330
8410
  0
SCALE
  5
8445
102
{ACAD_REACTORS
330
8444
102
}
330
8444
100
AcDbScale
 70
     0
300
1:1
140
1.0
141
1.0
290
     1
  0
SCALE
  5
8446
102
{ACAD_REACTORS
330
8444
102
}
330
8444
100
AcDbScale
 70
     0
300
1/128" = 1'-0"
140
0.0078125
141
12.0
290
     0
  0
SCALE
  5
8447
102
{ACAD_REACTORS
330
8444
102
}
330
8444
100
AcDbScale
 70
     0
300
1/64" = 1'-0"
140
0.015625
141
12.0
290
     0
  0
SCALE
  5
8448
102
{ACAD_REACTORS
330
8444
102
}
330
8444
100
AcDbScale
 70
     0
300
1/32" = 1'-0"
140
0.03125
141
12.0
290
     0
  0
SCALE
  5
8449
102
{ACAD_REACTORS
330
8444
102
}
330
8444
100
AcDbScale
 70
     0
300
1/16" = 1'-0"
140
0.0625
141
12.0
290
     0
  0
SCALE
  5
844A
102
{ACAD_REACTORS
330
8444
102
}
330
8444
100
AcDbScale
 70
     0
300
3/32" = 1'-0"
140
0.09375
141
12.0
290
     0
  0
SCALE
  5
844B
102
{ACAD_REACTORS
330
8444
102
}
330
8444
100
AcDbScale
 70
     0
300
1/8" = 1'-0"
140
0.125
141
12.0
290
     0
  0
SCALE
  5
844C
102
{ACAD_REACTORS
330
8444
102
}
330
8444
100
AcDbScale
 70
     0
300
3/16" = 1'-0"
140
0.1875
141
12.0
290
     0
  0
SCALE
  5
844D
102
{ACAD_REACTORS
330
8444
102
}
330
8444
100
AcDbScale
 70
     0
300
1/4" = 1'-0"
140
0.25
141
12.0
290
     0
  0
SCALE
  5
844E
102
{ACAD_REACTORS
330
8444
102
}
330
8444
100
AcDbScale
 70
     0
300
3/8" = 1'-0"
140
0.375
141
12.0
290
     0
  0
SCALE
  5
844F
102
{ACAD_REACTORS
330
8444
102
}
330
8444
100
AcDbScale
 70
     0
300
1/2" = 1'-0"
140
0.5
141
12.0
290
     0
  0
SCALE
  5
8450
102
{ACAD_REACTORS
330
8444
102
}
330
8444
100
AcDbScale
 70
     0
300
3/4" = 1'-0"
140
0.75
141
12.0
290
     0
  0
SCALE
  5
8451
102
{ACAD_REACTORS
330
8444
102
}
330
8444
100
AcDbScale
 70
     0
300
1" = 1'-0"
140
1.0
141
12.0
290
     0
  0
SCALE
  5
8452
102
{ACAD_REACTORS
330
8444
102
}
330
8444
100
AcDbScale
 70
     0
300
1-1/2" = 1'-0"
140
1.5
141
12.0
290
     0
  0
SCALE
  5
8453
102
{ACAD_REACTORS
330
8444
102
}
330
8444
100
AcDbScale
 70
     0
300
3" = 1'-0"
140
3.0
141
12.0
290
     0
  0
SCALE
  5
8454
102
{ACAD_REACTORS
330
8444
102
}
330
8444
100
AcDbScale
 70
     0
300
6" = 1'-0"
140
6.0
141
12.0
290
     0
  0
SCALE
  5
8455
102
{ACAD_REACTORS
330
8444
102
}
330
8444
100
AcDbScale
 70
     0
300
1'-0" = 1'-0"
140
12.0
141
12.0
290
     0
  0
ACDBSECTIONVIEWSTYLE
  5
846A
102
{ACAD_XDICTIONARY
360
868D
102
}
102
{ACAD_REACTORS
330
8469
102
}
330
8469
100
AcDbModelDocViewStyle
 70
     0
  3
Imperial24
290
     0
100
AcDbSectionViewStyle
 70
     0
 71
     0
 90
       78
 71
     1
340
8457
 40
0.24
340
0
340
0
 40
0.24
300
I, O, Q, S, X, Z
 40
0.48
 90
        3
 40
0.18
 90
        1
 71
     2
340
845E
 90
       25
340
845E
 90
       50
 40
0.24
 40
0.0
 40
0.24
 71
     3
340
8457
 40
0.24
 90
        1
 40
0.75
 90
        1
300
%<\AcVar ViewType \f "%tc1">% %<\AcVar ViewSectionStartId>%-%<\AcVar ViewSectionEndId>%\PSCALE %<\AcVar ViewScale \f "%sn">%
 71
     4
300
ANSI31
 40
1.0
 90
        0
290
     0
290
     0
 90
        6
 40
0.0
 40
1.570796326794896
 40
0.2617993877991494
 40
1.308996938995747
 40
-0.2617993877991494
 40
1.832595714594046
  0
TABLESTYLE
  5
8466
102
{ACAD_XDICTIONARY
360
8654
102
}
102
{ACAD_REACTORS
330
8465
102
}
330
8465
100
AcDbTableStyle
  3
Standard
 70
     0
 71
     0
 40
0.06
 41
0.06
280
     0
281
     0
  7
STANDARD
140
0.18
170
     2
 62
     0
 63
     7
283
     0
274
    -2
284
     1
 64
     0
275
    -2
285
     1
 65
     0
276
    -2
286
     1
 66
     0
277
    -2
287
     1
 67
     0
278
    -2
288
     1
 68
     0
279
    -2
289
     1
 69
     0
  7
STANDARD
140
0.25
170
     5
 62
     0
 63
     7
283
     0
274
    -2
284
     1
 64
     0
275
    -2
285
     1
 65
     0
276
    -2
286
     1
 66
     0
277
    -2
287
     1
 67
     0
278
    -2
288
     1
 68
     0
279
    -2
289
     1
 69
     0
  7
STANDARD
140
0.18
170
     5
 62
     0
 63
     7
283
     0
274
    -2
284
     1
 64
     0
275
    -2
285
     1
 65
     0
276
    -2
286
     1
 66
     0
277
    -2
287
     1
 67
     0
278
    -2
288
     1
 68
     0
279
    -2
289
     1
 69
     0
  0
VISUALSTYLE
  5
8431
102
{ACAD_XDICTIONARY
360
8665
102
}
102
{ACAD_REACTORS
330
842B
102
}
330
842B
100
AcDbVisualStyle
  2
2dWireframe
 70
     4
 71
     0
 72
     2
 73
     0
 90
        0
 40
-0.6
 41
-30.0
 62
     5
 63
     7
 74
     1
 91
        4
 64
     7
 65
   257
 75
     1
175
     1
 42
1.0
 92
        0
 66
   257
 43
1.0
 76
     1
 77
     6
 78
     2
 67
     7
 79
     5
170
     0
171
     0
290
     0
174
     0
 93
        1
 44
0.0
173
     0
291
     0
 45
0.0
1001
ACAD
1000
AcDbSavedByObjectVersion
1070
     0
  0
VISUALSTYLE
  5
8430
102
{ACAD_XDICTIONARY
360
8663
102
}
102
{ACAD_REACTORS
330
842B
102
}
330
842B
100
AcDbVisualStyle
  2
Basic
 70
     7
 71
     1
 72
     0
 73
     1
 90
        0
 40
-0.6
 41
-30.0
 62
     5
 63
     7
 74
     0
 91
        4
 64
     7
 65
   257
 75
     1
175
     1
 42
1.0
 92
        8
 66
     7
 43
1.0
 76
     1
 77
     6
 78
     2
 67
     7
 79
     5
170
     0
171
     0
290
     0
174
     0
 93
        1
 44
0.0
173
     0
291
     1
 45
0.0
1001
ACAD
1000
AcDbSavedByObjectVersion
1070
     0
  0
VISUALSTYLE
  5
8437
102
{ACAD_XDICTIONARY
360
8671
102
}
102
{ACAD_REACTORS
330
842B
102
}
330
842B
100
AcDbVisualStyle
  2
Brighten
 70
    12
 71
     2
 72
     2
 73
     0
 90
        0
 40
-0.6
 41
-30.0
 62
     5
 63
     7
 74
     1
 91
        4
 64
     7
 65
   257
 75
     1
175
     1
 42
1.0
 92
        8
 66
     7
 43
1.0
 76
     1
 77
     6
 78
     2
 67
     7
 79
     5
170
     0
171
     0
290
     0
174
     0
 93
        1
 44
50.0
173
     0
291
     1
 45
0.0
1001
ACAD
1000
AcDbSavedByObjectVersion
1070
     0
  0
VISUALSTYLE
  5
843B
102
{ACAD_XDICTIONARY
360
8679
102
}
102
{ACAD_REACTORS
330
842B
102
}
330
842B
100
AcDbVisualStyle
  2
ColorChange
 70
    16
 71
     2
 72
     2
 73
     3
 90
        0
 40
-0.6
 41
-30.0
 62
     5
 63
     8
 74
     1
 91
        4
 64
     7
 65
   257
 75
     1
175
     1
 42
1.0
 92
        8
 66
     8
 43
1.0
 76
     1
 77
     6
 78
     2
 67
     7
 79
     5
170
     0
171
     0
290
     0
174
     0
 93
        1
 44
0.0
173
     0
291
     1
 45
0.0
1001
ACAD
1000
AcDbSavedByObjectVersion
1070
     0
  0
VISUALSTYLE
  5
8434
102
{ACAD_XDICTIONARY
360
866B
102
}
102
{ACAD_REACTORS
330
842B
102
}
330
842B
100
AcDbVisualStyle
  2
Conceptual
 70
     9
 71
     3
 72
     2
 73
     0
 90
        0
 40
-0.6
 41
-30.0
 62
     5
 63
     7
 74
     2
 91
        2
 64
     7
 65
   257
 75
     1
175
     1
 42
179.0
 92
        8
 66
     7
 43
1.0
 76
     1
 77
     6
 78
     2
 67
     7
 79
     3
170
     0
171
     0
290
     0
174
     0
 93
        1
 44
0.0
173
     0
291
     0
 45
0.0
1001
ACAD
1000
AcDbSavedByObjectVersion
1070
     0
  0
VISUALSTYLE
  5
8436
102
{ACAD_XDICTIONARY
360
866F
102
}
102
{ACAD_REACTORS
330
842B
102
}
330
842B
100
AcDbVisualStyle
  2
Dim
 70
    11
 71
     2
 72
     2
 73
     0
 90
        0
 40
-0.6
 41
-30.0
 62
     5
 63
     7
 74
     1
 91
        4
 64
     7
 65
   257
 75
     1
175
     1
 42
1.0
 92
        8
 66
     7
 43
1.0
 76
     1
 77
     6
 78
     2
 67
     7
 79
     5
170
     0
171
     0
290
     0
174
     0
 93
        1
 44
-50.0
173
     0
291
     1
 45
0.0
1001
ACAD
1000
AcDbSavedByObjectVersion
1070
     0
  0
VISUALSTYLE
  5
8443
102
{ACAD_XDICTIONARY
360
8689
102
}
102
{ACAD_REACTORS
330
842B
102
}
330
842B
100
AcDbVisualStyle
  2
EdgeColorOff
 70
    22
 71
     2
 72
     2
 73
     0
 90
        0
 40
-0.6
 41
-30.0
 62
     5
 63
     7
 74
     1
 91
        4
 64
     7
 65
   257
 75
     1
175
     1
 42
1.0
 92
        8
 66
     7
 43
1.0
 76
     1
 77
     6
 78
     2
 67
     7
 79
     5
170
     0
171
     0
290
     0
174
     0
 93
        1
 44
0.0
173
     0
291
     1
 45
0.0
1001
ACAD
1000
AcDbSavedByObjectVersion
1070
     0
  0
VISUALSTYLE
  5
843A
102
{ACAD_XDICTIONARY
360
8677
102
}
102
{ACAD_REACTORS
330
842B
102
}
330
842B
100
AcDbVisualStyle
  2
Facepattern
 70
    15
 71
     2
 72
     2
 73
     0
 90
        0
 40
-0.6
 41
-30.0
 62
     5
 63
     7
 74
     1
 91
        4
 64
     7
 65
   257
 75
     1
175
     1
 42
1.0
 92
        8
 66
     7
 43
1.0
 76
     1
 77
     6
 78
     2
 67
     7
 79
     5
170
     0
171
     0
290
     0
174
     0
 93
        1
 44
0.0
173
     0
291
     1
 45
0.0
1001
ACAD
1000
AcDbSavedByObjectVersion
1070
     0
  0
VISUALSTYLE
  5
842C
102
{ACAD_XDICTIONARY
360
865B
102
}
102
{ACAD_REACTORS
330
842B
102
}
330
842B
100
AcDbVisualStyle
  2
Flat
 70
     0
 71
     2
 72
     1
 73
     1
 90
        2
 40
-0.6
 41
30.0
 62
     5
 63
     7
 74
     0
 91
        0
 64
     7
 65
   257
 75
     1
175
     1
 42
1.0
 92
        8
 66
     7
 43
1.0
 76
     1
 77
     6
 78
     2
 67
     7
 79
     5
170
     0
171
     0
290
     0
174
     0
 93
       13
 44
0.0
173
     0
291
     1
 45
0.0
1001
ACAD
1000
AcDbSavedByObjectVersion
1070
     0
  0
VISUALSTYLE
  5
842D
102
{ACAD_XDICTIONARY
360
865D
102
}
102
{ACAD_REACTORS
330
842B
102
}
330
842B
100
AcDbVisualStyle
  2
FlatWithEdges
 70
     1
 71
     2
 72
     1
 73
     1
 90
        2
 40
-0.6
 41
30.0
 62
     5
 63
     7
 74
     1
 91
        0
 64
     7
 65
   257
 75
     1
175
     1
 42
1.0
 92
        0
 66
   257
 43
1.0
 76
     1
 77
     6
 78
     2
 67
     7
 79
     5
170
     0
171
     0
290
     0
174
     0
 93
       13
 44
0.0
173
     0
291
     1
 45
0.0
1001
ACAD
1000
AcDbSavedByObjectVersion
1070
     0
  0
VISUALSTYLE
  5
842E
102
{ACAD_XDICTIONARY
360
865F
102
}
102
{ACAD_REACTORS
330
842B
102
}
330
842B
100
AcDbVisualStyle
  2
Gouraud
 70
     2
 71
     2
 72
     2
 73
     1
 90
        2
 40
-0.6
 41
30.0
 62
     5
 63
     7
 74
     0
 91
        0
 64
     7
 65
   257
 75
     1
175
     1
 42
1.0
 92
        0
 66
     7
 43
1.0
 76
     1
 77
     6
 78
     2
 67
     7
 79
     5
170
     0
171
     0
290
     0
174
     0
 93
       13
 44
0.0
173
     0
291
     1
 45
0.0
1001
ACAD
1000
AcDbSavedByObjectVersion
1070
     0
  0
VISUALSTYLE
  5
842F
102
{ACAD_XDICTIONARY
360
8661
102
}
102
{ACAD_REACTORS
330
842B
102
}
330
842B
100
AcDbVisualStyle
  2
GouraudWithEdges
 70
     3
 71
     2
 72
     2
 73
     1
 90
        2
 40
-0.6
 41
30.0
 62
     5
 63
     7
 74
     1
 91
        0
 64
     7
 65
   257
 75
     1
175
     1
 42
1.0
 92
        0
 66
   257
 43
1.0
 76
     1
 77
     6
 78
     2
 67
     7
 79
     5
170
     0
171
     0
290
     0
174
     0
 93
       13
 44
0.0
173
     0
291
     1
 45
0.0
1001
ACAD
1000
AcDbSavedByObjectVersion
1070
     0
  0
VISUALSTYLE
  5
8433
102
{ACAD_XDICTIONARY
360
8669
102
}
102
{ACAD_REACTORS
330
842B
102
}
330
842B
100
AcDbVisualStyle
  2
Hidden
 70
     6
 71
     1
 72
     2
 73
     2
 90
        0
 40
-0.6
 41
-30.0
 62
     5
 63
     7
 74
     2
 91
        2
 64
     7
 65
   257
 75
     2
175
     1
 42
40.0
 92
        0
 66
   257
 43
1.0
 76
     1
 77
     6
 78
     2
 67
     7
 79
     3
170
     0
171
     0
290
     0
174
     0
 93
        1
 44
0.0
173
     0
291
     0
 45
0.0
1001
ACAD
1000
AcDbSavedByObjectVersion
1070
     0
  0
VISUALSTYLE
  5
8441
102
{ACAD_XDICTIONARY
360
8685
102
}
102
{ACAD_REACTORS
330
842B
102
}
330
842B
100
AcDbVisualStyle
  2
JitterOff
 70
    20
 71
     2
 72
     2
 73
     0
 90
        0
 40
-0.6
 41
-30.0
 62
     5
 63
     7
 74
     1
 91
        4
 64
     7
 65
   257
 75
     1
175
     1
 42
1.0
 92
       10
 66
     7
 43
1.0
 76
     1
 77
     6
 78
     2
 67
     7
 79
     5
170
     0
171
     0
290
     0
174
     0
 93
        1
 44
0.0
173
     0
291
     1
 45
0.0
1001
ACAD
1000
AcDbSavedByObjectVersion
1070
     0
  0
VISUALSTYLE
  5
8439
102
{ACAD_XDICTIONARY
360
8675
102
}
102
{ACAD_REACTORS
330
842B
102
}
330
842B
100
AcDbVisualStyle
  2
Linepattern
 70
    14
 71
     2
 72
     2
 73
     0
 90
        0
 40
-0.6
 41
-30.0
 62
     5
 63
     7
 74
     1
 91
        4
 64
     7
 65
   257
 75
     7
175
     7
 42
1.0
 92
        8
 66
     7
 43
1.0
 76
     1
 77
     6
 78
     2
 67
     7
 79
     5
170
     0
171
     0
290
     0
174
     0
 93
        1
 44
0.0
173
     0
291
     1
 45
0.0
1001
ACAD
1000
AcDbSavedByObjectVersion
1070
     0
  0
VISUALSTYLE
  5
8442
102
{ACAD_XDICTIONARY
360
8687
102
}
102
{ACAD_REACTORS
330
842B
102
}
330
842B
100
AcDbVisualStyle
  2
OverhangOff
 70
    21
 71
     2
 72
     2
 73
     0
 90
        0
 40
-0.6
 41
-30.0
 62
     5
 63
     7
 74
     1
 91
        4
 64
     7
 65
   257
 75
     1
175
     1
 42
1.0
 92
        9
 66
     7
 43
1.0
 76
     1
 77
     6
 78
     2
 67
     7
 79
     5
170
     0
171
     0
290
     0
174
     0
 93
        1
 44
0.0
173
     0
291
     1
 45
0.0
1001
ACAD
1000
AcDbSavedByObjectVersion
1070
     0
  0
VISUALSTYLE
  5
8435
102
{ACAD_XDICTIONARY
360
866D
102
}
102
{ACAD_REACTORS
330
842B
102
}
330
842B
100
AcDbVisualStyle
  2
Realistic
 70
     8
 71
     2
 72
     3
 73
     0
 90
        2
 40
-0.6
 41
30.0
 62
     5
 63
     7
 74
     0
 91
        0
 64
     7
 65
   257
 75
     1
175
     1
 42
1.0
 92
        8
 66
   257
 43
1.0
 76
     1
 77
     6
 78
     2
 67
     7
 79
     3
170
     0
171
     0
290
     0
174
     0
 93
       13
 44
0.0
173
     0
291
     0
 45
0.0
1001
ACAD
1000
AcDbSavedByObjectVersion
1070
     0
  0
VISUALSTYLE
  5
8440
102
{ACAD_XDICTIONARY
360
8683
102
}
102
{ACAD_REACTORS
330
842B
102
}
330
842B
100
AcDbVisualStyle
  2
Shaded
 70
    27
 71
     2
 72
     2
 73
     1
 90
        2
 40
-0.6
 41
30.0
 62
     5
 63
     7
 74
     0
 91
        4
 64
     7
 65
   257
 75
     1
175
     1
 42
1.0
 92
        8
 66
   257
 43
1.0
 76
     1
 77
     6
 78
     2
 67
     8
 79
     3
170
     0
171
     0
290
     0
174
     0
 93
        5
 44
0.0
173
     0
291
     0
 45
0.0
1001
ACAD
1000
AcDbSavedByObjectVersion
1070
     0
  0
VISUALSTYLE
  5
843F
102
{ACAD_XDICTIONARY
360
8681
102
}
102
{ACAD_REACTORS
330
842B
102
}
330
842B
100
AcDbVisualStyle
  2
Shaded with edges
 70
    26
 71
     2
 72
     2
 73
     1
 90
        2
 40
-0.6
 41
30.0
 62
     5
 63
     7
 74
     1
 91
       10
 64
     7
 65
   257
 75
     2
175
     1
 42
1.0
 92
        8
 66
   257
 43
1.0
 76
     1
 77
     6
 78
     2
 67
     7
 79
     3
170
     0
171
     0
290
     0
174
     0
 93
        5
 44
0.0
173
     0
291
     0
 45
0.0
1001
ACAD
1000
AcDbSavedByObjectVersion
1070
     0
  0
VISUALSTYLE
  5
843C
102
{ACAD_XDICTIONARY
360
867B
102
}
102
{ACAD_REACTORS
330
842B
102
}
330
842B
100
AcDbVisualStyle
  2
Shades of Gray
 70
    23
 71
     2
 72
     2
 73
     3
 90
        0
 40
-0.6
 41
-30.0
 62
     5
 63
     7
 74
     2
 91
        2
 64
     7
 65
     7
 75
     1
175
     1
 42
40.0
 92
        8
 66
     7
 43
1.0
 76
     1
 77
     6
 78
     2
 67
     7
 79
     3
170
     0
171
     0
290
     0
174
     0
 93
        1
 44
0.0
173
     0
291
     0
 45
0.0
1001
ACAD
1000
AcDbSavedByObjectVersion
1070
     0
  0
VISUALSTYLE
  5
843D
102
{ACAD_XDICTIONARY
360
867D
102
}
102
{ACAD_REACTORS
330
842B
102
}
330
842B
100
AcDbVisualStyle
  2
Sketchy
 70
    24
 71
     1
 72
     2
 73
     2
 90
        0
 40
-0.6
 41
-30.0
 62
     5
 63
     7
 74
     2
 91
        2
 64
     7
 65
     7
 75
     1
175
     1
 42
40.0
 92
       11
 66
     7
 43
1.0
 76
     1
 77
     6
 78
     2
 67
     7
 79
     6
170
     0
171
     0
290
     0
174
     0
 93
        1
 44
0.0
173
     0
291
     0
 45
0.0
1001
ACAD
1000
AcDbSavedByObjectVersion
1070
     0
  0
VISUALSTYLE
  5
8438
102
{ACAD_XDICTIONARY
360
8673
102
}
102
{ACAD_REACTORS
330
842B
102
}
330
842B
100
AcDbVisualStyle
  2
Thicken
 70
    13
 71
     2
 72
     2
 73
     0
 90
        0
 40
-0.6
 41
-30.0
 62
     5
 63
     7
 74
     1
 91
        4
 64
     7
 65
   257
 75
     1
175
     1
 42
1.0
 92
       12
 66
     7
 43
1.0
 76
     1
 77
     6
 78
     2
 67
     7
 79
     5
170
     0
171
     0
290
     0
174
     0
 93
        1
 44
0.0
173
     0
291
     1
 45
0.0
1001
ACAD
1000
AcDbSavedByObjectVersion
1070
     0
  0
VISUALSTYLE
  5
8432
102
{ACAD_XDICTIONARY
360
8667
102
}
102
{ACAD_REACTORS
330
842B
102
}
330
842B
100
AcDbVisualStyle
  2
Wireframe
 70
     5
 71
     0
 72
     2
 73
     0
 90
        0
 40
-0.6
 41
-30.0
 62
     5
 63
     7
 74
     1
 91
        4
 64
     7
 65
   257
 75
     1
175
     1
 42
1.0
 92
        0
 66
   257
 43
1.0
 76
     1
 77
     6
 78
     2
 67
     7
 79
     3
170
     0
171
     0
290
     0
174
     0
 93
        1
 44
0.0
173
     0
291
     0
 45
0.0
1001
ACAD
1000
AcDbSavedByObjectVersion
1070
     0
  0
VISUALSTYLE
  5
843E
102
{ACAD_XDICTIONARY
360
867F
102
}
102
{ACAD_REACTORS
330
842B
102
}
330
842B
100
AcDbVisualStyle
  2
X-Ray
 70
    25
 71
     2
 72
     2
 73
     1
 90
        1
 40
0.5
 41
-30.0
 62
     5
 63
     7
 74
     1
 91
        0
 64
     7
 65
   257
 75
     1
175
     1
 42
1.0
 92
        8
 66
     7
 43
1.0
 76
     1
 77
     6
 78
     2
 67
     7
 79
     3
170
     0
171
     0
290
     0
174
     0
 93
       13
 44
0.0
173
     0
291
     0
 45
0.0
1001
ACAD
1000
AcDbSavedByObjectVersion
1070
     0
  0
DICTIONARYVAR
  5
84C6
102
{ACAD_REACTORS
330
84C1
102
}
330
84C1
100
DictionaryVariables
280
     0
  1
1:1
  0
DICTIONARYVAR
  5
84C3
102
{ACAD_REACTORS
330
84C1
102
}
330
84C1
100
DictionaryVariables
280
     0
  1
STANDARD
  0
DICTIONARYVAR
  5
84C2
102
{ACAD_REACTORS
330
84C1
102
}
330
84C1
100
DictionaryVariables
280
     0
  1
STANDARD
  0
DICTIONARYVAR
  5
84C4
102
{ACAD_REACTORS
330
84C1
102
}
330
84C1
100
DictionaryVariables
280
     0
  1
Imperial24
  0
DICTIONARYVAR
  5
84C5
102
{ACAD_REACTORS
330
84C1
102
}
330
84C1
100
DictionaryVariables
280
     0
  1
Imperial24
  0
DICTIONARYVAR
  5
84C9
102
{ACAD_REACTORS
330
84C1
102
}
330
84C1
100
DictionaryVariables
280
     0
  1
1
  0
DICTIONARYVAR
  5
84C8
102
{ACAD_REACTORS
330
84C1
102
}
330
84C1
100
DictionaryVariables
280
     0
  1
0
  0
DICTIONARYVAR
  5
84C7
102
{ACAD_REACTORS
330
84C1
102
}
330
84C1
100
DictionaryVariables
280
     0
  1
127
  0
DICTIONARYVAR
  5
84CA
102
{ACAD_REACTORS
330
84C1
102
}
330
84C1
100
DictionaryVariables
280
     0
  1
2
  0
DICTIONARY
  5
868F
330
846C
100
AcDbDictionary
280
     1
281
     1
  3
ACAD_XREC_ROUNDTRIP
360
8690
  0
DICTIONARY
  5
8693
330
8474
100
AcDbDictionary
280
     1
281
     1
  3
ACAD_XREC_ROUNDTRIP
360
8694
  0
DICTIONARY
  5
8691
330
8470
100
AcDbDictionary
280
     1
281
     1
  3
ACAD_XREC_ROUNDTRIP
360
8692
  0
DICTIONARY
  5
841C
330
841B
100
AcDbDictionary
280
     1
281
     1
  3
ACAD_XREC_ROUNDTRIP
360
8659
  3
BUMPTILE
360
841E
  3
DIFFUSETILE
360
841D
  3
OPACITYTILE
360
8421
  3
REFLECTIONTILE
360
8420
  3
REFRACTIONTILE
360
8422
  3
SPECULARTILE
360
841F
  0
DICTIONARY
  5
8414
330
8413
100
AcDbDictionary
280
     1
281
     1
  3
ACAD_XREC_ROUNDTRIP
360
8658
  3
BUMPTILE
360
8416
  3
DIFFUSETILE
360
8415
  3
OPACITYTILE
360
8419
  3
REFLECTIONTILE
360
8418
  3
REFRACTIONTILE
360
841A
  3
SPECULARTILE
360
8417
  0
DICTIONARY
  5
8424
330
8423
100
AcDbDictionary
280
     1
281
     1
  3
ACAD_XREC_ROUNDTRIP
360
865A
  3
BUMPTILE
360
8426
  3
DIFFUSETILE
360
8425
  3
OPACITYTILE
360
8429
  3
REFLECTIONTILE
360
8428
  3
REFRACTIONTILE
360
842A
  3
SPECULARTILE
360
8427
  0
DICTIONARY
  5
868D
330
846A
100
AcDbDictionary
280
     1
281
     1
  3
ACAD_XREC_ROUNDTRIP
360
868E
  0
DICTIONARY
  5
8654
330
8466
100
AcDbDictionary
280
     1
281
     1
  3
ACAD_ROUNDTRIP_2008_TABLESTYLE_CELLSTYLEMAP
360
8655
  3
ACAD_XREC_ROUNDTRIP
360
868B
  0
DICTIONARY
  5
8665
330
8431
100
AcDbDictionary
280
     1
281
     1
  3
ACAD_XREC_ROUNDTRIP
360
8666
  0
DICTIONARY
  5
8663
330
8430
100
AcDbDictionary
280
     1
281
     1
  3
ACAD_XREC_ROUNDTRIP
360
8664
  0
DICTIONARY
  5
8671
330
8437
100
AcDbDictionary
280
     1
281
     1
  3
ACAD_XREC_ROUNDTRIP
360
8672
  0
DICTIONARY
  5
8679
330
843B
100
AcDbDictionary
280
     1
281
     1
  3
ACAD_XREC_ROUNDTRIP
360
867A
  0
DICTIONARY
  5
866B
330
8434
100
AcDbDictionary
280
     1
281
     1
  3
ACAD_XREC_ROUNDTRIP
360
866C
  0
DICTIONARY
  5
866F
330
8436
100
AcDbDictionary
280
     1
281
     1
  3
ACAD_XREC_ROUNDTRIP
360
8670
  0
DICTIONARY
  5
8689
330
8443
100
AcDbDictionary
280
     1
281
     1
  3
ACAD_XREC_ROUNDTRIP
360
868A
  0
DICTIONARY
  5
8677
330
843A
100
AcDbDictionary
280
     1
281
     1
  3
ACAD_XREC_ROUNDTRIP
360
8678
  0
DICTIONARY
  5
865B
330
842C
100
AcDbDictionary
280
     1
281
     1
  3
ACAD_XREC_ROUNDTRIP
360
865C
  0
DICTIONARY
  5
865D
330
842D
100
AcDbDictionary
280
     1
281
     1
  3
ACAD_XREC_ROUNDTRIP
360
865E
  0
DICTIONARY
  5
865F
330
842E
100
AcDbDictionary
280
     1
281
     1
  3
ACAD_XREC_ROUNDTRIP
360
8660
  0
DICTIONARY
  5
8661
330
842F
100
AcDbDictionary
280
     1
281
     1
  3
ACAD_XREC_ROUNDTRIP
360
8662
  0
DICTIONARY
  5
8669
330
8433
100
AcDbDictionary
280
     1
281
     1
  3
ACAD_XREC_ROUNDTRIP
360
866A
  0
DICTIONARY
  5
8685
330
8441
100
AcDbDictionary
280
     1
281
     1
  3
ACAD_XREC_ROUNDTRIP
360
8686
  0
DICTIONARY
  5
8675
330
8439
100
AcDbDictionary
280
     1
281
     1
  3
ACAD_XREC_ROUNDTRIP
360
8676
  0
DICTIONARY
  5
8687
330
8442
100
AcDbDictionary
280
     1
281
     1
  3
ACAD_XREC_ROUNDTRIP
360
8688
  0
DICTIONARY
  5
866D
330
8435
100
AcDbDictionary
280
     1
281
     1
  3
ACAD_XREC_ROUNDTRIP
360
866E
  0
DICTIONARY
  5
8683
330
8440
100
AcDbDictionary
280
     1
281
     1
  3
ACAD_XREC_ROUNDTRIP
360
8684
  0
DICTIONARY
  5
8681
330
843F
100
AcDbDictionary
280
     1
281
     1
  3
ACAD_XREC_ROUNDTRIP
360
8682
  0
DICTIONARY
  5
867B
330
843C
100
AcDbDictionary
280
     1
281
     1
  3
ACAD_XREC_ROUNDTRIP
360
867C
  0
DICTIONARY
  5
867D
330
843D
100
AcDbDictionary
280
     1
281
     1
  3
ACAD_XREC_ROUNDTRIP
360
867E
  0
DICTIONARY
  5
8673
330
8438
100
AcDbDictionary
280
     1
281
     1
  3
ACAD_XREC_ROUNDTRIP
360
8674
  0
DICTIONARY
  5
8667
330
8432
100
AcDbDictionary
280
     1
281
     1
  3
ACAD_XREC_ROUNDTRIP
360
8668
  0
DICTIONARY
  5
867F
330
843E
100
AcDbDictionary
280
     1
281
     1
  3
ACAD_XREC_ROUNDTRIP
360
8680
  0
XRECORD
  5
8690
102
{ACAD_REACTORS
330
868F
102
}
330
868F
100
AcDbXrecord
280
     1
102
DISPLAYNAME
  1
Imperial24
102
FLAGS
 90
        0
  0
XRECORD
  5
8694
102
{ACAD_REACTORS
330
8693
102
}
330
8693
100
AcDbXrecord
280
     1
102
SHADEPLOT
 70
     0
102
SHADEPLOTRESLEVEL
 70
     2
102
SHADEPLOTCUSTOMDPI
 70
   300
  0
XRECORD
  5
8692
102
{ACAD_REACTORS
330
8691
102
}
330
8691
100
AcDbXrecord
280
     1
102
SHADEPLOT
 70
     0
102
SHADEPLOTRESLEVEL
 70
     2
102
SHADEPLOTCUSTOMDPI
 70
   300
  0
XRECORD
  5
8659
102
{ACAD_REACTORS
330
841C
102
}
330
841C
100
AcDbXrecord
280
     1
102
MATERIAL
148
0.0
149
0.0
149
0.0
 93
        0
 94
      127
282
     0
 72
     0
 77
     0
171
     0
175
     0
179
     0
273
     0
  0
XRECORD
  5
841E
102
{ACAD_REACTORS
330
841C
102
}
330
841C
100
AcDbXrecord
280
     1
270
     1
271
     1
  0
XRECORD
  5
841D
102
{ACAD_REACTORS
330
841C
102
}
330
841C
100
AcDbXrecord
280
     1
270
     1
271
     1
  0
XRECORD
  5
8421
102
{ACAD_REACTORS
330
841C
102
}
330
841C
100
AcDbXrecord
280
     1
270
     1
271
     1
  0
XRECORD
  5
8420
102
{ACAD_REACTORS
330
841C
102
}
330
841C
100
AcDbXrecord
280
     1
270
     1
271
     1
  0
XRECORD
  5
8422
102
{ACAD_REACTORS
330
841C
102
}
330
841C
100
AcDbXrecord
280
     1
270
     1
271
     1
  0
XRECORD
  5
841F
102
{ACAD_REACTORS
330
841C
102
}
330
841C
100
AcDbXrecord
280
     1
270
     1
271
     1
  0
XRECORD
  5
8658
102
{ACAD_REACTORS
330
8414
102
}
330
8414
100
AcDbXrecord
280
     1
102
MATERIAL
148
0.0
149
0.0
149
0.0
 93
        0
 94
      127
282
     0
 72
     0
 77
     0
171
     0
175
     0
179
     0
273
     0
  0
XRECORD
  5
8416
102
{ACAD_REACTORS
330
8414
102
}
330
8414
100
AcDbXrecord
280
     1
270
     1
271
     1
  0
XRECORD
  5
8415
102
{ACAD_REACTORS
330
8414
102
}
330
8414
100
AcDbXrecord
280
     1
270
     1
271
     1
  0
XRECORD
  5
8419
102
{ACAD_REACTORS
330
8414
102
}
330
8414
100
AcDbXrecord
280
     1
270
     1
271
     1
  0
XRECORD
  5
8418
102
{ACAD_REACTORS
330
8414
102
}
330
8414
100
AcDbXrecord
280
     1
270
     1
271
     1
  0
XRECORD
  5
841A
102
{ACAD_REACTORS
330
8414
102
}
330
8414
100
AcDbXrecord
280
     1
270
     1
271
     1
  0
XRECORD
  5
8417
102
{ACAD_REACTORS
330
8414
102
}
330
8414
100
AcDbXrecord
280
     1
270
     1
271
     1
  0
XRECORD
  5
865A
102
{ACAD_REACTORS
330
8424
102
}
330
8424
100
AcDbXrecord
280
     1
102
MATERIAL
148
0.0
149
0.0
149
0.0
 93
        0
 94
      127
282
     0
 72
     0
 77
     0
171
     0
175
     0
179
     0
273
     0
  0
XRECORD
  5
8426
102
{ACAD_REACTORS
330
8424
102
}
330
8424
100
AcDbXrecord
280
     1
270
     1
271
     1
  0
XRECORD
  5
8425
102
{ACAD_REACTORS
330
8424
102
}
330
8424
100
AcDbXrecord
280
     1
270
     1
271
     1
  0
XRECORD
  5
8429
102
{ACAD_REACTORS
330
8424
102
}
330
8424
100
AcDbXrecord
280
     1
270
     1
271
     1
  0
XRECORD
  5
8428
102
{ACAD_REACTORS
330
8424
102
}
330
8424
100
AcDbXrecord
280
     1
270
     1
271
     1
  0
XRECORD
  5
842A
102
{ACAD_REACTORS
330
8424
102
}
330
8424
100
AcDbXrecord
280
     1
270
     1
271
     1
  0
XRECORD
  5
8427
102
{ACAD_REACTORS
330
8424
102
}
330
8424
100
AcDbXrecord
280
     1
270
     1
271
     1
  0
XRECORD
  5
868E
102
{ACAD_REACTORS
330
868D
102
}
330
868D
100
AcDbXrecord
280
     1
102
DISPLAYNAME
  1
Imperial24
102
FLAGS
 90
        0
  0
CELLSTYLEMAP
  5
8655
102
{ACAD_REACTORS
330
8654
102
}
330
8654
100
AcDbCellStyleMap
 90
        3
300
CELLSTYLE
  1
TABLEFORMAT_BEGIN
 90
        5
170
     1
 91
        0
 92
    32768
 62
   257
 93
        1
300
CONTENTFORMAT
  1
CONTENTFORMAT_BEGIN
 90
        0
 91
        0
 92
      512
 93
        0
300

 40
0.0
140
1.0
 94
        5
 62
     0
340
8457
144
0.25
309
CONTENTFORMAT_END
171
     0
 94
        0
309
TABLEFORMAT_END
  1
CELLSTYLE_BEGIN
 90
        1
 91
        1
300
_TITLE
309
CELLSTYLE_END
300
CELLSTYLE
  1
TABLEFORMAT_BEGIN
 90
        5
170
     1
 91
        0
 92
        0
 62
   257
 93
        1
300
CONTENTFORMAT
  1
CONTENTFORMAT_BEGIN
 90
        0
 91
        0
 92
      512
 93
        0
300

 40
0.0
140
1.0
 94
        5
 62
     0
340
8457
144
0.18
309
CONTENTFORMAT_END
171
     0
 94
        0
309
TABLEFORMAT_END
  1
CELLSTYLE_BEGIN
 90
        2
 91
        1
300
_HEADER
309
CELLSTYLE_END
300
CELLSTYLE
  1
TABLEFORMAT_BEGIN
 90
        5
170
     1
 91
        0
 92
        0
 62
   257
 93
        1
300
CONTENTFORMAT
  1
CONTENTFORMAT_BEGIN
 90
        0
 91
        0
 92
      512
 93
        0
300

 40
0.0
140
1.0
 94
        2
 62
     0
340
8457
144
0.18
309
CONTENTFORMAT_END
171
     0
 94
        0
309
TABLEFORMAT_END
  1
CELLSTYLE_BEGIN
 90
        3
 91
        2
300
_DATA
309
CELLSTYLE_END
  0
XRECORD
  5
868B
102
{ACAD_REACTORS
330
8654
102
}
330
8654
100
AcDbXrecord
280
     1
102
ACAD_ROUNDTRIP_PRE2007_TABLESTYLE
 90
      512
 91
        0
  1

 92
      512
 93
        0
  2

 94
      512
 95
        0
  3

  0
XRECORD
  5
8666
102
{ACAD_REACTORS
330
8665
102
}
330
8665
100
AcDbXrecord
280
     1
102
RTVSPost2010Prop28
280
     1
102
RTVSPost2010PropOp28
 70
     1
102
RTVSPost2010Prop29
280
     1
102
RTVSPost2010PropOp29
 70
     1
102
RTVSPost2010Prop30
280
     0
102
RTVSPost2010PropOp30
 70
     1
102
RTVSPost2010Prop31
280
     0
102
RTVSPost2010PropOp31
 70
     1
102
RTVSPost2010Prop32
280
     0
102
RTVSPost2010PropOp32
 70
     1
102
RTVSPost2010Prop33
280
     0
102
RTVSPost2010PropOp33
 70
     1
102
RTVSPost2010Prop34
280
     0
102
RTVSPost2010PropOp34
 70
     1
102
RTVSPost2010Prop35
280
     0
102
RTVSPost2010PropOp35
 70
     1
102
RTVSPost2010Prop36
280
     0
102
RTVSPost2010PropOp36
 70
     1
102
RTVSPost2010Prop37
 90
       50
102
RTVSPost2010PropOp37
 70
     1
102
RTVSPost2010Prop38
140
0.0
102
RTVSPost2010PropOp38
 70
     1
102
RTVSPost2010Prop39
140
1.0
102
RTVSPost2010PropOp39
 70
     1
102
RTVSPost2010Prop40
 90
        0
102
RTVSPost2010PropOp40
 70
     1
102
RTVSPost2010Prop41ColorIndex
 90
       18
102
RTVSPost2010Prop41ColorRGB
 90
        0
102
RTVSPost2010PropOp41
 70
     1
102
RTVSPost2010Prop42
 90
       50
102
RTVSPost2010PropOp42
 70
     1
102
RTVSPost2010Prop43
 90
        3
102
RTVSPost2010PropOp43
 70
     1
102
RTVSPost2010Prop44ColorIndex
 90
        5
102
RTVSPost2010Prop44ColorRGB
 90
      255
102
RTVSPost2010PropOp44
 70
     1
102
RTVSPost2010Prop45
280
     0
102
RTVSPost2010PropOp45
 70
     1
102
RTVSPost2010Prop46
 90
       50
102
RTVSPost2010PropOp46
 70
     1
102
RTVSPost2010Prop47
 90
       50
102
RTVSPost2010PropOp47
 70
     1
102
RTVSPost2010Prop48
 90
       50
102
RTVSPost2010PropOp48
 70
     1
102
RTVSPost2010Prop49
280
     0
102
RTVSPost2010PropOp49
 70
     1
102
RTVSPost2010Prop50
 90
       50
102
RTVSPost2010PropOp50
 70
     1
102
RTVSPost2010Prop51ColorIndex
 90
      256
102
RTVSPost2010Prop51ColorRGB
 90
-16777216
102
RTVSPost2010PropOp51
 70
     0
102
RTVSPost2010Prop52
140
1.0
102
RTVSPost2010PropOp52
 70
     0
102
RTVSPost2010Prop53
 90
        2
102
RTVSPost2010PropOp53
 70
     1
102
RTVSPost2010Prop54
  1
strokes_ogs.tif
102
RTVSPost2010PropOp54
 70
     1
102
RTVSPost2010Prop55
280
     0
102
RTVSPost2010PropOp55
 70
     1
102
RTVSPost2010Prop56
140
1.0
102
RTVSPost2010PropOp56
 70
     1
102
RTVSPost2010Prop57
140
1.0
102
RTVSPost2010PropOp57
 70
     1
102
RTVSPropertyOp0
 70
     1
102
RTVSPropertyOp1
 70
     1
102
RTVSPropertyOp2
 70
     1
102
RTVSPropertyOp3
 70
     1
102
RTVSPropertyOp4
 70
     1
102
RTVSPropertyOp5
 70
     1
102
RTVSPropertyOp6
 70
     1
102
RTVSPropertyOp7
 70
     1
102
RTVSPropertyOp8
 70
     1
102
RTVSPropertyOp9
 70
     1
102
RTVSPropertyOp10
 70
     1
102
RTVSPropertyOp11
 70
     1
102
RTVSPropertyOp12
 70
     1
102
RTVSPropertyOp13
 70
     1
102
RTVSPropertyOp14
 70
     1
102
RTVSPropertyOp15
 70
     1
102
RTVSPropertyOp16
 70
     1
102
RTVSPropertyOp17
 70
     1
102
RTVSPropertyOp18
 70
     1
102
RTVSPropertyOp19
 70
     1
102
RTVSPropertyOp20
 70
     1
102
RTVSPropertyOp21
 70
     1
102
RTVSPropertyOp22
 70
     1
102
RTVSPropertyOp23
 70
     1
102
RTVSPropertyOp24
 70
     1
102
RTVSPropertyOp25
 70
     1
102
RTVSPropertyOp26
 70
     1
102
RTVSPropertyOp27
 70
     1
102
RTVSPropertyOp28
 70
     1
102
RTVSPropertyOp29
 70
     1
102
RTVSPropertyOp30
 70
     1
102
RTVSPropertyOp31
 70
     1
102
RTVSPropertyOp32
 70
     1
102
RTVSPropertyOp33
 70
     1
102
RTVSPropertyOp34
 70
     1
102
RTVSPropertyOp35
 70
     1
102
RTVSPropertyOp36
 70
     1
102
RTVSPropertyOp37
 70
     1
102
RTVSPropertyOp38
 70
     1
102
RTVSPropertyOp39
 70
     1
102
RTVSPropertyOp40
 70
     1
102
RTVSPropertyOp41
 70
     1
102
RTVSPropertyOp42
 70
     1
102
RTVSPropertyOp43
 70
     1
102
RTVSPropertyOp44
 70
     1
102
RTVSPropertyOp45
 70
     1
102
RTVSPropertyOp46
 70
     1
102
RTVSPropertyOp47
 70
     1
102
RTVSPropertyOp48
 70
     1
102
RTVSPropertyOp49
 70
     1
102
RTVSPropertyOp50
 70
     1
102
RTVSPropertyOp51
 70
     0
102
RTVSPropertyOp52
 70
     0
102
RTVSPropertyOp53
 70
     1
102
RTVSPropertyOp54
 70
     1
102
RTVSPropertyOp55
 70
     1
102
RTVSPropertyOp56
 70
     1
102
RTVSPropertyOp57
 70
     1
102
RTVSPropertyOp58
 70
     1
102
RTVSPropertyOp59
 70
     1
102
RTVSPropertyOp60
 70
     1
102
RTVSPropertyOp61
 70
     1
102
RTVSPropertyOp62
 70
     1
  0
XRECORD
  5
8664
102
{ACAD_REACTORS
330
8663
102
}
330
8663
100
AcDbXrecord
280
     1
102
RTVSPost2010Prop28
280
     0
102
RTVSPost2010PropOp28
 70
     1
102
RTVSPost2010Prop29
280
     1
102
RTVSPost2010PropOp29
 70
     1
102
RTVSPost2010Prop30
280
     1
102
RTVSPost2010PropOp30
 70
     1
102
RTVSPost2010Prop31
280
     0
102
RTVSPost2010PropOp31
 70
     1
102
RTVSPost2010Prop32
280
     0
102
RTVSPost2010PropOp32
 70
     1
102
RTVSPost2010Prop33
280
     0
102
RTVSPost2010PropOp33
 70
     1
102
RTVSPost2010Prop34
280
     0
102
RTVSPost2010PropOp34
 70
     1
102
RTVSPost2010Prop35
280
     0
102
RTVSPost2010PropOp35
 70
     1
102
RTVSPost2010Prop36
280
     0
102
RTVSPost2010PropOp36
 70
     1
102
RTVSPost2010Prop37
 90
       50
102
RTVSPost2010PropOp37
 70
     1
102
RTVSPost2010Prop38
140
0.0
102
RTVSPost2010PropOp38
 70
     1
102
RTVSPost2010Prop39
140
1.0
102
RTVSPost2010PropOp39
 70
     1
102
RTVSPost2010Prop40
 90
        0
102
RTVSPost2010PropOp40
 70
     1
102
RTVSPost2010Prop41ColorIndex
 90
       18
102
RTVSPost2010Prop41ColorRGB
 90
        0
102
RTVSPost2010PropOp41
 70
     1
102
RTVSPost2010Prop42
 90
       50
102
RTVSPost2010PropOp42
 70
     1
102
RTVSPost2010Prop43
 90
        3
102
RTVSPost2010PropOp43
 70
     1
102
RTVSPost2010Prop44ColorIndex
 90
        5
102
RTVSPost2010Prop44ColorRGB
 90
      255
102
RTVSPost2010PropOp44
 70
     1
102
RTVSPost2010Prop45
280
     0
102
RTVSPost2010PropOp45
 70
     1
102
RTVSPost2010Prop46
 90
       50
102
RTVSPost2010PropOp46
 70
     1
102
RTVSPost2010Prop47
 90
       50
102
RTVSPost2010PropOp47
 70
     1
102
RTVSPost2010Prop48
 90
       50
102
RTVSPost2010PropOp48
 70
     1
102
RTVSPost2010Prop49
280
     0
102
RTVSPost2010PropOp49
 70
     1
102
RTVSPost2010Prop50
 90
       50
102
RTVSPost2010PropOp50
 70
     1
102
RTVSPost2010Prop51ColorIndex
 90
      256
102
RTVSPost2010Prop51ColorRGB
 90
-16777216
102
RTVSPost2010PropOp51
 70
     0
102
RTVSPost2010Prop52
140
1.0
102
RTVSPost2010PropOp52
 70
     0
102
RTVSPost2010Prop53
 90
        2
102
RTVSPost2010PropOp53
 70
     1
102
RTVSPost2010Prop54
  1
strokes_ogs.tif
102
RTVSPost2010PropOp54
 70
     1
102
RTVSPost2010Prop55
280
     0
102
RTVSPost2010PropOp55
 70
     1
102
RTVSPost2010Prop56
140
1.0
102
RTVSPost2010PropOp56
 70
     1
102
RTVSPost2010Prop57
140
1.0
102
RTVSPost2010PropOp57
 70
     1
102
RTVSPropertyOp0
 70
     1
102
RTVSPropertyOp1
 70
     1
102
RTVSPropertyOp2
 70
     1
102
RTVSPropertyOp3
 70
     1
102
RTVSPropertyOp4
 70
     1
102
RTVSPropertyOp5
 70
     1
102
RTVSPropertyOp6
 70
     1
102
RTVSPropertyOp7
 70
     1
102
RTVSPropertyOp8
 70
     1
102
RTVSPropertyOp9
 70
     1
102
RTVSPropertyOp10
 70
     1
102
RTVSPropertyOp11
 70
     1
102
RTVSPropertyOp12
 70
     1
102
RTVSPropertyOp13
 70
     1
102
RTVSPropertyOp14
 70
     1
102
RTVSPropertyOp15
 70
     1
102
RTVSPropertyOp16
 70
     1
102
RTVSPropertyOp17
 70
     1
102
RTVSPropertyOp18
 70
     1
102
RTVSPropertyOp19
 70
     1
102
RTVSPropertyOp20
 70
     1
102
RTVSPropertyOp21
 70
     1
102
RTVSPropertyOp22
 70
     1
102
RTVSPropertyOp23
 70
     1
102
RTVSPropertyOp24
 70
     1
102
RTVSPropertyOp25
 70
     1
102
RTVSPropertyOp26
 70
     1
102
RTVSPropertyOp27
 70
     1
102
RTVSPropertyOp28
 70
     1
102
RTVSPropertyOp29
 70
     1
102
RTVSPropertyOp30
 70
     1
102
RTVSPropertyOp31
 70
     1
102
RTVSPropertyOp32
 70
     1
102
RTVSPropertyOp33
 70
     1
102
RTVSPropertyOp34
 70
     1
102
RTVSPropertyOp35
 70
     1
102
RTVSPropertyOp36
 70
     1
102
RTVSPropertyOp37
 70
     1
102
RTVSPropertyOp38
 70
     1
102
RTVSPropertyOp39
 70
     1
102
RTVSPropertyOp40
 70
     1
102
RTVSPropertyOp41
 70
     1
102
RTVSPropertyOp42
 70
     1
102
RTVSPropertyOp43
 70
     1
102
RTVSPropertyOp44
 70
     1
102
RTVSPropertyOp45
 70
     1
102
RTVSPropertyOp46
 70
     1
102
RTVSPropertyOp47
 70
     1
102
RTVSPropertyOp48
 70
     1
102
RTVSPropertyOp49
 70
     1
102
RTVSPropertyOp50
 70
     1
102
RTVSPropertyOp51
 70
     0
102
RTVSPropertyOp52
 70
     0
102
RTVSPropertyOp53
 70
     1
102
RTVSPropertyOp54
 70
     1
102
RTVSPropertyOp55
 70
     1
102
RTVSPropertyOp56
 70
     1
102
RTVSPropertyOp57
 70
     1
102
RTVSPropertyOp58
 70
     1
102
RTVSPropertyOp59
 70
     1
102
RTVSPropertyOp60
 70
     1
102
RTVSPropertyOp61
 70
     1
102
RTVSPropertyOp62
 70
     1
  0
XRECORD
  5
8672
102
{ACAD_REACTORS
330
8671
102
}
330
8671
100
AcDbXrecord
280
     1
102
RTVSPost2010Prop28
280
     0
102
RTVSPost2010PropOp28
 70
     1
102
RTVSPost2010Prop29
280
     1
102
RTVSPost2010PropOp29
 70
     1
102
RTVSPost2010Prop30
280
     1
102
RTVSPost2010PropOp30
 70
     1
102
RTVSPost2010Prop31
280
     0
102
RTVSPost2010PropOp31
 70
     1
102
RTVSPost2010Prop32
280
     0
102
RTVSPost2010PropOp32
 70
     1
102
RTVSPost2010Prop33
280
     0
102
RTVSPost2010PropOp33
 70
     1
102
RTVSPost2010Prop34
280
     0
102
RTVSPost2010PropOp34
 70
     1
102
RTVSPost2010Prop35
280
     0
102
RTVSPost2010PropOp35
 70
     1
102
RTVSPost2010Prop36
280
     0
102
RTVSPost2010PropOp36
 70
     1
102
RTVSPost2010Prop37
 90
       50
102
RTVSPost2010PropOp37
 70
     1
102
RTVSPost2010Prop38
140
0.0
102
RTVSPost2010PropOp38
 70
     1
102
RTVSPost2010Prop39
140
1.0
102
RTVSPost2010PropOp39
 70
     1
102
RTVSPost2010Prop40
 90
        0
102
RTVSPost2010PropOp40
 70
     1
102
RTVSPost2010Prop41ColorIndex
 90
       18
102
RTVSPost2010Prop41ColorRGB
 90
        0
102
RTVSPost2010PropOp41
 70
     1
102
RTVSPost2010Prop42
 90
       50
102
RTVSPost2010PropOp42
 70
     1
102
RTVSPost2010Prop43
 90
        3
102
RTVSPost2010PropOp43
 70
     1
102
RTVSPost2010Prop44ColorIndex
 90
        5
102
RTVSPost2010Prop44ColorRGB
 90
      255
102
RTVSPost2010PropOp44
 70
     1
102
RTVSPost2010Prop45
280
     0
102
RTVSPost2010PropOp45
 70
     1
102
RTVSPost2010Prop46
 90
       50
102
RTVSPost2010PropOp46
 70
     1
102
RTVSPost2010Prop47
 90
       50
102
RTVSPost2010PropOp47
 70
     1
102
RTVSPost2010Prop48
 90
       50
102
RTVSPost2010PropOp48
 70
     1
102
RTVSPost2010Prop49
280
     0
102
RTVSPost2010PropOp49
 70
     1
102
RTVSPost2010Prop50
 90
       50
102
RTVSPost2010PropOp50
 70
     1
102
RTVSPost2010Prop51ColorIndex
 90
      256
102
RTVSPost2010Prop51ColorRGB
 90
-16777216
102
RTVSPost2010PropOp51
 70
     0
102
RTVSPost2010Prop52
140
1.0
102
RTVSPost2010PropOp52
 70
     0
102
RTVSPost2010Prop53
 90
        2
102
RTVSPost2010PropOp53
 70
     1
102
RTVSPost2010Prop54
  1
strokes_ogs.tif
102
RTVSPost2010PropOp54
 70
     1
102
RTVSPost2010Prop55
280
     0
102
RTVSPost2010PropOp55
 70
     1
102
RTVSPost2010Prop56
140
1.0
102
RTVSPost2010PropOp56
 70
     1
102
RTVSPost2010Prop57
140
1.0
102
RTVSPost2010PropOp57
 70
     1
102
RTVSPropertyOp0
 70
     1
102
RTVSPropertyOp1
 70
     1
102
RTVSPropertyOp2
 70
     1
102
RTVSPropertyOp3
 70
     1
102
RTVSPropertyOp4
 70
     1
102
RTVSPropertyOp5
 70
     1
102
RTVSPropertyOp6
 70
     1
102
RTVSPropertyOp7
 70
     1
102
RTVSPropertyOp8
 70
     1
102
RTVSPropertyOp9
 70
     1
102
RTVSPropertyOp10
 70
     1
102
RTVSPropertyOp11
 70
     1
102
RTVSPropertyOp12
 70
     1
102
RTVSPropertyOp13
 70
     1
102
RTVSPropertyOp14
 70
     1
102
RTVSPropertyOp15
 70
     1
102
RTVSPropertyOp16
 70
     1
102
RTVSPropertyOp17
 70
     1
102
RTVSPropertyOp18
 70
     1
102
RTVSPropertyOp19
 70
     1
102
RTVSPropertyOp20
 70
     1
102
RTVSPropertyOp21
 70
     1
102
RTVSPropertyOp22
 70
     1
102
RTVSPropertyOp23
 70
     1
102
RTVSPropertyOp24
 70
     1
102
RTVSPropertyOp25
 70
     1
102
RTVSPropertyOp26
 70
     1
102
RTVSPropertyOp27
 70
     1
102
RTVSPropertyOp28
 70
     1
102
RTVSPropertyOp29
 70
     1
102
RTVSPropertyOp30
 70
     1
102
RTVSPropertyOp31
 70
     1
102
RTVSPropertyOp32
 70
     1
102
RTVSPropertyOp33
 70
     1
102
RTVSPropertyOp34
 70
     1
102
RTVSPropertyOp35
 70
     1
102
RTVSPropertyOp36
 70
     1
102
RTVSPropertyOp37
 70
     1
102
RTVSPropertyOp38
 70
     1
102
RTVSPropertyOp39
 70
     1
102
RTVSPropertyOp40
 70
     1
102
RTVSPropertyOp41
 70
     1
102
RTVSPropertyOp42
 70
     1
102
RTVSPropertyOp43
 70
     1
102
RTVSPropertyOp44
 70
     1
102
RTVSPropertyOp45
 70
     1
102
RTVSPropertyOp46
 70
     1
102
RTVSPropertyOp47
 70
     1
102
RTVSPropertyOp48
 70
     1
102
RTVSPropertyOp49
 70
     1
102
RTVSPropertyOp50
 70
     1
102
RTVSPropertyOp51
 70
     0
102
RTVSPropertyOp52
 70
     0
102
RTVSPropertyOp53
 70
     1
102
RTVSPropertyOp54
 70
     1
102
RTVSPropertyOp55
 70
     1
102
RTVSPropertyOp56
 70
     1
102
RTVSPropertyOp57
 70
     1
102
RTVSPropertyOp58
 70
     1
102
RTVSPropertyOp59
 70
     1
102
RTVSPropertyOp60
 70
     1
102
RTVSPropertyOp61
 70
     1
102
RTVSPropertyOp62
 70
     1
  0
XRECORD
  5
867A
102
{ACAD_REACTORS
330
8679
102
}
330
8679
100
AcDbXrecord
280
     1
102
RTVSPost2010Prop28
280
     0
102
RTVSPost2010PropOp28
 70
     1
102
RTVSPost2010Prop29
280
     1
102
RTVSPost2010PropOp29
 70
     1
102
RTVSPost2010Prop30
280
     1
102
RTVSPost2010PropOp30
 70
     1
102
RTVSPost2010Prop31
280
     0
102
RTVSPost2010PropOp31
 70
     1
102
RTVSPost2010Prop32
280
     0
102
RTVSPost2010PropOp32
 70
     1
102
RTVSPost2010Prop33
280
     0
102
RTVSPost2010PropOp33
 70
     1
102
RTVSPost2010Prop34
280
     0
102
RTVSPost2010PropOp34
 70
     1
102
RTVSPost2010Prop35
280
     0
102
RTVSPost2010PropOp35
 70
     1
102
RTVSPost2010Prop36
280
     0
102
RTVSPost2010PropOp36
 70
     1
102
RTVSPost2010Prop37
 90
       50
102
RTVSPost2010PropOp37
 70
     1
102
RTVSPost2010Prop38
140
0.0
102
RTVSPost2010PropOp38
 70
     1
102
RTVSPost2010Prop39
140
1.0
102
RTVSPost2010PropOp39
 70
     1
102
RTVSPost2010Prop40
 90
        0
102
RTVSPost2010PropOp40
 70
     1
102
RTVSPost2010Prop41ColorIndex
 90
       18
102
RTVSPost2010Prop41ColorRGB
 90
        0
102
RTVSPost2010PropOp41
 70
     1
102
RTVSPost2010Prop42
 90
       50
102
RTVSPost2010PropOp42
 70
     1
102
RTVSPost2010Prop43
 90
        3
102
RTVSPost2010PropOp43
 70
     1
102
RTVSPost2010Prop44ColorIndex
 90
        5
102
RTVSPost2010Prop44ColorRGB
 90
      255
102
RTVSPost2010PropOp44
 70
     1
102
RTVSPost2010Prop45
280
     0
102
RTVSPost2010PropOp45
 70
     1
102
RTVSPost2010Prop46
 90
       50
102
RTVSPost2010PropOp46
 70
     1
102
RTVSPost2010Prop47
 90
       50
102
RTVSPost2010PropOp47
 70
     1
102
RTVSPost2010Prop48
 90
       50
102
RTVSPost2010PropOp48
 70
     1
102
RTVSPost2010Prop49
280
     0
102
RTVSPost2010PropOp49
 70
     1
102
RTVSPost2010Prop50
 90
       50
102
RTVSPost2010PropOp50
 70
     1
102
RTVSPost2010Prop51ColorIndex
 90
      256
102
RTVSPost2010Prop51ColorRGB
 90
-16777216
102
RTVSPost2010PropOp51
 70
     0
102
RTVSPost2010Prop52
140
1.0
102
RTVSPost2010PropOp52
 70
     0
102
RTVSPost2010Prop53
 90
        2
102
RTVSPost2010PropOp53
 70
     1
102
RTVSPost2010Prop54
  1
strokes_ogs.tif
102
RTVSPost2010PropOp54
 70
     1
102
RTVSPost2010Prop55
280
     0
102
RTVSPost2010PropOp55
 70
     1
102
RTVSPost2010Prop56
140
1.0
102
RTVSPost2010PropOp56
 70
     1
102
RTVSPost2010Prop57
140
1.0
102
RTVSPost2010PropOp57
 70
     1
102
RTVSPropertyOp0
 70
     1
102
RTVSPropertyOp1
 70
     1
102
RTVSPropertyOp2
 70
     1
102
RTVSPropertyOp3
 70
     1
102
RTVSPropertyOp4
 70
     1
102
RTVSPropertyOp5
 70
     1
102
RTVSPropertyOp6
 70
     1
102
RTVSPropertyOp7
 70
     1
102
RTVSPropertyOp8
 70
     1
102
RTVSPropertyOp9
 70
     1
102
RTVSPropertyOp10
 70
     1
102
RTVSPropertyOp11
 70
     1
102
RTVSPropertyOp12
 70
     1
102
RTVSPropertyOp13
 70
     1
102
RTVSPropertyOp14
 70
     1
102
RTVSPropertyOp15
 70
     1
102
RTVSPropertyOp16
 70
     1
102
RTVSPropertyOp17
 70
     1
102
RTVSPropertyOp18
 70
     1
102
RTVSPropertyOp19
 70
     1
102
RTVSPropertyOp20
 70
     1
102
RTVSPropertyOp21
 70
     1
102
RTVSPropertyOp22
 70
     1
102
RTVSPropertyOp23
 70
     1
102
RTVSPropertyOp24
 70
     1
102
RTVSPropertyOp25
 70
     1
102
RTVSPropertyOp26
 70
     1
102
RTVSPropertyOp27
 70
     1
102
RTVSPropertyOp28
 70
     1
102
RTVSPropertyOp29
 70
     1
102
RTVSPropertyOp30
 70
     1
102
RTVSPropertyOp31
 70
     1
102
RTVSPropertyOp32
 70
     1
102
RTVSPropertyOp33
 70
     1
102
RTVSPropertyOp34
 70
     1
102
RTVSPropertyOp35
 70
     1
102
RTVSPropertyOp36
 70
     1
102
RTVSPropertyOp37
 70
     1
102
RTVSPropertyOp38
 70
     1
102
RTVSPropertyOp39
 70
     1
102
RTVSPropertyOp40
 70
     1
102
RTVSPropertyOp41
 70
     1
102
RTVSPropertyOp42
 70
     1
102
RTVSPropertyOp43
 70
     1
102
RTVSPropertyOp44
 70
     1
102
RTVSPropertyOp45
 70
     1
102
RTVSPropertyOp46
 70
     1
102
RTVSPropertyOp47
 70
     1
102
RTVSPropertyOp48
 70
     1
102
RTVSPropertyOp49
 70
     1
102
RTVSPropertyOp50
 70
     1
102
RTVSPropertyOp51
 70
     0
102
RTVSPropertyOp52
 70
     0
102
RTVSPropertyOp53
 70
     1
102
RTVSPropertyOp54
 70
     1
102
RTVSPropertyOp55
 70
     1
102
RTVSPropertyOp56
 70
     1
102
RTVSPropertyOp57
 70
     1
102
RTVSPropertyOp58
 70
     1
102
RTVSPropertyOp59
 70
     1
102
RTVSPropertyOp60
 70
     1
102
RTVSPropertyOp61
 70
     1
102
RTVSPropertyOp62
 70
     1
  0
XRECORD
  5
866C
102
{ACAD_REACTORS
330
866B
102
}
330
866B
100
AcDbXrecord
280
     1
102
RTVSPost2010Prop28
280
     0
102
RTVSPost2010PropOp28
 70
     1
102
RTVSPost2010Prop29
280
     1
102
RTVSPost2010PropOp29
 70
     1
102
RTVSPost2010Prop30
280
     1
102
RTVSPost2010PropOp30
 70
     1
102
RTVSPost2010Prop31
280
     0
102
RTVSPost2010PropOp31
 70
     1
102
RTVSPost2010Prop32
280
     0
102
RTVSPost2010PropOp32
 70
     1
102
RTVSPost2010Prop33
280
     0
102
RTVSPost2010PropOp33
 70
     1
102
RTVSPost2010Prop34
280
     0
102
RTVSPost2010PropOp34
 70
     1
102
RTVSPost2010Prop35
280
     0
102
RTVSPost2010PropOp35
 70
     1
102
RTVSPost2010Prop36
280
     0
102
RTVSPost2010PropOp36
 70
     1
102
RTVSPost2010Prop37
 90
       50
102
RTVSPost2010PropOp37
 70
     1
102
RTVSPost2010Prop38
140
0.0
102
RTVSPost2010PropOp38
 70
     1
102
RTVSPost2010Prop39
140
1.0
102
RTVSPost2010PropOp39
 70
     1
102
RTVSPost2010Prop40
 90
        0
102
RTVSPost2010PropOp40
 70
     1
102
RTVSPost2010Prop41ColorIndex
 90
       18
102
RTVSPost2010Prop41ColorRGB
 90
        0
102
RTVSPost2010PropOp41
 70
     1
102
RTVSPost2010Prop42
 90
       50
102
RTVSPost2010PropOp42
 70
     1
102
RTVSPost2010Prop43
 90
        3
102
RTVSPost2010PropOp43
 70
     1
102
RTVSPost2010Prop44ColorIndex
 90
        5
102
RTVSPost2010Prop44ColorRGB
 90
      255
102
RTVSPost2010PropOp44
 70
     1
102
RTVSPost2010Prop45
280
     0
102
RTVSPost2010PropOp45
 70
     1
102
RTVSPost2010Prop46
 90
       50
102
RTVSPost2010PropOp46
 70
     1
102
RTVSPost2010Prop47
 90
       50
102
RTVSPost2010PropOp47
 70
     1
102
RTVSPost2010Prop48
 90
       50
102
RTVSPost2010PropOp48
 70
     1
102
RTVSPost2010Prop49
280
     0
102
RTVSPost2010PropOp49
 70
     1
102
RTVSPost2010Prop50
 90
       50
102
RTVSPost2010PropOp50
 70
     1
102
RTVSPost2010Prop51ColorIndex
 90
      256
102
RTVSPost2010Prop51ColorRGB
 90
-16777216
102
RTVSPost2010PropOp51
 70
     0
102
RTVSPost2010Prop52
140
1.0
102
RTVSPost2010PropOp52
 70
     0
102
RTVSPost2010Prop53
 90
        2
102
RTVSPost2010PropOp53
 70
     1
102
RTVSPost2010Prop54
  1
strokes_ogs.tif
102
RTVSPost2010PropOp54
 70
     1
102
RTVSPost2010Prop55
280
     0
102
RTVSPost2010PropOp55
 70
     1
102
RTVSPost2010Prop56
140
1.0
102
RTVSPost2010PropOp56
 70
     1
102
RTVSPost2010Prop57
140
1.0
102
RTVSPost2010PropOp57
 70
     1
102
RTVSPropertyOp0
 70
     1
102
RTVSPropertyOp1
 70
     1
102
RTVSPropertyOp2
 70
     1
102
RTVSPropertyOp3
 70
     1
102
RTVSPropertyOp4
 70
     1
102
RTVSPropertyOp5
 70
     1
102
RTVSPropertyOp6
 70
     1
102
RTVSPropertyOp7
 70
     1
102
RTVSPropertyOp8
 70
     1
102
RTVSPropertyOp9
 70
     1
102
RTVSPropertyOp10
 70
     1
102
RTVSPropertyOp11
 70
     1
102
RTVSPropertyOp12
 70
     1
102
RTVSPropertyOp13
 70
     1
102
RTVSPropertyOp14
 70
     1
102
RTVSPropertyOp15
 70
     1
102
RTVSPropertyOp16
 70
     1
102
RTVSPropertyOp17
 70
     1
102
RTVSPropertyOp18
 70
     1
102
RTVSPropertyOp19
 70
     1
102
RTVSPropertyOp20
 70
     1
102
RTVSPropertyOp21
 70
     1
102
RTVSPropertyOp22
 70
     1
102
RTVSPropertyOp23
 70
     1
102
RTVSPropertyOp24
 70
     1
102
RTVSPropertyOp25
 70
     1
102
RTVSPropertyOp26
 70
     1
102
RTVSPropertyOp27
 70
     1
102
RTVSPropertyOp28
 70
     1
102
RTVSPropertyOp29
 70
     1
102
RTVSPropertyOp30
 70
     1
102
RTVSPropertyOp31
 70
     1
102
RTVSPropertyOp32
 70
     1
102
RTVSPropertyOp33
 70
     1
102
RTVSPropertyOp34
 70
     1
102
RTVSPropertyOp35
 70
     1
102
RTVSPropertyOp36
 70
     1
102
RTVSPropertyOp37
 70
     1
102
RTVSPropertyOp38
 70
     1
102
RTVSPropertyOp39
 70
     1
102
RTVSPropertyOp40
 70
     1
102
RTVSPropertyOp41
 70
     1
102
RTVSPropertyOp42
 70
     1
102
RTVSPropertyOp43
 70
     1
102
RTVSPropertyOp44
 70
     1
102
RTVSPropertyOp45
 70
     1
102
RTVSPropertyOp46
 70
     1
102
RTVSPropertyOp47
 70
     1
102
RTVSPropertyOp48
 70
     1
102
RTVSPropertyOp49
 70
     1
102
RTVSPropertyOp50
 70
     1
102
RTVSPropertyOp51
 70
     0
102
RTVSPropertyOp52
 70
     0
102
RTVSPropertyOp53
 70
     1
102
RTVSPropertyOp54
 70
     1
102
RTVSPropertyOp55
 70
     1
102
RTVSPropertyOp56
 70
     1
102
RTVSPropertyOp57
 70
     1
102
RTVSPropertyOp58
 70
     1
102
RTVSPropertyOp59
 70
     1
102
RTVSPropertyOp60
 70
     1
102
RTVSPropertyOp61
 70
     1
102
RTVSPropertyOp62
 70
     1
  0
XRECORD
  5
8670
102
{ACAD_REACTORS
330
866F
102
}
330
866F
100
AcDbXrecord
280
     1
102
RTVSPost2010Prop28
280
     0
102
RTVSPost2010PropOp28
 70
     1
102
RTVSPost2010Prop29
280
     1
102
RTVSPost2010PropOp29
 70
     1
102
RTVSPost2010Prop30
280
     1
102
RTVSPost2010PropOp30
 70
     1
102
RTVSPost2010Prop31
280
     0
102
RTVSPost2010PropOp31
 70
     1
102
RTVSPost2010Prop32
280
     0
102
RTVSPost2010PropOp32
 70
     1
102
RTVSPost2010Prop33
280
     0
102
RTVSPost2010PropOp33
 70
     1
102
RTVSPost2010Prop34
280
     0
102
RTVSPost2010PropOp34
 70
     1
102
RTVSPost2010Prop35
280
     0
102
RTVSPost2010PropOp35
 70
     1
102
RTVSPost2010Prop36
280
     0
102
RTVSPost2010PropOp36
 70
     1
102
RTVSPost2010Prop37
 90
       50
102
RTVSPost2010PropOp37
 70
     1
102
RTVSPost2010Prop38
140
0.0
102
RTVSPost2010PropOp38
 70
     1
102
RTVSPost2010Prop39
140
1.0
102
RTVSPost2010PropOp39
 70
     1
102
RTVSPost2010Prop40
 90
        0
102
RTVSPost2010PropOp40
 70
     1
102
RTVSPost2010Prop41ColorIndex
 90
       18
102
RTVSPost2010Prop41ColorRGB
 90
        0
102
RTVSPost2010PropOp41
 70
     1
102
RTVSPost2010Prop42
 90
       50
102
RTVSPost2010PropOp42
 70
     1
102
RTVSPost2010Prop43
 90
        3
102
RTVSPost2010PropOp43
 70
     1
102
RTVSPost2010Prop44ColorIndex
 90
        5
102
RTVSPost2010Prop44ColorRGB
 90
      255
102
RTVSPost2010PropOp44
 70
     1
102
RTVSPost2010Prop45
280
     0
102
RTVSPost2010PropOp45
 70
     1
102
RTVSPost2010Prop46
 90
       50
102
RTVSPost2010PropOp46
 70
     1
102
RTVSPost2010Prop47
 90
       50
102
RTVSPost2010PropOp47
 70
     1
102
RTVSPost2010Prop48
 90
       50
102
RTVSPost2010PropOp48
 70
     1
102
RTVSPost2010Prop49
280
     0
102
RTVSPost2010PropOp49
 70
     1
102
RTVSPost2010Prop50
 90
       50
102
RTVSPost2010PropOp50
 70
     1
102
RTVSPost2010Prop51ColorIndex
 90
      256
102
RTVSPost2010Prop51ColorRGB
 90
-16777216
102
RTVSPost2010PropOp51
 70
     0
102
RTVSPost2010Prop52
140
1.0
102
RTVSPost2010PropOp52
 70
     0
102
RTVSPost2010Prop53
 90
        2
102
RTVSPost2010PropOp53
 70
     1
102
RTVSPost2010Prop54
  1
strokes_ogs.tif
102
RTVSPost2010PropOp54
 70
     1
102
RTVSPost2010Prop55
280
     0
102
RTVSPost2010PropOp55
 70
     1
102
RTVSPost2010Prop56
140
1.0
102
RTVSPost2010PropOp56
 70
     1
102
RTVSPost2010Prop57
140
1.0
102
RTVSPost2010PropOp57
 70
     1
102
RTVSPropertyOp0
 70
     1
102
RTVSPropertyOp1
 70
     1
102
RTVSPropertyOp2
 70
     1
102
RTVSPropertyOp3
 70
     1
102
RTVSPropertyOp4
 70
     1
102
RTVSPropertyOp5
 70
     1
102
RTVSPropertyOp6
 70
     1
102
RTVSPropertyOp7
 70
     1
102
RTVSPropertyOp8
 70
     1
102
RTVSPropertyOp9
 70
     1
102
RTVSPropertyOp10
 70
     1
102
RTVSPropertyOp11
 70
     1
102
RTVSPropertyOp12
 70
     1
102
RTVSPropertyOp13
 70
     1
102
RTVSPropertyOp14
 70
     1
102
RTVSPropertyOp15
 70
     1
102
RTVSPropertyOp16
 70
     1
102
RTVSPropertyOp17
 70
     1
102
RTVSPropertyOp18
 70
     1
102
RTVSPropertyOp19
 70
     1
102
RTVSPropertyOp20
 70
     1
102
RTVSPropertyOp21
 70
     1
102
RTVSPropertyOp22
 70
     1
102
RTVSPropertyOp23
 70
     1
102
RTVSPropertyOp24
 70
     1
102
RTVSPropertyOp25
 70
     1
102
RTVSPropertyOp26
 70
     1
102
RTVSPropertyOp27
 70
     1
102
RTVSPropertyOp28
 70
     1
102
RTVSPropertyOp29
 70
     1
102
RTVSPropertyOp30
 70
     1
102
RTVSPropertyOp31
 70
     1
102
RTVSPropertyOp32
 70
     1
102
RTVSPropertyOp33
 70
     1
102
RTVSPropertyOp34
 70
     1
102
RTVSPropertyOp35
 70
     1
102
RTVSPropertyOp36
 70
     1
102
RTVSPropertyOp37
 70
     1
102
RTVSPropertyOp38
 70
     1
102
RTVSPropertyOp39
 70
     1
102
RTVSPropertyOp40
 70
     1
102
RTVSPropertyOp41
 70
     1
102
RTVSPropertyOp42
 70
     1
102
RTVSPropertyOp43
 70
     1
102
RTVSPropertyOp44
 70
     1
102
RTVSPropertyOp45
 70
     1
102
RTVSPropertyOp46
 70
     1
102
RTVSPropertyOp47
 70
     1
102
RTVSPropertyOp48
 70
     1
102
RTVSPropertyOp49
 70
     1
102
RTVSPropertyOp50
 70
     1
102
RTVSPropertyOp51
 70
     0
102
RTVSPropertyOp52
 70
     0
102
RTVSPropertyOp53
 70
     1
102
RTVSPropertyOp54
 70
     1
102
RTVSPropertyOp55
 70
     1
102
RTVSPropertyOp56
 70
     1
102
RTVSPropertyOp57
 70
     1
102
RTVSPropertyOp58
 70
     1
102
RTVSPropertyOp59
 70
     1
102
RTVSPropertyOp60
 70
     1
102
RTVSPropertyOp61
 70
     1
102
RTVSPropertyOp62
 70
     1
  0
XRECORD
  5
868A
102
{ACAD_REACTORS
330
8689
102
}
330
8689
100
AcDbXrecord
280
     1
102
RTVSPost2010Prop28
280
     0
102
RTVSPost2010PropOp28
 70
     1
102
RTVSPost2010Prop29
280
     1
102
RTVSPost2010PropOp29
 70
     1
102
RTVSPost2010Prop30
280
     1
102
RTVSPost2010PropOp30
 70
     1
102
RTVSPost2010Prop31
280
     0
102
RTVSPost2010PropOp31
 70
     1
102
RTVSPost2010Prop32
280
     0
102
RTVSPost2010PropOp32
 70
     1
102
RTVSPost2010Prop33
280
     0
102
RTVSPost2010PropOp33
 70
     1
102
RTVSPost2010Prop34
280
     0
102
RTVSPost2010PropOp34
 70
     1
102
RTVSPost2010Prop35
280
     0
102
RTVSPost2010PropOp35
 70
     1
102
RTVSPost2010Prop36
280
     0
102
RTVSPost2010PropOp36
 70
     1
102
RTVSPost2010Prop37
 90
       50
102
RTVSPost2010PropOp37
 70
     0
102
RTVSPost2010Prop38
140
0.0
102
RTVSPost2010PropOp38
 70
     0
102
RTVSPost2010Prop39
140
1.0
102
RTVSPost2010PropOp39
 70
     0
102
RTVSPost2010Prop40
 90
        0
102
RTVSPost2010PropOp40
 70
     0
102
RTVSPost2010Prop41ColorIndex
 90
       18
102
RTVSPost2010Prop41ColorRGB
 90
        0
102
RTVSPost2010PropOp41
 70
     0
102
RTVSPost2010Prop42
 90
       50
102
RTVSPost2010PropOp42
 70
     0
102
RTVSPost2010Prop43
 90
        3
102
RTVSPost2010PropOp43
 70
     0
102
RTVSPost2010Prop44ColorIndex
 90
        5
102
RTVSPost2010Prop44ColorRGB
 90
      255
102
RTVSPost2010PropOp44
 70
     0
102
RTVSPost2010Prop45
280
     0
102
RTVSPost2010PropOp45
 70
     1
102
RTVSPost2010Prop46
 90
       50
102
RTVSPost2010PropOp46
 70
     0
102
RTVSPost2010Prop47
 90
       50
102
RTVSPost2010PropOp47
 70
     0
102
RTVSPost2010Prop48
 90
       50
102
RTVSPost2010PropOp48
 70
     0
102
RTVSPost2010Prop49
280
     0
102
RTVSPost2010PropOp49
 70
     1
102
RTVSPost2010Prop50
 90
       50
102
RTVSPost2010PropOp50
 70
     0
102
RTVSPost2010Prop51ColorIndex
 90
      256
102
RTVSPost2010Prop51ColorRGB
 90
-16777216
102
RTVSPost2010PropOp51
 70
     0
102
RTVSPost2010Prop52
140
1.0
102
RTVSPost2010PropOp52
 70
     0
102
RTVSPost2010Prop53
 90
        2
102
RTVSPost2010PropOp53
 70
     0
102
RTVSPost2010Prop54
  1
strokes_ogs.tif
102
RTVSPost2010PropOp54
 70
     0
102
RTVSPost2010Prop55
280
     0
102
RTVSPost2010PropOp55
 70
     1
102
RTVSPost2010Prop56
140
1.0
102
RTVSPost2010PropOp56
 70
     0
102
RTVSPost2010Prop57
140
1.0
102
RTVSPost2010PropOp57
 70
     0
102
RTVSPropertyOp0
 70
     0
102
RTVSPropertyOp1
 70
     0
102
RTVSPropertyOp2
 70
     0
102
RTVSPropertyOp3
 70
     0
102
RTVSPropertyOp4
 70
     0
102
RTVSPropertyOp5
 70
     0
102
RTVSPropertyOp6
 70
     0
102
RTVSPropertyOp7
 70
     0
102
RTVSPropertyOp8
 70
     0
102
RTVSPropertyOp9
 70
     0
102
RTVSPropertyOp10
 70
     0
102
RTVSPropertyOp11
 70
     0
102
RTVSPropertyOp12
 70
     0
102
RTVSPropertyOp13
 70
     0
102
RTVSPropertyOp14
 70
     2
102
RTVSPropertyOp15
 70
     0
102
RTVSPropertyOp16
 70
     0
102
RTVSPropertyOp17
 70
     0
102
RTVSPropertyOp18
 70
     0
102
RTVSPropertyOp19
 70
     0
102
RTVSPropertyOp20
 70
     0
102
RTVSPropertyOp21
 70
     0
102
RTVSPropertyOp22
 70
     0
102
RTVSPropertyOp23
 70
     0
102
RTVSPropertyOp24
 70
     0
102
RTVSPropertyOp25
 70
     0
102
RTVSPropertyOp26
 70
     0
102
RTVSPropertyOp27
 70
     0
102
RTVSPropertyOp28
 70
     1
102
RTVSPropertyOp29
 70
     1
102
RTVSPropertyOp30
 70
     1
102
RTVSPropertyOp31
 70
     1
102
RTVSPropertyOp32
 70
     1
102
RTVSPropertyOp33
 70
     1
102
RTVSPropertyOp34
 70
     1
102
RTVSPropertyOp35
 70
     1
102
RTVSPropertyOp36
 70
     1
102
RTVSPropertyOp37
 70
     0
102
RTVSPropertyOp38
 70
     0
102
RTVSPropertyOp39
 70
     0
102
RTVSPropertyOp40
 70
     0
102
RTVSPropertyOp41
 70
     0
102
RTVSPropertyOp42
 70
     0
102
RTVSPropertyOp43
 70
     0
102
RTVSPropertyOp44
 70
     0
102
RTVSPropertyOp45
 70
     1
102
RTVSPropertyOp46
 70
     0
102
RTVSPropertyOp47
 70
     0
102
RTVSPropertyOp48
 70
     0
102
RTVSPropertyOp49
 70
     1
102
RTVSPropertyOp50
 70
     0
102
RTVSPropertyOp51
 70
     0
102
RTVSPropertyOp52
 70
     0
102
RTVSPropertyOp53
 70
     0
102
RTVSPropertyOp54
 70
     0
102
RTVSPropertyOp55
 70
     1
102
RTVSPropertyOp56
 70
     0
102
RTVSPropertyOp57
 70
     0
102
RTVSPropertyOp58
 70
     0
102
RTVSPropertyOp59
 70
     0
102
RTVSPropertyOp60
 70
     0
102
RTVSPropertyOp61
 70
     0
102
RTVSPropertyOp62
 70
     0
  0
XRECORD
  5
8678
102
{ACAD_REACTORS
330
8677
102
}
330
8677
100
AcDbXrecord
280
     1
102
RTVSPost2010Prop28
280
     0
102
RTVSPost2010PropOp28
 70
     1
102
RTVSPost2010Prop29
280
     1
102
RTVSPost2010PropOp29
 70
     1
102
RTVSPost2010Prop30
280
     1
102
RTVSPost2010PropOp30
 70
     1
102
RTVSPost2010Prop31
280
     0
102
RTVSPost2010PropOp31
 70
     1
102
RTVSPost2010Prop32
280
     0
102
RTVSPost2010PropOp32
 70
     1
102
RTVSPost2010Prop33
280
     0
102
RTVSPost2010PropOp33
 70
     1
102
RTVSPost2010Prop34
280
     0
102
RTVSPost2010PropOp34
 70
     1
102
RTVSPost2010Prop35
280
     0
102
RTVSPost2010PropOp35
 70
     1
102
RTVSPost2010Prop36
280
     0
102
RTVSPost2010PropOp36
 70
     1
102
RTVSPost2010Prop37
 90
       50
102
RTVSPost2010PropOp37
 70
     1
102
RTVSPost2010Prop38
140
0.0
102
RTVSPost2010PropOp38
 70
     1
102
RTVSPost2010Prop39
140
1.0
102
RTVSPost2010PropOp39
 70
     1
102
RTVSPost2010Prop40
 90
        0
102
RTVSPost2010PropOp40
 70
     1
102
RTVSPost2010Prop41ColorIndex
 90
       18
102
RTVSPost2010Prop41ColorRGB
 90
        0
102
RTVSPost2010PropOp41
 70
     1
102
RTVSPost2010Prop42
 90
       50
102
RTVSPost2010PropOp42
 70
     1
102
RTVSPost2010Prop43
 90
        3
102
RTVSPost2010PropOp43
 70
     1
102
RTVSPost2010Prop44ColorIndex
 90
        5
102
RTVSPost2010Prop44ColorRGB
 90
      255
102
RTVSPost2010PropOp44
 70
     1
102
RTVSPost2010Prop45
280
     0
102
RTVSPost2010PropOp45
 70
     1
102
RTVSPost2010Prop46
 90
       50
102
RTVSPost2010PropOp46
 70
     1
102
RTVSPost2010Prop47
 90
       50
102
RTVSPost2010PropOp47
 70
     1
102
RTVSPost2010Prop48
 90
       50
102
RTVSPost2010PropOp48
 70
     1
102
RTVSPost2010Prop49
280
     0
102
RTVSPost2010PropOp49
 70
     1
102
RTVSPost2010Prop50
 90
       50
102
RTVSPost2010PropOp50
 70
     1
102
RTVSPost2010Prop51ColorIndex
 90
      256
102
RTVSPost2010Prop51ColorRGB
 90
-16777216
102
RTVSPost2010PropOp51
 70
     0
102
RTVSPost2010Prop52
140
1.0
102
RTVSPost2010PropOp52
 70
     0
102
RTVSPost2010Prop53
 90
        2
102
RTVSPost2010PropOp53
 70
     1
102
RTVSPost2010Prop54
  1
strokes_ogs.tif
102
RTVSPost2010PropOp54
 70
     1
102
RTVSPost2010Prop55
280
     0
102
RTVSPost2010PropOp55
 70
     1
102
RTVSPost2010Prop56
140
1.0
102
RTVSPost2010PropOp56
 70
     1
102
RTVSPost2010Prop57
140
1.0
102
RTVSPost2010PropOp57
 70
     1
102
RTVSPropertyOp0
 70
     1
102
RTVSPropertyOp1
 70
     1
102
RTVSPropertyOp2
 70
     1
102
RTVSPropertyOp3
 70
     1
102
RTVSPropertyOp4
 70
     1
102
RTVSPropertyOp5
 70
     1
102
RTVSPropertyOp6
 70
     1
102
RTVSPropertyOp7
 70
     1
102
RTVSPropertyOp8
 70
     1
102
RTVSPropertyOp9
 70
     1
102
RTVSPropertyOp10
 70
     1
102
RTVSPropertyOp11
 70
     1
102
RTVSPropertyOp12
 70
     1
102
RTVSPropertyOp13
 70
     1
102
RTVSPropertyOp14
 70
     1
102
RTVSPropertyOp15
 70
     1
102
RTVSPropertyOp16
 70
     1
102
RTVSPropertyOp17
 70
     1
102
RTVSPropertyOp18
 70
     1
102
RTVSPropertyOp19
 70
     1
102
RTVSPropertyOp20
 70
     1
102
RTVSPropertyOp21
 70
     1
102
RTVSPropertyOp22
 70
     1
102
RTVSPropertyOp23
 70
     1
102
RTVSPropertyOp24
 70
     1
102
RTVSPropertyOp25
 70
     1
102
RTVSPropertyOp26
 70
     1
102
RTVSPropertyOp27
 70
     1
102
RTVSPropertyOp28
 70
     1
102
RTVSPropertyOp29
 70
     1
102
RTVSPropertyOp30
 70
     1
102
RTVSPropertyOp31
 70
     1
102
RTVSPropertyOp32
 70
     1
102
RTVSPropertyOp33
 70
     1
102
RTVSPropertyOp34
 70
     1
102
RTVSPropertyOp35
 70
     1
102
RTVSPropertyOp36
 70
     1
102
RTVSPropertyOp37
 70
     1
102
RTVSPropertyOp38
 70
     1
102
RTVSPropertyOp39
 70
     1
102
RTVSPropertyOp40
 70
     1
102
RTVSPropertyOp41
 70
     1
102
RTVSPropertyOp42
 70
     1
102
RTVSPropertyOp43
 70
     1
102
RTVSPropertyOp44
 70
     1
102
RTVSPropertyOp45
 70
     1
102
RTVSPropertyOp46
 70
     1
102
RTVSPropertyOp47
 70
     1
102
RTVSPropertyOp48
 70
     1
102
RTVSPropertyOp49
 70
     1
102
RTVSPropertyOp50
 70
     1
102
RTVSPropertyOp51
 70
     0
102
RTVSPropertyOp52
 70
     0
102
RTVSPropertyOp53
 70
     1
102
RTVSPropertyOp54
 70
     1
102
RTVSPropertyOp55
 70
     1
102
RTVSPropertyOp56
 70
     1
102
RTVSPropertyOp57
 70
     1
102
RTVSPropertyOp58
 70
     1
102
RTVSPropertyOp59
 70
     1
102
RTVSPropertyOp60
 70
     1
102
RTVSPropertyOp61
 70
     1
102
RTVSPropertyOp62
 70
     1
  0
XRECORD
  5
865C
102
{ACAD_REACTORS
330
865B
102
}
330
865B
100
AcDbXrecord
280
     1
102
RTVSPost2010Prop28
280
     0
102
RTVSPost2010PropOp28
 70
     1
102
RTVSPost2010Prop29
280
     1
102
RTVSPost2010PropOp29
 70
     1
102
RTVSPost2010Prop30
280
     1
102
RTVSPost2010PropOp30
 70
     1
102
RTVSPost2010Prop31
280
     0
102
RTVSPost2010PropOp31
 70
     1
102
RTVSPost2010Prop32
280
     0
102
RTVSPost2010PropOp32
 70
     1
102
RTVSPost2010Prop33
280
     0
102
RTVSPost2010PropOp33
 70
     1
102
RTVSPost2010Prop34
280
     0
102
RTVSPost2010PropOp34
 70
     1
102
RTVSPost2010Prop35
280
     0
102
RTVSPost2010PropOp35
 70
     1
102
RTVSPost2010Prop36
280
     0
102
RTVSPost2010PropOp36
 70
     1
102
RTVSPost2010Prop37
 90
       50
102
RTVSPost2010PropOp37
 70
     1
102
RTVSPost2010Prop38
140
0.0
102
RTVSPost2010PropOp38
 70
     1
102
RTVSPost2010Prop39
140
1.0
102
RTVSPost2010PropOp39
 70
     1
102
RTVSPost2010Prop40
 90
        0
102
RTVSPost2010PropOp40
 70
     1
102
RTVSPost2010Prop41ColorIndex
 90
       18
102
RTVSPost2010Prop41ColorRGB
 90
        0
102
RTVSPost2010PropOp41
 70
     1
102
RTVSPost2010Prop42
 90
       50
102
RTVSPost2010PropOp42
 70
     1
102
RTVSPost2010Prop43
 90
        3
102
RTVSPost2010PropOp43
 70
     1
102
RTVSPost2010Prop44ColorIndex
 90
        5
102
RTVSPost2010Prop44ColorRGB
 90
      255
102
RTVSPost2010PropOp44
 70
     1
102
RTVSPost2010Prop45
280
     0
102
RTVSPost2010PropOp45
 70
     1
102
RTVSPost2010Prop46
 90
       50
102
RTVSPost2010PropOp46
 70
     1
102
RTVSPost2010Prop47
 90
       50
102
RTVSPost2010PropOp47
 70
     1
102
RTVSPost2010Prop48
 90
       50
102
RTVSPost2010PropOp48
 70
     1
102
RTVSPost2010Prop49
280
     0
102
RTVSPost2010PropOp49
 70
     1
102
RTVSPost2010Prop50
 90
       50
102
RTVSPost2010PropOp50
 70
     1
102
RTVSPost2010Prop51ColorIndex
 90
      256
102
RTVSPost2010Prop51ColorRGB
 90
-16777216
102
RTVSPost2010PropOp51
 70
     0
102
RTVSPost2010Prop52
140
1.0
102
RTVSPost2010PropOp52
 70
     0
102
RTVSPost2010Prop53
 90
        2
102
RTVSPost2010PropOp53
 70
     1
102
RTVSPost2010Prop54
  1
strokes_ogs.tif
102
RTVSPost2010PropOp54
 70
     1
102
RTVSPost2010Prop55
280
     0
102
RTVSPost2010PropOp55
 70
     1
102
RTVSPost2010Prop56
140
1.0
102
RTVSPost2010PropOp56
 70
     1
102
RTVSPost2010Prop57
140
1.0
102
RTVSPost2010PropOp57
 70
     1
102
RTVSPropertyOp0
 70
     1
102
RTVSPropertyOp1
 70
     1
102
RTVSPropertyOp2
 70
     1
102
RTVSPropertyOp3
 70
     1
102
RTVSPropertyOp4
 70
     1
102
RTVSPropertyOp5
 70
     1
102
RTVSPropertyOp6
 70
     1
102
RTVSPropertyOp7
 70
     1
102
RTVSPropertyOp8
 70
     1
102
RTVSPropertyOp9
 70
     1
102
RTVSPropertyOp10
 70
     1
102
RTVSPropertyOp11
 70
     1
102
RTVSPropertyOp12
 70
     1
102
RTVSPropertyOp13
 70
     1
102
RTVSPropertyOp14
 70
     1
102
RTVSPropertyOp15
 70
     1
102
RTVSPropertyOp16
 70
     1
102
RTVSPropertyOp17
 70
     1
102
RTVSPropertyOp18
 70
     1
102
RTVSPropertyOp19
 70
     1
102
RTVSPropertyOp20
 70
     1
102
RTVSPropertyOp21
 70
     1
102
RTVSPropertyOp22
 70
     1
102
RTVSPropertyOp23
 70
     1
102
RTVSPropertyOp24
 70
     1
102
RTVSPropertyOp25
 70
     1
102
RTVSPropertyOp26
 70
     1
102
RTVSPropertyOp27
 70
     1
102
RTVSPropertyOp28
 70
     1
102
RTVSPropertyOp29
 70
     1
102
RTVSPropertyOp30
 70
     1
102
RTVSPropertyOp31
 70
     1
102
RTVSPropertyOp32
 70
     1
102
RTVSPropertyOp33
 70
     1
102
RTVSPropertyOp34
 70
     1
102
RTVSPropertyOp35
 70
     1
102
RTVSPropertyOp36
 70
     1
102
RTVSPropertyOp37
 70
     1
102
RTVSPropertyOp38
 70
     1
102
RTVSPropertyOp39
 70
     1
102
RTVSPropertyOp40
 70
     1
102
RTVSPropertyOp41
 70
     1
102
RTVSPropertyOp42
 70
     1
102
RTVSPropertyOp43
 70
     1
102
RTVSPropertyOp44
 70
     1
102
RTVSPropertyOp45
 70
     1
102
RTVSPropertyOp46
 70
     1
102
RTVSPropertyOp47
 70
     1
102
RTVSPropertyOp48
 70
     1
102
RTVSPropertyOp49
 70
     1
102
RTVSPropertyOp50
 70
     1
102
RTVSPropertyOp51
 70
     0
102
RTVSPropertyOp52
 70
     0
102
RTVSPropertyOp53
 70
     1
102
RTVSPropertyOp54
 70
     1
102
RTVSPropertyOp55
 70
     1
102
RTVSPropertyOp56
 70
     1
102
RTVSPropertyOp57
 70
     1
102
RTVSPropertyOp58
 70
     1
102
RTVSPropertyOp59
 70
     1
102
RTVSPropertyOp60
 70
     1
102
RTVSPropertyOp61
 70
     1
102
RTVSPropertyOp62
 70
     1
  0
XRECORD
  5
865E
102
{ACAD_REACTORS
330
865D
102
}
330
865D
100
AcDbXrecord
280
     1
102
RTVSPost2010Prop28
280
     0
102
RTVSPost2010PropOp28
 70
     1
102
RTVSPost2010Prop29
280
     1
102
RTVSPost2010PropOp29
 70
     1
102
RTVSPost2010Prop30
280
     1
102
RTVSPost2010PropOp30
 70
     1
102
RTVSPost2010Prop31
280
     0
102
RTVSPost2010PropOp31
 70
     1
102
RTVSPost2010Prop32
280
     0
102
RTVSPost2010PropOp32
 70
     1
102
RTVSPost2010Prop33
280
     0
102
RTVSPost2010PropOp33
 70
     1
102
RTVSPost2010Prop34
280
     0
102
RTVSPost2010PropOp34
 70
     1
102
RTVSPost2010Prop35
280
     0
102
RTVSPost2010PropOp35
 70
     1
102
RTVSPost2010Prop36
280
     0
102
RTVSPost2010PropOp36
 70
     1
102
RTVSPost2010Prop37
 90
       50
102
RTVSPost2010PropOp37
 70
     1
102
RTVSPost2010Prop38
140
0.0
102
RTVSPost2010PropOp38
 70
     1
102
RTVSPost2010Prop39
140
1.0
102
RTVSPost2010PropOp39
 70
     1
102
RTVSPost2010Prop40
 90
        0
102
RTVSPost2010PropOp40
 70
     1
102
RTVSPost2010Prop41ColorIndex
 90
       18
102
RTVSPost2010Prop41ColorRGB
 90
        0
102
RTVSPost2010PropOp41
 70
     1
102
RTVSPost2010Prop42
 90
       50
102
RTVSPost2010PropOp42
 70
     1
102
RTVSPost2010Prop43
 90
        3
102
RTVSPost2010PropOp43
 70
     1
102
RTVSPost2010Prop44ColorIndex
 90
        5
102
RTVSPost2010Prop44ColorRGB
 90
      255
102
RTVSPost2010PropOp44
 70
     1
102
RTVSPost2010Prop45
280
     0
102
RTVSPost2010PropOp45
 70
     1
102
RTVSPost2010Prop46
 90
       50
102
RTVSPost2010PropOp46
 70
     1
102
RTVSPost2010Prop47
 90
       50
102
RTVSPost2010PropOp47
 70
     1
102
RTVSPost2010Prop48
 90
       50
102
RTVSPost2010PropOp48
 70
     1
102
RTVSPost2010Prop49
280
     0
102
RTVSPost2010PropOp49
 70
     1
102
RTVSPost2010Prop50
 90
       50
102
RTVSPost2010PropOp50
 70
     1
102
RTVSPost2010Prop51ColorIndex
 90
      256
102
RTVSPost2010Prop51ColorRGB
 90
-16777216
102
RTVSPost2010PropOp51
 70
     0
102
RTVSPost2010Prop52
140
1.0
102
RTVSPost2010PropOp52
 70
     0
102
RTVSPost2010Prop53
 90
        2
102
RTVSPost2010PropOp53
 70
     1
102
RTVSPost2010Prop54
  1
strokes_ogs.tif
102
RTVSPost2010PropOp54
 70
     1
102
RTVSPost2010Prop55
280
     0
102
RTVSPost2010PropOp55
 70
     1
102
RTVSPost2010Prop56
140
1.0
102
RTVSPost2010PropOp56
 70
     1
102
RTVSPost2010Prop57
140
1.0
102
RTVSPost2010PropOp57
 70
     1
102
RTVSPropertyOp0
 70
     1
102
RTVSPropertyOp1
 70
     1
102
RTVSPropertyOp2
 70
     1
102
RTVSPropertyOp3
 70
     1
102
RTVSPropertyOp4
 70
     1
102
RTVSPropertyOp5
 70
     1
102
RTVSPropertyOp6
 70
     1
102
RTVSPropertyOp7
 70
     1
102
RTVSPropertyOp8
 70
     1
102
RTVSPropertyOp9
 70
     1
102
RTVSPropertyOp10
 70
     1
102
RTVSPropertyOp11
 70
     1
102
RTVSPropertyOp12
 70
     1
102
RTVSPropertyOp13
 70
     1
102
RTVSPropertyOp14
 70
     1
102
RTVSPropertyOp15
 70
     1
102
RTVSPropertyOp16
 70
     1
102
RTVSPropertyOp17
 70
     1
102
RTVSPropertyOp18
 70
     1
102
RTVSPropertyOp19
 70
     1
102
RTVSPropertyOp20
 70
     1
102
RTVSPropertyOp21
 70
     1
102
RTVSPropertyOp22
 70
     1
102
RTVSPropertyOp23
 70
     1
102
RTVSPropertyOp24
 70
     1
102
RTVSPropertyOp25
 70
     1
102
RTVSPropertyOp26
 70
     1
102
RTVSPropertyOp27
 70
     1
102
RTVSPropertyOp28
 70
     1
102
RTVSPropertyOp29
 70
     1
102
RTVSPropertyOp30
 70
     1
102
RTVSPropertyOp31
 70
     1
102
RTVSPropertyOp32
 70
     1
102
RTVSPropertyOp33
 70
     1
102
RTVSPropertyOp34
 70
     1
102
RTVSPropertyOp35
 70
     1
102
RTVSPropertyOp36
 70
     1
102
RTVSPropertyOp37
 70
     1
102
RTVSPropertyOp38
 70
     1
102
RTVSPropertyOp39
 70
     1
102
RTVSPropertyOp40
 70
     1
102
RTVSPropertyOp41
 70
     1
102
RTVSPropertyOp42
 70
     1
102
RTVSPropertyOp43
 70
     1
102
RTVSPropertyOp44
 70
     1
102
RTVSPropertyOp45
 70
     1
102
RTVSPropertyOp46
 70
     1
102
RTVSPropertyOp47
 70
     1
102
RTVSPropertyOp48
 70
     1
102
RTVSPropertyOp49
 70
     1
102
RTVSPropertyOp50
 70
     1
102
RTVSPropertyOp51
 70
     0
102
RTVSPropertyOp52
 70
     0
102
RTVSPropertyOp53
 70
     1
102
RTVSPropertyOp54
 70
     1
102
RTVSPropertyOp55
 70
     1
102
RTVSPropertyOp56
 70
     1
102
RTVSPropertyOp57
 70
     1
102
RTVSPropertyOp58
 70
     1
102
RTVSPropertyOp59
 70
     1
102
RTVSPropertyOp60
 70
     1
102
RTVSPropertyOp61
 70
     1
102
RTVSPropertyOp62
 70
     1
  0
XRECORD
  5
8660
102
{ACAD_REACTORS
330
865F
102
}
330
865F
100
AcDbXrecord
280
     1
102
RTVSPost2010Prop28
280
     0
102
RTVSPost2010PropOp28
 70
     1
102
RTVSPost2010Prop29
280
     1
102
RTVSPost2010PropOp29
 70
     1
102
RTVSPost2010Prop30
280
     1
102
RTVSPost2010PropOp30
 70
     1
102
RTVSPost2010Prop31
280
     0
102
RTVSPost2010PropOp31
 70
     1
102
RTVSPost2010Prop32
280
     0
102
RTVSPost2010PropOp32
 70
     1
102
RTVSPost2010Prop33
280
     0
102
RTVSPost2010PropOp33
 70
     1
102
RTVSPost2010Prop34
280
     0
102
RTVSPost2010PropOp34
 70
     1
102
RTVSPost2010Prop35
280
     0
102
RTVSPost2010PropOp35
 70
     1
102
RTVSPost2010Prop36
280
     0
102
RTVSPost2010PropOp36
 70
     1
102
RTVSPost2010Prop37
 90
       50
102
RTVSPost2010PropOp37
 70
     1
102
RTVSPost2010Prop38
140
0.0
102
RTVSPost2010PropOp38
 70
     1
102
RTVSPost2010Prop39
140
1.0
102
RTVSPost2010PropOp39
 70
     1
102
RTVSPost2010Prop40
 90
        0
102
RTVSPost2010PropOp40
 70
     1
102
RTVSPost2010Prop41ColorIndex
 90
       18
102
RTVSPost2010Prop41ColorRGB
 90
        0
102
RTVSPost2010PropOp41
 70
     1
102
RTVSPost2010Prop42
 90
       50
102
RTVSPost2010PropOp42
 70
     1
102
RTVSPost2010Prop43
 90
        3
102
RTVSPost2010PropOp43
 70
     1
102
RTVSPost2010Prop44ColorIndex
 90
        5
102
RTVSPost2010Prop44ColorRGB
 90
      255
102
RTVSPost2010PropOp44
 70
     1
102
RTVSPost2010Prop45
280
     0
102
RTVSPost2010PropOp45
 70
     1
102
RTVSPost2010Prop46
 90
       50
102
RTVSPost2010PropOp46
 70
     1
102
RTVSPost2010Prop47
 90
       50
102
RTVSPost2010PropOp47
 70
     1
102
RTVSPost2010Prop48
 90
       50
102
RTVSPost2010PropOp48
 70
     1
102
RTVSPost2010Prop49
280
     0
102
RTVSPost2010PropOp49
 70
     1
102
RTVSPost2010Prop50
 90
       50
102
RTVSPost2010PropOp50
 70
     1
102
RTVSPost2010Prop51ColorIndex
 90
      256
102
RTVSPost2010Prop51ColorRGB
 90
-16777216
102
RTVSPost2010PropOp51
 70
     0
102
RTVSPost2010Prop52
140
1.0
102
RTVSPost2010PropOp52
 70
     0
102
RTVSPost2010Prop53
 90
        2
102
RTVSPost2010PropOp53
 70
     1
102
RTVSPost2010Prop54
  1
strokes_ogs.tif
102
RTVSPost2010PropOp54
 70
     1
102
RTVSPost2010Prop55
280
     0
102
RTVSPost2010PropOp55
 70
     1
102
RTVSPost2010Prop56
140
1.0
102
RTVSPost2010PropOp56
 70
     1
102
RTVSPost2010Prop57
140
1.0
102
RTVSPost2010PropOp57
 70
     1
102
RTVSPropertyOp0
 70
     1
102
RTVSPropertyOp1
 70
     1
102
RTVSPropertyOp2
 70
     1
102
RTVSPropertyOp3
 70
     1
102
RTVSPropertyOp4
 70
     1
102
RTVSPropertyOp5
 70
     1
102
RTVSPropertyOp6
 70
     1
102
RTVSPropertyOp7
 70
     1
102
RTVSPropertyOp8
 70
     1
102
RTVSPropertyOp9
 70
     1
102
RTVSPropertyOp10
 70
     1
102
RTVSPropertyOp11
 70
     1
102
RTVSPropertyOp12
 70
     1
102
RTVSPropertyOp13
 70
     1
102
RTVSPropertyOp14
 70
     1
102
RTVSPropertyOp15
 70
     1
102
RTVSPropertyOp16
 70
     1
102
RTVSPropertyOp17
 70
     1
102
RTVSPropertyOp18
 70
     1
102
RTVSPropertyOp19
 70
     1
102
RTVSPropertyOp20
 70
     1
102
RTVSPropertyOp21
 70
     1
102
RTVSPropertyOp22
 70
     1
102
RTVSPropertyOp23
 70
     1
102
RTVSPropertyOp24
 70
     1
102
RTVSPropertyOp25
 70
     1
102
RTVSPropertyOp26
 70
     1
102
RTVSPropertyOp27
 70
     1
102
RTVSPropertyOp28
 70
     1
102
RTVSPropertyOp29
 70
     1
102
RTVSPropertyOp30
 70
     1
102
RTVSPropertyOp31
 70
     1
102
RTVSPropertyOp32
 70
     1
102
RTVSPropertyOp33
 70
     1
102
RTVSPropertyOp34
 70
     1
102
RTVSPropertyOp35
 70
     1
102
RTVSPropertyOp36
 70
     1
102
RTVSPropertyOp37
 70
     1
102
RTVSPropertyOp38
 70
     1
102
RTVSPropertyOp39
 70
     1
102
RTVSPropertyOp40
 70
     1
102
RTVSPropertyOp41
 70
     1
102
RTVSPropertyOp42
 70
     1
102
RTVSPropertyOp43
 70
     1
102
RTVSPropertyOp44
 70
     1
102
RTVSPropertyOp45
 70
     1
102
RTVSPropertyOp46
 70
     1
102
RTVSPropertyOp47
 70
     1
102
RTVSPropertyOp48
 70
     1
102
RTVSPropertyOp49
 70
     1
102
RTVSPropertyOp50
 70
     1
102
RTVSPropertyOp51
 70
     0
102
RTVSPropertyOp52
 70
     0
102
RTVSPropertyOp53
 70
     1
102
RTVSPropertyOp54
 70
     1
102
RTVSPropertyOp55
 70
     1
102
RTVSPropertyOp56
 70
     1
102
RTVSPropertyOp57
 70
     1
102
RTVSPropertyOp58
 70
     1
102
RTVSPropertyOp59
 70
     1
102
RTVSPropertyOp60
 70
     1
102
RTVSPropertyOp61
 70
     1
102
RTVSPropertyOp62
 70
     1
  0
XRECORD
  5
8662
102
{ACAD_REACTORS
330
8661
102
}
330
8661
100
AcDbXrecord
280
     1
102
RTVSPost2010Prop28
280
     0
102
RTVSPost2010PropOp28
 70
     1
102
RTVSPost2010Prop29
280
     1
102
RTVSPost2010PropOp29
 70
     1
102
RTVSPost2010Prop30
280
     1
102
RTVSPost2010PropOp30
 70
     1
102
RTVSPost2010Prop31
280
     0
102
RTVSPost2010PropOp31
 70
     1
102
RTVSPost2010Prop32
280
     0
102
RTVSPost2010PropOp32
 70
     1
102
RTVSPost2010Prop33
280
     0
102
RTVSPost2010PropOp33
 70
     1
102
RTVSPost2010Prop34
280
     0
102
RTVSPost2010PropOp34
 70
     1
102
RTVSPost2010Prop35
280
     0
102
RTVSPost2010PropOp35
 70
     1
102
RTVSPost2010Prop36
280
     0
102
RTVSPost2010PropOp36
 70
     1
102
RTVSPost2010Prop37
 90
       50
102
RTVSPost2010PropOp37
 70
     1
102
RTVSPost2010Prop38
140
0.0
102
RTVSPost2010PropOp38
 70
     1
102
RTVSPost2010Prop39
140
1.0
102
RTVSPost2010PropOp39
 70
     1
102
RTVSPost2010Prop40
 90
        0
102
RTVSPost2010PropOp40
 70
     1
102
RTVSPost2010Prop41ColorIndex
 90
       18
102
RTVSPost2010Prop41ColorRGB
 90
        0
102
RTVSPost2010PropOp41
 70
     1
102
RTVSPost2010Prop42
 90
       50
102
RTVSPost2010PropOp42
 70
     1
102
RTVSPost2010Prop43
 90
        3
102
RTVSPost2010PropOp43
 70
     1
102
RTVSPost2010Prop44ColorIndex
 90
        5
102
RTVSPost2010Prop44ColorRGB
 90
      255
102
RTVSPost2010PropOp44
 70
     1
102
RTVSPost2010Prop45
280
     0
102
RTVSPost2010PropOp45
 70
     1
102
RTVSPost2010Prop46
 90
       50
102
RTVSPost2010PropOp46
 70
     1
102
RTVSPost2010Prop47
 90
       50
102
RTVSPost2010PropOp47
 70
     1
102
RTVSPost2010Prop48
 90
       50
102
RTVSPost2010PropOp48
 70
     1
102
RTVSPost2010Prop49
280
     0
102
RTVSPost2010PropOp49
 70
     1
102
RTVSPost2010Prop50
 90
       50
102
RTVSPost2010PropOp50
 70
     1
102
RTVSPost2010Prop51ColorIndex
 90
      256
102
RTVSPost2010Prop51ColorRGB
 90
-16777216
102
RTVSPost2010PropOp51
 70
     0
102
RTVSPost2010Prop52
140
1.0
102
RTVSPost2010PropOp52
 70
     0
102
RTVSPost2010Prop53
 90
        2
102
RTVSPost2010PropOp53
 70
     1
102
RTVSPost2010Prop54
  1
strokes_ogs.tif
102
RTVSPost2010PropOp54
 70
     1
102
RTVSPost2010Prop55
280
     0
102
RTVSPost2010PropOp55
 70
     1
102
RTVSPost2010Prop56
140
1.0
102
RTVSPost2010PropOp56
 70
     1
102
RTVSPost2010Prop57
140
1.0
102
RTVSPost2010PropOp57
 70
     1
102
RTVSPropertyOp0
 70
     1
102
RTVSPropertyOp1
 70
     1
102
RTVSPropertyOp2
 70
     1
102
RTVSPropertyOp3
 70
     1
102
RTVSPropertyOp4
 70
     1
102
RTVSPropertyOp5
 70
     1
102
RTVSPropertyOp6
 70
     1
102
RTVSPropertyOp7
 70
     1
102
RTVSPropertyOp8
 70
     1
102
RTVSPropertyOp9
 70
     1
102
RTVSPropertyOp10
 70
     1
102
RTVSPropertyOp11
 70
     1
102
RTVSPropertyOp12
 70
     1
102
RTVSPropertyOp13
 70
     1
102
RTVSPropertyOp14
 70
     1
102
RTVSPropertyOp15
 70
     1
102
RTVSPropertyOp16
 70
     1
102
RTVSPropertyOp17
 70
     1
102
RTVSPropertyOp18
 70
     1
102
RTVSPropertyOp19
 70
     1
102
RTVSPropertyOp20
 70
     1
102
RTVSPropertyOp21
 70
     1
102
RTVSPropertyOp22
 70
     1
102
RTVSPropertyOp23
 70
     1
102
RTVSPropertyOp24
 70
     1
102
RTVSPropertyOp25
 70
     1
102
RTVSPropertyOp26
 70
     1
102
RTVSPropertyOp27
 70
     1
102
RTVSPropertyOp28
 70
     1
102
RTVSPropertyOp29
 70
     1
102
RTVSPropertyOp30
 70
     1
102
RTVSPropertyOp31
 70
     1
102
RTVSPropertyOp32
 70
     1
102
RTVSPropertyOp33
 70
     1
102
RTVSPropertyOp34
 70
     1
102
RTVSPropertyOp35
 70
     1
102
RTVSPropertyOp36
 70
     1
102
RTVSPropertyOp37
 70
     1
102
RTVSPropertyOp38
 70
     1
102
RTVSPropertyOp39
 70
     1
102
RTVSPropertyOp40
 70
     1
102
RTVSPropertyOp41
 70
     1
102
RTVSPropertyOp42
 70
     1
102
RTVSPropertyOp43
 70
     1
102
RTVSPropertyOp44
 70
     1
102
RTVSPropertyOp45
 70
     1
102
RTVSPropertyOp46
 70
     1
102
RTVSPropertyOp47
 70
     1
102
RTVSPropertyOp48
 70
     1
102
RTVSPropertyOp49
 70
     1
102
RTVSPropertyOp50
 70
     1
102
RTVSPropertyOp51
 70
     0
102
RTVSPropertyOp52
 70
     0
102
RTVSPropertyOp53
 70
     1
102
RTVSPropertyOp54
 70
     1
102
RTVSPropertyOp55
 70
     1
102
RTVSPropertyOp56
 70
     1
102
RTVSPropertyOp57
 70
     1
102
RTVSPropertyOp58
 70
     1
102
RTVSPropertyOp59
 70
     1
102
RTVSPropertyOp60
 70
     1
102
RTVSPropertyOp61
 70
     1
102
RTVSPropertyOp62
 70
     1
  0
XRECORD
  5
866A
102
{ACAD_REACTORS
330
8669
102
}
330
8669
100
AcDbXrecord
280
     1
102
RTVSPost2010Prop28
280
     0
102
RTVSPost2010PropOp28
 70
     1
102
RTVSPost2010Prop29
280
     1
102
RTVSPost2010PropOp29
 70
     1
102
RTVSPost2010Prop30
280
     1
102
RTVSPost2010PropOp30
 70
     1
102
RTVSPost2010Prop31
280
     0
102
RTVSPost2010PropOp31
 70
     1
102
RTVSPost2010Prop32
280
     0
102
RTVSPost2010PropOp32
 70
     1
102
RTVSPost2010Prop33
280
     0
102
RTVSPost2010PropOp33
 70
     1
102
RTVSPost2010Prop34
280
     0
102
RTVSPost2010PropOp34
 70
     1
102
RTVSPost2010Prop35
280
     0
102
RTVSPost2010PropOp35
 70
     1
102
RTVSPost2010Prop36
280
     0
102
RTVSPost2010PropOp36
 70
     1
102
RTVSPost2010Prop37
 90
       50
102
RTVSPost2010PropOp37
 70
     1
102
RTVSPost2010Prop38
140
0.0
102
RTVSPost2010PropOp38
 70
     1
102
RTVSPost2010Prop39
140
1.0
102
RTVSPost2010PropOp39
 70
     1
102
RTVSPost2010Prop40
 90
        0
102
RTVSPost2010PropOp40
 70
     1
102
RTVSPost2010Prop41ColorIndex
 90
       18
102
RTVSPost2010Prop41ColorRGB
 90
        0
102
RTVSPost2010PropOp41
 70
     1
102
RTVSPost2010Prop42
 90
       50
102
RTVSPost2010PropOp42
 70
     1
102
RTVSPost2010Prop43
 90
        3
102
RTVSPost2010PropOp43
 70
     1
102
RTVSPost2010Prop44ColorIndex
 90
        5
102
RTVSPost2010Prop44ColorRGB
 90
      255
102
RTVSPost2010PropOp44
 70
     1
102
RTVSPost2010Prop45
280
     0
102
RTVSPost2010PropOp45
 70
     1
102
RTVSPost2010Prop46
 90
       50
102
RTVSPost2010PropOp46
 70
     1
102
RTVSPost2010Prop47
 90
       50
102
RTVSPost2010PropOp47
 70
     1
102
RTVSPost2010Prop48
 90
       50
102
RTVSPost2010PropOp48
 70
     1
102
RTVSPost2010Prop49
280
     0
102
RTVSPost2010PropOp49
 70
     1
102
RTVSPost2010Prop50
 90
       50
102
RTVSPost2010PropOp50
 70
     1
102
RTVSPost2010Prop51ColorIndex
 90
      256
102
RTVSPost2010Prop51ColorRGB
 90
-16777216
102
RTVSPost2010PropOp51
 70
     0
102
RTVSPost2010Prop52
140
1.0
102
RTVSPost2010PropOp52
 70
     0
102
RTVSPost2010Prop53
 90
        2
102
RTVSPost2010PropOp53
 70
     1
102
RTVSPost2010Prop54
  1
strokes_ogs.tif
102
RTVSPost2010PropOp54
 70
     1
102
RTVSPost2010Prop55
280
     0
102
RTVSPost2010PropOp55
 70
     1
102
RTVSPost2010Prop56
140
1.0
102
RTVSPost2010PropOp56
 70
     1
102
RTVSPost2010Prop57
140
1.0
102
RTVSPost2010PropOp57
 70
     1
102
RTVSPropertyOp0
 70
     1
102
RTVSPropertyOp1
 70
     1
102
RTVSPropertyOp2
 70
     1
102
RTVSPropertyOp3
 70
     1
102
RTVSPropertyOp4
 70
     1
102
RTVSPropertyOp5
 70
     1
102
RTVSPropertyOp6
 70
     1
102
RTVSPropertyOp7
 70
     1
102
RTVSPropertyOp8
 70
     1
102
RTVSPropertyOp9
 70
     1
102
RTVSPropertyOp10
 70
     1
102
RTVSPropertyOp11
 70
     1
102
RTVSPropertyOp12
 70
     1
102
RTVSPropertyOp13
 70
     1
102
RTVSPropertyOp14
 70
     1
102
RTVSPropertyOp15
 70
     1
102
RTVSPropertyOp16
 70
     1
102
RTVSPropertyOp17
 70
     1
102
RTVSPropertyOp18
 70
     1
102
RTVSPropertyOp19
 70
     1
102
RTVSPropertyOp20
 70
     1
102
RTVSPropertyOp21
 70
     1
102
RTVSPropertyOp22
 70
     1
102
RTVSPropertyOp23
 70
     1
102
RTVSPropertyOp24
 70
     1
102
RTVSPropertyOp25
 70
     1
102
RTVSPropertyOp26
 70
     1
102
RTVSPropertyOp27
 70
     1
102
RTVSPropertyOp28
 70
     1
102
RTVSPropertyOp29
 70
     1
102
RTVSPropertyOp30
 70
     1
102
RTVSPropertyOp31
 70
     1
102
RTVSPropertyOp32
 70
     1
102
RTVSPropertyOp33
 70
     1
102
RTVSPropertyOp34
 70
     1
102
RTVSPropertyOp35
 70
     1
102
RTVSPropertyOp36
 70
     1
102
RTVSPropertyOp37
 70
     1
102
RTVSPropertyOp38
 70
     1
102
RTVSPropertyOp39
 70
     1
102
RTVSPropertyOp40
 70
     1
102
RTVSPropertyOp41
 70
     1
102
RTVSPropertyOp42
 70
     1
102
RTVSPropertyOp43
 70
     1
102
RTVSPropertyOp44
 70
     1
102
RTVSPropertyOp45
 70
     1
102
RTVSPropertyOp46
 70
     1
102
RTVSPropertyOp47
 70
     1
102
RTVSPropertyOp48
 70
     1
102
RTVSPropertyOp49
 70
     1
102
RTVSPropertyOp50
 70
     1
102
RTVSPropertyOp51
 70
     0
102
RTVSPropertyOp52
 70
     0
102
RTVSPropertyOp53
 70
     1
102
RTVSPropertyOp54
 70
     1
102
RTVSPropertyOp55
 70
     1
102
RTVSPropertyOp56
 70
     1
102
RTVSPropertyOp57
 70
     1
102
RTVSPropertyOp58
 70
     1
102
RTVSPropertyOp59
 70
     1
102
RTVSPropertyOp60
 70
     1
102
RTVSPropertyOp61
 70
     1
102
RTVSPropertyOp62
 70
     1
  0
XRECORD
  5
8686
102
{ACAD_REACTORS
330
8685
102
}
330
8685
100
AcDbXrecord
280
     1
102
RTVSPost2010Prop28
280
     0
102
RTVSPost2010PropOp28
 70
     1
102
RTVSPost2010Prop29
280
     1
102
RTVSPost2010PropOp29
 70
     1
102
RTVSPost2010Prop30
280
     1
102
RTVSPost2010PropOp30
 70
     1
102
RTVSPost2010Prop31
280
     0
102
RTVSPost2010PropOp31
 70
     1
102
RTVSPost2010Prop32
280
     0
102
RTVSPost2010PropOp32
 70
     1
102
RTVSPost2010Prop33
280
     0
102
RTVSPost2010PropOp33
 70
     1
102
RTVSPost2010Prop34
280
     0
102
RTVSPost2010PropOp34
 70
     1
102
RTVSPost2010Prop35
280
     0
102
RTVSPost2010PropOp35
 70
     1
102
RTVSPost2010Prop36
280
     0
102
RTVSPost2010PropOp36
 70
     1
102
RTVSPost2010Prop37
 90
       50
102
RTVSPost2010PropOp37
 70
     0
102
RTVSPost2010Prop38
140
0.0
102
RTVSPost2010PropOp38
 70
     0
102
RTVSPost2010Prop39
140
1.0
102
RTVSPost2010PropOp39
 70
     0
102
RTVSPost2010Prop40
 90
        0
102
RTVSPost2010PropOp40
 70
     0
102
RTVSPost2010Prop41ColorIndex
 90
       18
102
RTVSPost2010Prop41ColorRGB
 90
        0
102
RTVSPost2010PropOp41
 70
     0
102
RTVSPost2010Prop42
 90
       50
102
RTVSPost2010PropOp42
 70
     0
102
RTVSPost2010Prop43
 90
        3
102
RTVSPost2010PropOp43
 70
     0
102
RTVSPost2010Prop44ColorIndex
 90
        5
102
RTVSPost2010Prop44ColorRGB
 90
      255
102
RTVSPost2010PropOp44
 70
     0
102
RTVSPost2010Prop45
280
     0
102
RTVSPost2010PropOp45
 70
     1
102
RTVSPost2010Prop46
 90
       50
102
RTVSPost2010PropOp46
 70
     0
102
RTVSPost2010Prop47
 90
       50
102
RTVSPost2010PropOp47
 70
     0
102
RTVSPost2010Prop48
 90
       50
102
RTVSPost2010PropOp48
 70
     0
102
RTVSPost2010Prop49
280
     0
102
RTVSPost2010PropOp49
 70
     1
102
RTVSPost2010Prop50
 90
       50
102
RTVSPost2010PropOp50
 70
     0
102
RTVSPost2010Prop51ColorIndex
 90
      256
102
RTVSPost2010Prop51ColorRGB
 90
-16777216
102
RTVSPost2010PropOp51
 70
     0
102
RTVSPost2010Prop52
140
1.0
102
RTVSPost2010PropOp52
 70
     0
102
RTVSPost2010Prop53
 90
        2
102
RTVSPost2010PropOp53
 70
     0
102
RTVSPost2010Prop54
  1
strokes_ogs.tif
102
RTVSPost2010PropOp54
 70
     0
102
RTVSPost2010Prop55
280
     0
102
RTVSPost2010PropOp55
 70
     1
102
RTVSPost2010Prop56
140
1.0
102
RTVSPost2010PropOp56
 70
     0
102
RTVSPost2010Prop57
140
1.0
102
RTVSPost2010PropOp57
 70
     0
102
RTVSPropertyOp0
 70
     0
102
RTVSPropertyOp1
 70
     0
102
RTVSPropertyOp2
 70
     0
102
RTVSPropertyOp3
 70
     0
102
RTVSPropertyOp4
 70
     0
102
RTVSPropertyOp5
 70
     0
102
RTVSPropertyOp6
 70
     0
102
RTVSPropertyOp7
 70
     0
102
RTVSPropertyOp8
 70
     0
102
RTVSPropertyOp9
 70
     0
102
RTVSPropertyOp10
 70
     0
102
RTVSPropertyOp11
 70
     0
102
RTVSPropertyOp12
 70
     0
102
RTVSPropertyOp13
 70
     0
102
RTVSPropertyOp14
 70
     2
102
RTVSPropertyOp15
 70
     0
102
RTVSPropertyOp16
 70
     0
102
RTVSPropertyOp17
 70
     0
102
RTVSPropertyOp18
 70
     0
102
RTVSPropertyOp19
 70
     0
102
RTVSPropertyOp20
 70
     0
102
RTVSPropertyOp21
 70
     0
102
RTVSPropertyOp22
 70
     0
102
RTVSPropertyOp23
 70
     0
102
RTVSPropertyOp24
 70
     0
102
RTVSPropertyOp25
 70
     0
102
RTVSPropertyOp26
 70
     0
102
RTVSPropertyOp27
 70
     0
102
RTVSPropertyOp28
 70
     1
102
RTVSPropertyOp29
 70
     1
102
RTVSPropertyOp30
 70
     1
102
RTVSPropertyOp31
 70
     1
102
RTVSPropertyOp32
 70
     1
102
RTVSPropertyOp33
 70
     1
102
RTVSPropertyOp34
 70
     1
102
RTVSPropertyOp35
 70
     1
102
RTVSPropertyOp36
 70
     1
102
RTVSPropertyOp37
 70
     0
102
RTVSPropertyOp38
 70
     0
102
RTVSPropertyOp39
 70
     0
102
RTVSPropertyOp40
 70
     0
102
RTVSPropertyOp41
 70
     0
102
RTVSPropertyOp42
 70
     0
102
RTVSPropertyOp43
 70
     0
102
RTVSPropertyOp44
 70
     0
102
RTVSPropertyOp45
 70
     1
102
RTVSPropertyOp46
 70
     0
102
RTVSPropertyOp47
 70
     0
102
RTVSPropertyOp48
 70
     0
102
RTVSPropertyOp49
 70
     1
102
RTVSPropertyOp50
 70
     0
102
RTVSPropertyOp51
 70
     0
102
RTVSPropertyOp52
 70
     0
102
RTVSPropertyOp53
 70
     0
102
RTVSPropertyOp54
 70
     0
102
RTVSPropertyOp55
 70
     1
102
RTVSPropertyOp56
 70
     0
102
RTVSPropertyOp57
 70
     0
102
RTVSPropertyOp58
 70
     0
102
RTVSPropertyOp59
 70
     0
102
RTVSPropertyOp60
 70
     0
102
RTVSPropertyOp61
 70
     0
102
RTVSPropertyOp62
 70
     0
  0
XRECORD
  5
8676
102
{ACAD_REACTORS
330
8675
102
}
330
8675
100
AcDbXrecord
280
     1
102
RTVSPost2010Prop28
280
     0
102
RTVSPost2010PropOp28
 70
     1
102
RTVSPost2010Prop29
280
     1
102
RTVSPost2010PropOp29
 70
     1
102
RTVSPost2010Prop30
280
     1
102
RTVSPost2010PropOp30
 70
     1
102
RTVSPost2010Prop31
280
     0
102
RTVSPost2010PropOp31
 70
     1
102
RTVSPost2010Prop32
280
     0
102
RTVSPost2010PropOp32
 70
     1
102
RTVSPost2010Prop33
280
     0
102
RTVSPost2010PropOp33
 70
     1
102
RTVSPost2010Prop34
280
     0
102
RTVSPost2010PropOp34
 70
     1
102
RTVSPost2010Prop35
280
     0
102
RTVSPost2010PropOp35
 70
     1
102
RTVSPost2010Prop36
280
     0
102
RTVSPost2010PropOp36
 70
     1
102
RTVSPost2010Prop37
 90
       50
102
RTVSPost2010PropOp37
 70
     1
102
RTVSPost2010Prop38
140
0.0
102
RTVSPost2010PropOp38
 70
     1
102
RTVSPost2010Prop39
140
1.0
102
RTVSPost2010PropOp39
 70
     1
102
RTVSPost2010Prop40
 90
        0
102
RTVSPost2010PropOp40
 70
     1
102
RTVSPost2010Prop41ColorIndex
 90
       18
102
RTVSPost2010Prop41ColorRGB
 90
        0
102
RTVSPost2010PropOp41
 70
     1
102
RTVSPost2010Prop42
 90
       50
102
RTVSPost2010PropOp42
 70
     1
102
RTVSPost2010Prop43
 90
        3
102
RTVSPost2010PropOp43
 70
     1
102
RTVSPost2010Prop44ColorIndex
 90
        5
102
RTVSPost2010Prop44ColorRGB
 90
      255
102
RTVSPost2010PropOp44
 70
     1
102
RTVSPost2010Prop45
280
     0
102
RTVSPost2010PropOp45
 70
     1
102
RTVSPost2010Prop46
 90
       50
102
RTVSPost2010PropOp46
 70
     1
102
RTVSPost2010Prop47
 90
       50
102
RTVSPost2010PropOp47
 70
     1
102
RTVSPost2010Prop48
 90
       50
102
RTVSPost2010PropOp48
 70
     1
102
RTVSPost2010Prop49
280
     0
102
RTVSPost2010PropOp49
 70
     1
102
RTVSPost2010Prop50
 90
       50
102
RTVSPost2010PropOp50
 70
     1
102
RTVSPost2010Prop51ColorIndex
 90
      256
102
RTVSPost2010Prop51ColorRGB
 90
-16777216
102
RTVSPost2010PropOp51
 70
     0
102
RTVSPost2010Prop52
140
1.0
102
RTVSPost2010PropOp52
 70
     0
102
RTVSPost2010Prop53
 90
        2
102
RTVSPost2010PropOp53
 70
     1
102
RTVSPost2010Prop54
  1
strokes_ogs.tif
102
RTVSPost2010PropOp54
 70
     1
102
RTVSPost2010Prop55
280
     0
102
RTVSPost2010PropOp55
 70
     1
102
RTVSPost2010Prop56
140
1.0
102
RTVSPost2010PropOp56
 70
     1
102
RTVSPost2010Prop57
140
1.0
102
RTVSPost2010PropOp57
 70
     1
102
RTVSPropertyOp0
 70
     1
102
RTVSPropertyOp1
 70
     1
102
RTVSPropertyOp2
 70
     1
102
RTVSPropertyOp3
 70
     1
102
RTVSPropertyOp4
 70
     1
102
RTVSPropertyOp5
 70
     1
102
RTVSPropertyOp6
 70
     1
102
RTVSPropertyOp7
 70
     1
102
RTVSPropertyOp8
 70
     1
102
RTVSPropertyOp9
 70
     1
102
RTVSPropertyOp10
 70
     1
102
RTVSPropertyOp11
 70
     1
102
RTVSPropertyOp12
 70
     1
102
RTVSPropertyOp13
 70
     1
102
RTVSPropertyOp14
 70
     1
102
RTVSPropertyOp15
 70
     1
102
RTVSPropertyOp16
 70
     1
102
RTVSPropertyOp17
 70
     1
102
RTVSPropertyOp18
 70
     1
102
RTVSPropertyOp19
 70
     1
102
RTVSPropertyOp20
 70
     1
102
RTVSPropertyOp21
 70
     1
102
RTVSPropertyOp22
 70
     1
102
RTVSPropertyOp23
 70
     1
102
RTVSPropertyOp24
 70
     1
102
RTVSPropertyOp25
 70
     1
102
RTVSPropertyOp26
 70
     1
102
RTVSPropertyOp27
 70
     1
102
RTVSPropertyOp28
 70
     1
102
RTVSPropertyOp29
 70
     1
102
RTVSPropertyOp30
 70
     1
102
RTVSPropertyOp31
 70
     1
102
RTVSPropertyOp32
 70
     1
102
RTVSPropertyOp33
 70
     1
102
RTVSPropertyOp34
 70
     1
102
RTVSPropertyOp35
 70
     1
102
RTVSPropertyOp36
 70
     1
102
RTVSPropertyOp37
 70
     1
102
RTVSPropertyOp38
 70
     1
102
RTVSPropertyOp39
 70
     1
102
RTVSPropertyOp40
 70
     1
102
RTVSPropertyOp41
 70
     1
102
RTVSPropertyOp42
 70
     1
102
RTVSPropertyOp43
 70
     1
102
RTVSPropertyOp44
 70
     1
102
RTVSPropertyOp45
 70
     1
102
RTVSPropertyOp46
 70
     1
102
RTVSPropertyOp47
 70
     1
102
RTVSPropertyOp48
 70
     1
102
RTVSPropertyOp49
 70
     1
102
RTVSPropertyOp50
 70
     1
102
RTVSPropertyOp51
 70
     0
102
RTVSPropertyOp52
 70
     0
102
RTVSPropertyOp53
 70
     1
102
RTVSPropertyOp54
 70
     1
102
RTVSPropertyOp55
 70
     1
102
RTVSPropertyOp56
 70
     1
102
RTVSPropertyOp57
 70
     1
102
RTVSPropertyOp58
 70
     1
102
RTVSPropertyOp59
 70
     1
102
RTVSPropertyOp60
 70
     1
102
RTVSPropertyOp61
 70
     1
102
RTVSPropertyOp62
 70
     1
  0
XRECORD
  5
8688
102
{ACAD_REACTORS
330
8687
102
}
330
8687
100
AcDbXrecord
280
     1
102
RTVSPost2010Prop28
280
     0
102
RTVSPost2010PropOp28
 70
     1
102
RTVSPost2010Prop29
280
     1
102
RTVSPost2010PropOp29
 70
     1
102
RTVSPost2010Prop30
280
     1
102
RTVSPost2010PropOp30
 70
     1
102
RTVSPost2010Prop31
280
     0
102
RTVSPost2010PropOp31
 70
     1
102
RTVSPost2010Prop32
280
     0
102
RTVSPost2010PropOp32
 70
     1
102
RTVSPost2010Prop33
280
     0
102
RTVSPost2010PropOp33
 70
     1
102
RTVSPost2010Prop34
280
     0
102
RTVSPost2010PropOp34
 70
     1
102
RTVSPost2010Prop35
280
     0
102
RTVSPost2010PropOp35
 70
     1
102
RTVSPost2010Prop36
280
     0
102
RTVSPost2010PropOp36
 70
     1
102
RTVSPost2010Prop37
 90
       50
102
RTVSPost2010PropOp37
 70
     0
102
RTVSPost2010Prop38
140
0.0
102
RTVSPost2010PropOp38
 70
     0
102
RTVSPost2010Prop39
140
1.0
102
RTVSPost2010PropOp39
 70
     0
102
RTVSPost2010Prop40
 90
        0
102
RTVSPost2010PropOp40
 70
     0
102
RTVSPost2010Prop41ColorIndex
 90
       18
102
RTVSPost2010Prop41ColorRGB
 90
        0
102
RTVSPost2010PropOp41
 70
     0
102
RTVSPost2010Prop42
 90
       50
102
RTVSPost2010PropOp42
 70
     0
102
RTVSPost2010Prop43
 90
        3
102
RTVSPost2010PropOp43
 70
     0
102
RTVSPost2010Prop44ColorIndex
 90
        5
102
RTVSPost2010Prop44ColorRGB
 90
      255
102
RTVSPost2010PropOp44
 70
     0
102
RTVSPost2010Prop45
280
     0
102
RTVSPost2010PropOp45
 70
     1
102
RTVSPost2010Prop46
 90
       50
102
RTVSPost2010PropOp46
 70
     0
102
RTVSPost2010Prop47
 90
       50
102
RTVSPost2010PropOp47
 70
     0
102
RTVSPost2010Prop48
 90
       50
102
RTVSPost2010PropOp48
 70
     0
102
RTVSPost2010Prop49
280
     0
102
RTVSPost2010PropOp49
 70
     1
102
RTVSPost2010Prop50
 90
       50
102
RTVSPost2010PropOp50
 70
     0
102
RTVSPost2010Prop51ColorIndex
 90
      256
102
RTVSPost2010Prop51ColorRGB
 90
-16777216
102
RTVSPost2010PropOp51
 70
     0
102
RTVSPost2010Prop52
140
1.0
102
RTVSPost2010PropOp52
 70
     0
102
RTVSPost2010Prop53
 90
        2
102
RTVSPost2010PropOp53
 70
     0
102
RTVSPost2010Prop54
  1
strokes_ogs.tif
102
RTVSPost2010PropOp54
 70
     0
102
RTVSPost2010Prop55
280
     0
102
RTVSPost2010PropOp55
 70
     1
102
RTVSPost2010Prop56
140
1.0
102
RTVSPost2010PropOp56
 70
     0
102
RTVSPost2010Prop57
140
1.0
102
RTVSPost2010PropOp57
 70
     0
102
RTVSPropertyOp0
 70
     0
102
RTVSPropertyOp1
 70
     0
102
RTVSPropertyOp2
 70
     0
102
RTVSPropertyOp3
 70
     0
102
RTVSPropertyOp4
 70
     0
102
RTVSPropertyOp5
 70
     0
102
RTVSPropertyOp6
 70
     0
102
RTVSPropertyOp7
 70
     0
102
RTVSPropertyOp8
 70
     0
102
RTVSPropertyOp9
 70
     0
102
RTVSPropertyOp10
 70
     0
102
RTVSPropertyOp11
 70
     0
102
RTVSPropertyOp12
 70
     0
102
RTVSPropertyOp13
 70
     0
102
RTVSPropertyOp14
 70
     2
102
RTVSPropertyOp15
 70
     0
102
RTVSPropertyOp16
 70
     0
102
RTVSPropertyOp17
 70
     0
102
RTVSPropertyOp18
 70
     0
102
RTVSPropertyOp19
 70
     0
102
RTVSPropertyOp20
 70
     0
102
RTVSPropertyOp21
 70
     0
102
RTVSPropertyOp22
 70
     0
102
RTVSPropertyOp23
 70
     0
102
RTVSPropertyOp24
 70
     0
102
RTVSPropertyOp25
 70
     0
102
RTVSPropertyOp26
 70
     0
102
RTVSPropertyOp27
 70
     0
102
RTVSPropertyOp28
 70
     1
102
RTVSPropertyOp29
 70
     1
102
RTVSPropertyOp30
 70
     1
102
RTVSPropertyOp31
 70
     1
102
RTVSPropertyOp32
 70
     1
102
RTVSPropertyOp33
 70
     1
102
RTVSPropertyOp34
 70
     1
102
RTVSPropertyOp35
 70
     1
102
RTVSPropertyOp36
 70
     1
102
RTVSPropertyOp37
 70
     0
102
RTVSPropertyOp38
 70
     0
102
RTVSPropertyOp39
 70
     0
102
RTVSPropertyOp40
 70
     0
102
RTVSPropertyOp41
 70
     0
102
RTVSPropertyOp42
 70
     0
102
RTVSPropertyOp43
 70
     0
102
RTVSPropertyOp44
 70
     0
102
RTVSPropertyOp45
 70
     1
102
RTVSPropertyOp46
 70
     0
102
RTVSPropertyOp47
 70
     0
102
RTVSPropertyOp48
 70
     0
102
RTVSPropertyOp49
 70
     1
102
RTVSPropertyOp50
 70
     0
102
RTVSPropertyOp51
 70
     0
102
RTVSPropertyOp52
 70
     0
102
RTVSPropertyOp53
 70
     0
102
RTVSPropertyOp54
 70
     0
102
RTVSPropertyOp55
 70
     1
102
RTVSPropertyOp56
 70
     0
102
RTVSPropertyOp57
 70
     0
102
RTVSPropertyOp58
 70
     0
102
RTVSPropertyOp59
 70
     0
102
RTVSPropertyOp60
 70
     0
102
RTVSPropertyOp61
 70
     0
102
RTVSPropertyOp62
 70
     0
  0
XRECORD
  5
866E
102
{ACAD_REACTORS
330
866D
102
}
330
866D
100
AcDbXrecord
280
     1
102
RTVSPost2010Prop28
280
     0
102
RTVSPost2010PropOp28
 70
     1
102
RTVSPost2010Prop29
280
     1
102
RTVSPost2010PropOp29
 70
     1
102
RTVSPost2010Prop30
280
     1
102
RTVSPost2010PropOp30
 70
     1
102
RTVSPost2010Prop31
280
     0
102
RTVSPost2010PropOp31
 70
     1
102
RTVSPost2010Prop32
280
     0
102
RTVSPost2010PropOp32
 70
     1
102
RTVSPost2010Prop33
280
     0
102
RTVSPost2010PropOp33
 70
     1
102
RTVSPost2010Prop34
280
     0
102
RTVSPost2010PropOp34
 70
     1
102
RTVSPost2010Prop35
280
     0
102
RTVSPost2010PropOp35
 70
     1
102
RTVSPost2010Prop36
280
     0
102
RTVSPost2010PropOp36
 70
     1
102
RTVSPost2010Prop37
 90
       50
102
RTVSPost2010PropOp37
 70
     1
102
RTVSPost2010Prop38
140
0.0
102
RTVSPost2010PropOp38
 70
     1
102
RTVSPost2010Prop39
140
1.0
102
RTVSPost2010PropOp39
 70
     1
102
RTVSPost2010Prop40
 90
        0
102
RTVSPost2010PropOp40
 70
     1
102
RTVSPost2010Prop41ColorIndex
 90
       18
102
RTVSPost2010Prop41ColorRGB
 90
        0
102
RTVSPost2010PropOp41
 70
     1
102
RTVSPost2010Prop42
 90
       50
102
RTVSPost2010PropOp42
 70
     1
102
RTVSPost2010Prop43
 90
        3
102
RTVSPost2010PropOp43
 70
     1
102
RTVSPost2010Prop44ColorIndex
 90
        5
102
RTVSPost2010Prop44ColorRGB
 90
      255
102
RTVSPost2010PropOp44
 70
     1
102
RTVSPost2010Prop45
280
     0
102
RTVSPost2010PropOp45
 70
     1
102
RTVSPost2010Prop46
 90
       50
102
RTVSPost2010PropOp46
 70
     1
102
RTVSPost2010Prop47
 90
       50
102
RTVSPost2010PropOp47
 70
     1
102
RTVSPost2010Prop48
 90
       50
102
RTVSPost2010PropOp48
 70
     1
102
RTVSPost2010Prop49
280
     0
102
RTVSPost2010PropOp49
 70
     1
102
RTVSPost2010Prop50
 90
       50
102
RTVSPost2010PropOp50
 70
     1
102
RTVSPost2010Prop51ColorIndex
 90
      256
102
RTVSPost2010Prop51ColorRGB
 90
-16777216
102
RTVSPost2010PropOp51
 70
     0
102
RTVSPost2010Prop52
140
1.0
102
RTVSPost2010PropOp52
 70
     0
102
RTVSPost2010Prop53
 90
        2
102
RTVSPost2010PropOp53
 70
     1
102
RTVSPost2010Prop54
  1
strokes_ogs.tif
102
RTVSPost2010PropOp54
 70
     1
102
RTVSPost2010Prop55
280
     0
102
RTVSPost2010PropOp55
 70
     1
102
RTVSPost2010Prop56
140
1.0
102
RTVSPost2010PropOp56
 70
     1
102
RTVSPost2010Prop57
140
1.0
102
RTVSPost2010PropOp57
 70
     1
102
RTVSPropertyOp0
 70
     1
102
RTVSPropertyOp1
 70
     1
102
RTVSPropertyOp2
 70
     1
102
RTVSPropertyOp3
 70
     1
102
RTVSPropertyOp4
 70
     1
102
RTVSPropertyOp5
 70
     1
102
RTVSPropertyOp6
 70
     1
102
RTVSPropertyOp7
 70
     1
102
RTVSPropertyOp8
 70
     1
102
RTVSPropertyOp9
 70
     1
102
RTVSPropertyOp10
 70
     1
102
RTVSPropertyOp11
 70
     1
102
RTVSPropertyOp12
 70
     1
102
RTVSPropertyOp13
 70
     1
102
RTVSPropertyOp14
 70
     1
102
RTVSPropertyOp15
 70
     1
102
RTVSPropertyOp16
 70
     1
102
RTVSPropertyOp17
 70
     1
102
RTVSPropertyOp18
 70
     1
102
RTVSPropertyOp19
 70
     1
102
RTVSPropertyOp20
 70
     1
102
RTVSPropertyOp21
 70
     1
102
RTVSPropertyOp22
 70
     1
102
RTVSPropertyOp23
 70
     1
102
RTVSPropertyOp24
 70
     1
102
RTVSPropertyOp25
 70
     1
102
RTVSPropertyOp26
 70
     1
102
RTVSPropertyOp27
 70
     1
102
RTVSPropertyOp28
 70
     1
102
RTVSPropertyOp29
 70
     1
102
RTVSPropertyOp30
 70
     1
102
RTVSPropertyOp31
 70
     1
102
RTVSPropertyOp32
 70
     1
102
RTVSPropertyOp33
 70
     1
102
RTVSPropertyOp34
 70
     1
102
RTVSPropertyOp35
 70
     1
102
RTVSPropertyOp36
 70
     1
102
RTVSPropertyOp37
 70
     1
102
RTVSPropertyOp38
 70
     1
102
RTVSPropertyOp39
 70
     1
102
RTVSPropertyOp40
 70
     1
102
RTVSPropertyOp41
 70
     1
102
RTVSPropertyOp42
 70
     1
102
RTVSPropertyOp43
 70
     1
102
RTVSPropertyOp44
 70
     1
102
RTVSPropertyOp45
 70
     1
102
RTVSPropertyOp46
 70
     1
102
RTVSPropertyOp47
 70
     1
102
RTVSPropertyOp48
 70
     1
102
RTVSPropertyOp49
 70
     1
102
RTVSPropertyOp50
 70
     1
102
RTVSPropertyOp51
 70
     0
102
RTVSPropertyOp52
 70
     0
102
RTVSPropertyOp53
 70
     1
102
RTVSPropertyOp54
 70
     1
102
RTVSPropertyOp55
 70
     1
102
RTVSPropertyOp56
 70
     1
102
RTVSPropertyOp57
 70
     1
102
RTVSPropertyOp58
 70
     1
102
RTVSPropertyOp59
 70
     1
102
RTVSPropertyOp60
 70
     1
102
RTVSPropertyOp61
 70
     1
102
RTVSPropertyOp62
 70
     1
  0
XRECORD
  5
8684
102
{ACAD_REACTORS
330
8683
102
}
330
8683
100
AcDbXrecord
280
     1
102
RTVSPost2010Prop28
280
     0
102
RTVSPost2010PropOp28
 70
     1
102
RTVSPost2010Prop29
280
     1
102
RTVSPost2010PropOp29
 70
     1
102
RTVSPost2010Prop30
280
     1
102
RTVSPost2010PropOp30
 70
     1
102
RTVSPost2010Prop31
280
     0
102
RTVSPost2010PropOp31
 70
     1
102
RTVSPost2010Prop32
280
     0
102
RTVSPost2010PropOp32
 70
     1
102
RTVSPost2010Prop33
280
     0
102
RTVSPost2010PropOp33
 70
     1
102
RTVSPost2010Prop34
280
     0
102
RTVSPost2010PropOp34
 70
     1
102
RTVSPost2010Prop35
280
     0
102
RTVSPost2010PropOp35
 70
     1
102
RTVSPost2010Prop36
280
     0
102
RTVSPost2010PropOp36
 70
     1
102
RTVSPost2010Prop37
 90
       50
102
RTVSPost2010PropOp37
 70
     1
102
RTVSPost2010Prop38
140
0.0
102
RTVSPost2010PropOp38
 70
     1
102
RTVSPost2010Prop39
140
1.0
102
RTVSPost2010PropOp39
 70
     1
102
RTVSPost2010Prop40
 90
        0
102
RTVSPost2010PropOp40
 70
     1
102
RTVSPost2010Prop41ColorIndex
 90
       18
102
RTVSPost2010Prop41ColorRGB
 90
        0
102
RTVSPost2010PropOp41
 70
     1
102
RTVSPost2010Prop42
 90
       50
102
RTVSPost2010PropOp42
 70
     1
102
RTVSPost2010Prop43
 90
        3
102
RTVSPost2010PropOp43
 70
     1
102
RTVSPost2010Prop44ColorIndex
 90
        5
102
RTVSPost2010Prop44ColorRGB
 90
      255
102
RTVSPost2010PropOp44
 70
     1
102
RTVSPost2010Prop45
280
     0
102
RTVSPost2010PropOp45
 70
     1
102
RTVSPost2010Prop46
 90
       50
102
RTVSPost2010PropOp46
 70
     1
102
RTVSPost2010Prop47
 90
       50
102
RTVSPost2010PropOp47
 70
     1
102
RTVSPost2010Prop48
 90
       50
102
RTVSPost2010PropOp48
 70
     1
102
RTVSPost2010Prop49
280
     0
102
RTVSPost2010PropOp49
 70
     1
102
RTVSPost2010Prop50
 90
       50
102
RTVSPost2010PropOp50
 70
     1
102
RTVSPost2010Prop51ColorIndex
 90
      256
102
RTVSPost2010Prop51ColorRGB
 90
-16777216
102
RTVSPost2010PropOp51
 70
     0
102
RTVSPost2010Prop52
140
1.0
102
RTVSPost2010PropOp52
 70
     0
102
RTVSPost2010Prop53
 90
        2
102
RTVSPost2010PropOp53
 70
     1
102
RTVSPost2010Prop54
  1
strokes_ogs.tif
102
RTVSPost2010PropOp54
 70
     1
102
RTVSPost2010Prop55
280
     0
102
RTVSPost2010PropOp55
 70
     1
102
RTVSPost2010Prop56
140
1.0
102
RTVSPost2010PropOp56
 70
     1
102
RTVSPost2010Prop57
140
1.0
102
RTVSPost2010PropOp57
 70
     1
102
RTVSPropertyOp0
 70
     1
102
RTVSPropertyOp1
 70
     1
102
RTVSPropertyOp2
 70
     1
102
RTVSPropertyOp3
 70
     1
102
RTVSPropertyOp4
 70
     1
102
RTVSPropertyOp5
 70
     1
102
RTVSPropertyOp6
 70
     1
102
RTVSPropertyOp7
 70
     1
102
RTVSPropertyOp8
 70
     1
102
RTVSPropertyOp9
 70
     1
102
RTVSPropertyOp10
 70
     1
102
RTVSPropertyOp11
 70
     1
102
RTVSPropertyOp12
 70
     1
102
RTVSPropertyOp13
 70
     1
102
RTVSPropertyOp14
 70
     1
102
RTVSPropertyOp15
 70
     1
102
RTVSPropertyOp16
 70
     1
102
RTVSPropertyOp17
 70
     1
102
RTVSPropertyOp18
 70
     1
102
RTVSPropertyOp19
 70
     1
102
RTVSPropertyOp20
 70
     1
102
RTVSPropertyOp21
 70
     1
102
RTVSPropertyOp22
 70
     1
102
RTVSPropertyOp23
 70
     1
102
RTVSPropertyOp24
 70
     1
102
RTVSPropertyOp25
 70
     1
102
RTVSPropertyOp26
 70
     1
102
RTVSPropertyOp27
 70
     1
102
RTVSPropertyOp28
 70
     1
102
RTVSPropertyOp29
 70
     1
102
RTVSPropertyOp30
 70
     1
102
RTVSPropertyOp31
 70
     1
102
RTVSPropertyOp32
 70
     1
102
RTVSPropertyOp33
 70
     1
102
RTVSPropertyOp34
 70
     1
102
RTVSPropertyOp35
 70
     1
102
RTVSPropertyOp36
 70
     1
102
RTVSPropertyOp37
 70
     1
102
RTVSPropertyOp38
 70
     1
102
RTVSPropertyOp39
 70
     1
102
RTVSPropertyOp40
 70
     1
102
RTVSPropertyOp41
 70
     1
102
RTVSPropertyOp42
 70
     1
102
RTVSPropertyOp43
 70
     1
102
RTVSPropertyOp44
 70
     1
102
RTVSPropertyOp45
 70
     1
102
RTVSPropertyOp46
 70
     1
102
RTVSPropertyOp47
 70
     1
102
RTVSPropertyOp48
 70
     1
102
RTVSPropertyOp49
 70
     1
102
RTVSPropertyOp50
 70
     1
102
RTVSPropertyOp51
 70
     0
102
RTVSPropertyOp52
 70
     0
102
RTVSPropertyOp53
 70
     1
102
RTVSPropertyOp54
 70
     1
102
RTVSPropertyOp55
 70
     1
102
RTVSPropertyOp56
 70
     1
102
RTVSPropertyOp57
 70
     1
102
RTVSPropertyOp58
 70
     1
102
RTVSPropertyOp59
 70
     1
102
RTVSPropertyOp60
 70
     1
102
RTVSPropertyOp61
 70
     1
102
RTVSPropertyOp62
 70
     1
  0
XRECORD
  5
8682
102
{ACAD_REACTORS
330
8681
102
}
330
8681
100
AcDbXrecord
280
     1
102
RTVSPost2010Prop28
280
     0
102
RTVSPost2010PropOp28
 70
     1
102
RTVSPost2010Prop29
280
     1
102
RTVSPost2010PropOp29
 70
     1
102
RTVSPost2010Prop30
280
     1
102
RTVSPost2010PropOp30
 70
     1
102
RTVSPost2010Prop31
280
     0
102
RTVSPost2010PropOp31
 70
     1
102
RTVSPost2010Prop32
280
     0
102
RTVSPost2010PropOp32
 70
     1
102
RTVSPost2010Prop33
280
     0
102
RTVSPost2010PropOp33
 70
     1
102
RTVSPost2010Prop34
280
     0
102
RTVSPost2010PropOp34
 70
     1
102
RTVSPost2010Prop35
280
     0
102
RTVSPost2010PropOp35
 70
     1
102
RTVSPost2010Prop36
280
     0
102
RTVSPost2010PropOp36
 70
     1
102
RTVSPost2010Prop37
 90
       50
102
RTVSPost2010PropOp37
 70
     1
102
RTVSPost2010Prop38
140
0.0
102
RTVSPost2010PropOp38
 70
     1
102
RTVSPost2010Prop39
140
1.0
102
RTVSPost2010PropOp39
 70
     1
102
RTVSPost2010Prop40
 90
        0
102
RTVSPost2010PropOp40
 70
     1
102
RTVSPost2010Prop41ColorIndex
 90
       18
102
RTVSPost2010Prop41ColorRGB
 90
        0
102
RTVSPost2010PropOp41
 70
     1
102
RTVSPost2010Prop42
 90
       50
102
RTVSPost2010PropOp42
 70
     1
102
RTVSPost2010Prop43
 90
        3
102
RTVSPost2010PropOp43
 70
     1
102
RTVSPost2010Prop44ColorIndex
 90
        5
102
RTVSPost2010Prop44ColorRGB
 90
      255
102
RTVSPost2010PropOp44
 70
     1
102
RTVSPost2010Prop45
280
     0
102
RTVSPost2010PropOp45
 70
     1
102
RTVSPost2010Prop46
 90
       50
102
RTVSPost2010PropOp46
 70
     1
102
RTVSPost2010Prop47
 90
       50
102
RTVSPost2010PropOp47
 70
     1
102
RTVSPost2010Prop48
 90
       50
102
RTVSPost2010PropOp48
 70
     1
102
RTVSPost2010Prop49
280
     0
102
RTVSPost2010PropOp49
 70
     1
102
RTVSPost2010Prop50
 90
       50
102
RTVSPost2010PropOp50
 70
     1
102
RTVSPost2010Prop51ColorIndex
 90
      256
102
RTVSPost2010Prop51ColorRGB
 90
-16777216
102
RTVSPost2010PropOp51
 70
     0
102
RTVSPost2010Prop52
140
1.0
102
RTVSPost2010PropOp52
 70
     0
102
RTVSPost2010Prop53
 90
        2
102
RTVSPost2010PropOp53
 70
     1
102
RTVSPost2010Prop54
  1
strokes_ogs.tif
102
RTVSPost2010PropOp54
 70
     1
102
RTVSPost2010Prop55
280
     0
102
RTVSPost2010PropOp55
 70
     1
102
RTVSPost2010Prop56
140
1.0
102
RTVSPost2010PropOp56
 70
     1
102
RTVSPost2010Prop57
140
1.0
102
RTVSPost2010PropOp57
 70
     1
102
RTVSPropertyOp0
 70
     1
102
RTVSPropertyOp1
 70
     1
102
RTVSPropertyOp2
 70
     1
102
RTVSPropertyOp3
 70
     1
102
RTVSPropertyOp4
 70
     1
102
RTVSPropertyOp5
 70
     1
102
RTVSPropertyOp6
 70
     1
102
RTVSPropertyOp7
 70
     1
102
RTVSPropertyOp8
 70
     1
102
RTVSPropertyOp9
 70
     1
102
RTVSPropertyOp10
 70
     1
102
RTVSPropertyOp11
 70
     1
102
RTVSPropertyOp12
 70
     1
102
RTVSPropertyOp13
 70
     1
102
RTVSPropertyOp14
 70
     1
102
RTVSPropertyOp15
 70
     1
102
RTVSPropertyOp16
 70
     1
102
RTVSPropertyOp17
 70
     1
102
RTVSPropertyOp18
 70
     1
102
RTVSPropertyOp19
 70
     1
102
RTVSPropertyOp20
 70
     1
102
RTVSPropertyOp21
 70
     1
102
RTVSPropertyOp22
 70
     1
102
RTVSPropertyOp23
 70
     1
102
RTVSPropertyOp24
 70
     1
102
RTVSPropertyOp25
 70
     1
102
RTVSPropertyOp26
 70
     1
102
RTVSPropertyOp27
 70
     1
102
RTVSPropertyOp28
 70
     1
102
RTVSPropertyOp29
 70
     1
102
RTVSPropertyOp30
 70
     1
102
RTVSPropertyOp31
 70
     1
102
RTVSPropertyOp32
 70
     1
102
RTVSPropertyOp33
 70
     1
102
RTVSPropertyOp34
 70
     1
102
RTVSPropertyOp35
 70
     1
102
RTVSPropertyOp36
 70
     1
102
RTVSPropertyOp37
 70
     1
102
RTVSPropertyOp38
 70
     1
102
RTVSPropertyOp39
 70
     1
102
RTVSPropertyOp40
 70
     1
102
RTVSPropertyOp41
 70
     1
102
RTVSPropertyOp42
 70
     1
102
RTVSPropertyOp43
 70
     1
102
RTVSPropertyOp44
 70
     1
102
RTVSPropertyOp45
 70
     1
102
RTVSPropertyOp46
 70
     1
102
RTVSPropertyOp47
 70
     1
102
RTVSPropertyOp48
 70
     1
102
RTVSPropertyOp49
 70
     1
102
RTVSPropertyOp50
 70
     1
102
RTVSPropertyOp51
 70
     0
102
RTVSPropertyOp52
 70
     0
102
RTVSPropertyOp53
 70
     1
102
RTVSPropertyOp54
 70
     1
102
RTVSPropertyOp55
 70
     1
102
RTVSPropertyOp56
 70
     1
102
RTVSPropertyOp57
 70
     1
102
RTVSPropertyOp58
 70
     1
102
RTVSPropertyOp59
 70
     1
102
RTVSPropertyOp60
 70
     1
102
RTVSPropertyOp61
 70
     1
102
RTVSPropertyOp62
 70
     1
  0
XRECORD
  5
867C
102
{ACAD_REACTORS
330
867B
102
}
330
867B
100
AcDbXrecord
280
     1
102
RTVSPost2010Prop28
280
     0
102
RTVSPost2010PropOp28
 70
     1
102
RTVSPost2010Prop29
280
     1
102
RTVSPost2010PropOp29
 70
     1
102
RTVSPost2010Prop30
280
     1
102
RTVSPost2010PropOp30
 70
     1
102
RTVSPost2010Prop31
280
     0
102
RTVSPost2010PropOp31
 70
     1
102
RTVSPost2010Prop32
280
     0
102
RTVSPost2010PropOp32
 70
     1
102
RTVSPost2010Prop33
280
     0
102
RTVSPost2010PropOp33
 70
     1
102
RTVSPost2010Prop34
280
     0
102
RTVSPost2010PropOp34
 70
     1
102
RTVSPost2010Prop35
280
     0
102
RTVSPost2010PropOp35
 70
     1
102
RTVSPost2010Prop36
280
     0
102
RTVSPost2010PropOp36
 70
     1
102
RTVSPost2010Prop37
 90
       50
102
RTVSPost2010PropOp37
 70
     1
102
RTVSPost2010Prop38
140
0.0
102
RTVSPost2010PropOp38
 70
     1
102
RTVSPost2010Prop39
140
1.0
102
RTVSPost2010PropOp39
 70
     1
102
RTVSPost2010Prop40
 90
        0
102
RTVSPost2010PropOp40
 70
     1
102
RTVSPost2010Prop41ColorIndex
 90
       18
102
RTVSPost2010Prop41ColorRGB
 90
        0
102
RTVSPost2010PropOp41
 70
     1
102
RTVSPost2010Prop42
 90
       50
102
RTVSPost2010PropOp42
 70
     1
102
RTVSPost2010Prop43
 90
        3
102
RTVSPost2010PropOp43
 70
     1
102
RTVSPost2010Prop44ColorIndex
 90
        5
102
RTVSPost2010Prop44ColorRGB
 90
      255
102
RTVSPost2010PropOp44
 70
     1
102
RTVSPost2010Prop45
280
     0
102
RTVSPost2010PropOp45
 70
     1
102
RTVSPost2010Prop46
 90
       50
102
RTVSPost2010PropOp46
 70
     1
102
RTVSPost2010Prop47
 90
       50
102
RTVSPost2010PropOp47
 70
     1
102
RTVSPost2010Prop48
 90
       50
102
RTVSPost2010PropOp48
 70
     1
102
RTVSPost2010Prop49
280
     0
102
RTVSPost2010PropOp49
 70
     1
102
RTVSPost2010Prop50
 90
       50
102
RTVSPost2010PropOp50
 70
     1
102
RTVSPost2010Prop51ColorIndex
 90
      256
102
RTVSPost2010Prop51ColorRGB
 90
-16777216
102
RTVSPost2010PropOp51
 70
     0
102
RTVSPost2010Prop52
140
1.0
102
RTVSPost2010PropOp52
 70
     0
102
RTVSPost2010Prop53
 90
        2
102
RTVSPost2010PropOp53
 70
     1
102
RTVSPost2010Prop54
  1
strokes_ogs.tif
102
RTVSPost2010PropOp54
 70
     1
102
RTVSPost2010Prop55
280
     0
102
RTVSPost2010PropOp55
 70
     1
102
RTVSPost2010Prop56
140
1.0
102
RTVSPost2010PropOp56
 70
     1
102
RTVSPost2010Prop57
140
1.0
102
RTVSPost2010PropOp57
 70
     1
102
RTVSPropertyOp0
 70
     1
102
RTVSPropertyOp1
 70
     1
102
RTVSPropertyOp2
 70
     1
102
RTVSPropertyOp3
 70
     1
102
RTVSPropertyOp4
 70
     1
102
RTVSPropertyOp5
 70
     1
102
RTVSPropertyOp6
 70
     1
102
RTVSPropertyOp7
 70
     1
102
RTVSPropertyOp8
 70
     1
102
RTVSPropertyOp9
 70
     1
102
RTVSPropertyOp10
 70
     1
102
RTVSPropertyOp11
 70
     1
102
RTVSPropertyOp12
 70
     1
102
RTVSPropertyOp13
 70
     1
102
RTVSPropertyOp14
 70
     1
102
RTVSPropertyOp15
 70
     1
102
RTVSPropertyOp16
 70
     1
102
RTVSPropertyOp17
 70
     1
102
RTVSPropertyOp18
 70
     1
102
RTVSPropertyOp19
 70
     1
102
RTVSPropertyOp20
 70
     1
102
RTVSPropertyOp21
 70
     1
102
RTVSPropertyOp22
 70
     1
102
RTVSPropertyOp23
 70
     1
102
RTVSPropertyOp24
 70
     1
102
RTVSPropertyOp25
 70
     1
102
RTVSPropertyOp26
 70
     1
102
RTVSPropertyOp27
 70
     1
102
RTVSPropertyOp28
 70
     1
102
RTVSPropertyOp29
 70
     1
102
RTVSPropertyOp30
 70
     1
102
RTVSPropertyOp31
 70
     1
102
RTVSPropertyOp32
 70
     1
102
RTVSPropertyOp33
 70
     1
102
RTVSPropertyOp34
 70
     1
102
RTVSPropertyOp35
 70
     1
102
RTVSPropertyOp36
 70
     1
102
RTVSPropertyOp37
 70
     1
102
RTVSPropertyOp38
 70
     1
102
RTVSPropertyOp39
 70
     1
102
RTVSPropertyOp40
 70
     1
102
RTVSPropertyOp41
 70
     1
102
RTVSPropertyOp42
 70
     1
102
RTVSPropertyOp43
 70
     1
102
RTVSPropertyOp44
 70
     1
102
RTVSPropertyOp45
 70
     1
102
RTVSPropertyOp46
 70
     1
102
RTVSPropertyOp47
 70
     1
102
RTVSPropertyOp48
 70
     1
102
RTVSPropertyOp49
 70
     1
102
RTVSPropertyOp50
 70
     1
102
RTVSPropertyOp51
 70
     0
102
RTVSPropertyOp52
 70
     0
102
RTVSPropertyOp53
 70
     1
102
RTVSPropertyOp54
 70
     1
102
RTVSPropertyOp55
 70
     1
102
RTVSPropertyOp56
 70
     1
102
RTVSPropertyOp57
 70
     1
102
RTVSPropertyOp58
 70
     1
102
RTVSPropertyOp59
 70
     1
102
RTVSPropertyOp60
 70
     1
102
RTVSPropertyOp61
 70
     1
102
RTVSPropertyOp62
 70
     1
  0
XRECORD
  5
867E
102
{ACAD_REACTORS
330
867D
102
}
330
867D
100
AcDbXrecord
280
     1
102
RTVSPost2010Prop28
280
     0
102
RTVSPost2010PropOp28
 70
     1
102
RTVSPost2010Prop29
280
     1
102
RTVSPost2010PropOp29
 70
     1
102
RTVSPost2010Prop30
280
     1
102
RTVSPost2010PropOp30
 70
     1
102
RTVSPost2010Prop31
280
     0
102
RTVSPost2010PropOp31
 70
     1
102
RTVSPost2010Prop32
280
     0
102
RTVSPost2010PropOp32
 70
     1
102
RTVSPost2010Prop33
280
     0
102
RTVSPost2010PropOp33
 70
     1
102
RTVSPost2010Prop34
280
     0
102
RTVSPost2010PropOp34
 70
     1
102
RTVSPost2010Prop35
280
     0
102
RTVSPost2010PropOp35
 70
     1
102
RTVSPost2010Prop36
280
     0
102
RTVSPost2010PropOp36
 70
     1
102
RTVSPost2010Prop37
 90
       50
102
RTVSPost2010PropOp37
 70
     1
102
RTVSPost2010Prop38
140
0.0
102
RTVSPost2010PropOp38
 70
     1
102
RTVSPost2010Prop39
140
1.0
102
RTVSPost2010PropOp39
 70
     1
102
RTVSPost2010Prop40
 90
        0
102
RTVSPost2010PropOp40
 70
     1
102
RTVSPost2010Prop41ColorIndex
 90
       18
102
RTVSPost2010Prop41ColorRGB
 90
        0
102
RTVSPost2010PropOp41
 70
     1
102
RTVSPost2010Prop42
 90
       50
102
RTVSPost2010PropOp42
 70
     1
102
RTVSPost2010Prop43
 90
        3
102
RTVSPost2010PropOp43
 70
     1
102
RTVSPost2010Prop44ColorIndex
 90
        5
102
RTVSPost2010Prop44ColorRGB
 90
      255
102
RTVSPost2010PropOp44
 70
     1
102
RTVSPost2010Prop45
280
     0
102
RTVSPost2010PropOp45
 70
     1
102
RTVSPost2010Prop46
 90
       50
102
RTVSPost2010PropOp46
 70
     1
102
RTVSPost2010Prop47
 90
       50
102
RTVSPost2010PropOp47
 70
     1
102
RTVSPost2010Prop48
 90
       50
102
RTVSPost2010PropOp48
 70
     1
102
RTVSPost2010Prop49
280
     0
102
RTVSPost2010PropOp49
 70
     1
102
RTVSPost2010Prop50
 90
       50
102
RTVSPost2010PropOp50
 70
     1
102
RTVSPost2010Prop51ColorIndex
 90
      256
102
RTVSPost2010Prop51ColorRGB
 90
-16777216
102
RTVSPost2010PropOp51
 70
     0
102
RTVSPost2010Prop52
140
1.0
102
RTVSPost2010PropOp52
 70
     0
102
RTVSPost2010Prop53
 90
        2
102
RTVSPost2010PropOp53
 70
     1
102
RTVSPost2010Prop54
  1
strokes_ogs.tif
102
RTVSPost2010PropOp54
 70
     1
102
RTVSPost2010Prop55
280
     0
102
RTVSPost2010PropOp55
 70
     1
102
RTVSPost2010Prop56
140
1.0
102
RTVSPost2010PropOp56
 70
     1
102
RTVSPost2010Prop57
140
1.0
102
RTVSPost2010PropOp57
 70
     1
102
RTVSPropertyOp0
 70
     1
102
RTVSPropertyOp1
 70
     1
102
RTVSPropertyOp2
 70
     1
102
RTVSPropertyOp3
 70
     1
102
RTVSPropertyOp4
 70
     1
102
RTVSPropertyOp5
 70
     1
102
RTVSPropertyOp6
 70
     1
102
RTVSPropertyOp7
 70
     1
102
RTVSPropertyOp8
 70
     1
102
RTVSPropertyOp9
 70
     1
102
RTVSPropertyOp10
 70
     1
102
RTVSPropertyOp11
 70
     1
102
RTVSPropertyOp12
 70
     1
102
RTVSPropertyOp13
 70
     1
102
RTVSPropertyOp14
 70
     1
102
RTVSPropertyOp15
 70
     1
102
RTVSPropertyOp16
 70
     1
102
RTVSPropertyOp17
 70
     1
102
RTVSPropertyOp18
 70
     1
102
RTVSPropertyOp19
 70
     1
102
RTVSPropertyOp20
 70
     1
102
RTVSPropertyOp21
 70
     1
102
RTVSPropertyOp22
 70
     1
102
RTVSPropertyOp23
 70
     1
102
RTVSPropertyOp24
 70
     1
102
RTVSPropertyOp25
 70
     1
102
RTVSPropertyOp26
 70
     1
102
RTVSPropertyOp27
 70
     1
102
RTVSPropertyOp28
 70
     1
102
RTVSPropertyOp29
 70
     1
102
RTVSPropertyOp30
 70
     1
102
RTVSPropertyOp31
 70
     1
102
RTVSPropertyOp32
 70
     1
102
RTVSPropertyOp33
 70
     1
102
RTVSPropertyOp34
 70
     1
102
RTVSPropertyOp35
 70
     1
102
RTVSPropertyOp36
 70
     1
102
RTVSPropertyOp37
 70
     1
102
RTVSPropertyOp38
 70
     1
102
RTVSPropertyOp39
 70
     1
102
RTVSPropertyOp40
 70
     1
102
RTVSPropertyOp41
 70
     1
102
RTVSPropertyOp42
 70
     1
102
RTVSPropertyOp43
 70
     1
102
RTVSPropertyOp44
 70
     1
102
RTVSPropertyOp45
 70
     1
102
RTVSPropertyOp46
 70
     1
102
RTVSPropertyOp47
 70
     1
102
RTVSPropertyOp48
 70
     1
102
RTVSPropertyOp49
 70
     1
102
RTVSPropertyOp50
 70
     1
102
RTVSPropertyOp51
 70
     0
102
RTVSPropertyOp52
 70
     0
102
RTVSPropertyOp53
 70
     1
102
RTVSPropertyOp54
 70
     1
102
RTVSPropertyOp55
 70
     1
102
RTVSPropertyOp56
 70
     1
102
RTVSPropertyOp57
 70
     1
102
RTVSPropertyOp58
 70
     1
102
RTVSPropertyOp59
 70
     1
102
RTVSPropertyOp60
 70
     1
102
RTVSPropertyOp61
 70
     1
102
RTVSPropertyOp62
 70
     1
  0
XRECORD
  5
8674
102
{ACAD_REACTORS
330
8673
102
}
330
8673
100
AcDbXrecord
280
     1
102
RTVSPost2010Prop28
280
     0
102
RTVSPost2010PropOp28
 70
     1
102
RTVSPost2010Prop29
280
     1
102
RTVSPost2010PropOp29
 70
     1
102
RTVSPost2010Prop30
280
     1
102
RTVSPost2010PropOp30
 70
     1
102
RTVSPost2010Prop31
280
     0
102
RTVSPost2010PropOp31
 70
     1
102
RTVSPost2010Prop32
280
     0
102
RTVSPost2010PropOp32
 70
     1
102
RTVSPost2010Prop33
280
     0
102
RTVSPost2010PropOp33
 70
     1
102
RTVSPost2010Prop34
280
     0
102
RTVSPost2010PropOp34
 70
     1
102
RTVSPost2010Prop35
280
     0
102
RTVSPost2010PropOp35
 70
     1
102
RTVSPost2010Prop36
280
     0
102
RTVSPost2010PropOp36
 70
     1
102
RTVSPost2010Prop37
 90
       50
102
RTVSPost2010PropOp37
 70
     1
102
RTVSPost2010Prop38
140
0.0
102
RTVSPost2010PropOp38
 70
     1
102
RTVSPost2010Prop39
140
1.0
102
RTVSPost2010PropOp39
 70
     1
102
RTVSPost2010Prop40
 90
        0
102
RTVSPost2010PropOp40
 70
     1
102
RTVSPost2010Prop41ColorIndex
 90
       18
102
RTVSPost2010Prop41ColorRGB
 90
        0
102
RTVSPost2010PropOp41
 70
     1
102
RTVSPost2010Prop42
 90
       50
102
RTVSPost2010PropOp42
 70
     1
102
RTVSPost2010Prop43
 90
        3
102
RTVSPost2010PropOp43
 70
     1
102
RTVSPost2010Prop44ColorIndex
 90
        5
102
RTVSPost2010Prop44ColorRGB
 90
      255
102
RTVSPost2010PropOp44
 70
     1
102
RTVSPost2010Prop45
280
     0
102
RTVSPost2010PropOp45
 70
     1
102
RTVSPost2010Prop46
 90
       50
102
RTVSPost2010PropOp46
 70
     1
102
RTVSPost2010Prop47
 90
       50
102
RTVSPost2010PropOp47
 70
     1
102
RTVSPost2010Prop48
 90
       50
102
RTVSPost2010PropOp48
 70
     1
102
RTVSPost2010Prop49
280
     0
102
RTVSPost2010PropOp49
 70
     1
102
RTVSPost2010Prop50
 90
       50
102
RTVSPost2010PropOp50
 70
     1
102
RTVSPost2010Prop51ColorIndex
 90
      256
102
RTVSPost2010Prop51ColorRGB
 90
-16777216
102
RTVSPost2010PropOp51
 70
     0
102
RTVSPost2010Prop52
140
1.0
102
RTVSPost2010PropOp52
 70
     0
102
RTVSPost2010Prop53
 90
        2
102
RTVSPost2010PropOp53
 70
     1
102
RTVSPost2010Prop54
  1
strokes_ogs.tif
102
RTVSPost2010PropOp54
 70
     1
102
RTVSPost2010Prop55
280
     0
102
RTVSPost2010PropOp55
 70
     1
102
RTVSPost2010Prop56
140
1.0
102
RTVSPost2010PropOp56
 70
     1
102
RTVSPost2010Prop57
140
1.0
102
RTVSPost2010PropOp57
 70
     1
102
RTVSPropertyOp0
 70
     1
102
RTVSPropertyOp1
 70
     1
102
RTVSPropertyOp2
 70
     1
102
RTVSPropertyOp3
 70
     1
102
RTVSPropertyOp4
 70
     1
102
RTVSPropertyOp5
 70
     1
102
RTVSPropertyOp6
 70
     1
102
RTVSPropertyOp7
 70
     1
102
RTVSPropertyOp8
 70
     1
102
RTVSPropertyOp9
 70
     1
102
RTVSPropertyOp10
 70
     1
102
RTVSPropertyOp11
 70
     1
102
RTVSPropertyOp12
 70
     1
102
RTVSPropertyOp13
 70
     1
102
RTVSPropertyOp14
 70
     1
102
RTVSPropertyOp15
 70
     1
102
RTVSPropertyOp16
 70
     1
102
RTVSPropertyOp17
 70
     1
102
RTVSPropertyOp18
 70
     1
102
RTVSPropertyOp19
 70
     1
102
RTVSPropertyOp20
 70
     1
102
RTVSPropertyOp21
 70
     1
102
RTVSPropertyOp22
 70
     1
102
RTVSPropertyOp23
 70
     1
102
RTVSPropertyOp24
 70
     1
102
RTVSPropertyOp25
 70
     1
102
RTVSPropertyOp26
 70
     1
102
RTVSPropertyOp27
 70
     1
102
RTVSPropertyOp28
 70
     1
102
RTVSPropertyOp29
 70
     1
102
RTVSPropertyOp30
 70
     1
102
RTVSPropertyOp31
 70
     1
102
RTVSPropertyOp32
 70
     1
102
RTVSPropertyOp33
 70
     1
102
RTVSPropertyOp34
 70
     1
102
RTVSPropertyOp35
 70
     1
102
RTVSPropertyOp36
 70
     1
102
RTVSPropertyOp37
 70
     1
102
RTVSPropertyOp38
 70
     1
102
RTVSPropertyOp39
 70
     1
102
RTVSPropertyOp40
 70
     1
102
RTVSPropertyOp41
 70
     1
102
RTVSPropertyOp42
 70
     1
102
RTVSPropertyOp43
 70
     1
102
RTVSPropertyOp44
 70
     1
102
RTVSPropertyOp45
 70
     1
102
RTVSPropertyOp46
 70
     1
102
RTVSPropertyOp47
 70
     1
102
RTVSPropertyOp48
 70
     1
102
RTVSPropertyOp49
 70
     1
102
RTVSPropertyOp50
 70
     1
102
RTVSPropertyOp51
 70
     0
102
RTVSPropertyOp52
 70
     0
102
RTVSPropertyOp53
 70
     1
102
RTVSPropertyOp54
 70
     1
102
RTVSPropertyOp55
 70
     1
102
RTVSPropertyOp56
 70
     1
102
RTVSPropertyOp57
 70
     1
102
RTVSPropertyOp58
 70
     1
102
RTVSPropertyOp59
 70
     1
102
RTVSPropertyOp60
 70
     1
102
RTVSPropertyOp61
 70
     1
102
RTVSPropertyOp62
 70
     1
  0
XRECORD
  5
8668
102
{ACAD_REACTORS
330
8667
102
}
330
8667
100
AcDbXrecord
280
     1
102
RTVSPost2010Prop28
280
     0
102
RTVSPost2010PropOp28
 70
     1
102
RTVSPost2010Prop29
280
     1
102
RTVSPost2010PropOp29
 70
     1
102
RTVSPost2010Prop30
280
     1
102
RTVSPost2010PropOp30
 70
     1
102
RTVSPost2010Prop31
280
     0
102
RTVSPost2010PropOp31
 70
     1
102
RTVSPost2010Prop32
280
     0
102
RTVSPost2010PropOp32
 70
     1
102
RTVSPost2010Prop33
280
     0
102
RTVSPost2010PropOp33
 70
     1
102
RTVSPost2010Prop34
280
     0
102
RTVSPost2010PropOp34
 70
     1
102
RTVSPost2010Prop35
280
     0
102
RTVSPost2010PropOp35
 70
     1
102
RTVSPost2010Prop36
280
     0
102
RTVSPost2010PropOp36
 70
     1
102
RTVSPost2010Prop37
 90
       50
102
RTVSPost2010PropOp37
 70
     1
102
RTVSPost2010Prop38
140
0.0
102
RTVSPost2010PropOp38
 70
     1
102
RTVSPost2010Prop39
140
1.0
102
RTVSPost2010PropOp39
 70
     1
102
RTVSPost2010Prop40
 90
        0
102
RTVSPost2010PropOp40
 70
     1
102
RTVSPost2010Prop41ColorIndex
 90
       18
102
RTVSPost2010Prop41ColorRGB
 90
        0
102
RTVSPost2010PropOp41
 70
     1
102
RTVSPost2010Prop42
 90
       50
102
RTVSPost2010PropOp42
 70
     1
102
RTVSPost2010Prop43
 90
        3
102
RTVSPost2010PropOp43
 70
     1
102
RTVSPost2010Prop44ColorIndex
 90
        5
102
RTVSPost2010Prop44ColorRGB
 90
      255
102
RTVSPost2010PropOp44
 70
     1
102
RTVSPost2010Prop45
280
     0
102
RTVSPost2010PropOp45
 70
     1
102
RTVSPost2010Prop46
 90
       50
102
RTVSPost2010PropOp46
 70
     1
102
RTVSPost2010Prop47
 90
       50
102
RTVSPost2010PropOp47
 70
     1
102
RTVSPost2010Prop48
 90
       50
102
RTVSPost2010PropOp48
 70
     1
102
RTVSPost2010Prop49
280
     0
102
RTVSPost2010PropOp49
 70
     1
102
RTVSPost2010Prop50
 90
       50
102
RTVSPost2010PropOp50
 70
     1
102
RTVSPost2010Prop51ColorIndex
 90
      256
102
RTVSPost2010Prop51ColorRGB
 90
-16777216
102
RTVSPost2010PropOp51
 70
     0
102
RTVSPost2010Prop52
140
1.0
102
RTVSPost2010PropOp52
 70
     0
102
RTVSPost2010Prop53
 90
        2
102
RTVSPost2010PropOp53
 70
     1
102
RTVSPost2010Prop54
  1
strokes_ogs.tif
102
RTVSPost2010PropOp54
 70
     1
102
RTVSPost2010Prop55
280
     0
102
RTVSPost2010PropOp55
 70
     1
102
RTVSPost2010Prop56
140
1.0
102
RTVSPost2010PropOp56
 70
     1
102
RTVSPost2010Prop57
140
1.0
102
RTVSPost2010PropOp57
 70
     1
102
RTVSPropertyOp0
 70
     1
102
RTVSPropertyOp1
 70
     1
102
RTVSPropertyOp2
 70
     1
102
RTVSPropertyOp3
 70
     1
102
RTVSPropertyOp4
 70
     1
102
RTVSPropertyOp5
 70
     1
102
RTVSPropertyOp6
 70
     1
102
RTVSPropertyOp7
 70
     1
102
RTVSPropertyOp8
 70
     1
102
RTVSPropertyOp9
 70
     1
102
RTVSPropertyOp10
 70
     1
102
RTVSPropertyOp11
 70
     1
102
RTVSPropertyOp12
 70
     1
102
RTVSPropertyOp13
 70
     1
102
RTVSPropertyOp14
 70
     1
102
RTVSPropertyOp15
 70
     1
102
RTVSPropertyOp16
 70
     1
102
RTVSPropertyOp17
 70
     1
102
RTVSPropertyOp18
 70
     1
102
RTVSPropertyOp19
 70
     1
102
RTVSPropertyOp20
 70
     1
102
RTVSPropertyOp21
 70
     1
102
RTVSPropertyOp22
 70
     1
102
RTVSPropertyOp23
 70
     1
102
RTVSPropertyOp24
 70
     1
102
RTVSPropertyOp25
 70
     1
102
RTVSPropertyOp26
 70
     1
102
RTVSPropertyOp27
 70
     1
102
RTVSPropertyOp28
 70
     1
102
RTVSPropertyOp29
 70
     1
102
RTVSPropertyOp30
 70
     1
102
RTVSPropertyOp31
 70
     1
102
RTVSPropertyOp32
 70
     1
102
RTVSPropertyOp33
 70
     1
102
RTVSPropertyOp34
 70
     1
102
RTVSPropertyOp35
 70
     1
102
RTVSPropertyOp36
 70
     1
102
RTVSPropertyOp37
 70
     1
102
RTVSPropertyOp38
 70
     1
102
RTVSPropertyOp39
 70
     1
102
RTVSPropertyOp40
 70
     1
102
RTVSPropertyOp41
 70
     1
102
RTVSPropertyOp42
 70
     1
102
RTVSPropertyOp43
 70
     1
102
RTVSPropertyOp44
 70
     1
102
RTVSPropertyOp45
 70
     1
102
RTVSPropertyOp46
 70
     1
102
RTVSPropertyOp47
 70
     1
102
RTVSPropertyOp48
 70
     1
102
RTVSPropertyOp49
 70
     1
102
RTVSPropertyOp50
 70
     1
102
RTVSPropertyOp51
 70
     0
102
RTVSPropertyOp52
 70
     0
102
RTVSPropertyOp53
 70
     1
102
RTVSPropertyOp54
 70
     1
102
RTVSPropertyOp55
 70
     1
102
RTVSPropertyOp56
 70
     1
102
RTVSPropertyOp57
 70
     1
102
RTVSPropertyOp58
 70
     1
102
RTVSPropertyOp59
 70
     1
102
RTVSPropertyOp60
 70
     1
102
RTVSPropertyOp61
 70
     1
102
RTVSPropertyOp62
 70
     1
  0
XRECORD
  5
8680
102
{ACAD_REACTORS
330
867F
102
}
330
867F
100
AcDbXrecord
280
     1
102
RTVSPost2010Prop28
280
     0
102
RTVSPost2010PropOp28
 70
     1
102
RTVSPost2010Prop29
280
     1
102
RTVSPost2010PropOp29
 70
     1
102
RTVSPost2010Prop30
280
     1
102
RTVSPost2010PropOp30
 70
     1
102
RTVSPost2010Prop31
280
     0
102
RTVSPost2010PropOp31
 70
     1
102
RTVSPost2010Prop32
280
     0
102
RTVSPost2010PropOp32
 70
     1
102
RTVSPost2010Prop33
280
     0
102
RTVSPost2010PropOp33
 70
     1
102
RTVSPost2010Prop34
280
     0
102
RTVSPost2010PropOp34
 70
     1
102
RTVSPost2010Prop35
280
     0
102
RTVSPost2010PropOp35
 70
     1
102
RTVSPost2010Prop36
280
     0
102
RTVSPost2010PropOp36
 70
     1
102
RTVSPost2010Prop37
 90
       50
102
RTVSPost2010PropOp37
 70
     1
102
RTVSPost2010Prop38
140
0.0
102
RTVSPost2010PropOp38
 70
     1
102
RTVSPost2010Prop39
140
1.0
102
RTVSPost2010PropOp39
 70
     1
102
RTVSPost2010Prop40
 90
        0
102
RTVSPost2010PropOp40
 70
     1
102
RTVSPost2010Prop41ColorIndex
 90
       18
102
RTVSPost2010Prop41ColorRGB
 90
        0
102
RTVSPost2010PropOp41
 70
     1
102
RTVSPost2010Prop42
 90
       50
102
RTVSPost2010PropOp42
 70
     1
102
RTVSPost2010Prop43
 90
        3
102
RTVSPost2010PropOp43
 70
     1
102
RTVSPost2010Prop44ColorIndex
 90
        5
102
RTVSPost2010Prop44ColorRGB
 90
      255
102
RTVSPost2010PropOp44
 70
     1
102
RTVSPost2010Prop45
280
     0
102
RTVSPost2010PropOp45
 70
     1
102
RTVSPost2010Prop46
 90
       50
102
RTVSPost2010PropOp46
 70
     1
102
RTVSPost2010Prop47
 90
       50
102
RTVSPost2010PropOp47
 70
     1
102
RTVSPost2010Prop48
 90
       50
102
RTVSPost2010PropOp48
 70
     1
102
RTVSPost2010Prop49
280
     0
102
RTVSPost2010PropOp49
 70
     1
102
RTVSPost2010Prop50
 90
       50
102
RTVSPost2010PropOp50
 70
     1
102
RTVSPost2010Prop51ColorIndex
 90
      256
102
RTVSPost2010Prop51ColorRGB
 90
-16777216
102
RTVSPost2010PropOp51
 70
     0
102
RTVSPost2010Prop52
140
1.0
102
RTVSPost2010PropOp52
 70
     0
102
RTVSPost2010Prop53
 90
        2
102
RTVSPost2010PropOp53
 70
     1
102
RTVSPost2010Prop54
  1
strokes_ogs.tif
102
RTVSPost2010PropOp54
 70
     1
102
RTVSPost2010Prop55
280
     0
102
RTVSPost2010PropOp55
 70
     1
102
RTVSPost2010Prop56
140
1.0
102
RTVSPost2010PropOp56
 70
     1
102
RTVSPost2010Prop57
140
1.0
102
RTVSPost2010PropOp57
 70
     1
102
RTVSPropertyOp0
 70
     1
102
RTVSPropertyOp1
 70
     1
102
RTVSPropertyOp2
 70
     1
102
RTVSPropertyOp3
 70
     1
102
RTVSPropertyOp4
 70
     1
102
RTVSPropertyOp5
 70
     1
102
RTVSPropertyOp6
 70
     1
102
RTVSPropertyOp7
 70
     1
102
RTVSPropertyOp8
 70
     1
102
RTVSPropertyOp9
 70
     1
102
RTVSPropertyOp10
 70
     1
102
RTVSPropertyOp11
 70
     1
102
RTVSPropertyOp12
 70
     1
102
RTVSPropertyOp13
 70
     1
102
RTVSPropertyOp14
 70
     1
102
RTVSPropertyOp15
 70
     1
102
RTVSPropertyOp16
 70
     1
102
RTVSPropertyOp17
 70
     1
102
RTVSPropertyOp18
 70
     1
102
RTVSPropertyOp19
 70
     1
102
RTVSPropertyOp20
 70
     1
102
RTVSPropertyOp21
 70
     1
102
RTVSPropertyOp22
 70
     1
102
RTVSPropertyOp23
 70
     1
102
RTVSPropertyOp24
 70
     1
102
RTVSPropertyOp25
 70
     1
102
RTVSPropertyOp26
 70
     1
102
RTVSPropertyOp27
 70
     1
102
RTVSPropertyOp28
 70
     1
102
RTVSPropertyOp29
 70
     1
102
RTVSPropertyOp30
 70
     1
102
RTVSPropertyOp31
 70
     1
102
RTVSPropertyOp32
 70
     1
102
RTVSPropertyOp33
 70
     1
102
RTVSPropertyOp34
 70
     1
102
RTVSPropertyOp35
 70
     1
102
RTVSPropertyOp36
 70
     1
102
RTVSPropertyOp37
 70
     1
102
RTVSPropertyOp38
 70
     1
102
RTVSPropertyOp39
 70
     1
102
RTVSPropertyOp40
 70
     1
102
RTVSPropertyOp41
 70
     1
102
RTVSPropertyOp42
 70
     1
102
RTVSPropertyOp43
 70
     1
102
RTVSPropertyOp44
 70
     1
102
RTVSPropertyOp45
 70
     1
102
RTVSPropertyOp46
 70
     1
102
RTVSPropertyOp47
 70
     1
102
RTVSPropertyOp48
 70
     1
102
RTVSPropertyOp49
 70
     1
102
RTVSPropertyOp50
 70
     1
102
RTVSPropertyOp51
 70
     0
102
RTVSPropertyOp52
 70
     0
102
RTVSPropertyOp53
 70
     1
102
RTVSPropertyOp54
 70
     1
102
RTVSPropertyOp55
 70
     1
102
RTVSPropertyOp56
 70
     1
102
RTVSPropertyOp57
 70
     1
102
RTVSPropertyOp58
 70
     1
102
RTVSPropertyOp59
 70
     1
102
RTVSPropertyOp60
 70
     1
102
RTVSPropertyOp61
 70
     1
102
RTVSPropertyOp62
 70
     1
  0
ENDSEC
  0
EOF
