  0
SECTION
  2
HEADER
  9
$ACADVER
  1
AC1015
  9
$ACADMAINTVER
 70
    20
  9
$DWGCODEPAGE
  3
ANSI_932
  9
$INSBASE
 10
0.0
 20
0.0
 30
0.0
  9
$EXTMIN
 10
-0.2563280987742473
 20
-0.3600799482810544
 30
-0.0015258207003583
  9
$EXTMAX
 10
8400.256367214323
 20
11800.3601348963
 30
0.0000000349246037
  9
$LIMMIN
 10
0.0
 20
0.0
  9
$LIMMAX
 10
297.0
 20
210.0
  9
$ORTHOMODE
 70
     1
  9
$REGENMODE
 70
     1
  9
$FILLMODE
 70
     0
  9
$QTEXTMODE
 70
     0
  9
$MIRRTEXT
 70
     1
  9
$LTSCALE
 40
100.0
  9
$ATTMODE
 70
     1
  9
$TEXTSIZE
 40
180.0
  9
$TRACEWID
 40
0.05
  9
$TEXTSTYLE
  7
STANDARD
  9
$CLAYER
  8
3
  9
$CELTYPE
  6
ByLayer
  9
$CECOLOR
 62
   256
  9
$CELTSCALE
 40
1.0
  9
$DISPSILH
 70
     0
  9
$DIMSCALE
 40
40.0
  9
$DIMASZ
 40
2.0
  9
$DIMEXO
 40
0.5
  9
$DIMDLI
 40
10.0
  9
$DIMRND
 40
0.0
  9
$DIMDLE
 40
0.0
  9
$DIMEXE
 40
1.0
  9
$DIMTP
 40
1.0
  9
$DIMTM
 40
1.0
  9
$DIMTXT
 40
3.0
  9
$DIMCEN
 40
0.0
  9
$DIMTSZ
 40
0.0
  9
$DIMTOL
 70
     0
  9
$DIMLIM
 70
     0
  9
$DIMTIH
 70
     0
  9
$DIMTOH
 70
     0
  9
$DIMSE1
 70
     0
  9
$DIMSE2
 70
     0
  9
$DIMTAD
 70
     1
  9
$DIMZIN
 70
     8
  9
$DIMBLK
  1

  9
$DIMASO
 70
     1
  9
$DIMSHO
 70
     1
  9
$DIMPOST
  1

  9
$DIMAPOST
  1

  9
$DIMALT
 70
     0
  9
$DIMALTD
 70
     2
  9
$DIMALTF
 40
0.039
  9
$DIMLFAC
 40
1.0
  9
$DIMTOFL
 70
     1
  9
$DIMTVP
 40
0.0
  9
$DIMTIX
 70
     0
  9
$DIMSOXD
 70
     0
  9
$DIMSAH
 70
     1
  9
$DIMBLK1
  1
OPEN
  9
$DIMBLK2
  1
OPEN
  9
$DIMSTYLE
  2
IGA
  9
$DIMCLRD
 70
     0
  9
$DIMCLRE
 70
     0
  9
$DIMCLRT
 70
     0
  9
$DIMTFAC
 40
10.0
  9
$DIMGAP
 40
1.0
  9
$DIMJUST
 70
     0
  9
$DIMSD1
 70
     0
  9
$DIMSD2
 70
     0
  9
$DIMTOLJ
 70
     1
  9
$DIMTZIN
 70
     0
  9
$DIMALTZ
 70
     0
  9
$DIMALTTZ
 70
     0
  9
$DIMUPT
 70
     0
  9
$DIMDEC
 70
     4
  9
$DIMTDEC
 70
     4
  9
$DIMALTU
 70
     2
  9
$DIMALTTD
 70
     2
  9
$DIMTXSTY
  7
STANDARD
  9
$DIMAUNIT
 70
     0
  9
$DIMADEC
 70
     0
  9
$DIMALTRND
 40
0.0
  9
$DIMAZIN
 70
     0
  9
$DIMDSEP
 70
    46
  9
$DIMATFIT
 70
     3
  9
$DIMFRAC
 70
     0
  9
$DIMLDRBLK
  1
OPEN
  9
$DIMLUNIT
 70
     2
  9
$DIMLWD
 70
    -2
  9
$DIMLWE
 70
    -2
  9
$DIMTMOVE
 70
     0
  9
$LUNITS
 70
     2
  9
$LUPREC
 70
     3
  9
$SKETCHINC
 40
0.1
  9
$FILLETRAD
 40
50.0
  9
$AUNITS
 70
     0
  9
$AUPREC
 70
     0
  9
$MENU
  1
acad
  9
$ELEVATION
 40
0.0
  9
$PELEVATION
 40
0.0
  9
$THICKNESS
 40
0.0
  9
$LIMCHECK
 70
     0
  9
$CHAMFERA
 40
0.5
  9
$CHAMFERB
 40
0.5
  9
$CHAMFERC
 40
0.0
  9
$CHAMFERD
 40
0.0
  9
$SKPOLY
 70
     0
  9
$TDCREATE
 40
2451898.396178704
  9
$TDUCREATE
 40
2451898.021178704
  9
$TDUPDATE
 40
2460280.714904908
  9
$TDUUPDATE
 40
2460280.339904908
  9
$TDINDWG
 40
0.0278479514
  9
$TDUSRTIMER
 40
0.0278479282
  9
$USRTIMER
 70
     1
  9
$ANGBASE
 50
0.0
  9
$ANGDIR
 70
     0
  9
$PDMODE
 70
     0
  9
$PDSIZE
 40
0.0
  9
$PLINEWID
 40
0.0
  9
$SPLFRAME
 70
     0
  9
$SPLINETYPE
 70
     6
  9
$SPLINESEGS
 70
     8
  9
$HANDSEED
  5
86A0
  9
$SURFTAB1
 70
     6
  9
$SURFTAB2
 70
     6
  9
$SURFTYPE
 70
     6
  9
$SURFU
 70
     6
  9
$SURFV
 70
     6
  9
$UCSBASE
  2

  9
$UCSNAME
  2

  9
$UCSORG
 10
0.0
 20
0.0
 30
0.0
  9
$UCSXDIR
 10
1.0
 20
0.0
 30
0.0
  9
$UCSYDIR
 10
0.0
 20
1.0
 30
0.0
  9
$UCSORTHOREF
  2

  9
$UCSORTHOVIEW
 70
     0
  9
$UCSORGTOP
 10
0.0
 20
0.0
 30
0.0
  9
$UCSORGBOTTOM
 10
0.0
 20
0.0
 30
0.0
  9
$UCSORGLEFT
 10
0.0
 20
0.0
 30
0.0
  9
$UCSORGRIGHT
 10
0.0
 20
0.0
 30
0.0
  9
$UCSORGFRONT
 10
0.0
 20
0.0
 30
0.0
  9
$UCSORGBACK
 10
0.0
 20
0.0
 30
0.0
  9
$PUCSBASE
  2

  9
$PUCSNAME
  2

  9
$PUCSORG
 10
0.0
 20
0.0
 30
0.0
  9
$PUCSXDIR
 10
1.0
 20
0.0
 30
0.0
  9
$PUCSYDIR
 10
0.0
 20
1.0
 30
0.0
  9
$PUCSORTHOREF
  2

  9
$PUCSORTHOVIEW
 70
     0
  9
$PUCSORGTOP
 10
0.0
 20
0.0
 30
0.0
  9
$PUCSORGBOTTOM
 10
0.0
 20
0.0
 30
0.0
  9
$PUCSORGLEFT
 10
0.0
 20
0.0
 30
0.0
  9
$PUCSORGRIGHT
 10
0.0
 20
0.0
 30
0.0
  9
$PUCSORGFRONT
 10
0.0
 20
0.0
 30
0.0
  9
$PUCSORGBACK
 10
0.0
 20
0.0
 30
0.0
  9
$USERI1
 70
     0
  9
$USERI2
 70
     0
  9
$USERI3
 70
     0
  9
$USERI4
 70
     0
  9
$USERI5
 70
     0
  9
$USERR1
 40
0.0
  9
$USERR2
 40
0.0
  9
$USERR3
 40
0.0
  9
$USERR4
 40
0.0
  9
$USERR5
 40
0.0
  9
$WORLDVIEW
 70
     1
  9
$SHADEDGE
 70
     3
  9
$SHADEDIF
 70
    70
  9
$TILEMODE
 70
     1
  9
$MAXACTVP
 70
    16
  9
$PINSBASE
 10
0.0
 20
0.0
 30
0.0
  9
$PLIMCHECK
 70
     0
  9
$PEXTMIN
 10
1.000000000000000E+20
 20
1.000000000000000E+20
 30
1.000000000000000E+20
  9
$PEXTMAX
 10
-1.000000000000000E+20
 20
-1.000000000000000E+20
 30
-1.000000000000000E+20
  9
$PLIMMIN
 10
0.0
 20
0.0
  9
$PLIMMAX
 10
12.0
 20
9.0
  9
$UNITMODE
 70
     0
  9
$VISRETAIN
 70
     0
  9
$PLINEGEN
 70
     0
  9
$PSLTSCALE
 70
     1
  9
$TREEDEPTH
 70
  3020
  9
$CMLSTYLE
  2
Standard
  9
$CMLJUST
 70
     0
  9
$CMLSCALE
 40
1.0
  9
$PROXYGRAPHICS
 70
     1
  9
$MEASUREMENT
 70
     0
  9
$CELWEIGHT
370
    -1
  9
$ENDCAPS
280
     0
  9
$JOINSTYLE
280
     0
  9
$LWDISPLAY
290
     0
  9
$INSUNITS
 70
     0
  9
$HYPERLINKBASE
  1

  9
$STYLESHEET
  1

  9
$XEDIT
290
     1
  9
$CEPSNTYPE
380
     0
  9
$PSTYLEMODE
290
     1
  9
$FINGERPRINTGUID
  2
{E9C3CDF2-9D4D-4FB6-9A04-C841499294BA}
  9
$VERSIONGUID
  2
{78432436-098C-4A43-B220-0EA98F2DB90F}
  9
$EXTNAMES
290
     1
  9
$PSVPSCALE
 40
0.0
  9
$OLESTARTUP
290
     0
  0
ENDSEC
  0
SECTION
  2
CLASSES
  0
CLASS
  1
ACDBDICTIONARYWDFLT
  2
AcDbDictionaryWithDefault
  3
ObjectDBX Classes
 90
        0
280
     0
281
     0
  0
CLASS
  1
MATERIAL
  2
AcDbMaterial
  3
ObjectDBX Classes
 90
     1153
280
     0
281
     0
  0
CLASS
  1
VISUALSTYLE
  2
AcDbVisualStyle
  3
ObjectDBX Classes
 90
     4095
280
     0
281
     0
  0
CLASS
  1
SCALE
  2
AcDbScale
  3
ObjectDBX Classes
 90
     1153
280
     0
281
     0
  0
CLASS
  1
TABLESTYLE
  2
AcDbTableStyle
  3
ObjectDBX Classes
 90
     4095
280
     0
281
     0
  0
CLASS
  1
MLEADERSTYLE
  2
AcDbMLeaderStyle
  3
ACDB_MLEADERSTYLE_CLASS
 90
     4095
280
     0
281
     0
  0
CLASS
  1
ACDBSECTIONVIEWSTYLE
  2
AcDbSectionViewStyle
  3
ObjectDBX Classes
 90
     1025
280
     0
281
     0
  0
CLASS
  1
ACDBDETAILVIEWSTYLE
  2
AcDbDetailViewStyle
  3
ObjectDBX Classes
 90
     1025
280
     0
281
     0
  0
CLASS
  1
DICTIONARYVAR
  2
AcDbDictionaryVar
  3
ObjectDBX Classes
 90
        0
280
     0
281
     0
  0
CLASS
  1
CELLSTYLEMAP
  2
AcDbCellStyleMap
  3
ObjectDBX Classes
 90
     1152
280
     0
281
     0
  0
CLASS
  1
SORTENTSTABLE
  2
AcDbSortentsTable
  3
ObjectDBX Classes
 90
        0
280
     0
281
     0
  0
CLASS
  1
ACDBPLACEHOLDER
  2
AcDbPlaceHolder
  3
ObjectDBX Classes
 90
        0
280
     0
281
     0
  0
CLASS
  1
LAYOUT
  2
AcDbLayout
  3
ObjectDBX Classes
 90
        0
280
     0
281
     0
  0
ENDSEC
  0
SECTION
  2
TABLES
  0
TABLE
  2
VPORT
  5
841D
330
0
100
AcDbSymbolTable
 70
     1
  0
VPORT
  5
8489
330
841D
100
AcDbSymbolTableRecord
100
AcDbViewportTableRecord
  2
*ACTIVE
 70
     0
 10
0.0
 20
0.0
 11
1.0
 21
1.0
 12
4200.000019557773
 22
5900.000027474012
 13
0.0
 23
0.0
 14
10.0
 24
10.0
 15
10.0
 25
10.0
 16
0.0
 26
0.0
 36
1.0
 17
0.0
 27
0.0
 37
0.0
 40
11876.28512550527
 41
2.050213675213675
 42
50.0
 43
0.0
 44
0.0
 50
0.0
 51
0.0
 71
     0
 72
   100
 73
     1
 74
     0
 75
     0
 76
     0
 77
     0
 78
     0
281
     0
 65
     1
110
0.0
120
0.0
130
0.0
111
1.0
121
0.0
131
0.0
112
0.0
122
1.0
132
0.0
 79
     0
146
0.0
1001
ACAD_NAV_VCDISPLAY
1070
     3
  0
ENDTAB
  0
TABLE
  2
LTYPE
  5
841A
330
0
100
AcDbSymbolTable
 70
     4
  0
LTYPE
  5
846F
330
841A
100
AcDbSymbolTableRecord
100
AcDbLinetypeTableRecord
  2
ByBlock
 70
     0
  3

 72
    65
 73
     0
 40
0.0
  0
LTYPE
  5
8470
330
841A
100
AcDbSymbolTableRecord
100
AcDbLinetypeTableRecord
  2
ByLayer
 70
     0
  3

 72
    65
 73
     0
 40
0.0
  0
LTYPE
  5
8471
330
841A
100
AcDbSymbolTableRecord
100
AcDbLinetypeTableRecord
  2
CONTINUOUS
 70
     0
  3
Solid line
 72
    65
 73
     0
 40
0.0
  0
LTYPE
  5
848A
330
841A
100
AcDbSymbolTableRecord
100
AcDbLinetypeTableRecord
  2
CENTER
 70
     0
  3
____ _ ____ _ ____ _ ____ _ ____ _ ____ _ ____ 
 72
    65
 73
     4
 40
2.0
 49
1.25
 74
     0
 49
-0.25
 74
     0
 49
0.25
 74
     0
 49
-0.25
 74
     0
  0
ENDTAB
  0
TABLE
  2
LAYER
  5
8417
330
0
100
AcDbSymbolTable
 70
     6
  0
LAYER
  5
8469
102
{ACAD_XDICTIONARY
360
84C8
102
}
330
8417
100
AcDbSymbolTableRecord
100
AcDbLayerTableRecord
  2
0
 70
     0
 62
     7
  6
CONTINUOUS
370
    -3
390
8424
  0
LAYER
  5
8488
102
{ACAD_XDICTIONARY
360
84CA
102
}
330
8417
100
AcDbSymbolTableRecord
100
AcDbLayerTableRecord
  2
3
 70
     0
 62
     2
  6
CONTINUOUS
370
    -3
390
8424
  0
LAYER
  5
848B
102
{ACAD_XDICTIONARY
360
84CC
102
}
330
8417
100
AcDbSymbolTableRecord
100
AcDbLayerTableRecord
  2
2
 70
     0
 62
     3
  6
CENTER
370
    -3
390
8424
  0
LAYER
  5
848C
102
{ACAD_XDICTIONARY
360
84CE
102
}
330
8417
100
AcDbSymbolTableRecord
100
AcDbLayerTableRecord
  2
1
 70
     0
 62
     4
  6
CONTINUOUS
370
    -3
390
8424
  0
LAYER
  5
848D
102
{ACAD_XDICTIONARY
360
84D0
102
}
330
8417
100
AcDbSymbolTableRecord
100
AcDbLayerTableRecord
  2
4
 70
     0
 62
     7
  6
CONTINUOUS
370
    -3
390
8424
  0
LAYER
  5
848E
330
8417
100
AcDbSymbolTableRecord
100
AcDbLayerTableRecord
  2
DEFPOINTS
 70
     0
 62
     7
  6
CONTINUOUS
290
     0
370
    -3
390
8424
  0
ENDTAB
  0
TABLE
  2
STYLE
  5
8418
330
0
100
AcDbSymbolTable
 70
     2
  0
STYLE
  5
846A
330
8418
100
AcDbSymbolTableRecord
100
AcDbTextStyleTableRecord
  2
STANDARD
 70
     0
 40
0.0
 41
1.0
 50
0.0
 71
     0
 42
180.0
  3
simplex.shx
  4
extfont.shx
  0
STYLE
  5
846E
330
8418
100
AcDbSymbolTableRecord
100
AcDbTextStyleTableRecord
  2
Annotative
 70
     0
 40
0.0
 41
1.0
 50
0.0
 71
     0
 42
0.2
  3
txt
  4

1001
AcadAnnotative
1000
AnnotativeData
1002
{
1070
     1
1070
     1
1002
}
  0
ENDTAB
  0
TABLE
  2
VIEW
  5
841B
330
0
100
AcDbSymbolTable
 70
     0
  0
ENDTAB
  0
TABLE
  2
UCS
  5
841C
330
0
100
AcDbSymbolTable
 70
     0
  0
ENDTAB
  0
TABLE
  2
APPID
  5
841E
330
0
100
AcDbSymbolTable
 70
     6
  0
APPID
  5
846B
330
841E
100
AcDbSymbolTableRecord
100
AcDbRegAppTableRecord
  2
ACAD
 70
     0
  0
APPID
  5
8472
330
841E
100
AcDbSymbolTableRecord
100
AcDbRegAppTableRecord
  2
AcadAnnotative
 70
     0
  0
APPID
  5
84DC
330
841E
100
AcDbSymbolTableRecord
100
AcDbRegAppTableRecord
  2
ACAD_NAV_VCDISPLAY
 70
     0
  0
APPID
  5
8556
330
841E
100
AcDbSymbolTableRecord
100
AcDbRegAppTableRecord
  2
AcadAnnoMonitorAlertIconDisabled
 70
     0
  0
APPID
  5
8557
330
841E
100
AcDbSymbolTableRecord
100
AcDbRegAppTableRecord
  2
ACAD_EXEMPT_FROM_CAD_STANDARDS
 70
     0
  0
APPID
  5
8697
330
841E
100
AcDbSymbolTableRecord
100
AcDbRegAppTableRecord
  2
ACAD_MLEADERVER
 70
     0
  0
ENDTAB
  0
TABLE
  2
DIMSTYLE
  5
841F
330
0
100
AcDbSymbolTable
 70
     4
100
AcDbDimStyleTable
 71
     1
340
848F
  0
DIMSTYLE
105
846C
102
{ACAD_REACTORS
330
8272
330
827F
330
828C
330
8299
330
82A6
102
}
330
841F
100
AcDbSymbolTableRecord
100
AcDbDimStyleTableRecord
  2
Standard
 70
     0
340
846A
  0
DIMSTYLE
105
846D
330
841F
100
AcDbSymbolTableRecord
100
AcDbDimStyleTableRecord
  2
Annotative
 70
     0
340
846A
1001
AcadAnnotative
1000
AnnotativeData
1002
{
1070
     1
1070
     1
1002
}
  0
DIMSTYLE
105
848F
102
{ACAD_REACTORS
330
851E
330
852B
330
8538
330
8549
330
85C9
330
85D6
330
85E3
330
85F0
330
85FD
330
8611
330
861E
330
862B
330
8638
330
8645
330
8652
102
}
330
841F
100
AcDbSymbolTableRecord
100
AcDbDimStyleTableRecord
  2
IGA
 70
     0
 40
2.0
 41
2.0
 42
0.5
 43
10.0
 44
1.0
 47
1.0
 48
1.0
 73
     0
 74
     0
 77
     1
 78
     8
140
3.0
141
0.0
143
0.03937
146
10.0
147
1.0
173
     1
271
     3
272
     3
279
     2
284
     8
285
     8
286
     8
340
846A
  0
ENDTAB
  0
TABLE
  2
BLOCK_RECORD
  5
8416
330
0
100
AcDbSymbolTable
 70
    43
  0
BLOCK_RECORD
  5
8484
102
{ACAD_XDICTIONARY
360
8546
102
}
330
8416
100
AcDbSymbolTableRecord
100
AcDbBlockTableRecord
  2
*Model_Space
340
8487
  0
BLOCK_RECORD
  5
8480
330
8416
100
AcDbSymbolTableRecord
100
AcDbBlockTableRecord
  2
*Paper_Space
340
8483
  0
BLOCK_RECORD
  5
8493
330
8416
100
AcDbSymbolTableRecord
100
AcDbBlockTableRecord
  2
$MODEL_SPACE
340
0
  0
BLOCK_RECORD
  5
8495
330
8416
100
AcDbSymbolTableRecord
100
AcDbBlockTableRecord
  2
$PAPER_SPACE
340
0
  0
BLOCK_RECORD
  5
8497
330
8416
100
AcDbSymbolTableRecord
100
AcDbBlockTableRecord
  2
YA_N
340
0
102
{BLKREFS
331
7C3A
331
7C55
331
7C56
331
7C7B
331
7CC8
331
7CD8
331
7D02
331
7D19
102
}
  0
BLOCK_RECORD
  5
8499
330
8416
100
AcDbSymbolTableRecord
100
AcDbBlockTableRecord
  2
*D3
340
0
  0
BLOCK_RECORD
  5
849B
330
8416
100
AcDbSymbolTableRecord
100
AcDbBlockTableRecord
  2
_OPEN
340
0
102
{BLKREFS
331
83FD
331
83FE
331
826B
331
826C
331
8278
331
8279
331
8285
331
8286
331
8292
331
8293
331
83AD
331
83AE
331
83B6
331
83B7
331
83BF
331
83C0
331
83C8
331
83C9
331
83D1
331
83D2
331
83DA
331
83DB
331
8632
331
8633
331
863F
331
8640
331
864C
331
864D
331
8659
331
865A
331
83E3
331
83E4
331
83EC
331
83ED
331
85D0
331
85D1
331
85DD
331
85DE
331
85EA
331
85EB
331
85F7
331
85F8
331
8604
331
8605
331
8618
331
8619
331
8625
331
8626
331
83F4
331
83F5
331
859B
331
859C
331
85AD
331
85AE
331
85C3
331
85C4
331
829F
331
82A0
331
8525
331
8526
331
8565
331
8566
331
8380
331
8381
331
8389
331
838A
331
8392
331
8393
331
839B
331
839C
331
83A4
331
83A5
102
}
  0
BLOCK_RECORD
  5
849C
330
8416
100
AcDbSymbolTableRecord
100
AcDbBlockTableRecord
  2
*D5
340
0
  0
BLOCK_RECORD
  5
849E
330
8416
100
AcDbSymbolTableRecord
100
AcDbBlockTableRecord
  2
*D6
340
0
  0
BLOCK_RECORD
  5
84A0
330
8416
100
AcDbSymbolTableRecord
100
AcDbBlockTableRecord
  2
*D7
340
0
  0
BLOCK_RECORD
  5
84A2
330
8416
100
AcDbSymbolTableRecord
100
AcDbBlockTableRecord
  2
*D8
340
0
  0
BLOCK_RECORD
  5
84A4
330
8416
100
AcDbSymbolTableRecord
100
AcDbBlockTableRecord
  2
*D9
340
0
  0
BLOCK_RECORD
  5
84A6
330
8416
100
AcDbSymbolTableRecord
100
AcDbBlockTableRecord
  2
*D10
340
0
  0
BLOCK_RECORD
  5
84A8
330
8416
100
AcDbSymbolTableRecord
100
AcDbBlockTableRecord
  2
*D11
340
0
  0
BLOCK_RECORD
  5
84AA
330
8416
100
AcDbSymbolTableRecord
100
AcDbBlockTableRecord
  2
*D12
340
0
  0
BLOCK_RECORD
  5
84AC
330
8416
100
AcDbSymbolTableRecord
100
AcDbBlockTableRecord
  2
*D13
340
0
  0
BLOCK_RECORD
  5
84AE
330
8416
100
AcDbSymbolTableRecord
100
AcDbBlockTableRecord
  2
*D14
340
0
  0
BLOCK_RECORD
  5
84B0
330
8416
100
AcDbSymbolTableRecord
100
AcDbBlockTableRecord
  2
*D15
340
0
  0
BLOCK_RECORD
  5
84B2
330
8416
100
AcDbSymbolTableRecord
100
AcDbBlockTableRecord
  2
*D16
340
0
  0
BLOCK_RECORD
  5
84B5
330
8416
100
AcDbSymbolTableRecord
100
AcDbBlockTableRecord
  2
*D17
340
0
  0
BLOCK_RECORD
  5
84B7
330
8416
100
AcDbSymbolTableRecord
100
AcDbBlockTableRecord
  2
*D18
340
0
  0
BLOCK_RECORD
  5
84B9
330
8416
100
AcDbSymbolTableRecord
100
AcDbBlockTableRecord
  2
_DOT
340
0
  0
BLOCK_RECORD
  5
84BB
330
8416
100
AcDbSymbolTableRecord
100
AcDbBlockTableRecord
  2
_NONE
340
0
  0
BLOCK_RECORD
  5
84BD
330
8416
100
AcDbSymbolTableRecord
100
AcDbBlockTableRecord
  2
*D21
340
0
  0
BLOCK_RECORD
  5
84BF
330
8416
100
AcDbSymbolTableRecord
100
AcDbBlockTableRecord
  2
*D22
340
0
  0
BLOCK_RECORD
  5
84C1
330
8416
100
AcDbSymbolTableRecord
100
AcDbBlockTableRecord
  2
*D23
340
0
  0
BLOCK_RECORD
  5
84C3
330
8416
100
AcDbSymbolTableRecord
100
AcDbBlockTableRecord
  2
*D24
340
0
  0
BLOCK_RECORD
  5
84C5
330
8416
100
AcDbSymbolTableRecord
100
AcDbBlockTableRecord
  2
*D25
340
0
  0
BLOCK_RECORD
  5
851F
330
8416
100
AcDbSymbolTableRecord
100
AcDbBlockTableRecord
  2
*D26
340
0
  0
BLOCK_RECORD
  5
852C
330
8416
100
AcDbSymbolTableRecord
100
AcDbBlockTableRecord
  2
*D27
340
0
  0
BLOCK_RECORD
  5
8539
330
8416
100
AcDbSymbolTableRecord
100
AcDbBlockTableRecord
  2
*D28
340
0
  0
BLOCK_RECORD
  5
854A
330
8416
100
AcDbSymbolTableRecord
100
AcDbBlockTableRecord
  2
*D29
340
0
  0
BLOCK_RECORD
  5
85B4
330
8416
100
AcDbSymbolTableRecord
100
AcDbBlockTableRecord
  2
*D30
340
0
  0
BLOCK_RECORD
  5
85CA
330
8416
100
AcDbSymbolTableRecord
100
AcDbBlockTableRecord
  2
*D31
340
0
  0
BLOCK_RECORD
  5
85D7
330
8416
100
AcDbSymbolTableRecord
100
AcDbBlockTableRecord
  2
*D32
340
0
  0
BLOCK_RECORD
  5
85E4
330
8416
100
AcDbSymbolTableRecord
100
AcDbBlockTableRecord
  2
*D33
340
0
  0
BLOCK_RECORD
  5
85F1
330
8416
100
AcDbSymbolTableRecord
100
AcDbBlockTableRecord
  2
*D34
340
0
  0
BLOCK_RECORD
  5
85FE
330
8416
100
AcDbSymbolTableRecord
100
AcDbBlockTableRecord
  2
*D35
340
0
  0
BLOCK_RECORD
  5
8612
330
8416
100
AcDbSymbolTableRecord
100
AcDbBlockTableRecord
  2
*D37
340
0
  0
BLOCK_RECORD
  5
861F
330
8416
100
AcDbSymbolTableRecord
100
AcDbBlockTableRecord
  2
*D38
340
0
  0
BLOCK_RECORD
  5
862C
330
8416
100
AcDbSymbolTableRecord
100
AcDbBlockTableRecord
  2
*D39
340
0
  0
BLOCK_RECORD
  5
8639
330
8416
100
AcDbSymbolTableRecord
100
AcDbBlockTableRecord
  2
*D40
340
0
  0
BLOCK_RECORD
  5
8646
330
8416
100
AcDbSymbolTableRecord
100
AcDbBlockTableRecord
  2
*D41
340
0
  0
BLOCK_RECORD
  5
8653
330
8416
100
AcDbSymbolTableRecord
100
AcDbBlockTableRecord
  2
*D42
340
0
  0
ENDTAB
  0
ENDSEC
  0
SECTION
  2
BLOCKS
  0
BLOCK
  5
8485
330
8484
100
AcDbEntity
  8
0
100
AcDbBlockBegin
  2
*Model_Space
 70
     0
 10
0.0
 20
0.0
 30
0.0
  3
*Model_Space
  1

  0
ENDBLK
  5
8486
330
8484
100
AcDbEntity
  8
0
100
AcDbBlockEnd
  0
BLOCK
  5
8481
330
8480
100
AcDbEntity
 67
     1
  8
0
100
AcDbBlockBegin
  2
*Paper_Space
 70
     0
 10
0.0
 20
0.0
 30
0.0
  3
*Paper_Space
  1

  0
ENDBLK
  5
8482
330
8480
100
AcDbEntity
 67
     1
  8
0
100
AcDbBlockEnd
  0
BLOCK
  5
8494
330
8493
100
AcDbEntity
  8
0
100
AcDbBlockBegin
  2
$MODEL_SPACE
 70
     0
 10
0.0
 20
0.0
 30
0.0
  3
$MODEL_SPACE
  1

  0
ENDBLK
  5
1B
330
8493
100
AcDbEntity
  8
0
100
AcDbBlockEnd
  0
BLOCK
  5
8496
330
8495
100
AcDbEntity
  8
0
100
AcDbBlockBegin
  2
$PAPER_SPACE
 70
     0
 10
0.0
 20
0.0
 30
0.0
  3
$PAPER_SPACE
  1

  0
ENDBLK
  5
18
330
8495
100
AcDbEntity
  8
0
100
AcDbBlockEnd
  0
BLOCK
  5
8498
330
8497
100
AcDbEntity
  8
0
100
AcDbBlockBegin
  2
YA_N
 70
     0
 10
0.0
 20
0.0
 30
0.0
  3
YA_N
  1

  0
ENDBLK
  5
79FE
330
8497
100
AcDbEntity
  8
0
100
AcDbBlockEnd
  0
BLOCK
  5
849A
330
8499
100
AcDbEntity
  8
0
100
AcDbBlockBegin
  2
*D3
 70
     1
 10
0.0
 20
0.0
 30
0.0
  3
*D3
  1

  0
LINE
  5
837D
330
8499
100
AcDbEntity
  8
3
 62
     0
100
AcDbLine
 10
5545.659262902689
 20
4757.552393784735
 30
0.0
 11
5545.659262902689
 21
5025.952180251301
 31
0.0
  0
LINE
  5
837E
330
8499
100
AcDbEntity
  8
3
 62
     0
100
AcDbLine
 10
7245.659262902688
 20
4757.552393784735
 30
0.0
 11
7245.659262902688
 21
5025.952180251301
 31
0.0
  0
LINE
  5
837F
330
8499
100
AcDbEntity
  8
3
 62
     0
100
AcDbLine
 10
5625.659262902689
 20
4985.952180251301
 30
0.0
 11
7165.659262902689
 21
4985.952180251301
 31
0.0
  0
INSERT
  5
8380
330
8499
100
AcDbEntity
  8
3
 62
     0
100
AcDbBlockReference
  2
_OPEN
 10
5545.659262902689
 20
4985.952180251301
 30
0.0
 41
80.0
 42
80.0
 43
80.0
 50
180.0
  0
INSERT
  5
8381
330
8499
100
AcDbEntity
  8
3
 62
     0
100
AcDbBlockReference
  2
_OPEN
 10
7245.659262902688
 20
4985.952180251301
 30
0.0
 41
80.0
 42
80.0
 43
80.0
  0
TEXT
  5
8406
330
8499
100
AcDbEntity
  8
3
 62
     0
100
AcDbText
 10
6155.660000000001
 20
4873.55
 30
0.0
 40
120.0
  1
1700
100
AcDbText
  0
POINT
  5
8383
330
8499
100
AcDbEntity
  8
DEFPOINTS
 62
     0
100
AcDbPoint
 10
5545.659262902689
 20
4737.552393784734
 30
0.0
  0
POINT
  5
8384
330
8499
100
AcDbEntity
  8
DEFPOINTS
 62
     0
100
AcDbPoint
 10
7245.659262902688
 20
4737.552393784734
 30
0.0
  0
POINT
  5
8385
330
8499
100
AcDbEntity
  8
DEFPOINTS
 62
     0
100
AcDbPoint
 10
7245.659262902688
 20
4985.952180251301
 30
0.0
  0
ENDBLK
  5
8088
330
8499
100
AcDbEntity
  8
0
100
AcDbBlockEnd
  0
BLOCK
  5
84B4
330
849B
100
AcDbEntity
  8
0
100
AcDbBlockBegin
  2
_OPEN
 70
     0
 10
0.0
 20
0.0
 30
0.0
  3
_OPEN
  1

  0
LINE
  5
7F79
330
849B
100
AcDbEntity
  8
0
  6
ByBlock
 62
     0
100
AcDbLine
 10
-1.0
 20
0.1666666666666666
 30
0.0
 11
0.0
 21
0.0
 31
0.0
  0
LINE
  5
7F7A
330
849B
100
AcDbEntity
  8
0
  6
ByBlock
 62
     0
100
AcDbLine
 10
0.0
 20
0.0
 30
0.0
 11
-1.0
 21
-0.1666666666666666
 31
0.0
  0
LINE
  5
7F7B
330
849B
100
AcDbEntity
  8
0
  6
ByBlock
 62
     0
100
AcDbLine
 10
0.0
 20
0.0
 30
0.0
 11
-1.0
 21
0.0
 31
0.0
  0
ENDBLK
  5
7F7C
330
849B
100
AcDbEntity
  8
0
100
AcDbBlockEnd
  0
BLOCK
  5
849D
330
849C
100
AcDbEntity
  8
0
100
AcDbBlockBegin
  2
*D5
 70
     1
 10
0.0
 20
0.0
 30
0.0
  3
*D5
  1

  0
LINE
  5
8386
330
849C
100
AcDbEntity
  8
3
 62
     0
100
AcDbLine
 10
5160.65926290269
 20
4227.929630863208
 30
0.0
 11
5160.65926290269
 21
5279.303072215389
 31
0.0
  0
LINE
  5
8387
330
849C
100
AcDbEntity
  8
3
 62
     0
100
AcDbLine
 10
6395.65926290269
 20
5196.920362397317
 30
0.0
 11
6395.65926290269
 21
5279.303072215389
 31
0.0
  0
LINE
  5
8388
330
849C
100
AcDbEntity
  8
3
 62
     0
100
AcDbLine
 10
5240.65926290269
 20
5239.303072215388
 30
0.0
 11
6315.659262902689
 21
5239.303072215388
 31
0.0
  0
INSERT
  5
8389
330
849C
100
AcDbEntity
  8
3
 62
     0
100
AcDbBlockReference
  2
_OPEN
 10
5160.65926290269
 20
5239.303072215388
 30
0.0
 41
80.0
 42
80.0
 43
80.0
 50
180.0
  0
INSERT
  5
838A
330
849C
100
AcDbEntity
  8
3
 62
     0
100
AcDbBlockReference
  2
_OPEN
 10
6395.65926290269
 20
5239.303072215388
 30
0.0
 41
80.0
 42
80.0
 43
80.0
  0
TEXT
  5
8407
330
849C
100
AcDbEntity
  8
3
 62
     0
100
AcDbText
 10
5538.16
 20
5226.9
 30
0.0
 40
120.0
  1
MAX
100
AcDbText
  0
TEXT
  5
8408
330
849C
100
AcDbEntity
  8
3
 62
     0
100
AcDbText
 10
5538.16
 20
5070.899999999999
 30
0.0
 40
120.0
  1
1280
100
AcDbText
  0
POINT
  5
838C
330
849C
100
AcDbEntity
  8
DEFPOINTS
 62
     0
100
AcDbPoint
 10
5160.65926290269
 20
4207.929630863207
 30
0.0
  0
POINT
  5
838D
330
849C
100
AcDbEntity
  8
DEFPOINTS
 62
     0
100
AcDbPoint
 10
6395.65926290269
 20
5176.920362397315
 30
0.0
  0
POINT
  5
838E
330
849C
100
AcDbEntity
  8
DEFPOINTS
 62
     0
100
AcDbPoint
 10
6395.65926290269
 20
5239.303072215388
 30
0.0
  0
ENDBLK
  5
8190
330
849C
100
AcDbEntity
  8
0
100
AcDbBlockEnd
  0
BLOCK
  5
849F
330
849E
100
AcDbEntity
  8
0
100
AcDbBlockBegin
  2
*D6
 70
     1
 10
0.0
 20
0.0
 30
0.0
  3
*D6
  1

  0
LINE
  5
838F
330
849E
100
AcDbEntity
  8
3
 62
     0
100
AcDbLine
 10
6395.65926290269
 20
5196.920362397317
 30
0.0
 11
6395.65926290269
 21
5278.915485110204
 31
0.0
  0
LINE
  5
8390
330
849E
100
AcDbEntity
  8
3
 62
     0
100
AcDbLine
 10
7405.659262902689
 20
3843.267561965474
 30
0.0
 11
7405.659262902689
 21
5278.915485110204
 31
0.0
  0
LINE
  5
8391
330
849E
100
AcDbEntity
  8
3
 62
     0
100
AcDbLine
 10
6475.65926290269
 20
5238.915485110203
 30
0.0
 11
7325.659262902689
 21
5238.915485110203
 31
0.0
  0
INSERT
  5
8392
330
849E
100
AcDbEntity
  8
3
 62
     0
100
AcDbBlockReference
  2
_OPEN
 10
6395.65926290269
 20
5238.915485110203
 30
0.0
 41
80.0
 42
80.0
 43
80.0
 50
180.0
  0
INSERT
  5
8393
330
849E
100
AcDbEntity
  8
3
 62
     0
100
AcDbBlockReference
  2
_OPEN
 10
7405.659262902689
 20
5238.915485110203
 30
0.0
 41
80.0
 42
80.0
 43
80.0
  0
TEXT
  5
8409
330
849E
100
AcDbEntity
  8
3
 62
     0
100
AcDbText
 10
6660.66
 20
5157.939999999999
 30
0.0
 40
120.0
  1
(1020)
100
AcDbText
  0
POINT
  5
8395
330
849E
100
AcDbEntity
  8
DEFPOINTS
 62
     0
100
AcDbPoint
 10
6395.65926290269
 20
5176.920362397315
 30
0.0
  0
POINT
  5
8396
330
849E
100
AcDbEntity
  8
DEFPOINTS
 62
     0
100
AcDbPoint
 10
7405.659262902689
 20
3823.267561965474
 30
0.0
  0
POINT
  5
8397
330
849E
100
AcDbEntity
  8
DEFPOINTS
 62
     0
100
AcDbPoint
 10
7405.659262902689
 20
5238.915485110203
 30
0.0
  0
ENDBLK
  5
8185
330
849E
100
AcDbEntity
  8
0
100
AcDbBlockEnd
  0
BLOCK
  5
84A1
330
84A0
100
AcDbEntity
  8
0
100
AcDbBlockBegin
  2
*D7
 70
     1
 10
0.0
 20
0.0
 30
0.0
  3
*D7
  1

  0
LINE
  5
8398
330
84A0
100
AcDbEntity
  8
3
 62
     0
100
AcDbLine
 10
7267.95926290269
 20
4552.929630863208
 30
0.0
 11
7696.928887815194
 21
4552.929630863208
 31
0.0
  0
LINE
  5
8399
330
84A0
100
AcDbEntity
  8
3
 62
     0
100
AcDbLine
 10
7267.95926290269
 20
3302.929630863206
 30
0.0
 11
7696.928887815194
 21
3302.929630863206
 31
0.0
  0
LINE
  5
839A
330
84A0
100
AcDbEntity
  8
3
 62
     0
100
AcDbLine
 10
7656.928887815194
 20
4472.929630863208
 30
0.0
 11
7656.928887815194
 21
3382.929630863206
 31
0.0
  0
INSERT
  5
839B
330
84A0
100
AcDbEntity
  8
3
 62
     0
100
AcDbBlockReference
  2
_OPEN
 10
7656.928887815194
 20
4552.929630863208
 30
0.0
 41
80.0
 42
80.0
 43
80.0
 50
90.0
  0
INSERT
  5
839C
330
84A0
100
AcDbEntity
  8
3
 62
     0
100
AcDbBlockReference
  2
_OPEN
 10
7656.928887815194
 20
3302.929630863206
 30
0.0
 41
80.0
 42
80.0
 43
80.0
 50
270.0
  0
TEXT
  5
840A
330
84A0
100
AcDbEntity
  8
3
 62
     0
100
AcDbText
 10
7316.930000000001
 20
3715.530000000001
 30
0.0
 40
120.0
  1
\U+03C61250
100
AcDbText
  0
POINT
  5
839E
330
84A0
100
AcDbEntity
  8
DEFPOINTS
 62
     0
100
AcDbPoint
 10
7247.959262902689
 20
4552.929630863208
 30
0.0
  0
POINT
  5
839F
330
84A0
100
AcDbEntity
  8
DEFPOINTS
 62
     0
100
AcDbPoint
 10
7247.959262902689
 20
3302.929630863206
 30
0.0
  0
POINT
  5
83A0
330
84A0
100
AcDbEntity
  8
DEFPOINTS
 62
     0
100
AcDbPoint
 10
7656.928887815194
 20
3302.929630863206
 30
0.0
  0
ENDBLK
  5
8067
330
84A0
100
AcDbEntity
  8
0
100
AcDbBlockEnd
  0
BLOCK
  5
84A3
330
84A2
100
AcDbEntity
  8
0
100
AcDbBlockBegin
  2
*D8
 70
     1
 10
0.0
 20
0.0
 30
0.0
  3
*D8
  1

  0
LINE
  5
83A1
330
84A2
100
AcDbEntity
  8
3
 62
     0
100
AcDbLine
 10
3965.557756892302
 20
8639.308553199738
 30
0.0
 11
4434.573898128134
 21
8639.308553199738
 31
0.0
  0
LINE
  5
83A2
330
84A2
100
AcDbEntity
  8
3
 62
     0
100
AcDbLine
 10
3965.557756892302
 20
6519.308553199739
 30
0.0
 11
4434.573898128134
 21
6519.308553199739
 31
0.0
  0
LINE
  5
83A3
330
84A2
100
AcDbEntity
  8
3
 62
     0
100
AcDbLine
 10
4394.573898128134
 20
8559.308553199738
 30
0.0
 11
4394.573898128134
 21
6599.308553199738
 31
0.0
  0
INSERT
  5
83A4
330
84A2
100
AcDbEntity
  8
3
 62
     0
100
AcDbBlockReference
  2
_OPEN
 10
4394.573898128134
 20
8639.308553199738
 30
0.0
 41
80.0
 42
80.0
 43
80.0
 50
90.0
  0
INSERT
  5
83A5
330
84A2
100
AcDbEntity
  8
3
 62
     0
100
AcDbBlockReference
  2
_OPEN
 10
4394.573898128134
 20
6519.308553199739
 30
0.0
 41
80.0
 42
80.0
 43
80.0
 50
270.0
  0
TEXT
  5
840B
330
84A2
100
AcDbEntity
  8
3
 62
     0
100
AcDbText
 10
4054.57
 20
7366.91
 30
0.0
 40
120.0
  1
2120
100
AcDbText
  0
POINT
  5
83A7
330
84A2
100
AcDbEntity
  8
DEFPOINTS
 62
     0
100
AcDbPoint
 10
3945.557756892302
 20
8639.308553199738
 30
0.0
  0
POINT
  5
83A8
330
84A2
100
AcDbEntity
  8
DEFPOINTS
 62
     0
100
AcDbPoint
 10
3945.557756892302
 20
6519.308553199739
 30
0.0
  0
POINT
  5
83A9
330
84A2
100
AcDbEntity
  8
DEFPOINTS
 62
     0
100
AcDbPoint
 10
4394.573898128134
 20
6519.308553199739
 30
0.0
  0
ENDBLK
  5
803B
330
84A2
100
AcDbEntity
  8
0
100
AcDbBlockEnd
  0
BLOCK
  5
84A5
330
84A4
100
AcDbEntity
  8
0
100
AcDbBlockBegin
  2
*D9
 70
     1
 10
0.0
 20
0.0
 30
0.0
  3
*D9
  1

  0
LINE
  5
83AA
330
84A4
100
AcDbEntity
  8
3
 62
     0
100
AcDbLine
 10
3945.557756892302
 20
8659.308553199737
 30
0.0
 11
3945.557756892302
 21
8883.944691704925
 31
0.0
  0
LINE
  5
83AB
330
84A4
100
AcDbEntity
  8
3
 62
     0
100
AcDbLine
 10
2445.557756892303
 20
8659.308553199741
 30
0.0
 11
2445.557756892303
 21
8883.944691704925
 31
0.0
  0
LINE
  5
83AC
330
84A4
100
AcDbEntity
  8
3
 62
     0
100
AcDbLine
 10
3865.557756892302
 20
8843.944691704926
 30
0.0
 11
2525.557756892303
 21
8843.944691704926
 31
0.0
  0
INSERT
  5
83AD
330
84A4
100
AcDbEntity
  8
3
 62
     0
100
AcDbBlockReference
  2
_OPEN
 10
3945.557756892302
 20
8843.944691704926
 30
0.0
 41
80.0
 42
80.0
 43
80.0
  0
INSERT
  5
83AE
330
84A4
100
AcDbEntity
  8
3
 62
     0
100
AcDbBlockReference
  2
_OPEN
 10
2445.557756892303
 20
8843.944691704926
 30
0.0
 41
80.0
 42
80.0
 43
80.0
 50
180.0
  0
TEXT
  5
840C
330
84A4
100
AcDbEntity
  8
3
 62
     0
100
AcDbText
 10
2955.56
 20
8731.54
 30
0.0
 40
120.0
  1
1500
100
AcDbText
  0
POINT
  5
83B0
330
84A4
100
AcDbEntity
  8
DEFPOINTS
 62
     0
100
AcDbPoint
 10
3945.557756892302
 20
8639.308553199738
 30
0.0
  0
POINT
  5
83B1
330
84A4
100
AcDbEntity
  8
DEFPOINTS
 62
     0
100
AcDbPoint
 10
2445.557756892303
 20
8639.30855319974
 30
0.0
  0
POINT
  5
83B2
330
84A4
100
AcDbEntity
  8
DEFPOINTS
 62
     0
100
AcDbPoint
 10
2445.557756892303
 20
8843.944691704926
 30
0.0
  0
ENDBLK
  5
8030
330
84A4
100
AcDbEntity
  8
0
100
AcDbBlockEnd
  0
BLOCK
  5
84A7
330
84A6
100
AcDbEntity
  8
0
100
AcDbBlockBegin
  2
*D10
 70
     1
 10
0.0
 20
0.0
 30
0.0
  3
*D10
  1

  0
LINE
  5
83B3
330
84A6
100
AcDbEntity
  8
3
 62
     0
100
AcDbLine
 10
2445.557756892303
 20
8659.308553199741
 30
0.0
 11
2445.557756892303
 21
8883.944691704925
 31
0.0
  0
LINE
  5
83B4
330
84A6
100
AcDbEntity
  8
3
 62
     0
100
AcDbLine
 10
1495.557756892301
 20
7539.308553199742
 30
0.0
 11
1495.557756892301
 21
8883.944691704925
 31
0.0
  0
LINE
  5
83B5
330
84A6
100
AcDbEntity
  8
3
 62
     0
100
AcDbLine
 10
2365.557756892303
 20
8843.944691704926
 30
0.0
 11
1575.557756892301
 21
8843.944691704926
 31
0.0
  0
INSERT
  5
83B6
330
84A6
100
AcDbEntity
  8
3
 62
     0
100
AcDbBlockReference
  2
_OPEN
 10
2445.557756892303
 20
8843.944691704926
 30
0.0
 41
80.0
 42
80.0
 43
80.0
  0
INSERT
  5
83B7
330
84A6
100
AcDbEntity
  8
3
 62
     0
100
AcDbBlockReference
  2
_OPEN
 10
1495.557756892301
 20
8843.944691704926
 30
0.0
 41
80.0
 42
80.0
 43
80.0
 50
180.0
  0
TEXT
  5
840D
330
84A6
100
AcDbEntity
  8
3
 62
     0
100
AcDbText
 10
1730.56
 20
8731.54
 30
0.0
 40
120.0
  1
950
100
AcDbText
  0
POINT
  5
83B9
330
84A6
100
AcDbEntity
  8
DEFPOINTS
 62
     0
100
AcDbPoint
 10
2445.557756892303
 20
8639.30855319974
 30
0.0
  0
POINT
  5
83BA
330
84A6
100
AcDbEntity
  8
DEFPOINTS
 62
     0
100
AcDbPoint
 10
1495.557756892301
 20
7519.308553199741
 30
0.0
  0
POINT
  5
83BB
330
84A6
100
AcDbEntity
  8
DEFPOINTS
 62
     0
100
AcDbPoint
 10
1495.557756892301
 20
8843.944691704926
 30
0.0
  0
ENDBLK
  5
8025
330
84A6
100
AcDbEntity
  8
0
100
AcDbBlockEnd
  0
BLOCK
  5
84A9
330
84A8
100
AcDbEntity
  8
0
100
AcDbBlockBegin
  2
*D11
 70
     1
 10
0.0
 20
0.0
 30
0.0
  3
*D11
  1

  0
LINE
  5
83BC
330
84A8
100
AcDbEntity
  8
3
 62
     0
100
AcDbLine
 10
1475.557756892301
 20
7519.308553199741
 30
0.0
 11
1189.231355784723
 21
7519.308553199741
 31
0.0
  0
LINE
  5
83BD
330
84A8
100
AcDbEntity
  8
3
 62
     0
100
AcDbLine
 10
1475.557756892301
 20
6519.308553199741
 30
0.0
 11
1189.231355784722
 21
6519.308553199741
 31
0.0
  0
LINE
  5
83BE
330
84A8
100
AcDbEntity
  8
3
 62
     0
100
AcDbLine
 10
1229.231355784723
 20
7439.308553199741
 30
0.0
 11
1229.231355784722
 21
6599.30855319974
 31
0.0
  0
INSERT
  5
83BF
330
84A8
100
AcDbEntity
  8
3
 62
     0
100
AcDbBlockReference
  2
_OPEN
 10
1229.231355784723
 20
7519.308553199741
 30
0.0
 41
80.0
 42
80.0
 43
80.0
 50
90.0
  0
INSERT
  5
83C0
330
84A8
100
AcDbEntity
  8
3
 62
     0
100
AcDbBlockReference
  2
_OPEN
 10
1229.231355784722
 20
6519.308553199741
 30
0.0
 41
80.0
 42
80.0
 43
80.0
 50
270.0
  0
TEXT
  5
840E
330
84A8
100
AcDbEntity
  8
3
 62
     0
100
AcDbText
 10
889.2310000000001
 20
6806.910000000001
 30
0.0
 40
120.0
  1
1000
100
AcDbText
  0
POINT
  5
83C2
330
84A8
100
AcDbEntity
  8
DEFPOINTS
 62
     0
100
AcDbPoint
 10
1495.557756892301
 20
7519.308553199741
 30
0.0
  0
POINT
  5
83C3
330
84A8
100
AcDbEntity
  8
DEFPOINTS
 62
     0
100
AcDbPoint
 10
1495.557756892301
 20
6519.308553199741
 30
0.0
  0
POINT
  5
83C4
330
84A8
100
AcDbEntity
  8
DEFPOINTS
 62
     0
100
AcDbPoint
 10
1229.231355784722
 20
6519.308553199741
 30
0.0
  0
ENDBLK
  5
801A
330
84A8
100
AcDbEntity
  8
0
100
AcDbBlockEnd
  0
BLOCK
  5
84AB
330
84AA
100
AcDbEntity
  8
0
100
AcDbBlockBegin
  2
*D12
 70
     1
 10
0.0
 20
0.0
 30
0.0
  3
*D12
  1

  0
LINE
  5
83C5
330
84AA
100
AcDbEntity
  8
3
 62
     0
100
AcDbLine
 10
1495.557756892301
 20
6499.308553199741
 30
0.0
 11
1495.557756892301
 21
6114.554675010086
 31
0.0
  0
LINE
  5
83C6
330
84AA
100
AcDbEntity
  8
3
 62
     0
100
AcDbLine
 10
3945.557756892302
 20
6499.308553199738
 30
0.0
 11
3945.557756892302
 21
6114.554675010086
 31
0.0
  0
LINE
  5
83C7
330
84AA
100
AcDbEntity
  8
3
 62
     0
100
AcDbLine
 10
1575.557756892301
 20
6154.554675010087
 30
0.0
 11
3865.557756892302
 21
6154.554675010087
 31
0.0
  0
INSERT
  5
83C8
330
84AA
100
AcDbEntity
  8
3
 62
     0
100
AcDbBlockReference
  2
_OPEN
 10
1495.557756892301
 20
6154.554675010087
 30
0.0
 41
80.0
 42
80.0
 43
80.0
 50
180.0
  0
INSERT
  5
83C9
330
84AA
100
AcDbEntity
  8
3
 62
     0
100
AcDbBlockReference
  2
_OPEN
 10
3945.557756892302
 20
6154.554675010087
 30
0.0
 41
80.0
 42
80.0
 43
80.0
  0
TEXT
  5
840F
330
84AA
100
AcDbEntity
  8
3
 62
     0
100
AcDbText
 10
2480.56
 20
6042.149999999999
 30
0.0
 40
120.0
  1
2450
100
AcDbText
  0
POINT
  5
83CB
330
84AA
100
AcDbEntity
  8
DEFPOINTS
 62
     0
100
AcDbPoint
 10
1495.557756892301
 20
6519.308553199741
 30
0.0
  0
POINT
  5
83CC
330
84AA
100
AcDbEntity
  8
DEFPOINTS
 62
     0
100
AcDbPoint
 10
3945.557756892302
 20
6519.308553199739
 30
0.0
  0
POINT
  5
83CD
330
84AA
100
AcDbEntity
  8
DEFPOINTS
 62
     0
100
AcDbPoint
 10
3945.557756892302
 20
6154.554675010087
 30
0.0
  0
ENDBLK
  5
800F
330
84AA
100
AcDbEntity
  8
0
100
AcDbBlockEnd
  0
BLOCK
  5
84AD
330
84AC
100
AcDbEntity
  8
0
100
AcDbBlockBegin
  2
*D13
 70
     1
 10
0.0
 20
0.0
 30
0.0
  3
*D13
  1

  0
LINE
  5
83CE
330
84AC
100
AcDbEntity
  8
3
 62
     0
100
AcDbLine
 10
1861.557756892302
 20
4772.929630863209
 30
0.0
 11
1861.557756892302
 21
5045.940663553165
 31
0.0
  0
LINE
  5
83CF
330
84AC
100
AcDbEntity
  8
3
 62
     0
100
AcDbLine
 10
3141.557756892302
 20
4772.929630863209
 30
0.0
 11
3141.557756892302
 21
5045.940663553165
 31
0.0
  0
LINE
  5
83D0
330
84AC
100
AcDbEntity
  8
3
 62
     0
100
AcDbLine
 10
1941.557756892302
 20
5005.940663553165
 30
0.0
 11
3061.557756892302
 21
5005.940663553165
 31
0.0
  0
INSERT
  5
83D1
330
84AC
100
AcDbEntity
  8
3
 62
     0
100
AcDbBlockReference
  2
_OPEN
 10
1861.557756892302
 20
5005.940663553165
 30
0.0
 41
80.0
 42
80.0
 43
80.0
 50
180.0
  0
INSERT
  5
83D2
330
84AC
100
AcDbEntity
  8
3
 62
     0
100
AcDbBlockReference
  2
_OPEN
 10
3141.557756892302
 20
5005.940663553165
 30
0.0
 41
80.0
 42
80.0
 43
80.0
  0
TEXT
  5
8410
330
84AC
100
AcDbEntity
  8
3
 62
     0
100
AcDbText
 10
2261.56
 20
4893.54
 30
0.0
 40
120.0
  1
1280
100
AcDbText
  0
POINT
  5
83D4
330
84AC
100
AcDbEntity
  8
DEFPOINTS
 62
     0
100
AcDbPoint
 10
1861.557756892302
 20
4752.929630863208
 30
0.0
  0
POINT
  5
83D5
330
84AC
100
AcDbEntity
  8
DEFPOINTS
 62
     0
100
AcDbPoint
 10
3141.557756892302
 20
4752.929630863208
 30
0.0
  0
POINT
  5
83D6
330
84AC
100
AcDbEntity
  8
DEFPOINTS
 62
     0
100
AcDbPoint
 10
3141.557756892302
 20
5005.940663553165
 30
0.0
  0
ENDBLK
  5
7FF9
330
84AC
100
AcDbEntity
  8
0
100
AcDbBlockEnd
  0
BLOCK
  5
84AF
330
84AE
100
AcDbEntity
  8
0
100
AcDbBlockBegin
  2
*D14
 70
     1
 10
0.0
 20
0.0
 30
0.0
  3
*D14
  1

  0
LINE
  5
83D7
330
84AE
100
AcDbEntity
  8
3
 62
     0
100
AcDbLine
 10
1861.557756892302
 20
4772.929630863209
 30
0.0
 11
1861.557756892302
 21
5293.003506009694
 31
0.0
  0
LINE
  5
83D8
330
84AE
100
AcDbEntity
  8
3
 62
     0
100
AcDbLine
 10
3195.557756892303
 20
4851.366169112058
 30
0.0
 11
3195.557756892303
 21
5293.003506009694
 31
0.0
  0
LINE
  5
83D9
330
84AE
100
AcDbEntity
  8
3
 62
     0
100
AcDbLine
 10
1941.557756892302
 20
5253.003506009694
 30
0.0
 11
3115.557756892302
 21
5253.003506009694
 31
0.0
  0
INSERT
  5
83DA
330
84AE
100
AcDbEntity
  8
3
 62
     0
100
AcDbBlockReference
  2
_OPEN
 10
1861.557756892302
 20
5253.003506009694
 30
0.0
 41
80.0
 42
80.0
 43
80.0
 50
180.0
  0
INSERT
  5
83DB
330
84AE
100
AcDbEntity
  8
3
 62
     0
100
AcDbBlockReference
  2
_OPEN
 10
3195.557756892303
 20
5253.003506009694
 30
0.0
 41
80.0
 42
80.0
 43
80.0
  0
TEXT
  5
8411
330
84AE
100
AcDbEntity
  8
3
 62
     0
100
AcDbText
 10
2288.56
 20
5140.6
 30
0.0
 40
120.0
  1
1334
100
AcDbText
  0
POINT
  5
83DD
330
84AE
100
AcDbEntity
  8
DEFPOINTS
 62
     0
100
AcDbPoint
 10
1861.557756892302
 20
4752.929630863208
 30
0.0
  0
POINT
  5
83DE
330
84AE
100
AcDbEntity
  8
DEFPOINTS
 62
     0
100
AcDbPoint
 10
3195.557756892303
 20
4831.36616911206
 30
0.0
  0
POINT
  5
83DF
330
84AE
100
AcDbEntity
  8
DEFPOINTS
 62
     0
100
AcDbPoint
 10
3195.557756892303
 20
5253.003506009694
 30
0.0
  0
ENDBLK
  5
7FEE
330
84AE
100
AcDbEntity
  8
0
100
AcDbBlockEnd
  0
BLOCK
  5
84B1
330
84B0
100
AcDbEntity
  8
0
100
AcDbBlockBegin
  2
*D15
 70
     1
 10
0.0
 20
0.0
 30
0.0
  3
*D15
  1

  0
LINE
  5
83E0
330
84B0
100
AcDbEntity
  8
3
 62
     0
100
AcDbLine
 10
3214.557756892301
 20
4752.929630863208
 30
0.0
 11
4399.792441257581
 21
4752.929630863208
 31
0.0
  0
LINE
  5
83E1
330
84B0
100
AcDbEntity
  8
3
 62
     0
100
AcDbLine
 10
4201.583893614581
 20
3927.929630863207
 30
0.0
 11
4399.792441257581
 21
3927.929630863207
 31
0.0
  0
LINE
  5
83E2
330
84B0
100
AcDbEntity
  8
3
 62
     0
100
AcDbLine
 10
4359.792441257581
 20
4672.929630863208
 30
0.0
 11
4359.792441257581
 21
4007.929630863207
 31
0.0
  0
INSERT
  5
83E3
330
84B0
100
AcDbEntity
  8
3
 62
     0
100
AcDbBlockReference
  2
_OPEN
 10
4359.792441257581
 20
4752.929630863208
 30
0.0
 41
80.0
 42
80.0
 43
80.0
 50
90.0
  0
INSERT
  5
83E4
330
84B0
100
AcDbEntity
  8
3
 62
     0
100
AcDbBlockReference
  2
_OPEN
 10
4359.792441257581
 20
3927.929630863207
 30
0.0
 41
80.0
 42
80.0
 43
80.0
 50
270.0
  0
TEXT
  5
8412
330
84B0
100
AcDbEntity
  8
3
 62
     0
100
AcDbText
 10
4019.789999999999
 20
4128.029999999999
 30
0.0
 40
120.0
  1
825
100
AcDbText
  0
POINT
  5
83E6
330
84B0
100
AcDbEntity
  8
DEFPOINTS
 62
     0
100
AcDbPoint
 10
3194.557756892301
 20
4752.929630863208
 30
0.0
  0
POINT
  5
83E7
330
84B0
100
AcDbEntity
  8
DEFPOINTS
 62
     0
100
AcDbPoint
 10
4181.583893614581
 20
3927.929630863207
 30
0.0
  0
POINT
  5
83E8
330
84B0
100
AcDbEntity
  8
DEFPOINTS
 62
     0
100
AcDbPoint
 10
4359.792441257581
 20
3927.929630863207
 30
0.0
  0
ENDBLK
  5
7FC2
330
84B0
100
AcDbEntity
  8
0
100
AcDbBlockEnd
  0
BLOCK
  5
84B3
330
84B2
100
AcDbEntity
  8
0
100
AcDbBlockBegin
  2
*D16
 70
     1
 10
0.0
 20
0.0
 30
0.0
  3
*D16
  1

  0
LINE
  5
83E9
330
84B2
100
AcDbEntity
  8
3
 62
     0
100
AcDbLine
 10
4201.583893614581
 20
3927.929630863207
 30
0.0
 11
4399.792441257581
 21
3927.929630863207
 31
0.0
  0
LINE
  5
83EA
330
84B2
100
AcDbEntity
  8
3
 62
     0
100
AcDbLine
 10
3965.557756892302
 20
2817.929630863207
 30
0.0
 11
4399.792441257581
 21
2817.929630863207
 31
0.0
  0
LINE
  5
83EB
330
84B2
100
AcDbEntity
  8
3
 62
     0
100
AcDbLine
 10
4359.792441257581
 20
3847.929630863207
 30
0.0
 11
4359.792441257581
 21
2897.929630863207
 31
0.0
  0
INSERT
  5
83EC
330
84B2
100
AcDbEntity
  8
3
 62
     0
100
AcDbBlockReference
  2
_OPEN
 10
4359.792441257581
 20
3927.929630863207
 30
0.0
 41
80.0
 42
80.0
 43
80.0
 50
90.0
  0
INSERT
  5
83ED
330
84B2
100
AcDbEntity
  8
3
 62
     0
100
AcDbBlockReference
  2
_OPEN
 10
4359.792441257581
 20
2817.929630863207
 30
0.0
 41
80.0
 42
80.0
 43
80.0
 50
270.0
  0
TEXT
  5
8413
330
84B2
100
AcDbEntity
  8
3
 62
     0
100
AcDbText
 10
4019.789999999999
 20
3160.53
 30
0.0
 40
120.0
  1
1110
100
AcDbText
  0
POINT
  5
83EF
330
84B2
100
AcDbEntity
  8
DEFPOINTS
 62
     0
100
AcDbPoint
 10
4181.583893614581
 20
3927.929630863207
 30
0.0
  0
POINT
  5
83F0
330
84B2
100
AcDbEntity
  8
DEFPOINTS
 62
     0
100
AcDbPoint
 10
3945.557756892302
 20
2817.929630863207
 30
0.0
  0
POINT
  5
83F1
330
84B2
100
AcDbEntity
  8
DEFPOINTS
 62
     0
100
AcDbPoint
 10
4359.792441257581
 20
2817.929630863207
 30
0.0
  0
ENDBLK
  5
7FB7
330
84B2
100
AcDbEntity
  8
0
100
AcDbBlockEnd
  0
BLOCK
  5
84B6
330
84B5
100
AcDbEntity
  8
0
100
AcDbBlockBegin
  2
*D17
 70
     1
 10
0.0
 20
0.0
 30
0.0
  3
*D17
  1

  0
LINE
  5
83F2
330
84B5
100
AcDbEntity
  8
3
 62
     0
100
AcDbLine
 10
4092.557756892301
 20
3856.929630863207
 30
0.0
 11
4092.557756892301
 21
5293.003506009694
 31
0.0
  0
LINE
  5
83F3
330
84B5
100
AcDbEntity
  8
3
 62
     0
100
AcDbLine
 10
3275.557756892301
 20
5253.003506009694
 30
0.0
 11
4012.5577568923
 21
5253.003506009694
 31
0.0
  0
INSERT
  5
83F4
330
84B5
100
AcDbEntity
  8
3
 62
     0
100
AcDbBlockReference
  2
_OPEN
 10
3195.557756892303
 20
5253.003506009694
 30
0.0
 41
80.0
 42
80.0
 43
80.0
 50
180.0
  0
INSERT
  5
83F5
330
84B5
100
AcDbEntity
  8
3
 62
     0
100
AcDbBlockReference
  2
_OPEN
 10
4092.557756892301
 20
5253.003506009694
 30
0.0
 41
80.0
 42
80.0
 43
80.0
  0
TEXT
  5
8414
330
84B5
100
AcDbEntity
  8
3
 62
     0
100
AcDbText
 10
3404.06
 20
5140.6
 30
0.0
 40
120.0
  1
897
100
AcDbText
  0
POINT
  5
83F7
330
84B5
100
AcDbEntity
  8
DEFPOINTS
 62
     0
100
AcDbPoint
 10
3195.557756892303
 20
4831.36616911206
 30
0.0
  0
POINT
  5
83F8
330
84B5
100
AcDbEntity
  8
DEFPOINTS
 62
     0
100
AcDbPoint
 10
4092.557756892301
 20
3836.929630863208
 30
0.0
  0
POINT
  5
83F9
330
84B5
100
AcDbEntity
  8
DEFPOINTS
 62
     0
100
AcDbPoint
 10
4092.557756892301
 20
5253.003506009694
 30
0.0
  0
ENDBLK
  5
80D1
330
84B5
100
AcDbEntity
  8
0
100
AcDbBlockEnd
  0
BLOCK
  5
84B8
330
84B7
100
AcDbEntity
  8
0
100
AcDbBlockBegin
  2
*D18
 70
     1
 10
0.0
 20
0.0
 30
0.0
  3
*D18
  1

  0
LINE
  5
83FA
330
84B7
100
AcDbEntity
  8
3
 62
     0
100
AcDbLine
 10
4092.557756892301
 20
3856.929630863207
 30
0.0
 11
4092.557756892301
 21
5560.793946915612
 31
0.0
  0
LINE
  5
83FB
330
84B7
100
AcDbEntity
  8
3
 62
     0
100
AcDbLine
 10
1495.557756892301
 20
2962.929630863207
 30
0.0
 11
1495.557756892302
 21
5560.793946915612
 31
0.0
  0
LINE
  5
83FC
330
84B7
100
AcDbEntity
  8
3
 62
     0
100
AcDbLine
 10
4012.5577568923
 20
5520.79394691561
 30
0.0
 11
1575.557756892302
 21
5520.79394691561
 31
0.0
  0
INSERT
  5
83FD
330
84B7
100
AcDbEntity
  8
3
 62
     0
100
AcDbBlockReference
  2
_OPEN
 10
4092.557756892301
 20
5520.79394691561
 30
0.0
 41
80.0
 42
80.0
 43
80.0
  0
INSERT
  5
83FE
330
84B7
100
AcDbEntity
  8
3
 62
     0
100
AcDbBlockReference
  2
_OPEN
 10
1495.557756892302
 20
5520.79394691561
 30
0.0
 41
80.0
 42
80.0
 43
80.0
 50
180.0
  0
TEXT
  5
8415
330
84B7
100
AcDbEntity
  8
3
 62
     0
100
AcDbText
 10
2704.19
 20
5408.39
 30
0.0
 40
120.0
  1
2597
100
AcDbText
  0
POINT
  5
8400
330
84B7
100
AcDbEntity
  8
DEFPOINTS
 62
     0
100
AcDbPoint
 10
4092.557756892301
 20
3836.929630863208
 30
0.0
  0
POINT
  5
8401
330
84B7
100
AcDbEntity
  8
DEFPOINTS
 62
     0
100
AcDbPoint
 10
1495.557756892301
 20
2942.929630863207
 30
0.0
  0
POINT
  5
8402
330
84B7
100
AcDbEntity
  8
DEFPOINTS
 62
     0
100
AcDbPoint
 10
1495.557756892302
 20
5520.79394691561
 30
0.0
  0
ENDBLK
  5
80DD
330
84B7
100
AcDbEntity
  8
0
100
AcDbBlockEnd
  0
BLOCK
  5
84BA
330
84B9
100
AcDbEntity
  8
0
100
AcDbBlockBegin
  2
_DOT
 70
     0
 10
0.0
 20
0.0
 30
0.0
  3
_DOT
  1

  0
LINE
  5
8128
330
84B9
100
AcDbEntity
  8
0
  6
ByBlock
 62
     0
100
AcDbLine
 10
0.0
 20
0.0
 30
0.0
 11
-1.0
 21
-0.0000000000000284
 31
0.0
  0
LWPOLYLINE
  5
8129
330
84B9
100
AcDbEntity
  8
0
  6
ByBlock
 62
     0
100
AcDbPolyline
 90
        2
 70
     1
 43
0.1666666666666666
 10
-0.0833333333333286
 20
-0.0000000000000284
 42
1.0
 10
0.0833333333333286
 20
-0.0000000000000284
 42
1.0
  0
ENDBLK
  5
810D
330
84B9
100
AcDbEntity
  8
0
100
AcDbBlockEnd
  0
BLOCK
  5
84BC
330
84BB
100
AcDbEntity
  8
0
100
AcDbBlockBegin
  2
_NONE
 70
     0
 10
0.0
 20
0.0
 30
0.0
  3
_NONE
  1

  0
CIRCLE
  5
81E0
330
84BB
100
AcDbEntity
  8
0
  6
ByBlock
 62
     0
100
AcDbCircle
 10
0.0
 20
0.0
 30
0.0
 40
0.25
  0
ENDBLK
  5
81E1
330
84BB
100
AcDbEntity
  8
0
100
AcDbBlockEnd
  0
BLOCK
  5
84BE
330
84BD
100
AcDbEntity
  8
0
100
AcDbBlockBegin
  2
*D21
 70
     1
 10
0.0
 20
0.0
 30
0.0
  3
*D21
  1

  0
LINE
  5
8268
330
84BD
100
AcDbEntity
  8
0
  6
ByBlock
 62
     0
100
AcDbLine
 10
1495.557756892301
 20
2797.929630863207
 30
0.0
 11
1495.557756892301
 21
2526.116256654357
 31
0.0
  0
LINE
  5
8269
330
84BD
100
AcDbEntity
  8
0
  6
ByBlock
 62
     0
100
AcDbLine
 10
3195.557756892303
 20
2797.929630863207
 30
0.0
 11
3195.557756892303
 21
2526.116256654357
 31
0.0
  0
LINE
  5
826A
330
84BD
100
AcDbEntity
  8
0
  6
ByBlock
 62
     0
100
AcDbLine
 10
1575.557756892301
 20
2566.116256654357
 30
0.0
 11
3115.557756892302
 21
2566.116256654357
 31
0.0
  0
INSERT
  5
826B
330
84BD
100
AcDbEntity
  8
0
  6
ByBlock
 62
     0
100
AcDbBlockReference
  2
_OPEN
 10
1495.557756892301
 20
2566.116256654357
 30
0.0
 41
80.0
 42
80.0
 43
80.0
 50
180.0
  0
INSERT
  5
826C
330
84BD
100
AcDbEntity
  8
0
  6
ByBlock
 62
     0
100
AcDbBlockReference
  2
_OPEN
 10
3195.557756892303
 20
2566.116256654357
 30
0.0
 41
80.0
 42
80.0
 43
80.0
  0
TEXT
  5
826D
330
84BD
100
AcDbEntity
  8
3
 62
     0
100
AcDbText
 10
2145.557756892301
 20
2606.116256654357
 30
0.0
 40
120.0
  1
1700
100
AcDbText
  0
POINT
  5
826E
330
84BD
100
AcDbEntity
  8
DEFPOINTS
  6
ByBlock
 62
     0
100
AcDbPoint
 10
1495.557756892301
 20
2817.929630863207
 30
0.0
  0
POINT
  5
826F
330
84BD
100
AcDbEntity
  8
DEFPOINTS
  6
ByBlock
 62
     0
100
AcDbPoint
 10
3195.557756892303
 20
2817.929630863207
 30
0.0
  0
POINT
  5
8270
330
84BD
100
AcDbEntity
  8
DEFPOINTS
  6
ByBlock
 62
     0
100
AcDbPoint
 10
3195.557756892303
 20
2566.116256654357
 30
0.0
  0
ENDBLK
  5
8271
330
84BD
100
AcDbEntity
  8
0
100
AcDbBlockEnd
  0
BLOCK
  5
84C0
330
84BF
100
AcDbEntity
  8
0
100
AcDbBlockBegin
  2
*D22
 70
     1
 10
0.0
 20
0.0
 30
0.0
  3
*D22
  1

  0
LINE
  5
8275
330
84BF
100
AcDbEntity
  8
0
  6
ByBlock
 62
     0
100
AcDbLine
 10
3195.557756892303
 20
2797.929630863207
 30
0.0
 11
3195.557756892303
 21
2526.116256654357
 31
0.0
  0
LINE
  5
8276
330
84BF
100
AcDbEntity
  8
0
  6
ByBlock
 62
     0
100
AcDbLine
 10
3945.557756892302
 20
2797.929630863207
 30
0.0
 11
3945.557756892302
 21
2526.116256654357
 31
0.0
  0
LINE
  5
8277
330
84BF
100
AcDbEntity
  8
0
  6
ByBlock
 62
     0
100
AcDbLine
 10
3275.557756892301
 20
2566.116256654357
 30
0.0
 11
3865.557756892302
 21
2566.116256654357
 31
0.0
  0
INSERT
  5
8278
330
84BF
100
AcDbEntity
  8
0
  6
ByBlock
 62
     0
100
AcDbBlockReference
  2
_OPEN
 10
3195.557756892303
 20
2566.116256654357
 30
0.0
 41
80.0
 42
80.0
 43
80.0
 50
180.0
  0
INSERT
  5
8279
330
84BF
100
AcDbEntity
  8
0
  6
ByBlock
 62
     0
100
AcDbBlockReference
  2
_OPEN
 10
3945.557756892302
 20
2566.116256654357
 30
0.0
 41
80.0
 42
80.0
 43
80.0
  0
TEXT
  5
827A
330
84BF
100
AcDbEntity
  8
3
 62
     0
100
AcDbText
 10
3416.272042606588
 20
2606.116256654357
 30
0.0
 40
120.0
  1
750
100
AcDbText
  0
POINT
  5
827B
330
84BF
100
AcDbEntity
  8
DEFPOINTS
  6
ByBlock
 62
     0
100
AcDbPoint
 10
3195.557756892303
 20
2817.929630863207
 30
0.0
  0
POINT
  5
827C
330
84BF
100
AcDbEntity
  8
DEFPOINTS
  6
ByBlock
 62
     0
100
AcDbPoint
 10
3945.557756892302
 20
2817.929630863207
 30
0.0
  0
POINT
  5
827D
330
84BF
100
AcDbEntity
  8
DEFPOINTS
  6
ByBlock
 62
     0
100
AcDbPoint
 10
3945.557756892302
 20
2566.116256654357
 30
0.0
  0
ENDBLK
  5
827E
330
84BF
100
AcDbEntity
  8
0
100
AcDbBlockEnd
  0
BLOCK
  5
84C2
330
84C1
100
AcDbEntity
  8
0
100
AcDbBlockBegin
  2
*D23
 70
     1
 10
0.0
 20
0.0
 30
0.0
  3
*D23
  1

  0
LINE
  5
8282
330
84C1
100
AcDbEntity
  8
0
  6
ByBlock
 62
     0
100
AcDbLine
 10
5193.659262902689
 20
2797.929630863207
 30
0.0
 11
5193.659262902689
 21
2526.116256654357
 31
0.0
  0
LINE
  5
8283
330
84C1
100
AcDbEntity
  8
0
  6
ByBlock
 62
     0
100
AcDbLine
 10
6395.659262902686
 20
2797.929630863207
 30
0.0
 11
6395.659262902686
 21
2526.116256654357
 31
0.0
  0
LINE
  5
8284
330
84C1
100
AcDbEntity
  8
0
  6
ByBlock
 62
     0
100
AcDbLine
 10
5273.65926290269
 20
2566.116256654357
 30
0.0
 11
6315.659262902687
 21
2566.116256654357
 31
0.0
  0
INSERT
  5
8285
330
84C1
100
AcDbEntity
  8
0
  6
ByBlock
 62
     0
100
AcDbBlockReference
  2
_OPEN
 10
5193.659262902689
 20
2566.116256654357
 30
0.0
 41
80.0
 42
80.0
 43
80.0
 50
180.0
  0
INSERT
  5
8286
330
84C1
100
AcDbEntity
  8
0
  6
ByBlock
 62
     0
100
AcDbBlockReference
  2
_OPEN
 10
6395.659262902686
 20
2566.116256654357
 30
0.0
 41
80.0
 42
80.0
 43
80.0
  0
TEXT
  5
8287
330
84C1
100
AcDbEntity
  8
3
 62
     0
100
AcDbText
 10
5594.659262902688
 20
2606.116256654357
 30
0.0
 40
120.0
  1
1202
100
AcDbText
  0
POINT
  5
8288
330
84C1
100
AcDbEntity
  8
DEFPOINTS
  6
ByBlock
 62
     0
100
AcDbPoint
 10
5193.659262902689
 20
2817.929630863207
 30
0.0
  0
POINT
  5
8289
330
84C1
100
AcDbEntity
  8
DEFPOINTS
  6
ByBlock
 62
     0
100
AcDbPoint
 10
6395.659262902686
 20
2817.929630863207
 30
0.0
  0
POINT
  5
828A
330
84C1
100
AcDbEntity
  8
DEFPOINTS
  6
ByBlock
 62
     0
100
AcDbPoint
 10
6395.659262902686
 20
2566.116256654357
 30
0.0
  0
ENDBLK
  5
828B
330
84C1
100
AcDbEntity
  8
0
100
AcDbBlockEnd
  0
BLOCK
  5
84C4
330
84C3
100
AcDbEntity
  8
0
100
AcDbBlockBegin
  2
*D24
 70
     1
 10
0.0
 20
0.0
 30
0.0
  3
*D24
  1

  0
LINE
  5
828F
330
84C3
100
AcDbEntity
  8
0
  6
ByBlock
 62
     0
100
AcDbLine
 10
6395.659262902686
 20
2797.929630863207
 30
0.0
 11
6395.659262902686
 21
2526.116256654357
 31
0.0
  0
LINE
  5
8290
330
84C3
100
AcDbEntity
  8
0
  6
ByBlock
 62
     0
100
AcDbLine
 10
7313.659262902688
 20
2797.929630863207
 30
0.0
 11
7313.659262902688
 21
2526.116256654357
 31
0.0
  0
LINE
  5
8291
330
84C3
100
AcDbEntity
  8
0
  6
ByBlock
 62
     0
100
AcDbLine
 10
6475.659262902687
 20
2566.116256654357
 30
0.0
 11
7233.659262902688
 21
2566.116256654357
 31
0.0
  0
INSERT
  5
8292
330
84C3
100
AcDbEntity
  8
0
  6
ByBlock
 62
     0
100
AcDbBlockReference
  2
_OPEN
 10
6395.659262902686
 20
2566.116256654357
 30
0.0
 41
80.0
 42
80.0
 43
80.0
 50
180.0
  0
INSERT
  5
8293
330
84C3
100
AcDbEntity
  8
0
  6
ByBlock
 62
     0
100
AcDbBlockReference
  2
_OPEN
 10
7313.659262902688
 20
2566.116256654357
 30
0.0
 41
80.0
 42
80.0
 43
80.0
  0
TEXT
  5
8294
330
84C3
100
AcDbEntity
  8
3
 62
     0
100
AcDbText
 10
6711.802120045544
 20
2606.116256654357
 30
0.0
 40
120.0
  1
918
100
AcDbText
  0
POINT
  5
8295
330
84C3
100
AcDbEntity
  8
DEFPOINTS
  6
ByBlock
 62
     0
100
AcDbPoint
 10
6395.659262902686
 20
2817.929630863207
 30
0.0
  0
POINT
  5
8296
330
84C3
100
AcDbEntity
  8
DEFPOINTS
  6
ByBlock
 62
     0
100
AcDbPoint
 10
7313.659262902688
 20
2817.929630863207
 30
0.0
  0
POINT
  5
8297
330
84C3
100
AcDbEntity
  8
DEFPOINTS
  6
ByBlock
 62
     0
100
AcDbPoint
 10
7313.659262902688
 20
2566.116256654357
 30
0.0
  0
ENDBLK
  5
8298
330
84C3
100
AcDbEntity
  8
0
100
AcDbBlockEnd
  0
BLOCK
  5
84C6
330
84C5
100
AcDbEntity
  8
0
100
AcDbBlockBegin
  2
*D25
 70
     1
 10
0.0
 20
0.0
 30
0.0
  3
*D25
  1

  0
LINE
  5
829C
330
84C5
100
AcDbEntity
  8
0
  6
ByBlock
 62
     0
100
AcDbLine
 10
3965.557756892302
 20
2817.929630863207
 30
0.0
 11
4677.262805533115
 21
2817.929630863207
 31
0.0
  0
LINE
  5
829D
330
84C5
100
AcDbEntity
  8
0
  6
ByBlock
 62
     0
100
AcDbLine
 10
3234.557756892302
 20
4752.929630863208
 30
0.0
 11
4677.262805533115
 21
4752.929630863208
 31
0.0
  0
LINE
  5
829E
330
84C5
100
AcDbEntity
  8
0
  6
ByBlock
 62
     0
100
AcDbLine
 10
4637.262805533115
 20
2897.929630863207
 30
0.0
 11
4637.262805533115
 21
4672.929630863208
 31
0.0
  0
INSERT
  5
829F
330
84C5
100
AcDbEntity
  8
0
  6
ByBlock
 62
     0
100
AcDbBlockReference
  2
_OPEN
 10
4637.262805533115
 20
2817.929630863207
 30
0.0
 41
80.0
 42
80.0
 43
80.0
 50
270.0
  0
INSERT
  5
82A0
330
84C5
100
AcDbEntity
  8
0
  6
ByBlock
 62
     0
100
AcDbBlockReference
  2
_OPEN
 10
4637.262805533115
 20
4752.929630863208
 30
0.0
 41
80.0
 42
80.0
 43
80.0
 50
90.0
  0
TEXT
  5
82A1
330
84C5
100
AcDbEntity
  8
3
 62
     0
100
AcDbText
 10
4597.262805533115
 20
3585.429630863207
 30
0.0
 40
120.0
  1
1935
 50
90.0
100
AcDbText
  0
POINT
  5
82A2
330
84C5
100
AcDbEntity
  8
DEFPOINTS
  6
ByBlock
 62
     0
100
AcDbPoint
 10
3945.557756892302
 20
2817.929630863207
 30
0.0
  0
POINT
  5
82A3
330
84C5
100
AcDbEntity
  8
DEFPOINTS
  6
ByBlock
 62
     0
100
AcDbPoint
 10
3214.557756892301
 20
4752.929630863208
 30
0.0
  0
POINT
  5
82A4
330
84C5
100
AcDbEntity
  8
DEFPOINTS
  6
ByBlock
 62
     0
100
AcDbPoint
 10
4637.262805533115
 20
4752.929630863208
 30
0.0
  0
ENDBLK
  5
82A5
330
84C5
100
AcDbEntity
  8
0
100
AcDbBlockEnd
  0
BLOCK
  5
8520
330
851F
100
AcDbEntity
  8
0
100
AcDbBlockBegin
  2
*D26
 70
     1
 10
0.0
 20
0.0
 30
0.0
  3
*D26
  1

  0
LINE
  5
8522
330
851F
100
AcDbEntity
  8
3
 62
     0
370
    -2
100
AcDbLine
 10
5545.659262902689
 20
4772.929630863209
 30
0.0
 11
5545.659262902689
 21
5025.952180251301
 31
0.0
  0
LINE
  5
8523
330
851F
100
AcDbEntity
  8
3
 62
     0
370
    -2
100
AcDbLine
 10
7245.659262902688
 20
4772.929630863209
 30
0.0
 11
7245.659262902688
 21
5025.952180251301
 31
0.0
  0
LINE
  5
8524
330
851F
100
AcDbEntity
  8
3
 62
     0
370
    -2
100
AcDbLine
 10
5625.659262902689
 20
4985.952180251301
 30
0.0
 11
7165.659262902689
 21
4985.952180251301
 31
0.0
  0
INSERT
  5
8525
330
851F
100
AcDbEntity
  8
3
 62
     0
370
    -2
100
AcDbBlockReference
  2
_OPEN
 10
5545.659262902689
 20
4985.952180251301
 30
0.0
 41
80.0
 42
80.0
 43
80.0
 50
180.0
  0
INSERT
  5
8526
330
851F
100
AcDbEntity
  8
3
 62
     0
370
    -2
100
AcDbBlockReference
  2
_OPEN
 10
7245.659262902688
 20
4985.952180251301
 30
0.0
 41
80.0
 42
80.0
 43
80.0
  0
MTEXT
  5
8527
330
851F
100
AcDbEntity
  8
3
 62
     0
100
AcDbMText
 10
6395.65926290269
 20
5085.9521802513
 30
0.0
 40
120.0
 41
0.0
 71
     5
 72
     1
  1
\A1;1700
 73
     1
 44
1.0
1001
ACAD
1000
MTEXTBEGIN
1070
    73
1070
     1
1070
    44
1040
1.0
1070
    74
1070
     0
1000
MTEXTEND
  0
POINT
  5
8528
330
851F
100
AcDbEntity
  8
DEFPOINTS
 62
     0
100
AcDbPoint
 10
5545.659262902689
 20
4752.929630863208
 30
0.0
  0
POINT
  5
8529
330
851F
100
AcDbEntity
  8
DEFPOINTS
 62
     0
100
AcDbPoint
 10
7245.659262902688
 20
4752.929630863208
 30
0.0
  0
POINT
  5
852A
330
851F
100
AcDbEntity
  8
DEFPOINTS
 62
     0
100
AcDbPoint
 10
7245.659262902688
 20
4985.952180251301
 30
0.0
  0
ENDBLK
  5
8521
330
851F
100
AcDbEntity
  8
0
100
AcDbBlockEnd
  0
BLOCK
  5
852D
330
852C
100
AcDbEntity
  8
0
100
AcDbBlockBegin
  2
*D27
 70
     1
 10
0.0
 20
0.0
 30
0.0
  3
*D27
  1

  0
LINE
  5
8598
330
852C
100
AcDbEntity
  8
3
 62
     0
370
    -2
100
AcDbLine
 10
5115.65926290269
 20
4327.929630863208
 30
0.0
 11
5115.65926290269
 21
5278.915485110204
 31
0.0
  0
LINE
  5
8599
330
852C
100
AcDbEntity
  8
3
 62
     0
370
    -2
100
AcDbLine
 10
6395.65926290269
 20
5165.952180251301
 30
0.0
 11
6395.65926290269
 21
5278.915485110204
 31
0.0
  0
LINE
  5
859A
330
852C
100
AcDbEntity
  8
3
 62
     0
370
    -2
100
AcDbLine
 10
5195.65926290269
 20
5238.915485110203
 30
0.0
 11
6315.65926290269
 21
5238.915485110203
 31
0.0
  0
INSERT
  5
859B
330
852C
100
AcDbEntity
  8
3
 62
     0
370
    -2
100
AcDbBlockReference
  2
_OPEN
 10
5115.65926290269
 20
5238.915485110203
 30
0.0
 41
80.0
 42
80.0
 43
80.0
 50
180.0
  0
INSERT
  5
859C
330
852C
100
AcDbEntity
  8
3
 62
     0
370
    -2
100
AcDbBlockReference
  2
_OPEN
 10
6395.65926290269
 20
5238.915485110203
 30
0.0
 41
80.0
 42
80.0
 43
80.0
  0
MTEXT
  5
859D
330
852C
100
AcDbEntity
  8
3
 62
     0
100
AcDbMText
 10
5755.65926290269
 20
5370.344056538774
 30
0.0
 40
120.0
 41
0.0
 71
     5
 72
     1
  1
\A1;(1280)
 73
     1
 44
1.0
1001
ACAD
1000
MTEXTBEGIN
1070
    73
1070
     1
1070
    44
1040
1.0
1070
    74
1070
     0
1000
MTEXTEND
  0
POINT
  5
859E
330
852C
100
AcDbEntity
  8
DEFPOINTS
 62
     0
100
AcDbPoint
 10
5115.65926290269
 20
4307.929630863208
 30
0.0
  0
POINT
  5
859F
330
852C
100
AcDbEntity
  8
DEFPOINTS
 62
     0
100
AcDbPoint
 10
6395.65926290269
 20
5145.952180251301
 30
0.0
  0
POINT
  5
85A0
330
852C
100
AcDbEntity
  8
DEFPOINTS
 62
     0
100
AcDbPoint
 10
6395.65926290269
 20
5238.915485110203
 30
0.0
  0
ENDBLK
  5
852E
330
852C
100
AcDbEntity
  8
0
100
AcDbBlockEnd
  0
BLOCK
  5
853A
330
8539
100
AcDbEntity
  8
0
100
AcDbBlockBegin
  2
*D28
 70
     1
 10
0.0
 20
0.0
 30
0.0
  3
*D28
  1

  0
LINE
  5
85AA
330
8539
100
AcDbEntity
  8
3
 62
     0
370
    -2
100
AcDbLine
 10
6395.65926290269
 20
5165.952180251301
 30
0.0
 11
6395.65926290269
 21
5278.915485110204
 31
0.0
  0
LINE
  5
85AB
330
8539
100
AcDbEntity
  8
3
 62
     0
370
    -2
100
AcDbLine
 10
7415.65926290269
 20
3871.929630863207
 30
0.0
 11
7415.65926290269
 21
5278.915485110204
 31
0.0
  0
LINE
  5
85AC
330
8539
100
AcDbEntity
  8
3
 62
     0
370
    -2
100
AcDbLine
 10
6475.65926290269
 20
5238.915485110203
 30
0.0
 11
7335.659262902691
 21
5238.915485110203
 31
0.0
  0
INSERT
  5
85AD
330
8539
100
AcDbEntity
  8
3
 62
     0
370
    -2
100
AcDbBlockReference
  2
_OPEN
 10
6395.65926290269
 20
5238.915485110203
 30
0.0
 41
80.0
 42
80.0
 43
80.0
 50
180.0
  0
INSERT
  5
85AE
330
8539
100
AcDbEntity
  8
3
 62
     0
370
    -2
100
AcDbBlockReference
  2
_OPEN
 10
7415.65926290269
 20
5238.915485110203
 30
0.0
 41
80.0
 42
80.0
 43
80.0
  0
MTEXT
  5
85AF
330
8539
100
AcDbEntity
  8
3
 62
     0
100
AcDbMText
 10
6905.659262902689
 20
5370.344056538774
 30
0.0
 40
120.0
 41
0.0
 71
     5
 72
     1
  1
\A1;(1020)
 73
     1
 44
1.0
1001
ACAD
1000
MTEXTBEGIN
1070
    73
1070
     1
1070
    44
1040
1.0
1070
    74
1070
     0
1000
MTEXTEND
  0
POINT
  5
85B0
330
8539
100
AcDbEntity
  8
DEFPOINTS
 62
     0
100
AcDbPoint
 10
6395.65926290269
 20
5145.952180251301
 30
0.0
  0
POINT
  5
85B1
330
8539
100
AcDbEntity
  8
DEFPOINTS
 62
     0
100
AcDbPoint
 10
7415.65926290269
 20
3851.929630863207
 30
0.0
  0
POINT
  5
85B2
330
8539
100
AcDbEntity
  8
DEFPOINTS
 62
     0
100
AcDbPoint
 10
7415.65926290269
 20
5238.915485110203
 30
0.0
  0
ENDBLK
  5
853B
330
8539
100
AcDbEntity
  8
0
100
AcDbBlockEnd
  0
BLOCK
  5
854B
330
854A
100
AcDbEntity
  8
0
100
AcDbBlockBegin
  2
*D29
 70
     1
 10
0.0
 20
0.0
 30
0.0
  3
*D29
  1

  0
LINE
  5
8562
330
854A
100
AcDbEntity
  8
3
 62
     0
370
    -2
100
AcDbLine
 10
7265.659262902689
 20
4552.929630863207
 30
0.0
 11
7696.928887815194
 21
4552.929630863207
 31
0.0
  0
LINE
  5
8563
330
854A
100
AcDbEntity
  8
3
 62
     0
370
    -2
100
AcDbLine
 10
7265.659262902689
 20
3302.929630863207
 30
0.0
 11
7696.928887815194
 21
3302.929630863207
 31
0.0
  0
LINE
  5
8564
330
854A
100
AcDbEntity
  8
3
 62
     0
370
    -2
100
AcDbLine
 10
7656.928887815194
 20
4472.929630863207
 30
0.0
 11
7656.928887815194
 21
3382.929630863207
 31
0.0
  0
INSERT
  5
8565
330
854A
100
AcDbEntity
  8
3
 62
     0
370
    -2
100
AcDbBlockReference
  2
_OPEN
 10
7656.928887815194
 20
4552.929630863207
 30
0.0
 41
80.0
 42
80.0
 43
80.0
 50
90.0
  0
INSERT
  5
8566
330
854A
100
AcDbEntity
  8
3
 62
     0
370
    -2
100
AcDbBlockReference
  2
_OPEN
 10
7656.928887815194
 20
3302.929630863207
 30
0.0
 41
80.0
 42
80.0
 43
80.0
 50
270.0
  0
MTEXT
  5
8567
330
854A
100
AcDbEntity
  8
3
 62
     0
100
AcDbMText
 10
7556.928887815193
 20
3927.929630863209
 30
0.0
 40
120.0
 41
0.0
 71
     5
 72
     1
  1
\A1;\U+03C61250
 11
0.0000000000000001
 21
1.0
 31
0.0
 73
     1
 44
1.0
1001
ACAD
1000
MTEXTBEGIN
1070
    73
1070
     1
1070
    44
1040
1.0
1070
    74
1070
     0
1000
MTEXTEND
  0
POINT
  5
8568
330
854A
100
AcDbEntity
  8
DEFPOINTS
 62
     0
100
AcDbPoint
 10
7245.659262902688
 20
4552.929630863207
 30
0.0
  0
POINT
  5
8569
330
854A
100
AcDbEntity
  8
DEFPOINTS
 62
     0
100
AcDbPoint
 10
7245.659262902688
 20
3302.929630863207
 30
0.0
  0
POINT
  5
856A
330
854A
100
AcDbEntity
  8
DEFPOINTS
 62
     0
100
AcDbPoint
 10
7656.928887815194
 20
3302.929630863207
 30
0.0
  0
ENDBLK
  5
854C
330
854A
100
AcDbEntity
  8
0
100
AcDbBlockEnd
  0
BLOCK
  5
85B5
330
85B4
100
AcDbEntity
  8
0
100
AcDbBlockBegin
  2
*D30
 70
     1
 10
0.0
 20
0.0
 30
0.0
  3
*D30
  1

  0
LINE
  5
85C0
330
85B4
100
AcDbEntity
  8
3
 62
     0
370
    -2
100
AcDbLine
 10
4191.384877614022
 20
7721.308553199742
 30
0.0
 11
5476.61398352508
 21
7721.308553199742
 31
0.0
  0
LINE
  5
85C1
330
85B4
100
AcDbEntity
  8
3
 62
     0
370
    -2
100
AcDbLine
 10
3595.557756892301
 20
6441.308553199741
 30
0.0
 11
5476.61398352508
 21
6441.308553199741
 31
0.0
  0
LINE
  5
85C2
330
85B4
100
AcDbEntity
  8
3
 62
     0
370
    -2
100
AcDbLine
 10
5436.61398352508
 20
7641.308553199742
 30
0.0
 11
5436.61398352508
 21
6521.308553199741
 31
0.0
  0
INSERT
  5
85C3
330
85B4
100
AcDbEntity
  8
3
 62
     0
370
    -2
100
AcDbBlockReference
  2
_OPEN
 10
5436.61398352508
 20
7721.308553199742
 30
0.0
 41
80.0
 42
80.0
 43
80.0
 50
90.0
  0
INSERT
  5
85C4
330
85B4
100
AcDbEntity
  8
3
 62
     0
370
    -2
100
AcDbBlockReference
  2
_OPEN
 10
5436.61398352508
 20
6441.308553199741
 30
0.0
 41
80.0
 42
80.0
 43
80.0
 50
270.0
  0
MTEXT
  5
85C5
330
85B4
100
AcDbEntity
  8
3
 62
     0
100
AcDbMText
 10
5336.613983525078
 20
7081.308553199743
 30
0.0
 40
120.0
 41
0.0
 71
     5
 72
     1
  1
\A1;1280
 11
0.0000000000000001
 21
1.0
 31
0.0
 73
     1
 44
1.0
1001
ACAD
1000
MTEXTBEGIN
1070
    73
1070
     1
1070
    44
1040
1.0
1070
    74
1070
     0
1000
MTEXTEND
  0
POINT
  5
85C6
330
85B4
100
AcDbEntity
  8
DEFPOINTS
 62
     0
100
AcDbPoint
 10
4171.384877614022
 20
7721.308553199742
 30
0.0
  0
POINT
  5
85C7
330
85B4
100
AcDbEntity
  8
DEFPOINTS
 62
     0
100
AcDbPoint
 10
3575.557756892301
 20
6441.308553199741
 30
0.0
  0
POINT
  5
85C8
330
85B4
100
AcDbEntity
  8
DEFPOINTS
 62
     0
100
AcDbPoint
 10
5436.61398352508
 20
6441.308553199741
 30
0.0
  0
ENDBLK
  5
85B6
330
85B4
100
AcDbEntity
  8
0
100
AcDbBlockEnd
  0
BLOCK
  5
85CB
330
85CA
100
AcDbEntity
  8
0
100
AcDbBlockBegin
  2
*D31
 70
     1
 10
0.0
 20
0.0
 30
0.0
  3
*D31
  1

  0
LINE
  5
85CD
330
85CA
100
AcDbEntity
  8
3
 62
     0
370
    -2
100
AcDbLine
 10
1475.557756892301
 20
7519.308553199741
 30
0.0
 11
1189.231355784722
 21
7519.308553199741
 31
0.0
  0
LINE
  5
85CE
330
85CA
100
AcDbEntity
  8
3
 62
     0
370
    -2
100
AcDbLine
 10
1475.557756892301
 20
6519.308553199739
 30
0.0
 11
1189.231355784722
 21
6519.308553199739
 31
0.0
  0
LINE
  5
85CF
330
85CA
100
AcDbEntity
  8
3
 62
     0
370
    -2
100
AcDbLine
 10
1229.231355784722
 20
7439.308553199741
 30
0.0
 11
1229.231355784722
 21
6599.308553199738
 31
0.0
  0
INSERT
  5
85D0
330
85CA
100
AcDbEntity
  8
3
 62
     0
370
    -2
100
AcDbBlockReference
  2
_OPEN
 10
1229.231355784722
 20
7519.308553199741
 30
0.0
 41
80.0
 42
80.0
 43
80.0
 50
90.0
  0
INSERT
  5
85D1
330
85CA
100
AcDbEntity
  8
3
 62
     0
370
    -2
100
AcDbBlockReference
  2
_OPEN
 10
1229.231355784722
 20
6519.308553199739
 30
0.0
 41
80.0
 42
80.0
 43
80.0
 50
270.0
  0
MTEXT
  5
85D2
330
85CA
100
AcDbEntity
  8
3
 62
     0
100
AcDbMText
 10
1129.231355784721
 20
7019.308553199741
 30
0.0
 40
120.0
 41
0.0
 71
     5
 72
     1
  1
\A1;1000
 11
0.0000000000000001
 21
1.0
 31
0.0
 73
     1
 44
1.0
1001
ACAD
1000
MTEXTBEGIN
1070
    73
1070
     1
1070
    44
1040
1.0
1070
    74
1070
     0
1000
MTEXTEND
  0
POINT
  5
85D3
330
85CA
100
AcDbEntity
  8
DEFPOINTS
 62
     0
100
AcDbPoint
 10
1495.557756892301
 20
7519.308553199741
 30
0.0
  0
POINT
  5
85D4
330
85CA
100
AcDbEntity
  8
DEFPOINTS
 62
     0
100
AcDbPoint
 10
1495.557756892301
 20
6519.308553199739
 30
0.0
  0
POINT
  5
85D5
330
85CA
100
AcDbEntity
  8
DEFPOINTS
 62
     0
100
AcDbPoint
 10
1229.231355784722
 20
6519.308553199739
 30
0.0
  0
ENDBLK
  5
85CC
330
85CA
100
AcDbEntity
  8
0
100
AcDbBlockEnd
  0
BLOCK
  5
85D8
330
85D7
100
AcDbEntity
  8
0
100
AcDbBlockBegin
  2
*D32
 70
     1
 10
0.0
 20
0.0
 30
0.0
  3
*D32
  1

  0
LINE
  5
85DA
330
85D7
100
AcDbEntity
  8
3
 62
     0
370
    -2
100
AcDbLine
 10
1495.557756892301
 20
6499.308553199738
 30
0.0
 11
1495.557756892301
 21
6114.554675010086
 31
0.0
  0
LINE
  5
85DB
330
85D7
100
AcDbEntity
  8
3
 62
     0
370
    -2
100
AcDbLine
 10
3945.557756892302
 20
6499.308553199738
 30
0.0
 11
3945.557756892302
 21
6114.554675010086
 31
0.0
  0
LINE
  5
85DC
330
85D7
100
AcDbEntity
  8
3
 62
     0
370
    -2
100
AcDbLine
 10
1575.557756892301
 20
6154.554675010087
 30
0.0
 11
3865.557756892302
 21
6154.554675010087
 31
0.0
  0
INSERT
  5
85DD
330
85D7
100
AcDbEntity
  8
3
 62
     0
370
    -2
100
AcDbBlockReference
  2
_OPEN
 10
1495.557756892301
 20
6154.554675010087
 30
0.0
 41
80.0
 42
80.0
 43
80.0
 50
180.0
  0
INSERT
  5
85DE
330
85D7
100
AcDbEntity
  8
3
 62
     0
370
    -2
100
AcDbBlockReference
  2
_OPEN
 10
3945.557756892302
 20
6154.554675010087
 30
0.0
 41
80.0
 42
80.0
 43
80.0
  0
MTEXT
  5
85DF
330
85D7
100
AcDbEntity
  8
3
 62
     0
100
AcDbMText
 10
2720.557756892302
 20
6254.554675010087
 30
0.0
 40
120.0
 41
0.0
 71
     5
 72
     1
  1
\A1;2450
 73
     1
 44
1.0
1001
ACAD
1000
MTEXTBEGIN
1070
    73
1070
     1
1070
    44
1040
1.0
1070
    74
1070
     0
1000
MTEXTEND
  0
POINT
  5
85E0
330
85D7
100
AcDbEntity
  8
DEFPOINTS
 62
     0
100
AcDbPoint
 10
1495.557756892301
 20
6519.308553199739
 30
0.0
  0
POINT
  5
85E1
330
85D7
100
AcDbEntity
  8
DEFPOINTS
 62
     0
100
AcDbPoint
 10
3945.557756892302
 20
6519.308553199739
 30
0.0
  0
POINT
  5
85E2
330
85D7
100
AcDbEntity
  8
DEFPOINTS
 62
     0
100
AcDbPoint
 10
3945.557756892302
 20
6154.554675010087
 30
0.0
  0
ENDBLK
  5
85D9
330
85D7
100
AcDbEntity
  8
0
100
AcDbBlockEnd
  0
BLOCK
  5
85E5
330
85E4
100
AcDbEntity
  8
0
100
AcDbBlockBegin
  2
*D33
 70
     1
 10
0.0
 20
0.0
 30
0.0
  3
*D33
  1

  0
LINE
  5
85E7
330
85E4
100
AcDbEntity
  8
3
 62
     0
370
    -2
100
AcDbLine
 10
3965.557756892302
 20
6519.308553199739
 30
0.0
 11
4434.573898128134
 21
6519.308553199739
 31
0.0
  0
LINE
  5
85E8
330
85E4
100
AcDbEntity
  8
3
 62
     0
370
    -2
100
AcDbLine
 10
3965.557756892302
 20
8639.308553199738
 30
0.0
 11
4434.573898128134
 21
8639.308553199736
 31
0.0
  0
LINE
  5
85E9
330
85E4
100
AcDbEntity
  8
3
 62
     0
370
    -2
100
AcDbLine
 10
4394.573898128134
 20
6599.308553199738
 30
0.0
 11
4394.573898128134
 21
8559.308553199734
 31
0.0
  0
INSERT
  5
85EA
330
85E4
100
AcDbEntity
  8
3
 62
     0
370
    -2
100
AcDbBlockReference
  2
_OPEN
 10
4394.573898128134
 20
6519.308553199739
 30
0.0
 41
80.0
 42
80.0
 43
80.0
 50
270.0
  0
INSERT
  5
85EB
330
85E4
100
AcDbEntity
  8
3
 62
     0
370
    -2
100
AcDbBlockReference
  2
_OPEN
 10
4394.573898128134
 20
8639.308553199736
 30
0.0
 41
80.0
 42
80.0
 43
80.0
 50
90.0
  0
MTEXT
  5
85EC
330
85E4
100
AcDbEntity
  8
3
 62
     0
100
AcDbMText
 10
4294.573898128134
 20
7579.308553199739
 30
0.0
 40
120.0
 41
0.0
 71
     5
 72
     1
  1
\A1;2120
 11
0.0000000000000001
 21
1.0
 31
0.0
 73
     1
 44
1.0
1001
ACAD
1000
MTEXTBEGIN
1070
    73
1070
     1
1070
    44
1040
1.0
1070
    74
1070
     0
1000
MTEXTEND
  0
POINT
  5
85ED
330
85E4
100
AcDbEntity
  8
DEFPOINTS
 62
     0
100
AcDbPoint
 10
3945.557756892302
 20
6519.308553199739
 30
0.0
  0
POINT
  5
85EE
330
85E4
100
AcDbEntity
  8
DEFPOINTS
 62
     0
100
AcDbPoint
 10
3945.557756892302
 20
8639.308553199738
 30
0.0
  0
POINT
  5
85EF
330
85E4
100
AcDbEntity
  8
DEFPOINTS
 62
     0
100
AcDbPoint
 10
4394.573898128134
 20
8639.308553199736
 30
0.0
  0
ENDBLK
  5
85E6
330
85E4
100
AcDbEntity
  8
0
100
AcDbBlockEnd
  0
BLOCK
  5
85F2
330
85F1
100
AcDbEntity
  8
0
100
AcDbBlockBegin
  2
*D34
 70
     1
 10
0.0
 20
0.0
 30
0.0
  3
*D34
  1

  0
LINE
  5
85F4
330
85F1
100
AcDbEntity
  8
3
 62
     0
370
    -2
100
AcDbLine
 10
3945.557756892302
 20
8659.308553199737
 30
0.0
 11
3945.557756892302
 21
8883.944691704925
 31
0.0
  0
LINE
  5
85F5
330
85F1
100
AcDbEntity
  8
3
 62
     0
370
    -2
100
AcDbLine
 10
2445.557756892303
 20
8659.308553199737
 30
0.0
 11
2445.557756892303
 21
8883.944691704925
 31
0.0
  0
LINE
  5
85F6
330
85F1
100
AcDbEntity
  8
3
 62
     0
370
    -2
100
AcDbLine
 10
3865.557756892302
 20
8843.944691704926
 30
0.0
 11
2525.557756892303
 21
8843.944691704926
 31
0.0
  0
INSERT
  5
85F7
330
85F1
100
AcDbEntity
  8
3
 62
     0
370
    -2
100
AcDbBlockReference
  2
_OPEN
 10
3945.557756892302
 20
8843.944691704926
 30
0.0
 41
80.0
 42
80.0
 43
80.0
  0
INSERT
  5
85F8
330
85F1
100
AcDbEntity
  8
3
 62
     0
370
    -2
100
AcDbBlockReference
  2
_OPEN
 10
2445.557756892303
 20
8843.944691704926
 30
0.0
 41
80.0
 42
80.0
 43
80.0
 50
180.0
  0
MTEXT
  5
85F9
330
85F1
100
AcDbEntity
  8
3
 62
     0
100
AcDbMText
 10
3195.557756892303
 20
8943.944691704926
 30
0.0
 40
120.0
 41
0.0
 71
     5
 72
     1
  1
\A1;1500
 73
     1
 44
1.0
1001
ACAD
1000
MTEXTBEGIN
1070
    73
1070
     1
1070
    44
1040
1.0
1070
    74
1070
     0
1000
MTEXTEND
  0
POINT
  5
85FA
330
85F1
100
AcDbEntity
  8
DEFPOINTS
 62
     0
100
AcDbPoint
 10
3945.557756892302
 20
8639.308553199738
 30
0.0
  0
POINT
  5
85FB
330
85F1
100
AcDbEntity
  8
DEFPOINTS
 62
     0
100
AcDbPoint
 10
2445.557756892303
 20
8639.308553199738
 30
0.0
  0
POINT
  5
85FC
330
85F1
100
AcDbEntity
  8
DEFPOINTS
 62
     0
100
AcDbPoint
 10
2445.557756892303
 20
8843.944691704926
 30
0.0
  0
ENDBLK
  5
85F3
330
85F1
100
AcDbEntity
  8
0
100
AcDbBlockEnd
  0
BLOCK
  5
85FF
330
85FE
100
AcDbEntity
  8
0
100
AcDbBlockBegin
  2
*D35
 70
     1
 10
0.0
 20
0.0
 30
0.0
  3
*D35
  1

  0
LINE
  5
8601
330
85FE
100
AcDbEntity
  8
3
 62
     0
370
    -2
100
AcDbLine
 10
2445.557756892303
 20
8659.308553199737
 30
0.0
 11
2445.557756892303
 21
8883.944691704925
 31
0.0
  0
LINE
  5
8602
330
85FE
100
AcDbEntity
  8
3
 62
     0
370
    -2
100
AcDbLine
 10
1495.557756892301
 20
7539.308553199742
 30
0.0
 11
1495.557756892301
 21
8883.944691704925
 31
0.0
  0
LINE
  5
8603
330
85FE
100
AcDbEntity
  8
3
 62
     0
370
    -2
100
AcDbLine
 10
2365.557756892303
 20
8843.944691704926
 30
0.0
 11
1575.557756892301
 21
8843.944691704926
 31
0.0
  0
INSERT
  5
8604
330
85FE
100
AcDbEntity
  8
3
 62
     0
370
    -2
100
AcDbBlockReference
  2
_OPEN
 10
2445.557756892303
 20
8843.944691704926
 30
0.0
 41
80.0
 42
80.0
 43
80.0
  0
INSERT
  5
8605
330
85FE
100
AcDbEntity
  8
3
 62
     0
370
    -2
100
AcDbBlockReference
  2
_OPEN
 10
1495.557756892301
 20
8843.944691704926
 30
0.0
 41
80.0
 42
80.0
 43
80.0
 50
180.0
  0
MTEXT
  5
8606
330
85FE
100
AcDbEntity
  8
3
 62
     0
100
AcDbMText
 10
1970.557756892302
 20
8943.944691704926
 30
0.0
 40
120.0
 41
0.0
 71
     5
 72
     1
  1
\A1;950
 73
     1
 44
1.0
1001
ACAD
1000
MTEXTBEGIN
1070
    73
1070
     1
1070
    44
1040
1.0
1070
    74
1070
     0
1000
MTEXTEND
  0
POINT
  5
8607
330
85FE
100
AcDbEntity
  8
DEFPOINTS
 62
     0
100
AcDbPoint
 10
2445.557756892303
 20
8639.308553199738
 30
0.0
  0
POINT
  5
8608
330
85FE
100
AcDbEntity
  8
DEFPOINTS
 62
     0
100
AcDbPoint
 10
1495.557756892301
 20
7519.308553199741
 30
0.0
  0
POINT
  5
8609
330
85FE
100
AcDbEntity
  8
DEFPOINTS
 62
     0
100
AcDbPoint
 10
1495.557756892301
 20
8843.944691704926
 30
0.0
  0
ENDBLK
  5
8600
330
85FE
100
AcDbEntity
  8
0
100
AcDbBlockEnd
  0
BLOCK
  5
8613
330
8612
100
AcDbEntity
  8
0
100
AcDbBlockBegin
  2
*D37
 70
     1
 10
0.0
 20
0.0
 30
0.0
  3
*D37
  1

  0
LINE
  5
8615
330
8612
100
AcDbEntity
  8
3
 62
     0
370
    -2
100
AcDbLine
 10
3965.557756892302
 20
2817.929630863207
 30
0.0
 11
4399.792441257581
 21
2817.929630863207
 31
0.0
  0
LINE
  5
8616
330
8612
100
AcDbEntity
  8
3
 62
     0
370
    -2
100
AcDbLine
 10
4204.336596394802
 20
3927.929630863207
 30
0.0
 11
4399.792441257581
 21
3927.929630863207
 31
0.0
  0
LINE
  5
8617
330
8612
100
AcDbEntity
  8
3
 62
     0
370
    -2
100
AcDbLine
 10
4359.792441257581
 20
2897.929630863207
 30
0.0
 11
4359.792441257581
 21
3847.929630863207
 31
0.0
  0
INSERT
  5
8618
330
8612
100
AcDbEntity
  8
3
 62
     0
370
    -2
100
AcDbBlockReference
  2
_OPEN
 10
4359.792441257581
 20
2817.929630863207
 30
0.0
 41
80.0
 42
80.0
 43
80.0
 50
270.0
  0
INSERT
  5
8619
330
8612
100
AcDbEntity
  8
3
 62
     0
370
    -2
100
AcDbBlockReference
  2
_OPEN
 10
4359.792441257581
 20
3927.929630863207
 30
0.0
 41
80.0
 42
80.0
 43
80.0
 50
90.0
  0
MTEXT
  5
861A
330
8612
100
AcDbEntity
  8
3
 62
     0
100
AcDbMText
 10
4259.79244125758
 20
3372.929630863207
 30
0.0
 40
120.0
 41
0.0
 71
     5
 72
     1
  1
\A1;1110
 11
0.0000000000000001
 21
1.0
 31
0.0
 73
     1
 44
1.0
1001
ACAD
1000
MTEXTBEGIN
1070
    73
1070
     1
1070
    44
1040
1.0
1070
    74
1070
     0
1000
MTEXTEND
  0
POINT
  5
861B
330
8612
100
AcDbEntity
  8
DEFPOINTS
 62
     0
100
AcDbPoint
 10
3945.557756892302
 20
2817.929630863207
 30
0.0
  0
POINT
  5
861C
330
8612
100
AcDbEntity
  8
DEFPOINTS
 62
     0
100
AcDbPoint
 10
4184.336596394802
 20
3927.929630863207
 30
0.0
  0
POINT
  5
861D
330
8612
100
AcDbEntity
  8
DEFPOINTS
 62
     0
100
AcDbPoint
 10
4359.792441257581
 20
3927.929630863207
 30
0.0
  0
ENDBLK
  5
8614
330
8612
100
AcDbEntity
  8
0
100
AcDbBlockEnd
  0
BLOCK
  5
8620
330
861F
100
AcDbEntity
  8
0
100
AcDbBlockBegin
  2
*D38
 70
     1
 10
0.0
 20
0.0
 30
0.0
  3
*D38
  1

  0
LINE
  5
8622
330
861F
100
AcDbEntity
  8
3
 62
     0
370
    -2
100
AcDbLine
 10
4204.336596394802
 20
3927.929630863207
 30
0.0
 11
4399.792441257581
 21
3927.929630863207
 31
0.0
  0
LINE
  5
8623
330
861F
100
AcDbEntity
  8
3
 62
     0
370
    -2
100
AcDbLine
 10
3214.557756892301
 20
4752.929630863208
 30
0.0
 11
4399.792441257581
 21
4752.929630863208
 31
0.0
  0
LINE
  5
8624
330
861F
100
AcDbEntity
  8
3
 62
     0
370
    -2
100
AcDbLine
 10
4359.792441257581
 20
4007.929630863207
 30
0.0
 11
4359.792441257581
 21
4672.929630863208
 31
0.0
  0
INSERT
  5
8625
330
861F
100
AcDbEntity
  8
3
 62
     0
370
    -2
100
AcDbBlockReference
  2
_OPEN
 10
4359.792441257581
 20
3927.929630863207
 30
0.0
 41
80.0
 42
80.0
 43
80.0
 50
270.0
  0
INSERT
  5
8626
330
861F
100
AcDbEntity
  8
3
 62
     0
370
    -2
100
AcDbBlockReference
  2
_OPEN
 10
4359.792441257581
 20
4752.929630863208
 30
0.0
 41
80.0
 42
80.0
 43
80.0
 50
90.0
  0
MTEXT
  5
8627
330
861F
100
AcDbEntity
  8
3
 62
     0
100
AcDbMText
 10
4259.79244125758
 20
4340.429630863208
 30
0.0
 40
120.0
 41
0.0
 71
     5
 72
     1
  1
\A1;825
 11
0.0000000000000001
 21
1.0
 31
0.0
 73
     1
 44
1.0
1001
ACAD
1000
MTEXTBEGIN
1070
    73
1070
     1
1070
    44
1040
1.0
1070
    74
1070
     0
1000
MTEXTEND
  0
POINT
  5
8628
330
861F
100
AcDbEntity
  8
DEFPOINTS
 62
     0
100
AcDbPoint
 10
4184.336596394802
 20
3927.929630863207
 30
0.0
  0
POINT
  5
8629
330
861F
100
AcDbEntity
  8
DEFPOINTS
 62
     0
100
AcDbPoint
 10
3194.557756892301
 20
4752.929630863208
 30
0.0
  0
POINT
  5
862A
330
861F
100
AcDbEntity
  8
DEFPOINTS
 62
     0
100
AcDbPoint
 10
4359.792441257581
 20
4752.929630863208
 30
0.0
  0
ENDBLK
  5
8621
330
861F
100
AcDbEntity
  8
0
100
AcDbBlockEnd
  0
BLOCK
  5
862D
330
862C
100
AcDbEntity
  8
0
100
AcDbBlockBegin
  2
*D39
 70
     1
 10
0.0
 20
0.0
 30
0.0
  3
*D39
  1

  0
LINE
  5
862F
330
862C
100
AcDbEntity
  8
3
 62
     0
370
    -2
100
AcDbLine
 10
1861.557756892302
 20
4772.929630863209
 30
0.0
 11
1861.557756892302
 21
5045.940663553165
 31
0.0
  0
LINE
  5
8630
330
862C
100
AcDbEntity
  8
3
 62
     0
370
    -2
100
AcDbLine
 10
3141.557756892302
 20
4772.929630863209
 30
0.0
 11
3141.557756892302
 21
5045.940663553165
 31
0.0
  0
LINE
  5
8631
330
862C
100
AcDbEntity
  8
3
 62
     0
370
    -2
100
AcDbLine
 10
1941.557756892302
 20
5005.940663553165
 30
0.0
 11
3061.557756892302
 21
5005.940663553165
 31
0.0
  0
INSERT
  5
8632
330
862C
100
AcDbEntity
  8
3
 62
     0
370
    -2
100
AcDbBlockReference
  2
_OPEN
 10
1861.557756892302
 20
5005.940663553165
 30
0.0
 41
80.0
 42
80.0
 43
80.0
 50
180.0
  0
INSERT
  5
8633
330
862C
100
AcDbEntity
  8
3
 62
     0
370
    -2
100
AcDbBlockReference
  2
_OPEN
 10
3141.557756892302
 20
5005.940663553165
 30
0.0
 41
80.0
 42
80.0
 43
80.0
  0
MTEXT
  5
8634
330
862C
100
AcDbEntity
  8
3
 62
     0
100
AcDbMText
 10
2501.557756892302
 20
5105.940663553165
 30
0.0
 40
120.0
 41
0.0
 71
     5
 72
     1
  1
\A1;1280
 73
     1
 44
1.0
1001
ACAD
1000
MTEXTBEGIN
1070
    73
1070
     1
1070
    44
1040
1.0
1070
    74
1070
     0
1000
MTEXTEND
  0
POINT
  5
8635
330
862C
100
AcDbEntity
  8
DEFPOINTS
 62
     0
100
AcDbPoint
 10
1861.557756892302
 20
4752.929630863208
 30
0.0
  0
POINT
  5
8636
330
862C
100
AcDbEntity
  8
DEFPOINTS
 62
     0
100
AcDbPoint
 10
3141.557756892302
 20
4752.929630863208
 30
0.0
  0
POINT
  5
8637
330
862C
100
AcDbEntity
  8
DEFPOINTS
 62
     0
100
AcDbPoint
 10
3141.557756892302
 20
5005.940663553165
 30
0.0
  0
ENDBLK
  5
862E
330
862C
100
AcDbEntity
  8
0
100
AcDbBlockEnd
  0
BLOCK
  5
863A
330
8639
100
AcDbEntity
  8
0
100
AcDbBlockBegin
  2
*D40
 70
     1
 10
0.0
 20
0.0
 30
0.0
  3
*D40
  1

  0
LINE
  5
863C
330
8639
100
AcDbEntity
  8
3
 62
     0
370
    -2
100
AcDbLine
 10
1861.557756892302
 20
4772.929630863209
 30
0.0
 11
1861.557756892302
 21
5293.003506009694
 31
0.0
  0
LINE
  5
863D
330
8639
100
AcDbEntity
  8
3
 62
     0
370
    -2
100
AcDbLine
 10
3195.557756892303
 20
4813.547431885435
 30
0.0
 11
3195.557756892303
 21
5293.003506009694
 31
0.0
  0
LINE
  5
863E
330
8639
100
AcDbEntity
  8
3
 62
     0
370
    -2
100
AcDbLine
 10
1941.557756892302
 20
5253.003506009694
 30
0.0
 11
3115.557756892302
 21
5253.003506009694
 31
0.0
  0
INSERT
  5
863F
330
8639
100
AcDbEntity
  8
3
 62
     0
370
    -2
100
AcDbBlockReference
  2
_OPEN
 10
1861.557756892302
 20
5253.003506009694
 30
0.0
 41
80.0
 42
80.0
 43
80.0
 50
180.0
  0
INSERT
  5
8640
330
8639
100
AcDbEntity
  8
3
 62
     0
370
    -2
100
AcDbBlockReference
  2
_OPEN
 10
3195.557756892303
 20
5253.003506009694
 30
0.0
 41
80.0
 42
80.0
 43
80.0
  0
MTEXT
  5
8641
330
8639
100
AcDbEntity
  8
3
 62
     0
100
AcDbMText
 10
2528.557756892303
 20
5353.003506009694
 30
0.0
 40
120.0
 41
0.0
 71
     5
 72
     1
  1
\A1;1334
 73
     1
 44
1.0
1001
ACAD
1000
MTEXTBEGIN
1070
    73
1070
     1
1070
    44
1040
1.0
1070
    74
1070
     0
1000
MTEXTEND
  0
POINT
  5
8642
330
8639
100
AcDbEntity
  8
DEFPOINTS
 62
     0
100
AcDbPoint
 10
1861.557756892302
 20
4752.929630863208
 30
0.0
  0
POINT
  5
8643
330
8639
100
AcDbEntity
  8
DEFPOINTS
 62
     0
100
AcDbPoint
 10
3195.557756892303
 20
4793.547431885436
 30
0.0
  0
POINT
  5
8644
330
8639
100
AcDbEntity
  8
DEFPOINTS
 62
     0
100
AcDbPoint
 10
3195.557756892303
 20
5253.003506009694
 30
0.0
  0
ENDBLK
  5
863B
330
8639
100
AcDbEntity
  8
0
100
AcDbBlockEnd
  0
BLOCK
  5
8647
330
8646
100
AcDbEntity
  8
0
100
AcDbBlockBegin
  2
*D41
 70
     1
 10
0.0
 20
0.0
 30
0.0
  3
*D41
  1

  0
LINE
  5
8649
330
8646
100
AcDbEntity
  8
3
 62
     0
370
    -2
100
AcDbLine
 10
3195.557756892303
 20
4813.547431885435
 30
0.0
 11
3195.557756892303
 21
5293.003506009694
 31
0.0
  0
LINE
  5
864A
330
8646
100
AcDbEntity
  8
3
 62
     0
370
    -2
100
AcDbLine
 10
4092.557756892301
 20
3856.929630863207
 30
0.0
 11
4092.557756892301
 21
5293.003506009694
 31
0.0
  0
LINE
  5
864B
330
8646
100
AcDbEntity
  8
3
 62
     0
370
    -2
100
AcDbLine
 10
3275.557756892303
 20
5253.003506009694
 30
0.0
 11
4012.5577568923
 21
5253.003506009694
 31
0.0
  0
INSERT
  5
864C
330
8646
100
AcDbEntity
  8
3
 62
     0
370
    -2
100
AcDbBlockReference
  2
_OPEN
 10
3195.557756892303
 20
5253.003506009694
 30
0.0
 41
80.0
 42
80.0
 43
80.0
 50
180.0
  0
INSERT
  5
864D
330
8646
100
AcDbEntity
  8
3
 62
     0
370
    -2
100
AcDbBlockReference
  2
_OPEN
 10
4092.557756892301
 20
5253.003506009694
 30
0.0
 41
80.0
 42
80.0
 43
80.0
  0
MTEXT
  5
864E
330
8646
100
AcDbEntity
  8
3
 62
     0
100
AcDbMText
 10
3644.057756892302
 20
5353.003506009694
 30
0.0
 40
120.0
 41
0.0
 71
     5
 72
     1
  1
\A1;897
 73
     1
 44
1.0
1001
ACAD
1000
MTEXTBEGIN
1070
    73
1070
     1
1070
    44
1040
1.0
1070
    74
1070
     0
1000
MTEXTEND
  0
POINT
  5
864F
330
8646
100
AcDbEntity
  8
DEFPOINTS
 62
     0
100
AcDbPoint
 10
3195.557756892303
 20
4793.547431885436
 30
0.0
  0
POINT
  5
8650
330
8646
100
AcDbEntity
  8
DEFPOINTS
 62
     0
100
AcDbPoint
 10
4092.557756892301
 20
3836.929630863208
 30
0.0
  0
POINT
  5
8651
330
8646
100
AcDbEntity
  8
DEFPOINTS
 62
     0
100
AcDbPoint
 10
4092.557756892301
 20
5253.003506009694
 30
0.0
  0
ENDBLK
  5
8648
330
8646
100
AcDbEntity
  8
0
100
AcDbBlockEnd
  0
BLOCK
  5
8654
330
8653
100
AcDbEntity
  8
0
100
AcDbBlockBegin
  2
*D42
 70
     1
 10
0.0
 20
0.0
 30
0.0
  3
*D42
  1

  0
LINE
  5
8656
330
8653
100
AcDbEntity
  8
3
 62
     0
370
    -2
100
AcDbLine
 10
1495.557756892301
 20
2962.929630863207
 30
0.0
 11
1495.557756892301
 21
5560.79394691561
 31
0.0
  0
LINE
  5
8657
330
8653
100
AcDbEntity
  8
3
 62
     0
370
    -2
100
AcDbLine
 10
4092.557756892301
 20
3856.929630863207
 30
0.0
 11
4092.557756892301
 21
5560.79394691561
 31
0.0
  0
LINE
  5
8658
330
8653
100
AcDbEntity
  8
3
 62
     0
370
    -2
100
AcDbLine
 10
1575.557756892301
 20
5520.79394691561
 30
0.0
 11
4012.5577568923
 21
5520.79394691561
 31
0.0
  0
INSERT
  5
8659
330
8653
100
AcDbEntity
  8
3
 62
     0
370
    -2
100
AcDbBlockReference
  2
_OPEN
 10
1495.557756892301
 20
5520.79394691561
 30
0.0
 41
80.0
 42
80.0
 43
80.0
 50
180.0
  0
INSERT
  5
865A
330
8653
100
AcDbEntity
  8
3
 62
     0
370
    -2
100
AcDbBlockReference
  2
_OPEN
 10
4092.557756892301
 20
5520.79394691561
 30
0.0
 41
80.0
 42
80.0
 43
80.0
  0
MTEXT
  5
865B
330
8653
100
AcDbEntity
  8
3
 62
     0
100
AcDbMText
 10
2794.057756892302
 20
5620.79394691561
 30
0.0
 40
120.0
 41
0.0
 71
     5
 72
     1
  1
\A1;2597
 73
     1
 44
1.0
1001
ACAD
1000
MTEXTBEGIN
1070
    73
1070
     1
1070
    44
1040
1.0
1070
    74
1070
     0
1000
MTEXTEND
  0
POINT
  5
865C
330
8653
100
AcDbEntity
  8
DEFPOINTS
 62
     0
100
AcDbPoint
 10
1495.557756892301
 20
2942.929630863207
 30
0.0
  0
POINT
  5
865D
330
8653
100
AcDbEntity
  8
DEFPOINTS
 62
     0
100
AcDbPoint
 10
4092.557756892301
 20
3836.929630863208
 30
0.0
  0
POINT
  5
865E
330
8653
100
AcDbEntity
  8
DEFPOINTS
 62
     0
100
AcDbPoint
 10
4092.557756892301
 20
5520.79394691561
 30
0.0
  0
ENDBLK
  5
8655
330
8653
100
AcDbEntity
  8
0
100
AcDbBlockEnd
  0
ENDSEC
  0
SECTION
  2
ENTITIES
  0
INSERT
  5
7C3A
330
8484
100
AcDbEntity
  8
1
100
AcDbBlockReference
  2
YA_N
 10
6.0
 20
5.0
 30
0.0
  0
LINE
  5
7C3B
330
8484
100
AcDbEntity
  8
2
100
AcDbLine
 10
3195.557756892303
 20
4793.547431885436
 30
0.0
 11
3195.557756892303
 21
2817.929630863207
 31
0.0
  0
LINE
  5
7C3C
330
8484
100
AcDbEntity
  8
1
100
AcDbLine
 10
5193.659262902689
 20
2817.929630863207
 30
0.0
 11
7313.659262902688
 21
2817.929630863207
 31
0.0
1001
ACAD
1000
ASC_BOUNDS
1002
{
1070
    19
1005
0
1005
0
1002
}
  0
LINE
  5
7C3D
330
8484
100
AcDbEntity
  8
1
100
AcDbLine
 10
5193.659262902689
 20
2942.929630863207
 30
0.0
 11
7313.659262902691
 21
2942.929630863207
 31
0.0
  0
LINE
  5
7C3E
330
8484
100
AcDbEntity
  8
1
100
AcDbLine
 10
7245.659262902688
 20
4752.929630863208
 30
0.0
 11
7245.65926290269
 21
3927.929630863207
 31
0.0
  0
LINE
  5
7C3F
330
8484
100
AcDbEntity
  8
1
100
AcDbLine
 10
5545.659262902689
 20
4752.929630863208
 30
0.0
 11
5545.659262902689
 21
3927.929630863207
 31
0.0
  0
LINE
  5
7C41
330
8484
100
AcDbEntity
  8
2
100
AcDbLine
 10
5180.35926290269
 20
3927.929630863207
 30
0.0
 11
7429.169749141927
 21
3927.929630863207
 31
0.0
  0
LINE
  5
7C42
330
8484
100
AcDbEntity
  8
2
100
AcDbLine
 10
5124.156536306313
 20
3202.929630863208
 30
0.0
 11
5684.7848580257
 21
3202.929630863208
 31
0.0
  0
LINE
  5
7C43
330
8484
100
AcDbEntity
  8
1
100
AcDbLine
 10
5200.659262902689
 20
3308.929630863207
 30
0.0
 11
5278.559262902689
 21
3308.929630863207
 31
0.0
  0
LINE
  5
7C44
330
8484
100
AcDbEntity
  8
1
100
AcDbLine
 10
5200.659262902689
 20
3096.929630863207
 30
0.0
 11
5278.559262902689
 21
3096.929630863207
 31
0.0
  0
LINE
  5
7C45
330
8484
100
AcDbEntity
  8
1
100
AcDbLine
 10
5298.65926290269
 20
3997.929630863207
 30
0.0
 11
5298.65926290269
 21
3857.929630863207
 31
0.0
  0
LINE
  5
7C46
330
8484
100
AcDbEntity
  8
1
100
AcDbLine
 10
5278.559262902689
 20
4181.929630863208
 30
0.0
 11
5278.559262902689
 21
3997.929630863207
 31
0.0
  0
LINE
  5
7C47
330
8484
100
AcDbEntity
  8
1
100
AcDbLine
 10
5278.559262902689
 20
3997.929630863207
 30
0.0
 11
5298.65926290269
 21
3997.929630863207
 31
0.0
  0
LINE
  5
7C48
330
8484
100
AcDbEntity
  8
1
100
AcDbLine
 10
5278.559262902689
 20
3857.929630863207
 30
0.0
 11
5298.65926290269
 21
3857.929630863207
 31
0.0
  0
LINE
  5
7C49
330
8484
100
AcDbEntity
  8
1
100
AcDbLine
 10
5278.559262902689
 20
3857.929630863207
 30
0.0
 11
5278.559262902689
 21
3262.929630863208
 31
0.0
  0
LINE
  5
7C4A
330
8484
100
AcDbEntity
  8
1
100
AcDbLine
 10
5200.659262902689
 20
4181.929630863208
 30
0.0
 11
5200.659262902689
 21
3096.929630863207
 31
0.0
  0
LINE
  5
7C4B
330
8484
100
AcDbEntity
  8
1
100
AcDbLine
 10
5293.65926290269
 20
3262.929630863208
 30
0.0
 11
5293.65926290269
 21
3142.929630863207
 31
0.0
  0
LINE
  5
7C4C
330
8484
100
AcDbEntity
  8
1
100
AcDbLine
 10
5278.559262902689
 20
3262.929630863208
 30
0.0
 11
5293.65926290269
 21
3262.929630863208
 31
0.0
  0
LINE
  5
7C4D
330
8484
100
AcDbEntity
  8
1
100
AcDbLine
 10
5278.559262902689
 20
3142.929630863207
 30
0.0
 11
5293.65926290269
 21
3142.929630863207
 31
0.0
  0
LINE
  5
7C4E
330
8484
100
AcDbEntity
  8
1
100
AcDbLine
 10
5278.559262902689
 20
3142.929630863207
 30
0.0
 11
5278.559262902689
 21
3096.929630863207
 31
0.0
  0
LINE
  5
7C4F
330
8484
100
AcDbEntity
  8
1
100
AcDbLine
 10
5115.65926290269
 20
2982.929630863207
 30
0.0
 11
5360.659262902689
 21
2982.929630863207
 31
0.0
  0
LINE
  5
7C50
330
8484
100
AcDbEntity
  8
1
100
AcDbLine
 10
5115.65926290269
 20
4307.929630863208
 30
0.0
 11
5115.65926290269
 21
2982.929630863207
 31
0.0
  0
LINE
  5
7C51
330
8484
100
AcDbEntity
  8
1
100
AcDbLine
 10
5360.659262902689
 20
4307.929630863208
 30
0.0
 11
5360.659262902689
 21
4287.929630863208
 31
0.0
  0
LINE
  5
7C52
330
8484
100
AcDbEntity
  8
2
100
AcDbLine
 10
3195.557756892303
 20
8738.992895925507
 30
0.0
 11
3195.557756892303
 21
6358.815218657199
 31
0.0
  0
LINE
  5
7C53
330
8484
100
AcDbEntity
  8
2
100
AcDbLine
 10
1775.557756892301
 20
7394.125772323062
 30
0.0
 11
1775.557756892301
 21
6345.696240088916
 31
0.0
  0
LINE
  5
7C54
330
8484
100
AcDbEntity
  8
2
100
AcDbLine
 10
6395.65926290269
 20
4920.908808331319
 30
0.0
 11
6395.659262902686
 21
2817.929630863207
 31
0.0
  0
INSERT
  5
7C55
330
8484
100
AcDbEntity
  8
1
100
AcDbBlockReference
  2
YA_N
 10
-1757.227407310314
 20
-1218.78641745778
 30
0.0
 41
30.0
 42
30.0
 43
30.0
  0
INSERT
  5
7C56
330
8484
100
AcDbEntity
  8
1
100
AcDbBlockReference
  2
YA_N
 10
-755.2436758818473
 20
-538.554984833856
 30
0.0
 41
30.0
 42
30.0
 43
30.0
  0
LINE
  5
7C5A
330
8484
100
AcDbEntity
  8
1
100
AcDbLine
 10
7245.659262902688
 20
3928.929630863207
 30
0.0
 11
7245.659262902688
 21
2942.929630863207
 31
0.0
  0
LINE
  5
7C5B
330
8484
100
AcDbEntity
  8
1
100
AcDbLine
 10
5545.659262902689
 20
3928.929630863207
 30
0.0
 11
5545.659262902689
 21
2942.929630863207
 31
0.0
  0
LINE
  5
7C5C
330
8484
100
AcDbEntity
  8
1
100
AcDbLine
 10
3945.557756892302
 20
8639.308553199738
 30
0.0
 11
2445.557756892303
 21
8639.30855319974
 31
0.0
  0
LINE
  5
7C5D
330
8484
100
AcDbEntity
  8
1
100
AcDbLine
 10
3945.557756892302
 20
6519.308553199739
 30
0.0
 11
1495.557756892301
 21
6519.308553199741
 31
0.0
  0
LINE
  5
7C5E
330
8484
100
AcDbEntity
  8
1
100
AcDbLine
 10
3945.557756892302
 20
8639.308553199738
 30
0.0
 11
3945.557756892302
 21
8571.308553199742
 31
0.0
  0
LINE
  5
7C5F
330
8484
100
AcDbEntity
  8
1
100
AcDbLine
 10
1495.557756892301
 20
7519.308553199741
 30
0.0
 11
1495.557756892301
 21
6519.308553199739
 31
0.0
  0
LINE
  5
7C60
330
8484
100
AcDbEntity
  8
1
100
AcDbLine
 10
2445.557756892303
 20
8639.308553199738
 30
0.0
 11
2445.557756892303
 21
8571.308553199742
 31
0.0
  0
LINE
  5
7C61
330
8484
100
AcDbEntity
  8
1
100
AcDbLine
 10
1861.557756892302
 20
7519.308553199741
 30
0.0
 11
1495.557756892301
 21
7519.308553199741
 31
0.0
  0
LINE
  5
7C63
330
8484
100
AcDbEntity
  8
1
100
AcDbLine
 10
5388.159262902689
 20
3851.929630863207
 30
0.0
 11
5388.159262902689
 21
3721.929630863207
 31
0.0
  0
LINE
  5
7C64
330
8484
100
AcDbEntity
  8
1
100
AcDbLine
 10
5528.159262902689
 20
3861.929630863207
 30
0.0
 11
5528.159262902689
 21
3711.929630863207
 31
0.0
  0
LINE
  5
7C65
330
8484
100
AcDbEntity
  8
1
100
AcDbLine
 10
5398.15926290269
 20
3861.929630863207
 30
0.0
 11
5468.35926290269
 21
3861.929630863207
 31
0.0
  0
LINE
  5
7C66
330
8484
100
AcDbEntity
  8
1
100
AcDbLine
 10
5398.15926290269
 20
3711.929630863207
 30
0.0
 11
5468.35926290269
 21
3711.929630863207
 31
0.0
  0
ARC
  5
7C67
330
8484
100
AcDbEntity
  8
1
100
AcDbCircle
 10
5398.15926290269
 20
3851.929630863207
 30
0.0
 40
10.0
100
AcDbArc
 50
90.0
 51
180.0
  0
ARC
  5
7C68
330
8484
100
AcDbEntity
  8
1
100
AcDbCircle
 10
5398.15926290269
 20
3721.929630863207
 30
0.0
 40
10.0
100
AcDbArc
 50
180.0
 51
270.0
  0
LINE
  5
7C69
330
8484
100
AcDbEntity
  8
1
100
AcDbLine
 10
5468.35926290269
 20
3711.929630863207
 30
0.0
 11
5528.159262902689
 21
3711.929630863207
 31
0.0
  0
LINE
  5
7C6A
330
8484
100
AcDbEntity
  8
1
100
AcDbLine
 10
5468.35926290269
 20
3861.929630863207
 30
0.0
 11
5528.159262902689
 21
3861.929630863207
 31
0.0
  0
LINE
  5
7C6B
330
8484
100
AcDbEntity
  8
1
100
AcDbLine
 10
7415.65926290269
 20
3851.929630863207
 30
0.0
 11
7415.65926290269
 21
3721.929630863207
 31
0.0
  0
LINE
  5
7C6C
330
8484
100
AcDbEntity
  8
1
100
AcDbLine
 10
7263.159262902689
 20
3861.929630863207
 30
0.0
 11
7263.159262902689
 21
3711.929630863207
 31
0.0
  0
LINE
  5
7C6D
330
8484
100
AcDbEntity
  8
1
100
AcDbLine
 10
7405.659262902689
 20
3711.929630863207
 30
0.0
 11
7322.959262902688
 21
3711.929630863207
 31
0.0
  0
ARC
  5
7C6E
330
8484
100
AcDbEntity
  8
1
100
AcDbCircle
 10
7405.659262902689
 20
3721.929630863207
 30
0.0
 40
10.0
100
AcDbArc
 50
270.0
 51
0.0
  0
LINE
  5
7C6F
330
8484
100
AcDbEntity
  8
1
100
AcDbLine
 10
7322.959262902688
 20
3711.929630863207
 30
0.0
 11
7263.159262902689
 21
3711.929630863207
 31
0.0
  0
LINE
  5
7C70
330
8484
100
AcDbEntity
  8
1
100
AcDbLine
 10
7405.659262902689
 20
3861.929630863207
 30
0.0
 11
7322.959262902688
 21
3861.929630863207
 31
0.0
  0
ARC
  5
7C71
330
8484
100
AcDbEntity
  8
1
100
AcDbCircle
 10
7405.659262902689
 20
3851.929630863207
 30
0.0
 40
10.0
100
AcDbArc
 50
0.0
 51
90.0
  0
LINE
  5
7C72
330
8484
100
AcDbEntity
  8
1
100
AcDbLine
 10
7322.959262902688
 20
3861.929630863207
 30
0.0
 11
7263.159262902689
 21
3861.929630863207
 31
0.0
  0
LINE
  5
7C77
330
8484
100
AcDbEntity
  8
1
100
AcDbLine
 10
5200.659262902689
 20
4181.929630863208
 30
0.0
 11
5278.559262902689
 21
4181.929630863208
 31
0.0
  0
LINE
  5
7C78
330
8484
100
AcDbEntity
  8
1
100
AcDbLine
 10
5200.659262902689
 20
3673.929630863208
 30
0.0
 11
5278.559262902689
 21
3673.929630863208
 31
0.0
  0
LINE
  5
7C79
330
8484
100
AcDbEntity
  8
1
100
AcDbLine
 10
5115.659262902688
 20
4307.929630863208
 30
0.0
 11
5360.659262902689
 21
4307.929630863208
 31
0.0
  0
LINE
  5
7C7A
330
8484
100
AcDbEntity
  8
1
100
AcDbLine
 10
5360.659262902689
 20
3002.929630863207
 30
0.0
 11
5360.659262902689
 21
2982.929630863207
 31
0.0
  0
INSERT
  5
7C7B
330
8484
100
AcDbEntity
  8
1
100
AcDbBlockReference
  2
YA_N
 10
4767.943419715615
 20
-1494.695868425496
 30
0.0
  0
LINE
  5
7C7C
330
8484
100
AcDbEntity
  8
1
100
AcDbLine
 10
7313.659262902691
 20
2942.929630863207
 30
0.0
 11
7313.659262902688
 21
2817.929630863207
 31
0.0
  0
LINE
  5
7C7E
330
8484
100
AcDbEntity
  8
1
100
AcDbLine
 10
5193.659262902689
 20
2942.929630863207
 30
0.0
 11
5193.659262902689
 21
2817.929630863207
 31
0.0
  0
LINE
  5
7C82
330
8484
100
AcDbEntity
  8
1
100
AcDbLine
 10
5298.65926290269
 20
3965.429630863207
 30
0.0
 11
5545.659262902688
 21
3965.429630863207
 31
0.0
  0
LINE
  5
7C83
330
8484
100
AcDbEntity
  8
1
100
AcDbLine
 10
5298.65926290269
 20
3890.429630863208
 30
0.0
 11
5545.659262902688
 21
3890.429630863208
 31
0.0
  0
LINE
  5
7C84
330
8484
100
AcDbEntity
  8
1
100
AcDbLine
 10
5389.609262902689
 20
3002.929630863207
 30
0.0
 11
5389.609262902689
 21
3202.929630863208
 31
0.0
  0
LINE
  5
7C85
330
8484
100
AcDbEntity
  8
1
100
AcDbLine
 10
5389.609262902689
 20
3002.929630863208
 30
0.0
 11
5545.659262902688
 21
3002.92963086321
 31
0.0
  0
LINE
  5
7C86
330
8484
100
AcDbEntity
  8
1
100
AcDbLine
 10
5545.659262902688
 20
3412.929630863209
 30
0.0
 11
5389.609262902689
 21
3412.929630863208
 31
0.0
  0
LINE
  5
7C87
330
8484
100
AcDbEntity
  8
1
100
AcDbLine
 10
5379.60926290269
 20
3172.929630863208
 30
0.0
 11
5293.65926290269
 21
3172.929630863208
 31
0.0
  0
LINE
  5
7C88
330
8484
100
AcDbEntity
  8
1
100
AcDbLine
 10
5379.60926290269
 20
3232.929630863208
 30
0.0
 11
5293.65926290269
 21
3232.929630863208
 31
0.0
  0
LINE
  5
7C89
330
8484
100
AcDbEntity
  8
1
100
AcDbLine
 10
5389.609262902689
 20
3412.929630863208
 30
0.0
 11
5389.609262902689
 21
3202.929630863208
 31
0.0
  0
LINE
  5
7C8A
330
8484
100
AcDbEntity
  8
1
100
AcDbLine
 10
5379.60926290269
 20
3170.429630863208
 30
0.0
 11
5379.60926290269
 21
3235.429630863208
 31
0.0
  0
LINE
  5
7C8B
330
8484
100
AcDbEntity
  8
1
100
AcDbLine
 10
5379.60926290269
 20
3170.429630863208
 30
0.0
 11
5389.609262902689
 21
3170.429630863208
 31
0.0
  0
LINE
  5
7C8C
330
8484
100
AcDbEntity
  8
1
100
AcDbLine
 10
5379.60926290269
 20
3235.429630863208
 30
0.0
 11
5389.609262902689
 21
3235.429630863208
 31
0.0
  0
LINE
  5
7C9B
330
8484
100
AcDbEntity
  8
2
100
AcDbLine
 10
4171.384877614022
 20
7721.308553199742
 30
0.0
 11
1753.029276631838
 21
7721.30855319974
 31
0.0
  0
LINE
  5
7C9C
330
8484
100
AcDbEntity
  8
1
100
AcDbLine
 10
3575.557756892301
 20
6441.308553199743
 30
0.0
 11
1555.557756892302
 21
6441.308553199743
 31
0.0
  0
LINE
  5
7C9D
330
8484
100
AcDbEntity
  8
1
100
AcDbLine
 10
3449.557756892303
 20
6526.308553199742
 30
0.0
 11
2941.557756892303
 21
6526.308553199742
 31
0.0
  0
LINE
  5
7C9E
330
8484
100
AcDbEntity
  8
1
100
AcDbLine
 10
3125.557756892302
 20
6604.208553199741
 30
0.0
 11
2941.557756892303
 21
6604.208553199741
 31
0.0
  0
LINE
  5
7C9F
330
8484
100
AcDbEntity
  8
1
100
AcDbLine
 10
1745.557756892301
 20
6705.258553199742
 30
0.0
 11
1745.557756892301
 21
6619.308553199743
 31
0.0
  0
LINE
  5
7CA0
330
8484
100
AcDbEntity
  8
1
100
AcDbLine
 10
1805.5577568923
 20
6705.258553199742
 30
0.0
 11
1805.5577568923
 21
6619.308553199743
 31
0.0
  0
LINE
  5
7CA1
330
8484
100
AcDbEntity
  8
1
100
AcDbLine
 10
1555.557756892302
 20
6441.308553199743
 30
0.0
 11
1555.557756892302
 21
6686.308553199743
 31
0.0
  0
LINE
  5
7CA2
330
8484
100
AcDbEntity
  8
1
100
AcDbLine
 10
2395.557756892301
 20
6519.308553199741
 30
0.0
 11
2270.557756892301
 21
6519.308553199741
 31
0.0
  0
LINE
  5
7CA3
330
8484
100
AcDbEntity
  8
1
100
AcDbLine
 10
2251.557756892301
 20
6519.308553199741
 30
0.0
 11
2186.557756892301
 21
6519.308553199742
 31
0.0
  0
LINE
  5
7CA4
330
8484
100
AcDbEntity
  8
1
100
AcDbLine
 10
1835.557756892301
 20
6619.308553199743
 30
0.0
 11
1715.557756892301
 21
6619.308553199743
 31
0.0
  0
LINE
  5
7CA5
330
8484
100
AcDbEntity
  8
1
100
AcDbLine
 10
1715.557756892301
 20
6604.208553199741
 30
0.0
 11
1669.557756892301
 21
6604.208553199741
 31
0.0
  0
LINE
  5
7CA6
330
8484
100
AcDbEntity
  8
1
100
AcDbLine
 10
1669.557756892301
 20
6526.308553199742
 30
0.0
 11
1669.557756892301
 21
6604.208553199741
 31
0.0
  0
LINE
  5
7CA7
330
8484
100
AcDbEntity
  8
1
100
AcDbLine
 10
1715.557756892301
 20
6604.208553199741
 30
0.0
 11
1715.557756892301
 21
6619.308553199743
 31
0.0
  0
LINE
  5
7CA8
330
8484
100
AcDbEntity
  8
1
100
AcDbLine
 10
1881.5577568923
 20
6526.308553199742
 30
0.0
 11
1881.5577568923
 21
6604.208553199741
 31
0.0
  0
LINE
  5
7CA9
330
8484
100
AcDbEntity
  8
1
100
AcDbLine
 10
1835.557756892301
 20
6604.208553199741
 30
0.0
 11
1835.557756892301
 21
6619.308553199743
 31
0.0
  0
LINE
  5
7CAA
330
8484
100
AcDbEntity
  8
1
100
AcDbLine
 10
2941.557756892303
 20
6526.308553199742
 30
0.0
 11
2941.557756892303
 21
6604.208553199741
 31
0.0
  0
LINE
  5
7CAB
330
8484
100
AcDbEntity
  8
1
100
AcDbLine
 10
1985.557756892301
 20
6715.258553199742
 30
0.0
 11
1775.557756892301
 21
6715.258553199742
 31
0.0
  0
LINE
  5
7CAC
330
8484
100
AcDbEntity
  8
1
100
AcDbLine
 10
1743.057756892301
 20
6705.258553199742
 30
0.0
 11
1808.057756892301
 21
6705.258553199742
 31
0.0
  0
LINE
  5
7CAD
330
8484
100
AcDbEntity
  8
1
100
AcDbLine
 10
1575.557756892301
 20
6715.258553199745
 30
0.0
 11
1575.557756892309
 21
7364.758553199743
 31
0.0
  0
LINE
  5
7CAE
330
8484
100
AcDbEntity
  8
1
100
AcDbLine
 10
1575.557756892301
 20
6715.258553199742
 30
0.0
 11
1775.557756892301
 21
6715.258553199742
 31
0.0
  0
LINE
  5
7CAF
330
8484
100
AcDbEntity
  8
1
100
AcDbLine
 10
1743.057756892301
 20
6705.258553199742
 30
0.0
 11
1743.057756892301
 21
6715.258553199742
 31
0.0
  0
LINE
  5
7CB0
330
8484
100
AcDbEntity
  8
1
100
AcDbLine
 10
1575.557756892303
 20
6890.758553199742
 30
0.0
 11
1576.557756892303
 21
6890.758553199742
 31
0.0
  0
LINE
  5
7CB1
330
8484
100
AcDbEntity
  8
1
100
AcDbLine
 10
1985.557756892303
 20
6871.308553199741
 30
0.0
 11
1985.557756892301
 21
6715.258553199742
 31
0.0
  0
LINE
  5
7CB2
330
8484
100
AcDbEntity
  8
1
100
AcDbLine
 10
1808.057756892301
 20
6705.258553199742
 30
0.0
 11
1808.057756892301
 21
6715.258553199742
 31
0.0
  0
LINE
  5
7CB3
330
8484
100
AcDbEntity
  8
1
100
AcDbLine
 10
3158.057756892302
 20
6624.308553199742
 30
0.0
 11
3158.057756892302
 21
6871.308553199741
 31
0.0
  0
LINE
  5
7CB4
330
8484
100
AcDbEntity
  8
1
100
AcDbLine
 10
3233.057756892303
 20
6624.308553199742
 30
0.0
 11
3233.057756892303
 21
6871.308553199741
 31
0.0
  0
LINE
  5
7CB5
330
8484
100
AcDbEntity
  8
1
100
AcDbLine
 10
3575.557756892301
 20
6441.308553199741
 30
0.0
 11
3575.557756892301
 21
6686.30855319974
 31
0.0
  0
LINE
  5
7CB6
330
8484
100
AcDbEntity
  8
1
100
AcDbLine
 10
3265.557756892302
 20
6624.308553199742
 30
0.0
 11
3125.557756892302
 21
6624.308553199742
 31
0.0
  0
LINE
  5
7CB7
330
8484
100
AcDbEntity
  8
1
100
AcDbLine
 10
3125.557756892302
 20
6604.208553199741
 30
0.0
 11
3125.557756892302
 21
6624.308553199742
 31
0.0
  0
LINE
  5
7CB8
330
8484
100
AcDbEntity
  8
1
100
AcDbLine
 10
3449.557756892303
 20
6604.208553199741
 30
0.0
 11
3265.557756892302
 21
6604.208553199741
 31
0.0
  0
LINE
  5
7CB9
330
8484
100
AcDbEntity
  8
1
100
AcDbLine
 10
3265.557756892302
 20
6604.208553199741
 30
0.0
 11
3265.557756892302
 21
6624.308553199742
 31
0.0
  0
LINE
  5
7CBA
330
8484
100
AcDbEntity
  8
1
100
AcDbLine
 10
3449.557756892303
 20
6526.308553199742
 30
0.0
 11
3449.557756892303
 21
6604.208553199741
 31
0.0
  0
LINE
  5
7CBB
330
8484
100
AcDbEntity
  8
1
100
AcDbLine
 10
3575.557756892301
 20
6686.308553199741
 30
0.0
 11
1555.557756892302
 21
6686.308553199833
 31
0.0
  0
LINE
  5
7CBD
330
8484
100
AcDbEntity
  8
1
100
AcDbLine
 10
1575.557756892304
 20
7364.758553199743
 30
0.0
 11
1861.557756892302
 21
7364.758553199742
 31
0.0
  0
LINE
  5
7CBE
330
8484
100
AcDbEntity
  8
1
100
AcDbLine
 10
4092.557756892301
 20
8571.308553199742
 30
0.0
 11
1861.557756892302
 21
8571.308553199742
 31
0.0
  0
LINE
  5
7CBF
330
8484
100
AcDbEntity
  8
1
100
AcDbLine
 10
4092.557756892301
 20
6871.308553199739
 30
0.0
 11
1861.557756892302
 21
6871.308553199741
 31
0.0
  0
LINE
  5
7CC0
330
8484
100
AcDbEntity
  8
1
100
AcDbLine
 10
3945.557756892302
 20
6871.308553199741
 30
0.0
 11
3945.557756892302
 21
6519.308553199739
 31
0.0
  0
LINE
  5
7CC1
330
8484
100
AcDbEntity
  8
1
100
AcDbLine
 10
1881.5577568923
 20
6604.208553199741
 30
0.0
 11
1835.557756892301
 21
6604.208553199741
 31
0.0
  0
LINE
  5
7CC2
330
8484
100
AcDbEntity
  8
1
100
AcDbLine
 10
1881.5577568923
 20
6526.308553199742
 30
0.0
 11
1669.557756892301
 21
6526.308553199742
 31
0.0
  0
INSERT
  5
7CC8
330
8484
100
AcDbEntity
  8
1
100
AcDbBlockReference
  2
YA_N
 10
10738.86349375248
 20
1135.274830878665
 30
0.0
  0
ARC
  5
7CCA
330
8484
100
AcDbEntity
  8
1
100
AcDbCircle
 10
3104.557756892301
 20
4018.929630863207
 30
0.0
 40
1170.0
100
AcDbArc
 50
184.4608436978738
 51
246.8761524324772
  0
ARC
  5
7CCB
330
8484
100
AcDbEntity
  8
1
100
AcDbCircle
 10
3104.557756892301
 20
3836.929630863208
 30
0.0
 40
988.0
100
AcDbArc
 50
295.1957948442135
 51
5.28473295453451
  0
ARC
  5
7CCC
330
8484
100
AcDbEntity
  8
1
100
AcDbCircle
 10
3272.557756892301
 20
3850.929630863208
 30
0.0
 40
820.0
100
AcDbArc
 50
5.388151804327393
 51
92.75751475579211
  0
LINE
  5
7CCD
330
8484
100
AcDbEntity
  8
1
100
AcDbLine
 10
1938.102014054193
 20
3927.929630863207
 30
0.0
 11
1861.557756892302
 21
4752.929630863208
 31
0.0
  0
LINE
  5
7CCE
330
8484
100
AcDbEntity
  8
1
100
AcDbLine
 10
3945.557756892302
 20
2817.929630863207
 30
0.0
 11
1495.557756892301
 21
2817.929630863207
 31
0.0
1001
ACAD
1000
ASC_BOUNDS
1002
{
1070
    19
1002
}
  0
LINE
  5
7CCF
330
8484
100
AcDbEntity
  8
1
100
AcDbLine
 10
3945.557756892302
 20
2942.929630863207
 30
0.0
 11
1495.557756892301
 21
2942.929630863207
 31
0.0
  0
LINE
  5
7CD0
330
8484
100
AcDbEntity
  8
1
100
AcDbLine
 10
3945.557756892302
 20
2942.929630863207
 30
0.0
 11
3945.557756892302
 21
2817.929630863207
 31
0.0
  0
LINE
  5
7CD1
330
8484
100
AcDbEntity
  8
1
100
AcDbLine
 10
1495.557756892301
 20
2942.929630863207
 30
0.0
 11
1495.557756892301
 21
2817.929630863207
 31
0.0
  0
LINE
  5
7CD2
330
8484
100
AcDbEntity
  8
2
100
AcDbLine
 10
1775.557756892301
 20
3493.784147468918
 30
0.0
 11
1775.557756892301
 21
2817.929630863207
 31
0.0
  0
LINE
  5
7CD3
330
8484
100
AcDbEntity
  8
2
100
AcDbLine
 10
2055.871973650453
 20
3202.929630863208
 30
0.0
 11
1368.393278597586
 21
3202.929630863208
 31
0.0
  0
LINE
  5
7CD4
330
8484
100
AcDbEntity
  8
1
100
AcDbLine
 10
3141.557756892302
 20
4752.929630863208
 30
0.0
 11
3141.557756892304
 21
4668.96471775181
 31
0.0
  0
LINE
  5
7CD5
330
8484
100
AcDbEntity
  8
1
100
AcDbLine
 10
1866.196802780901
 20
4702.929630863208
 30
0.0
 11
3141.557756892302
 21
4702.929630863208
 31
0.0
  0
LINE
  5
7CD6
330
8484
100
AcDbEntity
  8
1
100
AcDbLine
 10
1808.557756892301
 20
4752.929630863208
 30
0.0
 11
3194.557756892301
 21
4752.929630863208
 31
0.0
  0
POINT
  5
7CD7
330
8484
100
AcDbEntity
  8
1
100
AcDbPoint
 10
2120.75747228165
 20
3927.929630863207
 30
0.0
  0
INSERT
  5
7CD8
330
8484
100
AcDbEntity
  8
1
100
AcDbBlockReference
  2
YA_N
 10
8975.636086442174
 20
-88.51158657911581
 30
0.0
 41
30.0
 42
30.0
 43
30.0
  0
ARC
  5
7CDE
330
8484
100
AcDbEntity
  8
1
100
AcDbCircle
 10
1775.557756892301
 20
3202.929630863208
 30
0.0
 40
203.5
100
AcDbArc
 50
285.603699
 51
254.39624
  0
LINE
  5
7CDF
330
8484
100
AcDbEntity
  8
1
100
AcDbLine
 10
1720.8197198923
 20
3006.929630863207
 30
0.0
 11
1830.295793892302
 21
3006.929630863207
 31
0.0
  0
ARC
  5
7CE0
330
8484
100
AcDbEntity
  8
1
100
AcDbCircle
 10
1961.557756892301
 20
3019.929630863207
 30
0.0
 40
3.0
100
AcDbArc
 50
0.0
 51
90.0
  0
ARC
  5
7CE1
330
8484
100
AcDbEntity
  8
1
100
AcDbCircle
 10
1959.5577568923
 20
3077.256291863207
 30
0.0
 40
5.000066999999999
100
AcDbArc
 50
0.0
 51
55.056335
  0
LINE
  5
7CE2
330
8484
100
AcDbEntity
  8
1
100
AcDbLine
 10
1964.5577568923
 20
3077.256291863207
 30
0.0
 11
1964.5577568923
 21
3002.929630863207
 31
0.0
  0
LINE
  5
7CE6
330
8484
100
AcDbEntity
  8
1
100
AcDbLine
 10
1879.660326892302
 20
3028.072819863208
 30
0.0
 11
1885.057756892301
 21
3007.929630863207
 31
0.0
  0
LINE
  5
7CE7
330
8484
100
AcDbEntity
  8
1
100
AcDbLine
 10
1885.057756892301
 20
3019.929630863207
 30
0.0
 11
1885.057756892301
 21
3002.929630863207
 31
0.0
  0
LINE
  5
7CE8
330
8484
100
AcDbEntity
  8
1
100
AcDbLine
 10
1888.0577568923
 20
3022.929630863207
 30
0.0
 11
1961.557756892301
 21
3022.929630863207
 31
0.0
  0
ARC
  5
7CE9
330
8484
100
AcDbEntity
  8
1
100
AcDbCircle
 10
1888.0577568923
 20
3019.929630863207
 30
0.0
 40
3.0
100
AcDbArc
 50
90.0
 51
180.0
  0
LINE
  5
7CEA
330
8484
100
AcDbEntity
  8
1
100
AcDbLine
 10
1962.421526892301
 20
3081.354923863207
 30
0.0
 11
1946.483660892301
 21
3092.491398863207
 31
0.0
  0
LINE
  5
7CEB
330
8484
100
AcDbEntity
  8
1
100
AcDbLine
 10
1586.557756892301
 20
3077.256291863207
 30
0.0
 11
1586.557756892301
 21
3002.929630863207
 31
0.0
  0
LINE
  5
7CEF
330
8484
100
AcDbEntity
  8
1
100
AcDbLine
 10
1671.454973892301
 20
3028.072941863207
 30
0.0
 11
1666.057756892301
 21
3007.929630863207
 31
0.0
  0
LINE
  5
7CF0
330
8484
100
AcDbEntity
  8
1
100
AcDbLine
 10
1666.057756892301
 20
3019.929630863207
 30
0.0
 11
1666.057756892301
 21
3002.929630863207
 31
0.0
  0
LINE
  5
7CF1
330
8484
100
AcDbEntity
  8
1
100
AcDbLine
 10
1663.057756892301
 20
3022.929630863207
 30
0.0
 11
1589.557756892301
 21
3022.929630863207
 31
0.0
  0
ARC
  5
7CF2
330
8484
100
AcDbEntity
  8
1
100
AcDbCircle
 10
1663.057756892301
 20
3019.929630863207
 30
0.0
 40
3.0
100
AcDbArc
 50
0.0
 51
90.0
  0
ARC
  5
7CF3
330
8484
100
AcDbEntity
  8
1
100
AcDbCircle
 10
1589.557756892301
 20
3019.929630863207
 30
0.0
 40
3.0
100
AcDbArc
 50
90.0
 51
180.0
  0
LINE
  5
7CF4
330
8484
100
AcDbEntity
  8
1
100
AcDbLine
 10
1588.693865892302
 20
3081.354923863207
 30
0.0
 11
1604.631731892303
 21
3092.491398863207
 31
0.0
  0
ARC
  5
7CF5
330
8484
100
AcDbEntity
  8
1
100
AcDbCircle
 10
1591.557756892301
 20
3077.256291863207
 30
0.0
 40
5.0
100
AcDbArc
 50
124.943661
 51
180.0
  0
LINE
  5
7CF6
330
8484
100
AcDbEntity
  8
1
100
AcDbLine
 10
2018.980781934911
 20
3002.929630863207
 30
0.0
 11
1845.557756892302
 21
3002.929630863207
 31
0.0
  0
LINE
  5
7CF7
330
8484
100
AcDbEntity
  8
1
100
AcDbLine
 10
2035.557756892302
 20
2942.929630863207
 30
0.0
 11
2018.980781934911
 21
3002.929630863207
 31
0.0
  0
LINE
  5
7CF8
330
8484
100
AcDbEntity
  8
1
100
AcDbLine
 10
1515.557756892301
 20
2942.929630863207
 30
0.0
 11
1531.73871343742
 21
3002.929630863207
 31
0.0
  0
LINE
  5
7CF9
330
8484
100
AcDbEntity
  8
1
100
AcDbLine
 10
1845.557756892302
 20
2992.929630863207
 30
0.0
 11
1705.557756892301
 21
2992.929630863207
 31
0.0
  0
LINE
  5
7CFB
330
8484
100
AcDbEntity
  8
1
100
AcDbLine
 10
1705.557756892301
 20
3002.929630863207
 30
0.0
 11
1705.557756892301
 21
2992.929630863207
 31
0.0
  0
LINE
  5
7CFC
330
8484
100
AcDbEntity
  8
1
100
AcDbLine
 10
1845.557756892302
 20
3002.929630863207
 30
0.0
 11
1845.557756892302
 21
2992.929630863207
 31
0.0
  0
LINE
  5
7CFF
330
8484
100
AcDbEntity
  8
1
100
AcDbLine
 10
1705.557756892301
 20
3002.929630863207
 30
0.0
 11
1531.73871343742
 21
3002.929630863207
 31
0.0
  0
INSERT
  5
7D02
330
8484
100
AcDbEntity
  8
1
100
AcDbBlockReference
  2
YA_N
 10
9977.619817870641
 20
591.719846044809
 30
0.0
 41
30.0
 42
30.0
 43
30.0
  0
CIRCLE
  5
7D08
330
8484
100
AcDbEntity
  8
1
100
AcDbCircle
 10
1775.557756892301
 20
3202.929630863208
 30
0.0
 40
107.0
  0
POINT
  5
7D0A
330
8484
100
AcDbEntity
  8
1
100
AcDbPoint
 10
3945.557756892302
 20
2817.929630863207
 30
0.0
  0
ARC
  5
7D0D
330
8484
100
AcDbEntity
  8
1
100
AcDbCircle
 10
3195.557756892303
 20
3927.929630863207
 30
0.0
 40
625.0
100
AcDbArc
 50
0.0
 51
180.0
  0
ARC
  5
7D0E
330
8484
100
AcDbEntity
  8
1
100
AcDbCircle
 10
3195.557756892303
 20
3927.929630863207
 30
0.0
 40
675.0
100
AcDbArc
 50
0.0
 51
180.0
  0
ARC
  5
7D0F
330
8484
100
AcDbEntity
  8
1
100
AcDbCircle
 10
3195.557756892303
 20
3927.929630863207
 30
0.0
 40
625.0
100
AcDbArc
 50
180.0
 51
0.0
  0
ARC
  5
7D10
330
8484
100
AcDbEntity
  8
1
100
AcDbCircle
 10
3195.557756892303
 20
3927.929630863207
 30
0.0
 40
675.0
100
AcDbArc
 50
180.0
 51
0.0
  0
CIRCLE
  5
7D13
330
8484
100
AcDbEntity
  8
1
100
AcDbCircle
 10
3195.557756892303
 20
3927.929630863207
 30
0.0
 40
254.0
  0
POINT
  5
7D17
330
8484
100
AcDbEntity
  8
1
100
AcDbPoint
 10
3945.557756892302
 20
2817.929630863207
 30
0.0
  0
ARC
  5
7D18
330
8484
100
AcDbEntity
  8
1
100
AcDbCircle
 10
3195.557756892303
 20
3927.929630863207
 30
0.0
 40
743.0
100
AcDbArc
 50
87.10309195897407
 51
94.1678363221616
  0
INSERT
  5
7D19
330
8484
100
AcDbEntity
  8
1
100
AcDbBlockReference
  2
YA_N
 10
15500.8069134681
 20
-364.421037546832
 30
0.0
  0
ARC
  5
7D1B
330
8484
100
AcDbEntity
  8
1
100
AcDbCircle
 10
3195.557756892303
 20
3927.929630863207
 30
0.0
 40
380.0
100
AcDbArc
 50
291.2876978829832
 51
122.8066865543592
  0
ARC
  5
7D1C
330
8484
100
AcDbEntity
  8
1
100
AcDbCircle
 10
1775.557756892301
 20
3202.929630863208
 30
0.0
 40
220.0
100
AcDbArc
 50
122.8066865543592
 51
291.2876978829832
  0
LINE
  5
7D1D
330
8484
100
AcDbEntity
  8
1
100
AcDbLine
 10
2989.671361856981
 20
4247.320914932386
 30
0.0
 11
1656.360370292905
 21
3387.840374271681
 31
0.0
  0
LINE
  5
7D1E
330
8484
100
AcDbEntity
  8
1
100
AcDbLine
 10
3059.69239360444
 20
4142.537652751154
 30
0.0
 11
1718.323135349777
 21
3293.335372367185
 31
0.0
  0
LINE
  5
7D1F
330
8484
100
AcDbEntity
  8
1
100
AcDbLine
 10
3289.708377012805
 20
3692.023588696152
 30
0.0
 11
1815.219632297396
 21
3103.551888690471
 31
0.0
  0
LINE
  5
7D20
330
8484
100
AcDbEntity
  8
1
100
AcDbLine
 10
3333.517203923572
 20
3573.85733460886
 30
0.0
 11
1855.429015699879
 21
2997.940406715953
 31
0.0
  0
POINT
  5
7D27
330
8484
100
AcDbEntity
  8
1
100
AcDbPoint
 10
3945.557756892302
 20
2817.929630863207
 30
0.0
  0
LINE
  5
7D2A
330
8484
100
AcDbEntity
  8
1
100
AcDbLine
 10
5492.65926290269
 20
4752.929630863208
 30
0.0
 11
7298.659262902688
 21
4752.929630863208
 31
0.0
  0
LINE
  5
7D2B
330
8484
100
AcDbEntity
  8
1
100
AcDbLine
 10
5545.659262902688
 20
4702.929630863208
 30
0.0
 11
7245.659262902688
 21
4702.929630863208
 31
0.0
  0
LINE
  5
7D2C
330
8484
100
AcDbEntity
  8
1
100
AcDbLine
 10
4092.557756892301
 20
8571.308553199742
 30
0.0
 11
4092.557756892301
 21
6871.308553199739
 31
0.0
  0
LINE
  5
7D2D
330
8484
100
AcDbEntity
  8
1
100
AcDbLine
 10
1861.557756892302
 20
8571.308553199742
 30
0.0
 11
1861.557756892302
 21
6871.308553199741
 31
0.0
  0
LINE
  5
7D2E
330
8484
100
AcDbEntity
  8
1
100
AcDbLine
 10
3141.557756892302
 20
8571.308553199742
 30
0.0
 11
3141.557756892302
 21
6871.308553199741
 31
0.0
  0
LINE
  5
7D2F
330
8484
100
AcDbEntity
  8
1
100
AcDbLine
 10
3141.557756892302
 20
8571.308553199742
 30
0.0
 11
1861.557756892302
 21
6871.308553199741
 31
0.0
  0
LINE
  5
7D30
330
8484
100
AcDbEntity
  8
1
100
AcDbLine
 10
1861.557756892302
 20
8571.308553199742
 30
0.0
 11
3141.557756892302
 21
6871.308553199741
 31
0.0
  0
LINE
  5
80E3
330
8484
100
AcDbEntity
  8
4
100
AcDbLine
 10
7400.0
 20
2000.0
 30
0.0
 11
7400.0
 21
1200.0
 31
0.0
  0
LINE
  5
80E4
330
8484
100
AcDbEntity
  8
4
100
AcDbLine
 10
4600.0
 20
2000.0
 30
0.0
 11
4600.0
 21
1200.0
 31
0.0
  0
LINE
  5
80E5
330
8484
100
AcDbEntity
  8
4
100
AcDbLine
 10
2600.0
 20
2000.0
 30
0.0
 11
2600.0
 21
1200.0
 31
0.0
  0
LINE
  5
80E8
330
8484
100
AcDbEntity
  8
4
100
AcDbLine
 10
2600.0
 20
1200.0
 30
0.0
 11
7400.0
 21
1200.0
 31
0.0
  0
LINE
  5
80E9
330
8484
100
AcDbEntity
  8
4
100
AcDbLine
 10
2600.0
 20
1600.0
 30
0.0
 11
7400.0
 21
1600.0
 31
0.0
  0
TEXT
  5
80EA
330
8484
100
AcDbEntity
  8
4
100
AcDbText
 10
2754.008323387607
 20
1726.172103466451
 30
0.0
 40
200.0
  1
機器名称
100
AcDbText
  0
TEXT
  5
80EB
330
8484
100
AcDbEntity
  8
4
100
AcDbText
 10
2745.03242409919
 20
1286.580626928043
 30
0.0
 40
200.0
  1
機器型番
100
AcDbText
  0
TEXT
  5
80EC
330
8484
100
AcDbEntity
  8
4
100
AcDbText
 10
4710.714981950659
 20
1690.287075830274
 30
0.0
 40
200.0
  1
ミツヤ多翼送風機
100
AcDbText
  0
TEXT
  5
80ED
330
8484
100
AcDbEntity
  8
4
100
AcDbText
 10
4746.617982341923
 20
1268.638337119773
 30
0.0
 40
200.0
  1
MF#8-5
100
AcDbText
  0
TEXT
  5
80EF
330
8484
100
AcDbEntity
  8
4
100
AcDbText
 10
3239.654004135525
 20
9533.715365330063
 30
0.0
 40
215.9999999999999
  1
床置ベット
100
AcDbText
  0
TEXT
  5
80F0
330
8484
100
AcDbEntity
  8
4
100
AcDbText
 10
1264.670373317785
 20
10135.52390479719
 30
0.0
 40
288.0
  1
遠心式両吸込両持多翼ファン
100
AcDbText
  0
LINE
  5
80F1
330
8484
100
AcDbEntity
  8
4
100
AcDbLine
 10
1000.0
 20
9877.635017059219
 30
0.0
 11
7400.0
 21
9877.635017059219
 31
0.0
  0
LINE
  5
80F2
330
8484
100
AcDbEntity
  8
4
100
AcDbLine
 10
1000.0
 20
10677.63501705921
 30
0.0
 11
7400.0
 21
10677.63501705921
 31
0.0
  0
LINE
  5
80F3
330
8484
100
AcDbEntity
  8
4
100
AcDbLine
 10
2600.0
 20
2000.0
 30
0.0
 11
7400.0
 21
2000.0
 31
0.0
  0
LINE
  5
80F4
330
8484
100
AcDbEntity
  8
4
100
AcDbLine
 10
1000.0
 20
10677.63501705921
 30
0.0
 11
1000.0
 21
9877.635017059219
 31
0.0
  0
TEXT
  5
80F5
330
8484
100
AcDbEntity
  8
4
100
AcDbText
 10
1496.218675164716
 20
9529.277910185374
 30
0.0
 40
215.9999999999999
  1
右回転上向
100
AcDbText
  0
TEXT
  5
80F6
330
8484
100
AcDbEntity
  8
4
100
AcDbText
 10
5875.878236997159
 20
10824.24432598123
 30
0.0
 40
224.0
  1
No.
100
AcDbText
  0
TEXT
  5
80F7
330
8484
100
AcDbEntity
  8
4
100
AcDbText
 10
5245.184250400053
 20
9533.715365330063
 30
0.0
 40
215.9999999999999
  1
縮尺：1/40
100
AcDbText
  0
LINE
  5
80F8
330
8484
100
AcDbEntity
  8
4
100
AcDbLine
 10
7400.0
 20
10677.63501705921
 30
0.0
 11
7400.0
 21
9877.635017059219
 31
0.0
  0
LINE
  5
80F9
330
8484
100
AcDbEntity
  8
4
100
AcDbLine
 10
8400.0
 20
11800.0
 30
0.0
 11
8400.0
 21
11800.0
 31
0.0
  0
LINE
  5
80FA
330
8484
100
AcDbEntity
  8
4
100
AcDbLine
 10
5762.469689439458
 20
10725.0543325016
 30
0.0
 11
5762.469689439458
 21
11146.609046199
 31
0.0
  0
LINE
  5
80FB
330
8484
100
AcDbEntity
  8
4
100
AcDbLine
 10
5762.469689439458
 20
11146.609046199
 30
0.0
 11
7400.0
 21
11146.609046199
 31
0.0
  0
LINE
  5
80FC
330
8484
100
AcDbEntity
  8
4
100
AcDbLine
 10
7400.0
 20
11146.609046199
 30
0.0
 11
7400.0
 21
10725.0543325016
 31
0.0
  0
LINE
  5
80FD
330
8484
100
AcDbEntity
  8
4
100
AcDbLine
 10
7400.0
 20
10725.0543325016
 30
0.0
 11
5762.469689439458
 21
10725.0543325016
 31
0.0
  0
LINE
  5
80FE
330
8484
100
AcDbEntity
  8
4
100
AcDbLine
 10
0.0
 20
0.0
 30
0.0
 11
0.0
 21
11800.0
 31
0.0
  0
LINE
  5
80FF
330
8484
100
AcDbEntity
  8
4
100
AcDbLine
 10
0.0
 20
11800.0
 30
0.0
 11
8400.0
 21
11800.0
 31
0.0
  0
LINE
  5
8100
330
8484
100
AcDbEntity
  8
4
100
AcDbLine
 10
8400.0
 20
11800.0
 30
0.0
 11
8400.0
 21
0.0
 31
0.0
  0
LINE
  5
8101
330
8484
100
AcDbEntity
  8
4
100
AcDbLine
 10
8400.0
 20
0.0
 30
0.0
 11
0.0
 21
0.0
 31
0.0
  0
DIMENSION
  5
8272
330
8484
100
AcDbEntity
  8
3
100
AcDbDimension
  2
*D21
 10
3195.557756892303
 20
2566.116256654357
 30
0.0
 11
2345.557756892302
 21
2666.116256654357
 31
0.0
 71
     5
 42
-1.0
  3
Standard
100
AcDbAlignedDimension
 13
1495.557756892301
 23
2817.929630863207
 33
0.0
 14
3195.557756892303
 24
2817.929630863207
 34
0.0
100
AcDbRotatedDimension
1001
ACAD
1000
DSTYLE
1002
{
1070
   172
1070
     1
1070
    40
1040
40.0
1070
   271
1070
     0
1070
   143
1040
0.039
1002
}
  0
DIMENSION
  5
827F
330
8484
100
AcDbEntity
  8
3
100
AcDbDimension
  2
*D22
 10
3945.557756892302
 20
2566.116256654357
 30
0.0
 11
3570.557756892303
 21
2666.116256654357
 31
0.0
 71
     5
 42
-1.0
  3
Standard
100
AcDbAlignedDimension
 13
3195.557756892303
 23
2817.929630863207
 33
0.0
 14
3945.557756892302
 24
2817.929630863207
 34
0.0
100
AcDbRotatedDimension
1001
ACAD
1000
DSTYLE
1002
{
1070
   172
1070
     1
1070
    40
1040
40.0
1070
   271
1070
     0
1070
   143
1040
0.039
1002
}
  0
DIMENSION
  5
828C
330
8484
100
AcDbEntity
  8
3
100
AcDbDimension
  2
*D23
 10
6395.659262902686
 20
2566.116256654357
 30
0.0
 11
5794.659262902687
 21
2666.116256654357
 31
0.0
 71
     5
 42
-1.0
  3
Standard
100
AcDbAlignedDimension
 13
5193.659262902689
 23
2817.929630863207
 33
0.0
 14
6395.659262902686
 24
2817.929630863207
 34
0.0
100
AcDbRotatedDimension
1001
ACAD
1000
DSTYLE
1002
{
1070
   172
1070
     1
1070
    40
1040
40.0
1070
   271
1070
     0
1070
   143
1040
0.039
1002
}
  0
DIMENSION
  5
8299
330
8484
100
AcDbEntity
  8
3
100
AcDbDimension
  2
*D24
 10
7313.659262902688
 20
2566.116256654357
 30
0.0
 11
6854.659262902686
 21
2666.116256654357
 31
0.0
 71
     5
 42
-1.0
  3
Standard
100
AcDbAlignedDimension
 13
6395.659262902686
 23
2817.929630863207
 33
0.0
 14
7313.659262902688
 24
2817.929630863207
 34
0.0
100
AcDbRotatedDimension
1001
ACAD
1000
DSTYLE
1002
{
1070
   172
1070
     1
1070
    40
1040
40.0
1070
   271
1070
     0
1070
   143
1040
0.039
1002
}
  0
DIMENSION
  5
82A6
330
8484
100
AcDbEntity
  8
3
100
AcDbDimension
  2
*D25
 10
4637.262805533115
 20
4752.929630863208
 30
0.0
 11
4537.262805533115
 21
3785.429630863208
 31
0.0
 71
     5
 42
-1.0
  3
Standard
100
AcDbAlignedDimension
 13
3945.557756892302
 23
2817.929630863207
 33
0.0
 14
3214.557756892301
 24
4752.929630863208
 34
0.0
 50
90.0
100
AcDbRotatedDimension
1001
ACAD
1000
DSTYLE
1002
{
1070
   172
1070
     1
1070
    40
1040
40.0
1070
   271
1070
     0
1070
   143
1040
0.039
1002
}
  0
DIMENSION
  5
851E
330
8484
100
AcDbEntity
  8
3
100
AcDbDimension
  2
*D26
 10
7245.659262902688
 20
4985.952180251301
 30
0.0
 11
6395.65926290269
 21
5085.9521802513
 31
0.0
 70
    32
 71
     5
 42
1699.999999999999
  3
IGA
100
AcDbAlignedDimension
 13
5545.659262902689
 23
4752.929630863208
 33
0.0
 14
7245.659262902688
 24
4752.929630863208
 34
0.0
100
AcDbRotatedDimension
1001
ACAD
1000
DSTYLE
1002
{
1070
    40
1040
40.0
1070
   143
1040
0.039
1070
   172
1070
     1
1070
   271
1070
     4
1070
   272
1070
     4
1070
   279
1070
     0
1070
   284
1070
     0
1070
   285
1070
     0
1070
   286
1070
     0
1070
   341
1005
849B
1070
   343
1005
849B
1070
   344
1005
849B
1002
}
  0
DIMENSION
  5
852B
330
8484
100
AcDbEntity
  8
3
100
AcDbDimension
  2
*D27
 10
6395.65926290269
 20
5238.915485110203
 30
0.0
 11
5755.65926290269
 21
5370.344056538774
 31
0.0
 70
    32
  1
(<>)
 71
     5
 42
1280.0
  3
IGA
100
AcDbAlignedDimension
 13
5115.65926290269
 23
4307.929630863208
 33
0.0
 14
6395.65926290269
 24
5145.952180251301
 34
0.0
100
AcDbRotatedDimension
1001
ACAD
1000
DSTYLE
1002
{
1070
    40
1040
40.0
1070
   143
1040
0.039
1070
   172
1070
     1
1070
   271
1070
     4
1070
   272
1070
     4
1070
   279
1070
     0
1070
   284
1070
     0
1070
   285
1070
     0
1070
   286
1070
     0
1070
   341
1005
849B
1070
   343
1005
849B
1070
   344
1005
849B
1002
}
  0
DIMENSION
  5
8538
330
8484
100
AcDbEntity
  8
3
100
AcDbDimension
  2
*D28
 10
7415.65926290269
 20
5238.915485110203
 30
0.0
 11
6905.659262902689
 21
5370.344056538774
 31
0.0
 70
    32
  1
(<>)
 71
     5
 42
1020.0
  3
IGA
100
AcDbAlignedDimension
 13
6395.65926290269
 23
5145.952180251301
 33
0.0
 14
7415.65926290269
 24
3851.929630863207
 34
0.0
100
AcDbRotatedDimension
1001
ACAD
1000
DSTYLE
1002
{
1070
    40
1040
40.0
1070
   143
1040
0.039
1070
   172
1070
     1
1070
   271
1070
     4
1070
   272
1070
     4
1070
   279
1070
     1
1070
   284
1070
     0
1070
   285
1070
     0
1070
   286
1070
     0
1070
   341
1005
849B
1070
   343
1005
849B
1070
   344
1005
849B
1002
}
  0
DIMENSION
  5
8549
330
8484
100
AcDbEntity
  8
3
100
AcDbDimension
  2
*D29
 10
7656.928887815194
 20
3302.929630863207
 30
0.0
 11
7556.928887815193
 21
3927.929630863209
 31
0.0
 70
    32
  1
\U+03C6<>
 71
     5
 42
1250.0
  3
IGA
100
AcDbAlignedDimension
 13
7245.659262902688
 23
4552.929630863207
 33
0.0
 14
7245.659262902688
 24
3302.929630863207
 34
0.0
 50
90.0
100
AcDbRotatedDimension
1001
ACAD
1000
DSTYLE
1002
{
1070
    40
1040
40.0
1070
   143
1040
0.039
1070
   172
1070
     1
1070
   271
1070
     4
1070
   272
1070
     4
1070
   279
1070
     0
1070
   284
1070
     0
1070
   285
1070
     0
1070
   286
1070
     0
1070
   341
1005
849B
1070
   343
1005
849B
1070
   344
1005
849B
1002
}
  0
DIMENSION
  5
85C9
330
8484
100
AcDbEntity
  8
3
100
AcDbDimension
  2
*D31
 10
1229.231355784722
 20
6519.308553199739
 30
0.0
 11
1129.231355784721
 21
7019.308553199741
 31
0.0
 70
    32
 71
     5
 42
1000.000000000002
  3
IGA
100
AcDbAlignedDimension
 13
1495.557756892301
 23
7519.308553199741
 33
0.0
 14
1495.557756892301
 24
6519.308553199739
 34
0.0
 50
90.0
100
AcDbRotatedDimension
1001
ACAD
1000
DSTYLE
1002
{
1070
    40
1040
40.0
1070
   143
1040
0.039
1070
   172
1070
     1
1070
   271
1070
     4
1070
   272
1070
     4
1070
   279
1070
     0
1070
   284
1070
     0
1070
   285
1070
     0
1070
   286
1070
     0
1070
   341
1005
849B
1070
   343
1005
849B
1070
   344
1005
849B
1002
}
  0
DIMENSION
  5
85D6
330
8484
100
AcDbEntity
  8
3
100
AcDbDimension
  2
*D32
 10
3945.557756892302
 20
6154.554675010087
 30
0.0
 11
2720.557756892302
 21
6254.554675010087
 31
0.0
 70
    32
 71
     5
 42
2450.000000000001
  3
IGA
100
AcDbAlignedDimension
 13
1495.557756892301
 23
6519.308553199739
 33
0.0
 14
3945.557756892302
 24
6519.308553199739
 34
0.0
100
AcDbRotatedDimension
1001
ACAD
1000
DSTYLE
1002
{
1070
    40
1040
40.0
1070
   143
1040
0.039
1070
   172
1070
     1
1070
   271
1070
     4
1070
   272
1070
     4
1070
   279
1070
     0
1070
   284
1070
     0
1070
   285
1070
     0
1070
   286
1070
     0
1070
   341
1005
849B
1070
   343
1005
849B
1070
   344
1005
849B
1002
}
  0
DIMENSION
  5
85E3
330
8484
100
AcDbEntity
  8
3
100
AcDbDimension
  2
*D33
 10
4394.573898128134
 20
8639.308553199736
 30
0.0
 11
4294.573898128134
 21
7579.308553199739
 31
0.0
 70
    32
 71
     5
 42
2119.999999999997
  3
IGA
100
AcDbAlignedDimension
 13
3945.557756892302
 23
6519.308553199739
 33
0.0
 14
3945.557756892302
 24
8639.308553199738
 34
0.0
 50
90.0
100
AcDbRotatedDimension
1001
ACAD
1000
DSTYLE
1002
{
1070
    40
1040
40.0
1070
   143
1040
0.039
1070
   172
1070
     1
1070
   271
1070
     4
1070
   272
1070
     4
1070
   279
1070
     0
1070
   284
1070
     0
1070
   285
1070
     0
1070
   286
1070
     0
1070
   341
1005
849B
1070
   343
1005
849B
1070
   344
1005
849B
1002
}
  0
DIMENSION
  5
85F0
330
8484
100
AcDbEntity
  8
3
100
AcDbDimension
  2
*D34
 10
2445.557756892303
 20
8843.944691704926
 30
0.0
 11
3195.557756892303
 21
8943.944691704926
 31
0.0
 70
    32
 71
     5
 42
1500.0
  3
IGA
100
AcDbAlignedDimension
 13
3945.557756892302
 23
8639.308553199738
 33
0.0
 14
2445.557756892303
 24
8639.308553199738
 34
0.0
100
AcDbRotatedDimension
1001
ACAD
1000
DSTYLE
1002
{
1070
    40
1040
40.0
1070
   143
1040
0.039
1070
   172
1070
     1
1070
   271
1070
     4
1070
   272
1070
     4
1070
   279
1070
     0
1070
   284
1070
     0
1070
   285
1070
     0
1070
   286
1070
     0
1070
   341
1005
849B
1070
   343
1005
849B
1070
   344
1005
849B
1002
}
  0
DIMENSION
  5
85FD
330
8484
100
AcDbEntity
  8
3
100
AcDbDimension
  2
*D35
 10
1495.557756892301
 20
8843.944691704926
 30
0.0
 11
1970.557756892302
 21
8943.944691704926
 31
0.0
 70
    32
 71
     5
 42
950.0000000000014
  3
IGA
100
AcDbAlignedDimension
 13
2445.557756892303
 23
8639.308553199738
 33
0.0
 14
1495.557756892301
 24
7519.308553199741
 34
0.0
100
AcDbRotatedDimension
1001
ACAD
1000
DSTYLE
1002
{
1070
    40
1040
40.0
1070
   143
1040
0.039
1070
   172
1070
     1
1070
   271
1070
     4
1070
   272
1070
     4
1070
   279
1070
     1
1070
   284
1070
     0
1070
   285
1070
     0
1070
   286
1070
     0
1070
   341
1005
849B
1070
   343
1005
849B
1070
   344
1005
849B
1002
}
  0
LINE
  5
860A
330
8484
100
AcDbEntity
  8
2
100
AcDbLine
 10
4184.336596394802
 20
3927.929630863207
 30
0.0
 11
1852.9898515448
 21
3927.929630863207
 31
0.0
1001
ACAD
1000
ASC_BOUNDS
1002
{
1070
    19
1002
}
  0
DIMENSION
  5
8611
330
8484
100
AcDbEntity
  8
3
100
AcDbDimension
  2
*D37
 10
4359.792441257581
 20
3927.929630863207
 30
0.0
 11
4259.79244125758
 21
3372.929630863207
 31
0.0
 70
    32
 71
     5
 42
1110.0
  3
IGA
100
AcDbAlignedDimension
 13
3945.557756892302
 23
2817.929630863207
 33
0.0
 14
4184.336596394802
 24
3927.929630863207
 34
0.0
 50
90.0
100
AcDbRotatedDimension
1001
ACAD
1000
DSTYLE
1002
{
1070
    40
1040
40.0
1070
   143
1040
0.039
1070
   172
1070
     1
1070
   271
1070
     4
1070
   272
1070
     4
1070
   279
1070
     0
1070
   284
1070
     0
1070
   285
1070
     0
1070
   286
1070
     0
1070
   341
1005
849B
1070
   343
1005
849B
1070
   344
1005
849B
1002
}
  0
DIMENSION
  5
861E
330
8484
100
AcDbEntity
  8
3
100
AcDbDimension
  2
*D38
 10
4359.792441257581
 20
4752.929630863208
 30
0.0
 11
4259.79244125758
 21
4340.429630863208
 31
0.0
 70
    32
 71
     5
 42
825.0000000000014
  3
IGA
100
AcDbAlignedDimension
 13
4184.336596394802
 23
3927.929630863207
 33
0.0
 14
3194.557756892301
 24
4752.929630863208
 34
0.0
 50
90.0
100
AcDbRotatedDimension
1001
ACAD
1000
DSTYLE
1002
{
1070
    40
1040
40.0
1070
   143
1040
0.039
1070
   172
1070
     1
1070
   271
1070
     4
1070
   272
1070
     4
1070
   279
1070
     1
1070
   284
1070
     0
1070
   285
1070
     0
1070
   286
1070
     0
1070
   341
1005
849B
1070
   343
1005
849B
1070
   344
1005
849B
1002
}
  0
DIMENSION
  5
862B
330
8484
100
AcDbEntity
  8
3
100
AcDbDimension
  2
*D39
 10
3141.557756892302
 20
5005.940663553165
 30
0.0
 11
2501.557756892302
 21
5105.940663553165
 31
0.0
 70
    32
 71
     5
 42
1280.0
  3
IGA
100
AcDbAlignedDimension
 13
1861.557756892302
 23
4752.929630863208
 33
0.0
 14
3141.557756892302
 24
4752.929630863208
 34
0.0
100
AcDbRotatedDimension
1001
ACAD
1000
DSTYLE
1002
{
1070
    40
1040
40.0
1070
   143
1040
0.039
1070
   172
1070
     1
1070
   271
1070
     4
1070
   272
1070
     4
1070
   279
1070
     0
1070
   284
1070
     0
1070
   285
1070
     0
1070
   286
1070
     0
1070
   341
1005
849B
1070
   343
1005
849B
1070
   344
1005
849B
1002
}
  0
DIMENSION
  5
8638
330
8484
100
AcDbEntity
  8
3
100
AcDbDimension
  2
*D40
 10
3195.557756892303
 20
5253.003506009694
 30
0.0
 11
2528.557756892303
 21
5353.003506009694
 31
0.0
 70
    32
 71
     5
 42
1334.0
  3
IGA
100
AcDbAlignedDimension
 13
1861.557756892302
 23
4752.929630863208
 33
0.0
 14
3195.557756892303
 24
4793.547431885436
 34
0.0
100
AcDbRotatedDimension
1001
ACAD
1000
DSTYLE
1002
{
1070
    40
1040
40.0
1070
   143
1040
0.039
1070
   172
1070
     1
1070
   271
1070
     4
1070
   272
1070
     4
1070
   279
1070
     0
1070
   284
1070
     0
1070
   285
1070
     0
1070
   286
1070
     0
1070
   341
1005
849B
1070
   343
1005
849B
1070
   344
1005
849B
1002
}
  0
DIMENSION
  5
8645
330
8484
100
AcDbEntity
  8
3
100
AcDbDimension
  2
*D41
 10
4092.557756892301
 20
5253.003506009694
 30
0.0
 11
3644.057756892302
 21
5353.003506009694
 31
0.0
 70
    32
 71
     5
 42
896.9999999999986
  3
IGA
100
AcDbAlignedDimension
 13
3195.557756892303
 23
4793.547431885436
 33
0.0
 14
4092.557756892301
 24
3836.929630863208
 34
0.0
100
AcDbRotatedDimension
1001
ACAD
1000
DSTYLE
1002
{
1070
    40
1040
40.0
1070
   143
1040
0.039
1070
   172
1070
     1
1070
   271
1070
     4
1070
   272
1070
     4
1070
   279
1070
     1
1070
   284
1070
     0
1070
   285
1070
     0
1070
   286
1070
     0
1070
   341
1005
849B
1070
   343
1005
849B
1070
   344
1005
849B
1002
}
  0
DIMENSION
  5
8652
330
8484
100
AcDbEntity
  8
3
100
AcDbDimension
  2
*D42
 10
4092.557756892301
 20
5520.79394691561
 30
0.0
 11
2794.057756892302
 21
5620.79394691561
 31
0.0
 70
    32
 71
     5
 42
2596.999999999999
  3
IGA
100
AcDbAlignedDimension
 13
1495.557756892301
 23
2942.929630863207
 33
0.0
 14
4092.557756892301
 24
3836.929630863208
 34
0.0
100
AcDbRotatedDimension
1001
ACAD
1000
DSTYLE
1002
{
1070
    40
1040
40.0
1070
   143
1040
0.039
1070
   172
1070
     1
1070
   271
1070
     4
1070
   272
1070
     4
1070
   279
1070
     0
1070
   284
1070
     0
1070
   285
1070
     0
1070
   286
1070
     0
1070
   341
1005
849B
1070
   343
1005
849B
1070
   344
1005
849B
1002
}
  0
ENDSEC
  0
SECTION
  2
OBJECTS
  0
DICTIONARY
  5
8421
330
0
100
AcDbDictionary
281
     1
  3
ACAD_CIP_PREVIOUS_PRODUCT_INFO
350
84C7
  3
ACAD_COLOR
350
8477
  3
ACAD_DETAILVIEWSTYLE
350
847E
  3
ACAD_GROUP
350
8422
  3
ACAD_LAYOUT
350
8476
  3
ACAD_MATERIAL
350
8425
  3
ACAD_MLEADERSTYLE
350
847A
  3
ACAD_MLINESTYLE
350
8473
  3
ACAD_PLOTSETTINGS
350
8475
  3
ACAD_PLOTSTYLENAME
350
8423
  3
ACAD_SCALELIST
350
8457
  3
ACAD_SECTIONVIEWSTYLE
350
847C
  3
ACAD_TABLESTYLE
350
8478
  3
ACAD_VISUALSTYLE
350
843E
  3
ACDB_RECOMPOSE_DATA
350
8661
  3
AcDbVariableDictionary
350
84D2
  3
DWGPROPS
350
8662
  0
DICTIONARY
  5
84C8
330
8469
100
AcDbDictionary
280
     1
281
     1
  3
ADSK_XREC_LAYER_RECONCILED
360
84C9
  0
DICTIONARY
  5
84CA
330
8488
100
AcDbDictionary
280
     1
281
     1
  3
ADSK_XREC_LAYER_RECONCILED
360
84CB
  0
DICTIONARY
  5
84CC
330
848B
100
AcDbDictionary
280
     1
281
     1
  3
ADSK_XREC_LAYER_RECONCILED
360
84CD
  0
DICTIONARY
  5
84CE
330
848C
100
AcDbDictionary
280
     1
281
     1
  3
ADSK_XREC_LAYER_RECONCILED
360
84CF
  0
DICTIONARY
  5
84D0
330
848D
100
AcDbDictionary
280
     1
281
     1
  3
ADSK_XREC_LAYER_RECONCILED
360
84D1
  0
DICTIONARY
  5
8546
330
8484
100
AcDbDictionary
280
     1
281
     1
  3
ACAD_SORTENTS
360
8547
  0
XRECORD
  5
84C7
102
{ACAD_REACTORS
330
8421
102
}
330
8421
100
AcDbXrecord
280
     1
300
ACDLT
300
2015
300
INVLTS_F_S
  0
DICTIONARY
  5
8477
102
{ACAD_REACTORS
330
8421
102
}
330
8421
100
AcDbDictionary
281
     1
  0
DICTIONARY
  5
847E
102
{ACAD_REACTORS
330
8421
102
}
330
8421
100
AcDbDictionary
281
     1
  3
Imperial24
350
847F
  0
DICTIONARY
  5
8422
102
{ACAD_REACTORS
330
8421
102
}
330
8421
100
AcDbDictionary
281
     1
  0
DICTIONARY
  5
8476
102
{ACAD_REACTORS
330
8421
102
}
330
8421
100
AcDbDictionary
281
     1
  3
Model
350
8487
  3
レイアウト1
350
8483
  0
DICTIONARY
  5
8425
102
{ACAD_REACTORS
330
8421
102
}
330
8421
100
AcDbDictionary
281
     1
  3
ByBlock
350
842E
  3
ByLayer
350
8426
  3
Global
350
8436
  0
DICTIONARY
  5
847A
102
{ACAD_REACTORS
330
8421
102
}
330
8421
100
AcDbDictionary
281
     1
  3
Standard
350
847B
  0
DICTIONARY
  5
8473
102
{ACAD_REACTORS
330
8421
102
}
330
8421
100
AcDbDictionary
281
     1
  3
Standard
350
8474
  0
DICTIONARY
  5
8475
102
{ACAD_REACTORS
330
8421
102
}
330
8421
100
AcDbDictionary
281
     1
  0
ACDBDICTIONARYWDFLT
  5
8423
102
{ACAD_REACTORS
330
8421
102
}
330
8421
100
AcDbDictionary
281
     1
  3
Normal
350
8424
100
AcDbDictionaryWithDefault
340
8424
  0
DICTIONARY
  5
8457
102
{ACAD_REACTORS
330
8421
102
}
330
8421
100
AcDbDictionary
281
     1
  3
A0
350
8458
  3
A1
350
8459
  3
A2
350
845A
  3
A3
350
845B
  3
A4
350
845C
  3
A5
350
845D
  3
A6
350
845E
  3
A7
350
845F
  3
A8
350
8460
  3
A9
350
8461
  3
B0
350
8462
  3
B1
350
8463
  3
B2
350
8464
  3
B3
350
8465
  3
B4
350
8466
  3
B5
350
8467
  3
B6
350
8468
  0
DICTIONARY
  5
847C
102
{ACAD_REACTORS
330
8421
102
}
330
8421
100
AcDbDictionary
281
     1
  3
Imperial24
350
847D
  0
DICTIONARY
  5
8478
102
{ACAD_REACTORS
330
8421
102
}
330
8421
100
AcDbDictionary
281
     1
  3
Standard
350
8479
  0
DICTIONARY
  5
843E
102
{ACAD_REACTORS
330
8421
102
}
330
8421
100
AcDbDictionary
281
     1
  3
2dWireframe
350
8444
  3
Basic
350
8443
  3
Brighten
350
844A
  3
ColorChange
350
844E
  3
Conceptual
350
8447
  3
Dim
350
8449
  3
EdgeColorOff
350
8456
  3
Facepattern
350
844D
  3
Flat
350
843F
  3
FlatWithEdges
350
8440
  3
Gouraud
350
8441
  3
GouraudWithEdges
350
8442
  3
Hidden
350
8446
  3
JitterOff
350
8454
  3
Linepattern
350
844C
  3
OverhangOff
350
8455
  3
Realistic
350
8448
  3
Shaded
350
8453
  3
Shaded with edges
350
8452
  3
Shades of Gray
350
844F
  3
Sketchy
350
8450
  3
Thicken
350
844B
  3
Wireframe
350
8445
  3
X-Ray
350
8451
  0
XRECORD
  5
8661
102
{ACAD_REACTORS
330
8421
102
}
330
8421
100
AcDbXrecord
280
     1
 90
        1
330
8479
  0
DICTIONARY
  5
84D2
102
{ACAD_REACTORS
330
8421
102
}
330
8421
100
AcDbDictionary
281
     1
  3
CANNOSCALE
350
84D7
  3
CMLEADERSTYLE
350
84D4
  3
CTABLESTYLE
350
84D3
  3
CVIEWDETAILSTYLE
350
84D5
  3
CVIEWSECTIONSTYLE
350
84D6
  3
DIMASSOC
350
84DA
  3
INDEXCTL
350
84D9
  3
SORTENTS
350
84D8
  3
XCLIPFRAME
350
84DB
  0
XRECORD
  5
8662
102
{ACAD_REACTORS
330
8421
102
}
330
8421
100
AcDbXrecord
280
     1
  1
DWGPROPS COOKIE
  2

  3

  4

  6

  7

  8
yasukiyo.ogawa
  9

300
=
301
=
302
=
303
=
304
=
305
=
306
=
307
=
308
=
309
=
 40
0.0278470949074074
 41
2451898.396178704
 42
2460280.714904908
  1

 90
        0
  0
XRECORD
  5
84C9
102
{ACAD_REACTORS
330
84C8
102
}
330
84C8
100
AcDbXrecord
280
     1
290
     1
  0
XRECORD
  5
84CB
102
{ACAD_REACTORS
330
84CA
102
}
330
84CA
100
AcDbXrecord
280
     1
290
     1
  0
XRECORD
  5
84CD
102
{ACAD_REACTORS
330
84CC
102
}
330
84CC
100
AcDbXrecord
280
     1
290
     1
  0
XRECORD
  5
84CF
102
{ACAD_REACTORS
330
84CE
102
}
330
84CE
100
AcDbXrecord
280
     1
290
     1
  0
XRECORD
  5
84D1
102
{ACAD_REACTORS
330
84D0
102
}
330
84D0
100
AcDbXrecord
280
     1
290
     1
  0
SORTENTSTABLE
  5
8547
102
{ACAD_REACTORS
330
8546
102
}
330
8546
100
AcDbSortentsTable
330
8484
331
7D20
  5
7D27
331
7D0F
  5
7D17
331
7CCB
  5
7CCD
331
7CBA
  5
7CBD
331
7CB0
  5
7CB2
331
80EB
  5
80EF
331
7C42
  5
7C44
331
80FC
  5
80FF
331
7C53
  5
7C55
331
7C9F
  5
7CA1
331
7C86
  5
7C88
331
7C64
  5
7C66
331
85E3
  5
85F0
331
7D10
  5
7D18
331
7CFF
  5
7D06
331
7CCC
  5
7CCE
331
7CBB
  5
7CBE
331
7CB1
  5
7CB3
331
7CA0
  5
7CA2
331
80EC
  5
80F0
331
7C43
  5
7C45
331
80FD
  5
8100
331
7C54
  5
7C56
331
7C87
  5
7C89
331
7C65
  5
7C67
331
7CDE
  5
7CE1
331
7CEF
  5
7CF2
331
7CCD
  5
7CCF
331
7CB2
  5
7CB4
331
7CA1
  5
7CA3
331
7C88
  5
7C8A
331
80ED
  5
80F1
331
80FE
  5
8101
331
7C55
  5
7C5A
331
7C44
  5
7C46
331
7C77
  5
7C79
331
7C66
  5
7C68
331
7CF0
  5
7CF3
331
7CDF
  5
7CE2
331
7CCE
  5
7CD0
331
7CBD
  5
7CBF
331
7CB3
  5
7CB5
331
7CA2
  5
7CA4
331
7C89
  5
7C8B
331
7C78
  5
7C7A
331
80FF
  5
8272
331
7C56
  5
7C5B
331
7C45
  5
7C47
331
7C67
  5
7C69
331
8100
  5
827F
331
7CB4
  5
7CB6
331
7CA3
  5
7CA5
331
7C8A
  5
7C8C
331
7C79
  5
7C7B
331
7C68
  5
7C6A
331
8272
  5
8299
331
7D02
  5
7D08
331
7CF1
  5
7CF4
331
7CE0
  5
7CE6
331
7CCF
  5
7CD2
331
828C
  5
851E
331
7D13
  5
7D19
331
7CBE
  5
7CC0
331
80EF
  5
80F2
331
7C46
  5
7C48
331
8101
  5
828C
331
80F0
  5
80F3
331
85D6
  5
85E3
331
7CF2
  5
7CF5
331
7CE1
  5
7CE7
331
7CD0
  5
7CD3
331
7CBF
  5
7CC1
331
7CB5
  5
7CB7
331
7CA4
  5
7CA6
331
7C8B
  5
7C9B
331
7C7A
  5
7C7C
331
7C69
  5
7C6B
331
7C47
  5
7C49
331
85C9
  5
85D6
331
80F1
  5
80F4
331
7C48
  5
7C4A
331
7CE2
  5
7CE8
331
7CD1
  5
7CD4
331
7CF3
  5
7CF6
331
860A
  5
7CD1
331
7CC0
  5
7CC2
331
7CB6
  5
7CB8
331
7CA5
  5
7CA7
331
7C8C
  5
7C9C
331
7C7B
  5
7C7E
331
7C6A
  5
7C6C
331
7D30
  5
80E3
331
80F2
  5
80F5
331
7C49
  5
7C4B
331
7CB7
  5
7CB9
331
7CA6
  5
7CA8
331
7C7C
  5
7C82
331
7C6B
  5
7C6D
331
7C5A
  5
7C5C
331
7D27
  5
7D2C
331
7CF4
  5
7CF7
331
7CD2
  5
7CD5
331
7CC1
  5
7CC3
331
80F3
  5
80F6
331
7C4A
  5
7C4C
331
8549
  5
85C9
331
8538
  5
8549
331
7CA7
  5
7CA9
331
7C6C
  5
7C6E
331
7C5B
  5
7C5D
331
827F
  5
82A6
331
7D17
  5
7D1B
331
7CF5
  5
7CF8
331
7CD3
  5
7CD6
331
7CC2
  5
7CC4
331
7D18
  5
7D1C
331
80E3
  5
80E8
331
80F4
  5
80F7
331
7C4B
  5
7C4D
331
82A6
  5
8538
331
7C7E
  5
7C83
331
7C6D
  5
7C6F
331
7C5C
  5
7C5E
331
7CF6
  5
7CF9
331
7CD4
  5
7CD7
331
7CA8
  5
7CAA
331
7C3A
  5
7C3A
331
7D2A
  5
7D2D
331
7D19
  5
7D1D
331
7D08
  5
7D0E
331
80E4
  5
80E9
331
80F5
  5
80F8
331
7C4C
  5
7C4E
331
85FD
  5
860A
331
7CD5
  5
7CD8
331
7CF7
  5
7CFB
331
7CE6
  5
7CE9
331
7CA9
  5
7CAB
331
7C6E
  5
7C70
331
7C5D
  5
7C5F
331
7C3B
  5
7C3B
331
7D2B
  5
7D2E
331
7CF8
  5
7CFC
331
80E5
  5
80EA
331
80F6
  5
80F9
331
7C4D
  5
7C4F
331
7CE7
  5
7CEA
331
7CD6
  5
7CDE
331
7CAA
  5
7CAC
331
7C6F
  5
7C71
331
7C5E
  5
7C60
331
7C3C
  5
7C3C
331
7D2C
  5
7D2F
331
7D1B
  5
7D1E
331
7D0A
  5
7D0F
331
7CF9
  5
7CFF
331
7CE8
  5
7CEB
331
80F7
  5
80FA
331
7C4E
  5
7C50
331
852B
  5
8548
331
7CD7
  5
7CDF
331
7CAB
  5
7CAD
331
7C70
  5
7C72
331
7C5F
  5
7C61
331
7C3D
  5
7C3D
331
7D2D
  5
7D30
331
7D1C
  5
7D1F
331
7CE9
  5
7CEF
331
7CD8
  5
7CE0
331
80F8
  5
80FB
331
7C4F
  5
7C51
331
8299
  5
852B
331
7C71
  5
7C74
331
7C60
  5
7C62
331
7CAC
  5
7CAE
331
7C9B
  5
7C9D
331
7C82
  5
7C84
331
7C3E
  5
7C3E
331
85F0
  5
85FD
331
7D2E
  5
80C7
331
7D1D
  5
7D20
331
7CFB
  5
7D02
331
7CEA
  5
7CF0
331
7CC8
  5
7CCB
331
80E8
  5
80EB
331
80F9
  5
80FC
331
7C50
  5
7C52
331
7CAD
  5
7CAF
331
7C9C
  5
7C9E
331
7C83
  5
7C85
331
7C72
  5
7C75
331
7C61
  5
7C63
331
7C3F
  5
7C3F
331
7D2F
  5
80DE
331
7D1E
  5
7D22
331
7D0D
  5
7D10
331
7CFC
  5
7D05
331
7CEB
  5
7CF1
331
7CB8
  5
7CBA
331
80E9
  5
80EC
331
80FA
  5
80FD
331
7C51
  5
7C53
331
7CAE
  5
7CB0
331
7C9D
  5
7C9F
331
7C84
  5
7C86
331
7D1F
  5
7D23
331
7D0E
  5
7D13
331
7CCA
  5
7CCC
331
7CB9
  5
7CBB
331
80EA
  5
80ED
331
80FB
  5
80FE
331
7C52
  5
7C54
331
851E
  5
8545
331
7C9E
  5
7CA0
331
7C85
  5
7C87
331
7C63
  5
7C65
331
7CAF
  5
7CB1
331
7C41
  5
7C41
  0
ACDBDETAILVIEWSTYLE
  5
847F
102
{ACAD_XDICTIONARY
360
869A
102
}
102
{ACAD_REACTORS
330
847E
102
}
330
847E
100
AcDbModelDocViewStyle
 70
     0
  3
Imperial24
290
     0
100
AcDbDetailViewStyle
 70
     0
 71
     0
 90
        3
 71
     1
340
846A
 40
0.24
340
0
 40
0.24
300

 40
0.36
280
     3
 71
     2
340
8471
 90
       25
 71
     3
340
846A
 40
0.24
 90
        1
 40
0.75
 90
        1
300
%<\AcVar ViewType \f "%tc1">% %<\AcVar ViewDetailId>%\PSCALE %<\AcVar ViewScale \f "%sn">%
 71
     4
340
8471
 90
       25
340
8471
 90
       25
280
     0
  0
LAYOUT
  5
8487
102
{ACAD_XDICTIONARY
360
869E
102
}
102
{ACAD_REACTORS
330
8476
102
}
330
8476
100
AcDbPlotSettings
  1

  2
RICOH imagio MP W3600 RPCS
  4

  6

 40
0.0
 41
0.0
 42
0.0
 43
0.0
 44
0.0
 45
0.0
 46
0.0
 47
0.0
 48
0.0
 49
0.0
140
0.0
141
0.0
142
1.0
143
1.0
 70
  1712
 72
     0
 73
     0
 74
     0
  7

 75
     0
147
1.0
148
0.0
149
0.0
100
AcDbLayout
  1
Model
 70
     1
 71
     0
 10
0.0
 20
0.0
 11
12.0
 21
9.0
 12
0.0
 22
0.0
 32
0.0
 14
0.0
 24
0.0
 34
0.0
 15
0.0
 25
0.0
 35
0.0
146
0.0
 13
0.0
 23
0.0
 33
0.0
 16
1.0
 26
0.0
 36
0.0
 17
0.0
 27
1.0
 37
0.0
 76
     0
330
8484
331
8489
  0
LAYOUT
  5
8483
102
{ACAD_XDICTIONARY
360
869C
102
}
102
{ACAD_REACTORS
330
8476
102
}
330
8476
100
AcDbPlotSettings
  1

  2
RICOH imagio MP W3600 RPCS
  4

  6

 40
0.0
 41
0.0
 42
0.0
 43
0.0
 44
0.0
 45
0.0
 46
0.0
 47
0.0
 48
0.0
 49
0.0
140
0.0
141
0.0
142
1.0
143
1.0
 70
   688
 72
     0
 73
     0
 74
     5
  7

 75
    16
147
1.0
148
0.0
149
0.0
100
AcDbLayout
  1
レイアウト1
 70
     1
 71
     1
 10
0.0
 20
0.0
 11
12.0
 21
9.0
 12
0.0
 22
0.0
 32
0.0
 14
1.000000000000000E+20
 24
1.000000000000000E+20
 34
1.000000000000000E+20
 15
-1.000000000000000E+20
 25
-1.000000000000000E+20
 35
-1.000000000000000E+20
146
0.0
 13
0.0
 23
0.0
 33
0.0
 16
1.0
 26
0.0
 36
0.0
 17
0.0
 27
1.0
 37
0.0
 76
     0
330
8480
  0
MATERIAL
  5
842E
102
{ACAD_XDICTIONARY
360
842F
102
}
102
{ACAD_REACTORS
330
8425
102
}
330
8425
100
AcDbMaterial
  1
ByBlock
 72
     0
 43
0.0208333333333333
 43
0.0
 43
0.0
 43
0.0
 43
0.0
 43
0.0208333333333333
 43
0.0
 43
0.0
 43
0.0
 43
0.0
 43
1.0
 43
0.0
 43
0.0
 43
0.0
 43
0.0
 43
1.0
 77
     0
 47
0.0208333333333333
 47
0.0
 47
0.0
 47
0.0
 47
0.0
 47
0.0208333333333333
 47
0.0
 47
0.0
 47
0.0
 47
0.0
 47
1.0
 47
0.0
 47
0.0
 47
0.0
 47
0.0
 47
1.0
171
     0
 49
0.0208333333333333
 49
0.0
 49
0.0
 49
0.0
 49
0.0
 49
0.0208333333333333
 49
0.0
 49
0.0
 49
0.0
 49
0.0
 49
1.0
 49
0.0
 49
0.0
 49
0.0
 49
0.0
 49
1.0
175
     0
142
0.0208333333333333
142
0.0
142
0.0
142
0.0
142
0.0
142
0.0208333333333333
142
0.0
142
0.0
142
0.0
142
0.0
142
1.0
142
0.0
142
0.0
142
0.0
142
0.0
142
1.0
179
     0
144
0.0208333333333333
144
0.0
144
0.0
144
0.0
144
0.0
144
0.0208333333333333
144
0.0
144
0.0
144
0.0
144
0.0
144
1.0
144
0.0
144
0.0
144
0.0
144
0.0
144
1.0
147
0.0208333333333333
147
0.0
147
0.0
147
0.0
147
0.0
147
0.0208333333333333
147
0.0
147
0.0
147
0.0
147
0.0
147
1.0
147
0.0
147
0.0
147
0.0
147
0.0
147
1.0
  0
MATERIAL
  5
8426
102
{ACAD_XDICTIONARY
360
8427
102
}
102
{ACAD_REACTORS
330
8425
102
}
330
8425
100
AcDbMaterial
  1
ByLayer
 72
     0
 43
0.0208333333333333
 43
0.0
 43
0.0
 43
0.0
 43
0.0
 43
0.0208333333333333
 43
0.0
 43
0.0
 43
0.0
 43
0.0
 43
1.0
 43
0.0
 43
0.0
 43
0.0
 43
0.0
 43
1.0
 77
     0
 47
0.0208333333333333
 47
0.0
 47
0.0
 47
0.0
 47
0.0
 47
0.0208333333333333
 47
0.0
 47
0.0
 47
0.0
 47
0.0
 47
1.0
 47
0.0
 47
0.0
 47
0.0
 47
0.0
 47
1.0
171
     0
 49
0.0208333333333333
 49
0.0
 49
0.0
 49
0.0
 49
0.0
 49
0.0208333333333333
 49
0.0
 49
0.0
 49
0.0
 49
0.0
 49
1.0
 49
0.0
 49
0.0
 49
0.0
 49
0.0
 49
1.0
175
     0
142
0.0208333333333333
142
0.0
142
0.0
142
0.0
142
0.0
142
0.0208333333333333
142
0.0
142
0.0
142
0.0
142
0.0
142
1.0
142
0.0
142
0.0
142
0.0
142
0.0
142
1.0
179
     0
144
0.0208333333333333
144
0.0
144
0.0
144
0.0
144
0.0
144
0.0208333333333333
144
0.0
144
0.0
144
0.0
144
0.0
144
1.0
144
0.0
144
0.0
144
0.0
144
0.0
144
1.0
147
0.0208333333333333
147
0.0
147
0.0
147
0.0
147
0.0
147
0.0208333333333333
147
0.0
147
0.0
147
0.0
147
0.0
147
1.0
147
0.0
147
0.0
147
0.0
147
0.0
147
1.0
  0
MATERIAL
  5
8436
102
{ACAD_XDICTIONARY
360
8437
102
}
102
{ACAD_REACTORS
330
8425
102
}
330
8425
100
AcDbMaterial
  1
Global
 72
     0
 43
0.0208333333333333
 43
0.0
 43
0.0
 43
0.0
 43
0.0
 43
0.0208333333333333
 43
0.0
 43
0.0
 43
0.0
 43
0.0
 43
1.0
 43
0.0
 43
0.0
 43
0.0
 43
0.0
 43
1.0
 77
     0
 47
0.0208333333333333
 47
0.0
 47
0.0
 47
0.0
 47
0.0
 47
0.0208333333333333
 47
0.0
 47
0.0
 47
0.0
 47
0.0
 47
1.0
 47
0.0
 47
0.0
 47
0.0
 47
0.0
 47
1.0
171
     0
 49
0.0208333333333333
 49
0.0
 49
0.0
 49
0.0
 49
0.0
 49
0.0208333333333333
 49
0.0
 49
0.0
 49
0.0
 49
0.0
 49
1.0
 49
0.0
 49
0.0
 49
0.0
 49
0.0
 49
1.0
175
     0
142
0.0208333333333333
142
0.0
142
0.0
142
0.0
142
0.0
142
0.0208333333333333
142
0.0
142
0.0
142
0.0
142
0.0
142
1.0
142
0.0
142
0.0
142
0.0
142
0.0
142
1.0
179
     0
144
0.0208333333333333
144
0.0
144
0.0
144
0.0
144
0.0
144
0.0208333333333333
144
0.0
144
0.0
144
0.0
144
0.0
144
1.0
144
0.0
144
0.0
144
0.0
144
0.0
144
1.0
147
0.0208333333333333
147
0.0
147
0.0
147
0.0
147
0.0
147
0.0208333333333333
147
0.0
147
0.0
147
0.0
147
0.0
147
1.0
147
0.0
147
0.0
147
0.0
147
0.0
147
1.0
  0
MLEADERSTYLE
  5
847B
102
{ACAD_REACTORS
330
847A
102
}
330
847A
100
AcDbMLeaderStyle
170
     2
171
     1
172
     0
 90
        2
 40
0.0
 41
0.0
173
     1
 91
-1056964608
340
846F
 92
       -2
290
     1
 42
0.09
291
     1
 43
0.36
  3
Standard
 44
0.18
300

342
846A
174
     1
178
     6
175
     1
176
     0
 93
-1056964608
 45
0.18
292
     0
297
     0
 46
0.18
 94
-1056964608
 47
1.0
 49
1.0
140
1.0
293
     1
141
0.0
294
     1
177
     0
142
1.0
295
     0
296
     0
143
0.125
1001
ACAD_MLEADERVER
1070
     2
  0
MLINESTYLE
  5
8474
102
{ACAD_REACTORS
330
8473
102
}
330
8473
100
AcDbMlineStyle
  2
STANDARD
 70
     0
  3

 62
   256
 51
90.0
 52
90.0
 71
     2
 49
0.5
 62
   256
  6
BYLAYER
 49
-0.5
 62
   256
  6
BYLAYER
  0
ACDBPLACEHOLDER
  5
8424
102
{ACAD_REACTORS
330
8423
102
}
330
8423
  0
SCALE
  5
8458
102
{ACAD_REACTORS
330
8457
102
}
330
8457
100
AcDbScale
 70
     0
300
1:1
140
1.0
141
1.0
290
     1
  0
SCALE
  5
8459
102
{ACAD_REACTORS
330
8457
102
}
330
8457
100
AcDbScale
 70
     0
300
1/128" = 1'-0"
140
0.0078125
141
12.0
290
     0
  0
SCALE
  5
845A
102
{ACAD_REACTORS
330
8457
102
}
330
8457
100
AcDbScale
 70
     0
300
1/64" = 1'-0"
140
0.015625
141
12.0
290
     0
  0
SCALE
  5
845B
102
{ACAD_REACTORS
330
8457
102
}
330
8457
100
AcDbScale
 70
     0
300
1/32" = 1'-0"
140
0.03125
141
12.0
290
     0
  0
SCALE
  5
845C
102
{ACAD_REACTORS
330
8457
102
}
330
8457
100
AcDbScale
 70
     0
300
1/16" = 1'-0"
140
0.0625
141
12.0
290
     0
  0
SCALE
  5
845D
102
{ACAD_REACTORS
330
8457
102
}
330
8457
100
AcDbScale
 70
     0
300
3/32" = 1'-0"
140
0.09375
141
12.0
290
     0
  0
SCALE
  5
845E
102
{ACAD_REACTORS
330
8457
102
}
330
8457
100
AcDbScale
 70
     0
300
1/8" = 1'-0"
140
0.125
141
12.0
290
     0
  0
SCALE
  5
845F
102
{ACAD_REACTORS
330
8457
102
}
330
8457
100
AcDbScale
 70
     0
300
3/16" = 1'-0"
140
0.1875
141
12.0
290
     0
  0
SCALE
  5
8460
102
{ACAD_REACTORS
330
8457
102
}
330
8457
100
AcDbScale
 70
     0
300
1/4" = 1'-0"
140
0.25
141
12.0
290
     0
  0
SCALE
  5
8461
102
{ACAD_REACTORS
330
8457
102
}
330
8457
100
AcDbScale
 70
     0
300
3/8" = 1'-0"
140
0.375
141
12.0
290
     0
  0
SCALE
  5
8462
102
{ACAD_REACTORS
330
8457
102
}
330
8457
100
AcDbScale
 70
     0
300
1/2" = 1'-0"
140
0.5
141
12.0
290
     0
  0
SCALE
  5
8463
102
{ACAD_REACTORS
330
8457
102
}
330
8457
100
AcDbScale
 70
     0
300
3/4" = 1'-0"
140
0.75
141
12.0
290
     0
  0
SCALE
  5
8464
102
{ACAD_REACTORS
330
8457
102
}
330
8457
100
AcDbScale
 70
     0
300
1" = 1'-0"
140
1.0
141
12.0
290
     0
  0
SCALE
  5
8465
102
{ACAD_REACTORS
330
8457
102
}
330
8457
100
AcDbScale
 70
     0
300
1-1/2" = 1'-0"
140
1.5
141
12.0
290
     0
  0
SCALE
  5
8466
102
{ACAD_REACTORS
330
8457
102
}
330
8457
100
AcDbScale
 70
     0
300
3" = 1'-0"
140
3.0
141
12.0
290
     0
  0
SCALE
  5
8467
102
{ACAD_REACTORS
330
8457
102
}
330
8457
100
AcDbScale
 70
     0
300
6" = 1'-0"
140
6.0
141
12.0
290
     0
  0
SCALE
  5
8468
102
{ACAD_REACTORS
330
8457
102
}
330
8457
100
AcDbScale
 70
     0
300
1'-0" = 1'-0"
140
12.0
141
12.0
290
     0
  0
ACDBSECTIONVIEWSTYLE
  5
847D
102
{ACAD_XDICTIONARY
360
8698
102
}
102
{ACAD_REACTORS
330
847C
102
}
330
847C
100
AcDbModelDocViewStyle
 70
     0
  3
Imperial24
290
     0
100
AcDbSectionViewStyle
 70
     0
 71
     0
 90
       78
 71
     1
340
846A
 40
0.24
340
0
340
0
 40
0.24
300
I, O, Q, S, X, Z
 40
0.48
 90
        3
 40
0.18
 90
        1
 71
     2
340
8471
 90
       25
340
8471
 90
       50
 40
0.24
 40
0.0
 40
0.24
 71
     3
340
846A
 40
0.24
 90
        1
 40
0.75
 90
        1
300
%<\AcVar ViewType \f "%tc1">% %<\AcVar ViewSectionStartId>%-%<\AcVar ViewSectionEndId>%\PSCALE %<\AcVar ViewScale \f "%sn">%
 71
     4
300
ANSI31
 40
1.0
 90
        0
290
     0
290
     0
 90
        6
 40
0.0
 40
1.570796326794896
 40
0.2617993877991494
 40
1.308996938995747
 40
-0.2617993877991494
 40
1.832595714594046
  0
TABLESTYLE
  5
8479
102
{ACAD_XDICTIONARY
360
865F
102
}
102
{ACAD_REACTORS
330
8478
102
}
330
8478
100
AcDbTableStyle
  3
Standard
 70
     0
 71
     0
 40
0.06
 41
0.06
280
     0
281
     0
  7
STANDARD
140
0.18
170
     2
 62
     0
 63
     7
283
     0
274
    -2
284
     1
 64
     0
275
    -2
285
     1
 65
     0
276
    -2
286
     1
 66
     0
277
    -2
287
     1
 67
     0
278
    -2
288
     1
 68
     0
279
    -2
289
     1
 69
     0
  7
STANDARD
140
0.25
170
     5
 62
     0
 63
     7
283
     0
274
    -2
284
     1
 64
     0
275
    -2
285
     1
 65
     0
276
    -2
286
     1
 66
     0
277
    -2
287
     1
 67
     0
278
    -2
288
     1
 68
     0
279
    -2
289
     1
 69
     0
  7
STANDARD
140
0.18
170
     5
 62
     0
 63
     7
283
     0
274
    -2
284
     1
 64
     0
275
    -2
285
     1
 65
     0
276
    -2
286
     1
 66
     0
277
    -2
287
     1
 67
     0
278
    -2
288
     1
 68
     0
279
    -2
289
     1
 69
     0
  0
VISUALSTYLE
  5
8444
102
{ACAD_XDICTIONARY
360
8670
102
}
102
{ACAD_REACTORS
330
843E
102
}
330
843E
100
AcDbVisualStyle
  2
2dWireframe
 70
     4
 71
     0
 72
     2
 73
     0
 90
        0
 40
-0.6
 41
-30.0
 62
     5
 63
     7
 74
     1
 91
        4
 64
     7
 65
   257
 75
     1
175
     1
 42
1.0
 92
        0
 66
   257
 43
1.0
 76
     1
 77
     6
 78
     2
 67
     7
 79
     5
170
     0
171
     0
290
     0
174
     0
 93
        1
 44
0.0
173
     0
291
     0
 45
0.0
1001
ACAD
1000
AcDbSavedByObjectVersion
1070
     0
  0
VISUALSTYLE
  5
8443
102
{ACAD_XDICTIONARY
360
866E
102
}
102
{ACAD_REACTORS
330
843E
102
}
330
843E
100
AcDbVisualStyle
  2
Basic
 70
     7
 71
     1
 72
     0
 73
     1
 90
        0
 40
-0.6
 41
-30.0
 62
     5
 63
     7
 74
     0
 91
        4
 64
     7
 65
   257
 75
     1
175
     1
 42
1.0
 92
        8
 66
     7
 43
1.0
 76
     1
 77
     6
 78
     2
 67
     7
 79
     5
170
     0
171
     0
290
     0
174
     0
 93
        1
 44
0.0
173
     0
291
     1
 45
0.0
1001
ACAD
1000
AcDbSavedByObjectVersion
1070
     0
  0
VISUALSTYLE
  5
844A
102
{ACAD_XDICTIONARY
360
867C
102
}
102
{ACAD_REACTORS
330
843E
102
}
330
843E
100
AcDbVisualStyle
  2
Brighten
 70
    12
 71
     2
 72
     2
 73
     0
 90
        0
 40
-0.6
 41
-30.0
 62
     5
 63
     7
 74
     1
 91
        4
 64
     7
 65
   257
 75
     1
175
     1
 42
1.0
 92
        8
 66
     7
 43
1.0
 76
     1
 77
     6
 78
     2
 67
     7
 79
     5
170
     0
171
     0
290
     0
174
     0
 93
        1
 44
50.0
173
     0
291
     1
 45
0.0
1001
ACAD
1000
AcDbSavedByObjectVersion
1070
     0
  0
VISUALSTYLE
  5
844E
102
{ACAD_XDICTIONARY
360
8684
102
}
102
{ACAD_REACTORS
330
843E
102
}
330
843E
100
AcDbVisualStyle
  2
ColorChange
 70
    16
 71
     2
 72
     2
 73
     3
 90
        0
 40
-0.6
 41
-30.0
 62
     5
 63
     8
 74
     1
 91
        4
 64
     7
 65
   257
 75
     1
175
     1
 42
1.0
 92
        8
 66
     8
 43
1.0
 76
     1
 77
     6
 78
     2
 67
     7
 79
     5
170
     0
171
     0
290
     0
174
     0
 93
        1
 44
0.0
173
     0
291
     1
 45
0.0
1001
ACAD
1000
AcDbSavedByObjectVersion
1070
     0
  0
VISUALSTYLE
  5
8447
102
{ACAD_XDICTIONARY
360
8676
102
}
102
{ACAD_REACTORS
330
843E
102
}
330
843E
100
AcDbVisualStyle
  2
Conceptual
 70
     9
 71
     3
 72
     2
 73
     0
 90
        0
 40
-0.6
 41
-30.0
 62
     5
 63
     7
 74
     2
 91
        2
 64
     7
 65
   257
 75
     1
175
     1
 42
179.0
 92
        8
 66
     7
 43
1.0
 76
     1
 77
     6
 78
     2
 67
     7
 79
     3
170
     0
171
     0
290
     0
174
     0
 93
        1
 44
0.0
173
     0
291
     0
 45
0.0
1001
ACAD
1000
AcDbSavedByObjectVersion
1070
     0
  0
VISUALSTYLE
  5
8449
102
{ACAD_XDICTIONARY
360
867A
102
}
102
{ACAD_REACTORS
330
843E
102
}
330
843E
100
AcDbVisualStyle
  2
Dim
 70
    11
 71
     2
 72
     2
 73
     0
 90
        0
 40
-0.6
 41
-30.0
 62
     5
 63
     7
 74
     1
 91
        4
 64
     7
 65
   257
 75
     1
175
     1
 42
1.0
 92
        8
 66
     7
 43
1.0
 76
     1
 77
     6
 78
     2
 67
     7
 79
     5
170
     0
171
     0
290
     0
174
     0
 93
        1
 44
-50.0
173
     0
291
     1
 45
0.0
1001
ACAD
1000
AcDbSavedByObjectVersion
1070
     0
  0
VISUALSTYLE
  5
8456
102
{ACAD_XDICTIONARY
360
8694
102
}
102
{ACAD_REACTORS
330
843E
102
}
330
843E
100
AcDbVisualStyle
  2
EdgeColorOff
 70
    22
 71
     2
 72
     2
 73
     0
 90
        0
 40
-0.6
 41
-30.0
 62
     5
 63
     7
 74
     1
 91
        4
 64
     7
 65
   257
 75
     1
175
     1
 42
1.0
 92
        8
 66
     7
 43
1.0
 76
     1
 77
     6
 78
     2
 67
     7
 79
     5
170
     0
171
     0
290
     0
174
     0
 93
        1
 44
0.0
173
     0
291
     1
 45
0.0
1001
ACAD
1000
AcDbSavedByObjectVersion
1070
     0
  0
VISUALSTYLE
  5
844D
102
{ACAD_XDICTIONARY
360
8682
102
}
102
{ACAD_REACTORS
330
843E
102
}
330
843E
100
AcDbVisualStyle
  2
Facepattern
 70
    15
 71
     2
 72
     2
 73
     0
 90
        0
 40
-0.6
 41
-30.0
 62
     5
 63
     7
 74
     1
 91
        4
 64
     7
 65
   257
 75
     1
175
     1
 42
1.0
 92
        8
 66
     7
 43
1.0
 76
     1
 77
     6
 78
     2
 67
     7
 79
     5
170
     0
171
     0
290
     0
174
     0
 93
        1
 44
0.0
173
     0
291
     1
 45
0.0
1001
ACAD
1000
AcDbSavedByObjectVersion
1070
     0
  0
VISUALSTYLE
  5
843F
102
{ACAD_XDICTIONARY
360
8666
102
}
102
{ACAD_REACTORS
330
843E
102
}
330
843E
100
AcDbVisualStyle
  2
Flat
 70
     0
 71
     2
 72
     1
 73
     1
 90
        2
 40
-0.6
 41
30.0
 62
     5
 63
     7
 74
     0
 91
        0
 64
     7
 65
   257
 75
     1
175
     1
 42
1.0
 92
        8
 66
     7
 43
1.0
 76
     1
 77
     6
 78
     2
 67
     7
 79
     5
170
     0
171
     0
290
     0
174
     0
 93
       13
 44
0.0
173
     0
291
     1
 45
0.0
1001
ACAD
1000
AcDbSavedByObjectVersion
1070
     0
  0
VISUALSTYLE
  5
8440
102
{ACAD_XDICTIONARY
360
8668
102
}
102
{ACAD_REACTORS
330
843E
102
}
330
843E
100
AcDbVisualStyle
  2
FlatWithEdges
 70
     1
 71
     2
 72
     1
 73
     1
 90
        2
 40
-0.6
 41
30.0
 62
     5
 63
     7
 74
     1
 91
        0
 64
     7
 65
   257
 75
     1
175
     1
 42
1.0
 92
        0
 66
   257
 43
1.0
 76
     1
 77
     6
 78
     2
 67
     7
 79
     5
170
     0
171
     0
290
     0
174
     0
 93
       13
 44
0.0
173
     0
291
     1
 45
0.0
1001
ACAD
1000
AcDbSavedByObjectVersion
1070
     0
  0
VISUALSTYLE
  5
8441
102
{ACAD_XDICTIONARY
360
866A
102
}
102
{ACAD_REACTORS
330
843E
102
}
330
843E
100
AcDbVisualStyle
  2
Gouraud
 70
     2
 71
     2
 72
     2
 73
     1
 90
        2
 40
-0.6
 41
30.0
 62
     5
 63
     7
 74
     0
 91
        0
 64
     7
 65
   257
 75
     1
175
     1
 42
1.0
 92
        0
 66
     7
 43
1.0
 76
     1
 77
     6
 78
     2
 67
     7
 79
     5
170
     0
171
     0
290
     0
174
     0
 93
       13
 44
0.0
173
     0
291
     1
 45
0.0
1001
ACAD
1000
AcDbSavedByObjectVersion
1070
     0
  0
VISUALSTYLE
  5
8442
102
{ACAD_XDICTIONARY
360
866C
102
}
102
{ACAD_REACTORS
330
843E
102
}
330
843E
100
AcDbVisualStyle
  2
GouraudWithEdges
 70
     3
 71
     2
 72
     2
 73
     1
 90
        2
 40
-0.6
 41
30.0
 62
     5
 63
     7
 74
     1
 91
        0
 64
     7
 65
   257
 75
     1
175
     1
 42
1.0
 92
        0
 66
   257
 43
1.0
 76
     1
 77
     6
 78
     2
 67
     7
 79
     5
170
     0
171
     0
290
     0
174
     0
 93
       13
 44
0.0
173
     0
291
     1
 45
0.0
1001
ACAD
1000
AcDbSavedByObjectVersion
1070
     0
  0
VISUALSTYLE
  5
8446
102
{ACAD_XDICTIONARY
360
8674
102
}
102
{ACAD_REACTORS
330
843E
102
}
330
843E
100
AcDbVisualStyle
  2
Hidden
 70
     6
 71
     1
 72
     2
 73
     2
 90
        0
 40
-0.6
 41
-30.0
 62
     5
 63
     7
 74
     2
 91
        2
 64
     7
 65
   257
 75
     2
175
     1
 42
40.0
 92
        0
 66
   257
 43
1.0
 76
     1
 77
     6
 78
     2
 67
     7
 79
     3
170
     0
171
     0
290
     0
174
     0
 93
        1
 44
0.0
173
     0
291
     0
 45
0.0
1001
ACAD
1000
AcDbSavedByObjectVersion
1070
     0
  0
VISUALSTYLE
  5
8454
102
{ACAD_XDICTIONARY
360
8690
102
}
102
{ACAD_REACTORS
330
843E
102
}
330
843E
100
AcDbVisualStyle
  2
JitterOff
 70
    20
 71
     2
 72
     2
 73
     0
 90
        0
 40
-0.6
 41
-30.0
 62
     5
 63
     7
 74
     1
 91
        4
 64
     7
 65
   257
 75
     1
175
     1
 42
1.0
 92
       10
 66
     7
 43
1.0
 76
     1
 77
     6
 78
     2
 67
     7
 79
     5
170
     0
171
     0
290
     0
174
     0
 93
        1
 44
0.0
173
     0
291
     1
 45
0.0
1001
ACAD
1000
AcDbSavedByObjectVersion
1070
     0
  0
VISUALSTYLE
  5
844C
102
{ACAD_XDICTIONARY
360
8680
102
}
102
{ACAD_REACTORS
330
843E
102
}
330
843E
100
AcDbVisualStyle
  2
Linepattern
 70
    14
 71
     2
 72
     2
 73
     0
 90
        0
 40
-0.6
 41
-30.0
 62
     5
 63
     7
 74
     1
 91
        4
 64
     7
 65
   257
 75
     7
175
     7
 42
1.0
 92
        8
 66
     7
 43
1.0
 76
     1
 77
     6
 78
     2
 67
     7
 79
     5
170
     0
171
     0
290
     0
174
     0
 93
        1
 44
0.0
173
     0
291
     1
 45
0.0
1001
ACAD
1000
AcDbSavedByObjectVersion
1070
     0
  0
VISUALSTYLE
  5
8455
102
{ACAD_XDICTIONARY
360
8692
102
}
102
{ACAD_REACTORS
330
843E
102
}
330
843E
100
AcDbVisualStyle
  2
OverhangOff
 70
    21
 71
     2
 72
     2
 73
     0
 90
        0
 40
-0.6
 41
-30.0
 62
     5
 63
     7
 74
     1
 91
        4
 64
     7
 65
   257
 75
     1
175
     1
 42
1.0
 92
        9
 66
     7
 43
1.0
 76
     1
 77
     6
 78
     2
 67
     7
 79
     5
170
     0
171
     0
290
     0
174
     0
 93
        1
 44
0.0
173
     0
291
     1
 45
0.0
1001
ACAD
1000
AcDbSavedByObjectVersion
1070
     0
  0
VISUALSTYLE
  5
8448
102
{ACAD_XDICTIONARY
360
8678
102
}
102
{ACAD_REACTORS
330
843E
102
}
330
843E
100
AcDbVisualStyle
  2
Realistic
 70
     8
 71
     2
 72
     3
 73
     0
 90
        2
 40
-0.6
 41
30.0
 62
     5
 63
     7
 74
     0
 91
        0
 64
     7
 65
   257
 75
     1
175
     1
 42
1.0
 92
        8
 66
   257
 43
1.0
 76
     1
 77
     6
 78
     2
 67
     7
 79
     3
170
     0
171
     0
290
     0
174
     0
 93
       13
 44
0.0
173
     0
291
     0
 45
0.0
1001
ACAD
1000
AcDbSavedByObjectVersion
1070
     0
  0
VISUALSTYLE
  5
8453
102
{ACAD_XDICTIONARY
360
868E
102
}
102
{ACAD_REACTORS
330
843E
102
}
330
843E
100
AcDbVisualStyle
  2
Shaded
 70
    27
 71
     2
 72
     2
 73
     1
 90
        2
 40
-0.6
 41
30.0
 62
     5
 63
     7
 74
     0
 91
        4
 64
     7
 65
   257
 75
     1
175
     1
 42
1.0
 92
        8
 66
   257
 43
1.0
 76
     1
 77
     6
 78
     2
 67
     8
 79
     3
170
     0
171
     0
290
     0
174
     0
 93
        5
 44
0.0
173
     0
291
     0
 45
0.0
1001
ACAD
1000
AcDbSavedByObjectVersion
1070
     0
  0
VISUALSTYLE
  5
8452
102
{ACAD_XDICTIONARY
360
868C
102
}
102
{ACAD_REACTORS
330
843E
102
}
330
843E
100
AcDbVisualStyle
  2
Shaded with edges
 70
    26
 71
     2
 72
     2
 73
     1
 90
        2
 40
-0.6
 41
30.0
 62
     5
 63
     7
 74
     1
 91
       10
 64
     7
 65
   257
 75
     2
175
     1
 42
1.0
 92
        8
 66
   257
 43
1.0
 76
     1
 77
     6
 78
     2
 67
     7
 79
     3
170
     0
171
     0
290
     0
174
     0
 93
        5
 44
0.0
173
     0
291
     0
 45
0.0
1001
ACAD
1000
AcDbSavedByObjectVersion
1070
     0
  0
VISUALSTYLE
  5
844F
102
{ACAD_XDICTIONARY
360
8686
102
}
102
{ACAD_REACTORS
330
843E
102
}
330
843E
100
AcDbVisualStyle
  2
Shades of Gray
 70
    23
 71
     2
 72
     2
 73
     3
 90
        0
 40
-0.6
 41
-30.0
 62
     5
 63
     7
 74
     2
 91
        2
 64
     7
 65
     7
 75
     1
175
     1
 42
40.0
 92
        8
 66
     7
 43
1.0
 76
     1
 77
     6
 78
     2
 67
     7
 79
     3
170
     0
171
     0
290
     0
174
     0
 93
        1
 44
0.0
173
     0
291
     0
 45
0.0
1001
ACAD
1000
AcDbSavedByObjectVersion
1070
     0
  0
VISUALSTYLE
  5
8450
102
{ACAD_XDICTIONARY
360
8688
102
}
102
{ACAD_REACTORS
330
843E
102
}
330
843E
100
AcDbVisualStyle
  2
Sketchy
 70
    24
 71
     1
 72
     2
 73
     2
 90
        0
 40
-0.6
 41
-30.0
 62
     5
 63
     7
 74
     2
 91
        2
 64
     7
 65
     7
 75
     1
175
     1
 42
40.0
 92
       11
 66
     7
 43
1.0
 76
     1
 77
     6
 78
     2
 67
     7
 79
     6
170
     0
171
     0
290
     0
174
     0
 93
        1
 44
0.0
173
     0
291
     0
 45
0.0
1001
ACAD
1000
AcDbSavedByObjectVersion
1070
     0
  0
VISUALSTYLE
  5
844B
102
{ACAD_XDICTIONARY
360
867E
102
}
102
{ACAD_REACTORS
330
843E
102
}
330
843E
100
AcDbVisualStyle
  2
Thicken
 70
    13
 71
     2
 72
     2
 73
     0
 90
        0
 40
-0.6
 41
-30.0
 62
     5
 63
     7
 74
     1
 91
        4
 64
     7
 65
   257
 75
     1
175
     1
 42
1.0
 92
       12
 66
     7
 43
1.0
 76
     1
 77
     6
 78
     2
 67
     7
 79
     5
170
     0
171
     0
290
     0
174
     0
 93
        1
 44
0.0
173
     0
291
     1
 45
0.0
1001
ACAD
1000
AcDbSavedByObjectVersion
1070
     0
  0
VISUALSTYLE
  5
8445
102
{ACAD_XDICTIONARY
360
8672
102
}
102
{ACAD_REACTORS
330
843E
102
}
330
843E
100
AcDbVisualStyle
  2
Wireframe
 70
     5
 71
     0
 72
     2
 73
     0
 90
        0
 40
-0.6
 41
-30.0
 62
     5
 63
     7
 74
     1
 91
        4
 64
     7
 65
   257
 75
     1
175
     1
 42
1.0
 92
        0
 66
   257
 43
1.0
 76
     1
 77
     6
 78
     2
 67
     7
 79
     3
170
     0
171
     0
290
     0
174
     0
 93
        1
 44
0.0
173
     0
291
     0
 45
0.0
1001
ACAD
1000
AcDbSavedByObjectVersion
1070
     0
  0
VISUALSTYLE
  5
8451
102
{ACAD_XDICTIONARY
360
868A
102
}
102
{ACAD_REACTORS
330
843E
102
}
330
843E
100
AcDbVisualStyle
  2
X-Ray
 70
    25
 71
     2
 72
     2
 73
     1
 90
        1
 40
0.5
 41
-30.0
 62
     5
 63
     7
 74
     1
 91
        0
 64
     7
 65
   257
 75
     1
175
     1
 42
1.0
 92
        8
 66
     7
 43
1.0
 76
     1
 77
     6
 78
     2
 67
     7
 79
     3
170
     0
171
     0
290
     0
174
     0
 93
       13
 44
0.0
173
     0
291
     0
 45
0.0
1001
ACAD
1000
AcDbSavedByObjectVersion
1070
     0
  0
DICTIONARYVAR
  5
84D7
102
{ACAD_REACTORS
330
84D2
102
}
330
84D2
100
DictionaryVariables
280
     0
  1
1:1
  0
DICTIONARYVAR
  5
84D4
102
{ACAD_REACTORS
330
84D2
102
}
330
84D2
100
DictionaryVariables
280
     0
  1
STANDARD
  0
DICTIONARYVAR
  5
84D3
102
{ACAD_REACTORS
330
84D2
102
}
330
84D2
100
DictionaryVariables
280
     0
  1
STANDARD
  0
DICTIONARYVAR
  5
84D5
102
{ACAD_REACTORS
330
84D2
102
}
330
84D2
100
DictionaryVariables
280
     0
  1
Imperial24
  0
DICTIONARYVAR
  5
84D6
102
{ACAD_REACTORS
330
84D2
102
}
330
84D2
100
DictionaryVariables
280
     0
  1
Imperial24
  0
DICTIONARYVAR
  5
84DA
102
{ACAD_REACTORS
330
84D2
102
}
330
84D2
100
DictionaryVariables
280
     0
  1
1
  0
DICTIONARYVAR
  5
84D9
102
{ACAD_REACTORS
330
84D2
102
}
330
84D2
100
DictionaryVariables
280
     0
  1
0
  0
DICTIONARYVAR
  5
84D8
102
{ACAD_REACTORS
330
84D2
102
}
330
84D2
100
DictionaryVariables
280
     0
  1
127
  0
DICTIONARYVAR
  5
84DB
102
{ACAD_REACTORS
330
84D2
102
}
330
84D2
100
DictionaryVariables
280
     0
  1
2
  0
DICTIONARY
  5
869A
330
847F
100
AcDbDictionary
280
     1
281
     1
  3
ACAD_XREC_ROUNDTRIP
360
869B
  0
DICTIONARY
  5
869E
330
8487
100
AcDbDictionary
280
     1
281
     1
  3
ACAD_XREC_ROUNDTRIP
360
869F
  0
DICTIONARY
  5
869C
330
8483
100
AcDbDictionary
280
     1
281
     1
  3
ACAD_XREC_ROUNDTRIP
360
869D
  0
DICTIONARY
  5
842F
330
842E
100
AcDbDictionary
280
     1
281
     1
  3
ACAD_XREC_ROUNDTRIP
360
8664
  3
BUMPTILE
360
8431
  3
DIFFUSETILE
360
8430
  3
OPACITYTILE
360
8434
  3
REFLECTIONTILE
360
8433
  3
REFRACTIONTILE
360
8435
  3
SPECULARTILE
360
8432
  0
DICTIONARY
  5
8427
330
8426
100
AcDbDictionary
280
     1
281
     1
  3
ACAD_XREC_ROUNDTRIP
360
8663
  3
BUMPTILE
360
8429
  3
DIFFUSETILE
360
8428
  3
OPACITYTILE
360
842C
  3
REFLECTIONTILE
360
842B
  3
REFRACTIONTILE
360
842D
  3
SPECULARTILE
360
842A
  0
DICTIONARY
  5
8437
330
8436
100
AcDbDictionary
280
     1
281
     1
  3
ACAD_XREC_ROUNDTRIP
360
8665
  3
BUMPTILE
360
8439
  3
DIFFUSETILE
360
8438
  3
OPACITYTILE
360
843C
  3
REFLECTIONTILE
360
843B
  3
REFRACTIONTILE
360
843D
  3
SPECULARTILE
360
843A
  0
DICTIONARY
  5
8698
330
847D
100
AcDbDictionary
280
     1
281
     1
  3
ACAD_XREC_ROUNDTRIP
360
8699
  0
DICTIONARY
  5
865F
330
8479
100
AcDbDictionary
280
     1
281
     1
  3
ACAD_ROUNDTRIP_2008_TABLESTYLE_CELLSTYLEMAP
360
8660
  3
ACAD_XREC_ROUNDTRIP
360
8696
  0
DICTIONARY
  5
8670
330
8444
100
AcDbDictionary
280
     1
281
     1
  3
ACAD_XREC_ROUNDTRIP
360
8671
  0
DICTIONARY
  5
866E
330
8443
100
AcDbDictionary
280
     1
281
     1
  3
ACAD_XREC_ROUNDTRIP
360
866F
  0
DICTIONARY
  5
867C
330
844A
100
AcDbDictionary
280
     1
281
     1
  3
ACAD_XREC_ROUNDTRIP
360
867D
  0
DICTIONARY
  5
8684
330
844E
100
AcDbDictionary
280
     1
281
     1
  3
ACAD_XREC_ROUNDTRIP
360
8685
  0
DICTIONARY
  5
8676
330
8447
100
AcDbDictionary
280
     1
281
     1
  3
ACAD_XREC_ROUNDTRIP
360
8677
  0
DICTIONARY
  5
867A
330
8449
100
AcDbDictionary
280
     1
281
     1
  3
ACAD_XREC_ROUNDTRIP
360
867B
  0
DICTIONARY
  5
8694
330
8456
100
AcDbDictionary
280
     1
281
     1
  3
ACAD_XREC_ROUNDTRIP
360
8695
  0
DICTIONARY
  5
8682
330
844D
100
AcDbDictionary
280
     1
281
     1
  3
ACAD_XREC_ROUNDTRIP
360
8683
  0
DICTIONARY
  5
8666
330
843F
100
AcDbDictionary
280
     1
281
     1
  3
ACAD_XREC_ROUNDTRIP
360
8667
  0
DICTIONARY
  5
8668
330
8440
100
AcDbDictionary
280
     1
281
     1
  3
ACAD_XREC_ROUNDTRIP
360
8669
  0
DICTIONARY
  5
866A
330
8441
100
AcDbDictionary
280
     1
281
     1
  3
ACAD_XREC_ROUNDTRIP
360
866B
  0
DICTIONARY
  5
866C
330
8442
100
AcDbDictionary
280
     1
281
     1
  3
ACAD_XREC_ROUNDTRIP
360
866D
  0
DICTIONARY
  5
8674
330
8446
100
AcDbDictionary
280
     1
281
     1
  3
ACAD_XREC_ROUNDTRIP
360
8675
  0
DICTIONARY
  5
8690
330
8454
100
AcDbDictionary
280
     1
281
     1
  3
ACAD_XREC_ROUNDTRIP
360
8691
  0
DICTIONARY
  5
8680
330
844C
100
AcDbDictionary
280
     1
281
     1
  3
ACAD_XREC_ROUNDTRIP
360
8681
  0
DICTIONARY
  5
8692
330
8455
100
AcDbDictionary
280
     1
281
     1
  3
ACAD_XREC_ROUNDTRIP
360
8693
  0
DICTIONARY
  5
8678
330
8448
100
AcDbDictionary
280
     1
281
     1
  3
ACAD_XREC_ROUNDTRIP
360
8679
  0
DICTIONARY
  5
868E
330
8453
100
AcDbDictionary
280
     1
281
     1
  3
ACAD_XREC_ROUNDTRIP
360
868F
  0
DICTIONARY
  5
868C
330
8452
100
AcDbDictionary
280
     1
281
     1
  3
ACAD_XREC_ROUNDTRIP
360
868D
  0
DICTIONARY
  5
8686
330
844F
100
AcDbDictionary
280
     1
281
     1
  3
ACAD_XREC_ROUNDTRIP
360
8687
  0
DICTIONARY
  5
8688
330
8450
100
AcDbDictionary
280
     1
281
     1
  3
ACAD_XREC_ROUNDTRIP
360
8689
  0
DICTIONARY
  5
867E
330
844B
100
AcDbDictionary
280
     1
281
     1
  3
ACAD_XREC_ROUNDTRIP
360
867F
  0
DICTIONARY
  5
8672
330
8445
100
AcDbDictionary
280
     1
281
     1
  3
ACAD_XREC_ROUNDTRIP
360
8673
  0
DICTIONARY
  5
868A
330
8451
100
AcDbDictionary
280
     1
281
     1
  3
ACAD_XREC_ROUNDTRIP
360
868B
  0
XRECORD
  5
869B
102
{ACAD_REACTORS
330
869A
102
}
330
869A
100
AcDbXrecord
280
     1
102
DISPLAYNAME
  1
Imperial24
102
FLAGS
 90
        0
  0
XRECORD
  5
869F
102
{ACAD_REACTORS
330
869E
102
}
330
869E
100
AcDbXrecord
280
     1
102
SHADEPLOT
 70
     0
102
SHADEPLOTRESLEVEL
 70
     2
102
SHADEPLOTCUSTOMDPI
 70
   300
  0
XRECORD
  5
869D
102
{ACAD_REACTORS
330
869C
102
}
330
869C
100
AcDbXrecord
280
     1
102
SHADEPLOT
 70
     0
102
SHADEPLOTRESLEVEL
 70
     2
102
SHADEPLOTCUSTOMDPI
 70
   300
  0
XRECORD
  5
8664
102
{ACAD_REACTORS
330
842F
102
}
330
842F
100
AcDbXrecord
280
     1
102
MATERIAL
148
0.0
149
0.0
149
0.0
 93
        0
 94
      127
282
     0
 72
     0
 77
     0
171
     0
175
     0
179
     0
273
     0
  0
XRECORD
  5
8431
102
{ACAD_REACTORS
330
842F
102
}
330
842F
100
AcDbXrecord
280
     1
270
     1
271
     1
  0
XRECORD
  5
8430
102
{ACAD_REACTORS
330
842F
102
}
330
842F
100
AcDbXrecord
280
     1
270
     1
271
     1
  0
XRECORD
  5
8434
102
{ACAD_REACTORS
330
842F
102
}
330
842F
100
AcDbXrecord
280
     1
270
     1
271
     1
  0
XRECORD
  5
8433
102
{ACAD_REACTORS
330
842F
102
}
330
842F
100
AcDbXrecord
280
     1
270
     1
271
     1
  0
XRECORD
  5
8435
102
{ACAD_REACTORS
330
842F
102
}
330
842F
100
AcDbXrecord
280
     1
270
     1
271
     1
  0
XRECORD
  5
8432
102
{ACAD_REACTORS
330
842F
102
}
330
842F
100
AcDbXrecord
280
     1
270
     1
271
     1
  0
XRECORD
  5
8663
102
{ACAD_REACTORS
330
8427
102
}
330
8427
100
AcDbXrecord
280
     1
102
MATERIAL
148
0.0
149
0.0
149
0.0
 93
        0
 94
      127
282
     0
 72
     0
 77
     0
171
     0
175
     0
179
     0
273
     0
  0
XRECORD
  5
8429
102
{ACAD_REACTORS
330
8427
102
}
330
8427
100
AcDbXrecord
280
     1
270
     1
271
     1
  0
XRECORD
  5
8428
102
{ACAD_REACTORS
330
8427
102
}
330
8427
100
AcDbXrecord
280
     1
270
     1
271
     1
  0
XRECORD
  5
842C
102
{ACAD_REACTORS
330
8427
102
}
330
8427
100
AcDbXrecord
280
     1
270
     1
271
     1
  0
XRECORD
  5
842B
102
{ACAD_REACTORS
330
8427
102
}
330
8427
100
AcDbXrecord
280
     1
270
     1
271
     1
  0
XRECORD
  5
842D
102
{ACAD_REACTORS
330
8427
102
}
330
8427
100
AcDbXrecord
280
     1
270
     1
271
     1
  0
XRECORD
  5
842A
102
{ACAD_REACTORS
330
8427
102
}
330
8427
100
AcDbXrecord
280
     1
270
     1
271
     1
  0
XRECORD
  5
8665
102
{ACAD_REACTORS
330
8437
102
}
330
8437
100
AcDbXrecord
280
     1
102
MATERIAL
148
0.0
149
0.0
149
0.0
 93
        0
 94
      127
282
     0
 72
     0
 77
     0
171
     0
175
     0
179
     0
273
     0
  0
XRECORD
  5
8439
102
{ACAD_REACTORS
330
8437
102
}
330
8437
100
AcDbXrecord
280
     1
270
     1
271
     1
  0
XRECORD
  5
8438
102
{ACAD_REACTORS
330
8437
102
}
330
8437
100
AcDbXrecord
280
     1
270
     1
271
     1
  0
XRECORD
  5
843C
102
{ACAD_REACTORS
330
8437
102
}
330
8437
100
AcDbXrecord
280
     1
270
     1
271
     1
  0
XRECORD
  5
843B
102
{ACAD_REACTORS
330
8437
102
}
330
8437
100
AcDbXrecord
280
     1
270
     1
271
     1
  0
XRECORD
  5
843D
102
{ACAD_REACTORS
330
8437
102
}
330
8437
100
AcDbXrecord
280
     1
270
     1
271
     1
  0
XRECORD
  5
843A
102
{ACAD_REACTORS
330
8437
102
}
330
8437
100
AcDbXrecord
280
     1
270
     1
271
     1
  0
XRECORD
  5
8699
102
{ACAD_REACTORS
330
8698
102
}
330
8698
100
AcDbXrecord
280
     1
102
DISPLAYNAME
  1
Imperial24
102
FLAGS
 90
        0
  0
CELLSTYLEMAP
  5
8660
102
{ACAD_REACTORS
330
865F
102
}
330
865F
100
AcDbCellStyleMap
 90
        3
300
CELLSTYLE
  1
TABLEFORMAT_BEGIN
 90
        5
170
     1
 91
        0
 92
    32768
 62
   257
 93
        1
300
CONTENTFORMAT
  1
CONTENTFORMAT_BEGIN
 90
        0
 91
        0
 92
      512
 93
        0
300

 40
0.0
140
1.0
 94
        5
 62
     0
340
846A
144
0.25
309
CONTENTFORMAT_END
171
     0
 94
        0
309
TABLEFORMAT_END
  1
CELLSTYLE_BEGIN
 90
        1
 91
        1
300
_TITLE
309
CELLSTYLE_END
300
CELLSTYLE
  1
TABLEFORMAT_BEGIN
 90
        5
170
     1
 91
        0
 92
        0
 62
   257
 93
        1
300
CONTENTFORMAT
  1
CONTENTFORMAT_BEGIN
 90
        0
 91
        0
 92
      512
 93
        0
300

 40
0.0
140
1.0
 94
        5
 62
     0
340
846A
144
0.18
309
CONTENTFORMAT_END
171
     0
 94
        0
309
TABLEFORMAT_END
  1
CELLSTYLE_BEGIN
 90
        2
 91
        1
300
_HEADER
309
CELLSTYLE_END
300
CELLSTYLE
  1
TABLEFORMAT_BEGIN
 90
        5
170
     1
 91
        0
 92
        0
 62
   257
 93
        1
300
CONTENTFORMAT
  1
CONTENTFORMAT_BEGIN
 90
        0
 91
        0
 92
      512
 93
        0
300

 40
0.0
140
1.0
 94
        2
 62
     0
340
846A
144
0.18
309
CONTENTFORMAT_END
171
     0
 94
        0
309
TABLEFORMAT_END
  1
CELLSTYLE_BEGIN
 90
        3
 91
        2
300
_DATA
309
CELLSTYLE_END
  0
XRECORD
  5
8696
102
{ACAD_REACTORS
330
865F
102
}
330
865F
100
AcDbXrecord
280
     1
102
ACAD_ROUNDTRIP_PRE2007_TABLESTYLE
 90
      512
 91
        0
  1

 92
      512
 93
        0
  2

 94
      512
 95
        0
  3

  0
XRECORD
  5
8671
102
{ACAD_REACTORS
330
8670
102
}
330
8670
100
AcDbXrecord
280
     1
102
RTVSPost2010Prop28
280
     1
102
RTVSPost2010PropOp28
 70
     1
102
RTVSPost2010Prop29
280
     1
102
RTVSPost2010PropOp29
 70
     1
102
RTVSPost2010Prop30
280
     0
102
RTVSPost2010PropOp30
 70
     1
102
RTVSPost2010Prop31
280
     0
102
RTVSPost2010PropOp31
 70
     1
102
RTVSPost2010Prop32
280
     0
102
RTVSPost2010PropOp32
 70
     1
102
RTVSPost2010Prop33
280
     0
102
RTVSPost2010PropOp33
 70
     1
102
RTVSPost2010Prop34
280
     0
102
RTVSPost2010PropOp34
 70
     1
102
RTVSPost2010Prop35
280
     0
102
RTVSPost2010PropOp35
 70
     1
102
RTVSPost2010Prop36
280
     0
102
RTVSPost2010PropOp36
 70
     1
102
RTVSPost2010Prop37
 90
       50
102
RTVSPost2010PropOp37
 70
     1
102
RTVSPost2010Prop38
140
0.0
102
RTVSPost2010PropOp38
 70
     1
102
RTVSPost2010Prop39
140
1.0
102
RTVSPost2010PropOp39
 70
     1
102
RTVSPost2010Prop40
 90
        0
102
RTVSPost2010PropOp40
 70
     1
102
RTVSPost2010Prop41ColorIndex
 90
       18
102
RTVSPost2010Prop41ColorRGB
 90
        0
102
RTVSPost2010PropOp41
 70
     1
102
RTVSPost2010Prop42
 90
       50
102
RTVSPost2010PropOp42
 70
     1
102
RTVSPost2010Prop43
 90
        3
102
RTVSPost2010PropOp43
 70
     1
102
RTVSPost2010Prop44ColorIndex
 90
        5
102
RTVSPost2010Prop44ColorRGB
 90
      255
102
RTVSPost2010PropOp44
 70
     1
102
RTVSPost2010Prop45
280
     0
102
RTVSPost2010PropOp45
 70
     1
102
RTVSPost2010Prop46
 90
       50
102
RTVSPost2010PropOp46
 70
     1
102
RTVSPost2010Prop47
 90
       50
102
RTVSPost2010PropOp47
 70
     1
102
RTVSPost2010Prop48
 90
       50
102
RTVSPost2010PropOp48
 70
     1
102
RTVSPost2010Prop49
280
     0
102
RTVSPost2010PropOp49
 70
     1
102
RTVSPost2010Prop50
 90
       50
102
RTVSPost2010PropOp50
 70
     1
102
RTVSPost2010Prop51ColorIndex
 90
      256
102
RTVSPost2010Prop51ColorRGB
 90
-16777216
102
RTVSPost2010PropOp51
 70
     0
102
RTVSPost2010Prop52
140
1.0
102
RTVSPost2010PropOp52
 70
     0
102
RTVSPost2010Prop53
 90
        2
102
RTVSPost2010PropOp53
 70
     1
102
RTVSPost2010Prop54
  1
strokes_ogs.tif
102
RTVSPost2010PropOp54
 70
     1
102
RTVSPost2010Prop55
280
     0
102
RTVSPost2010PropOp55
 70
     1
102
RTVSPost2010Prop56
140
1.0
102
RTVSPost2010PropOp56
 70
     1
102
RTVSPost2010Prop57
140
1.0
102
RTVSPost2010PropOp57
 70
     1
102
RTVSPropertyOp0
 70
     1
102
RTVSPropertyOp1
 70
     1
102
RTVSPropertyOp2
 70
     1
102
RTVSPropertyOp3
 70
     1
102
RTVSPropertyOp4
 70
     1
102
RTVSPropertyOp5
 70
     1
102
RTVSPropertyOp6
 70
     1
102
RTVSPropertyOp7
 70
     1
102
RTVSPropertyOp8
 70
     1
102
RTVSPropertyOp9
 70
     1
102
RTVSPropertyOp10
 70
     1
102
RTVSPropertyOp11
 70
     1
102
RTVSPropertyOp12
 70
     1
102
RTVSPropertyOp13
 70
     1
102
RTVSPropertyOp14
 70
     1
102
RTVSPropertyOp15
 70
     1
102
RTVSPropertyOp16
 70
     1
102
RTVSPropertyOp17
 70
     1
102
RTVSPropertyOp18
 70
     1
102
RTVSPropertyOp19
 70
     1
102
RTVSPropertyOp20
 70
     1
102
RTVSPropertyOp21
 70
     1
102
RTVSPropertyOp22
 70
     1
102
RTVSPropertyOp23
 70
     1
102
RTVSPropertyOp24
 70
     1
102
RTVSPropertyOp25
 70
     1
102
RTVSPropertyOp26
 70
     1
102
RTVSPropertyOp27
 70
     1
102
RTVSPropertyOp28
 70
     1
102
RTVSPropertyOp29
 70
     1
102
RTVSPropertyOp30
 70
     1
102
RTVSPropertyOp31
 70
     1
102
RTVSPropertyOp32
 70
     1
102
RTVSPropertyOp33
 70
     1
102
RTVSPropertyOp34
 70
     1
102
RTVSPropertyOp35
 70
     1
102
RTVSPropertyOp36
 70
     1
102
RTVSPropertyOp37
 70
     1
102
RTVSPropertyOp38
 70
     1
102
RTVSPropertyOp39
 70
     1
102
RTVSPropertyOp40
 70
     1
102
RTVSPropertyOp41
 70
     1
102
RTVSPropertyOp42
 70
     1
102
RTVSPropertyOp43
 70
     1
102
RTVSPropertyOp44
 70
     1
102
RTVSPropertyOp45
 70
     1
102
RTVSPropertyOp46
 70
     1
102
RTVSPropertyOp47
 70
     1
102
RTVSPropertyOp48
 70
     1
102
RTVSPropertyOp49
 70
     1
102
RTVSPropertyOp50
 70
     1
102
RTVSPropertyOp51
 70
     0
102
RTVSPropertyOp52
 70
     0
102
RTVSPropertyOp53
 70
     1
102
RTVSPropertyOp54
 70
     1
102
RTVSPropertyOp55
 70
     1
102
RTVSPropertyOp56
 70
     1
102
RTVSPropertyOp57
 70
     1
102
RTVSPropertyOp58
 70
     1
102
RTVSPropertyOp59
 70
     1
102
RTVSPropertyOp60
 70
     1
102
RTVSPropertyOp61
 70
     1
102
RTVSPropertyOp62
 70
     1
  0
XRECORD
  5
866F
102
{ACAD_REACTORS
330
866E
102
}
330
866E
100
AcDbXrecord
280
     1
102
RTVSPost2010Prop28
280
     0
102
RTVSPost2010PropOp28
 70
     1
102
RTVSPost2010Prop29
280
     1
102
RTVSPost2010PropOp29
 70
     1
102
RTVSPost2010Prop30
280
     1
102
RTVSPost2010PropOp30
 70
     1
102
RTVSPost2010Prop31
280
     0
102
RTVSPost2010PropOp31
 70
     1
102
RTVSPost2010Prop32
280
     0
102
RTVSPost2010PropOp32
 70
     1
102
RTVSPost2010Prop33
280
     0
102
RTVSPost2010PropOp33
 70
     1
102
RTVSPost2010Prop34
280
     0
102
RTVSPost2010PropOp34
 70
     1
102
RTVSPost2010Prop35
280
     0
102
RTVSPost2010PropOp35
 70
     1
102
RTVSPost2010Prop36
280
     0
102
RTVSPost2010PropOp36
 70
     1
102
RTVSPost2010Prop37
 90
       50
102
RTVSPost2010PropOp37
 70
     1
102
RTVSPost2010Prop38
140
0.0
102
RTVSPost2010PropOp38
 70
     1
102
RTVSPost2010Prop39
140
1.0
102
RTVSPost2010PropOp39
 70
     1
102
RTVSPost2010Prop40
 90
        0
102
RTVSPost2010PropOp40
 70
     1
102
RTVSPost2010Prop41ColorIndex
 90
       18
102
RTVSPost2010Prop41ColorRGB
 90
        0
102
RTVSPost2010PropOp41
 70
     1
102
RTVSPost2010Prop42
 90
       50
102
RTVSPost2010PropOp42
 70
     1
102
RTVSPost2010Prop43
 90
        3
102
RTVSPost2010PropOp43
 70
     1
102
RTVSPost2010Prop44ColorIndex
 90
        5
102
RTVSPost2010Prop44ColorRGB
 90
      255
102
RTVSPost2010PropOp44
 70
     1
102
RTVSPost2010Prop45
280
     0
102
RTVSPost2010PropOp45
 70
     1
102
RTVSPost2010Prop46
 90
       50
102
RTVSPost2010PropOp46
 70
     1
102
RTVSPost2010Prop47
 90
       50
102
RTVSPost2010PropOp47
 70
     1
102
RTVSPost2010Prop48
 90
       50
102
RTVSPost2010PropOp48
 70
     1
102
RTVSPost2010Prop49
280
     0
102
RTVSPost2010PropOp49
 70
     1
102
RTVSPost2010Prop50
 90
       50
102
RTVSPost2010PropOp50
 70
     1
102
RTVSPost2010Prop51ColorIndex
 90
      256
102
RTVSPost2010Prop51ColorRGB
 90
-16777216
102
RTVSPost2010PropOp51
 70
     0
102
RTVSPost2010Prop52
140
1.0
102
RTVSPost2010PropOp52
 70
     0
102
RTVSPost2010Prop53
 90
        2
102
RTVSPost2010PropOp53
 70
     1
102
RTVSPost2010Prop54
  1
strokes_ogs.tif
102
RTVSPost2010PropOp54
 70
     1
102
RTVSPost2010Prop55
280
     0
102
RTVSPost2010PropOp55
 70
     1
102
RTVSPost2010Prop56
140
1.0
102
RTVSPost2010PropOp56
 70
     1
102
RTVSPost2010Prop57
140
1.0
102
RTVSPost2010PropOp57
 70
     1
102
RTVSPropertyOp0
 70
     1
102
RTVSPropertyOp1
 70
     1
102
RTVSPropertyOp2
 70
     1
102
RTVSPropertyOp3
 70
     1
102
RTVSPropertyOp4
 70
     1
102
RTVSPropertyOp5
 70
     1
102
RTVSPropertyOp6
 70
     1
102
RTVSPropertyOp7
 70
     1
102
RTVSPropertyOp8
 70
     1
102
RTVSPropertyOp9
 70
     1
102
RTVSPropertyOp10
 70
     1
102
RTVSPropertyOp11
 70
     1
102
RTVSPropertyOp12
 70
     1
102
RTVSPropertyOp13
 70
     1
102
RTVSPropertyOp14
 70
     1
102
RTVSPropertyOp15
 70
     1
102
RTVSPropertyOp16
 70
     1
102
RTVSPropertyOp17
 70
     1
102
RTVSPropertyOp18
 70
     1
102
RTVSPropertyOp19
 70
     1
102
RTVSPropertyOp20
 70
     1
102
RTVSPropertyOp21
 70
     1
102
RTVSPropertyOp22
 70
     1
102
RTVSPropertyOp23
 70
     1
102
RTVSPropertyOp24
 70
     1
102
RTVSPropertyOp25
 70
     1
102
RTVSPropertyOp26
 70
     1
102
RTVSPropertyOp27
 70
     1
102
RTVSPropertyOp28
 70
     1
102
RTVSPropertyOp29
 70
     1
102
RTVSPropertyOp30
 70
     1
102
RTVSPropertyOp31
 70
     1
102
RTVSPropertyOp32
 70
     1
102
RTVSPropertyOp33
 70
     1
102
RTVSPropertyOp34
 70
     1
102
RTVSPropertyOp35
 70
     1
102
RTVSPropertyOp36
 70
     1
102
RTVSPropertyOp37
 70
     1
102
RTVSPropertyOp38
 70
     1
102
RTVSPropertyOp39
 70
     1
102
RTVSPropertyOp40
 70
     1
102
RTVSPropertyOp41
 70
     1
102
RTVSPropertyOp42
 70
     1
102
RTVSPropertyOp43
 70
     1
102
RTVSPropertyOp44
 70
     1
102
RTVSPropertyOp45
 70
     1
102
RTVSPropertyOp46
 70
     1
102
RTVSPropertyOp47
 70
     1
102
RTVSPropertyOp48
 70
     1
102
RTVSPropertyOp49
 70
     1
102
RTVSPropertyOp50
 70
     1
102
RTVSPropertyOp51
 70
     0
102
RTVSPropertyOp52
 70
     0
102
RTVSPropertyOp53
 70
     1
102
RTVSPropertyOp54
 70
     1
102
RTVSPropertyOp55
 70
     1
102
RTVSPropertyOp56
 70
     1
102
RTVSPropertyOp57
 70
     1
102
RTVSPropertyOp58
 70
     1
102
RTVSPropertyOp59
 70
     1
102
RTVSPropertyOp60
 70
     1
102
RTVSPropertyOp61
 70
     1
102
RTVSPropertyOp62
 70
     1
  0
XRECORD
  5
867D
102
{ACAD_REACTORS
330
867C
102
}
330
867C
100
AcDbXrecord
280
     1
102
RTVSPost2010Prop28
280
     0
102
RTVSPost2010PropOp28
 70
     1
102
RTVSPost2010Prop29
280
     1
102
RTVSPost2010PropOp29
 70
     1
102
RTVSPost2010Prop30
280
     1
102
RTVSPost2010PropOp30
 70
     1
102
RTVSPost2010Prop31
280
     0
102
RTVSPost2010PropOp31
 70
     1
102
RTVSPost2010Prop32
280
     0
102
RTVSPost2010PropOp32
 70
     1
102
RTVSPost2010Prop33
280
     0
102
RTVSPost2010PropOp33
 70
     1
102
RTVSPost2010Prop34
280
     0
102
RTVSPost2010PropOp34
 70
     1
102
RTVSPost2010Prop35
280
     0
102
RTVSPost2010PropOp35
 70
     1
102
RTVSPost2010Prop36
280
     0
102
RTVSPost2010PropOp36
 70
     1
102
RTVSPost2010Prop37
 90
       50
102
RTVSPost2010PropOp37
 70
     1
102
RTVSPost2010Prop38
140
0.0
102
RTVSPost2010PropOp38
 70
     1
102
RTVSPost2010Prop39
140
1.0
102
RTVSPost2010PropOp39
 70
     1
102
RTVSPost2010Prop40
 90
        0
102
RTVSPost2010PropOp40
 70
     1
102
RTVSPost2010Prop41ColorIndex
 90
       18
102
RTVSPost2010Prop41ColorRGB
 90
        0
102
RTVSPost2010PropOp41
 70
     1
102
RTVSPost2010Prop42
 90
       50
102
RTVSPost2010PropOp42
 70
     1
102
RTVSPost2010Prop43
 90
        3
102
RTVSPost2010PropOp43
 70
     1
102
RTVSPost2010Prop44ColorIndex
 90
        5
102
RTVSPost2010Prop44ColorRGB
 90
      255
102
RTVSPost2010PropOp44
 70
     1
102
RTVSPost2010Prop45
280
     0
102
RTVSPost2010PropOp45
 70
     1
102
RTVSPost2010Prop46
 90
       50
102
RTVSPost2010PropOp46
 70
     1
102
RTVSPost2010Prop47
 90
       50
102
RTVSPost2010PropOp47
 70
     1
102
RTVSPost2010Prop48
 90
       50
102
RTVSPost2010PropOp48
 70
     1
102
RTVSPost2010Prop49
280
     0
102
RTVSPost2010PropOp49
 70
     1
102
RTVSPost2010Prop50
 90
       50
102
RTVSPost2010PropOp50
 70
     1
102
RTVSPost2010Prop51ColorIndex
 90
      256
102
RTVSPost2010Prop51ColorRGB
 90
-16777216
102
RTVSPost2010PropOp51
 70
     0
102
RTVSPost2010Prop52
140
1.0
102
RTVSPost2010PropOp52
 70
     0
102
RTVSPost2010Prop53
 90
        2
102
RTVSPost2010PropOp53
 70
     1
102
RTVSPost2010Prop54
  1
strokes_ogs.tif
102
RTVSPost2010PropOp54
 70
     1
102
RTVSPost2010Prop55
280
     0
102
RTVSPost2010PropOp55
 70
     1
102
RTVSPost2010Prop56
140
1.0
102
RTVSPost2010PropOp56
 70
     1
102
RTVSPost2010Prop57
140
1.0
102
RTVSPost2010PropOp57
 70
     1
102
RTVSPropertyOp0
 70
     1
102
RTVSPropertyOp1
 70
     1
102
RTVSPropertyOp2
 70
     1
102
RTVSPropertyOp3
 70
     1
102
RTVSPropertyOp4
 70
     1
102
RTVSPropertyOp5
 70
     1
102
RTVSPropertyOp6
 70
     1
102
RTVSPropertyOp7
 70
     1
102
RTVSPropertyOp8
 70
     1
102
RTVSPropertyOp9
 70
     1
102
RTVSPropertyOp10
 70
     1
102
RTVSPropertyOp11
 70
     1
102
RTVSPropertyOp12
 70
     1
102
RTVSPropertyOp13
 70
     1
102
RTVSPropertyOp14
 70
     1
102
RTVSPropertyOp15
 70
     1
102
RTVSPropertyOp16
 70
     1
102
RTVSPropertyOp17
 70
     1
102
RTVSPropertyOp18
 70
     1
102
RTVSPropertyOp19
 70
     1
102
RTVSPropertyOp20
 70
     1
102
RTVSPropertyOp21
 70
     1
102
RTVSPropertyOp22
 70
     1
102
RTVSPropertyOp23
 70
     1
102
RTVSPropertyOp24
 70
     1
102
RTVSPropertyOp25
 70
     1
102
RTVSPropertyOp26
 70
     1
102
RTVSPropertyOp27
 70
     1
102
RTVSPropertyOp28
 70
     1
102
RTVSPropertyOp29
 70
     1
102
RTVSPropertyOp30
 70
     1
102
RTVSPropertyOp31
 70
     1
102
RTVSPropertyOp32
 70
     1
102
RTVSPropertyOp33
 70
     1
102
RTVSPropertyOp34
 70
     1
102
RTVSPropertyOp35
 70
     1
102
RTVSPropertyOp36
 70
     1
102
RTVSPropertyOp37
 70
     1
102
RTVSPropertyOp38
 70
     1
102
RTVSPropertyOp39
 70
     1
102
RTVSPropertyOp40
 70
     1
102
RTVSPropertyOp41
 70
     1
102
RTVSPropertyOp42
 70
     1
102
RTVSPropertyOp43
 70
     1
102
RTVSPropertyOp44
 70
     1
102
RTVSPropertyOp45
 70
     1
102
RTVSPropertyOp46
 70
     1
102
RTVSPropertyOp47
 70
     1
102
RTVSPropertyOp48
 70
     1
102
RTVSPropertyOp49
 70
     1
102
RTVSPropertyOp50
 70
     1
102
RTVSPropertyOp51
 70
     0
102
RTVSPropertyOp52
 70
     0
102
RTVSPropertyOp53
 70
     1
102
RTVSPropertyOp54
 70
     1
102
RTVSPropertyOp55
 70
     1
102
RTVSPropertyOp56
 70
     1
102
RTVSPropertyOp57
 70
     1
102
RTVSPropertyOp58
 70
     1
102
RTVSPropertyOp59
 70
     1
102
RTVSPropertyOp60
 70
     1
102
RTVSPropertyOp61
 70
     1
102
RTVSPropertyOp62
 70
     1
  0
XRECORD
  5
8685
102
{ACAD_REACTORS
330
8684
102
}
330
8684
100
AcDbXrecord
280
     1
102
RTVSPost2010Prop28
280
     0
102
RTVSPost2010PropOp28
 70
     1
102
RTVSPost2010Prop29
280
     1
102
RTVSPost2010PropOp29
 70
     1
102
RTVSPost2010Prop30
280
     1
102
RTVSPost2010PropOp30
 70
     1
102
RTVSPost2010Prop31
280
     0
102
RTVSPost2010PropOp31
 70
     1
102
RTVSPost2010Prop32
280
     0
102
RTVSPost2010PropOp32
 70
     1
102
RTVSPost2010Prop33
280
     0
102
RTVSPost2010PropOp33
 70
     1
102
RTVSPost2010Prop34
280
     0
102
RTVSPost2010PropOp34
 70
     1
102
RTVSPost2010Prop35
280
     0
102
RTVSPost2010PropOp35
 70
     1
102
RTVSPost2010Prop36
280
     0
102
RTVSPost2010PropOp36
 70
     1
102
RTVSPost2010Prop37
 90
       50
102
RTVSPost2010PropOp37
 70
     1
102
RTVSPost2010Prop38
140
0.0
102
RTVSPost2010PropOp38
 70
     1
102
RTVSPost2010Prop39
140
1.0
102
RTVSPost2010PropOp39
 70
     1
102
RTVSPost2010Prop40
 90
        0
102
RTVSPost2010PropOp40
 70
     1
102
RTVSPost2010Prop41ColorIndex
 90
       18
102
RTVSPost2010Prop41ColorRGB
 90
        0
102
RTVSPost2010PropOp41
 70
     1
102
RTVSPost2010Prop42
 90
       50
102
RTVSPost2010PropOp42
 70
     1
102
RTVSPost2010Prop43
 90
        3
102
RTVSPost2010PropOp43
 70
     1
102
RTVSPost2010Prop44ColorIndex
 90
        5
102
RTVSPost2010Prop44ColorRGB
 90
      255
102
RTVSPost2010PropOp44
 70
     1
102
RTVSPost2010Prop45
280
     0
102
RTVSPost2010PropOp45
 70
     1
102
RTVSPost2010Prop46
 90
       50
102
RTVSPost2010PropOp46
 70
     1
102
RTVSPost2010Prop47
 90
       50
102
RTVSPost2010PropOp47
 70
     1
102
RTVSPost2010Prop48
 90
       50
102
RTVSPost2010PropOp48
 70
     1
102
RTVSPost2010Prop49
280
     0
102
RTVSPost2010PropOp49
 70
     1
102
RTVSPost2010Prop50
 90
       50
102
RTVSPost2010PropOp50
 70
     1
102
RTVSPost2010Prop51ColorIndex
 90
      256
102
RTVSPost2010Prop51ColorRGB
 90
-16777216
102
RTVSPost2010PropOp51
 70
     0
102
RTVSPost2010Prop52
140
1.0
102
RTVSPost2010PropOp52
 70
     0
102
RTVSPost2010Prop53
 90
        2
102
RTVSPost2010PropOp53
 70
     1
102
RTVSPost2010Prop54
  1
strokes_ogs.tif
102
RTVSPost2010PropOp54
 70
     1
102
RTVSPost2010Prop55
280
     0
102
RTVSPost2010PropOp55
 70
     1
102
RTVSPost2010Prop56
140
1.0
102
RTVSPost2010PropOp56
 70
     1
102
RTVSPost2010Prop57
140
1.0
102
RTVSPost2010PropOp57
 70
     1
102
RTVSPropertyOp0
 70
     1
102
RTVSPropertyOp1
 70
     1
102
RTVSPropertyOp2
 70
     1
102
RTVSPropertyOp3
 70
     1
102
RTVSPropertyOp4
 70
     1
102
RTVSPropertyOp5
 70
     1
102
RTVSPropertyOp6
 70
     1
102
RTVSPropertyOp7
 70
     1
102
RTVSPropertyOp8
 70
     1
102
RTVSPropertyOp9
 70
     1
102
RTVSPropertyOp10
 70
     1
102
RTVSPropertyOp11
 70
     1
102
RTVSPropertyOp12
 70
     1
102
RTVSPropertyOp13
 70
     1
102
RTVSPropertyOp14
 70
     1
102
RTVSPropertyOp15
 70
     1
102
RTVSPropertyOp16
 70
     1
102
RTVSPropertyOp17
 70
     1
102
RTVSPropertyOp18
 70
     1
102
RTVSPropertyOp19
 70
     1
102
RTVSPropertyOp20
 70
     1
102
RTVSPropertyOp21
 70
     1
102
RTVSPropertyOp22
 70
     1
102
RTVSPropertyOp23
 70
     1
102
RTVSPropertyOp24
 70
     1
102
RTVSPropertyOp25
 70
     1
102
RTVSPropertyOp26
 70
     1
102
RTVSPropertyOp27
 70
     1
102
RTVSPropertyOp28
 70
     1
102
RTVSPropertyOp29
 70
     1
102
RTVSPropertyOp30
 70
     1
102
RTVSPropertyOp31
 70
     1
102
RTVSPropertyOp32
 70
     1
102
RTVSPropertyOp33
 70
     1
102
RTVSPropertyOp34
 70
     1
102
RTVSPropertyOp35
 70
     1
102
RTVSPropertyOp36
 70
     1
102
RTVSPropertyOp37
 70
     1
102
RTVSPropertyOp38
 70
     1
102
RTVSPropertyOp39
 70
     1
102
RTVSPropertyOp40
 70
     1
102
RTVSPropertyOp41
 70
     1
102
RTVSPropertyOp42
 70
     1
102
RTVSPropertyOp43
 70
     1
102
RTVSPropertyOp44
 70
     1
102
RTVSPropertyOp45
 70
     1
102
RTVSPropertyOp46
 70
     1
102
RTVSPropertyOp47
 70
     1
102
RTVSPropertyOp48
 70
     1
102
RTVSPropertyOp49
 70
     1
102
RTVSPropertyOp50
 70
     1
102
RTVSPropertyOp51
 70
     0
102
RTVSPropertyOp52
 70
     0
102
RTVSPropertyOp53
 70
     1
102
RTVSPropertyOp54
 70
     1
102
RTVSPropertyOp55
 70
     1
102
RTVSPropertyOp56
 70
     1
102
RTVSPropertyOp57
 70
     1
102
RTVSPropertyOp58
 70
     1
102
RTVSPropertyOp59
 70
     1
102
RTVSPropertyOp60
 70
     1
102
RTVSPropertyOp61
 70
     1
102
RTVSPropertyOp62
 70
     1
  0
XRECORD
  5
8677
102
{ACAD_REACTORS
330
8676
102
}
330
8676
100
AcDbXrecord
280
     1
102
RTVSPost2010Prop28
280
     0
102
RTVSPost2010PropOp28
 70
     1
102
RTVSPost2010Prop29
280
     1
102
RTVSPost2010PropOp29
 70
     1
102
RTVSPost2010Prop30
280
     1
102
RTVSPost2010PropOp30
 70
     1
102
RTVSPost2010Prop31
280
     0
102
RTVSPost2010PropOp31
 70
     1
102
RTVSPost2010Prop32
280
     0
102
RTVSPost2010PropOp32
 70
     1
102
RTVSPost2010Prop33
280
     0
102
RTVSPost2010PropOp33
 70
     1
102
RTVSPost2010Prop34
280
     0
102
RTVSPost2010PropOp34
 70
     1
102
RTVSPost2010Prop35
280
     0
102
RTVSPost2010PropOp35
 70
     1
102
RTVSPost2010Prop36
280
     0
102
RTVSPost2010PropOp36
 70
     1
102
RTVSPost2010Prop37
 90
       50
102
RTVSPost2010PropOp37
 70
     1
102
RTVSPost2010Prop38
140
0.0
102
RTVSPost2010PropOp38
 70
     1
102
RTVSPost2010Prop39
140
1.0
102
RTVSPost2010PropOp39
 70
     1
102
RTVSPost2010Prop40
 90
        0
102
RTVSPost2010PropOp40
 70
     1
102
RTVSPost2010Prop41ColorIndex
 90
       18
102
RTVSPost2010Prop41ColorRGB
 90
        0
102
RTVSPost2010PropOp41
 70
     1
102
RTVSPost2010Prop42
 90
       50
102
RTVSPost2010PropOp42
 70
     1
102
RTVSPost2010Prop43
 90
        3
102
RTVSPost2010PropOp43
 70
     1
102
RTVSPost2010Prop44ColorIndex
 90
        5
102
RTVSPost2010Prop44ColorRGB
 90
      255
102
RTVSPost2010PropOp44
 70
     1
102
RTVSPost2010Prop45
280
     0
102
RTVSPost2010PropOp45
 70
     1
102
RTVSPost2010Prop46
 90
       50
102
RTVSPost2010PropOp46
 70
     1
102
RTVSPost2010Prop47
 90
       50
102
RTVSPost2010PropOp47
 70
     1
102
RTVSPost2010Prop48
 90
       50
102
RTVSPost2010PropOp48
 70
     1
102
RTVSPost2010Prop49
280
     0
102
RTVSPost2010PropOp49
 70
     1
102
RTVSPost2010Prop50
 90
       50
102
RTVSPost2010PropOp50
 70
     1
102
RTVSPost2010Prop51ColorIndex
 90
      256
102
RTVSPost2010Prop51ColorRGB
 90
-16777216
102
RTVSPost2010PropOp51
 70
     0
102
RTVSPost2010Prop52
140
1.0
102
RTVSPost2010PropOp52
 70
     0
102
RTVSPost2010Prop53
 90
        2
102
RTVSPost2010PropOp53
 70
     1
102
RTVSPost2010Prop54
  1
strokes_ogs.tif
102
RTVSPost2010PropOp54
 70
     1
102
RTVSPost2010Prop55
280
     0
102
RTVSPost2010PropOp55
 70
     1
102
RTVSPost2010Prop56
140
1.0
102
RTVSPost2010PropOp56
 70
     1
102
RTVSPost2010Prop57
140
1.0
102
RTVSPost2010PropOp57
 70
     1
102
RTVSPropertyOp0
 70
     1
102
RTVSPropertyOp1
 70
     1
102
RTVSPropertyOp2
 70
     1
102
RTVSPropertyOp3
 70
     1
102
RTVSPropertyOp4
 70
     1
102
RTVSPropertyOp5
 70
     1
102
RTVSPropertyOp6
 70
     1
102
RTVSPropertyOp7
 70
     1
102
RTVSPropertyOp8
 70
     1
102
RTVSPropertyOp9
 70
     1
102
RTVSPropertyOp10
 70
     1
102
RTVSPropertyOp11
 70
     1
102
RTVSPropertyOp12
 70
     1
102
RTVSPropertyOp13
 70
     1
102
RTVSPropertyOp14
 70
     1
102
RTVSPropertyOp15
 70
     1
102
RTVSPropertyOp16
 70
     1
102
RTVSPropertyOp17
 70
     1
102
RTVSPropertyOp18
 70
     1
102
RTVSPropertyOp19
 70
     1
102
RTVSPropertyOp20
 70
     1
102
RTVSPropertyOp21
 70
     1
102
RTVSPropertyOp22
 70
     1
102
RTVSPropertyOp23
 70
     1
102
RTVSPropertyOp24
 70
     1
102
RTVSPropertyOp25
 70
     1
102
RTVSPropertyOp26
 70
     1
102
RTVSPropertyOp27
 70
     1
102
RTVSPropertyOp28
 70
     1
102
RTVSPropertyOp29
 70
     1
102
RTVSPropertyOp30
 70
     1
102
RTVSPropertyOp31
 70
     1
102
RTVSPropertyOp32
 70
     1
102
RTVSPropertyOp33
 70
     1
102
RTVSPropertyOp34
 70
     1
102
RTVSPropertyOp35
 70
     1
102
RTVSPropertyOp36
 70
     1
102
RTVSPropertyOp37
 70
     1
102
RTVSPropertyOp38
 70
     1
102
RTVSPropertyOp39
 70
     1
102
RTVSPropertyOp40
 70
     1
102
RTVSPropertyOp41
 70
     1
102
RTVSPropertyOp42
 70
     1
102
RTVSPropertyOp43
 70
     1
102
RTVSPropertyOp44
 70
     1
102
RTVSPropertyOp45
 70
     1
102
RTVSPropertyOp46
 70
     1
102
RTVSPropertyOp47
 70
     1
102
RTVSPropertyOp48
 70
     1
102
RTVSPropertyOp49
 70
     1
102
RTVSPropertyOp50
 70
     1
102
RTVSPropertyOp51
 70
     0
102
RTVSPropertyOp52
 70
     0
102
RTVSPropertyOp53
 70
     1
102
RTVSPropertyOp54
 70
     1
102
RTVSPropertyOp55
 70
     1
102
RTVSPropertyOp56
 70
     1
102
RTVSPropertyOp57
 70
     1
102
RTVSPropertyOp58
 70
     1
102
RTVSPropertyOp59
 70
     1
102
RTVSPropertyOp60
 70
     1
102
RTVSPropertyOp61
 70
     1
102
RTVSPropertyOp62
 70
     1
  0
XRECORD
  5
867B
102
{ACAD_REACTORS
330
867A
102
}
330
867A
100
AcDbXrecord
280
     1
102
RTVSPost2010Prop28
280
     0
102
RTVSPost2010PropOp28
 70
     1
102
RTVSPost2010Prop29
280
     1
102
RTVSPost2010PropOp29
 70
     1
102
RTVSPost2010Prop30
280
     1
102
RTVSPost2010PropOp30
 70
     1
102
RTVSPost2010Prop31
280
     0
102
RTVSPost2010PropOp31
 70
     1
102
RTVSPost2010Prop32
280
     0
102
RTVSPost2010PropOp32
 70
     1
102
RTVSPost2010Prop33
280
     0
102
RTVSPost2010PropOp33
 70
     1
102
RTVSPost2010Prop34
280
     0
102
RTVSPost2010PropOp34
 70
     1
102
RTVSPost2010Prop35
280
     0
102
RTVSPost2010PropOp35
 70
     1
102
RTVSPost2010Prop36
280
     0
102
RTVSPost2010PropOp36
 70
     1
102
RTVSPost2010Prop37
 90
       50
102
RTVSPost2010PropOp37
 70
     1
102
RTVSPost2010Prop38
140
0.0
102
RTVSPost2010PropOp38
 70
     1
102
RTVSPost2010Prop39
140
1.0
102
RTVSPost2010PropOp39
 70
     1
102
RTVSPost2010Prop40
 90
        0
102
RTVSPost2010PropOp40
 70
     1
102
RTVSPost2010Prop41ColorIndex
 90
       18
102
RTVSPost2010Prop41ColorRGB
 90
        0
102
RTVSPost2010PropOp41
 70
     1
102
RTVSPost2010Prop42
 90
       50
102
RTVSPost2010PropOp42
 70
     1
102
RTVSPost2010Prop43
 90
        3
102
RTVSPost2010PropOp43
 70
     1
102
RTVSPost2010Prop44ColorIndex
 90
        5
102
RTVSPost2010Prop44ColorRGB
 90
      255
102
RTVSPost2010PropOp44
 70
     1
102
RTVSPost2010Prop45
280
     0
102
RTVSPost2010PropOp45
 70
     1
102
RTVSPost2010Prop46
 90
       50
102
RTVSPost2010PropOp46
 70
     1
102
RTVSPost2010Prop47
 90
       50
102
RTVSPost2010PropOp47
 70
     1
102
RTVSPost2010Prop48
 90
       50
102
RTVSPost2010PropOp48
 70
     1
102
RTVSPost2010Prop49
280
     0
102
RTVSPost2010PropOp49
 70
     1
102
RTVSPost2010Prop50
 90
       50
102
RTVSPost2010PropOp50
 70
     1
102
RTVSPost2010Prop51ColorIndex
 90
      256
102
RTVSPost2010Prop51ColorRGB
 90
-16777216
102
RTVSPost2010PropOp51
 70
     0
102
RTVSPost2010Prop52
140
1.0
102
RTVSPost2010PropOp52
 70
     0
102
RTVSPost2010Prop53
 90
        2
102
RTVSPost2010PropOp53
 70
     1
102
RTVSPost2010Prop54
  1
strokes_ogs.tif
102
RTVSPost2010PropOp54
 70
     1
102
RTVSPost2010Prop55
280
     0
102
RTVSPost2010PropOp55
 70
     1
102
RTVSPost2010Prop56
140
1.0
102
RTVSPost2010PropOp56
 70
     1
102
RTVSPost2010Prop57
140
1.0
102
RTVSPost2010PropOp57
 70
     1
102
RTVSPropertyOp0
 70
     1
102
RTVSPropertyOp1
 70
     1
102
RTVSPropertyOp2
 70
     1
102
RTVSPropertyOp3
 70
     1
102
RTVSPropertyOp4
 70
     1
102
RTVSPropertyOp5
 70
     1
102
RTVSPropertyOp6
 70
     1
102
RTVSPropertyOp7
 70
     1
102
RTVSPropertyOp8
 70
     1
102
RTVSPropertyOp9
 70
     1
102
RTVSPropertyOp10
 70
     1
102
RTVSPropertyOp11
 70
     1
102
RTVSPropertyOp12
 70
     1
102
RTVSPropertyOp13
 70
     1
102
RTVSPropertyOp14
 70
     1
102
RTVSPropertyOp15
 70
     1
102
RTVSPropertyOp16
 70
     1
102
RTVSPropertyOp17
 70
     1
102
RTVSPropertyOp18
 70
     1
102
RTVSPropertyOp19
 70
     1
102
RTVSPropertyOp20
 70
     1
102
RTVSPropertyOp21
 70
     1
102
RTVSPropertyOp22
 70
     1
102
RTVSPropertyOp23
 70
     1
102
RTVSPropertyOp24
 70
     1
102
RTVSPropertyOp25
 70
     1
102
RTVSPropertyOp26
 70
     1
102
RTVSPropertyOp27
 70
     1
102
RTVSPropertyOp28
 70
     1
102
RTVSPropertyOp29
 70
     1
102
RTVSPropertyOp30
 70
     1
102
RTVSPropertyOp31
 70
     1
102
RTVSPropertyOp32
 70
     1
102
RTVSPropertyOp33
 70
     1
102
RTVSPropertyOp34
 70
     1
102
RTVSPropertyOp35
 70
     1
102
RTVSPropertyOp36
 70
     1
102
RTVSPropertyOp37
 70
     1
102
RTVSPropertyOp38
 70
     1
102
RTVSPropertyOp39
 70
     1
102
RTVSPropertyOp40
 70
     1
102
RTVSPropertyOp41
 70
     1
102
RTVSPropertyOp42
 70
     1
102
RTVSPropertyOp43
 70
     1
102
RTVSPropertyOp44
 70
     1
102
RTVSPropertyOp45
 70
     1
102
RTVSPropertyOp46
 70
     1
102
RTVSPropertyOp47
 70
     1
102
RTVSPropertyOp48
 70
     1
102
RTVSPropertyOp49
 70
     1
102
RTVSPropertyOp50
 70
     1
102
RTVSPropertyOp51
 70
     0
102
RTVSPropertyOp52
 70
     0
102
RTVSPropertyOp53
 70
     1
102
RTVSPropertyOp54
 70
     1
102
RTVSPropertyOp55
 70
     1
102
RTVSPropertyOp56
 70
     1
102
RTVSPropertyOp57
 70
     1
102
RTVSPropertyOp58
 70
     1
102
RTVSPropertyOp59
 70
     1
102
RTVSPropertyOp60
 70
     1
102
RTVSPropertyOp61
 70
     1
102
RTVSPropertyOp62
 70
     1
  0
XRECORD
  5
8695
102
{ACAD_REACTORS
330
8694
102
}
330
8694
100
AcDbXrecord
280
     1
102
RTVSPost2010Prop28
280
     0
102
RTVSPost2010PropOp28
 70
     1
102
RTVSPost2010Prop29
280
     1
102
RTVSPost2010PropOp29
 70
     1
102
RTVSPost2010Prop30
280
     1
102
RTVSPost2010PropOp30
 70
     1
102
RTVSPost2010Prop31
280
     0
102
RTVSPost2010PropOp31
 70
     1
102
RTVSPost2010Prop32
280
     0
102
RTVSPost2010PropOp32
 70
     1
102
RTVSPost2010Prop33
280
     0
102
RTVSPost2010PropOp33
 70
     1
102
RTVSPost2010Prop34
280
     0
102
RTVSPost2010PropOp34
 70
     1
102
RTVSPost2010Prop35
280
     0
102
RTVSPost2010PropOp35
 70
     1
102
RTVSPost2010Prop36
280
     0
102
RTVSPost2010PropOp36
 70
     1
102
RTVSPost2010Prop37
 90
       50
102
RTVSPost2010PropOp37
 70
     0
102
RTVSPost2010Prop38
140
0.0
102
RTVSPost2010PropOp38
 70
     0
102
RTVSPost2010Prop39
140
1.0
102
RTVSPost2010PropOp39
 70
     0
102
RTVSPost2010Prop40
 90
        0
102
RTVSPost2010PropOp40
 70
     0
102
RTVSPost2010Prop41ColorIndex
 90
       18
102
RTVSPost2010Prop41ColorRGB
 90
        0
102
RTVSPost2010PropOp41
 70
     0
102
RTVSPost2010Prop42
 90
       50
102
RTVSPost2010PropOp42
 70
     0
102
RTVSPost2010Prop43
 90
        3
102
RTVSPost2010PropOp43
 70
     0
102
RTVSPost2010Prop44ColorIndex
 90
        5
102
RTVSPost2010Prop44ColorRGB
 90
      255
102
RTVSPost2010PropOp44
 70
     0
102
RTVSPost2010Prop45
280
     0
102
RTVSPost2010PropOp45
 70
     1
102
RTVSPost2010Prop46
 90
       50
102
RTVSPost2010PropOp46
 70
     0
102
RTVSPost2010Prop47
 90
       50
102
RTVSPost2010PropOp47
 70
     0
102
RTVSPost2010Prop48
 90
       50
102
RTVSPost2010PropOp48
 70
     0
102
RTVSPost2010Prop49
280
     0
102
RTVSPost2010PropOp49
 70
     1
102
RTVSPost2010Prop50
 90
       50
102
RTVSPost2010PropOp50
 70
     0
102
RTVSPost2010Prop51ColorIndex
 90
      256
102
RTVSPost2010Prop51ColorRGB
 90
-16777216
102
RTVSPost2010PropOp51
 70
     0
102
RTVSPost2010Prop52
140
1.0
102
RTVSPost2010PropOp52
 70
     0
102
RTVSPost2010Prop53
 90
        2
102
RTVSPost2010PropOp53
 70
     0
102
RTVSPost2010Prop54
  1
strokes_ogs.tif
102
RTVSPost2010PropOp54
 70
     0
102
RTVSPost2010Prop55
280
     0
102
RTVSPost2010PropOp55
 70
     1
102
RTVSPost2010Prop56
140
1.0
102
RTVSPost2010PropOp56
 70
     0
102
RTVSPost2010Prop57
140
1.0
102
RTVSPost2010PropOp57
 70
     0
102
RTVSPropertyOp0
 70
     0
102
RTVSPropertyOp1
 70
     0
102
RTVSPropertyOp2
 70
     0
102
RTVSPropertyOp3
 70
     0
102
RTVSPropertyOp4
 70
     0
102
RTVSPropertyOp5
 70
     0
102
RTVSPropertyOp6
 70
     0
102
RTVSPropertyOp7
 70
     0
102
RTVSPropertyOp8
 70
     0
102
RTVSPropertyOp9
 70
     0
102
RTVSPropertyOp10
 70
     0
102
RTVSPropertyOp11
 70
     0
102
RTVSPropertyOp12
 70
     0
102
RTVSPropertyOp13
 70
     0
102
RTVSPropertyOp14
 70
     2
102
RTVSPropertyOp15
 70
     0
102
RTVSPropertyOp16
 70
     0
102
RTVSPropertyOp17
 70
     0
102
RTVSPropertyOp18
 70
     0
102
RTVSPropertyOp19
 70
     0
102
RTVSPropertyOp20
 70
     0
102
RTVSPropertyOp21
 70
     0
102
RTVSPropertyOp22
 70
     0
102
RTVSPropertyOp23
 70
     0
102
RTVSPropertyOp24
 70
     0
102
RTVSPropertyOp25
 70
     0
102
RTVSPropertyOp26
 70
     0
102
RTVSPropertyOp27
 70
     0
102
RTVSPropertyOp28
 70
     1
102
RTVSPropertyOp29
 70
     1
102
RTVSPropertyOp30
 70
     1
102
RTVSPropertyOp31
 70
     1
102
RTVSPropertyOp32
 70
     1
102
RTVSPropertyOp33
 70
     1
102
RTVSPropertyOp34
 70
     1
102
RTVSPropertyOp35
 70
     1
102
RTVSPropertyOp36
 70
     1
102
RTVSPropertyOp37
 70
     0
102
RTVSPropertyOp38
 70
     0
102
RTVSPropertyOp39
 70
     0
102
RTVSPropertyOp40
 70
     0
102
RTVSPropertyOp41
 70
     0
102
RTVSPropertyOp42
 70
     0
102
RTVSPropertyOp43
 70
     0
102
RTVSPropertyOp44
 70
     0
102
RTVSPropertyOp45
 70
     1
102
RTVSPropertyOp46
 70
     0
102
RTVSPropertyOp47
 70
     0
102
RTVSPropertyOp48
 70
     0
102
RTVSPropertyOp49
 70
     1
102
RTVSPropertyOp50
 70
     0
102
RTVSPropertyOp51
 70
     0
102
RTVSPropertyOp52
 70
     0
102
RTVSPropertyOp53
 70
     0
102
RTVSPropertyOp54
 70
     0
102
RTVSPropertyOp55
 70
     1
102
RTVSPropertyOp56
 70
     0
102
RTVSPropertyOp57
 70
     0
102
RTVSPropertyOp58
 70
     0
102
RTVSPropertyOp59
 70
     0
102
RTVSPropertyOp60
 70
     0
102
RTVSPropertyOp61
 70
     0
102
RTVSPropertyOp62
 70
     0
  0
XRECORD
  5
8683
102
{ACAD_REACTORS
330
8682
102
}
330
8682
100
AcDbXrecord
280
     1
102
RTVSPost2010Prop28
280
     0
102
RTVSPost2010PropOp28
 70
     1
102
RTVSPost2010Prop29
280
     1
102
RTVSPost2010PropOp29
 70
     1
102
RTVSPost2010Prop30
280
     1
102
RTVSPost2010PropOp30
 70
     1
102
RTVSPost2010Prop31
280
     0
102
RTVSPost2010PropOp31
 70
     1
102
RTVSPost2010Prop32
280
     0
102
RTVSPost2010PropOp32
 70
     1
102
RTVSPost2010Prop33
280
     0
102
RTVSPost2010PropOp33
 70
     1
102
RTVSPost2010Prop34
280
     0
102
RTVSPost2010PropOp34
 70
     1
102
RTVSPost2010Prop35
280
     0
102
RTVSPost2010PropOp35
 70
     1
102
RTVSPost2010Prop36
280
     0
102
RTVSPost2010PropOp36
 70
     1
102
RTVSPost2010Prop37
 90
       50
102
RTVSPost2010PropOp37
 70
     1
102
RTVSPost2010Prop38
140
0.0
102
RTVSPost2010PropOp38
 70
     1
102
RTVSPost2010Prop39
140
1.0
102
RTVSPost2010PropOp39
 70
     1
102
RTVSPost2010Prop40
 90
        0
102
RTVSPost2010PropOp40
 70
     1
102
RTVSPost2010Prop41ColorIndex
 90
       18
102
RTVSPost2010Prop41ColorRGB
 90
        0
102
RTVSPost2010PropOp41
 70
     1
102
RTVSPost2010Prop42
 90
       50
102
RTVSPost2010PropOp42
 70
     1
102
RTVSPost2010Prop43
 90
        3
102
RTVSPost2010PropOp43
 70
     1
102
RTVSPost2010Prop44ColorIndex
 90
        5
102
RTVSPost2010Prop44ColorRGB
 90
      255
102
RTVSPost2010PropOp44
 70
     1
102
RTVSPost2010Prop45
280
     0
102
RTVSPost2010PropOp45
 70
     1
102
RTVSPost2010Prop46
 90
       50
102
RTVSPost2010PropOp46
 70
     1
102
RTVSPost2010Prop47
 90
       50
102
RTVSPost2010PropOp47
 70
     1
102
RTVSPost2010Prop48
 90
       50
102
RTVSPost2010PropOp48
 70
     1
102
RTVSPost2010Prop49
280
     0
102
RTVSPost2010PropOp49
 70
     1
102
RTVSPost2010Prop50
 90
       50
102
RTVSPost2010PropOp50
 70
     1
102
RTVSPost2010Prop51ColorIndex
 90
      256
102
RTVSPost2010Prop51ColorRGB
 90
-16777216
102
RTVSPost2010PropOp51
 70
     0
102
RTVSPost2010Prop52
140
1.0
102
RTVSPost2010PropOp52
 70
     0
102
RTVSPost2010Prop53
 90
        2
102
RTVSPost2010PropOp53
 70
     1
102
RTVSPost2010Prop54
  1
strokes_ogs.tif
102
RTVSPost2010PropOp54
 70
     1
102
RTVSPost2010Prop55
280
     0
102
RTVSPost2010PropOp55
 70
     1
102
RTVSPost2010Prop56
140
1.0
102
RTVSPost2010PropOp56
 70
     1
102
RTVSPost2010Prop57
140
1.0
102
RTVSPost2010PropOp57
 70
     1
102
RTVSPropertyOp0
 70
     1
102
RTVSPropertyOp1
 70
     1
102
RTVSPropertyOp2
 70
     1
102
RTVSPropertyOp3
 70
     1
102
RTVSPropertyOp4
 70
     1
102
RTVSPropertyOp5
 70
     1
102
RTVSPropertyOp6
 70
     1
102
RTVSPropertyOp7
 70
     1
102
RTVSPropertyOp8
 70
     1
102
RTVSPropertyOp9
 70
     1
102
RTVSPropertyOp10
 70
     1
102
RTVSPropertyOp11
 70
     1
102
RTVSPropertyOp12
 70
     1
102
RTVSPropertyOp13
 70
     1
102
RTVSPropertyOp14
 70
     1
102
RTVSPropertyOp15
 70
     1
102
RTVSPropertyOp16
 70
     1
102
RTVSPropertyOp17
 70
     1
102
RTVSPropertyOp18
 70
     1
102
RTVSPropertyOp19
 70
     1
102
RTVSPropertyOp20
 70
     1
102
RTVSPropertyOp21
 70
     1
102
RTVSPropertyOp22
 70
     1
102
RTVSPropertyOp23
 70
     1
102
RTVSPropertyOp24
 70
     1
102
RTVSPropertyOp25
 70
     1
102
RTVSPropertyOp26
 70
     1
102
RTVSPropertyOp27
 70
     1
102
RTVSPropertyOp28
 70
     1
102
RTVSPropertyOp29
 70
     1
102
RTVSPropertyOp30
 70
     1
102
RTVSPropertyOp31
 70
     1
102
RTVSPropertyOp32
 70
     1
102
RTVSPropertyOp33
 70
     1
102
RTVSPropertyOp34
 70
     1
102
RTVSPropertyOp35
 70
     1
102
RTVSPropertyOp36
 70
     1
102
RTVSPropertyOp37
 70
     1
102
RTVSPropertyOp38
 70
     1
102
RTVSPropertyOp39
 70
     1
102
RTVSPropertyOp40
 70
     1
102
RTVSPropertyOp41
 70
     1
102
RTVSPropertyOp42
 70
     1
102
RTVSPropertyOp43
 70
     1
102
RTVSPropertyOp44
 70
     1
102
RTVSPropertyOp45
 70
     1
102
RTVSPropertyOp46
 70
     1
102
RTVSPropertyOp47
 70
     1
102
RTVSPropertyOp48
 70
     1
102
RTVSPropertyOp49
 70
     1
102
RTVSPropertyOp50
 70
     1
102
RTVSPropertyOp51
 70
     0
102
RTVSPropertyOp52
 70
     0
102
RTVSPropertyOp53
 70
     1
102
RTVSPropertyOp54
 70
     1
102
RTVSPropertyOp55
 70
     1
102
RTVSPropertyOp56
 70
     1
102
RTVSPropertyOp57
 70
     1
102
RTVSPropertyOp58
 70
     1
102
RTVSPropertyOp59
 70
     1
102
RTVSPropertyOp60
 70
     1
102
RTVSPropertyOp61
 70
     1
102
RTVSPropertyOp62
 70
     1
  0
XRECORD
  5
8667
102
{ACAD_REACTORS
330
8666
102
}
330
8666
100
AcDbXrecord
280
     1
102
RTVSPost2010Prop28
280
     0
102
RTVSPost2010PropOp28
 70
     1
102
RTVSPost2010Prop29
280
     1
102
RTVSPost2010PropOp29
 70
     1
102
RTVSPost2010Prop30
280
     1
102
RTVSPost2010PropOp30
 70
     1
102
RTVSPost2010Prop31
280
     0
102
RTVSPost2010PropOp31
 70
     1
102
RTVSPost2010Prop32
280
     0
102
RTVSPost2010PropOp32
 70
     1
102
RTVSPost2010Prop33
280
     0
102
RTVSPost2010PropOp33
 70
     1
102
RTVSPost2010Prop34
280
     0
102
RTVSPost2010PropOp34
 70
     1
102
RTVSPost2010Prop35
280
     0
102
RTVSPost2010PropOp35
 70
     1
102
RTVSPost2010Prop36
280
     0
102
RTVSPost2010PropOp36
 70
     1
102
RTVSPost2010Prop37
 90
       50
102
RTVSPost2010PropOp37
 70
     1
102
RTVSPost2010Prop38
140
0.0
102
RTVSPost2010PropOp38
 70
     1
102
RTVSPost2010Prop39
140
1.0
102
RTVSPost2010PropOp39
 70
     1
102
RTVSPost2010Prop40
 90
        0
102
RTVSPost2010PropOp40
 70
     1
102
RTVSPost2010Prop41ColorIndex
 90
       18
102
RTVSPost2010Prop41ColorRGB
 90
        0
102
RTVSPost2010PropOp41
 70
     1
102
RTVSPost2010Prop42
 90
       50
102
RTVSPost2010PropOp42
 70
     1
102
RTVSPost2010Prop43
 90
        3
102
RTVSPost2010PropOp43
 70
     1
102
RTVSPost2010Prop44ColorIndex
 90
        5
102
RTVSPost2010Prop44ColorRGB
 90
      255
102
RTVSPost2010PropOp44
 70
     1
102
RTVSPost2010Prop45
280
     0
102
RTVSPost2010PropOp45
 70
     1
102
RTVSPost2010Prop46
 90
       50
102
RTVSPost2010PropOp46
 70
     1
102
RTVSPost2010Prop47
 90
       50
102
RTVSPost2010PropOp47
 70
     1
102
RTVSPost2010Prop48
 90
       50
102
RTVSPost2010PropOp48
 70
     1
102
RTVSPost2010Prop49
280
     0
102
RTVSPost2010PropOp49
 70
     1
102
RTVSPost2010Prop50
 90
       50
102
RTVSPost2010PropOp50
 70
     1
102
RTVSPost2010Prop51ColorIndex
 90
      256
102
RTVSPost2010Prop51ColorRGB
 90
-16777216
102
RTVSPost2010PropOp51
 70
     0
102
RTVSPost2010Prop52
140
1.0
102
RTVSPost2010PropOp52
 70
     0
102
RTVSPost2010Prop53
 90
        2
102
RTVSPost2010PropOp53
 70
     1
102
RTVSPost2010Prop54
  1
strokes_ogs.tif
102
RTVSPost2010PropOp54
 70
     1
102
RTVSPost2010Prop55
280
     0
102
RTVSPost2010PropOp55
 70
     1
102
RTVSPost2010Prop56
140
1.0
102
RTVSPost2010PropOp56
 70
     1
102
RTVSPost2010Prop57
140
1.0
102
RTVSPost2010PropOp57
 70
     1
102
RTVSPropertyOp0
 70
     1
102
RTVSPropertyOp1
 70
     1
102
RTVSPropertyOp2
 70
     1
102
RTVSPropertyOp3
 70
     1
102
RTVSPropertyOp4
 70
     1
102
RTVSPropertyOp5
 70
     1
102
RTVSPropertyOp6
 70
     1
102
RTVSPropertyOp7
 70
     1
102
RTVSPropertyOp8
 70
     1
102
RTVSPropertyOp9
 70
     1
102
RTVSPropertyOp10
 70
     1
102
RTVSPropertyOp11
 70
     1
102
RTVSPropertyOp12
 70
     1
102
RTVSPropertyOp13
 70
     1
102
RTVSPropertyOp14
 70
     1
102
RTVSPropertyOp15
 70
     1
102
RTVSPropertyOp16
 70
     1
102
RTVSPropertyOp17
 70
     1
102
RTVSPropertyOp18
 70
     1
102
RTVSPropertyOp19
 70
     1
102
RTVSPropertyOp20
 70
     1
102
RTVSPropertyOp21
 70
     1
102
RTVSPropertyOp22
 70
     1
102
RTVSPropertyOp23
 70
     1
102
RTVSPropertyOp24
 70
     1
102
RTVSPropertyOp25
 70
     1
102
RTVSPropertyOp26
 70
     1
102
RTVSPropertyOp27
 70
     1
102
RTVSPropertyOp28
 70
     1
102
RTVSPropertyOp29
 70
     1
102
RTVSPropertyOp30
 70
     1
102
RTVSPropertyOp31
 70
     1
102
RTVSPropertyOp32
 70
     1
102
RTVSPropertyOp33
 70
     1
102
RTVSPropertyOp34
 70
     1
102
RTVSPropertyOp35
 70
     1
102
RTVSPropertyOp36
 70
     1
102
RTVSPropertyOp37
 70
     1
102
RTVSPropertyOp38
 70
     1
102
RTVSPropertyOp39
 70
     1
102
RTVSPropertyOp40
 70
     1
102
RTVSPropertyOp41
 70
     1
102
RTVSPropertyOp42
 70
     1
102
RTVSPropertyOp43
 70
     1
102
RTVSPropertyOp44
 70
     1
102
RTVSPropertyOp45
 70
     1
102
RTVSPropertyOp46
 70
     1
102
RTVSPropertyOp47
 70
     1
102
RTVSPropertyOp48
 70
     1
102
RTVSPropertyOp49
 70
     1
102
RTVSPropertyOp50
 70
     1
102
RTVSPropertyOp51
 70
     0
102
RTVSPropertyOp52
 70
     0
102
RTVSPropertyOp53
 70
     1
102
RTVSPropertyOp54
 70
     1
102
RTVSPropertyOp55
 70
     1
102
RTVSPropertyOp56
 70
     1
102
RTVSPropertyOp57
 70
     1
102
RTVSPropertyOp58
 70
     1
102
RTVSPropertyOp59
 70
     1
102
RTVSPropertyOp60
 70
     1
102
RTVSPropertyOp61
 70
     1
102
RTVSPropertyOp62
 70
     1
  0
XRECORD
  5
8669
102
{ACAD_REACTORS
330
8668
102
}
330
8668
100
AcDbXrecord
280
     1
102
RTVSPost2010Prop28
280
     0
102
RTVSPost2010PropOp28
 70
     1
102
RTVSPost2010Prop29
280
     1
102
RTVSPost2010PropOp29
 70
     1
102
RTVSPost2010Prop30
280
     1
102
RTVSPost2010PropOp30
 70
     1
102
RTVSPost2010Prop31
280
     0
102
RTVSPost2010PropOp31
 70
     1
102
RTVSPost2010Prop32
280
     0
102
RTVSPost2010PropOp32
 70
     1
102
RTVSPost2010Prop33
280
     0
102
RTVSPost2010PropOp33
 70
     1
102
RTVSPost2010Prop34
280
     0
102
RTVSPost2010PropOp34
 70
     1
102
RTVSPost2010Prop35
280
     0
102
RTVSPost2010PropOp35
 70
     1
102
RTVSPost2010Prop36
280
     0
102
RTVSPost2010PropOp36
 70
     1
102
RTVSPost2010Prop37
 90
       50
102
RTVSPost2010PropOp37
 70
     1
102
RTVSPost2010Prop38
140
0.0
102
RTVSPost2010PropOp38
 70
     1
102
RTVSPost2010Prop39
140
1.0
102
RTVSPost2010PropOp39
 70
     1
102
RTVSPost2010Prop40
 90
        0
102
RTVSPost2010PropOp40
 70
     1
102
RTVSPost2010Prop41ColorIndex
 90
       18
102
RTVSPost2010Prop41ColorRGB
 90
        0
102
RTVSPost2010PropOp41
 70
     1
102
RTVSPost2010Prop42
 90
       50
102
RTVSPost2010PropOp42
 70
     1
102
RTVSPost2010Prop43
 90
        3
102
RTVSPost2010PropOp43
 70
     1
102
RTVSPost2010Prop44ColorIndex
 90
        5
102
RTVSPost2010Prop44ColorRGB
 90
      255
102
RTVSPost2010PropOp44
 70
     1
102
RTVSPost2010Prop45
280
     0
102
RTVSPost2010PropOp45
 70
     1
102
RTVSPost2010Prop46
 90
       50
102
RTVSPost2010PropOp46
 70
     1
102
RTVSPost2010Prop47
 90
       50
102
RTVSPost2010PropOp47
 70
     1
102
RTVSPost2010Prop48
 90
       50
102
RTVSPost2010PropOp48
 70
     1
102
RTVSPost2010Prop49
280
     0
102
RTVSPost2010PropOp49
 70
     1
102
RTVSPost2010Prop50
 90
       50
102
RTVSPost2010PropOp50
 70
     1
102
RTVSPost2010Prop51ColorIndex
 90
      256
102
RTVSPost2010Prop51ColorRGB
 90
-16777216
102
RTVSPost2010PropOp51
 70
     0
102
RTVSPost2010Prop52
140
1.0
102
RTVSPost2010PropOp52
 70
     0
102
RTVSPost2010Prop53
 90
        2
102
RTVSPost2010PropOp53
 70
     1
102
RTVSPost2010Prop54
  1
strokes_ogs.tif
102
RTVSPost2010PropOp54
 70
     1
102
RTVSPost2010Prop55
280
     0
102
RTVSPost2010PropOp55
 70
     1
102
RTVSPost2010Prop56
140
1.0
102
RTVSPost2010PropOp56
 70
     1
102
RTVSPost2010Prop57
140
1.0
102
RTVSPost2010PropOp57
 70
     1
102
RTVSPropertyOp0
 70
     1
102
RTVSPropertyOp1
 70
     1
102
RTVSPropertyOp2
 70
     1
102
RTVSPropertyOp3
 70
     1
102
RTVSPropertyOp4
 70
     1
102
RTVSPropertyOp5
 70
     1
102
RTVSPropertyOp6
 70
     1
102
RTVSPropertyOp7
 70
     1
102
RTVSPropertyOp8
 70
     1
102
RTVSPropertyOp9
 70
     1
102
RTVSPropertyOp10
 70
     1
102
RTVSPropertyOp11
 70
     1
102
RTVSPropertyOp12
 70
     1
102
RTVSPropertyOp13
 70
     1
102
RTVSPropertyOp14
 70
     1
102
RTVSPropertyOp15
 70
     1
102
RTVSPropertyOp16
 70
     1
102
RTVSPropertyOp17
 70
     1
102
RTVSPropertyOp18
 70
     1
102
RTVSPropertyOp19
 70
     1
102
RTVSPropertyOp20
 70
     1
102
RTVSPropertyOp21
 70
     1
102
RTVSPropertyOp22
 70
     1
102
RTVSPropertyOp23
 70
     1
102
RTVSPropertyOp24
 70
     1
102
RTVSPropertyOp25
 70
     1
102
RTVSPropertyOp26
 70
     1
102
RTVSPropertyOp27
 70
     1
102
RTVSPropertyOp28
 70
     1
102
RTVSPropertyOp29
 70
     1
102
RTVSPropertyOp30
 70
     1
102
RTVSPropertyOp31
 70
     1
102
RTVSPropertyOp32
 70
     1
102
RTVSPropertyOp33
 70
     1
102
RTVSPropertyOp34
 70
     1
102
RTVSPropertyOp35
 70
     1
102
RTVSPropertyOp36
 70
     1
102
RTVSPropertyOp37
 70
     1
102
RTVSPropertyOp38
 70
     1
102
RTVSPropertyOp39
 70
     1
102
RTVSPropertyOp40
 70
     1
102
RTVSPropertyOp41
 70
     1
102
RTVSPropertyOp42
 70
     1
102
RTVSPropertyOp43
 70
     1
102
RTVSPropertyOp44
 70
     1
102
RTVSPropertyOp45
 70
     1
102
RTVSPropertyOp46
 70
     1
102
RTVSPropertyOp47
 70
     1
102
RTVSPropertyOp48
 70
     1
102
RTVSPropertyOp49
 70
     1
102
RTVSPropertyOp50
 70
     1
102
RTVSPropertyOp51
 70
     0
102
RTVSPropertyOp52
 70
     0
102
RTVSPropertyOp53
 70
     1
102
RTVSPropertyOp54
 70
     1
102
RTVSPropertyOp55
 70
     1
102
RTVSPropertyOp56
 70
     1
102
RTVSPropertyOp57
 70
     1
102
RTVSPropertyOp58
 70
     1
102
RTVSPropertyOp59
 70
     1
102
RTVSPropertyOp60
 70
     1
102
RTVSPropertyOp61
 70
     1
102
RTVSPropertyOp62
 70
     1
  0
XRECORD
  5
866B
102
{ACAD_REACTORS
330
866A
102
}
330
866A
100
AcDbXrecord
280
     1
102
RTVSPost2010Prop28
280
     0
102
RTVSPost2010PropOp28
 70
     1
102
RTVSPost2010Prop29
280
     1
102
RTVSPost2010PropOp29
 70
     1
102
RTVSPost2010Prop30
280
     1
102
RTVSPost2010PropOp30
 70
     1
102
RTVSPost2010Prop31
280
     0
102
RTVSPost2010PropOp31
 70
     1
102
RTVSPost2010Prop32
280
     0
102
RTVSPost2010PropOp32
 70
     1
102
RTVSPost2010Prop33
280
     0
102
RTVSPost2010PropOp33
 70
     1
102
RTVSPost2010Prop34
280
     0
102
RTVSPost2010PropOp34
 70
     1
102
RTVSPost2010Prop35
280
     0
102
RTVSPost2010PropOp35
 70
     1
102
RTVSPost2010Prop36
280
     0
102
RTVSPost2010PropOp36
 70
     1
102
RTVSPost2010Prop37
 90
       50
102
RTVSPost2010PropOp37
 70
     1
102
RTVSPost2010Prop38
140
0.0
102
RTVSPost2010PropOp38
 70
     1
102
RTVSPost2010Prop39
140
1.0
102
RTVSPost2010PropOp39
 70
     1
102
RTVSPost2010Prop40
 90
        0
102
RTVSPost2010PropOp40
 70
     1
102
RTVSPost2010Prop41ColorIndex
 90
       18
102
RTVSPost2010Prop41ColorRGB
 90
        0
102
RTVSPost2010PropOp41
 70
     1
102
RTVSPost2010Prop42
 90
       50
102
RTVSPost2010PropOp42
 70
     1
102
RTVSPost2010Prop43
 90
        3
102
RTVSPost2010PropOp43
 70
     1
102
RTVSPost2010Prop44ColorIndex
 90
        5
102
RTVSPost2010Prop44ColorRGB
 90
      255
102
RTVSPost2010PropOp44
 70
     1
102
RTVSPost2010Prop45
280
     0
102
RTVSPost2010PropOp45
 70
     1
102
RTVSPost2010Prop46
 90
       50
102
RTVSPost2010PropOp46
 70
     1
102
RTVSPost2010Prop47
 90
       50
102
RTVSPost2010PropOp47
 70
     1
102
RTVSPost2010Prop48
 90
       50
102
RTVSPost2010PropOp48
 70
     1
102
RTVSPost2010Prop49
280
     0
102
RTVSPost2010PropOp49
 70
     1
102
RTVSPost2010Prop50
 90
       50
102
RTVSPost2010PropOp50
 70
     1
102
RTVSPost2010Prop51ColorIndex
 90
      256
102
RTVSPost2010Prop51ColorRGB
 90
-16777216
102
RTVSPost2010PropOp51
 70
     0
102
RTVSPost2010Prop52
140
1.0
102
RTVSPost2010PropOp52
 70
     0
102
RTVSPost2010Prop53
 90
        2
102
RTVSPost2010PropOp53
 70
     1
102
RTVSPost2010Prop54
  1
strokes_ogs.tif
102
RTVSPost2010PropOp54
 70
     1
102
RTVSPost2010Prop55
280
     0
102
RTVSPost2010PropOp55
 70
     1
102
RTVSPost2010Prop56
140
1.0
102
RTVSPost2010PropOp56
 70
     1
102
RTVSPost2010Prop57
140
1.0
102
RTVSPost2010PropOp57
 70
     1
102
RTVSPropertyOp0
 70
     1
102
RTVSPropertyOp1
 70
     1
102
RTVSPropertyOp2
 70
     1
102
RTVSPropertyOp3
 70
     1
102
RTVSPropertyOp4
 70
     1
102
RTVSPropertyOp5
 70
     1
102
RTVSPropertyOp6
 70
     1
102
RTVSPropertyOp7
 70
     1
102
RTVSPropertyOp8
 70
     1
102
RTVSPropertyOp9
 70
     1
102
RTVSPropertyOp10
 70
     1
102
RTVSPropertyOp11
 70
     1
102
RTVSPropertyOp12
 70
     1
102
RTVSPropertyOp13
 70
     1
102
RTVSPropertyOp14
 70
     1
102
RTVSPropertyOp15
 70
     1
102
RTVSPropertyOp16
 70
     1
102
RTVSPropertyOp17
 70
     1
102
RTVSPropertyOp18
 70
     1
102
RTVSPropertyOp19
 70
     1
102
RTVSPropertyOp20
 70
     1
102
RTVSPropertyOp21
 70
     1
102
RTVSPropertyOp22
 70
     1
102
RTVSPropertyOp23
 70
     1
102
RTVSPropertyOp24
 70
     1
102
RTVSPropertyOp25
 70
     1
102
RTVSPropertyOp26
 70
     1
102
RTVSPropertyOp27
 70
     1
102
RTVSPropertyOp28
 70
     1
102
RTVSPropertyOp29
 70
     1
102
RTVSPropertyOp30
 70
     1
102
RTVSPropertyOp31
 70
     1
102
RTVSPropertyOp32
 70
     1
102
RTVSPropertyOp33
 70
     1
102
RTVSPropertyOp34
 70
     1
102
RTVSPropertyOp35
 70
     1
102
RTVSPropertyOp36
 70
     1
102
RTVSPropertyOp37
 70
     1
102
RTVSPropertyOp38
 70
     1
102
RTVSPropertyOp39
 70
     1
102
RTVSPropertyOp40
 70
     1
102
RTVSPropertyOp41
 70
     1
102
RTVSPropertyOp42
 70
     1
102
RTVSPropertyOp43
 70
     1
102
RTVSPropertyOp44
 70
     1
102
RTVSPropertyOp45
 70
     1
102
RTVSPropertyOp46
 70
     1
102
RTVSPropertyOp47
 70
     1
102
RTVSPropertyOp48
 70
     1
102
RTVSPropertyOp49
 70
     1
102
RTVSPropertyOp50
 70
     1
102
RTVSPropertyOp51
 70
     0
102
RTVSPropertyOp52
 70
     0
102
RTVSPropertyOp53
 70
     1
102
RTVSPropertyOp54
 70
     1
102
RTVSPropertyOp55
 70
     1
102
RTVSPropertyOp56
 70
     1
102
RTVSPropertyOp57
 70
     1
102
RTVSPropertyOp58
 70
     1
102
RTVSPropertyOp59
 70
     1
102
RTVSPropertyOp60
 70
     1
102
RTVSPropertyOp61
 70
     1
102
RTVSPropertyOp62
 70
     1
  0
XRECORD
  5
866D
102
{ACAD_REACTORS
330
866C
102
}
330
866C
100
AcDbXrecord
280
     1
102
RTVSPost2010Prop28
280
     0
102
RTVSPost2010PropOp28
 70
     1
102
RTVSPost2010Prop29
280
     1
102
RTVSPost2010PropOp29
 70
     1
102
RTVSPost2010Prop30
280
     1
102
RTVSPost2010PropOp30
 70
     1
102
RTVSPost2010Prop31
280
     0
102
RTVSPost2010PropOp31
 70
     1
102
RTVSPost2010Prop32
280
     0
102
RTVSPost2010PropOp32
 70
     1
102
RTVSPost2010Prop33
280
     0
102
RTVSPost2010PropOp33
 70
     1
102
RTVSPost2010Prop34
280
     0
102
RTVSPost2010PropOp34
 70
     1
102
RTVSPost2010Prop35
280
     0
102
RTVSPost2010PropOp35
 70
     1
102
RTVSPost2010Prop36
280
     0
102
RTVSPost2010PropOp36
 70
     1
102
RTVSPost2010Prop37
 90
       50
102
RTVSPost2010PropOp37
 70
     1
102
RTVSPost2010Prop38
140
0.0
102
RTVSPost2010PropOp38
 70
     1
102
RTVSPost2010Prop39
140
1.0
102
RTVSPost2010PropOp39
 70
     1
102
RTVSPost2010Prop40
 90
        0
102
RTVSPost2010PropOp40
 70
     1
102
RTVSPost2010Prop41ColorIndex
 90
       18
102
RTVSPost2010Prop41ColorRGB
 90
        0
102
RTVSPost2010PropOp41
 70
     1
102
RTVSPost2010Prop42
 90
       50
102
RTVSPost2010PropOp42
 70
     1
102
RTVSPost2010Prop43
 90
        3
102
RTVSPost2010PropOp43
 70
     1
102
RTVSPost2010Prop44ColorIndex
 90
        5
102
RTVSPost2010Prop44ColorRGB
 90
      255
102
RTVSPost2010PropOp44
 70
     1
102
RTVSPost2010Prop45
280
     0
102
RTVSPost2010PropOp45
 70
     1
102
RTVSPost2010Prop46
 90
       50
102
RTVSPost2010PropOp46
 70
     1
102
RTVSPost2010Prop47
 90
       50
102
RTVSPost2010PropOp47
 70
     1
102
RTVSPost2010Prop48
 90
       50
102
RTVSPost2010PropOp48
 70
     1
102
RTVSPost2010Prop49
280
     0
102
RTVSPost2010PropOp49
 70
     1
102
RTVSPost2010Prop50
 90
       50
102
RTVSPost2010PropOp50
 70
     1
102
RTVSPost2010Prop51ColorIndex
 90
      256
102
RTVSPost2010Prop51ColorRGB
 90
-16777216
102
RTVSPost2010PropOp51
 70
     0
102
RTVSPost2010Prop52
140
1.0
102
RTVSPost2010PropOp52
 70
     0
102
RTVSPost2010Prop53
 90
        2
102
RTVSPost2010PropOp53
 70
     1
102
RTVSPost2010Prop54
  1
strokes_ogs.tif
102
RTVSPost2010PropOp54
 70
     1
102
RTVSPost2010Prop55
280
     0
102
RTVSPost2010PropOp55
 70
     1
102
RTVSPost2010Prop56
140
1.0
102
RTVSPost2010PropOp56
 70
     1
102
RTVSPost2010Prop57
140
1.0
102
RTVSPost2010PropOp57
 70
     1
102
RTVSPropertyOp0
 70
     1
102
RTVSPropertyOp1
 70
     1
102
RTVSPropertyOp2
 70
     1
102
RTVSPropertyOp3
 70
     1
102
RTVSPropertyOp4
 70
     1
102
RTVSPropertyOp5
 70
     1
102
RTVSPropertyOp6
 70
     1
102
RTVSPropertyOp7
 70
     1
102
RTVSPropertyOp8
 70
     1
102
RTVSPropertyOp9
 70
     1
102
RTVSPropertyOp10
 70
     1
102
RTVSPropertyOp11
 70
     1
102
RTVSPropertyOp12
 70
     1
102
RTVSPropertyOp13
 70
     1
102
RTVSPropertyOp14
 70
     1
102
RTVSPropertyOp15
 70
     1
102
RTVSPropertyOp16
 70
     1
102
RTVSPropertyOp17
 70
     1
102
RTVSPropertyOp18
 70
     1
102
RTVSPropertyOp19
 70
     1
102
RTVSPropertyOp20
 70
     1
102
RTVSPropertyOp21
 70
     1
102
RTVSPropertyOp22
 70
     1
102
RTVSPropertyOp23
 70
     1
102
RTVSPropertyOp24
 70
     1
102
RTVSPropertyOp25
 70
     1
102
RTVSPropertyOp26
 70
     1
102
RTVSPropertyOp27
 70
     1
102
RTVSPropertyOp28
 70
     1
102
RTVSPropertyOp29
 70
     1
102
RTVSPropertyOp30
 70
     1
102
RTVSPropertyOp31
 70
     1
102
RTVSPropertyOp32
 70
     1
102
RTVSPropertyOp33
 70
     1
102
RTVSPropertyOp34
 70
     1
102
RTVSPropertyOp35
 70
     1
102
RTVSPropertyOp36
 70
     1
102
RTVSPropertyOp37
 70
     1
102
RTVSPropertyOp38
 70
     1
102
RTVSPropertyOp39
 70
     1
102
RTVSPropertyOp40
 70
     1
102
RTVSPropertyOp41
 70
     1
102
RTVSPropertyOp42
 70
     1
102
RTVSPropertyOp43
 70
     1
102
RTVSPropertyOp44
 70
     1
102
RTVSPropertyOp45
 70
     1
102
RTVSPropertyOp46
 70
     1
102
RTVSPropertyOp47
 70
     1
102
RTVSPropertyOp48
 70
     1
102
RTVSPropertyOp49
 70
     1
102
RTVSPropertyOp50
 70
     1
102
RTVSPropertyOp51
 70
     0
102
RTVSPropertyOp52
 70
     0
102
RTVSPropertyOp53
 70
     1
102
RTVSPropertyOp54
 70
     1
102
RTVSPropertyOp55
 70
     1
102
RTVSPropertyOp56
 70
     1
102
RTVSPropertyOp57
 70
     1
102
RTVSPropertyOp58
 70
     1
102
RTVSPropertyOp59
 70
     1
102
RTVSPropertyOp60
 70
     1
102
RTVSPropertyOp61
 70
     1
102
RTVSPropertyOp62
 70
     1
  0
XRECORD
  5
8675
102
{ACAD_REACTORS
330
8674
102
}
330
8674
100
AcDbXrecord
280
     1
102
RTVSPost2010Prop28
280
     0
102
RTVSPost2010PropOp28
 70
     1
102
RTVSPost2010Prop29
280
     1
102
RTVSPost2010PropOp29
 70
     1
102
RTVSPost2010Prop30
280
     1
102
RTVSPost2010PropOp30
 70
     1
102
RTVSPost2010Prop31
280
     0
102
RTVSPost2010PropOp31
 70
     1
102
RTVSPost2010Prop32
280
     0
102
RTVSPost2010PropOp32
 70
     1
102
RTVSPost2010Prop33
280
     0
102
RTVSPost2010PropOp33
 70
     1
102
RTVSPost2010Prop34
280
     0
102
RTVSPost2010PropOp34
 70
     1
102
RTVSPost2010Prop35
280
     0
102
RTVSPost2010PropOp35
 70
     1
102
RTVSPost2010Prop36
280
     0
102
RTVSPost2010PropOp36
 70
     1
102
RTVSPost2010Prop37
 90
       50
102
RTVSPost2010PropOp37
 70
     1
102
RTVSPost2010Prop38
140
0.0
102
RTVSPost2010PropOp38
 70
     1
102
RTVSPost2010Prop39
140
1.0
102
RTVSPost2010PropOp39
 70
     1
102
RTVSPost2010Prop40
 90
        0
102
RTVSPost2010PropOp40
 70
     1
102
RTVSPost2010Prop41ColorIndex
 90
       18
102
RTVSPost2010Prop41ColorRGB
 90
        0
102
RTVSPost2010PropOp41
 70
     1
102
RTVSPost2010Prop42
 90
       50
102
RTVSPost2010PropOp42
 70
     1
102
RTVSPost2010Prop43
 90
        3
102
RTVSPost2010PropOp43
 70
     1
102
RTVSPost2010Prop44ColorIndex
 90
        5
102
RTVSPost2010Prop44ColorRGB
 90
      255
102
RTVSPost2010PropOp44
 70
     1
102
RTVSPost2010Prop45
280
     0
102
RTVSPost2010PropOp45
 70
     1
102
RTVSPost2010Prop46
 90
       50
102
RTVSPost2010PropOp46
 70
     1
102
RTVSPost2010Prop47
 90
       50
102
RTVSPost2010PropOp47
 70
     1
102
RTVSPost2010Prop48
 90
       50
102
RTVSPost2010PropOp48
 70
     1
102
RTVSPost2010Prop49
280
     0
102
RTVSPost2010PropOp49
 70
     1
102
RTVSPost2010Prop50
 90
       50
102
RTVSPost2010PropOp50
 70
     1
102
RTVSPost2010Prop51ColorIndex
 90
      256
102
RTVSPost2010Prop51ColorRGB
 90
-16777216
102
RTVSPost2010PropOp51
 70
     0
102
RTVSPost2010Prop52
140
1.0
102
RTVSPost2010PropOp52
 70
     0
102
RTVSPost2010Prop53
 90
        2
102
RTVSPost2010PropOp53
 70
     1
102
RTVSPost2010Prop54
  1
strokes_ogs.tif
102
RTVSPost2010PropOp54
 70
     1
102
RTVSPost2010Prop55
280
     0
102
RTVSPost2010PropOp55
 70
     1
102
RTVSPost2010Prop56
140
1.0
102
RTVSPost2010PropOp56
 70
     1
102
RTVSPost2010Prop57
140
1.0
102
RTVSPost2010PropOp57
 70
     1
102
RTVSPropertyOp0
 70
     1
102
RTVSPropertyOp1
 70
     1
102
RTVSPropertyOp2
 70
     1
102
RTVSPropertyOp3
 70
     1
102
RTVSPropertyOp4
 70
     1
102
RTVSPropertyOp5
 70
     1
102
RTVSPropertyOp6
 70
     1
102
RTVSPropertyOp7
 70
     1
102
RTVSPropertyOp8
 70
     1
102
RTVSPropertyOp9
 70
     1
102
RTVSPropertyOp10
 70
     1
102
RTVSPropertyOp11
 70
     1
102
RTVSPropertyOp12
 70
     1
102
RTVSPropertyOp13
 70
     1
102
RTVSPropertyOp14
 70
     1
102
RTVSPropertyOp15
 70
     1
102
RTVSPropertyOp16
 70
     1
102
RTVSPropertyOp17
 70
     1
102
RTVSPropertyOp18
 70
     1
102
RTVSPropertyOp19
 70
     1
102
RTVSPropertyOp20
 70
     1
102
RTVSPropertyOp21
 70
     1
102
RTVSPropertyOp22
 70
     1
102
RTVSPropertyOp23
 70
     1
102
RTVSPropertyOp24
 70
     1
102
RTVSPropertyOp25
 70
     1
102
RTVSPropertyOp26
 70
     1
102
RTVSPropertyOp27
 70
     1
102
RTVSPropertyOp28
 70
     1
102
RTVSPropertyOp29
 70
     1
102
RTVSPropertyOp30
 70
     1
102
RTVSPropertyOp31
 70
     1
102
RTVSPropertyOp32
 70
     1
102
RTVSPropertyOp33
 70
     1
102
RTVSPropertyOp34
 70
     1
102
RTVSPropertyOp35
 70
     1
102
RTVSPropertyOp36
 70
     1
102
RTVSPropertyOp37
 70
     1
102
RTVSPropertyOp38
 70
     1
102
RTVSPropertyOp39
 70
     1
102
RTVSPropertyOp40
 70
     1
102
RTVSPropertyOp41
 70
     1
102
RTVSPropertyOp42
 70
     1
102
RTVSPropertyOp43
 70
     1
102
RTVSPropertyOp44
 70
     1
102
RTVSPropertyOp45
 70
     1
102
RTVSPropertyOp46
 70
     1
102
RTVSPropertyOp47
 70
     1
102
RTVSPropertyOp48
 70
     1
102
RTVSPropertyOp49
 70
     1
102
RTVSPropertyOp50
 70
     1
102
RTVSPropertyOp51
 70
     0
102
RTVSPropertyOp52
 70
     0
102
RTVSPropertyOp53
 70
     1
102
RTVSPropertyOp54
 70
     1
102
RTVSPropertyOp55
 70
     1
102
RTVSPropertyOp56
 70
     1
102
RTVSPropertyOp57
 70
     1
102
RTVSPropertyOp58
 70
     1
102
RTVSPropertyOp59
 70
     1
102
RTVSPropertyOp60
 70
     1
102
RTVSPropertyOp61
 70
     1
102
RTVSPropertyOp62
 70
     1
  0
XRECORD
  5
8691
102
{ACAD_REACTORS
330
8690
102
}
330
8690
100
AcDbXrecord
280
     1
102
RTVSPost2010Prop28
280
     0
102
RTVSPost2010PropOp28
 70
     1
102
RTVSPost2010Prop29
280
     1
102
RTVSPost2010PropOp29
 70
     1
102
RTVSPost2010Prop30
280
     1
102
RTVSPost2010PropOp30
 70
     1
102
RTVSPost2010Prop31
280
     0
102
RTVSPost2010PropOp31
 70
     1
102
RTVSPost2010Prop32
280
     0
102
RTVSPost2010PropOp32
 70
     1
102
RTVSPost2010Prop33
280
     0
102
RTVSPost2010PropOp33
 70
     1
102
RTVSPost2010Prop34
280
     0
102
RTVSPost2010PropOp34
 70
     1
102
RTVSPost2010Prop35
280
     0
102
RTVSPost2010PropOp35
 70
     1
102
RTVSPost2010Prop36
280
     0
102
RTVSPost2010PropOp36
 70
     1
102
RTVSPost2010Prop37
 90
       50
102
RTVSPost2010PropOp37
 70
     0
102
RTVSPost2010Prop38
140
0.0
102
RTVSPost2010PropOp38
 70
     0
102
RTVSPost2010Prop39
140
1.0
102
RTVSPost2010PropOp39
 70
     0
102
RTVSPost2010Prop40
 90
        0
102
RTVSPost2010PropOp40
 70
     0
102
RTVSPost2010Prop41ColorIndex
 90
       18
102
RTVSPost2010Prop41ColorRGB
 90
        0
102
RTVSPost2010PropOp41
 70
     0
102
RTVSPost2010Prop42
 90
       50
102
RTVSPost2010PropOp42
 70
     0
102
RTVSPost2010Prop43
 90
        3
102
RTVSPost2010PropOp43
 70
     0
102
RTVSPost2010Prop44ColorIndex
 90
        5
102
RTVSPost2010Prop44ColorRGB
 90
      255
102
RTVSPost2010PropOp44
 70
     0
102
RTVSPost2010Prop45
280
     0
102
RTVSPost2010PropOp45
 70
     1
102
RTVSPost2010Prop46
 90
       50
102
RTVSPost2010PropOp46
 70
     0
102
RTVSPost2010Prop47
 90
       50
102
RTVSPost2010PropOp47
 70
     0
102
RTVSPost2010Prop48
 90
       50
102
RTVSPost2010PropOp48
 70
     0
102
RTVSPost2010Prop49
280
     0
102
RTVSPost2010PropOp49
 70
     1
102
RTVSPost2010Prop50
 90
       50
102
RTVSPost2010PropOp50
 70
     0
102
RTVSPost2010Prop51ColorIndex
 90
      256
102
RTVSPost2010Prop51ColorRGB
 90
-16777216
102
RTVSPost2010PropOp51
 70
     0
102
RTVSPost2010Prop52
140
1.0
102
RTVSPost2010PropOp52
 70
     0
102
RTVSPost2010Prop53
 90
        2
102
RTVSPost2010PropOp53
 70
     0
102
RTVSPost2010Prop54
  1
strokes_ogs.tif
102
RTVSPost2010PropOp54
 70
     0
102
RTVSPost2010Prop55
280
     0
102
RTVSPost2010PropOp55
 70
     1
102
RTVSPost2010Prop56
140
1.0
102
RTVSPost2010PropOp56
 70
     0
102
RTVSPost2010Prop57
140
1.0
102
RTVSPost2010PropOp57
 70
     0
102
RTVSPropertyOp0
 70
     0
102
RTVSPropertyOp1
 70
     0
102
RTVSPropertyOp2
 70
     0
102
RTVSPropertyOp3
 70
     0
102
RTVSPropertyOp4
 70
     0
102
RTVSPropertyOp5
 70
     0
102
RTVSPropertyOp6
 70
     0
102
RTVSPropertyOp7
 70
     0
102
RTVSPropertyOp8
 70
     0
102
RTVSPropertyOp9
 70
     0
102
RTVSPropertyOp10
 70
     0
102
RTVSPropertyOp11
 70
     0
102
RTVSPropertyOp12
 70
     0
102
RTVSPropertyOp13
 70
     0
102
RTVSPropertyOp14
 70
     2
102
RTVSPropertyOp15
 70
     0
102
RTVSPropertyOp16
 70
     0
102
RTVSPropertyOp17
 70
     0
102
RTVSPropertyOp18
 70
     0
102
RTVSPropertyOp19
 70
     0
102
RTVSPropertyOp20
 70
     0
102
RTVSPropertyOp21
 70
     0
102
RTVSPropertyOp22
 70
     0
102
RTVSPropertyOp23
 70
     0
102
RTVSPropertyOp24
 70
     0
102
RTVSPropertyOp25
 70
     0
102
RTVSPropertyOp26
 70
     0
102
RTVSPropertyOp27
 70
     0
102
RTVSPropertyOp28
 70
     1
102
RTVSPropertyOp29
 70
     1
102
RTVSPropertyOp30
 70
     1
102
RTVSPropertyOp31
 70
     1
102
RTVSPropertyOp32
 70
     1
102
RTVSPropertyOp33
 70
     1
102
RTVSPropertyOp34
 70
     1
102
RTVSPropertyOp35
 70
     1
102
RTVSPropertyOp36
 70
     1
102
RTVSPropertyOp37
 70
     0
102
RTVSPropertyOp38
 70
     0
102
RTVSPropertyOp39
 70
     0
102
RTVSPropertyOp40
 70
     0
102
RTVSPropertyOp41
 70
     0
102
RTVSPropertyOp42
 70
     0
102
RTVSPropertyOp43
 70
     0
102
RTVSPropertyOp44
 70
     0
102
RTVSPropertyOp45
 70
     1
102
RTVSPropertyOp46
 70
     0
102
RTVSPropertyOp47
 70
     0
102
RTVSPropertyOp48
 70
     0
102
RTVSPropertyOp49
 70
     1
102
RTVSPropertyOp50
 70
     0
102
RTVSPropertyOp51
 70
     0
102
RTVSPropertyOp52
 70
     0
102
RTVSPropertyOp53
 70
     0
102
RTVSPropertyOp54
 70
     0
102
RTVSPropertyOp55
 70
     1
102
RTVSPropertyOp56
 70
     0
102
RTVSPropertyOp57
 70
     0
102
RTVSPropertyOp58
 70
     0
102
RTVSPropertyOp59
 70
     0
102
RTVSPropertyOp60
 70
     0
102
RTVSPropertyOp61
 70
     0
102
RTVSPropertyOp62
 70
     0
  0
XRECORD
  5
8681
102
{ACAD_REACTORS
330
8680
102
}
330
8680
100
AcDbXrecord
280
     1
102
RTVSPost2010Prop28
280
     0
102
RTVSPost2010PropOp28
 70
     1
102
RTVSPost2010Prop29
280
     1
102
RTVSPost2010PropOp29
 70
     1
102
RTVSPost2010Prop30
280
     1
102
RTVSPost2010PropOp30
 70
     1
102
RTVSPost2010Prop31
280
     0
102
RTVSPost2010PropOp31
 70
     1
102
RTVSPost2010Prop32
280
     0
102
RTVSPost2010PropOp32
 70
     1
102
RTVSPost2010Prop33
280
     0
102
RTVSPost2010PropOp33
 70
     1
102
RTVSPost2010Prop34
280
     0
102
RTVSPost2010PropOp34
 70
     1
102
RTVSPost2010Prop35
280
     0
102
RTVSPost2010PropOp35
 70
     1
102
RTVSPost2010Prop36
280
     0
102
RTVSPost2010PropOp36
 70
     1
102
RTVSPost2010Prop37
 90
       50
102
RTVSPost2010PropOp37
 70
     1
102
RTVSPost2010Prop38
140
0.0
102
RTVSPost2010PropOp38
 70
     1
102
RTVSPost2010Prop39
140
1.0
102
RTVSPost2010PropOp39
 70
     1
102
RTVSPost2010Prop40
 90
        0
102
RTVSPost2010PropOp40
 70
     1
102
RTVSPost2010Prop41ColorIndex
 90
       18
102
RTVSPost2010Prop41ColorRGB
 90
        0
102
RTVSPost2010PropOp41
 70
     1
102
RTVSPost2010Prop42
 90
       50
102
RTVSPost2010PropOp42
 70
     1
102
RTVSPost2010Prop43
 90
        3
102
RTVSPost2010PropOp43
 70
     1
102
RTVSPost2010Prop44ColorIndex
 90
        5
102
RTVSPost2010Prop44ColorRGB
 90
      255
102
RTVSPost2010PropOp44
 70
     1
102
RTVSPost2010Prop45
280
     0
102
RTVSPost2010PropOp45
 70
     1
102
RTVSPost2010Prop46
 90
       50
102
RTVSPost2010PropOp46
 70
     1
102
RTVSPost2010Prop47
 90
       50
102
RTVSPost2010PropOp47
 70
     1
102
RTVSPost2010Prop48
 90
       50
102
RTVSPost2010PropOp48
 70
     1
102
RTVSPost2010Prop49
280
     0
102
RTVSPost2010PropOp49
 70
     1
102
RTVSPost2010Prop50
 90
       50
102
RTVSPost2010PropOp50
 70
     1
102
RTVSPost2010Prop51ColorIndex
 90
      256
102
RTVSPost2010Prop51ColorRGB
 90
-16777216
102
RTVSPost2010PropOp51
 70
     0
102
RTVSPost2010Prop52
140
1.0
102
RTVSPost2010PropOp52
 70
     0
102
RTVSPost2010Prop53
 90
        2
102
RTVSPost2010PropOp53
 70
     1
102
RTVSPost2010Prop54
  1
strokes_ogs.tif
102
RTVSPost2010PropOp54
 70
     1
102
RTVSPost2010Prop55
280
     0
102
RTVSPost2010PropOp55
 70
     1
102
RTVSPost2010Prop56
140
1.0
102
RTVSPost2010PropOp56
 70
     1
102
RTVSPost2010Prop57
140
1.0
102
RTVSPost2010PropOp57
 70
     1
102
RTVSPropertyOp0
 70
     1
102
RTVSPropertyOp1
 70
     1
102
RTVSPropertyOp2
 70
     1
102
RTVSPropertyOp3
 70
     1
102
RTVSPropertyOp4
 70
     1
102
RTVSPropertyOp5
 70
     1
102
RTVSPropertyOp6
 70
     1
102
RTVSPropertyOp7
 70
     1
102
RTVSPropertyOp8
 70
     1
102
RTVSPropertyOp9
 70
     1
102
RTVSPropertyOp10
 70
     1
102
RTVSPropertyOp11
 70
     1
102
RTVSPropertyOp12
 70
     1
102
RTVSPropertyOp13
 70
     1
102
RTVSPropertyOp14
 70
     1
102
RTVSPropertyOp15
 70
     1
102
RTVSPropertyOp16
 70
     1
102
RTVSPropertyOp17
 70
     1
102
RTVSPropertyOp18
 70
     1
102
RTVSPropertyOp19
 70
     1
102
RTVSPropertyOp20
 70
     1
102
RTVSPropertyOp21
 70
     1
102
RTVSPropertyOp22
 70
     1
102
RTVSPropertyOp23
 70
     1
102
RTVSPropertyOp24
 70
     1
102
RTVSPropertyOp25
 70
     1
102
RTVSPropertyOp26
 70
     1
102
RTVSPropertyOp27
 70
     1
102
RTVSPropertyOp28
 70
     1
102
RTVSPropertyOp29
 70
     1
102
RTVSPropertyOp30
 70
     1
102
RTVSPropertyOp31
 70
     1
102
RTVSPropertyOp32
 70
     1
102
RTVSPropertyOp33
 70
     1
102
RTVSPropertyOp34
 70
     1
102
RTVSPropertyOp35
 70
     1
102
RTVSPropertyOp36
 70
     1
102
RTVSPropertyOp37
 70
     1
102
RTVSPropertyOp38
 70
     1
102
RTVSPropertyOp39
 70
     1
102
RTVSPropertyOp40
 70
     1
102
RTVSPropertyOp41
 70
     1
102
RTVSPropertyOp42
 70
     1
102
RTVSPropertyOp43
 70
     1
102
RTVSPropertyOp44
 70
     1
102
RTVSPropertyOp45
 70
     1
102
RTVSPropertyOp46
 70
     1
102
RTVSPropertyOp47
 70
     1
102
RTVSPropertyOp48
 70
     1
102
RTVSPropertyOp49
 70
     1
102
RTVSPropertyOp50
 70
     1
102
RTVSPropertyOp51
 70
     0
102
RTVSPropertyOp52
 70
     0
102
RTVSPropertyOp53
 70
     1
102
RTVSPropertyOp54
 70
     1
102
RTVSPropertyOp55
 70
     1
102
RTVSPropertyOp56
 70
     1
102
RTVSPropertyOp57
 70
     1
102
RTVSPropertyOp58
 70
     1
102
RTVSPropertyOp59
 70
     1
102
RTVSPropertyOp60
 70
     1
102
RTVSPropertyOp61
 70
     1
102
RTVSPropertyOp62
 70
     1
  0
XRECORD
  5
8693
102
{ACAD_REACTORS
330
8692
102
}
330
8692
100
AcDbXrecord
280
     1
102
RTVSPost2010Prop28
280
     0
102
RTVSPost2010PropOp28
 70
     1
102
RTVSPost2010Prop29
280
     1
102
RTVSPost2010PropOp29
 70
     1
102
RTVSPost2010Prop30
280
     1
102
RTVSPost2010PropOp30
 70
     1
102
RTVSPost2010Prop31
280
     0
102
RTVSPost2010PropOp31
 70
     1
102
RTVSPost2010Prop32
280
     0
102
RTVSPost2010PropOp32
 70
     1
102
RTVSPost2010Prop33
280
     0
102
RTVSPost2010PropOp33
 70
     1
102
RTVSPost2010Prop34
280
     0
102
RTVSPost2010PropOp34
 70
     1
102
RTVSPost2010Prop35
280
     0
102
RTVSPost2010PropOp35
 70
     1
102
RTVSPost2010Prop36
280
     0
102
RTVSPost2010PropOp36
 70
     1
102
RTVSPost2010Prop37
 90
       50
102
RTVSPost2010PropOp37
 70
     0
102
RTVSPost2010Prop38
140
0.0
102
RTVSPost2010PropOp38
 70
     0
102
RTVSPost2010Prop39
140
1.0
102
RTVSPost2010PropOp39
 70
     0
102
RTVSPost2010Prop40
 90
        0
102
RTVSPost2010PropOp40
 70
     0
102
RTVSPost2010Prop41ColorIndex
 90
       18
102
RTVSPost2010Prop41ColorRGB
 90
        0
102
RTVSPost2010PropOp41
 70
     0
102
RTVSPost2010Prop42
 90
       50
102
RTVSPost2010PropOp42
 70
     0
102
RTVSPost2010Prop43
 90
        3
102
RTVSPost2010PropOp43
 70
     0
102
RTVSPost2010Prop44ColorIndex
 90
        5
102
RTVSPost2010Prop44ColorRGB
 90
      255
102
RTVSPost2010PropOp44
 70
     0
102
RTVSPost2010Prop45
280
     0
102
RTVSPost2010PropOp45
 70
     1
102
RTVSPost2010Prop46
 90
       50
102
RTVSPost2010PropOp46
 70
     0
102
RTVSPost2010Prop47
 90
       50
102
RTVSPost2010PropOp47
 70
     0
102
RTVSPost2010Prop48
 90
       50
102
RTVSPost2010PropOp48
 70
     0
102
RTVSPost2010Prop49
280
     0
102
RTVSPost2010PropOp49
 70
     1
102
RTVSPost2010Prop50
 90
       50
102
RTVSPost2010PropOp50
 70
     0
102
RTVSPost2010Prop51ColorIndex
 90
      256
102
RTVSPost2010Prop51ColorRGB
 90
-16777216
102
RTVSPost2010PropOp51
 70
     0
102
RTVSPost2010Prop52
140
1.0
102
RTVSPost2010PropOp52
 70
     0
102
RTVSPost2010Prop53
 90
        2
102
RTVSPost2010PropOp53
 70
     0
102
RTVSPost2010Prop54
  1
strokes_ogs.tif
102
RTVSPost2010PropOp54
 70
     0
102
RTVSPost2010Prop55
280
     0
102
RTVSPost2010PropOp55
 70
     1
102
RTVSPost2010Prop56
140
1.0
102
RTVSPost2010PropOp56
 70
     0
102
RTVSPost2010Prop57
140
1.0
102
RTVSPost2010PropOp57
 70
     0
102
RTVSPropertyOp0
 70
     0
102
RTVSPropertyOp1
 70
     0
102
RTVSPropertyOp2
 70
     0
102
RTVSPropertyOp3
 70
     0
102
RTVSPropertyOp4
 70
     0
102
RTVSPropertyOp5
 70
     0
102
RTVSPropertyOp6
 70
     0
102
RTVSPropertyOp7
 70
     0
102
RTVSPropertyOp8
 70
     0
102
RTVSPropertyOp9
 70
     0
102
RTVSPropertyOp10
 70
     0
102
RTVSPropertyOp11
 70
     0
102
RTVSPropertyOp12
 70
     0
102
RTVSPropertyOp13
 70
     0
102
RTVSPropertyOp14
 70
     2
102
RTVSPropertyOp15
 70
     0
102
RTVSPropertyOp16
 70
     0
102
RTVSPropertyOp17
 70
     0
102
RTVSPropertyOp18
 70
     0
102
RTVSPropertyOp19
 70
     0
102
RTVSPropertyOp20
 70
     0
102
RTVSPropertyOp21
 70
     0
102
RTVSPropertyOp22
 70
     0
102
RTVSPropertyOp23
 70
     0
102
RTVSPropertyOp24
 70
     0
102
RTVSPropertyOp25
 70
     0
102
RTVSPropertyOp26
 70
     0
102
RTVSPropertyOp27
 70
     0
102
RTVSPropertyOp28
 70
     1
102
RTVSPropertyOp29
 70
     1
102
RTVSPropertyOp30
 70
     1
102
RTVSPropertyOp31
 70
     1
102
RTVSPropertyOp32
 70
     1
102
RTVSPropertyOp33
 70
     1
102
RTVSPropertyOp34
 70
     1
102
RTVSPropertyOp35
 70
     1
102
RTVSPropertyOp36
 70
     1
102
RTVSPropertyOp37
 70
     0
102
RTVSPropertyOp38
 70
     0
102
RTVSPropertyOp39
 70
     0
102
RTVSPropertyOp40
 70
     0
102
RTVSPropertyOp41
 70
     0
102
RTVSPropertyOp42
 70
     0
102
RTVSPropertyOp43
 70
     0
102
RTVSPropertyOp44
 70
     0
102
RTVSPropertyOp45
 70
     1
102
RTVSPropertyOp46
 70
     0
102
RTVSPropertyOp47
 70
     0
102
RTVSPropertyOp48
 70
     0
102
RTVSPropertyOp49
 70
     1
102
RTVSPropertyOp50
 70
     0
102
RTVSPropertyOp51
 70
     0
102
RTVSPropertyOp52
 70
     0
102
RTVSPropertyOp53
 70
     0
102
RTVSPropertyOp54
 70
     0
102
RTVSPropertyOp55
 70
     1
102
RTVSPropertyOp56
 70
     0
102
RTVSPropertyOp57
 70
     0
102
RTVSPropertyOp58
 70
     0
102
RTVSPropertyOp59
 70
     0
102
RTVSPropertyOp60
 70
     0
102
RTVSPropertyOp61
 70
     0
102
RTVSPropertyOp62
 70
     0
  0
XRECORD
  5
8679
102
{ACAD_REACTORS
330
8678
102
}
330
8678
100
AcDbXrecord
280
     1
102
RTVSPost2010Prop28
280
     0
102
RTVSPost2010PropOp28
 70
     1
102
RTVSPost2010Prop29
280
     1
102
RTVSPost2010PropOp29
 70
     1
102
RTVSPost2010Prop30
280
     1
102
RTVSPost2010PropOp30
 70
     1
102
RTVSPost2010Prop31
280
     0
102
RTVSPost2010PropOp31
 70
     1
102
RTVSPost2010Prop32
280
     0
102
RTVSPost2010PropOp32
 70
     1
102
RTVSPost2010Prop33
280
     0
102
RTVSPost2010PropOp33
 70
     1
102
RTVSPost2010Prop34
280
     0
102
RTVSPost2010PropOp34
 70
     1
102
RTVSPost2010Prop35
280
     0
102
RTVSPost2010PropOp35
 70
     1
102
RTVSPost2010Prop36
280
     0
102
RTVSPost2010PropOp36
 70
     1
102
RTVSPost2010Prop37
 90
       50
102
RTVSPost2010PropOp37
 70
     1
102
RTVSPost2010Prop38
140
0.0
102
RTVSPost2010PropOp38
 70
     1
102
RTVSPost2010Prop39
140
1.0
102
RTVSPost2010PropOp39
 70
     1
102
RTVSPost2010Prop40
 90
        0
102
RTVSPost2010PropOp40
 70
     1
102
RTVSPost2010Prop41ColorIndex
 90
       18
102
RTVSPost2010Prop41ColorRGB
 90
        0
102
RTVSPost2010PropOp41
 70
     1
102
RTVSPost2010Prop42
 90
       50
102
RTVSPost2010PropOp42
 70
     1
102
RTVSPost2010Prop43
 90
        3
102
RTVSPost2010PropOp43
 70
     1
102
RTVSPost2010Prop44ColorIndex
 90
        5
102
RTVSPost2010Prop44ColorRGB
 90
      255
102
RTVSPost2010PropOp44
 70
     1
102
RTVSPost2010Prop45
280
     0
102
RTVSPost2010PropOp45
 70
     1
102
RTVSPost2010Prop46
 90
       50
102
RTVSPost2010PropOp46
 70
     1
102
RTVSPost2010Prop47
 90
       50
102
RTVSPost2010PropOp47
 70
     1
102
RTVSPost2010Prop48
 90
       50
102
RTVSPost2010PropOp48
 70
     1
102
RTVSPost2010Prop49
280
     0
102
RTVSPost2010PropOp49
 70
     1
102
RTVSPost2010Prop50
 90
       50
102
RTVSPost2010PropOp50
 70
     1
102
RTVSPost2010Prop51ColorIndex
 90
      256
102
RTVSPost2010Prop51ColorRGB
 90
-16777216
102
RTVSPost2010PropOp51
 70
     0
102
RTVSPost2010Prop52
140
1.0
102
RTVSPost2010PropOp52
 70
     0
102
RTVSPost2010Prop53
 90
        2
102
RTVSPost2010PropOp53
 70
     1
102
RTVSPost2010Prop54
  1
strokes_ogs.tif
102
RTVSPost2010PropOp54
 70
     1
102
RTVSPost2010Prop55
280
     0
102
RTVSPost2010PropOp55
 70
     1
102
RTVSPost2010Prop56
140
1.0
102
RTVSPost2010PropOp56
 70
     1
102
RTVSPost2010Prop57
140
1.0
102
RTVSPost2010PropOp57
 70
     1
102
RTVSPropertyOp0
 70
     1
102
RTVSPropertyOp1
 70
     1
102
RTVSPropertyOp2
 70
     1
102
RTVSPropertyOp3
 70
     1
102
RTVSPropertyOp4
 70
     1
102
RTVSPropertyOp5
 70
     1
102
RTVSPropertyOp6
 70
     1
102
RTVSPropertyOp7
 70
     1
102
RTVSPropertyOp8
 70
     1
102
RTVSPropertyOp9
 70
     1
102
RTVSPropertyOp10
 70
     1
102
RTVSPropertyOp11
 70
     1
102
RTVSPropertyOp12
 70
     1
102
RTVSPropertyOp13
 70
     1
102
RTVSPropertyOp14
 70
     1
102
RTVSPropertyOp15
 70
     1
102
RTVSPropertyOp16
 70
     1
102
RTVSPropertyOp17
 70
     1
102
RTVSPropertyOp18
 70
     1
102
RTVSPropertyOp19
 70
     1
102
RTVSPropertyOp20
 70
     1
102
RTVSPropertyOp21
 70
     1
102
RTVSPropertyOp22
 70
     1
102
RTVSPropertyOp23
 70
     1
102
RTVSPropertyOp24
 70
     1
102
RTVSPropertyOp25
 70
     1
102
RTVSPropertyOp26
 70
     1
102
RTVSPropertyOp27
 70
     1
102
RTVSPropertyOp28
 70
     1
102
RTVSPropertyOp29
 70
     1
102
RTVSPropertyOp30
 70
     1
102
RTVSPropertyOp31
 70
     1
102
RTVSPropertyOp32
 70
     1
102
RTVSPropertyOp33
 70
     1
102
RTVSPropertyOp34
 70
     1
102
RTVSPropertyOp35
 70
     1
102
RTVSPropertyOp36
 70
     1
102
RTVSPropertyOp37
 70
     1
102
RTVSPropertyOp38
 70
     1
102
RTVSPropertyOp39
 70
     1
102
RTVSPropertyOp40
 70
     1
102
RTVSPropertyOp41
 70
     1
102
RTVSPropertyOp42
 70
     1
102
RTVSPropertyOp43
 70
     1
102
RTVSPropertyOp44
 70
     1
102
RTVSPropertyOp45
 70
     1
102
RTVSPropertyOp46
 70
     1
102
RTVSPropertyOp47
 70
     1
102
RTVSPropertyOp48
 70
     1
102
RTVSPropertyOp49
 70
     1
102
RTVSPropertyOp50
 70
     1
102
RTVSPropertyOp51
 70
     0
102
RTVSPropertyOp52
 70
     0
102
RTVSPropertyOp53
 70
     1
102
RTVSPropertyOp54
 70
     1
102
RTVSPropertyOp55
 70
     1
102
RTVSPropertyOp56
 70
     1
102
RTVSPropertyOp57
 70
     1
102
RTVSPropertyOp58
 70
     1
102
RTVSPropertyOp59
 70
     1
102
RTVSPropertyOp60
 70
     1
102
RTVSPropertyOp61
 70
     1
102
RTVSPropertyOp62
 70
     1
  0
XRECORD
  5
868F
102
{ACAD_REACTORS
330
868E
102
}
330
868E
100
AcDbXrecord
280
     1
102
RTVSPost2010Prop28
280
     0
102
RTVSPost2010PropOp28
 70
     1
102
RTVSPost2010Prop29
280
     1
102
RTVSPost2010PropOp29
 70
     1
102
RTVSPost2010Prop30
280
     1
102
RTVSPost2010PropOp30
 70
     1
102
RTVSPost2010Prop31
280
     0
102
RTVSPost2010PropOp31
 70
     1
102
RTVSPost2010Prop32
280
     0
102
RTVSPost2010PropOp32
 70
     1
102
RTVSPost2010Prop33
280
     0
102
RTVSPost2010PropOp33
 70
     1
102
RTVSPost2010Prop34
280
     0
102
RTVSPost2010PropOp34
 70
     1
102
RTVSPost2010Prop35
280
     0
102
RTVSPost2010PropOp35
 70
     1
102
RTVSPost2010Prop36
280
     0
102
RTVSPost2010PropOp36
 70
     1
102
RTVSPost2010Prop37
 90
       50
102
RTVSPost2010PropOp37
 70
     1
102
RTVSPost2010Prop38
140
0.0
102
RTVSPost2010PropOp38
 70
     1
102
RTVSPost2010Prop39
140
1.0
102
RTVSPost2010PropOp39
 70
     1
102
RTVSPost2010Prop40
 90
        0
102
RTVSPost2010PropOp40
 70
     1
102
RTVSPost2010Prop41ColorIndex
 90
       18
102
RTVSPost2010Prop41ColorRGB
 90
        0
102
RTVSPost2010PropOp41
 70
     1
102
RTVSPost2010Prop42
 90
       50
102
RTVSPost2010PropOp42
 70
     1
102
RTVSPost2010Prop43
 90
        3
102
RTVSPost2010PropOp43
 70
     1
102
RTVSPost2010Prop44ColorIndex
 90
        5
102
RTVSPost2010Prop44ColorRGB
 90
      255
102
RTVSPost2010PropOp44
 70
     1
102
RTVSPost2010Prop45
280
     0
102
RTVSPost2010PropOp45
 70
     1
102
RTVSPost2010Prop46
 90
       50
102
RTVSPost2010PropOp46
 70
     1
102
RTVSPost2010Prop47
 90
       50
102
RTVSPost2010PropOp47
 70
     1
102
RTVSPost2010Prop48
 90
       50
102
RTVSPost2010PropOp48
 70
     1
102
RTVSPost2010Prop49
280
     0
102
RTVSPost2010PropOp49
 70
     1
102
RTVSPost2010Prop50
 90
       50
102
RTVSPost2010PropOp50
 70
     1
102
RTVSPost2010Prop51ColorIndex
 90
      256
102
RTVSPost2010Prop51ColorRGB
 90
-16777216
102
RTVSPost2010PropOp51
 70
     0
102
RTVSPost2010Prop52
140
1.0
102
RTVSPost2010PropOp52
 70
     0
102
RTVSPost2010Prop53
 90
        2
102
RTVSPost2010PropOp53
 70
     1
102
RTVSPost2010Prop54
  1
strokes_ogs.tif
102
RTVSPost2010PropOp54
 70
     1
102
RTVSPost2010Prop55
280
     0
102
RTVSPost2010PropOp55
 70
     1
102
RTVSPost2010Prop56
140
1.0
102
RTVSPost2010PropOp56
 70
     1
102
RTVSPost2010Prop57
140
1.0
102
RTVSPost2010PropOp57
 70
     1
102
RTVSPropertyOp0
 70
     1
102
RTVSPropertyOp1
 70
     1
102
RTVSPropertyOp2
 70
     1
102
RTVSPropertyOp3
 70
     1
102
RTVSPropertyOp4
 70
     1
102
RTVSPropertyOp5
 70
     1
102
RTVSPropertyOp6
 70
     1
102
RTVSPropertyOp7
 70
     1
102
RTVSPropertyOp8
 70
     1
102
RTVSPropertyOp9
 70
     1
102
RTVSPropertyOp10
 70
     1
102
RTVSPropertyOp11
 70
     1
102
RTVSPropertyOp12
 70
     1
102
RTVSPropertyOp13
 70
     1
102
RTVSPropertyOp14
 70
     1
102
RTVSPropertyOp15
 70
     1
102
RTVSPropertyOp16
 70
     1
102
RTVSPropertyOp17
 70
     1
102
RTVSPropertyOp18
 70
     1
102
RTVSPropertyOp19
 70
     1
102
RTVSPropertyOp20
 70
     1
102
RTVSPropertyOp21
 70
     1
102
RTVSPropertyOp22
 70
     1
102
RTVSPropertyOp23
 70
     1
102
RTVSPropertyOp24
 70
     1
102
RTVSPropertyOp25
 70
     1
102
RTVSPropertyOp26
 70
     1
102
RTVSPropertyOp27
 70
     1
102
RTVSPropertyOp28
 70
     1
102
RTVSPropertyOp29
 70
     1
102
RTVSPropertyOp30
 70
     1
102
RTVSPropertyOp31
 70
     1
102
RTVSPropertyOp32
 70
     1
102
RTVSPropertyOp33
 70
     1
102
RTVSPropertyOp34
 70
     1
102
RTVSPropertyOp35
 70
     1
102
RTVSPropertyOp36
 70
     1
102
RTVSPropertyOp37
 70
     1
102
RTVSPropertyOp38
 70
     1
102
RTVSPropertyOp39
 70
     1
102
RTVSPropertyOp40
 70
     1
102
RTVSPropertyOp41
 70
     1
102
RTVSPropertyOp42
 70
     1
102
RTVSPropertyOp43
 70
     1
102
RTVSPropertyOp44
 70
     1
102
RTVSPropertyOp45
 70
     1
102
RTVSPropertyOp46
 70
     1
102
RTVSPropertyOp47
 70
     1
102
RTVSPropertyOp48
 70
     1
102
RTVSPropertyOp49
 70
     1
102
RTVSPropertyOp50
 70
     1
102
RTVSPropertyOp51
 70
     0
102
RTVSPropertyOp52
 70
     0
102
RTVSPropertyOp53
 70
     1
102
RTVSPropertyOp54
 70
     1
102
RTVSPropertyOp55
 70
     1
102
RTVSPropertyOp56
 70
     1
102
RTVSPropertyOp57
 70
     1
102
RTVSPropertyOp58
 70
     1
102
RTVSPropertyOp59
 70
     1
102
RTVSPropertyOp60
 70
     1
102
RTVSPropertyOp61
 70
     1
102
RTVSPropertyOp62
 70
     1
  0
XRECORD
  5
868D
102
{ACAD_REACTORS
330
868C
102
}
330
868C
100
AcDbXrecord
280
     1
102
RTVSPost2010Prop28
280
     0
102
RTVSPost2010PropOp28
 70
     1
102
RTVSPost2010Prop29
280
     1
102
RTVSPost2010PropOp29
 70
     1
102
RTVSPost2010Prop30
280
     1
102
RTVSPost2010PropOp30
 70
     1
102
RTVSPost2010Prop31
280
     0
102
RTVSPost2010PropOp31
 70
     1
102
RTVSPost2010Prop32
280
     0
102
RTVSPost2010PropOp32
 70
     1
102
RTVSPost2010Prop33
280
     0
102
RTVSPost2010PropOp33
 70
     1
102
RTVSPost2010Prop34
280
     0
102
RTVSPost2010PropOp34
 70
     1
102
RTVSPost2010Prop35
280
     0
102
RTVSPost2010PropOp35
 70
     1
102
RTVSPost2010Prop36
280
     0
102
RTVSPost2010PropOp36
 70
     1
102
RTVSPost2010Prop37
 90
       50
102
RTVSPost2010PropOp37
 70
     1
102
RTVSPost2010Prop38
140
0.0
102
RTVSPost2010PropOp38
 70
     1
102
RTVSPost2010Prop39
140
1.0
102
RTVSPost2010PropOp39
 70
     1
102
RTVSPost2010Prop40
 90
        0
102
RTVSPost2010PropOp40
 70
     1
102
RTVSPost2010Prop41ColorIndex
 90
       18
102
RTVSPost2010Prop41ColorRGB
 90
        0
102
RTVSPost2010PropOp41
 70
     1
102
RTVSPost2010Prop42
 90
       50
102
RTVSPost2010PropOp42
 70
     1
102
RTVSPost2010Prop43
 90
        3
102
RTVSPost2010PropOp43
 70
     1
102
RTVSPost2010Prop44ColorIndex
 90
        5
102
RTVSPost2010Prop44ColorRGB
 90
      255
102
RTVSPost2010PropOp44
 70
     1
102
RTVSPost2010Prop45
280
     0
102
RTVSPost2010PropOp45
 70
     1
102
RTVSPost2010Prop46
 90
       50
102
RTVSPost2010PropOp46
 70
     1
102
RTVSPost2010Prop47
 90
       50
102
RTVSPost2010PropOp47
 70
     1
102
RTVSPost2010Prop48
 90
       50
102
RTVSPost2010PropOp48
 70
     1
102
RTVSPost2010Prop49
280
     0
102
RTVSPost2010PropOp49
 70
     1
102
RTVSPost2010Prop50
 90
       50
102
RTVSPost2010PropOp50
 70
     1
102
RTVSPost2010Prop51ColorIndex
 90
      256
102
RTVSPost2010Prop51ColorRGB
 90
-16777216
102
RTVSPost2010PropOp51
 70
     0
102
RTVSPost2010Prop52
140
1.0
102
RTVSPost2010PropOp52
 70
     0
102
RTVSPost2010Prop53
 90
        2
102
RTVSPost2010PropOp53
 70
     1
102
RTVSPost2010Prop54
  1
strokes_ogs.tif
102
RTVSPost2010PropOp54
 70
     1
102
RTVSPost2010Prop55
280
     0
102
RTVSPost2010PropOp55
 70
     1
102
RTVSPost2010Prop56
140
1.0
102
RTVSPost2010PropOp56
 70
     1
102
RTVSPost2010Prop57
140
1.0
102
RTVSPost2010PropOp57
 70
     1
102
RTVSPropertyOp0
 70
     1
102
RTVSPropertyOp1
 70
     1
102
RTVSPropertyOp2
 70
     1
102
RTVSPropertyOp3
 70
     1
102
RTVSPropertyOp4
 70
     1
102
RTVSPropertyOp5
 70
     1
102
RTVSPropertyOp6
 70
     1
102
RTVSPropertyOp7
 70
     1
102
RTVSPropertyOp8
 70
     1
102
RTVSPropertyOp9
 70
     1
102
RTVSPropertyOp10
 70
     1
102
RTVSPropertyOp11
 70
     1
102
RTVSPropertyOp12
 70
     1
102
RTVSPropertyOp13
 70
     1
102
RTVSPropertyOp14
 70
     1
102
RTVSPropertyOp15
 70
     1
102
RTVSPropertyOp16
 70
     1
102
RTVSPropertyOp17
 70
     1
102
RTVSPropertyOp18
 70
     1
102
RTVSPropertyOp19
 70
     1
102
RTVSPropertyOp20
 70
     1
102
RTVSPropertyOp21
 70
     1
102
RTVSPropertyOp22
 70
     1
102
RTVSPropertyOp23
 70
     1
102
RTVSPropertyOp24
 70
     1
102
RTVSPropertyOp25
 70
     1
102
RTVSPropertyOp26
 70
     1
102
RTVSPropertyOp27
 70
     1
102
RTVSPropertyOp28
 70
     1
102
RTVSPropertyOp29
 70
     1
102
RTVSPropertyOp30
 70
     1
102
RTVSPropertyOp31
 70
     1
102
RTVSPropertyOp32
 70
     1
102
RTVSPropertyOp33
 70
     1
102
RTVSPropertyOp34
 70
     1
102
RTVSPropertyOp35
 70
     1
102
RTVSPropertyOp36
 70
     1
102
RTVSPropertyOp37
 70
     1
102
RTVSPropertyOp38
 70
     1
102
RTVSPropertyOp39
 70
     1
102
RTVSPropertyOp40
 70
     1
102
RTVSPropertyOp41
 70
     1
102
RTVSPropertyOp42
 70
     1
102
RTVSPropertyOp43
 70
     1
102
RTVSPropertyOp44
 70
     1
102
RTVSPropertyOp45
 70
     1
102
RTVSPropertyOp46
 70
     1
102
RTVSPropertyOp47
 70
     1
102
RTVSPropertyOp48
 70
     1
102
RTVSPropertyOp49
 70
     1
102
RTVSPropertyOp50
 70
     1
102
RTVSPropertyOp51
 70
     0
102
RTVSPropertyOp52
 70
     0
102
RTVSPropertyOp53
 70
     1
102
RTVSPropertyOp54
 70
     1
102
RTVSPropertyOp55
 70
     1
102
RTVSPropertyOp56
 70
     1
102
RTVSPropertyOp57
 70
     1
102
RTVSPropertyOp58
 70
     1
102
RTVSPropertyOp59
 70
     1
102
RTVSPropertyOp60
 70
     1
102
RTVSPropertyOp61
 70
     1
102
RTVSPropertyOp62
 70
     1
  0
XRECORD
  5
8687
102
{ACAD_REACTORS
330
8686
102
}
330
8686
100
AcDbXrecord
280
     1
102
RTVSPost2010Prop28
280
     0
102
RTVSPost2010PropOp28
 70
     1
102
RTVSPost2010Prop29
280
     1
102
RTVSPost2010PropOp29
 70
     1
102
RTVSPost2010Prop30
280
     1
102
RTVSPost2010PropOp30
 70
     1
102
RTVSPost2010Prop31
280
     0
102
RTVSPost2010PropOp31
 70
     1
102
RTVSPost2010Prop32
280
     0
102
RTVSPost2010PropOp32
 70
     1
102
RTVSPost2010Prop33
280
     0
102
RTVSPost2010PropOp33
 70
     1
102
RTVSPost2010Prop34
280
     0
102
RTVSPost2010PropOp34
 70
     1
102
RTVSPost2010Prop35
280
     0
102
RTVSPost2010PropOp35
 70
     1
102
RTVSPost2010Prop36
280
     0
102
RTVSPost2010PropOp36
 70
     1
102
RTVSPost2010Prop37
 90
       50
102
RTVSPost2010PropOp37
 70
     1
102
RTVSPost2010Prop38
140
0.0
102
RTVSPost2010PropOp38
 70
     1
102
RTVSPost2010Prop39
140
1.0
102
RTVSPost2010PropOp39
 70
     1
102
RTVSPost2010Prop40
 90
        0
102
RTVSPost2010PropOp40
 70
     1
102
RTVSPost2010Prop41ColorIndex
 90
       18
102
RTVSPost2010Prop41ColorRGB
 90
        0
102
RTVSPost2010PropOp41
 70
     1
102
RTVSPost2010Prop42
 90
       50
102
RTVSPost2010PropOp42
 70
     1
102
RTVSPost2010Prop43
 90
        3
102
RTVSPost2010PropOp43
 70
     1
102
RTVSPost2010Prop44ColorIndex
 90
        5
102
RTVSPost2010Prop44ColorRGB
 90
      255
102
RTVSPost2010PropOp44
 70
     1
102
RTVSPost2010Prop45
280
     0
102
RTVSPost2010PropOp45
 70
     1
102
RTVSPost2010Prop46
 90
       50
102
RTVSPost2010PropOp46
 70
     1
102
RTVSPost2010Prop47
 90
       50
102
RTVSPost2010PropOp47
 70
     1
102
RTVSPost2010Prop48
 90
       50
102
RTVSPost2010PropOp48
 70
     1
102
RTVSPost2010Prop49
280
     0
102
RTVSPost2010PropOp49
 70
     1
102
RTVSPost2010Prop50
 90
       50
102
RTVSPost2010PropOp50
 70
     1
102
RTVSPost2010Prop51ColorIndex
 90
      256
102
RTVSPost2010Prop51ColorRGB
 90
-16777216
102
RTVSPost2010PropOp51
 70
     0
102
RTVSPost2010Prop52
140
1.0
102
RTVSPost2010PropOp52
 70
     0
102
RTVSPost2010Prop53
 90
        2
102
RTVSPost2010PropOp53
 70
     1
102
RTVSPost2010Prop54
  1
strokes_ogs.tif
102
RTVSPost2010PropOp54
 70
     1
102
RTVSPost2010Prop55
280
     0
102
RTVSPost2010PropOp55
 70
     1
102
RTVSPost2010Prop56
140
1.0
102
RTVSPost2010PropOp56
 70
     1
102
RTVSPost2010Prop57
140
1.0
102
RTVSPost2010PropOp57
 70
     1
102
RTVSPropertyOp0
 70
     1
102
RTVSPropertyOp1
 70
     1
102
RTVSPropertyOp2
 70
     1
102
RTVSPropertyOp3
 70
     1
102
RTVSPropertyOp4
 70
     1
102
RTVSPropertyOp5
 70
     1
102
RTVSPropertyOp6
 70
     1
102
RTVSPropertyOp7
 70
     1
102
RTVSPropertyOp8
 70
     1
102
RTVSPropertyOp9
 70
     1
102
RTVSPropertyOp10
 70
     1
102
RTVSPropertyOp11
 70
     1
102
RTVSPropertyOp12
 70
     1
102
RTVSPropertyOp13
 70
     1
102
RTVSPropertyOp14
 70
     1
102
RTVSPropertyOp15
 70
     1
102
RTVSPropertyOp16
 70
     1
102
RTVSPropertyOp17
 70
     1
102
RTVSPropertyOp18
 70
     1
102
RTVSPropertyOp19
 70
     1
102
RTVSPropertyOp20
 70
     1
102
RTVSPropertyOp21
 70
     1
102
RTVSPropertyOp22
 70
     1
102
RTVSPropertyOp23
 70
     1
102
RTVSPropertyOp24
 70
     1
102
RTVSPropertyOp25
 70
     1
102
RTVSPropertyOp26
 70
     1
102
RTVSPropertyOp27
 70
     1
102
RTVSPropertyOp28
 70
     1
102
RTVSPropertyOp29
 70
     1
102
RTVSPropertyOp30
 70
     1
102
RTVSPropertyOp31
 70
     1
102
RTVSPropertyOp32
 70
     1
102
RTVSPropertyOp33
 70
     1
102
RTVSPropertyOp34
 70
     1
102
RTVSPropertyOp35
 70
     1
102
RTVSPropertyOp36
 70
     1
102
RTVSPropertyOp37
 70
     1
102
RTVSPropertyOp38
 70
     1
102
RTVSPropertyOp39
 70
     1
102
RTVSPropertyOp40
 70
     1
102
RTVSPropertyOp41
 70
     1
102
RTVSPropertyOp42
 70
     1
102
RTVSPropertyOp43
 70
     1
102
RTVSPropertyOp44
 70
     1
102
RTVSPropertyOp45
 70
     1
102
RTVSPropertyOp46
 70
     1
102
RTVSPropertyOp47
 70
     1
102
RTVSPropertyOp48
 70
     1
102
RTVSPropertyOp49
 70
     1
102
RTVSPropertyOp50
 70
     1
102
RTVSPropertyOp51
 70
     0
102
RTVSPropertyOp52
 70
     0
102
RTVSPropertyOp53
 70
     1
102
RTVSPropertyOp54
 70
     1
102
RTVSPropertyOp55
 70
     1
102
RTVSPropertyOp56
 70
     1
102
RTVSPropertyOp57
 70
     1
102
RTVSPropertyOp58
 70
     1
102
RTVSPropertyOp59
 70
     1
102
RTVSPropertyOp60
 70
     1
102
RTVSPropertyOp61
 70
     1
102
RTVSPropertyOp62
 70
     1
  0
XRECORD
  5
8689
102
{ACAD_REACTORS
330
8688
102
}
330
8688
100
AcDbXrecord
280
     1
102
RTVSPost2010Prop28
280
     0
102
RTVSPost2010PropOp28
 70
     1
102
RTVSPost2010Prop29
280
     1
102
RTVSPost2010PropOp29
 70
     1
102
RTVSPost2010Prop30
280
     1
102
RTVSPost2010PropOp30
 70
     1
102
RTVSPost2010Prop31
280
     0
102
RTVSPost2010PropOp31
 70
     1
102
RTVSPost2010Prop32
280
     0
102
RTVSPost2010PropOp32
 70
     1
102
RTVSPost2010Prop33
280
     0
102
RTVSPost2010PropOp33
 70
     1
102
RTVSPost2010Prop34
280
     0
102
RTVSPost2010PropOp34
 70
     1
102
RTVSPost2010Prop35
280
     0
102
RTVSPost2010PropOp35
 70
     1
102
RTVSPost2010Prop36
280
     0
102
RTVSPost2010PropOp36
 70
     1
102
RTVSPost2010Prop37
 90
       50
102
RTVSPost2010PropOp37
 70
     1
102
RTVSPost2010Prop38
140
0.0
102
RTVSPost2010PropOp38
 70
     1
102
RTVSPost2010Prop39
140
1.0
102
RTVSPost2010PropOp39
 70
     1
102
RTVSPost2010Prop40
 90
        0
102
RTVSPost2010PropOp40
 70
     1
102
RTVSPost2010Prop41ColorIndex
 90
       18
102
RTVSPost2010Prop41ColorRGB
 90
        0
102
RTVSPost2010PropOp41
 70
     1
102
RTVSPost2010Prop42
 90
       50
102
RTVSPost2010PropOp42
 70
     1
102
RTVSPost2010Prop43
 90
        3
102
RTVSPost2010PropOp43
 70
     1
102
RTVSPost2010Prop44ColorIndex
 90
        5
102
RTVSPost2010Prop44ColorRGB
 90
      255
102
RTVSPost2010PropOp44
 70
     1
102
RTVSPost2010Prop45
280
     0
102
RTVSPost2010PropOp45
 70
     1
102
RTVSPost2010Prop46
 90
       50
102
RTVSPost2010PropOp46
 70
     1
102
RTVSPost2010Prop47
 90
       50
102
RTVSPost2010PropOp47
 70
     1
102
RTVSPost2010Prop48
 90
       50
102
RTVSPost2010PropOp48
 70
     1
102
RTVSPost2010Prop49
280
     0
102
RTVSPost2010PropOp49
 70
     1
102
RTVSPost2010Prop50
 90
       50
102
RTVSPost2010PropOp50
 70
     1
102
RTVSPost2010Prop51ColorIndex
 90
      256
102
RTVSPost2010Prop51ColorRGB
 90
-16777216
102
RTVSPost2010PropOp51
 70
     0
102
RTVSPost2010Prop52
140
1.0
102
RTVSPost2010PropOp52
 70
     0
102
RTVSPost2010Prop53
 90
        2
102
RTVSPost2010PropOp53
 70
     1
102
RTVSPost2010Prop54
  1
strokes_ogs.tif
102
RTVSPost2010PropOp54
 70
     1
102
RTVSPost2010Prop55
280
     0
102
RTVSPost2010PropOp55
 70
     1
102
RTVSPost2010Prop56
140
1.0
102
RTVSPost2010PropOp56
 70
     1
102
RTVSPost2010Prop57
140
1.0
102
RTVSPost2010PropOp57
 70
     1
102
RTVSPropertyOp0
 70
     1
102
RTVSPropertyOp1
 70
     1
102
RTVSPropertyOp2
 70
     1
102
RTVSPropertyOp3
 70
     1
102
RTVSPropertyOp4
 70
     1
102
RTVSPropertyOp5
 70
     1
102
RTVSPropertyOp6
 70
     1
102
RTVSPropertyOp7
 70
     1
102
RTVSPropertyOp8
 70
     1
102
RTVSPropertyOp9
 70
     1
102
RTVSPropertyOp10
 70
     1
102
RTVSPropertyOp11
 70
     1
102
RTVSPropertyOp12
 70
     1
102
RTVSPropertyOp13
 70
     1
102
RTVSPropertyOp14
 70
     1
102
RTVSPropertyOp15
 70
     1
102
RTVSPropertyOp16
 70
     1
102
RTVSPropertyOp17
 70
     1
102
RTVSPropertyOp18
 70
     1
102
RTVSPropertyOp19
 70
     1
102
RTVSPropertyOp20
 70
     1
102
RTVSPropertyOp21
 70
     1
102
RTVSPropertyOp22
 70
     1
102
RTVSPropertyOp23
 70
     1
102
RTVSPropertyOp24
 70
     1
102
RTVSPropertyOp25
 70
     1
102
RTVSPropertyOp26
 70
     1
102
RTVSPropertyOp27
 70
     1
102
RTVSPropertyOp28
 70
     1
102
RTVSPropertyOp29
 70
     1
102
RTVSPropertyOp30
 70
     1
102
RTVSPropertyOp31
 70
     1
102
RTVSPropertyOp32
 70
     1
102
RTVSPropertyOp33
 70
     1
102
RTVSPropertyOp34
 70
     1
102
RTVSPropertyOp35
 70
     1
102
RTVSPropertyOp36
 70
     1
102
RTVSPropertyOp37
 70
     1
102
RTVSPropertyOp38
 70
     1
102
RTVSPropertyOp39
 70
     1
102
RTVSPropertyOp40
 70
     1
102
RTVSPropertyOp41
 70
     1
102
RTVSPropertyOp42
 70
     1
102
RTVSPropertyOp43
 70
     1
102
RTVSPropertyOp44
 70
     1
102
RTVSPropertyOp45
 70
     1
102
RTVSPropertyOp46
 70
     1
102
RTVSPropertyOp47
 70
     1
102
RTVSPropertyOp48
 70
     1
102
RTVSPropertyOp49
 70
     1
102
RTVSPropertyOp50
 70
     1
102
RTVSPropertyOp51
 70
     0
102
RTVSPropertyOp52
 70
     0
102
RTVSPropertyOp53
 70
     1
102
RTVSPropertyOp54
 70
     1
102
RTVSPropertyOp55
 70
     1
102
RTVSPropertyOp56
 70
     1
102
RTVSPropertyOp57
 70
     1
102
RTVSPropertyOp58
 70
     1
102
RTVSPropertyOp59
 70
     1
102
RTVSPropertyOp60
 70
     1
102
RTVSPropertyOp61
 70
     1
102
RTVSPropertyOp62
 70
     1
  0
XRECORD
  5
867F
102
{ACAD_REACTORS
330
867E
102
}
330
867E
100
AcDbXrecord
280
     1
102
RTVSPost2010Prop28
280
     0
102
RTVSPost2010PropOp28
 70
     1
102
RTVSPost2010Prop29
280
     1
102
RTVSPost2010PropOp29
 70
     1
102
RTVSPost2010Prop30
280
     1
102
RTVSPost2010PropOp30
 70
     1
102
RTVSPost2010Prop31
280
     0
102
RTVSPost2010PropOp31
 70
     1
102
RTVSPost2010Prop32
280
     0
102
RTVSPost2010PropOp32
 70
     1
102
RTVSPost2010Prop33
280
     0
102
RTVSPost2010PropOp33
 70
     1
102
RTVSPost2010Prop34
280
     0
102
RTVSPost2010PropOp34
 70
     1
102
RTVSPost2010Prop35
280
     0
102
RTVSPost2010PropOp35
 70
     1
102
RTVSPost2010Prop36
280
     0
102
RTVSPost2010PropOp36
 70
     1
102
RTVSPost2010Prop37
 90
       50
102
RTVSPost2010PropOp37
 70
     1
102
RTVSPost2010Prop38
140
0.0
102
RTVSPost2010PropOp38
 70
     1
102
RTVSPost2010Prop39
140
1.0
102
RTVSPost2010PropOp39
 70
     1
102
RTVSPost2010Prop40
 90
        0
102
RTVSPost2010PropOp40
 70
     1
102
RTVSPost2010Prop41ColorIndex
 90
       18
102
RTVSPost2010Prop41ColorRGB
 90
        0
102
RTVSPost2010PropOp41
 70
     1
102
RTVSPost2010Prop42
 90
       50
102
RTVSPost2010PropOp42
 70
     1
102
RTVSPost2010Prop43
 90
        3
102
RTVSPost2010PropOp43
 70
     1
102
RTVSPost2010Prop44ColorIndex
 90
        5
102
RTVSPost2010Prop44ColorRGB
 90
      255
102
RTVSPost2010PropOp44
 70
     1
102
RTVSPost2010Prop45
280
     0
102
RTVSPost2010PropOp45
 70
     1
102
RTVSPost2010Prop46
 90
       50
102
RTVSPost2010PropOp46
 70
     1
102
RTVSPost2010Prop47
 90
       50
102
RTVSPost2010PropOp47
 70
     1
102
RTVSPost2010Prop48
 90
       50
102
RTVSPost2010PropOp48
 70
     1
102
RTVSPost2010Prop49
280
     0
102
RTVSPost2010PropOp49
 70
     1
102
RTVSPost2010Prop50
 90
       50
102
RTVSPost2010PropOp50
 70
     1
102
RTVSPost2010Prop51ColorIndex
 90
      256
102
RTVSPost2010Prop51ColorRGB
 90
-16777216
102
RTVSPost2010PropOp51
 70
     0
102
RTVSPost2010Prop52
140
1.0
102
RTVSPost2010PropOp52
 70
     0
102
RTVSPost2010Prop53
 90
        2
102
RTVSPost2010PropOp53
 70
     1
102
RTVSPost2010Prop54
  1
strokes_ogs.tif
102
RTVSPost2010PropOp54
 70
     1
102
RTVSPost2010Prop55
280
     0
102
RTVSPost2010PropOp55
 70
     1
102
RTVSPost2010Prop56
140
1.0
102
RTVSPost2010PropOp56
 70
     1
102
RTVSPost2010Prop57
140
1.0
102
RTVSPost2010PropOp57
 70
     1
102
RTVSPropertyOp0
 70
     1
102
RTVSPropertyOp1
 70
     1
102
RTVSPropertyOp2
 70
     1
102
RTVSPropertyOp3
 70
     1
102
RTVSPropertyOp4
 70
     1
102
RTVSPropertyOp5
 70
     1
102
RTVSPropertyOp6
 70
     1
102
RTVSPropertyOp7
 70
     1
102
RTVSPropertyOp8
 70
     1
102
RTVSPropertyOp9
 70
     1
102
RTVSPropertyOp10
 70
     1
102
RTVSPropertyOp11
 70
     1
102
RTVSPropertyOp12
 70
     1
102
RTVSPropertyOp13
 70
     1
102
RTVSPropertyOp14
 70
     1
102
RTVSPropertyOp15
 70
     1
102
RTVSPropertyOp16
 70
     1
102
RTVSPropertyOp17
 70
     1
102
RTVSPropertyOp18
 70
     1
102
RTVSPropertyOp19
 70
     1
102
RTVSPropertyOp20
 70
     1
102
RTVSPropertyOp21
 70
     1
102
RTVSPropertyOp22
 70
     1
102
RTVSPropertyOp23
 70
     1
102
RTVSPropertyOp24
 70
     1
102
RTVSPropertyOp25
 70
     1
102
RTVSPropertyOp26
 70
     1
102
RTVSPropertyOp27
 70
     1
102
RTVSPropertyOp28
 70
     1
102
RTVSPropertyOp29
 70
     1
102
RTVSPropertyOp30
 70
     1
102
RTVSPropertyOp31
 70
     1
102
RTVSPropertyOp32
 70
     1
102
RTVSPropertyOp33
 70
     1
102
RTVSPropertyOp34
 70
     1
102
RTVSPropertyOp35
 70
     1
102
RTVSPropertyOp36
 70
     1
102
RTVSPropertyOp37
 70
     1
102
RTVSPropertyOp38
 70
     1
102
RTVSPropertyOp39
 70
     1
102
RTVSPropertyOp40
 70
     1
102
RTVSPropertyOp41
 70
     1
102
RTVSPropertyOp42
 70
     1
102
RTVSPropertyOp43
 70
     1
102
RTVSPropertyOp44
 70
     1
102
RTVSPropertyOp45
 70
     1
102
RTVSPropertyOp46
 70
     1
102
RTVSPropertyOp47
 70
     1
102
RTVSPropertyOp48
 70
     1
102
RTVSPropertyOp49
 70
     1
102
RTVSPropertyOp50
 70
     1
102
RTVSPropertyOp51
 70
     0
102
RTVSPropertyOp52
 70
     0
102
RTVSPropertyOp53
 70
     1
102
RTVSPropertyOp54
 70
     1
102
RTVSPropertyOp55
 70
     1
102
RTVSPropertyOp56
 70
     1
102
RTVSPropertyOp57
 70
     1
102
RTVSPropertyOp58
 70
     1
102
RTVSPropertyOp59
 70
     1
102
RTVSPropertyOp60
 70
     1
102
RTVSPropertyOp61
 70
     1
102
RTVSPropertyOp62
 70
     1
  0
XRECORD
  5
8673
102
{ACAD_REACTORS
330
8672
102
}
330
8672
100
AcDbXrecord
280
     1
102
RTVSPost2010Prop28
280
     0
102
RTVSPost2010PropOp28
 70
     1
102
RTVSPost2010Prop29
280
     1
102
RTVSPost2010PropOp29
 70
     1
102
RTVSPost2010Prop30
280
     1
102
RTVSPost2010PropOp30
 70
     1
102
RTVSPost2010Prop31
280
     0
102
RTVSPost2010PropOp31
 70
     1
102
RTVSPost2010Prop32
280
     0
102
RTVSPost2010PropOp32
 70
     1
102
RTVSPost2010Prop33
280
     0
102
RTVSPost2010PropOp33
 70
     1
102
RTVSPost2010Prop34
280
     0
102
RTVSPost2010PropOp34
 70
     1
102
RTVSPost2010Prop35
280
     0
102
RTVSPost2010PropOp35
 70
     1
102
RTVSPost2010Prop36
280
     0
102
RTVSPost2010PropOp36
 70
     1
102
RTVSPost2010Prop37
 90
       50
102
RTVSPost2010PropOp37
 70
     1
102
RTVSPost2010Prop38
140
0.0
102
RTVSPost2010PropOp38
 70
     1
102
RTVSPost2010Prop39
140
1.0
102
RTVSPost2010PropOp39
 70
     1
102
RTVSPost2010Prop40
 90
        0
102
RTVSPost2010PropOp40
 70
     1
102
RTVSPost2010Prop41ColorIndex
 90
       18
102
RTVSPost2010Prop41ColorRGB
 90
        0
102
RTVSPost2010PropOp41
 70
     1
102
RTVSPost2010Prop42
 90
       50
102
RTVSPost2010PropOp42
 70
     1
102
RTVSPost2010Prop43
 90
        3
102
RTVSPost2010PropOp43
 70
     1
102
RTVSPost2010Prop44ColorIndex
 90
        5
102
RTVSPost2010Prop44ColorRGB
 90
      255
102
RTVSPost2010PropOp44
 70
     1
102
RTVSPost2010Prop45
280
     0
102
RTVSPost2010PropOp45
 70
     1
102
RTVSPost2010Prop46
 90
       50
102
RTVSPost2010PropOp46
 70
     1
102
RTVSPost2010Prop47
 90
       50
102
RTVSPost2010PropOp47
 70
     1
102
RTVSPost2010Prop48
 90
       50
102
RTVSPost2010PropOp48
 70
     1
102
RTVSPost2010Prop49
280
     0
102
RTVSPost2010PropOp49
 70
     1
102
RTVSPost2010Prop50
 90
       50
102
RTVSPost2010PropOp50
 70
     1
102
RTVSPost2010Prop51ColorIndex
 90
      256
102
RTVSPost2010Prop51ColorRGB
 90
-16777216
102
RTVSPost2010PropOp51
 70
     0
102
RTVSPost2010Prop52
140
1.0
102
RTVSPost2010PropOp52
 70
     0
102
RTVSPost2010Prop53
 90
        2
102
RTVSPost2010PropOp53
 70
     1
102
RTVSPost2010Prop54
  1
strokes_ogs.tif
102
RTVSPost2010PropOp54
 70
     1
102
RTVSPost2010Prop55
280
     0
102
RTVSPost2010PropOp55
 70
     1
102
RTVSPost2010Prop56
140
1.0
102
RTVSPost2010PropOp56
 70
     1
102
RTVSPost2010Prop57
140
1.0
102
RTVSPost2010PropOp57
 70
     1
102
RTVSPropertyOp0
 70
     1
102
RTVSPropertyOp1
 70
     1
102
RTVSPropertyOp2
 70
     1
102
RTVSPropertyOp3
 70
     1
102
RTVSPropertyOp4
 70
     1
102
RTVSPropertyOp5
 70
     1
102
RTVSPropertyOp6
 70
     1
102
RTVSPropertyOp7
 70
     1
102
RTVSPropertyOp8
 70
     1
102
RTVSPropertyOp9
 70
     1
102
RTVSPropertyOp10
 70
     1
102
RTVSPropertyOp11
 70
     1
102
RTVSPropertyOp12
 70
     1
102
RTVSPropertyOp13
 70
     1
102
RTVSPropertyOp14
 70
     1
102
RTVSPropertyOp15
 70
     1
102
RTVSPropertyOp16
 70
     1
102
RTVSPropertyOp17
 70
     1
102
RTVSPropertyOp18
 70
     1
102
RTVSPropertyOp19
 70
     1
102
RTVSPropertyOp20
 70
     1
102
RTVSPropertyOp21
 70
     1
102
RTVSPropertyOp22
 70
     1
102
RTVSPropertyOp23
 70
     1
102
RTVSPropertyOp24
 70
     1
102
RTVSPropertyOp25
 70
     1
102
RTVSPropertyOp26
 70
     1
102
RTVSPropertyOp27
 70
     1
102
RTVSPropertyOp28
 70
     1
102
RTVSPropertyOp29
 70
     1
102
RTVSPropertyOp30
 70
     1
102
RTVSPropertyOp31
 70
     1
102
RTVSPropertyOp32
 70
     1
102
RTVSPropertyOp33
 70
     1
102
RTVSPropertyOp34
 70
     1
102
RTVSPropertyOp35
 70
     1
102
RTVSPropertyOp36
 70
     1
102
RTVSPropertyOp37
 70
     1
102
RTVSPropertyOp38
 70
     1
102
RTVSPropertyOp39
 70
     1
102
RTVSPropertyOp40
 70
     1
102
RTVSPropertyOp41
 70
     1
102
RTVSPropertyOp42
 70
     1
102
RTVSPropertyOp43
 70
     1
102
RTVSPropertyOp44
 70
     1
102
RTVSPropertyOp45
 70
     1
102
RTVSPropertyOp46
 70
     1
102
RTVSPropertyOp47
 70
     1
102
RTVSPropertyOp48
 70
     1
102
RTVSPropertyOp49
 70
     1
102
RTVSPropertyOp50
 70
     1
102
RTVSPropertyOp51
 70
     0
102
RTVSPropertyOp52
 70
     0
102
RTVSPropertyOp53
 70
     1
102
RTVSPropertyOp54
 70
     1
102
RTVSPropertyOp55
 70
     1
102
RTVSPropertyOp56
 70
     1
102
RTVSPropertyOp57
 70
     1
102
RTVSPropertyOp58
 70
     1
102
RTVSPropertyOp59
 70
     1
102
RTVSPropertyOp60
 70
     1
102
RTVSPropertyOp61
 70
     1
102
RTVSPropertyOp62
 70
     1
  0
XRECORD
  5
868B
102
{ACAD_REACTORS
330
868A
102
}
330
868A
100
AcDbXrecord
280
     1
102
RTVSPost2010Prop28
280
     0
102
RTVSPost2010PropOp28
 70
     1
102
RTVSPost2010Prop29
280
     1
102
RTVSPost2010PropOp29
 70
     1
102
RTVSPost2010Prop30
280
     1
102
RTVSPost2010PropOp30
 70
     1
102
RTVSPost2010Prop31
280
     0
102
RTVSPost2010PropOp31
 70
     1
102
RTVSPost2010Prop32
280
     0
102
RTVSPost2010PropOp32
 70
     1
102
RTVSPost2010Prop33
280
     0
102
RTVSPost2010PropOp33
 70
     1
102
RTVSPost2010Prop34
280
     0
102
RTVSPost2010PropOp34
 70
     1
102
RTVSPost2010Prop35
280
     0
102
RTVSPost2010PropOp35
 70
     1
102
RTVSPost2010Prop36
280
     0
102
RTVSPost2010PropOp36
 70
     1
102
RTVSPost2010Prop37
 90
       50
102
RTVSPost2010PropOp37
 70
     1
102
RTVSPost2010Prop38
140
0.0
102
RTVSPost2010PropOp38
 70
     1
102
RTVSPost2010Prop39
140
1.0
102
RTVSPost2010PropOp39
 70
     1
102
RTVSPost2010Prop40
 90
        0
102
RTVSPost2010PropOp40
 70
     1
102
RTVSPost2010Prop41ColorIndex
 90
       18
102
RTVSPost2010Prop41ColorRGB
 90
        0
102
RTVSPost2010PropOp41
 70
     1
102
RTVSPost2010Prop42
 90
       50
102
RTVSPost2010PropOp42
 70
     1
102
RTVSPost2010Prop43
 90
        3
102
RTVSPost2010PropOp43
 70
     1
102
RTVSPost2010Prop44ColorIndex
 90
        5
102
RTVSPost2010Prop44ColorRGB
 90
      255
102
RTVSPost2010PropOp44
 70
     1
102
RTVSPost2010Prop45
280
     0
102
RTVSPost2010PropOp45
 70
     1
102
RTVSPost2010Prop46
 90
       50
102
RTVSPost2010PropOp46
 70
     1
102
RTVSPost2010Prop47
 90
       50
102
RTVSPost2010PropOp47
 70
     1
102
RTVSPost2010Prop48
 90
       50
102
RTVSPost2010PropOp48
 70
     1
102
RTVSPost2010Prop49
280
     0
102
RTVSPost2010PropOp49
 70
     1
102
RTVSPost2010Prop50
 90
       50
102
RTVSPost2010PropOp50
 70
     1
102
RTVSPost2010Prop51ColorIndex
 90
      256
102
RTVSPost2010Prop51ColorRGB
 90
-16777216
102
RTVSPost2010PropOp51
 70
     0
102
RTVSPost2010Prop52
140
1.0
102
RTVSPost2010PropOp52
 70
     0
102
RTVSPost2010Prop53
 90
        2
102
RTVSPost2010PropOp53
 70
     1
102
RTVSPost2010Prop54
  1
strokes_ogs.tif
102
RTVSPost2010PropOp54
 70
     1
102
RTVSPost2010Prop55
280
     0
102
RTVSPost2010PropOp55
 70
     1
102
RTVSPost2010Prop56
140
1.0
102
RTVSPost2010PropOp56
 70
     1
102
RTVSPost2010Prop57
140
1.0
102
RTVSPost2010PropOp57
 70
     1
102
RTVSPropertyOp0
 70
     1
102
RTVSPropertyOp1
 70
     1
102
RTVSPropertyOp2
 70
     1
102
RTVSPropertyOp3
 70
     1
102
RTVSPropertyOp4
 70
     1
102
RTVSPropertyOp5
 70
     1
102
RTVSPropertyOp6
 70
     1
102
RTVSPropertyOp7
 70
     1
102
RTVSPropertyOp8
 70
     1
102
RTVSPropertyOp9
 70
     1
102
RTVSPropertyOp10
 70
     1
102
RTVSPropertyOp11
 70
     1
102
RTVSPropertyOp12
 70
     1
102
RTVSPropertyOp13
 70
     1
102
RTVSPropertyOp14
 70
     1
102
RTVSPropertyOp15
 70
     1
102
RTVSPropertyOp16
 70
     1
102
RTVSPropertyOp17
 70
     1
102
RTVSPropertyOp18
 70
     1
102
RTVSPropertyOp19
 70
     1
102
RTVSPropertyOp20
 70
     1
102
RTVSPropertyOp21
 70
     1
102
RTVSPropertyOp22
 70
     1
102
RTVSPropertyOp23
 70
     1
102
RTVSPropertyOp24
 70
     1
102
RTVSPropertyOp25
 70
     1
102
RTVSPropertyOp26
 70
     1
102
RTVSPropertyOp27
 70
     1
102
RTVSPropertyOp28
 70
     1
102
RTVSPropertyOp29
 70
     1
102
RTVSPropertyOp30
 70
     1
102
RTVSPropertyOp31
 70
     1
102
RTVSPropertyOp32
 70
     1
102
RTVSPropertyOp33
 70
     1
102
RTVSPropertyOp34
 70
     1
102
RTVSPropertyOp35
 70
     1
102
RTVSPropertyOp36
 70
     1
102
RTVSPropertyOp37
 70
     1
102
RTVSPropertyOp38
 70
     1
102
RTVSPropertyOp39
 70
     1
102
RTVSPropertyOp40
 70
     1
102
RTVSPropertyOp41
 70
     1
102
RTVSPropertyOp42
 70
     1
102
RTVSPropertyOp43
 70
     1
102
RTVSPropertyOp44
 70
     1
102
RTVSPropertyOp45
 70
     1
102
RTVSPropertyOp46
 70
     1
102
RTVSPropertyOp47
 70
     1
102
RTVSPropertyOp48
 70
     1
102
RTVSPropertyOp49
 70
     1
102
RTVSPropertyOp50
 70
     1
102
RTVSPropertyOp51
 70
     0
102
RTVSPropertyOp52
 70
     0
102
RTVSPropertyOp53
 70
     1
102
RTVSPropertyOp54
 70
     1
102
RTVSPropertyOp55
 70
     1
102
RTVSPropertyOp56
 70
     1
102
RTVSPropertyOp57
 70
     1
102
RTVSPropertyOp58
 70
     1
102
RTVSPropertyOp59
 70
     1
102
RTVSPropertyOp60
 70
     1
102
RTVSPropertyOp61
 70
     1
102
RTVSPropertyOp62
 70
     1
  0
ENDSEC
  0
EOF
