  0
SECTION
  2
HEADER
  9
$ACADVER
  1
AC1015
  9
$ACADMAINTVER
 70
    20
  9
$DWGCODEPAGE
  3
ANSI_932
  9
$INSBASE
 10
0.0
 20
0.0
 30
0.0
  9
$EXTMIN
 10
-0.2563280987742473
 20
-0.3600799482810544
 30
-0.0015258207003583
  9
$EXTMAX
 10
8400.256367214323
 20
11800.3601348963
 30
0.0000000349246037
  9
$LIMMIN
 10
0.0
 20
0.0
  9
$LIMMAX
 10
297.0
 20
210.0
  9
$ORTHOMODE
 70
     1
  9
$REGENMODE
 70
     1
  9
$FILLMODE
 70
     0
  9
$QTEXTMODE
 70
     0
  9
$MIRRTEXT
 70
     1
  9
$LTSCALE
 40
100.0
  9
$ATTMODE
 70
     1
  9
$TEXTSIZE
 40
180.0
  9
$TRACEWID
 40
0.05
  9
$TEXTSTYLE
  7
STANDARD
  9
$CLAYER
  8
3
  9
$CELTYPE
  6
ByLayer
  9
$CECOLOR
 62
   256
  9
$CELTSCALE
 40
1.0
  9
$DISPSILH
 70
     0
  9
$DIMSCALE
 40
40.0
  9
$DIMASZ
 40
2.0
  9
$DIMEXO
 40
0.5
  9
$DIMDLI
 40
10.0
  9
$DIMRND
 40
0.0
  9
$DIMDLE
 40
0.0
  9
$DIMEXE
 40
1.0
  9
$DIMTP
 40
1.0
  9
$DIMTM
 40
1.0
  9
$DIMTXT
 40
3.0
  9
$DIMCEN
 40
0.0
  9
$DIMTSZ
 40
0.0
  9
$DIMTOL
 70
     0
  9
$DIMLIM
 70
     0
  9
$DIMTIH
 70
     0
  9
$DIMTOH
 70
     0
  9
$DIMSE1
 70
     0
  9
$DIMSE2
 70
     0
  9
$DIMTAD
 70
     1
  9
$DIMZIN
 70
     8
  9
$DIMBLK
  1

  9
$DIMASO
 70
     1
  9
$DIMSHO
 70
     1
  9
$DIMPOST
  1

  9
$DIMAPOST
  1

  9
$DIMALT
 70
     0
  9
$DIMALTD
 70
     2
  9
$DIMALTF
 40
0.039
  9
$DIMLFAC
 40
1.0
  9
$DIMTOFL
 70
     1
  9
$DIMTVP
 40
0.0
  9
$DIMTIX
 70
     0
  9
$DIMSOXD
 70
     0
  9
$DIMSAH
 70
     1
  9
$DIMBLK1
  1
OPEN
  9
$DIMBLK2
  1
OPEN
  9
$DIMSTYLE
  2
IGA
  9
$DIMCLRD
 70
     0
  9
$DIMCLRE
 70
     0
  9
$DIMCLRT
 70
     0
  9
$DIMTFAC
 40
10.0
  9
$DIMGAP
 40
1.0
  9
$DIMJUST
 70
     0
  9
$DIMSD1
 70
     0
  9
$DIMSD2
 70
     0
  9
$DIMTOLJ
 70
     1
  9
$DIMTZIN
 70
     0
  9
$DIMALTZ
 70
     0
  9
$DIMALTTZ
 70
     0
  9
$DIMUPT
 70
     0
  9
$DIMDEC
 70
     4
  9
$DIMTDEC
 70
     4
  9
$DIMALTU
 70
     2
  9
$DIMALTTD
 70
     2
  9
$DIMTXSTY
  7
STANDARD
  9
$DIMAUNIT
 70
     0
  9
$DIMADEC
 70
     0
  9
$DIMALTRND
 40
0.0
  9
$DIMAZIN
 70
     0
  9
$DIMDSEP
 70
    46
  9
$DIMATFIT
 70
     3
  9
$DIMFRAC
 70
     0
  9
$DIMLDRBLK
  1
OPEN
  9
$DIMLUNIT
 70
     2
  9
$DIMLWD
 70
    -2
  9
$DIMLWE
 70
    -2
  9
$DIMTMOVE
 70
     0
  9
$LUNITS
 70
     2
  9
$LUPREC
 70
     3
  9
$SKETCHINC
 40
0.1
  9
$FILLETRAD
 40
50.0
  9
$AUNITS
 70
     0
  9
$AUPREC
 70
     0
  9
$MENU
  1
acad
  9
$ELEVATION
 40
0.0
  9
$PELEVATION
 40
0.0
  9
$THICKNESS
 40
0.0
  9
$LIMCHECK
 70
     0
  9
$CHAMFERA
 40
0.5
  9
$CHAMFERB
 40
0.5
  9
$CHAMFERC
 40
0.0
  9
$CHAMFERD
 40
0.0
  9
$SKPOLY
 70
     0
  9
$TDCREATE
 40
2451897.649359722
  9
$TDUCREATE
 40
2451897.274359722
  9
$TDUPDATE
 40
2460280.710513136
  9
$TDUUPDATE
 40
2460280.335513136
  9
$TDINDWG
 40
0.0581510995
  9
$TDUSRTIMER
 40
0.0581510880
  9
$USRTIMER
 70
     1
  9
$ANGBASE
 50
0.0
  9
$ANGDIR
 70
     0
  9
$PDMODE
 70
     0
  9
$PDSIZE
 40
0.0
  9
$PLINEWID
 40
0.0
  9
$SPLFRAME
 70
     0
  9
$SPLINETYPE
 70
     6
  9
$SPLINESEGS
 70
     8
  9
$HANDSEED
  5
85DD
  9
$SURFTAB1
 70
     6
  9
$SURFTAB2
 70
     6
  9
$SURFTYPE
 70
     6
  9
$SURFU
 70
     6
  9
$SURFV
 70
     6
  9
$UCSBASE
  2

  9
$UCSNAME
  2

  9
$UCSORG
 10
0.0
 20
0.0
 30
0.0
  9
$UCSXDIR
 10
1.0
 20
0.0
 30
0.0
  9
$UCSYDIR
 10
0.0
 20
1.0
 30
0.0
  9
$UCSORTHOREF
  2

  9
$UCSORTHOVIEW
 70
     0
  9
$UCSORGTOP
 10
0.0
 20
0.0
 30
0.0
  9
$UCSORGBOTTOM
 10
0.0
 20
0.0
 30
0.0
  9
$UCSORGLEFT
 10
0.0
 20
0.0
 30
0.0
  9
$UCSORGRIGHT
 10
0.0
 20
0.0
 30
0.0
  9
$UCSORGFRONT
 10
0.0
 20
0.0
 30
0.0
  9
$UCSORGBACK
 10
0.0
 20
0.0
 30
0.0
  9
$PUCSBASE
  2

  9
$PUCSNAME
  2

  9
$PUCSORG
 10
0.0
 20
0.0
 30
0.0
  9
$PUCSXDIR
 10
1.0
 20
0.0
 30
0.0
  9
$PUCSYDIR
 10
0.0
 20
1.0
 30
0.0
  9
$PUCSORTHOREF
  2

  9
$PUCSORTHOVIEW
 70
     0
  9
$PUCSORGTOP
 10
0.0
 20
0.0
 30
0.0
  9
$PUCSORGBOTTOM
 10
0.0
 20
0.0
 30
0.0
  9
$PUCSORGLEFT
 10
0.0
 20
0.0
 30
0.0
  9
$PUCSORGRIGHT
 10
0.0
 20
0.0
 30
0.0
  9
$PUCSORGFRONT
 10
0.0
 20
0.0
 30
0.0
  9
$PUCSORGBACK
 10
0.0
 20
0.0
 30
0.0
  9
$USERI1
 70
     0
  9
$USERI2
 70
     0
  9
$USERI3
 70
     0
  9
$USERI4
 70
     0
  9
$USERI5
 70
     0
  9
$USERR1
 40
0.0
  9
$USERR2
 40
0.0
  9
$USERR3
 40
0.0
  9
$USERR4
 40
0.0
  9
$USERR5
 40
0.0
  9
$WORLDVIEW
 70
     1
  9
$SHADEDGE
 70
     3
  9
$SHADEDIF
 70
    70
  9
$TILEMODE
 70
     1
  9
$MAXACTVP
 70
    16
  9
$PINSBASE
 10
0.0
 20
0.0
 30
0.0
  9
$PLIMCHECK
 70
     0
  9
$PEXTMIN
 10
1.000000000000000E+20
 20
1.000000000000000E+20
 30
1.000000000000000E+20
  9
$PEXTMAX
 10
-1.000000000000000E+20
 20
-1.000000000000000E+20
 30
-1.000000000000000E+20
  9
$PLIMMIN
 10
0.0
 20
0.0
  9
$PLIMMAX
 10
12.0
 20
9.0
  9
$UNITMODE
 70
     0
  9
$VISRETAIN
 70
     0
  9
$PLINEGEN
 70
     0
  9
$PSLTSCALE
 70
     1
  9
$TREEDEPTH
 70
  3020
  9
$CMLSTYLE
  2
Standard
  9
$CMLJUST
 70
     0
  9
$CMLSCALE
 40
1.0
  9
$PROXYGRAPHICS
 70
     1
  9
$MEASUREMENT
 70
     0
  9
$CELWEIGHT
370
    -1
  9
$ENDCAPS
280
     0
  9
$JOINSTYLE
280
     0
  9
$LWDISPLAY
290
     0
  9
$INSUNITS
 70
     0
  9
$HYPERLINKBASE
  1

  9
$STYLESHEET
  1

  9
$XEDIT
290
     1
  9
$CEPSNTYPE
380
     0
  9
$PSTYLEMODE
290
     1
  9
$FINGERPRINTGUID
  2
{C69D7714-E607-40AA-8799-AF90ECEC3EBC}
  9
$VERSIONGUID
  2
{3ABC647D-C651-44F5-AE1C-5C6C4FD9961E}
  9
$EXTNAMES
290
     1
  9
$PSVPSCALE
 40
0.0
  9
$OLESTARTUP
290
     0
  0
ENDSEC
  0
SECTION
  2
CLASSES
  0
CLASS
  1
ACDBDICTIONARYWDFLT
  2
AcDbDictionaryWithDefault
  3
ObjectDBX Classes
 90
        0
280
     0
281
     0
  0
CLASS
  1
MATERIAL
  2
AcDbMaterial
  3
ObjectDBX Classes
 90
     1153
280
     0
281
     0
  0
CLASS
  1
VISUALSTYLE
  2
AcDbVisualStyle
  3
ObjectDBX Classes
 90
     4095
280
     0
281
     0
  0
CLASS
  1
SCALE
  2
AcDbScale
  3
ObjectDBX Classes
 90
     1153
280
     0
281
     0
  0
CLASS
  1
TABLESTYLE
  2
AcDbTableStyle
  3
ObjectDBX Classes
 90
     4095
280
     0
281
     0
  0
CLASS
  1
MLEADERSTYLE
  2
AcDbMLeaderStyle
  3
ACDB_MLEADERSTYLE_CLASS
 90
     4095
280
     0
281
     0
  0
CLASS
  1
ACDBSECTIONVIEWSTYLE
  2
AcDbSectionViewStyle
  3
ObjectDBX Classes
 90
     1025
280
     0
281
     0
  0
CLASS
  1
ACDBDETAILVIEWSTYLE
  2
AcDbDetailViewStyle
  3
ObjectDBX Classes
 90
     1025
280
     0
281
     0
  0
CLASS
  1
SORTENTSTABLE
  2
AcDbSortentsTable
  3
ObjectDBX Classes
 90
        0
280
     0
281
     0
  0
CLASS
  1
DICTIONARYVAR
  2
AcDbDictionaryVar
  3
ObjectDBX Classes
 90
        0
280
     0
281
     0
  0
CLASS
  1
CELLSTYLEMAP
  2
AcDbCellStyleMap
  3
ObjectDBX Classes
 90
     1152
280
     0
281
     0
  0
CLASS
  1
ACDBPLACEHOLDER
  2
AcDbPlaceHolder
  3
ObjectDBX Classes
 90
        0
280
     0
281
     0
  0
CLASS
  1
LAYOUT
  2
AcDbLayout
  3
ObjectDBX Classes
 90
        0
280
     0
281
     0
  0
ENDSEC
  0
SECTION
  2
TABLES
  0
TABLE
  2
VPORT
  5
83A2
330
0
100
AcDbSymbolTable
 70
     1
  0
VPORT
  5
840E
330
83A2
100
AcDbSymbolTableRecord
100
AcDbViewportTableRecord
  2
*ACTIVE
 70
     0
 10
0.0
 20
0.0
 11
1.0
 21
1.0
 12
4200.000019557773
 22
5900.000027474012
 13
0.0
 23
0.0
 14
10.0
 24
10.0
 15
10.0
 25
10.0
 16
0.0
 26
0.0
 36
1.0
 17
0.0
 27
0.0
 37
0.0
 40
11876.28512550527
 41
2.050213675213675
 42
50.0
 43
0.0
 44
0.0
 50
0.0
 51
0.0
 71
     0
 72
   100
 73
     1
 74
     0
 75
     0
 76
     0
 77
     0
 78
     0
281
     0
 65
     1
110
0.0
120
0.0
130
0.0
111
1.0
121
0.0
131
0.0
112
0.0
122
1.0
132
0.0
 79
     0
146
0.0
1001
ACAD_NAV_VCDISPLAY
1070
     3
  0
ENDTAB
  0
TABLE
  2
LTYPE
  5
839F
330
0
100
AcDbSymbolTable
 70
     3
  0
LTYPE
  5
83F4
330
839F
100
AcDbSymbolTableRecord
100
AcDbLinetypeTableRecord
  2
ByBlock
 70
     0
  3

 72
    65
 73
     0
 40
0.0
  0
LTYPE
  5
83F5
330
839F
100
AcDbSymbolTableRecord
100
AcDbLinetypeTableRecord
  2
ByLayer
 70
     0
  3

 72
    65
 73
     0
 40
0.0
  0
LTYPE
  5
83F6
330
839F
100
AcDbSymbolTableRecord
100
AcDbLinetypeTableRecord
  2
CONTINUOUS
 70
     0
  3
Solid line
 72
    65
 73
     0
 40
0.0
  0
LTYPE
  5
840F
330
839F
100
AcDbSymbolTableRecord
100
AcDbLinetypeTableRecord
  2
CENTER
 70
     0
  3
____ _ ____ _ ____ _ ____ _ ____ _ ____ _ ____ 
 72
    65
 73
     4
 40
2.0
 49
1.25
 74
     0
 49
-0.25
 74
     0
 49
0.25
 74
     0
 49
-0.25
 74
     0
  0
ENDTAB
  0
TABLE
  2
LAYER
  5
839C
330
0
100
AcDbSymbolTable
 70
     6
  0
LAYER
  5
83EE
102
{ACAD_XDICTIONARY
360
8587
102
}
330
839C
100
AcDbSymbolTableRecord
100
AcDbLayerTableRecord
  2
0
 70
     0
 62
     7
  6
CONTINUOUS
370
    -3
390
83A9
  0
LAYER
  5
840D
102
{ACAD_XDICTIONARY
360
8589
102
}
330
839C
100
AcDbSymbolTableRecord
100
AcDbLayerTableRecord
  2
3
 70
     0
 62
     2
  6
CONTINUOUS
370
    -3
390
83A9
  0
LAYER
  5
8410
102
{ACAD_XDICTIONARY
360
858B
102
}
330
839C
100
AcDbSymbolTableRecord
100
AcDbLayerTableRecord
  2
2
 70
     0
 62
     3
  6
CENTER
370
    -3
390
83A9
  0
LAYER
  5
8411
102
{ACAD_XDICTIONARY
360
858D
102
}
330
839C
100
AcDbSymbolTableRecord
100
AcDbLayerTableRecord
  2
1
 70
     0
 62
     4
  6
CONTINUOUS
370
    -3
390
83A9
  0
LAYER
  5
8412
102
{ACAD_XDICTIONARY
360
858F
102
}
330
839C
100
AcDbSymbolTableRecord
100
AcDbLayerTableRecord
  2
4
 70
     0
 62
     7
  6
CONTINUOUS
370
    -3
390
83A9
  0
LAYER
  5
8413
330
839C
100
AcDbSymbolTableRecord
100
AcDbLayerTableRecord
  2
DEFPOINTS
 70
     0
 62
     7
  6
CONTINUOUS
290
     0
370
    -3
390
83A9
  0
ENDTAB
  0
TABLE
  2
STYLE
  5
839D
330
0
100
AcDbSymbolTable
 70
     2
  0
STYLE
  5
83EF
330
839D
100
AcDbSymbolTableRecord
100
AcDbTextStyleTableRecord
  2
STANDARD
 70
     0
 40
0.0
 41
1.0
 50
0.0
 71
     0
 42
180.0
  3
simplex.shx
  4
extfont.shx
  0
STYLE
  5
83F3
330
839D
100
AcDbSymbolTableRecord
100
AcDbTextStyleTableRecord
  2
Annotative
 70
     0
 40
0.0
 41
1.0
 50
0.0
 71
     0
 42
0.2
  3
txt
  4

1001
AcadAnnotative
1000
AnnotativeData
1002
{
1070
     1
1070
     1
1002
}
  0
ENDTAB
  0
TABLE
  2
VIEW
  5
83A0
330
0
100
AcDbSymbolTable
 70
     0
  0
ENDTAB
  0
TABLE
  2
UCS
  5
83A1
330
0
100
AcDbSymbolTable
 70
     0
  0
ENDTAB
  0
TABLE
  2
APPID
  5
83A3
330
0
100
AcDbSymbolTable
 70
     6
  0
APPID
  5
83F0
330
83A3
100
AcDbSymbolTableRecord
100
AcDbRegAppTableRecord
  2
ACAD
 70
     0
  0
APPID
  5
83F7
330
83A3
100
AcDbSymbolTableRecord
100
AcDbRegAppTableRecord
  2
AcadAnnotative
 70
     0
  0
APPID
  5
8485
330
83A3
100
AcDbSymbolTableRecord
100
AcDbRegAppTableRecord
  2
AcadAnnoMonitorAlertIconDisabled
 70
     0
  0
APPID
  5
8486
330
83A3
100
AcDbSymbolTableRecord
100
AcDbRegAppTableRecord
  2
ACAD_EXEMPT_FROM_CAD_STANDARDS
 70
     0
  0
APPID
  5
859B
330
83A3
100
AcDbSymbolTableRecord
100
AcDbRegAppTableRecord
  2
ACAD_NAV_VCDISPLAY
 70
     0
  0
APPID
  5
85D4
330
83A3
100
AcDbSymbolTableRecord
100
AcDbRegAppTableRecord
  2
ACAD_MLEADERVER
 70
     0
  0
ENDTAB
  0
TABLE
  2
DIMSTYLE
  5
83A4
330
0
100
AcDbSymbolTable
 70
     3
100
AcDbDimStyleTable
 71
     1
340
8414
  0
DIMSTYLE
105
83F1
102
{ACAD_REACTORS
330
81F9
330
8206
330
8213
330
8220
330
822D
102
}
330
83A4
100
AcDbSymbolTableRecord
100
AcDbDimStyleTableRecord
  2
Standard
 70
     0
340
83EF
  0
DIMSTYLE
105
83F2
330
83A4
100
AcDbSymbolTableRecord
100
AcDbDimStyleTableRecord
  2
Annotative
 70
     0
340
83EF
1001
AcadAnnotative
1000
AnnotativeData
1002
{
1070
     1
1070
     1
1002
}
  0
DIMSTYLE
105
8414
102
{ACAD_REACTORS
330
844D
330
845A
330
846B
330
8478
330
84E2
330
84EF
330
84FC
330
8509
330
8516
330
8539
330
8546
330
8553
330
8560
330
856D
330
857A
102
}
330
83A4
100
AcDbSymbolTableRecord
100
AcDbDimStyleTableRecord
  2
IGA
 70
     0
 40
2.0
 41
2.0
 42
0.5
 43
10.0
 44
1.0
 47
1.0
 48
1.0
 73
     0
 74
     0
 77
     1
 78
     8
140
3.0
141
0.0
143
0.03937
146
10.0
147
1.0
173
     1
271
     3
272
     3
279
     2
284
     8
285
     8
286
     8
340
83EF
  0
ENDTAB
  0
TABLE
  2
BLOCK_RECORD
  5
839B
330
0
100
AcDbSymbolTable
 70
    42
  0
BLOCK_RECORD
  5
8409
102
{ACAD_XDICTIONARY
360
8468
102
}
330
839B
100
AcDbSymbolTableRecord
100
AcDbBlockTableRecord
  2
*Model_Space
340
840C
  0
BLOCK_RECORD
  5
8405
330
839B
100
AcDbSymbolTableRecord
100
AcDbBlockTableRecord
  2
*Paper_Space
340
8408
  0
BLOCK_RECORD
  5
8418
330
839B
100
AcDbSymbolTableRecord
100
AcDbBlockTableRecord
  2
$MODEL_SPACE
340
0
  0
BLOCK_RECORD
  5
841A
330
839B
100
AcDbSymbolTableRecord
100
AcDbBlockTableRecord
  2
$PAPER_SPACE
340
0
  0
BLOCK_RECORD
  5
841C
330
839B
100
AcDbSymbolTableRecord
100
AcDbBlockTableRecord
  2
YA_N
340
0
102
{BLKREFS
331
7C23
331
7C50
331
7C77
331
7CCF
102
}
  0
BLOCK_RECORD
  5
841E
330
839B
100
AcDbSymbolTableRecord
100
AcDbBlockTableRecord
  2
*D3
340
0
  0
BLOCK_RECORD
  5
8420
330
839B
100
AcDbSymbolTableRecord
100
AcDbBlockTableRecord
  2
_OPEN
340
0
102
{BLKREFS
331
8379
331
837A
331
8574
331
8575
331
8581
331
8582
331
8382
331
8383
331
8510
331
8511
331
851D
331
851E
331
8533
331
8534
331
8540
331
8541
331
854D
331
854E
331
855A
331
855B
331
8567
331
8568
331
84D3
331
84D4
331
84DC
331
84DD
331
84E9
331
84EA
331
84F6
331
84F7
331
8503
331
8504
331
81F2
331
81F3
331
81FF
331
8200
331
820C
331
820D
331
8219
331
821A
331
8226
331
8227
331
835E
331
835F
331
8367
331
8368
331
8370
331
8371
331
8331
331
8332
331
833A
331
833B
331
8343
331
8344
331
834C
331
834D
331
8355
331
8356
331
8304
331
8305
331
830D
331
830E
331
8316
331
8317
331
831F
331
8320
331
8328
331
8329
331
847F
331
8480
331
8494
331
8495
102
}
  0
BLOCK_RECORD
  5
8421
330
839B
100
AcDbSymbolTableRecord
100
AcDbBlockTableRecord
  2
*D5
340
0
  0
BLOCK_RECORD
  5
8423
330
839B
100
AcDbSymbolTableRecord
100
AcDbBlockTableRecord
  2
*D6
340
0
  0
BLOCK_RECORD
  5
8425
330
839B
100
AcDbSymbolTableRecord
100
AcDbBlockTableRecord
  2
*D7
340
0
  0
BLOCK_RECORD
  5
8427
330
839B
100
AcDbSymbolTableRecord
100
AcDbBlockTableRecord
  2
*D8
340
0
  0
BLOCK_RECORD
  5
8429
330
839B
100
AcDbSymbolTableRecord
100
AcDbBlockTableRecord
  2
*D9
340
0
  0
BLOCK_RECORD
  5
842B
330
839B
100
AcDbSymbolTableRecord
100
AcDbBlockTableRecord
  2
*D10
340
0
  0
BLOCK_RECORD
  5
842D
330
839B
100
AcDbSymbolTableRecord
100
AcDbBlockTableRecord
  2
*D11
340
0
  0
BLOCK_RECORD
  5
842F
330
839B
100
AcDbSymbolTableRecord
100
AcDbBlockTableRecord
  2
*D12
340
0
  0
BLOCK_RECORD
  5
8431
330
839B
100
AcDbSymbolTableRecord
100
AcDbBlockTableRecord
  2
*D13
340
0
  0
BLOCK_RECORD
  5
8433
330
839B
100
AcDbSymbolTableRecord
100
AcDbBlockTableRecord
  2
*D14
340
0
  0
BLOCK_RECORD
  5
8435
330
839B
100
AcDbSymbolTableRecord
100
AcDbBlockTableRecord
  2
*D15
340
0
  0
BLOCK_RECORD
  5
8437
330
839B
100
AcDbSymbolTableRecord
100
AcDbBlockTableRecord
  2
*D16
340
0
  0
BLOCK_RECORD
  5
8439
330
839B
100
AcDbSymbolTableRecord
100
AcDbBlockTableRecord
  2
*D17
340
0
  0
BLOCK_RECORD
  5
843B
330
839B
100
AcDbSymbolTableRecord
100
AcDbBlockTableRecord
  2
*D18
340
0
  0
BLOCK_RECORD
  5
843E
330
839B
100
AcDbSymbolTableRecord
100
AcDbBlockTableRecord
  2
_DOT
340
0
  0
BLOCK_RECORD
  5
8440
330
839B
100
AcDbSymbolTableRecord
100
AcDbBlockTableRecord
  2
_NONE
340
0
  0
BLOCK_RECORD
  5
8442
330
839B
100
AcDbSymbolTableRecord
100
AcDbBlockTableRecord
  2
*D21
340
0
  0
BLOCK_RECORD
  5
8444
330
839B
100
AcDbSymbolTableRecord
100
AcDbBlockTableRecord
  2
*D22
340
0
  0
BLOCK_RECORD
  5
8446
330
839B
100
AcDbSymbolTableRecord
100
AcDbBlockTableRecord
  2
*D23
340
0
  0
BLOCK_RECORD
  5
8448
330
839B
100
AcDbSymbolTableRecord
100
AcDbBlockTableRecord
  2
*D24
340
0
  0
BLOCK_RECORD
  5
844A
330
839B
100
AcDbSymbolTableRecord
100
AcDbBlockTableRecord
  2
*D25
340
0
  0
BLOCK_RECORD
  5
844E
330
839B
100
AcDbSymbolTableRecord
100
AcDbBlockTableRecord
  2
*D26
340
0
  0
BLOCK_RECORD
  5
845B
330
839B
100
AcDbSymbolTableRecord
100
AcDbBlockTableRecord
  2
*D27
340
0
  0
BLOCK_RECORD
  5
846C
330
839B
100
AcDbSymbolTableRecord
100
AcDbBlockTableRecord
  2
*D28
340
0
  0
BLOCK_RECORD
  5
8479
330
839B
100
AcDbSymbolTableRecord
100
AcDbBlockTableRecord
  2
*D29
340
0
  0
BLOCK_RECORD
  5
84E3
330
839B
100
AcDbSymbolTableRecord
100
AcDbBlockTableRecord
  2
*D30
340
0
  0
BLOCK_RECORD
  5
84F0
330
839B
100
AcDbSymbolTableRecord
100
AcDbBlockTableRecord
  2
*D31
340
0
  0
BLOCK_RECORD
  5
84FD
330
839B
100
AcDbSymbolTableRecord
100
AcDbBlockTableRecord
  2
*D32
340
0
  0
BLOCK_RECORD
  5
850A
330
839B
100
AcDbSymbolTableRecord
100
AcDbBlockTableRecord
  2
*D33
340
0
  0
BLOCK_RECORD
  5
8517
330
839B
100
AcDbSymbolTableRecord
100
AcDbBlockTableRecord
  2
*D34
340
0
  0
BLOCK_RECORD
  5
8524
330
839B
100
AcDbSymbolTableRecord
100
AcDbBlockTableRecord
  2
*D35
340
0
  0
BLOCK_RECORD
  5
853A
330
839B
100
AcDbSymbolTableRecord
100
AcDbBlockTableRecord
  2
*D36
340
0
  0
BLOCK_RECORD
  5
8547
330
839B
100
AcDbSymbolTableRecord
100
AcDbBlockTableRecord
  2
*D37
340
0
  0
BLOCK_RECORD
  5
8554
330
839B
100
AcDbSymbolTableRecord
100
AcDbBlockTableRecord
  2
*D38
340
0
  0
BLOCK_RECORD
  5
8561
330
839B
100
AcDbSymbolTableRecord
100
AcDbBlockTableRecord
  2
*D39
340
0
  0
BLOCK_RECORD
  5
856E
330
839B
100
AcDbSymbolTableRecord
100
AcDbBlockTableRecord
  2
*D40
340
0
  0
BLOCK_RECORD
  5
857B
330
839B
100
AcDbSymbolTableRecord
100
AcDbBlockTableRecord
  2
*D41
340
0
  0
ENDTAB
  0
ENDSEC
  0
SECTION
  2
BLOCKS
  0
BLOCK
  5
840A
330
8409
100
AcDbEntity
  8
0
100
AcDbBlockBegin
  2
*Model_Space
 70
     0
 10
0.0
 20
0.0
 30
0.0
  3
*Model_Space
  1

  0
ENDBLK
  5
840B
330
8409
100
AcDbEntity
  8
0
100
AcDbBlockEnd
  0
BLOCK
  5
8406
330
8405
100
AcDbEntity
 67
     1
  8
0
100
AcDbBlockBegin
  2
*Paper_Space
 70
     0
 10
0.0
 20
0.0
 30
0.0
  3
*Paper_Space
  1

  0
ENDBLK
  5
8407
330
8405
100
AcDbEntity
 67
     1
  8
0
100
AcDbBlockEnd
  0
BLOCK
  5
8419
330
8418
100
AcDbEntity
  8
0
100
AcDbBlockBegin
  2
$MODEL_SPACE
 70
     0
 10
0.0
 20
0.0
 30
0.0
  3
$MODEL_SPACE
  1

  0
ENDBLK
  5
1B
330
8418
100
AcDbEntity
  8
0
100
AcDbBlockEnd
  0
BLOCK
  5
841B
330
841A
100
AcDbEntity
  8
0
100
AcDbBlockBegin
  2
$PAPER_SPACE
 70
     0
 10
0.0
 20
0.0
 30
0.0
  3
$PAPER_SPACE
  1

  0
ENDBLK
  5
18
330
841A
100
AcDbEntity
  8
0
100
AcDbBlockEnd
  0
BLOCK
  5
841D
330
841C
100
AcDbEntity
  8
0
100
AcDbBlockBegin
  2
YA_N
 70
     0
 10
0.0
 20
0.0
 30
0.0
  3
YA_N
  1

  0
ENDBLK
  5
79FE
330
841C
100
AcDbEntity
  8
0
100
AcDbBlockEnd
  0
BLOCK
  5
841F
330
841E
100
AcDbEntity
  8
0
100
AcDbBlockBegin
  2
*D3
 70
     1
 10
0.0
 20
0.0
 30
0.0
  3
*D3
  1

  0
LINE
  5
8301
330
841E
100
AcDbEntity
  8
3
 62
     0
100
AcDbLine
 10
3691.156955993245
 20
5080.144075523783
 30
0.0
 11
3964.167988683202
 21
5080.144075523783
 31
0.0
  0
LINE
  5
8302
330
841E
100
AcDbEntity
  8
3
 62
     0
100
AcDbLine
 10
3691.156955993245
 20
3800.144075523784
 30
0.0
 11
3964.167988683202
 21
3800.144075523784
 31
0.0
  0
LINE
  5
8303
330
841E
100
AcDbEntity
  8
3
 62
     0
100
AcDbLine
 10
3924.167988683201
 20
5000.144075523785
 30
0.0
 11
3924.167988683201
 21
3880.144075523784
 31
0.0
  0
INSERT
  5
8304
330
841E
100
AcDbEntity
  8
3
 62
     0
100
AcDbBlockReference
  2
_OPEN
 10
3924.167988683201
 20
5080.144075523783
 30
0.0
 41
80.0
 42
80.0
 43
80.0
 50
90.0
  0
INSERT
  5
8305
330
841E
100
AcDbEntity
  8
3
 62
     0
100
AcDbBlockReference
  2
_OPEN
 10
3924.167988683201
 20
3800.144075523784
 30
0.0
 41
80.0
 42
80.0
 43
80.0
 50
270.0
  0
TEXT
  5
838B
330
841E
100
AcDbEntity
  8
3
 62
     0
100
AcDbText
 10
3584.17
 20
4227.739999999999
 30
0.0
 40
120.0
  1
1280
100
AcDbText
  0
POINT
  5
8307
330
841E
100
AcDbEntity
  8
DEFPOINTS
 62
     0
100
AcDbPoint
 10
3671.156955993246
 20
5080.144075523783
 30
0.0
  0
POINT
  5
8308
330
841E
100
AcDbEntity
  8
DEFPOINTS
 62
     0
100
AcDbPoint
 10
3671.156955993246
 20
3800.144075523784
 30
0.0
  0
POINT
  5
8309
330
841E
100
AcDbEntity
  8
DEFPOINTS
 62
     0
100
AcDbPoint
 10
3924.167988683201
 20
3800.144075523784
 30
0.0
  0
ENDBLK
  5
801D
330
841E
100
AcDbEntity
  8
0
100
AcDbBlockEnd
  0
BLOCK
  5
843D
330
8420
100
AcDbEntity
  8
0
100
AcDbBlockBegin
  2
_OPEN
 70
     0
 10
0.0
 20
0.0
 30
0.0
  3
_OPEN
  1

  0
LINE
  5
7F33
330
8420
100
AcDbEntity
  8
0
  6
ByBlock
 62
     0
100
AcDbLine
 10
-1.0
 20
0.1666666666666666
 30
0.0
 11
0.0
 21
0.0
 31
0.0
  0
LINE
  5
7F34
330
8420
100
AcDbEntity
  8
0
  6
ByBlock
 62
     0
100
AcDbLine
 10
0.0
 20
0.0
 30
0.0
 11
-1.0
 21
-0.1666666666666666
 31
0.0
  0
LINE
  5
7F35
330
8420
100
AcDbEntity
  8
0
  6
ByBlock
 62
     0
100
AcDbLine
 10
0.0
 20
0.0
 30
0.0
 11
-1.0
 21
0.0
 31
0.0
  0
ENDBLK
  5
7F36
330
8420
100
AcDbEntity
  8
0
100
AcDbBlockEnd
  0
BLOCK
  5
8422
330
8421
100
AcDbEntity
  8
0
100
AcDbBlockBegin
  2
*D5
 70
     1
 10
0.0
 20
0.0
 30
0.0
  3
*D5
  1

  0
LINE
  5
830A
330
8421
100
AcDbEntity
  8
3
 62
     0
100
AcDbLine
 10
3691.156955993245
 20
5080.144075523783
 30
0.0
 11
4211.230831139732
 21
5080.144075523783
 31
0.0
  0
LINE
  5
830B
330
8421
100
AcDbEntity
  8
3
 62
     0
100
AcDbLine
 10
3769.593494242098
 20
3746.144075523783
 30
0.0
 11
4211.230831139732
 21
3746.144075523783
 31
0.0
  0
LINE
  5
830C
330
8421
100
AcDbEntity
  8
3
 62
     0
100
AcDbLine
 10
4171.230831139732
 20
5000.144075523785
 30
0.0
 11
4171.230831139732
 21
3826.144075523784
 31
0.0
  0
INSERT
  5
830D
330
8421
100
AcDbEntity
  8
3
 62
     0
100
AcDbBlockReference
  2
_OPEN
 10
4171.230831139732
 20
5080.144075523783
 30
0.0
 41
80.0
 42
80.0
 43
80.0
 50
90.0
  0
INSERT
  5
830E
330
8421
100
AcDbEntity
  8
3
 62
     0
100
AcDbBlockReference
  2
_OPEN
 10
4171.230831139732
 20
3746.144075523783
 30
0.0
 41
80.0
 42
80.0
 43
80.0
 50
270.0
  0
TEXT
  5
838C
330
8421
100
AcDbEntity
  8
3
 62
     0
100
AcDbText
 10
3831.23
 20
4200.739999999999
 30
0.0
 40
120.0
  1
1334
100
AcDbText
  0
POINT
  5
8310
330
8421
100
AcDbEntity
  8
DEFPOINTS
 62
     0
100
AcDbPoint
 10
3671.156955993246
 20
5080.144075523783
 30
0.0
  0
POINT
  5
8311
330
8421
100
AcDbEntity
  8
DEFPOINTS
 62
     0
100
AcDbPoint
 10
3749.593494242097
 20
3746.144075523783
 30
0.0
  0
POINT
  5
8312
330
8421
100
AcDbEntity
  8
DEFPOINTS
 62
     0
100
AcDbPoint
 10
4171.230831139732
 20
3746.144075523783
 30
0.0
  0
ENDBLK
  5
8012
330
8421
100
AcDbEntity
  8
0
100
AcDbBlockEnd
  0
BLOCK
  5
8424
330
8423
100
AcDbEntity
  8
0
100
AcDbBlockBegin
  2
*D6
 70
     1
 10
0.0
 20
0.0
 30
0.0
  3
*D6
  1

  0
LINE
  5
8313
330
8423
100
AcDbEntity
  8
3
 62
     0
100
AcDbLine
 10
3671.156955993246
 20
5153.144075523783
 30
0.0
 11
3671.156955993246
 21
5422.667020841307
 31
0.0
  0
LINE
  5
8314
330
8423
100
AcDbEntity
  8
3
 62
     0
100
AcDbLine
 10
2846.156955993246
 20
5121.429794629097
 30
0.0
 11
2846.156955993246
 21
5422.667020841307
 31
0.0
  0
LINE
  5
8315
330
8423
100
AcDbEntity
  8
3
 62
     0
100
AcDbLine
 10
3591.156955993245
 20
5382.667020841306
 30
0.0
 11
2926.156955993246
 21
5382.667020841306
 31
0.0
  0
INSERT
  5
8316
330
8423
100
AcDbEntity
  8
3
 62
     0
100
AcDbBlockReference
  2
_OPEN
 10
3671.156955993246
 20
5382.667020841306
 30
0.0
 41
80.0
 42
80.0
 43
80.0
  0
INSERT
  5
8317
330
8423
100
AcDbEntity
  8
3
 62
     0
100
AcDbBlockReference
  2
_OPEN
 10
2846.156955993246
 20
5382.667020841306
 30
0.0
 41
80.0
 42
80.0
 43
80.0
 50
180.0
  0
TEXT
  5
838D
330
8423
100
AcDbEntity
  8
3
 62
     0
100
AcDbText
 10
3018.66
 20
5270.27
 30
0.0
 40
120.0
  1
825
100
AcDbText
  0
POINT
  5
8319
330
8423
100
AcDbEntity
  8
DEFPOINTS
 62
     0
100
AcDbPoint
 10
3671.156955993246
 20
5133.144075523785
 30
0.0
  0
POINT
  5
831A
330
8423
100
AcDbEntity
  8
DEFPOINTS
 62
     0
100
AcDbPoint
 10
2846.156955993246
 20
5101.429794629098
 30
0.0
  0
POINT
  5
831B
330
8423
100
AcDbEntity
  8
DEFPOINTS
 62
     0
100
AcDbPoint
 10
2846.156955993246
 20
5382.667020841306
 30
0.0
  0
ENDBLK
  5
8007
330
8423
100
AcDbEntity
  8
0
100
AcDbBlockEnd
  0
BLOCK
  5
8426
330
8425
100
AcDbEntity
  8
0
100
AcDbBlockBegin
  2
*D7
 70
     1
 10
0.0
 20
0.0
 30
0.0
  3
*D7
  1

  0
LINE
  5
831C
330
8425
100
AcDbEntity
  8
3
 62
     0
100
AcDbLine
 10
2846.156955993246
 20
5121.429794629097
 30
0.0
 11
2846.156955993246
 21
5422.667020841307
 31
0.0
  0
LINE
  5
831D
330
8425
100
AcDbEntity
  8
3
 62
     0
100
AcDbLine
 10
1771.356671382593
 20
3766.144075523783
 30
0.0
 11
1771.356671382593
 21
5422.667020841307
 31
0.0
  0
LINE
  5
831E
330
8425
100
AcDbEntity
  8
3
 62
     0
100
AcDbLine
 10
2766.156955993246
 20
5382.667020841306
 30
0.0
 11
1851.356671382593
 21
5382.667020841306
 31
0.0
  0
INSERT
  5
831F
330
8425
100
AcDbEntity
  8
3
 62
     0
100
AcDbBlockReference
  2
_OPEN
 10
2846.156955993246
 20
5382.667020841306
 30
0.0
 41
80.0
 42
80.0
 43
80.0
  0
INSERT
  5
8320
330
8425
100
AcDbEntity
  8
3
 62
     0
100
AcDbBlockReference
  2
_OPEN
 10
1771.356671382593
 20
5382.667020841306
 30
0.0
 41
80.0
 42
80.0
 43
80.0
 50
180.0
  0
TEXT
  5
838E
330
8425
100
AcDbEntity
  8
3
 62
     0
100
AcDbText
 10
2068.760000000001
 20
5270.27
 30
0.0
 40
120.0
  1
1079
100
AcDbText
  0
POINT
  5
8322
330
8425
100
AcDbEntity
  8
DEFPOINTS
 62
     0
100
AcDbPoint
 10
2846.156955993246
 20
5101.429794629098
 30
0.0
  0
POINT
  5
8323
330
8425
100
AcDbEntity
  8
DEFPOINTS
 62
     0
100
AcDbPoint
 10
1771.356671382593
 20
3746.144075523783
 30
0.0
  0
POINT
  5
8324
330
8425
100
AcDbEntity
  8
DEFPOINTS
 62
     0
100
AcDbPoint
 10
1771.356671382593
 20
5382.667020841306
 30
0.0
  0
ENDBLK
  5
7FFC
330
8425
100
AcDbEntity
  8
0
100
AcDbBlockEnd
  0
BLOCK
  5
8428
330
8427
100
AcDbEntity
  8
0
100
AcDbBlockBegin
  2
*D8
 70
     1
 10
0.0
 20
0.0
 30
0.0
  3
*D8
  1

  0
LINE
  5
8325
330
8427
100
AcDbEntity
  8
3
 62
     0
100
AcDbLine
 10
5476.500975653525
 20
5153.144075523783
 30
0.0
 11
5476.500975653525
 21
5421.543861990349
 31
0.0
  0
LINE
  5
8326
330
8427
100
AcDbEntity
  8
3
 62
     0
100
AcDbLine
 10
7176.500975653526
 20
5153.144075523783
 30
0.0
 11
7176.500975653526
 21
5421.543861990349
 31
0.0
  0
LINE
  5
8327
330
8427
100
AcDbEntity
  8
3
 62
     0
100
AcDbLine
 10
5556.500975653525
 20
5381.543861990349
 30
0.0
 11
7096.500975653525
 21
5381.543861990349
 31
0.0
  0
INSERT
  5
8328
330
8427
100
AcDbEntity
  8
3
 62
     0
100
AcDbBlockReference
  2
_OPEN
 10
5476.500975653525
 20
5381.543861990349
 30
0.0
 41
80.0
 42
80.0
 43
80.0
 50
180.0
  0
INSERT
  5
8329
330
8427
100
AcDbEntity
  8
3
 62
     0
100
AcDbBlockReference
  2
_OPEN
 10
7176.500975653526
 20
5381.543861990349
 30
0.0
 41
80.0
 42
80.0
 43
80.0
  0
TEXT
  5
838F
330
8427
100
AcDbEntity
  8
3
 62
     0
100
AcDbText
 10
6086.5
 20
5269.14
 30
0.0
 40
120.0
  1
1700
100
AcDbText
  0
POINT
  5
832B
330
8427
100
AcDbEntity
  8
DEFPOINTS
 62
     0
100
AcDbPoint
 10
5476.500975653525
 20
5133.144075523785
 30
0.0
  0
POINT
  5
832C
330
8427
100
AcDbEntity
  8
DEFPOINTS
 62
     0
100
AcDbPoint
 10
7176.500975653526
 20
5133.144075523785
 30
0.0
  0
POINT
  5
832D
330
8427
100
AcDbEntity
  8
DEFPOINTS
 62
     0
100
AcDbPoint
 10
7176.500975653526
 20
5381.543861990349
 30
0.0
  0
ENDBLK
  5
7FF1
330
8427
100
AcDbEntity
  8
0
100
AcDbBlockEnd
  0
BLOCK
  5
842A
330
8429
100
AcDbEntity
  8
0
100
AcDbBlockBegin
  2
*D9
 70
     1
 10
0.0
 20
0.0
 30
0.0
  3
*D9
  1

  0
LINE
  5
832E
330
8429
100
AcDbEntity
  8
3
 62
     0
100
AcDbLine
 10
5091.500975653526
 20
4046.144075523783
 30
0.0
 11
5091.500975653526
 21
5674.894753954436
 31
0.0
  0
LINE
  5
832F
330
8429
100
AcDbEntity
  8
3
 62
     0
100
AcDbLine
 10
6326.500975653526
 20
5570.201656594394
 30
0.0
 11
6326.500975653526
 21
5674.894753954436
 31
0.0
  0
LINE
  5
8330
330
8429
100
AcDbEntity
  8
3
 62
     0
100
AcDbLine
 10
5171.500975653526
 20
5634.894753954437
 30
0.0
 11
6246.500975653526
 21
5634.894753954437
 31
0.0
  0
INSERT
  5
8331
330
8429
100
AcDbEntity
  8
3
 62
     0
100
AcDbBlockReference
  2
_OPEN
 10
5091.500975653526
 20
5634.894753954437
 30
0.0
 41
80.0
 42
80.0
 43
80.0
 50
180.0
  0
INSERT
  5
8332
330
8429
100
AcDbEntity
  8
3
 62
     0
100
AcDbBlockReference
  2
_OPEN
 10
6326.500975653526
 20
5634.894753954437
 30
0.0
 41
80.0
 42
80.0
 43
80.0
  0
TEXT
  5
8390
330
8429
100
AcDbEntity
  8
3
 62
     0
100
AcDbText
 10
5469.0
 20
5622.489999999999
 30
0.0
 40
120.0
  1
MAX
100
AcDbText
  0
TEXT
  5
8391
330
8429
100
AcDbEntity
  8
3
 62
     0
100
AcDbText
 10
5469.0
 20
5466.49
 30
0.0
 40
120.0
  1
1280
100
AcDbText
  0
POINT
  5
8334
330
8429
100
AcDbEntity
  8
DEFPOINTS
 62
     0
100
AcDbPoint
 10
5091.500975653526
 20
4026.144075523784
 30
0.0
  0
POINT
  5
8335
330
8429
100
AcDbEntity
  8
DEFPOINTS
 62
     0
100
AcDbPoint
 10
6326.500975653526
 20
5550.201656594396
 30
0.0
  0
POINT
  5
8336
330
8429
100
AcDbEntity
  8
DEFPOINTS
 62
     0
100
AcDbPoint
 10
6326.500975653526
 20
5634.894753954437
 30
0.0
  0
ENDBLK
  5
8131
330
8429
100
AcDbEntity
  8
0
100
AcDbBlockEnd
  0
BLOCK
  5
842C
330
842B
100
AcDbEntity
  8
0
100
AcDbBlockBegin
  2
*D10
 70
     1
 10
0.0
 20
0.0
 30
0.0
  3
*D10
  1

  0
LINE
  5
8337
330
842B
100
AcDbEntity
  8
3
 62
     0
100
AcDbLine
 10
6326.500975653526
 20
5619.504550509097
 30
0.0
 11
6326.500975653526
 21
5674.50716684925
 31
0.0
  0
LINE
  5
8338
330
842B
100
AcDbEntity
  8
3
 62
     0
100
AcDbLine
 10
7336.500975653523
 20
3661.48200662605
 30
0.0
 11
7336.500975653523
 21
5674.50716684925
 31
0.0
  0
LINE
  5
8339
330
842B
100
AcDbEntity
  8
3
 62
     0
100
AcDbLine
 10
6406.500975653526
 20
5634.50716684925
 30
0.0
 11
7256.500975653526
 21
5634.50716684925
 31
0.0
  0
INSERT
  5
833A
330
842B
100
AcDbEntity
  8
3
 62
     0
100
AcDbBlockReference
  2
_OPEN
 10
6326.500975653526
 20
5634.50716684925
 30
0.0
 41
80.0
 42
80.0
 43
80.0
 50
180.0
  0
INSERT
  5
833B
330
842B
100
AcDbEntity
  8
3
 62
     0
100
AcDbBlockReference
  2
_OPEN
 10
7336.500975653523
 20
5634.50716684925
 30
0.0
 41
80.0
 42
80.0
 43
80.0
  0
TEXT
  5
8392
330
842B
100
AcDbEntity
  8
3
 62
     0
100
AcDbText
 10
6591.5
 20
5553.54
 30
0.0
 40
120.0
  1
(1020)
100
AcDbText
  0
POINT
  5
833D
330
842B
100
AcDbEntity
  8
DEFPOINTS
 62
     0
100
AcDbPoint
 10
6326.500975653526
 20
5599.504550509099
 30
0.0
  0
POINT
  5
833E
330
842B
100
AcDbEntity
  8
DEFPOINTS
 62
     0
100
AcDbPoint
 10
7336.500975653523
 20
3641.482006626051
 30
0.0
  0
POINT
  5
833F
330
842B
100
AcDbEntity
  8
DEFPOINTS
 62
     0
100
AcDbPoint
 10
7336.500975653523
 20
5634.50716684925
 30
0.0
  0
ENDBLK
  5
8126
330
842B
100
AcDbEntity
  8
0
100
AcDbBlockEnd
  0
BLOCK
  5
842E
330
842D
100
AcDbEntity
  8
0
100
AcDbBlockBegin
  2
*D11
 70
     1
 10
0.0
 20
0.0
 30
0.0
  3
*D11
  1

  0
LINE
  5
8340
330
842D
100
AcDbEntity
  8
3
 62
     0
100
AcDbLine
 10
7198.800975653526
 20
4371.144075523782
 30
0.0
 11
7627.770600566029
 21
4371.144075523782
 31
0.0
  0
LINE
  5
8341
330
842D
100
AcDbEntity
  8
3
 62
     0
100
AcDbLine
 10
7198.800975653526
 20
3121.144075523782
 30
0.0
 11
7627.770600566029
 21
3121.144075523782
 31
0.0
  0
LINE
  5
8342
330
842D
100
AcDbEntity
  8
3
 62
     0
100
AcDbLine
 10
7587.77060056603
 20
4291.144075523782
 30
0.0
 11
7587.77060056603
 21
3201.144075523782
 31
0.0
  0
INSERT
  5
8343
330
842D
100
AcDbEntity
  8
3
 62
     0
100
AcDbBlockReference
  2
_OPEN
 10
7587.77060056603
 20
4371.144075523782
 30
0.0
 41
80.0
 42
80.0
 43
80.0
 50
90.0
  0
INSERT
  5
8344
330
842D
100
AcDbEntity
  8
3
 62
     0
100
AcDbBlockReference
  2
_OPEN
 10
7587.77060056603
 20
3121.144075523782
 30
0.0
 41
80.0
 42
80.0
 43
80.0
 50
270.0
  0
TEXT
  5
8393
330
842D
100
AcDbEntity
  8
3
 62
     0
100
AcDbText
 10
7247.770000000001
 20
3533.74
 30
0.0
 40
120.0
  1
\U+03C61250
100
AcDbText
  0
POINT
  5
8346
330
842D
100
AcDbEntity
  8
DEFPOINTS
 62
     0
100
AcDbPoint
 10
7178.800975653527
 20
4371.144075523782
 30
0.0
  0
POINT
  5
8347
330
842D
100
AcDbEntity
  8
DEFPOINTS
 62
     0
100
AcDbPoint
 10
7178.800975653527
 20
3121.144075523782
 30
0.0
  0
POINT
  5
8348
330
842D
100
AcDbEntity
  8
DEFPOINTS
 62
     0
100
AcDbPoint
 10
7587.77060056603
 20
3121.144075523782
 30
0.0
  0
ENDBLK
  5
7FD0
330
842D
100
AcDbEntity
  8
0
100
AcDbBlockEnd
  0
BLOCK
  5
8430
330
842F
100
AcDbEntity
  8
0
100
AcDbBlockBegin
  2
*D12
 70
     1
 10
0.0
 20
0.0
 30
0.0
  3
*D12
  1

  0
LINE
  5
8349
330
842F
100
AcDbEntity
  8
3
 62
     0
100
AcDbLine
 10
3769.593494242098
 20
3746.144075523783
 30
0.0
 11
4210.578222735581
 21
3746.144075523783
 31
0.0
  0
LINE
  5
834A
330
842F
100
AcDbEntity
  8
3
 62
     0
100
AcDbLine
 10
3616.156955993246
 20
2821.144075523783
 30
0.0
 11
4210.578222735581
 21
2821.144075523783
 31
0.0
  0
LINE
  5
834B
330
842F
100
AcDbEntity
  8
3
 62
     0
100
AcDbLine
 10
4170.57822273558
 20
3666.144075523784
 30
0.0
 11
4170.57822273558
 21
2901.144075523783
 31
0.0
  0
INSERT
  5
834C
330
842F
100
AcDbEntity
  8
3
 62
     0
100
AcDbBlockReference
  2
_OPEN
 10
4170.57822273558
 20
3746.144075523783
 30
0.0
 41
80.0
 42
80.0
 43
80.0
 50
90.0
  0
INSERT
  5
834D
330
842F
100
AcDbEntity
  8
3
 62
     0
100
AcDbBlockReference
  2
_OPEN
 10
4170.57822273558
 20
2821.144075523783
 30
0.0
 41
80.0
 42
80.0
 43
80.0
 50
270.0
  0
TEXT
  5
8394
330
842F
100
AcDbEntity
  8
3
 62
     0
100
AcDbText
 10
3830.58
 20
3071.24
 30
0.0
 40
120.0
  1
925
100
AcDbText
  0
POINT
  5
834F
330
842F
100
AcDbEntity
  8
DEFPOINTS
 62
     0
100
AcDbPoint
 10
3749.593494242097
 20
3746.144075523783
 30
0.0
  0
POINT
  5
8350
330
842F
100
AcDbEntity
  8
DEFPOINTS
 62
     0
100
AcDbPoint
 10
3596.156955993246
 20
2821.144075523783
 30
0.0
  0
POINT
  5
8351
330
842F
100
AcDbEntity
  8
DEFPOINTS
 62
     0
100
AcDbPoint
 10
4170.57822273558
 20
2821.144075523783
 30
0.0
  0
ENDBLK
  5
7FAF
330
842F
100
AcDbEntity
  8
0
100
AcDbBlockEnd
  0
BLOCK
  5
8432
330
8431
100
AcDbEntity
  8
0
100
AcDbBlockBegin
  2
*D13
 70
     1
 10
0.0
 20
0.0
 30
0.0
  3
*D13
  1

  0
LINE
  5
8352
330
8431
100
AcDbEntity
  8
3
 62
     0
100
AcDbLine
 10
3616.156955993246
 20
8525.027814553499
 30
0.0
 11
4085.17309722908
 21
8525.027814553499
 31
0.0
  0
LINE
  5
8353
330
8431
100
AcDbEntity
  8
3
 62
     0
100
AcDbLine
 10
3616.156955993246
 20
6405.027814553498
 30
0.0
 11
4085.173097229079
 21
6405.027814553498
 31
0.0
  0
LINE
  5
8354
330
8431
100
AcDbEntity
  8
3
 62
     0
100
AcDbLine
 10
4045.17309722908
 20
8445.027814553499
 30
0.0
 11
4045.173097229079
 21
6485.027814553497
 31
0.0
  0
INSERT
  5
8355
330
8431
100
AcDbEntity
  8
3
 62
     0
100
AcDbBlockReference
  2
_OPEN
 10
4045.17309722908
 20
8525.027814553499
 30
0.0
 41
80.0
 42
80.0
 43
80.0
 50
90.0
  0
INSERT
  5
8356
330
8431
100
AcDbEntity
  8
3
 62
     0
100
AcDbBlockReference
  2
_OPEN
 10
4045.173097229079
 20
6405.027814553498
 30
0.0
 41
80.0
 42
80.0
 43
80.0
 50
270.0
  0
TEXT
  5
8395
330
8431
100
AcDbEntity
  8
3
 62
     0
100
AcDbText
 10
3705.170000000001
 20
7252.63
 30
0.0
 40
120.0
  1
2120
100
AcDbText
  0
POINT
  5
8358
330
8431
100
AcDbEntity
  8
DEFPOINTS
 62
     0
100
AcDbPoint
 10
3596.156955993246
 20
8525.027814553499
 30
0.0
  0
POINT
  5
8359
330
8431
100
AcDbEntity
  8
DEFPOINTS
 62
     0
100
AcDbPoint
 10
3596.156955993246
 20
6405.027814553498
 30
0.0
  0
POINT
  5
835A
330
8431
100
AcDbEntity
  8
DEFPOINTS
 62
     0
100
AcDbPoint
 10
4045.173097229079
 20
6405.027814553498
 30
0.0
  0
ENDBLK
  5
7F83
330
8431
100
AcDbEntity
  8
0
100
AcDbBlockEnd
  0
BLOCK
  5
8434
330
8433
100
AcDbEntity
  8
0
100
AcDbBlockBegin
  2
*D14
 70
     1
 10
0.0
 20
0.0
 30
0.0
  3
*D14
  1

  0
LINE
  5
835B
330
8433
100
AcDbEntity
  8
3
 62
     0
100
AcDbLine
 10
3596.156955993246
 20
8545.027814553499
 30
0.0
 11
3596.156955993246
 21
8769.663953058682
 31
0.0
  0
LINE
  5
835C
330
8433
100
AcDbEntity
  8
3
 62
     0
100
AcDbLine
 10
2096.156955993245
 20
8545.027814553499
 30
0.0
 11
2096.156955993245
 21
8769.663953058682
 31
0.0
  0
LINE
  5
835D
330
8433
100
AcDbEntity
  8
3
 62
     0
100
AcDbLine
 10
3516.156955993245
 20
8729.663953058681
 30
0.0
 11
2176.156955993245
 21
8729.663953058681
 31
0.0
  0
INSERT
  5
835E
330
8433
100
AcDbEntity
  8
3
 62
     0
100
AcDbBlockReference
  2
_OPEN
 10
3596.156955993246
 20
8729.663953058681
 30
0.0
 41
80.0
 42
80.0
 43
80.0
  0
INSERT
  5
835F
330
8433
100
AcDbEntity
  8
3
 62
     0
100
AcDbBlockReference
  2
_OPEN
 10
2096.156955993245
 20
8729.663953058681
 30
0.0
 41
80.0
 42
80.0
 43
80.0
 50
180.0
  0
TEXT
  5
8396
330
8433
100
AcDbEntity
  8
3
 62
     0
100
AcDbText
 10
2606.16
 20
8617.259999999999
 30
0.0
 40
120.0
  1
1500
100
AcDbText
  0
POINT
  5
8361
330
8433
100
AcDbEntity
  8
DEFPOINTS
 62
     0
100
AcDbPoint
 10
3596.156955993246
 20
8525.027814553499
 30
0.0
  0
POINT
  5
8362
330
8433
100
AcDbEntity
  8
DEFPOINTS
 62
     0
100
AcDbPoint
 10
2096.156955993245
 20
8525.027814553499
 30
0.0
  0
POINT
  5
8363
330
8433
100
AcDbEntity
  8
DEFPOINTS
 62
     0
100
AcDbPoint
 10
2096.156955993245
 20
8729.663953058681
 30
0.0
  0
ENDBLK
  5
7F78
330
8433
100
AcDbEntity
  8
0
100
AcDbBlockEnd
  0
BLOCK
  5
8436
330
8435
100
AcDbEntity
  8
0
100
AcDbBlockBegin
  2
*D15
 70
     1
 10
0.0
 20
0.0
 30
0.0
  3
*D15
  1

  0
LINE
  5
8364
330
8435
100
AcDbEntity
  8
3
 62
     0
100
AcDbLine
 10
2096.156955993245
 20
8545.027814553499
 30
0.0
 11
2096.156955993245
 21
8769.663953058682
 31
0.0
  0
LINE
  5
8365
330
8435
100
AcDbEntity
  8
3
 62
     0
100
AcDbLine
 10
1146.156955993244
 20
7425.027814553499
 30
0.0
 11
1146.156955993244
 21
8769.663953058682
 31
0.0
  0
LINE
  5
8366
330
8435
100
AcDbEntity
  8
3
 62
     0
100
AcDbLine
 10
2016.156955993245
 20
8729.663953058681
 30
0.0
 11
1226.156955993245
 21
8729.663953058681
 31
0.0
  0
INSERT
  5
8367
330
8435
100
AcDbEntity
  8
3
 62
     0
100
AcDbBlockReference
  2
_OPEN
 10
2096.156955993245
 20
8729.663953058681
 30
0.0
 41
80.0
 42
80.0
 43
80.0
  0
INSERT
  5
8368
330
8435
100
AcDbEntity
  8
3
 62
     0
100
AcDbBlockReference
  2
_OPEN
 10
1146.156955993244
 20
8729.663953058681
 30
0.0
 41
80.0
 42
80.0
 43
80.0
 50
180.0
  0
TEXT
  5
8397
330
8435
100
AcDbEntity
  8
3
 62
     0
100
AcDbText
 10
1381.16
 20
8617.259999999999
 30
0.0
 40
120.0
  1
950
100
AcDbText
  0
POINT
  5
836A
330
8435
100
AcDbEntity
  8
DEFPOINTS
 62
     0
100
AcDbPoint
 10
2096.156955993245
 20
8525.027814553499
 30
0.0
  0
POINT
  5
836B
330
8435
100
AcDbEntity
  8
DEFPOINTS
 62
     0
100
AcDbPoint
 10
1146.156955993244
 20
7405.027814553498
 30
0.0
  0
POINT
  5
836C
330
8435
100
AcDbEntity
  8
DEFPOINTS
 62
     0
100
AcDbPoint
 10
1146.156955993244
 20
8729.663953058681
 30
0.0
  0
ENDBLK
  5
7F6D
330
8435
100
AcDbEntity
  8
0
100
AcDbBlockEnd
  0
BLOCK
  5
8438
330
8437
100
AcDbEntity
  8
0
100
AcDbBlockBegin
  2
*D16
 70
     1
 10
0.0
 20
0.0
 30
0.0
  3
*D16
  1

  0
LINE
  5
836D
330
8437
100
AcDbEntity
  8
3
 62
     0
100
AcDbLine
 10
1126.156955993245
 20
7405.027814553498
 30
0.0
 11
839.8305548856662
 21
7405.027814553498
 31
0.0
  0
LINE
  5
836E
330
8437
100
AcDbEntity
  8
3
 62
     0
100
AcDbLine
 10
1126.156955993245
 20
6405.027814553498
 30
0.0
 11
839.830554885666
 21
6405.027814553498
 31
0.0
  0
LINE
  5
836F
330
8437
100
AcDbEntity
  8
3
 62
     0
100
AcDbLine
 10
879.8305548856662
 20
7325.027814553497
 30
0.0
 11
879.8305548856658
 21
6485.027814553497
 31
0.0
  0
INSERT
  5
8370
330
8437
100
AcDbEntity
  8
3
 62
     0
100
AcDbBlockReference
  2
_OPEN
 10
879.8305548856662
 20
7405.027814553498
 30
0.0
 41
80.0
 42
80.0
 43
80.0
 50
90.0
  0
INSERT
  5
8371
330
8437
100
AcDbEntity
  8
3
 62
     0
100
AcDbBlockReference
  2
_OPEN
 10
879.8305548856658
 20
6405.027814553498
 30
0.0
 41
80.0
 42
80.0
 43
80.0
 50
270.0
  0
TEXT
  5
8398
330
8437
100
AcDbEntity
  8
3
 62
     0
100
AcDbText
 10
539.831
 20
6692.63
 30
0.0
 40
120.0
  1
1000
100
AcDbText
  0
POINT
  5
8373
330
8437
100
AcDbEntity
  8
DEFPOINTS
 62
     0
100
AcDbPoint
 10
1146.156955993244
 20
7405.027814553498
 30
0.0
  0
POINT
  5
8374
330
8437
100
AcDbEntity
  8
DEFPOINTS
 62
     0
100
AcDbPoint
 10
1146.156955993244
 20
6405.027814553498
 30
0.0
  0
POINT
  5
8375
330
8437
100
AcDbEntity
  8
DEFPOINTS
 62
     0
100
AcDbPoint
 10
879.8305548856658
 20
6405.027814553498
 30
0.0
  0
ENDBLK
  5
7F62
330
8437
100
AcDbEntity
  8
0
100
AcDbBlockEnd
  0
BLOCK
  5
843A
330
8439
100
AcDbEntity
  8
0
100
AcDbBlockBegin
  2
*D17
 70
     1
 10
0.0
 20
0.0
 30
0.0
  3
*D17
  1

  0
LINE
  5
8376
330
8439
100
AcDbEntity
  8
3
 62
     0
100
AcDbLine
 10
1146.156955993244
 20
6385.027814553499
 30
0.0
 11
1146.156955993244
 21
6000.273936363845
 31
0.0
  0
LINE
  5
8377
330
8439
100
AcDbEntity
  8
3
 62
     0
100
AcDbLine
 10
3596.156955993246
 20
6385.027814553495
 30
0.0
 11
3596.156955993246
 21
6000.273936363845
 31
0.0
  0
LINE
  5
8378
330
8439
100
AcDbEntity
  8
3
 62
     0
100
AcDbLine
 10
1226.156955993245
 20
6040.273936363845
 30
0.0
 11
3516.156955993245
 21
6040.273936363845
 31
0.0
  0
INSERT
  5
8379
330
8439
100
AcDbEntity
  8
3
 62
     0
100
AcDbBlockReference
  2
_OPEN
 10
1146.156955993244
 20
6040.273936363845
 30
0.0
 41
80.0
 42
80.0
 43
80.0
 50
180.0
  0
INSERT
  5
837A
330
8439
100
AcDbEntity
  8
3
 62
     0
100
AcDbBlockReference
  2
_OPEN
 10
3596.156955993246
 20
6040.273936363845
 30
0.0
 41
80.0
 42
80.0
 43
80.0
  0
TEXT
  5
8399
330
8439
100
AcDbEntity
  8
3
 62
     0
100
AcDbText
 10
2131.16
 20
5927.87
 30
0.0
 40
120.0
  1
2450
100
AcDbText
  0
POINT
  5
837C
330
8439
100
AcDbEntity
  8
DEFPOINTS
 62
     0
100
AcDbPoint
 10
1146.156955993244
 20
6405.027814553498
 30
0.0
  0
POINT
  5
837D
330
8439
100
AcDbEntity
  8
DEFPOINTS
 62
     0
100
AcDbPoint
 10
3596.156955993246
 20
6405.027814553498
 30
0.0
  0
POINT
  5
837E
330
8439
100
AcDbEntity
  8
DEFPOINTS
 62
     0
100
AcDbPoint
 10
3596.156955993246
 20
6040.273936363845
 30
0.0
  0
ENDBLK
  5
7F57
330
8439
100
AcDbEntity
  8
0
100
AcDbBlockEnd
  0
BLOCK
  5
843C
330
843B
100
AcDbEntity
  8
0
100
AcDbBlockBegin
  2
*D18
 70
     1
 10
0.0
 20
0.0
 30
0.0
  3
*D18
  1

  0
LINE
  5
837F
330
843B
100
AcDbEntity
  8
3
 62
     0
100
AcDbLine
 10
3671.156955993246
 20
5153.144075523783
 30
0.0
 11
3671.156955993246
 21
5647.120238149416
 31
0.0
  0
LINE
  5
8380
330
843B
100
AcDbEntity
  8
3
 62
     0
100
AcDbLine
 10
1146.156955993244
 20
2966.144075523784
 30
0.0
 11
1146.156955993245
 21
5647.120238149416
 31
0.0
  0
LINE
  5
8381
330
843B
100
AcDbEntity
  8
3
 62
     0
100
AcDbLine
 10
3591.156955993245
 20
5607.120238149416
 30
0.0
 11
1226.156955993245
 21
5607.120238149416
 31
0.0
  0
INSERT
  5
8382
330
843B
100
AcDbEntity
  8
3
 62
     0
100
AcDbBlockReference
  2
_OPEN
 10
3671.156955993246
 20
5607.120238149416
 30
0.0
 41
80.0
 42
80.0
 43
80.0
  0
INSERT
  5
8383
330
843B
100
AcDbEntity
  8
3
 62
     0
100
AcDbBlockReference
  2
_OPEN
 10
1146.156955993245
 20
5607.120238149416
 30
0.0
 41
80.0
 42
80.0
 43
80.0
 50
180.0
  0
TEXT
  5
839A
330
843B
100
AcDbEntity
  8
3
 62
     0
100
AcDbText
 10
2168.66
 20
5494.72
 30
0.0
 40
120.0
  1
2525
100
AcDbText
  0
POINT
  5
8385
330
843B
100
AcDbEntity
  8
DEFPOINTS
 62
     0
100
AcDbPoint
 10
3671.156955993246
 20
5133.144075523785
 30
0.0
  0
POINT
  5
8386
330
843B
100
AcDbEntity
  8
DEFPOINTS
 62
     0
100
AcDbPoint
 10
1146.156955993244
 20
2946.144075523783
 30
0.0
  0
POINT
  5
8387
330
843B
100
AcDbEntity
  8
DEFPOINTS
 62
     0
100
AcDbPoint
 10
1146.156955993245
 20
5607.120238149416
 30
0.0
  0
ENDBLK
  5
7F4C
330
843B
100
AcDbEntity
  8
0
100
AcDbBlockEnd
  0
BLOCK
  5
843F
330
843E
100
AcDbEntity
  8
0
100
AcDbBlockBegin
  2
_DOT
 70
     0
 10
0.0
 20
0.0
 30
0.0
  3
_DOT
  1

  0
LINE
  5
80D2
330
843E
100
AcDbEntity
  8
0
  6
ByBlock
 62
     0
100
AcDbLine
 10
0.0
 20
0.0
 30
0.0
 11
-1.0
 21
-0.0000000000000284
 31
0.0
  0
LWPOLYLINE
  5
80D3
330
843E
100
AcDbEntity
  8
0
  6
ByBlock
 62
     0
100
AcDbPolyline
 90
        2
 70
     1
 43
0.1666666666666666
 10
-0.0833333333333286
 20
-0.0000000000000284
 42
1.0
 10
0.0833333333333286
 20
-0.0000000000000284
 42
1.0
  0
ENDBLK
  5
80B8
330
843E
100
AcDbEntity
  8
0
100
AcDbBlockEnd
  0
BLOCK
  5
8441
330
8440
100
AcDbEntity
  8
0
100
AcDbBlockBegin
  2
_NONE
 70
     0
 10
0.0
 20
0.0
 30
0.0
  3
_NONE
  1

  0
CIRCLE
  5
8175
330
8440
100
AcDbEntity
  8
0
  6
ByBlock
 62
     0
100
AcDbCircle
 10
0.0
 20
0.0
 30
0.0
 40
0.25
  0
ENDBLK
  5
8176
330
8440
100
AcDbEntity
  8
0
100
AcDbBlockEnd
  0
BLOCK
  5
8443
330
8442
100
AcDbEntity
  8
0
100
AcDbBlockBegin
  2
*D21
 70
     1
 10
0.0
 20
0.0
 30
0.0
  3
*D21
  1

  0
LINE
  5
81EF
330
8442
100
AcDbEntity
  8
0
  6
ByBlock
 62
     0
100
AcDbLine
 10
1146.156955993244
 20
2801.144075523783
 30
0.0
 11
1146.156955993244
 21
2524.563178005206
 31
0.0
  0
LINE
  5
81F0
330
8442
100
AcDbEntity
  8
0
  6
ByBlock
 62
     0
100
AcDbLine
 10
2846.156955993246
 20
2801.144075523783
 30
0.0
 11
2846.156955993246
 21
2524.563178005206
 31
0.0
  0
LINE
  5
81F1
330
8442
100
AcDbEntity
  8
0
  6
ByBlock
 62
     0
100
AcDbLine
 10
1226.156955993245
 20
2564.563178005205
 30
0.0
 11
2766.156955993246
 21
2564.563178005205
 31
0.0
  0
INSERT
  5
81F2
330
8442
100
AcDbEntity
  8
0
  6
ByBlock
 62
     0
100
AcDbBlockReference
  2
_OPEN
 10
1146.156955993244
 20
2564.563178005205
 30
0.0
 41
80.0
 42
80.0
 43
80.0
 50
180.0
  0
INSERT
  5
81F3
330
8442
100
AcDbEntity
  8
0
  6
ByBlock
 62
     0
100
AcDbBlockReference
  2
_OPEN
 10
2846.156955993246
 20
2564.563178005205
 30
0.0
 41
80.0
 42
80.0
 43
80.0
  0
TEXT
  5
81F4
330
8442
100
AcDbEntity
  8
3
 62
     0
100
AcDbText
 10
1796.156955993245
 20
2604.563178005206
 30
0.0
 40
120.0
  1
1700
100
AcDbText
  0
POINT
  5
81F5
330
8442
100
AcDbEntity
  8
DEFPOINTS
  6
ByBlock
 62
     0
100
AcDbPoint
 10
1146.156955993244
 20
2821.144075523783
 30
0.0
  0
POINT
  5
81F6
330
8442
100
AcDbEntity
  8
DEFPOINTS
  6
ByBlock
 62
     0
100
AcDbPoint
 10
2846.156955993246
 20
2821.144075523783
 30
0.0
  0
POINT
  5
81F7
330
8442
100
AcDbEntity
  8
DEFPOINTS
  6
ByBlock
 62
     0
100
AcDbPoint
 10
2846.156955993246
 20
2564.563178005205
 30
0.0
  0
ENDBLK
  5
81F8
330
8442
100
AcDbEntity
  8
0
100
AcDbBlockEnd
  0
BLOCK
  5
8445
330
8444
100
AcDbEntity
  8
0
100
AcDbBlockBegin
  2
*D22
 70
     1
 10
0.0
 20
0.0
 30
0.0
  3
*D22
  1

  0
LINE
  5
81FC
330
8444
100
AcDbEntity
  8
0
  6
ByBlock
 62
     0
100
AcDbLine
 10
2846.156955993246
 20
2801.144075523783
 30
0.0
 11
2846.156955993246
 21
2524.563178005206
 31
0.0
  0
LINE
  5
81FD
330
8444
100
AcDbEntity
  8
0
  6
ByBlock
 62
     0
100
AcDbLine
 10
3596.156955993246
 20
2801.144075523783
 30
0.0
 11
3596.156955993246
 21
2524.563178005206
 31
0.0
  0
LINE
  5
81FE
330
8444
100
AcDbEntity
  8
0
  6
ByBlock
 62
     0
100
AcDbLine
 10
2926.156955993246
 20
2564.563178005205
 30
0.0
 11
3516.156955993245
 21
2564.563178005205
 31
0.0
  0
INSERT
  5
81FF
330
8444
100
AcDbEntity
  8
0
  6
ByBlock
 62
     0
100
AcDbBlockReference
  2
_OPEN
 10
2846.156955993246
 20
2564.563178005205
 30
0.0
 41
80.0
 42
80.0
 43
80.0
 50
180.0
  0
INSERT
  5
8200
330
8444
100
AcDbEntity
  8
0
  6
ByBlock
 62
     0
100
AcDbBlockReference
  2
_OPEN
 10
3596.156955993246
 20
2564.563178005205
 30
0.0
 41
80.0
 42
80.0
 43
80.0
  0
TEXT
  5
8201
330
8444
100
AcDbEntity
  8
3
 62
     0
100
AcDbText
 10
3066.871241707531
 20
2604.563178005206
 30
0.0
 40
120.0
  1
750
100
AcDbText
  0
POINT
  5
8202
330
8444
100
AcDbEntity
  8
DEFPOINTS
  6
ByBlock
 62
     0
100
AcDbPoint
 10
2846.156955993246
 20
2821.144075523783
 30
0.0
  0
POINT
  5
8203
330
8444
100
AcDbEntity
  8
DEFPOINTS
  6
ByBlock
 62
     0
100
AcDbPoint
 10
3596.156955993246
 20
2821.144075523783
 30
0.0
  0
POINT
  5
8204
330
8444
100
AcDbEntity
  8
DEFPOINTS
  6
ByBlock
 62
     0
100
AcDbPoint
 10
3596.156955993246
 20
2564.563178005205
 30
0.0
  0
ENDBLK
  5
8205
330
8444
100
AcDbEntity
  8
0
100
AcDbBlockEnd
  0
BLOCK
  5
8447
330
8446
100
AcDbEntity
  8
0
100
AcDbBlockBegin
  2
*D23
 70
     1
 10
0.0
 20
0.0
 30
0.0
  3
*D23
  1

  0
LINE
  5
8209
330
8446
100
AcDbEntity
  8
0
  6
ByBlock
 62
     0
100
AcDbLine
 10
5124.500975653525
 20
2801.144075523783
 30
0.0
 11
5124.500975653525
 21
2524.563178005206
 31
0.0
  0
LINE
  5
820A
330
8446
100
AcDbEntity
  8
0
  6
ByBlock
 62
     0
100
AcDbLine
 10
6326.500975653526
 20
2801.144075523783
 30
0.0
 11
6326.500975653526
 21
2524.563178005206
 31
0.0
  0
LINE
  5
820B
330
8446
100
AcDbEntity
  8
0
  6
ByBlock
 62
     0
100
AcDbLine
 10
5204.500975653527
 20
2564.563178005205
 30
0.0
 11
6246.500975653526
 21
2564.563178005205
 31
0.0
  0
INSERT
  5
820C
330
8446
100
AcDbEntity
  8
0
  6
ByBlock
 62
     0
100
AcDbBlockReference
  2
_OPEN
 10
5124.500975653525
 20
2564.563178005205
 30
0.0
 41
80.0
 42
80.0
 43
80.0
 50
180.0
  0
INSERT
  5
820D
330
8446
100
AcDbEntity
  8
0
  6
ByBlock
 62
     0
100
AcDbBlockReference
  2
_OPEN
 10
6326.500975653526
 20
2564.563178005205
 30
0.0
 41
80.0
 42
80.0
 43
80.0
  0
TEXT
  5
820E
330
8446
100
AcDbEntity
  8
3
 62
     0
100
AcDbText
 10
5525.500975653526
 20
2604.563178005206
 30
0.0
 40
120.0
  1
1202
100
AcDbText
  0
POINT
  5
820F
330
8446
100
AcDbEntity
  8
DEFPOINTS
  6
ByBlock
 62
     0
100
AcDbPoint
 10
5124.500975653525
 20
2821.144075523783
 30
0.0
  0
POINT
  5
8210
330
8446
100
AcDbEntity
  8
DEFPOINTS
  6
ByBlock
 62
     0
100
AcDbPoint
 10
6326.500975653526
 20
2821.144075523783
 30
0.0
  0
POINT
  5
8211
330
8446
100
AcDbEntity
  8
DEFPOINTS
  6
ByBlock
 62
     0
100
AcDbPoint
 10
6326.500975653526
 20
2564.563178005205
 30
0.0
  0
ENDBLK
  5
8212
330
8446
100
AcDbEntity
  8
0
100
AcDbBlockEnd
  0
BLOCK
  5
8449
330
8448
100
AcDbEntity
  8
0
100
AcDbBlockBegin
  2
*D24
 70
     1
 10
0.0
 20
0.0
 30
0.0
  3
*D24
  1

  0
LINE
  5
8216
330
8448
100
AcDbEntity
  8
0
  6
ByBlock
 62
     0
100
AcDbLine
 10
6326.500975653526
 20
2801.144075523783
 30
0.0
 11
6326.500975653526
 21
2524.563178005206
 31
0.0
  0
LINE
  5
8217
330
8448
100
AcDbEntity
  8
0
  6
ByBlock
 62
     0
100
AcDbLine
 10
7244.500975653522
 20
2801.144075523783
 30
0.0
 11
7244.500975653522
 21
2524.563178005206
 31
0.0
  0
LINE
  5
8218
330
8448
100
AcDbEntity
  8
0
  6
ByBlock
 62
     0
100
AcDbLine
 10
6406.500975653526
 20
2564.563178005205
 30
0.0
 11
7164.500975653524
 21
2564.563178005205
 31
0.0
  0
INSERT
  5
8219
330
8448
100
AcDbEntity
  8
0
  6
ByBlock
 62
     0
100
AcDbBlockReference
  2
_OPEN
 10
6326.500975653526
 20
2564.563178005205
 30
0.0
 41
80.0
 42
80.0
 43
80.0
 50
180.0
  0
INSERT
  5
821A
330
8448
100
AcDbEntity
  8
0
  6
ByBlock
 62
     0
100
AcDbBlockReference
  2
_OPEN
 10
7244.500975653522
 20
2564.563178005205
 30
0.0
 41
80.0
 42
80.0
 43
80.0
  0
TEXT
  5
821B
330
8448
100
AcDbEntity
  8
3
 62
     0
100
AcDbText
 10
6642.643832796382
 20
2604.563178005206
 30
0.0
 40
120.0
  1
918
100
AcDbText
  0
POINT
  5
821C
330
8448
100
AcDbEntity
  8
DEFPOINTS
  6
ByBlock
 62
     0
100
AcDbPoint
 10
6326.500975653526
 20
2821.144075523783
 30
0.0
  0
POINT
  5
821D
330
8448
100
AcDbEntity
  8
DEFPOINTS
  6
ByBlock
 62
     0
100
AcDbPoint
 10
7244.500975653522
 20
2821.144075523783
 30
0.0
  0
POINT
  5
821E
330
8448
100
AcDbEntity
  8
DEFPOINTS
  6
ByBlock
 62
     0
100
AcDbPoint
 10
7244.500975653522
 20
2564.563178005205
 30
0.0
  0
ENDBLK
  5
821F
330
8448
100
AcDbEntity
  8
0
100
AcDbBlockEnd
  0
BLOCK
  5
844B
330
844A
100
AcDbEntity
  8
0
100
AcDbBlockBegin
  2
*D25
 70
     1
 10
0.0
 20
0.0
 30
0.0
  3
*D25
  1

  0
LINE
  5
8223
330
844A
100
AcDbEntity
  8
0
  6
ByBlock
 62
     0
100
AcDbLine
 10
3616.156955993246
 20
2821.144075523783
 30
0.0
 11
4462.994170576137
 21
2821.144075523783
 31
0.0
  0
LINE
  5
8224
330
844A
100
AcDbEntity
  8
0
  6
ByBlock
 62
     0
100
AcDbLine
 10
3691.156955993245
 20
5080.144075523783
 30
0.0
 11
4462.994170576137
 21
5080.144075523783
 31
0.0
  0
LINE
  5
8225
330
844A
100
AcDbEntity
  8
0
  6
ByBlock
 62
     0
100
AcDbLine
 10
4422.994170576138
 20
2901.144075523783
 30
0.0
 11
4422.994170576138
 21
5000.144075523785
 31
0.0
  0
INSERT
  5
8226
330
844A
100
AcDbEntity
  8
0
  6
ByBlock
 62
     0
100
AcDbBlockReference
  2
_OPEN
 10
4422.994170576138
 20
2821.144075523783
 30
0.0
 41
80.0
 42
80.0
 43
80.0
 50
270.0
  0
INSERT
  5
8227
330
844A
100
AcDbEntity
  8
0
  6
ByBlock
 62
     0
100
AcDbBlockReference
  2
_OPEN
 10
4422.994170576138
 20
5080.144075523783
 30
0.0
 41
80.0
 42
80.0
 43
80.0
 50
90.0
  0
TEXT
  5
8228
330
844A
100
AcDbEntity
  8
3
 62
     0
100
AcDbText
 10
4382.994170576138
 20
3742.072646952355
 30
0.0
 40
120.0
  1
2259
 50
90.0
100
AcDbText
  0
POINT
  5
8229
330
844A
100
AcDbEntity
  8
DEFPOINTS
  6
ByBlock
 62
     0
100
AcDbPoint
 10
3596.156955993246
 20
2821.144075523783
 30
0.0
  0
POINT
  5
822A
330
844A
100
AcDbEntity
  8
DEFPOINTS
  6
ByBlock
 62
     0
100
AcDbPoint
 10
3671.156955993246
 20
5080.144075523783
 30
0.0
  0
POINT
  5
822B
330
844A
100
AcDbEntity
  8
DEFPOINTS
  6
ByBlock
 62
     0
100
AcDbPoint
 10
4422.994170576138
 20
5080.144075523783
 30
0.0
  0
ENDBLK
  5
822C
330
844A
100
AcDbEntity
  8
0
100
AcDbBlockEnd
  0
BLOCK
  5
844F
330
844E
100
AcDbEntity
  8
0
100
AcDbBlockBegin
  2
*D26
 70
     1
 10
0.0
 20
0.0
 30
0.0
  3
*D26
  1

  0
LINE
  5
84D9
330
844E
100
AcDbEntity
  8
3
 62
     0
370
    -2
100
AcDbLine
 10
5046.500975653525
 20
4146.144075523783
 30
0.0
 11
5046.500975653525
 21
5674.50716684925
 31
0.0
  0
LINE
  5
84DA
330
844E
100
AcDbEntity
  8
3
 62
     0
370
    -2
100
AcDbLine
 10
6326.500975653526
 20
5561.543861990349
 30
0.0
 11
6326.500975653526
 21
5674.50716684925
 31
0.0
  0
LINE
  5
84DB
330
844E
100
AcDbEntity
  8
3
 62
     0
370
    -2
100
AcDbLine
 10
5126.500975653525
 20
5634.50716684925
 30
0.0
 11
6246.500975653526
 21
5634.50716684925
 31
0.0
  0
INSERT
  5
84DC
330
844E
100
AcDbEntity
  8
3
 62
     0
370
    -2
100
AcDbBlockReference
  2
_OPEN
 10
5046.500975653525
 20
5634.50716684925
 30
0.0
 41
80.0
 42
80.0
 43
80.0
 50
180.0
  0
INSERT
  5
84DD
330
844E
100
AcDbEntity
  8
3
 62
     0
370
    -2
100
AcDbBlockReference
  2
_OPEN
 10
6326.500975653526
 20
5634.50716684925
 30
0.0
 41
80.0
 42
80.0
 43
80.0
  0
MTEXT
  5
84DE
330
844E
100
AcDbEntity
  8
3
 62
     0
100
AcDbMText
 10
5686.500975653526
 20
5765.935738277821
 30
0.0
 40
120.0
 41
0.0
 71
     5
 72
     1
  1
\A1;(1280)
 73
     1
 44
1.0
1001
ACAD
1000
MTEXTBEGIN
1070
    73
1070
     1
1070
    44
1040
1.0
1070
    74
1070
     0
1000
MTEXTEND
  0
POINT
  5
84DF
330
844E
100
AcDbEntity
  8
DEFPOINTS
 62
     0
100
AcDbPoint
 10
5046.500975653525
 20
4126.144075523782
 30
0.0
  0
POINT
  5
84E0
330
844E
100
AcDbEntity
  8
DEFPOINTS
 62
     0
100
AcDbPoint
 10
6326.500975653526
 20
5541.543861990349
 30
0.0
  0
POINT
  5
84E1
330
844E
100
AcDbEntity
  8
DEFPOINTS
 62
     0
100
AcDbPoint
 10
6326.500975653526
 20
5634.50716684925
 30
0.0
  0
ENDBLK
  5
8450
330
844E
100
AcDbEntity
  8
0
100
AcDbBlockEnd
  0
BLOCK
  5
845C
330
845B
100
AcDbEntity
  8
0
100
AcDbBlockBegin
  2
*D27
 70
     1
 10
0.0
 20
0.0
 30
0.0
  3
*D27
  1

  0
LINE
  5
84D0
330
845B
100
AcDbEntity
  8
3
 62
     0
370
    -2
100
AcDbLine
 10
6326.500975653526
 20
5561.543861990349
 30
0.0
 11
6326.500975653526
 21
5674.50716684925
 31
0.0
  0
LINE
  5
84D1
330
845B
100
AcDbEntity
  8
3
 62
     0
370
    -2
100
AcDbLine
 10
7346.500975653523
 20
3690.144075523785
 30
0.0
 11
7346.500975653523
 21
5674.50716684925
 31
0.0
  0
LINE
  5
84D2
330
845B
100
AcDbEntity
  8
3
 62
     0
370
    -2
100
AcDbLine
 10
6406.500975653526
 20
5634.50716684925
 30
0.0
 11
7266.500975653523
 21
5634.50716684925
 31
0.0
  0
INSERT
  5
84D3
330
845B
100
AcDbEntity
  8
3
 62
     0
370
    -2
100
AcDbBlockReference
  2
_OPEN
 10
6326.500975653526
 20
5634.50716684925
 30
0.0
 41
80.0
 42
80.0
 43
80.0
 50
180.0
  0
INSERT
  5
84D4
330
845B
100
AcDbEntity
  8
3
 62
     0
370
    -2
100
AcDbBlockReference
  2
_OPEN
 10
7346.500975653523
 20
5634.50716684925
 30
0.0
 41
80.0
 42
80.0
 43
80.0
  0
MTEXT
  5
84D5
330
845B
100
AcDbEntity
  8
3
 62
     0
100
AcDbMText
 10
6836.500975653525
 20
5765.935738277821
 30
0.0
 40
120.0
 41
0.0
 71
     5
 72
     1
  1
\A1;(1020)
 73
     1
 44
1.0
1001
ACAD
1000
MTEXTBEGIN
1070
    73
1070
     1
1070
    44
1040
1.0
1070
    74
1070
     0
1000
MTEXTEND
  0
POINT
  5
84D6
330
845B
100
AcDbEntity
  8
DEFPOINTS
 62
     0
100
AcDbPoint
 10
6326.500975653526
 20
5541.543861990349
 30
0.0
  0
POINT
  5
84D7
330
845B
100
AcDbEntity
  8
DEFPOINTS
 62
     0
100
AcDbPoint
 10
7346.500975653523
 20
3670.144075523784
 30
0.0
  0
POINT
  5
84D8
330
845B
100
AcDbEntity
  8
DEFPOINTS
 62
     0
100
AcDbPoint
 10
7346.500975653523
 20
5634.50716684925
 30
0.0
  0
ENDBLK
  5
845D
330
845B
100
AcDbEntity
  8
0
100
AcDbBlockEnd
  0
BLOCK
  5
846D
330
846C
100
AcDbEntity
  8
0
100
AcDbBlockBegin
  2
*D28
 70
     1
 10
0.0
 20
0.0
 30
0.0
  3
*D28
  1

  0
LINE
  5
8491
330
846C
100
AcDbEntity
  8
3
 62
     0
370
    -2
100
AcDbLine
 10
7196.500975653525
 20
3121.144075523783
 30
0.0
 11
7627.77060056603
 21
3121.144075523783
 31
0.0
  0
LINE
  5
8492
330
846C
100
AcDbEntity
  8
3
 62
     0
370
    -2
100
AcDbLine
 10
7196.500975653525
 20
4371.144075523783
 30
0.0
 11
7627.77060056603
 21
4371.144075523783
 31
0.0
  0
LINE
  5
8493
330
846C
100
AcDbEntity
  8
3
 62
     0
370
    -2
100
AcDbLine
 10
7587.77060056603
 20
3201.144075523784
 30
0.0
 11
7587.77060056603
 21
4291.144075523783
 31
0.0
  0
INSERT
  5
8494
330
846C
100
AcDbEntity
  8
3
 62
     0
370
    -2
100
AcDbBlockReference
  2
_OPEN
 10
7587.77060056603
 20
3121.144075523783
 30
0.0
 41
80.0
 42
80.0
 43
80.0
 50
270.0
  0
INSERT
  5
8495
330
846C
100
AcDbEntity
  8
3
 62
     0
370
    -2
100
AcDbBlockReference
  2
_OPEN
 10
7587.77060056603
 20
4371.144075523783
 30
0.0
 41
80.0
 42
80.0
 43
80.0
 50
90.0
  0
MTEXT
  5
8496
330
846C
100
AcDbEntity
  8
3
 62
     0
100
AcDbMText
 10
7487.77060056603
 20
3746.144075523786
 30
0.0
 40
120.0
 41
0.0
 71
     5
 72
     1
  1
\A1;\U+03C61250
 11
0.0000000000000001
 21
1.0
 31
0.0
 73
     1
 44
1.0
1001
ACAD
1000
MTEXTBEGIN
1070
    73
1070
     1
1070
    44
1040
1.0
1070
    74
1070
     0
1000
MTEXTEND
  0
POINT
  5
8497
330
846C
100
AcDbEntity
  8
DEFPOINTS
 62
     0
100
AcDbPoint
 10
7176.500975653526
 20
3121.144075523783
 30
0.0
  0
POINT
  5
8498
330
846C
100
AcDbEntity
  8
DEFPOINTS
 62
     0
100
AcDbPoint
 10
7176.500975653526
 20
4371.144075523783
 30
0.0
  0
POINT
  5
8499
330
846C
100
AcDbEntity
  8
DEFPOINTS
 62
     0
100
AcDbPoint
 10
7587.77060056603
 20
4371.144075523783
 30
0.0
  0
ENDBLK
  5
846E
330
846C
100
AcDbEntity
  8
0
100
AcDbBlockEnd
  0
BLOCK
  5
847A
330
8479
100
AcDbEntity
  8
0
100
AcDbBlockBegin
  2
*D29
 70
     1
 10
0.0
 20
0.0
 30
0.0
  3
*D29
  1

  0
LINE
  5
847C
330
8479
100
AcDbEntity
  8
3
 62
     0
370
    -2
100
AcDbLine
 10
5476.500975653525
 20
5100.144075523783
 30
0.0
 11
5476.500975653525
 21
5421.543861990349
 31
0.0
  0
LINE
  5
847D
330
8479
100
AcDbEntity
  8
3
 62
     0
370
    -2
100
AcDbLine
 10
7176.500975653524
 20
5100.144075523783
 30
0.0
 11
7176.500975653524
 21
5421.543861990349
 31
0.0
  0
LINE
  5
847E
330
8479
100
AcDbEntity
  8
3
 62
     0
370
    -2
100
AcDbLine
 10
5556.500975653524
 20
5381.543861990349
 30
0.0
 11
7096.500975653525
 21
5381.543861990349
 31
0.0
  0
INSERT
  5
847F
330
8479
100
AcDbEntity
  8
3
 62
     0
370
    -2
100
AcDbBlockReference
  2
_OPEN
 10
5476.500975653525
 20
5381.543861990349
 30
0.0
 41
80.0
 42
80.0
 43
80.0
 50
180.0
  0
INSERT
  5
8480
330
8479
100
AcDbEntity
  8
3
 62
     0
370
    -2
100
AcDbBlockReference
  2
_OPEN
 10
7176.500975653524
 20
5381.543861990349
 30
0.0
 41
80.0
 42
80.0
 43
80.0
  0
MTEXT
  5
8481
330
8479
100
AcDbEntity
  8
3
 62
     0
100
AcDbMText
 10
6326.500975653525
 20
5481.543861990349
 30
0.0
 40
120.0
 41
0.0
 71
     5
 72
     1
  1
\A1;1700
 73
     1
 44
1.0
1001
ACAD
1000
MTEXTBEGIN
1070
    73
1070
     1
1070
    44
1040
1.0
1070
    74
1070
     0
1000
MTEXTEND
  0
POINT
  5
8482
330
8479
100
AcDbEntity
  8
DEFPOINTS
 62
     0
100
AcDbPoint
 10
5476.500975653525
 20
5080.144075523783
 30
0.0
  0
POINT
  5
8483
330
8479
100
AcDbEntity
  8
DEFPOINTS
 62
     0
100
AcDbPoint
 10
7176.500975653524
 20
5080.144075523783
 30
0.0
  0
POINT
  5
8484
330
8479
100
AcDbEntity
  8
DEFPOINTS
 62
     0
100
AcDbPoint
 10
7176.500975653524
 20
5381.543861990349
 30
0.0
  0
ENDBLK
  5
847B
330
8479
100
AcDbEntity
  8
0
100
AcDbBlockEnd
  0
BLOCK
  5
84E4
330
84E3
100
AcDbEntity
  8
0
100
AcDbBlockBegin
  2
*D30
 70
     1
 10
0.0
 20
0.0
 30
0.0
  3
*D30
  1

  0
LINE
  5
84E6
330
84E3
100
AcDbEntity
  8
3
 62
     0
370
    -2
100
AcDbLine
 10
1126.156955993244
 20
7405.027814553498
 30
0.0
 11
839.8305548856662
 21
7405.027814553498
 31
0.0
  0
LINE
  5
84E7
330
84E3
100
AcDbEntity
  8
3
 62
     0
370
    -2
100
AcDbLine
 10
1126.156955993244
 20
6405.027814553498
 30
0.0
 11
839.830554885666
 21
6405.027814553498
 31
0.0
  0
LINE
  5
84E8
330
84E3
100
AcDbEntity
  8
3
 62
     0
370
    -2
100
AcDbLine
 10
879.8305548856662
 20
7325.027814553499
 30
0.0
 11
879.830554885666
 21
6485.027814553498
 31
0.0
  0
INSERT
  5
84E9
330
84E3
100
AcDbEntity
  8
3
 62
     0
370
    -2
100
AcDbBlockReference
  2
_OPEN
 10
879.8305548856662
 20
7405.027814553498
 30
0.0
 41
80.0
 42
80.0
 43
80.0
 50
90.0
  0
INSERT
  5
84EA
330
84E3
100
AcDbEntity
  8
3
 62
     0
370
    -2
100
AcDbBlockReference
  2
_OPEN
 10
879.830554885666
 20
6405.027814553498
 30
0.0
 41
80.0
 42
80.0
 43
80.0
 50
270.0
  0
MTEXT
  5
84EB
330
84E3
100
AcDbEntity
  8
3
 62
     0
100
AcDbMText
 10
779.830554885665
 20
6905.027814553498
 30
0.0
 40
120.0
 41
0.0
 71
     5
 72
     1
  1
\A1;1000
 11
0.0000000000000001
 21
1.0
 31
0.0
 73
     1
 44
1.0
1001
ACAD
1000
MTEXTBEGIN
1070
    73
1070
     1
1070
    44
1040
1.0
1070
    74
1070
     0
1000
MTEXTEND
  0
POINT
  5
84EC
330
84E3
100
AcDbEntity
  8
DEFPOINTS
 62
     0
100
AcDbPoint
 10
1146.156955993244
 20
7405.027814553498
 30
0.0
  0
POINT
  5
84ED
330
84E3
100
AcDbEntity
  8
DEFPOINTS
 62
     0
100
AcDbPoint
 10
1146.156955993244
 20
6405.027814553498
 30
0.0
  0
POINT
  5
84EE
330
84E3
100
AcDbEntity
  8
DEFPOINTS
 62
     0
100
AcDbPoint
 10
879.830554885666
 20
6405.027814553498
 30
0.0
  0
ENDBLK
  5
84E5
330
84E3
100
AcDbEntity
  8
0
100
AcDbBlockEnd
  0
BLOCK
  5
84F1
330
84F0
100
AcDbEntity
  8
0
100
AcDbBlockBegin
  2
*D31
 70
     1
 10
0.0
 20
0.0
 30
0.0
  3
*D31
  1

  0
LINE
  5
84F3
330
84F0
100
AcDbEntity
  8
3
 62
     0
370
    -2
100
AcDbLine
 10
1146.156955993244
 20
7425.027814553499
 30
0.0
 11
1146.156955993244
 21
8769.663953058682
 31
0.0
  0
LINE
  5
84F4
330
84F0
100
AcDbEntity
  8
3
 62
     0
370
    -2
100
AcDbLine
 10
2096.156955993245
 20
8545.027814553499
 30
0.0
 11
2096.156955993245
 21
8769.663953058682
 31
0.0
  0
LINE
  5
84F5
330
84F0
100
AcDbEntity
  8
3
 62
     0
370
    -2
100
AcDbLine
 10
1226.156955993244
 20
8729.663953058681
 30
0.0
 11
2016.156955993245
 21
8729.663953058681
 31
0.0
  0
INSERT
  5
84F6
330
84F0
100
AcDbEntity
  8
3
 62
     0
370
    -2
100
AcDbBlockReference
  2
_OPEN
 10
1146.156955993244
 20
8729.663953058681
 30
0.0
 41
80.0
 42
80.0
 43
80.0
 50
180.0
  0
INSERT
  5
84F7
330
84F0
100
AcDbEntity
  8
3
 62
     0
370
    -2
100
AcDbBlockReference
  2
_OPEN
 10
2096.156955993245
 20
8729.663953058681
 30
0.0
 41
80.0
 42
80.0
 43
80.0
  0
MTEXT
  5
84F8
330
84F0
100
AcDbEntity
  8
3
 62
     0
100
AcDbMText
 10
1621.156955993244
 20
8829.663953058682
 30
0.0
 40
120.0
 41
0.0
 71
     5
 72
     1
  1
\A1;950
 73
     1
 44
1.0
1001
ACAD
1000
MTEXTBEGIN
1070
    73
1070
     1
1070
    44
1040
1.0
1070
    74
1070
     0
1000
MTEXTEND
  0
POINT
  5
84F9
330
84F0
100
AcDbEntity
  8
DEFPOINTS
 62
     0
100
AcDbPoint
 10
1146.156955993244
 20
7405.027814553498
 30
0.0
  0
POINT
  5
84FA
330
84F0
100
AcDbEntity
  8
DEFPOINTS
 62
     0
100
AcDbPoint
 10
2096.156955993245
 20
8525.027814553499
 30
0.0
  0
POINT
  5
84FB
330
84F0
100
AcDbEntity
  8
DEFPOINTS
 62
     0
100
AcDbPoint
 10
2096.156955993245
 20
8729.663953058681
 30
0.0
  0
ENDBLK
  5
84F2
330
84F0
100
AcDbEntity
  8
0
100
AcDbBlockEnd
  0
BLOCK
  5
84FE
330
84FD
100
AcDbEntity
  8
0
100
AcDbBlockBegin
  2
*D32
 70
     1
 10
0.0
 20
0.0
 30
0.0
  3
*D32
  1

  0
LINE
  5
8500
330
84FD
100
AcDbEntity
  8
3
 62
     0
370
    -2
100
AcDbLine
 10
2096.156955993245
 20
8545.027814553499
 30
0.0
 11
2096.156955993245
 21
8769.663953058682
 31
0.0
  0
LINE
  5
8501
330
84FD
100
AcDbEntity
  8
3
 62
     0
370
    -2
100
AcDbLine
 10
3596.156955993246
 20
8545.027814553499
 30
0.0
 11
3596.156955993246
 21
8769.663953058682
 31
0.0
  0
LINE
  5
8502
330
84FD
100
AcDbEntity
  8
3
 62
     0
370
    -2
100
AcDbLine
 10
2176.156955993245
 20
8729.663953058681
 30
0.0
 11
3516.156955993245
 21
8729.663953058681
 31
0.0
  0
INSERT
  5
8503
330
84FD
100
AcDbEntity
  8
3
 62
     0
370
    -2
100
AcDbBlockReference
  2
_OPEN
 10
2096.156955993245
 20
8729.663953058681
 30
0.0
 41
80.0
 42
80.0
 43
80.0
 50
180.0
  0
INSERT
  5
8504
330
84FD
100
AcDbEntity
  8
3
 62
     0
370
    -2
100
AcDbBlockReference
  2
_OPEN
 10
3596.156955993246
 20
8729.663953058681
 30
0.0
 41
80.0
 42
80.0
 43
80.0
  0
MTEXT
  5
8505
330
84FD
100
AcDbEntity
  8
3
 62
     0
100
AcDbMText
 10
2846.156955993245
 20
8829.663953058682
 30
0.0
 40
120.0
 41
0.0
 71
     5
 72
     1
  1
\A1;1500
 73
     1
 44
1.0
1001
ACAD
1000
MTEXTBEGIN
1070
    73
1070
     1
1070
    44
1040
1.0
1070
    74
1070
     0
1000
MTEXTEND
  0
POINT
  5
8506
330
84FD
100
AcDbEntity
  8
DEFPOINTS
 62
     0
100
AcDbPoint
 10
2096.156955993245
 20
8525.027814553499
 30
0.0
  0
POINT
  5
8507
330
84FD
100
AcDbEntity
  8
DEFPOINTS
 62
     0
100
AcDbPoint
 10
3596.156955993246
 20
8525.027814553499
 30
0.0
  0
POINT
  5
8508
330
84FD
100
AcDbEntity
  8
DEFPOINTS
 62
     0
100
AcDbPoint
 10
3596.156955993246
 20
8729.663953058681
 30
0.0
  0
ENDBLK
  5
84FF
330
84FD
100
AcDbEntity
  8
0
100
AcDbBlockEnd
  0
BLOCK
  5
850B
330
850A
100
AcDbEntity
  8
0
100
AcDbBlockBegin
  2
*D33
 70
     1
 10
0.0
 20
0.0
 30
0.0
  3
*D33
  1

  0
LINE
  5
850D
330
850A
100
AcDbEntity
  8
3
 62
     0
370
    -2
100
AcDbLine
 10
3616.156955993246
 20
8525.027814553494
 30
0.0
 11
4085.17309722908
 21
8525.027814553494
 31
0.0
  0
LINE
  5
850E
330
850A
100
AcDbEntity
  8
3
 62
     0
370
    -2
100
AcDbLine
 10
3616.156955993246
 20
6405.027814553498
 30
0.0
 11
4085.173097229079
 21
6405.027814553498
 31
0.0
  0
LINE
  5
850F
330
850A
100
AcDbEntity
  8
3
 62
     0
370
    -2
100
AcDbLine
 10
4045.17309722908
 20
8445.027814553494
 30
0.0
 11
4045.173097229079
 21
6485.027814553498
 31
0.0
  0
INSERT
  5
8510
330
850A
100
AcDbEntity
  8
3
 62
     0
370
    -2
100
AcDbBlockReference
  2
_OPEN
 10
4045.17309722908
 20
8525.027814553494
 30
0.0
 41
80.0
 42
80.0
 43
80.0
 50
90.0
  0
INSERT
  5
8511
330
850A
100
AcDbEntity
  8
3
 62
     0
370
    -2
100
AcDbBlockReference
  2
_OPEN
 10
4045.173097229079
 20
6405.027814553498
 30
0.0
 41
80.0
 42
80.0
 43
80.0
 50
270.0
  0
MTEXT
  5
8512
330
850A
100
AcDbEntity
  8
3
 62
     0
100
AcDbMText
 10
3945.173097229078
 20
7465.027814553497
 30
0.0
 40
120.0
 41
0.0
 71
     5
 72
     1
  1
\A1;2120
 11
0.0000000000000001
 21
1.0
 31
0.0
 73
     1
 44
1.0
1001
ACAD
1000
MTEXTBEGIN
1070
    73
1070
     1
1070
    44
1040
1.0
1070
    74
1070
     0
1000
MTEXTEND
  0
POINT
  5
8513
330
850A
100
AcDbEntity
  8
DEFPOINTS
 62
     0
100
AcDbPoint
 10
3596.156955993246
 20
8525.027814553494
 30
0.0
  0
POINT
  5
8514
330
850A
100
AcDbEntity
  8
DEFPOINTS
 62
     0
100
AcDbPoint
 10
3596.156955993246
 20
6405.027814553498
 30
0.0
  0
POINT
  5
8515
330
850A
100
AcDbEntity
  8
DEFPOINTS
 62
     0
100
AcDbPoint
 10
4045.173097229079
 20
6405.027814553498
 30
0.0
  0
ENDBLK
  5
850C
330
850A
100
AcDbEntity
  8
0
100
AcDbBlockEnd
  0
BLOCK
  5
8518
330
8517
100
AcDbEntity
  8
0
100
AcDbBlockBegin
  2
*D34
 70
     1
 10
0.0
 20
0.0
 30
0.0
  3
*D34
  1

  0
LINE
  5
851A
330
8517
100
AcDbEntity
  8
3
 62
     0
370
    -2
100
AcDbLine
 10
1146.156955993244
 20
6385.027814553499
 30
0.0
 11
1146.156955993244
 21
6000.273936363845
 31
0.0
  0
LINE
  5
851B
330
8517
100
AcDbEntity
  8
3
 62
     0
370
    -2
100
AcDbLine
 10
3596.156955993246
 20
6385.027814553495
 30
0.0
 11
3596.156955993246
 21
6000.273936363845
 31
0.0
  0
LINE
  5
851C
330
8517
100
AcDbEntity
  8
3
 62
     0
370
    -2
100
AcDbLine
 10
1226.156955993244
 20
6040.273936363845
 30
0.0
 11
3516.156955993245
 21
6040.273936363845
 31
0.0
  0
INSERT
  5
851D
330
8517
100
AcDbEntity
  8
3
 62
     0
370
    -2
100
AcDbBlockReference
  2
_OPEN
 10
1146.156955993244
 20
6040.273936363845
 30
0.0
 41
80.0
 42
80.0
 43
80.0
 50
180.0
  0
INSERT
  5
851E
330
8517
100
AcDbEntity
  8
3
 62
     0
370
    -2
100
AcDbBlockReference
  2
_OPEN
 10
3596.156955993246
 20
6040.273936363845
 30
0.0
 41
80.0
 42
80.0
 43
80.0
  0
MTEXT
  5
851F
330
8517
100
AcDbEntity
  8
3
 62
     0
100
AcDbMText
 10
2371.156955993245
 20
6140.273936363844
 30
0.0
 40
120.0
 41
0.0
 71
     5
 72
     1
  1
\A1;2450
 73
     1
 44
1.0
1001
ACAD
1000
MTEXTBEGIN
1070
    73
1070
     1
1070
    44
1040
1.0
1070
    74
1070
     0
1000
MTEXTEND
  0
POINT
  5
8520
330
8517
100
AcDbEntity
  8
DEFPOINTS
 62
     0
100
AcDbPoint
 10
1146.156955993244
 20
6405.027814553498
 30
0.0
  0
POINT
  5
8521
330
8517
100
AcDbEntity
  8
DEFPOINTS
 62
     0
100
AcDbPoint
 10
3596.156955993246
 20
6405.027814553496
 30
0.0
  0
POINT
  5
8522
330
8517
100
AcDbEntity
  8
DEFPOINTS
 62
     0
100
AcDbPoint
 10
3596.156955993246
 20
6040.273936363845
 30
0.0
  0
ENDBLK
  5
8519
330
8517
100
AcDbEntity
  8
0
100
AcDbBlockEnd
  0
BLOCK
  5
8525
330
8524
100
AcDbEntity
  8
0
100
AcDbBlockBegin
  2
*D35
 70
     1
 10
0.0
 20
0.0
 30
0.0
  3
*D35
  1

  0
LINE
  5
8530
330
8524
100
AcDbEntity
  8
3
 62
     0
370
    -2
100
AcDbLine
 10
3841.984076714965
 20
7607.027814553496
 30
0.0
 11
4979.457245420956
 21
7607.027814553496
 31
0.0
  0
LINE
  5
8531
330
8524
100
AcDbEntity
  8
3
 62
     0
370
    -2
100
AcDbLine
 10
3246.156955993246
 20
6327.027814553499
 30
0.0
 11
4979.457245420956
 21
6327.027814553499
 31
0.0
  0
LINE
  5
8532
330
8524
100
AcDbEntity
  8
3
 62
     0
370
    -2
100
AcDbLine
 10
4939.457245420956
 20
7527.027814553496
 30
0.0
 11
4939.457245420956
 21
6407.027814553498
 31
0.0
  0
INSERT
  5
8533
330
8524
100
AcDbEntity
  8
3
 62
     0
370
    -2
100
AcDbBlockReference
  2
_OPEN
 10
4939.457245420956
 20
7607.027814553496
 30
0.0
 41
80.0
 42
80.0
 43
80.0
 50
90.0
  0
INSERT
  5
8534
330
8524
100
AcDbEntity
  8
3
 62
     0
370
    -2
100
AcDbBlockReference
  2
_OPEN
 10
4939.457245420956
 20
6327.027814553499
 30
0.0
 41
80.0
 42
80.0
 43
80.0
 50
270.0
  0
MTEXT
  5
8535
330
8524
100
AcDbEntity
  8
3
 62
     0
100
AcDbMText
 10
4839.457245420954
 20
6967.027814553498
 30
0.0
 40
120.0
 41
0.0
 71
     5
 72
     1
  1
\A1;1280
 11
0.0000000000000001
 21
1.0
 31
0.0
 73
     1
 44
1.0
1001
ACAD
1000
MTEXTBEGIN
1070
    73
1070
     1
1070
    44
1040
1.0
1070
    74
1070
     0
1000
MTEXTEND
  0
POINT
  5
8536
330
8524
100
AcDbEntity
  8
DEFPOINTS
 62
     0
100
AcDbPoint
 10
3821.984076714965
 20
7607.027814553496
 30
0.0
  0
POINT
  5
8537
330
8524
100
AcDbEntity
  8
DEFPOINTS
 62
     0
100
AcDbPoint
 10
3226.156955993245
 20
6327.027814553499
 30
0.0
  0
POINT
  5
8538
330
8524
100
AcDbEntity
  8
DEFPOINTS
 62
     0
100
AcDbPoint
 10
4939.457245420956
 20
6327.027814553499
 30
0.0
  0
ENDBLK
  5
8526
330
8524
100
AcDbEntity
  8
0
100
AcDbBlockEnd
  0
BLOCK
  5
853B
330
853A
100
AcDbEntity
  8
0
100
AcDbBlockBegin
  2
*D36
 70
     1
 10
0.0
 20
0.0
 30
0.0
  3
*D36
  1

  0
LINE
  5
853D
330
853A
100
AcDbEntity
  8
3
 62
     0
370
    -2
100
AcDbLine
 10
3691.156955993245
 20
3800.144075523784
 30
0.0
 11
3964.167988683202
 21
3800.144075523784
 31
0.0
  0
LINE
  5
853E
330
853A
100
AcDbEntity
  8
3
 62
     0
370
    -2
100
AcDbLine
 10
3691.156955993245
 20
5080.144075523783
 30
0.0
 11
3964.167988683202
 21
5080.144075523783
 31
0.0
  0
LINE
  5
853F
330
853A
100
AcDbEntity
  8
3
 62
     0
370
    -2
100
AcDbLine
 10
3924.167988683201
 20
3880.144075523784
 30
0.0
 11
3924.167988683201
 21
5000.144075523783
 31
0.0
  0
INSERT
  5
8540
330
853A
100
AcDbEntity
  8
3
 62
     0
370
    -2
100
AcDbBlockReference
  2
_OPEN
 10
3924.167988683201
 20
3800.144075523784
 30
0.0
 41
80.0
 42
80.0
 43
80.0
 50
270.0
  0
INSERT
  5
8541
330
853A
100
AcDbEntity
  8
3
 62
     0
370
    -2
100
AcDbBlockReference
  2
_OPEN
 10
3924.167988683201
 20
5080.144075523783
 30
0.0
 41
80.0
 42
80.0
 43
80.0
 50
90.0
  0
MTEXT
  5
8542
330
853A
100
AcDbEntity
  8
3
 62
     0
100
AcDbMText
 10
3824.167988683201
 20
4440.144075523784
 30
0.0
 40
120.0
 41
0.0
 71
     5
 72
     1
  1
\A1;1280
 11
0.0000000000000001
 21
1.0
 31
0.0
 73
     1
 44
1.0
1001
ACAD
1000
MTEXTBEGIN
1070
    73
1070
     1
1070
    44
1040
1.0
1070
    74
1070
     0
1000
MTEXTEND
  0
POINT
  5
8543
330
853A
100
AcDbEntity
  8
DEFPOINTS
 62
     0
100
AcDbPoint
 10
3671.156955993246
 20
3800.144075523784
 30
0.0
  0
POINT
  5
8544
330
853A
100
AcDbEntity
  8
DEFPOINTS
 62
     0
100
AcDbPoint
 10
3671.156955993246
 20
5080.144075523783
 30
0.0
  0
POINT
  5
8545
330
853A
100
AcDbEntity
  8
DEFPOINTS
 62
     0
100
AcDbPoint
 10
3924.167988683201
 20
5080.144075523783
 30
0.0
  0
ENDBLK
  5
853C
330
853A
100
AcDbEntity
  8
0
100
AcDbBlockEnd
  0
BLOCK
  5
8548
330
8547
100
AcDbEntity
  8
0
100
AcDbBlockBegin
  2
*D37
 70
     1
 10
0.0
 20
0.0
 30
0.0
  3
*D37
  1

  0
LINE
  5
854A
330
8547
100
AcDbEntity
  8
3
 62
     0
370
    -2
100
AcDbLine
 10
3691.156955993245
 20
5080.144075523783
 30
0.0
 11
4210.57822273558
 21
5080.144075523783
 31
0.0
  0
LINE
  5
854B
330
8547
100
AcDbEntity
  8
3
 62
     0
370
    -2
100
AcDbLine
 10
3769.593494242098
 20
3746.144075523783
 30
0.0
 11
4210.57822273558
 21
3746.144075523783
 31
0.0
  0
LINE
  5
854C
330
8547
100
AcDbEntity
  8
3
 62
     0
370
    -2
100
AcDbLine
 10
4170.57822273558
 20
5000.144075523783
 30
0.0
 11
4170.57822273558
 21
3826.144075523784
 31
0.0
  0
INSERT
  5
854D
330
8547
100
AcDbEntity
  8
3
 62
     0
370
    -2
100
AcDbBlockReference
  2
_OPEN
 10
4170.57822273558
 20
5080.144075523783
 30
0.0
 41
80.0
 42
80.0
 43
80.0
 50
90.0
  0
INSERT
  5
854E
330
8547
100
AcDbEntity
  8
3
 62
     0
370
    -2
100
AcDbBlockReference
  2
_OPEN
 10
4170.57822273558
 20
3746.144075523783
 30
0.0
 41
80.0
 42
80.0
 43
80.0
 50
270.0
  0
MTEXT
  5
854F
330
8547
100
AcDbEntity
  8
3
 62
     0
100
AcDbMText
 10
4070.578222735579
 20
4413.144075523784
 30
0.0
 40
120.0
 41
0.0
 71
     5
 72
     1
  1
\A1;1334
 11
0.0000000000000001
 21
1.0
 31
0.0
 73
     1
 44
1.0
1001
ACAD
1000
MTEXTBEGIN
1070
    73
1070
     1
1070
    44
1040
1.0
1070
    74
1070
     0
1000
MTEXTEND
  0
POINT
  5
8550
330
8547
100
AcDbEntity
  8
DEFPOINTS
 62
     0
100
AcDbPoint
 10
3671.156955993246
 20
5080.144075523783
 30
0.0
  0
POINT
  5
8551
330
8547
100
AcDbEntity
  8
DEFPOINTS
 62
     0
100
AcDbPoint
 10
3749.593494242097
 20
3746.144075523783
 30
0.0
  0
POINT
  5
8552
330
8547
100
AcDbEntity
  8
DEFPOINTS
 62
     0
100
AcDbPoint
 10
4170.57822273558
 20
3746.144075523783
 30
0.0
  0
ENDBLK
  5
8549
330
8547
100
AcDbEntity
  8
0
100
AcDbBlockEnd
  0
BLOCK
  5
8555
330
8554
100
AcDbEntity
  8
0
100
AcDbBlockBegin
  2
*D38
 70
     1
 10
0.0
 20
0.0
 30
0.0
  3
*D38
  1

  0
LINE
  5
8557
330
8554
100
AcDbEntity
  8
3
 62
     0
370
    -2
100
AcDbLine
 10
3769.593494242098
 20
3746.144075523783
 30
0.0
 11
4210.57822273558
 21
3746.144075523783
 31
0.0
  0
LINE
  5
8558
330
8554
100
AcDbEntity
  8
3
 62
     0
370
    -2
100
AcDbLine
 10
3616.156955993246
 20
2821.144075523783
 30
0.0
 11
4210.57822273558
 21
2821.144075523783
 31
0.0
  0
LINE
  5
8559
330
8554
100
AcDbEntity
  8
3
 62
     0
370
    -2
100
AcDbLine
 10
4170.57822273558
 20
3666.144075523784
 30
0.0
 11
4170.57822273558
 21
2901.144075523783
 31
0.0
  0
INSERT
  5
855A
330
8554
100
AcDbEntity
  8
3
 62
     0
370
    -2
100
AcDbBlockReference
  2
_OPEN
 10
4170.57822273558
 20
3746.144075523783
 30
0.0
 41
80.0
 42
80.0
 43
80.0
 50
90.0
  0
INSERT
  5
855B
330
8554
100
AcDbEntity
  8
3
 62
     0
370
    -2
100
AcDbBlockReference
  2
_OPEN
 10
4170.57822273558
 20
2821.144075523783
 30
0.0
 41
80.0
 42
80.0
 43
80.0
 50
270.0
  0
MTEXT
  5
855C
330
8554
100
AcDbEntity
  8
3
 62
     0
100
AcDbMText
 10
4070.578222735578
 20
3283.644075523784
 30
0.0
 40
120.0
 41
0.0
 71
     5
 72
     1
  1
\A1;925
 11
0.0000000000000001
 21
1.0
 31
0.0
 73
     1
 44
1.0
1001
ACAD
1000
MTEXTBEGIN
1070
    73
1070
     1
1070
    44
1040
1.0
1070
    74
1070
     0
1000
MTEXTEND
  0
POINT
  5
855D
330
8554
100
AcDbEntity
  8
DEFPOINTS
 62
     0
100
AcDbPoint
 10
3749.593494242097
 20
3746.144075523783
 30
0.0
  0
POINT
  5
855E
330
8554
100
AcDbEntity
  8
DEFPOINTS
 62
     0
100
AcDbPoint
 10
3596.156955993246
 20
2821.144075523783
 30
0.0
  0
POINT
  5
855F
330
8554
100
AcDbEntity
  8
DEFPOINTS
 62
     0
100
AcDbPoint
 10
4170.57822273558
 20
2821.144075523783
 30
0.0
  0
ENDBLK
  5
8556
330
8554
100
AcDbEntity
  8
0
100
AcDbBlockEnd
  0
BLOCK
  5
8562
330
8561
100
AcDbEntity
  8
0
100
AcDbBlockBegin
  2
*D39
 70
     1
 10
0.0
 20
0.0
 30
0.0
  3
*D39
  1

  0
LINE
  5
8564
330
8561
100
AcDbEntity
  8
3
 62
     0
370
    -2
100
AcDbLine
 10
3671.156955993246
 20
5153.144075523784
 30
0.0
 11
3671.156955993246
 21
5422.667020841306
 31
0.0
  0
LINE
  5
8565
330
8561
100
AcDbEntity
  8
3
 62
     0
370
    -2
100
AcDbLine
 10
2846.156955993246
 20
5121.429794629098
 30
0.0
 11
2846.156955993246
 21
5422.667020841306
 31
0.0
  0
LINE
  5
8566
330
8561
100
AcDbEntity
  8
3
 62
     0
370
    -2
100
AcDbLine
 10
3591.156955993245
 20
5382.667020841306
 30
0.0
 11
2926.156955993246
 21
5382.667020841306
 31
0.0
  0
INSERT
  5
8567
330
8561
100
AcDbEntity
  8
3
 62
     0
370
    -2
100
AcDbBlockReference
  2
_OPEN
 10
3671.156955993246
 20
5382.667020841306
 30
0.0
 41
80.0
 42
80.0
 43
80.0
  0
INSERT
  5
8568
330
8561
100
AcDbEntity
  8
3
 62
     0
370
    -2
100
AcDbBlockReference
  2
_OPEN
 10
2846.156955993246
 20
5382.667020841306
 30
0.0
 41
80.0
 42
80.0
 43
80.0
 50
180.0
  0
MTEXT
  5
8569
330
8561
100
AcDbEntity
  8
3
 62
     0
100
AcDbMText
 10
3258.656955993246
 20
5482.667020841306
 30
0.0
 40
120.0
 41
0.0
 71
     5
 72
     1
  1
\A1;825
 73
     1
 44
1.0
1001
ACAD
1000
MTEXTBEGIN
1070
    73
1070
     1
1070
    44
1040
1.0
1070
    74
1070
     0
1000
MTEXTEND
  0
POINT
  5
856A
330
8561
100
AcDbEntity
  8
DEFPOINTS
 62
     0
100
AcDbPoint
 10
3671.156955993246
 20
5133.144075523785
 30
0.0
  0
POINT
  5
856B
330
8561
100
AcDbEntity
  8
DEFPOINTS
 62
     0
100
AcDbPoint
 10
2846.156955993246
 20
5101.429794629098
 30
0.0
  0
POINT
  5
856C
330
8561
100
AcDbEntity
  8
DEFPOINTS
 62
     0
100
AcDbPoint
 10
2846.156955993246
 20
5382.667020841306
 30
0.0
  0
ENDBLK
  5
8563
330
8561
100
AcDbEntity
  8
0
100
AcDbBlockEnd
  0
BLOCK
  5
856F
330
856E
100
AcDbEntity
  8
0
100
AcDbBlockBegin
  2
*D40
 70
     1
 10
0.0
 20
0.0
 30
0.0
  3
*D40
  1

  0
LINE
  5
8571
330
856E
100
AcDbEntity
  8
3
 62
     0
370
    -2
100
AcDbLine
 10
2846.156955993246
 20
5121.429794629098
 30
0.0
 11
2846.156955993246
 21
5422.667020841306
 31
0.0
  0
LINE
  5
8572
330
856E
100
AcDbEntity
  8
3
 62
     0
370
    -2
100
AcDbLine
 10
1767.156955993245
 20
3857.144075523783
 30
0.0
 11
1767.156955993245
 21
5422.667020841306
 31
0.0
  0
LINE
  5
8573
330
856E
100
AcDbEntity
  8
3
 62
     0
370
    -2
100
AcDbLine
 10
2766.156955993246
 20
5382.667020841306
 30
0.0
 11
1847.156955993245
 21
5382.667020841306
 31
0.0
  0
INSERT
  5
8574
330
856E
100
AcDbEntity
  8
3
 62
     0
370
    -2
100
AcDbBlockReference
  2
_OPEN
 10
2846.156955993246
 20
5382.667020841306
 30
0.0
 41
80.0
 42
80.0
 43
80.0
  0
INSERT
  5
8575
330
856E
100
AcDbEntity
  8
3
 62
     0
370
    -2
100
AcDbBlockReference
  2
_OPEN
 10
1767.156955993245
 20
5382.667020841306
 30
0.0
 41
80.0
 42
80.0
 43
80.0
 50
180.0
  0
MTEXT
  5
8576
330
856E
100
AcDbEntity
  8
3
 62
     0
100
AcDbMText
 10
2306.656955993245
 20
5482.667020841306
 30
0.0
 40
120.0
 41
0.0
 71
     5
 72
     1
  1
\A1;1079
 73
     1
 44
1.0
1001
ACAD
1000
MTEXTBEGIN
1070
    73
1070
     1
1070
    44
1040
1.0
1070
    74
1070
     0
1000
MTEXTEND
  0
POINT
  5
8577
330
856E
100
AcDbEntity
  8
DEFPOINTS
 62
     0
100
AcDbPoint
 10
2846.156955993246
 20
5101.429794629098
 30
0.0
  0
POINT
  5
8578
330
856E
100
AcDbEntity
  8
DEFPOINTS
 62
     0
100
AcDbPoint
 10
1767.156955993245
 20
3837.144075523784
 30
0.0
  0
POINT
  5
8579
330
856E
100
AcDbEntity
  8
DEFPOINTS
 62
     0
100
AcDbPoint
 10
1767.156955993245
 20
5382.667020841306
 30
0.0
  0
ENDBLK
  5
8570
330
856E
100
AcDbEntity
  8
0
100
AcDbBlockEnd
  0
BLOCK
  5
857C
330
857B
100
AcDbEntity
  8
0
100
AcDbBlockBegin
  2
*D41
 70
     1
 10
0.0
 20
0.0
 30
0.0
  3
*D41
  1

  0
LINE
  5
857E
330
857B
100
AcDbEntity
  8
3
 62
     0
370
    -2
100
AcDbLine
 10
3671.156955993246
 20
5153.144075523784
 30
0.0
 11
3671.156955993246
 21
5647.120238149416
 31
0.0
  0
LINE
  5
857F
330
857B
100
AcDbEntity
  8
3
 62
     0
370
    -2
100
AcDbLine
 10
1146.156955993244
 20
2966.144075523784
 30
0.0
 11
1146.156955993244
 21
5647.120238149416
 31
0.0
  0
LINE
  5
8580
330
857B
100
AcDbEntity
  8
3
 62
     0
370
    -2
100
AcDbLine
 10
3591.156955993245
 20
5607.120238149416
 30
0.0
 11
1226.156955993244
 21
5607.120238149416
 31
0.0
  0
INSERT
  5
8581
330
857B
100
AcDbEntity
  8
3
 62
     0
370
    -2
100
AcDbBlockReference
  2
_OPEN
 10
3671.156955993246
 20
5607.120238149416
 30
0.0
 41
80.0
 42
80.0
 43
80.0
  0
INSERT
  5
8582
330
857B
100
AcDbEntity
  8
3
 62
     0
370
    -2
100
AcDbBlockReference
  2
_OPEN
 10
1146.156955993244
 20
5607.120238149416
 30
0.0
 41
80.0
 42
80.0
 43
80.0
 50
180.0
  0
MTEXT
  5
8583
330
857B
100
AcDbEntity
  8
3
 62
     0
100
AcDbMText
 10
2408.656955993245
 20
5707.120238149417
 30
0.0
 40
120.0
 41
0.0
 71
     5
 72
     1
  1
\A1;2525
 73
     1
 44
1.0
1001
ACAD
1000
MTEXTBEGIN
1070
    73
1070
     1
1070
    44
1040
1.0
1070
    74
1070
     0
1000
MTEXTEND
  0
POINT
  5
8584
330
857B
100
AcDbEntity
  8
DEFPOINTS
 62
     0
100
AcDbPoint
 10
3671.156955993246
 20
5133.144075523785
 30
0.0
  0
POINT
  5
8585
330
857B
100
AcDbEntity
  8
DEFPOINTS
 62
     0
100
AcDbPoint
 10
1146.156955993244
 20
2946.144075523783
 30
0.0
  0
POINT
  5
8586
330
857B
100
AcDbEntity
  8
DEFPOINTS
 62
     0
100
AcDbPoint
 10
1146.156955993244
 20
5607.120238149416
 30
0.0
  0
ENDBLK
  5
857D
330
857B
100
AcDbEntity
  8
0
100
AcDbBlockEnd
  0
ENDSEC
  0
SECTION
  2
ENTITIES
  0
INSERT
  5
7C23
330
8409
100
AcDbEntity
  8
0
100
AcDbBlockReference
  2
YA_N
 10
6.0
 20
5.0
 30
0.0
  0
LINE
  5
7C24
330
8409
100
AcDbEntity
  8
2
100
AcDbLine
 10
2846.156955993246
 20
5101.429794629098
 30
0.0
 11
2846.156955993246
 21
2821.144075523783
 31
0.0
  0
ARC
  5
7C25
330
8409
100
AcDbEntity
  8
1
100
AcDbCircle
 10
2937.156955993245
 20
3837.144075523784
 30
0.0
 40
1170.0
100
AcDbArc
 50
94.46084369787396
 51
184.4608436978738
  0
ARC
  5
7C26
330
8409
100
AcDbEntity
  8
1
100
AcDbCircle
 10
2755.156955993244
 20
3837.144075523784
 30
0.0
 40
988.0
100
AcDbArc
 50
185.2847329545344
 51
244.3985859526253
  0
ARC
  5
7C27
330
8409
100
AcDbEntity
  8
1
100
AcDbCircle
 10
2769.156955993246
 20
3669.144075523784
 30
0.0
 40
820.0
100
AcDbArc
 50
298.150993129518
 51
2.7575147557921
  0
LINE
  5
7C28
330
8409
100
AcDbEntity
  8
1
100
AcDbLine
 10
2846.156955993246
 20
5003.599818361891
 30
0.0
 11
3671.156955993246
 21
5080.144075523783
 31
0.0
  0
LINE
  5
7C29
330
8409
100
AcDbEntity
  8
1
100
AcDbLine
 10
3596.156955993246
 20
2821.144075523783
 30
0.0
 11
1146.156955993244
 21
2821.144075523783
 31
0.0
1001
ACAD
1000
ASC_BOUNDS
1002
{
1070
    19
1002
}
  0
LINE
  5
7C2A
330
8409
100
AcDbEntity
  8
1
100
AcDbLine
 10
3596.156955993246
 20
2946.144075523783
 30
0.0
 11
1146.156955993244
 21
2946.144075523783
 31
0.0
  0
LINE
  5
7C2B
330
8409
100
AcDbEntity
  8
1
100
AcDbLine
 10
3596.156955993246
 20
2946.144075523783
 30
0.0
 11
3596.156955993246
 21
2821.144075523783
 31
0.0
  0
LINE
  5
7C2C
330
8409
100
AcDbEntity
  8
1
100
AcDbLine
 10
1146.156955993244
 20
2946.144075523783
 30
0.0
 11
1146.156955993244
 21
2821.144075523783
 31
0.0
  0
LINE
  5
7C2D
330
8409
100
AcDbEntity
  8
2
100
AcDbLine
 10
1426.156955993245
 20
3496.998592129495
 30
0.0
 11
1426.156955993245
 21
2821.144075523783
 31
0.0
  0
LINE
  5
7C2E
330
8409
100
AcDbEntity
  8
2
100
AcDbLine
 10
1706.471172751396
 20
3206.144075523784
 30
0.0
 11
1018.992477698529
 21
3206.144075523784
 31
0.0
  0
LINE
  5
7C2F
330
8409
100
AcDbEntity
  8
1
100
AcDbLine
 10
3671.156955993246
 20
3800.144075523784
 30
0.0
 11
3587.192042881849
 21
3800.144075523784
 31
0.0
  0
LINE
  5
7C30
330
8409
100
AcDbEntity
  8
1
100
AcDbLine
 10
3621.156955993246
 20
5075.505029635184
 30
0.0
 11
3621.156955993246
 21
3800.144075523784
 31
0.0
  0
LINE
  5
7C31
330
8409
100
AcDbEntity
  8
1
100
AcDbLine
 10
3671.156955993246
 20
5133.144075523785
 30
0.0
 11
3671.156955993246
 21
3747.144075523783
 31
0.0
  0
LINE
  5
7C32
330
8409
100
AcDbEntity
  8
1
100
AcDbLine
 10
5124.500975653525
 20
2821.144075523783
 30
0.0
 11
7244.500975653522
 21
2821.144075523783
 31
0.0
1001
ACAD
1000
ASC_BOUNDS
1002
{
1070
    19
1005
0
1005
0
1002
}
  0
LINE
  5
7C33
330
8409
100
AcDbEntity
  8
1
100
AcDbLine
 10
5124.500975653525
 20
2946.144075523783
 30
0.0
 11
7244.500975653526
 21
2946.144075523783
 31
0.0
  0
LINE
  5
7C39
330
8409
100
AcDbEntity
  8
2
100
AcDbLine
 10
3749.593494242097
 20
3746.144075523783
 30
0.0
 11
1686.001718075196
 21
3746.144075523783
 31
0.0
  0
LINE
  5
7C3A
330
8409
100
AcDbEntity
  8
2
100
AcDbLine
 10
5111.200975653527
 20
3746.144075523783
 30
0.0
 11
7360.011461892764
 21
3746.144075523783
 31
0.0
  0
LINE
  5
7C3B
330
8409
100
AcDbEntity
  8
2
100
AcDbLine
 10
5054.998249057149
 20
3206.144075523784
 30
0.0
 11
5643.702211210475
 21
3206.144075523784
 31
0.0
  0
LINE
  5
7C3C
330
8409
100
AcDbEntity
  8
1
100
AcDbLine
 10
5131.500975653526
 20
3312.144075523784
 30
0.0
 11
5209.400975653525
 21
3312.144075523784
 31
0.0
  0
LINE
  5
7C3D
330
8409
100
AcDbEntity
  8
1
100
AcDbLine
 10
5131.500975653526
 20
3100.144075523783
 30
0.0
 11
5209.400975653526
 21
3100.144075523783
 31
0.0
  0
LINE
  5
7C3E
330
8409
100
AcDbEntity
  8
1
100
AcDbLine
 10
5229.500975653526
 20
3816.144075523784
 30
0.0
 11
5229.500975653526
 21
3676.144075523783
 31
0.0
  0
LINE
  5
7C3F
330
8409
100
AcDbEntity
  8
1
100
AcDbLine
 10
5209.400975653526
 20
4000.144075523784
 30
0.0
 11
5209.400975653526
 21
3816.144075523784
 31
0.0
  0
LINE
  5
7C40
330
8409
100
AcDbEntity
  8
1
100
AcDbLine
 10
5209.400975653526
 20
3816.144075523784
 30
0.0
 11
5229.500975653526
 21
3816.144075523784
 31
0.0
  0
LINE
  5
7C41
330
8409
100
AcDbEntity
  8
1
100
AcDbLine
 10
5209.400975653525
 20
3676.144075523783
 30
0.0
 11
5229.500975653526
 21
3676.144075523783
 31
0.0
  0
LINE
  5
7C42
330
8409
100
AcDbEntity
  8
1
100
AcDbLine
 10
5209.400975653526
 20
3676.144075523783
 30
0.0
 11
5209.400975653526
 21
3266.144075523783
 31
0.0
  0
LINE
  5
7C43
330
8409
100
AcDbEntity
  8
1
100
AcDbLine
 10
5131.500975653526
 20
4000.144075523784
 30
0.0
 11
5131.500975653526
 21
3100.144075523783
 31
0.0
  0
LINE
  5
7C44
330
8409
100
AcDbEntity
  8
1
100
AcDbLine
 10
5224.500975653526
 20
3266.144075523783
 30
0.0
 11
5224.500975653526
 21
3146.144075523784
 31
0.0
  0
LINE
  5
7C45
330
8409
100
AcDbEntity
  8
1
100
AcDbLine
 10
5209.400975653526
 20
3266.144075523783
 30
0.0
 11
5224.500975653526
 21
3266.144075523783
 31
0.0
  0
LINE
  5
7C46
330
8409
100
AcDbEntity
  8
1
100
AcDbLine
 10
5209.400975653526
 20
3146.144075523784
 30
0.0
 11
5224.500975653526
 21
3146.144075523784
 31
0.0
  0
LINE
  5
7C47
330
8409
100
AcDbEntity
  8
1
100
AcDbLine
 10
5209.400975653526
 20
3146.144075523784
 30
0.0
 11
5209.400975653526
 21
3100.144075523783
 31
0.0
  0
LINE
  5
7C48
330
8409
100
AcDbEntity
  8
1
100
AcDbLine
 10
5046.500975653526
 20
2986.144075523784
 30
0.0
 11
5291.500975653526
 21
2986.144075523784
 31
0.0
  0
LINE
  5
7C49
330
8409
100
AcDbEntity
  8
1
100
AcDbLine
 10
5046.500975653526
 20
4126.144075523782
 30
0.0
 11
5046.500975653526
 21
2986.144075523784
 31
0.0
  0
LINE
  5
7C4A
330
8409
100
AcDbEntity
  8
1
100
AcDbLine
 10
5291.500975653526
 20
4126.144075523782
 30
0.0
 11
5291.500975653526
 21
4106.144075523785
 31
0.0
  0
LINE
  5
7C4B
330
8409
100
AcDbEntity
  8
2
100
AcDbLine
 10
2846.156955993246
 20
8624.712157279262
 30
0.0
 11
2846.156955993246
 21
6244.534480010957
 31
0.0
  0
LINE
  5
7C4C
330
8409
100
AcDbEntity
  8
2
100
AcDbLine
 10
1426.156955993245
 20
7279.845033676823
 30
0.0
 11
1426.156955993245
 21
6231.415501442675
 31
0.0
  0
LINE
  5
7C4D
330
8409
100
AcDbEntity
  8
2
100
AcDbLine
 10
6326.500975653526
 20
5316.500490070367
 30
0.0
 11
6326.500975653526
 21
2821.144075523783
 31
0.0
  0
POINT
  5
7C4E
330
8409
100
AcDbEntity
  8
1
100
AcDbPoint
 10
2846.156955993246
 20
5101.429794629098
 30
0.0
  0
POINT
  5
7C4F
330
8409
100
AcDbEntity
  8
1
100
AcDbPoint
 10
1771.356671382593
 20
3746.144075523783
 30
0.0
  0
INSERT
  5
7C50
330
8409
100
AcDbEntity
  8
0
100
AcDbBlockReference
  2
YA_N
 10
-1757.227407310314
 20
-1218.78641745778
 30
0.0
 41
30.0
 42
30.0
 43
30.0
  0
ARC
  5
7C55
330
8409
100
AcDbEntity
  8
1
100
AcDbCircle
 10
1426.156955993245
 20
3206.144075523784
 30
0.0
 40
203.5
100
AcDbArc
 50
285.603699
 51
254.39624
  0
LINE
  5
7C56
330
8409
100
AcDbEntity
  8
1
100
AcDbLine
 10
1371.418918993245
 20
3010.144075523783
 30
0.0
 11
1480.894992993245
 21
3010.144075523783
 31
0.0
  0
ARC
  5
7C57
330
8409
100
AcDbEntity
  8
1
100
AcDbCircle
 10
1612.156955993245
 20
3023.144075523783
 30
0.0
 40
3.0
100
AcDbArc
 50
0.0
 51
90.0
  0
ARC
  5
7C58
330
8409
100
AcDbEntity
  8
1
100
AcDbCircle
 10
1610.156955993245
 20
3080.470736523784
 30
0.0
 40
5.000066999999999
100
AcDbArc
 50
0.0
 51
55.056335
  0
LINE
  5
7C59
330
8409
100
AcDbEntity
  8
1
100
AcDbLine
 10
1615.156955993245
 20
3080.470736523784
 30
0.0
 11
1615.156955993245
 21
3006.144075523784
 31
0.0
  0
LINE
  5
7C5D
330
8409
100
AcDbEntity
  8
1
100
AcDbLine
 10
1530.259525993245
 20
3031.287264523784
 30
0.0
 11
1535.656955993245
 21
3011.144075523783
 31
0.0
  0
LINE
  5
7C5E
330
8409
100
AcDbEntity
  8
1
100
AcDbLine
 10
1535.656955993245
 20
3023.144075523783
 30
0.0
 11
1535.656955993245
 21
3006.144075523784
 31
0.0
  0
LINE
  5
7C5F
330
8409
100
AcDbEntity
  8
1
100
AcDbLine
 10
1538.656955993245
 20
3026.144075523783
 30
0.0
 11
1612.156955993245
 21
3026.144075523783
 31
0.0
  0
ARC
  5
7C60
330
8409
100
AcDbEntity
  8
1
100
AcDbCircle
 10
1538.656955993245
 20
3023.144075523783
 30
0.0
 40
3.0
100
AcDbArc
 50
90.0
 51
180.0
  0
LINE
  5
7C61
330
8409
100
AcDbEntity
  8
1
100
AcDbLine
 10
1613.020725993244
 20
3084.569368523784
 30
0.0
 11
1597.082859993244
 21
3095.705843523783
 31
0.0
  0
LINE
  5
7C62
330
8409
100
AcDbEntity
  8
1
100
AcDbLine
 10
1237.156955993245
 20
3080.470736523784
 30
0.0
 11
1237.156955993245
 21
3006.144075523784
 31
0.0
  0
LINE
  5
7C66
330
8409
100
AcDbEntity
  8
1
100
AcDbLine
 10
1322.054172993244
 20
3031.287386523783
 30
0.0
 11
1316.656955993245
 21
3011.144075523783
 31
0.0
  0
LINE
  5
7C67
330
8409
100
AcDbEntity
  8
1
100
AcDbLine
 10
1316.656955993245
 20
3023.144075523783
 30
0.0
 11
1316.656955993245
 21
3006.144075523784
 31
0.0
  0
LINE
  5
7C68
330
8409
100
AcDbEntity
  8
1
100
AcDbLine
 10
1313.656955993245
 20
3026.144075523783
 30
0.0
 11
1240.156955993245
 21
3026.144075523783
 31
0.0
  0
ARC
  5
7C69
330
8409
100
AcDbEntity
  8
1
100
AcDbCircle
 10
1313.656955993245
 20
3023.144075523783
 30
0.0
 40
3.0
100
AcDbArc
 50
0.0
 51
90.0
  0
ARC
  5
7C6A
330
8409
100
AcDbEntity
  8
1
100
AcDbCircle
 10
1240.156955993245
 20
3023.144075523783
 30
0.0
 40
3.0
100
AcDbArc
 50
90.0
 51
180.0
  0
LINE
  5
7C6B
330
8409
100
AcDbEntity
  8
1
100
AcDbLine
 10
1239.293064993245
 20
3084.569368523784
 30
0.0
 11
1255.230930993245
 21
3095.705843523783
 31
0.0
  0
ARC
  5
7C6C
330
8409
100
AcDbEntity
  8
1
100
AcDbCircle
 10
1242.156955993245
 20
3080.470736523784
 30
0.0
 40
5.0
100
AcDbArc
 50
124.943661
 51
180.0
  0
LINE
  5
7C6D
330
8409
100
AcDbEntity
  8
1
100
AcDbLine
 10
1669.579981035854
 20
3006.144075523784
 30
0.0
 11
1496.156955993245
 21
3006.144075523784
 31
0.0
  0
LINE
  5
7C6E
330
8409
100
AcDbEntity
  8
1
100
AcDbLine
 10
1686.156955993245
 20
2946.144075523783
 30
0.0
 11
1669.579981035854
 21
3006.144075523784
 31
0.0
  0
LINE
  5
7C6F
330
8409
100
AcDbEntity
  8
1
100
AcDbLine
 10
1166.156955993245
 20
2946.144075523783
 30
0.0
 11
1182.337912538363
 21
3006.144075523784
 31
0.0
  0
LINE
  5
7C70
330
8409
100
AcDbEntity
  8
1
100
AcDbLine
 10
1496.156955993245
 20
2996.144075523783
 30
0.0
 11
1356.156955993245
 21
2996.144075523783
 31
0.0
  0
LINE
  5
7C72
330
8409
100
AcDbEntity
  8
1
100
AcDbLine
 10
1356.156955993245
 20
3006.144075523784
 30
0.0
 11
1356.156955993245
 21
2996.144075523783
 31
0.0
  0
LINE
  5
7C73
330
8409
100
AcDbEntity
  8
1
100
AcDbLine
 10
1496.156955993245
 20
3006.144075523784
 30
0.0
 11
1496.156955993245
 21
2996.144075523783
 31
0.0
  0
LINE
  5
7C76
330
8409
100
AcDbEntity
  8
1
100
AcDbLine
 10
1356.156955993245
 20
3006.144075523784
 30
0.0
 11
1182.337912538363
 21
3006.144075523784
 31
0.0
  0
INSERT
  5
7C77
330
8409
100
AcDbEntity
  8
0
100
AcDbBlockReference
  2
YA_N
 10
-755.2436758818473
 20
-538.554984833856
 30
0.0
 41
30.0
 42
30.0
 43
30.0
  0
CIRCLE
  5
7C81
330
8409
100
AcDbEntity
  8
1
100
AcDbCircle
 10
1426.156955993245
 20
3206.144075523784
 30
0.0
 40
107.0
  0
POINT
  5
7C83
330
8409
100
AcDbEntity
  8
1
100
AcDbPoint
 10
3596.156955993246
 20
2821.144075523783
 30
0.0
  0
LINE
  5
7C87
330
8409
100
AcDbEntity
  8
1
100
AcDbLine
 10
5476.500975653525
 20
3800.144075523784
 30
0.0
 11
7176.500975653526
 21
3800.144075523784
 31
0.0
  0
LINE
  5
7C88
330
8409
100
AcDbEntity
  8
1
100
AcDbLine
 10
5476.500975653525
 20
5080.144075523783
 30
0.0
 11
7176.500975653526
 21
5080.144075523783
 31
0.0
  0
LINE
  5
7C89
330
8409
100
AcDbEntity
  8
1
100
AcDbLine
 10
7176.500975653526
 20
5080.144075523783
 30
0.0
 11
7176.500975653526
 21
2946.144075523783
 31
0.0
  0
LINE
  5
7C8A
330
8409
100
AcDbEntity
  8
1
100
AcDbLine
 10
5476.500975653525
 20
5080.144075523783
 30
0.0
 11
5476.500975653525
 21
2946.144075523783
 31
0.0
  0
ARC
  5
7C8B
330
8409
100
AcDbEntity
  8
1
100
AcDbCircle
 10
2846.156955993246
 20
3746.144075523783
 30
0.0
 40
625.0
100
AcDbArc
 50
0.0
 51
180.0
  0
ARC
  5
7C8C
330
8409
100
AcDbEntity
  8
1
100
AcDbCircle
 10
2846.156955993246
 20
3746.144075523783
 30
0.0
 40
675.0
100
AcDbArc
 50
0.0
 51
180.0
  0
LINE
  5
7C8D
330
8409
100
AcDbEntity
  8
1
100
AcDbLine
 10
2511.156955993245
 20
2948.144075523783
 30
0.0
 11
2511.156955993245
 21
2946.144075523783
 31
0.0
  0
ARC
  5
7C8E
330
8409
100
AcDbEntity
  8
1
100
AcDbCircle
 10
2846.156955993246
 20
3746.144075523783
 30
0.0
 40
625.0
100
AcDbArc
 50
180.0
 51
270.0
  0
ARC
  5
7C8F
330
8409
100
AcDbEntity
  8
1
100
AcDbCircle
 10
2846.156955993246
 20
3746.144075523783
 30
0.0
 40
675.0
100
AcDbArc
 50
180.0
 51
270.0
  0
LINE
  5
7C90
330
8409
100
AcDbEntity
  8
1
100
AcDbLine
 10
3596.156955993246
 20
8525.027814553499
 30
0.0
 11
2096.156955993245
 21
8525.027814553499
 31
0.0
  0
LINE
  5
7C91
330
8409
100
AcDbEntity
  8
1
100
AcDbLine
 10
3596.156955993246
 20
6405.027814553498
 30
0.0
 11
1146.156955993244
 21
6405.027814553498
 31
0.0
  0
LINE
  5
7C92
330
8409
100
AcDbEntity
  8
1
100
AcDbLine
 10
3596.156955993246
 20
8525.027814553494
 30
0.0
 11
3596.156955993246
 21
8457.027814553494
 31
0.0
  0
LINE
  5
7C93
330
8409
100
AcDbEntity
  8
1
100
AcDbLine
 10
1146.156955993244
 20
7405.027814553498
 30
0.0
 11
1146.156955993244
 21
6405.027814553498
 31
0.0
  0
LINE
  5
7C94
330
8409
100
AcDbEntity
  8
1
100
AcDbLine
 10
2096.156955993245
 20
8525.027814553499
 30
0.0
 11
2096.156955993245
 21
8457.0278145535
 31
0.0
  0
LINE
  5
7C95
330
8409
100
AcDbEntity
  8
1
100
AcDbLine
 10
1767.156955993245
 20
7405.027814553498
 30
0.0
 11
1146.156955993244
 21
7405.027814553498
 31
0.0
  0
LINE
  5
7C97
330
8409
100
AcDbEntity
  8
1
100
AcDbLine
 10
5319.000975653525
 20
3670.144075523784
 30
0.0
 11
5319.000975653525
 21
3540.144075523784
 31
0.0
  0
LINE
  5
7C98
330
8409
100
AcDbEntity
  8
1
100
AcDbLine
 10
5459.000975653527
 20
3680.144075523783
 30
0.0
 11
5459.000975653527
 21
3530.144075523784
 31
0.0
  0
LINE
  5
7C99
330
8409
100
AcDbEntity
  8
1
100
AcDbLine
 10
5329.000975653526
 20
3680.144075523783
 30
0.0
 11
5399.200975653528
 21
3680.144075523783
 31
0.0
  0
LINE
  5
7C9A
330
8409
100
AcDbEntity
  8
1
100
AcDbLine
 10
5329.000975653526
 20
3530.144075523784
 30
0.0
 11
5399.200975653528
 21
3530.144075523784
 31
0.0
  0
ARC
  5
7C9B
330
8409
100
AcDbEntity
  8
1
100
AcDbCircle
 10
5329.000975653526
 20
3670.144075523784
 30
0.0
 40
10.0
100
AcDbArc
 50
90.0
 51
180.0
  0
ARC
  5
7C9C
330
8409
100
AcDbEntity
  8
1
100
AcDbCircle
 10
5329.000975653526
 20
3540.144075523784
 30
0.0
 40
10.0
100
AcDbArc
 50
180.0
 51
270.0
  0
LINE
  5
7C9D
330
8409
100
AcDbEntity
  8
1
100
AcDbLine
 10
5399.200975653526
 20
3530.144075523784
 30
0.0
 11
5459.000975653527
 21
3530.144075523784
 31
0.0
  0
LINE
  5
7C9E
330
8409
100
AcDbEntity
  8
1
100
AcDbLine
 10
5399.200975653526
 20
3680.144075523783
 30
0.0
 11
5459.000975653527
 21
3680.144075523783
 31
0.0
  0
LINE
  5
7C9F
330
8409
100
AcDbEntity
  8
1
100
AcDbLine
 10
7346.500975653523
 20
3670.144075523784
 30
0.0
 11
7346.500975653523
 21
3540.144075523784
 31
0.0
  0
LINE
  5
7CA0
330
8409
100
AcDbEntity
  8
1
100
AcDbLine
 10
7194.000975653526
 20
3680.144075523783
 30
0.0
 11
7194.000975653526
 21
3530.144075523784
 31
0.0
  0
LINE
  5
7CA1
330
8409
100
AcDbEntity
  8
1
100
AcDbLine
 10
7336.500975653523
 20
3530.144075523784
 30
0.0
 11
7253.800975653523
 21
3530.144075523784
 31
0.0
  0
ARC
  5
7CA2
330
8409
100
AcDbEntity
  8
1
100
AcDbCircle
 10
7336.500975653523
 20
3540.144075523784
 30
0.0
 40
10.0
100
AcDbArc
 50
270.0
 51
0.0
  0
LINE
  5
7CA3
330
8409
100
AcDbEntity
  8
1
100
AcDbLine
 10
7253.800975653523
 20
3530.144075523784
 30
0.0
 11
7194.000975653526
 21
3530.144075523784
 31
0.0
  0
LINE
  5
7CA4
330
8409
100
AcDbEntity
  8
1
100
AcDbLine
 10
7336.500975653523
 20
3680.144075523783
 30
0.0
 11
7253.800975653523
 21
3680.144075523783
 31
0.0
  0
ARC
  5
7CA5
330
8409
100
AcDbEntity
  8
1
100
AcDbCircle
 10
7336.500975653523
 20
3670.144075523784
 30
0.0
 40
10.0
100
AcDbArc
 50
0.0
 51
90.0
  0
LINE
  5
7CA6
330
8409
100
AcDbEntity
  8
1
100
AcDbLine
 10
7253.800975653523
 20
3680.144075523783
 30
0.0
 11
7194.000975653526
 21
3680.144075523783
 31
0.0
  0
ARC
  5
7CAA
330
8409
100
AcDbEntity
  8
1
100
AcDbCircle
 10
2846.156955993246
 20
3746.144075523783
 30
0.0
 40
675.0
100
AcDbArc
 50
270.0
 51
0.0
  0
ARC
  5
7CAB
330
8409
100
AcDbEntity
  8
1
100
AcDbCircle
 10
2846.156955993246
 20
3746.144075523783
 30
0.0
 40
625.0
100
AcDbArc
 50
270.0
 51
0.0
  0
CIRCLE
  5
7CAF
330
8409
100
AcDbEntity
  8
1
100
AcDbCircle
 10
2846.156955993246
 20
3746.144075523783
 30
0.0
 40
254.0
  0
ARC
  5
7CB0
330
8409
100
AcDbEntity
  8
1
100
AcDbCircle
 10
2846.156955993246
 20
3746.144075523783
 30
0.0
 40
380.0
100
AcDbArc
 50
284.7754119540463
 51
116.8663737525752
  0
ARC
  5
7CB1
330
8409
100
AcDbEntity
  8
1
100
AcDbCircle
 10
1426.156955993245
 20
3206.144075523784
 30
0.0
 40
220.0
100
AcDbArc
 50
116.8663737525752
 51
284.7754119540463
  0
LINE
  5
7CB2
330
8409
100
AcDbEntity
  8
1
100
AcDbLine
 10
2674.430682702501
 20
4085.127979362407
 30
0.0
 11
1326.736481982814
 21
3402.397914588249
 31
0.0
  0
LINE
  5
7CB3
330
8409
100
AcDbEntity
  8
1
100
AcDbLine
 10
2733.324597712614
 20
3973.706943595074
 30
0.0
 11
1378.625214512822
 21
3302.007173490823
 31
0.0
  0
LINE
  5
7CB4
330
8409
100
AcDbEntity
  8
1
100
AcDbLine
 10
2913.044808208018
 20
3501.109353033082
 30
0.0
 11
1454.33412208372
 21
3102.920786915496
 31
0.0
  0
LINE
  5
7CB5
330
8409
100
AcDbEntity
  8
1
100
AcDbLine
 10
2943.068671225063
 20
3378.709565099372
 30
0.0
 11
1482.263738495876
 21
2993.418832646492
 31
0.0
  0
POINT
  5
7CC6
330
8409
100
AcDbEntity
  8
1
100
AcDbPoint
 10
3596.156955993246
 20
2821.144075523783
 30
0.0
  0
ARC
  5
7CCA
330
8409
100
AcDbEntity
  8
1
100
AcDbCircle
 10
2846.156955993246
 20
3746.144075523783
 30
0.0
 40
743.0
100
AcDbArc
 50
357.103091958974
 51
4.167836322161878
  0
LINE
  5
7CCB
330
8409
100
AcDbEntity
  8
1
100
AcDbLine
 10
5131.500975653526
 20
4000.144075523784
 30
0.0
 11
5209.400975653525
 21
4000.144075523784
 31
0.0
  0
LINE
  5
7CCC
330
8409
100
AcDbEntity
  8
1
100
AcDbLine
 10
5131.500975653526
 20
3492.144075523784
 30
0.0
 11
5209.400975653525
 21
3492.144075523784
 31
0.0
  0
LINE
  5
7CCD
330
8409
100
AcDbEntity
  8
1
100
AcDbLine
 10
5046.500975653525
 20
4126.144075523782
 30
0.0
 11
5291.500975653525
 21
4126.144075523782
 31
0.0
  0
LINE
  5
7CCE
330
8409
100
AcDbEntity
  8
1
100
AcDbLine
 10
5291.500975653526
 20
3006.144075523784
 30
0.0
 11
5291.500975653526
 21
2986.144075523784
 31
0.0
  0
INSERT
  5
7CCF
330
8409
100
AcDbEntity
  8
0
100
AcDbBlockReference
  2
YA_N
 10
4767.943419715615
 20
-1494.695868425496
 30
0.0
  0
LINE
  5
7CD0
330
8409
100
AcDbEntity
  8
1
100
AcDbLine
 10
7244.500975653526
 20
2946.144075523783
 30
0.0
 11
7244.500975653522
 21
2821.144075523783
 31
0.0
  0
LINE
  5
7CD2
330
8409
100
AcDbEntity
  8
1
100
AcDbLine
 10
5124.500975653525
 20
2946.144075523783
 30
0.0
 11
5124.500975653525
 21
2821.144075523783
 31
0.0
  0
LINE
  5
7CD6
330
8409
100
AcDbEntity
  8
1
100
AcDbLine
 10
5229.500975653526
 20
3783.644075523783
 30
0.0
 11
5476.500975653525
 21
3783.644075523783
 31
0.0
  0
LINE
  5
7CD7
330
8409
100
AcDbEntity
  8
1
100
AcDbLine
 10
5229.500975653526
 20
3708.644075523784
 30
0.0
 11
5476.500975653525
 21
3708.644075523784
 31
0.0
  0
LINE
  5
7CD8
330
8409
100
AcDbEntity
  8
1
100
AcDbLine
 10
7176.500975653524
 20
5080.144075523783
 30
0.0
 11
5476.500975653525
 21
3800.144075523784
 31
0.0
  0
LINE
  5
7CD9
330
8409
100
AcDbEntity
  8
1
100
AcDbLine
 10
5476.500975653525
 20
5080.144075523783
 30
0.0
 11
7176.500975653528
 21
3800.144075523784
 31
0.0
  0
LINE
  5
7CDA
330
8409
100
AcDbEntity
  8
1
100
AcDbLine
 10
5320.450975653527
 20
3006.144075523784
 30
0.0
 11
5320.450975653526
 21
3206.144075523784
 31
0.0
  0
LINE
  5
7CDB
330
8409
100
AcDbEntity
  8
1
100
AcDbLine
 10
5320.450975653528
 20
3006.144075523784
 30
0.0
 11
5476.500975653525
 21
3006.144075523785
 31
0.0
  0
LINE
  5
7CDC
330
8409
100
AcDbEntity
  8
1
100
AcDbLine
 10
5476.500975653525
 20
3416.144075523785
 30
0.0
 11
5320.450975653525
 21
3416.144075523785
 31
0.0
  0
LINE
  5
7CDD
330
8409
100
AcDbEntity
  8
1
100
AcDbLine
 10
5310.450975653527
 20
3176.144075523784
 30
0.0
 11
5224.500975653526
 21
3176.144075523784
 31
0.0
  0
LINE
  5
7CDE
330
8409
100
AcDbEntity
  8
1
100
AcDbLine
 10
5310.450975653527
 20
3236.144075523784
 30
0.0
 11
5224.500975653526
 21
3236.144075523784
 31
0.0
  0
LINE
  5
7CDF
330
8409
100
AcDbEntity
  8
1
100
AcDbLine
 10
5320.450975653526
 20
3416.144075523785
 30
0.0
 11
5320.450975653526
 21
3206.144075523784
 31
0.0
  0
LINE
  5
7CE0
330
8409
100
AcDbEntity
  8
1
100
AcDbLine
 10
5310.450975653527
 20
3173.644075523784
 30
0.0
 11
5310.450975653527
 21
3238.644075523784
 31
0.0
  0
LINE
  5
7CE1
330
8409
100
AcDbEntity
  8
1
100
AcDbLine
 10
5310.450975653527
 20
3173.644075523784
 30
0.0
 11
5320.450975653526
 21
3173.644075523784
 31
0.0
  0
LINE
  5
7CE2
330
8409
100
AcDbEntity
  8
1
100
AcDbLine
 10
5310.450975653527
 20
3238.644075523784
 30
0.0
 11
5320.450975653526
 21
3238.644075523784
 31
0.0
  0
LINE
  5
7CF1
330
8409
100
AcDbEntity
  8
2
100
AcDbLine
 10
3821.984076714965
 20
7607.027814553496
 30
0.0
 11
1837.156955993244
 21
7607.027814553496
 31
0.0
  0
LINE
  5
7CF2
330
8409
100
AcDbEntity
  8
1
100
AcDbLine
 10
3226.156955993245
 20
6327.027814553499
 30
0.0
 11
1206.156955993245
 21
6327.027814553499
 31
0.0
  0
LINE
  5
7CF3
330
8409
100
AcDbEntity
  8
1
100
AcDbLine
 10
3100.156955993246
 20
6412.0278145535
 30
0.0
 11
2592.156955993245
 21
6412.0278145535
 31
0.0
  0
LINE
  5
7CF4
330
8409
100
AcDbEntity
  8
1
100
AcDbLine
 10
2776.156955993246
 20
6489.927814553498
 30
0.0
 11
2592.156955993245
 21
6489.927814553498
 31
0.0
  0
LINE
  5
7CF5
330
8409
100
AcDbEntity
  8
1
100
AcDbLine
 10
1396.156955993244
 20
6590.9778145535
 30
0.0
 11
1396.156955993244
 21
6505.027814553499
 31
0.0
  0
LINE
  5
7CF6
330
8409
100
AcDbEntity
  8
1
100
AcDbLine
 10
1456.156955993245
 20
6590.9778145535
 30
0.0
 11
1456.156955993245
 21
6505.027814553499
 31
0.0
  0
LINE
  5
7CF7
330
8409
100
AcDbEntity
  8
1
100
AcDbLine
 10
1206.156955993245
 20
6327.027814553499
 30
0.0
 11
1206.156955993245
 21
6572.027814553499
 31
0.0
  0
LINE
  5
7CF8
330
8409
100
AcDbEntity
  8
1
100
AcDbLine
 10
2046.156955993244
 20
6405.027814553498
 30
0.0
 11
1921.156955993245
 21
6405.027814553498
 31
0.0
  0
LINE
  5
7CF9
330
8409
100
AcDbEntity
  8
1
100
AcDbLine
 10
1902.156955993245
 20
6405.027814553498
 30
0.0
 11
1837.156955993244
 21
6405.027814553498
 31
0.0
  0
LINE
  5
7CFA
330
8409
100
AcDbEntity
  8
1
100
AcDbLine
 10
1486.156955993244
 20
6505.027814553499
 30
0.0
 11
1366.156955993245
 21
6505.027814553499
 31
0.0
  0
LINE
  5
7CFB
330
8409
100
AcDbEntity
  8
1
100
AcDbLine
 10
1366.156955993245
 20
6489.927814553498
 30
0.0
 11
1320.156955993245
 21
6489.927814553498
 31
0.0
  0
LINE
  5
7CFC
330
8409
100
AcDbEntity
  8
1
100
AcDbLine
 10
1320.156955993245
 20
6412.0278145535
 30
0.0
 11
1320.156955993245
 21
6489.927814553498
 31
0.0
  0
LINE
  5
7CFD
330
8409
100
AcDbEntity
  8
1
100
AcDbLine
 10
1366.156955993245
 20
6489.927814553498
 30
0.0
 11
1366.156955993245
 21
6505.027814553499
 31
0.0
  0
LINE
  5
7CFE
330
8409
100
AcDbEntity
  8
1
100
AcDbLine
 10
1532.156955993245
 20
6412.0278145535
 30
0.0
 11
1532.156955993245
 21
6489.927814553498
 31
0.0
  0
LINE
  5
7CFF
330
8409
100
AcDbEntity
  8
1
100
AcDbLine
 10
1486.156955993244
 20
6489.927814553498
 30
0.0
 11
1486.156955993244
 21
6505.027814553499
 31
0.0
  0
LINE
  5
7D00
330
8409
100
AcDbEntity
  8
1
100
AcDbLine
 10
2592.156955993245
 20
6412.0278145535
 30
0.0
 11
2592.156955993245
 21
6489.927814553498
 31
0.0
  0
LINE
  5
7D01
330
8409
100
AcDbEntity
  8
1
100
AcDbLine
 10
1636.156955993245
 20
6600.977814553498
 30
0.0
 11
1426.156955993245
 21
6600.977814553498
 31
0.0
  0
LINE
  5
7D02
330
8409
100
AcDbEntity
  8
1
100
AcDbLine
 10
1393.656955993245
 20
6590.9778145535
 30
0.0
 11
1458.656955993244
 21
6590.9778145535
 31
0.0
  0
LINE
  5
7D03
330
8409
100
AcDbEntity
  8
1
100
AcDbLine
 10
1226.156955993245
 20
6600.977814553501
 30
0.0
 11
1226.156955993252
 21
7250.477814553502
 31
0.0
  0
LINE
  5
7D04
330
8409
100
AcDbEntity
  8
1
100
AcDbLine
 10
1226.156955993245
 20
6600.977814553501
 30
0.0
 11
1426.156955993245
 21
6600.977814553498
 31
0.0
  0
LINE
  5
7D05
330
8409
100
AcDbEntity
  8
1
100
AcDbLine
 10
1393.656955993245
 20
6590.9778145535
 30
0.0
 11
1393.656955993245
 21
6600.977814553498
 31
0.0
  0
LINE
  5
7D06
330
8409
100
AcDbEntity
  8
1
100
AcDbLine
 10
1226.156955993246
 20
6776.4778145535
 30
0.0
 11
1227.156955993246
 21
6776.4778145535
 31
0.0
  0
LINE
  5
7D07
330
8409
100
AcDbEntity
  8
1
100
AcDbLine
 10
1636.156955993252
 20
7250.477814553498
 30
0.0
 11
1636.156955993245
 21
6600.977814553498
 31
0.0
  0
LINE
  5
7D08
330
8409
100
AcDbEntity
  8
1
100
AcDbLine
 10
1458.656955993244
 20
6590.9778145535
 30
0.0
 11
1458.656955993244
 21
6600.977814553498
 31
0.0
  0
LINE
  5
7D09
330
8409
100
AcDbEntity
  8
1
100
AcDbLine
 10
2808.656955993244
 20
6510.0278145535
 30
0.0
 11
2808.656955993244
 21
6757.027814553497
 31
0.0
  0
LINE
  5
7D0A
330
8409
100
AcDbEntity
  8
1
100
AcDbLine
 10
2883.656955993246
 20
6510.0278145535
 30
0.0
 11
2883.656955993246
 21
6757.027814553499
 31
0.0
  0
LINE
  5
7D0B
330
8409
100
AcDbEntity
  8
1
100
AcDbLine
 10
3226.156955993245
 20
6327.027814553499
 30
0.0
 11
3226.156955993245
 21
6572.027814553497
 31
0.0
  0
LINE
  5
7D0C
330
8409
100
AcDbEntity
  8
1
100
AcDbLine
 10
2916.156955993244
 20
6510.0278145535
 30
0.0
 11
2776.156955993246
 21
6510.0278145535
 31
0.0
  0
LINE
  5
7D0D
330
8409
100
AcDbEntity
  8
1
100
AcDbLine
 10
2776.156955993246
 20
6489.927814553498
 30
0.0
 11
2776.156955993246
 21
6510.0278145535
 31
0.0
  0
LINE
  5
7D0E
330
8409
100
AcDbEntity
  8
1
100
AcDbLine
 10
3100.156955993246
 20
6489.927814553498
 30
0.0
 11
2916.156955993244
 21
6489.927814553498
 31
0.0
  0
LINE
  5
7D0F
330
8409
100
AcDbEntity
  8
1
100
AcDbLine
 10
2916.156955993244
 20
6489.927814553498
 30
0.0
 11
2916.156955993244
 21
6510.0278145535
 31
0.0
  0
LINE
  5
7D10
330
8409
100
AcDbEntity
  8
1
100
AcDbLine
 10
3100.156955993246
 20
6412.0278145535
 30
0.0
 11
3100.156955993246
 21
6489.927814553498
 31
0.0
  0
LINE
  5
7D11
330
8409
100
AcDbEntity
  8
1
100
AcDbLine
 10
3226.156955993245
 20
6572.027814553499
 30
0.0
 11
1206.156955993245
 21
6572.02781455359
 31
0.0
  0
LINE
  5
7D13
330
8409
100
AcDbEntity
  8
1
100
AcDbLine
 10
1226.156955993247
 20
7250.477814553502
 30
0.0
 11
1636.156955993252
 21
7250.477814553498
 31
0.0
  0
LINE
  5
7D14
330
8409
100
AcDbEntity
  8
1
100
AcDbLine
 10
3671.156955993246
 20
8457.027814553494
 30
0.0
 11
1767.156955993246
 21
8457.027814553494
 31
0.0
  0
LINE
  5
7D15
330
8409
100
AcDbEntity
  8
1
100
AcDbLine
 10
3671.156955993246
 20
6757.027814553497
 30
0.0
 11
1767.156955993245
 21
6757.027814553497
 31
0.0
  0
LINE
  5
7D16
330
8409
100
AcDbEntity
  8
1
100
AcDbLine
 10
3671.156955993246
 20
8507.0278145535
 30
0.0
 11
3671.156955993246
 21
6707.027814553497
 31
0.0
  0
LINE
  5
7D17
330
8409
100
AcDbEntity
  8
1
100
AcDbLine
 10
1767.156955993245
 20
8457.027814553494
 30
0.0
 11
1767.156955993245
 21
6757.027814553497
 31
0.0
  0
LINE
  5
7D18
330
8409
100
AcDbEntity
  8
1
100
AcDbLine
 10
3596.156955993246
 20
6757.027814553497
 30
0.0
 11
3596.156955993246
 21
6405.027814553496
 31
0.0
  0
LINE
  5
7D19
330
8409
100
AcDbEntity
  8
1
100
AcDbLine
 10
1532.156955993245
 20
6489.927814553498
 30
0.0
 11
1486.156955993244
 21
6489.927814553498
 31
0.0
  0
LINE
  5
7D1A
330
8409
100
AcDbEntity
  8
1
100
AcDbLine
 10
1532.156955993245
 20
6412.0278145535
 30
0.0
 11
1320.156955993245
 21
6412.0278145535
 31
0.0
  0
LINE
  5
8092
330
8409
100
AcDbEntity
  8
4
100
AcDbLine
 10
7400.0
 20
2000.0
 30
0.0
 11
7400.0
 21
1200.0
 31
0.0
  0
LINE
  5
8093
330
8409
100
AcDbEntity
  8
4
100
AcDbLine
 10
4600.0
 20
2000.0
 30
0.0
 11
4600.0
 21
1200.0
 31
0.0
  0
LINE
  5
8094
330
8409
100
AcDbEntity
  8
4
100
AcDbLine
 10
2600.0
 20
2000.0
 30
0.0
 11
2600.0
 21
1200.0
 31
0.0
  0
LINE
  5
8097
330
8409
100
AcDbEntity
  8
4
100
AcDbLine
 10
2600.0
 20
1200.0
 30
0.0
 11
7400.0
 21
1200.0
 31
0.0
  0
LINE
  5
8098
330
8409
100
AcDbEntity
  8
4
100
AcDbLine
 10
2600.0
 20
1600.0
 30
0.0
 11
7400.0
 21
1600.0
 31
0.0
  0
TEXT
  5
8099
330
8409
100
AcDbEntity
  8
4
100
AcDbText
 10
2754.008323387607
 20
1726.172103466451
 30
0.0
 40
200.0
  1
機器名称
100
AcDbText
  0
TEXT
  5
809A
330
8409
100
AcDbEntity
  8
4
100
AcDbText
 10
2745.03242409919
 20
1286.580626928043
 30
0.0
 40
200.0
  1
機器型番
100
AcDbText
  0
TEXT
  5
809B
330
8409
100
AcDbEntity
  8
4
100
AcDbText
 10
4710.714981950659
 20
1690.287075830274
 30
0.0
 40
200.0
  1
ミツヤ多翼送風機
100
AcDbText
  0
TEXT
  5
809C
330
8409
100
AcDbEntity
  8
4
100
AcDbText
 10
4746.617982341923
 20
1268.638337119773
 30
0.0
 40
200.0
  1
MF#8-5
100
AcDbText
  0
TEXT
  5
809E
330
8409
100
AcDbEntity
  8
4
100
AcDbText
 10
2904.810751349723
 20
9533.715365330063
 30
0.0
 40
215.9999999999999
  1
床置ベット
100
AcDbText
  0
TEXT
  5
809F
330
8409
100
AcDbEntity
  8
4
100
AcDbText
 10
1264.670373317785
 20
10135.52390479719
 30
0.0
 40
288.0
  1
遠心式両吸込両持多翼ファン
100
AcDbText
  0
LINE
  5
80A0
330
8409
100
AcDbEntity
  8
4
100
AcDbLine
 10
1000.0
 20
9877.635017059219
 30
0.0
 11
7400.0
 21
9877.635017059219
 31
0.0
  0
LINE
  5
80A1
330
8409
100
AcDbEntity
  8
4
100
AcDbLine
 10
1000.0
 20
10677.63501705921
 30
0.0
 11
7400.0
 21
10677.63501705921
 31
0.0
  0
LINE
  5
80A2
330
8409
100
AcDbEntity
  8
4
100
AcDbLine
 10
2600.0
 20
2000.0
 30
0.0
 11
7400.0
 21
2000.0
 31
0.0
  0
LINE
  5
80A3
330
8409
100
AcDbEntity
  8
4
100
AcDbLine
 10
1000.0
 20
10677.63501705921
 30
0.0
 11
1000.0
 21
9877.635017059219
 31
0.0
  0
TEXT
  5
80A4
330
8409
100
AcDbEntity
  8
4
100
AcDbText
 10
1161.375422378914
 20
9529.277910185374
 30
0.0
 40
215.9999999999999
  1
右回転右横向
100
AcDbText
  0
TEXT
  5
80A5
330
8409
100
AcDbEntity
  8
4
100
AcDbText
 10
5875.878236997159
 20
10824.24432598123
 30
0.0
 40
224.0
  1
No.
100
AcDbText
  0
TEXT
  5
80A6
330
8409
100
AcDbEntity
  8
4
100
AcDbText
 10
5245.184250400053
 20
9533.715365330063
 30
0.0
 40
215.9999999999999
  1
縮尺：1/40
100
AcDbText
  0
LINE
  5
80A7
330
8409
100
AcDbEntity
  8
4
100
AcDbLine
 10
7400.0
 20
10677.63501705921
 30
0.0
 11
7400.0
 21
9877.635017059219
 31
0.0
  0
LINE
  5
80A8
330
8409
100
AcDbEntity
  8
4
100
AcDbLine
 10
8400.0
 20
11800.0
 30
0.0
 11
8400.0
 21
11800.0
 31
0.0
  0
LINE
  5
80A9
330
8409
100
AcDbEntity
  8
4
100
AcDbLine
 10
5762.469689439458
 20
10725.0543325016
 30
0.0
 11
5762.469689439458
 21
11146.609046199
 31
0.0
  0
LINE
  5
80AA
330
8409
100
AcDbEntity
  8
4
100
AcDbLine
 10
5762.469689439458
 20
11146.609046199
 30
0.0
 11
7400.0
 21
11146.609046199
 31
0.0
  0
LINE
  5
80AB
330
8409
100
AcDbEntity
  8
4
100
AcDbLine
 10
7400.0
 20
11146.609046199
 30
0.0
 11
7400.0
 21
10725.0543325016
 31
0.0
  0
LINE
  5
80AC
330
8409
100
AcDbEntity
  8
4
100
AcDbLine
 10
7400.0
 20
10725.0543325016
 30
0.0
 11
5762.469689439458
 21
10725.0543325016
 31
0.0
  0
LINE
  5
80AD
330
8409
100
AcDbEntity
  8
4
100
AcDbLine
 10
0.0
 20
0.0
 30
0.0
 11
0.0
 21
11800.0
 31
0.0
  0
LINE
  5
80AE
330
8409
100
AcDbEntity
  8
4
100
AcDbLine
 10
0.0
 20
11800.0
 30
0.0
 11
8400.0
 21
11800.0
 31
0.0
  0
LINE
  5
80AF
330
8409
100
AcDbEntity
  8
4
100
AcDbLine
 10
8400.0
 20
11800.0
 30
0.0
 11
8400.0
 21
0.0
 31
0.0
  0
LINE
  5
80B0
330
8409
100
AcDbEntity
  8
4
100
AcDbLine
 10
8400.0
 20
0.0
 30
0.0
 11
0.0
 21
0.0
 31
0.0
  0
DIMENSION
  5
81F9
330
8409
100
AcDbEntity
  8
3
100
AcDbDimension
  2
*D21
 10
2846.156955993246
 20
2564.563178005205
 30
0.0
 11
1996.156955993244
 21
2664.563178005205
 31
0.0
 71
     5
 42
-1.0
  3
Standard
100
AcDbAlignedDimension
 13
1146.156955993244
 23
2821.144075523783
 33
0.0
 14
2846.156955993246
 24
2821.144075523783
 34
0.0
100
AcDbRotatedDimension
1001
ACAD
1000
DSTYLE
1002
{
1070
   172
1070
     1
1070
    40
1040
40.0
1070
   271
1070
     0
1070
   143
1040
0.039
1002
}
  0
DIMENSION
  5
8206
330
8409
100
AcDbEntity
  8
3
100
AcDbDimension
  2
*D22
 10
3596.156955993246
 20
2564.563178005205
 30
0.0
 11
3221.156955993246
 21
2664.563178005205
 31
0.0
 71
     5
 42
-1.0
  3
Standard
100
AcDbAlignedDimension
 13
2846.156955993246
 23
2821.144075523783
 33
0.0
 14
3596.156955993246
 24
2821.144075523783
 34
0.0
100
AcDbRotatedDimension
1001
ACAD
1000
DSTYLE
1002
{
1070
   172
1070
     1
1070
    40
1040
40.0
1070
   271
1070
     0
1070
   143
1040
0.039
1002
}
  0
DIMENSION
  5
8213
330
8409
100
AcDbEntity
  8
3
100
AcDbDimension
  2
*D23
 10
6326.500975653526
 20
2564.563178005205
 30
0.0
 11
5725.500975653526
 21
2664.563178005205
 31
0.0
 71
     5
 42
-1.0
  3
Standard
100
AcDbAlignedDimension
 13
5124.500975653525
 23
2821.144075523783
 33
0.0
 14
6326.500975653526
 24
2821.144075523783
 34
0.0
100
AcDbRotatedDimension
1001
ACAD
1000
DSTYLE
1002
{
1070
   172
1070
     1
1070
    40
1040
40.0
1070
   271
1070
     0
1070
   143
1040
0.039
1002
}
  0
DIMENSION
  5
8220
330
8409
100
AcDbEntity
  8
3
100
AcDbDimension
  2
*D24
 10
7244.500975653522
 20
2564.563178005205
 30
0.0
 11
6785.500975653525
 21
2664.563178005205
 31
0.0
 71
     5
 42
-1.0
  3
Standard
100
AcDbAlignedDimension
 13
6326.500975653526
 23
2821.144075523783
 33
0.0
 14
7244.500975653522
 24
2821.144075523783
 34
0.0
100
AcDbRotatedDimension
1001
ACAD
1000
DSTYLE
1002
{
1070
   172
1070
     1
1070
    40
1040
40.0
1070
   271
1070
     0
1070
   143
1040
0.039
1002
}
  0
DIMENSION
  5
822D
330
8409
100
AcDbEntity
  8
3
100
AcDbDimension
  2
*D25
 10
4422.994170576138
 20
5080.144075523783
 30
0.0
 11
4322.994170576136
 21
3950.644075523784
 31
0.0
 71
     5
 42
-1.0
  3
Standard
100
AcDbAlignedDimension
 13
3596.156955993246
 23
2821.144075523783
 33
0.0
 14
3671.156955993246
 24
5080.144075523783
 34
0.0
 50
90.0
100
AcDbRotatedDimension
1001
ACAD
1000
DSTYLE
1002
{
1070
   172
1070
     1
1070
    40
1040
40.0
1070
   271
1070
     0
1070
   143
1040
0.039
1002
}
  0
DIMENSION
  5
844D
330
8409
100
AcDbEntity
  8
3
100
AcDbDimension
  2
*D26
 10
6326.500975653526
 20
5634.50716684925
 30
0.0
 11
5686.500975653526
 21
5765.935738277821
 31
0.0
 70
    32
  1
(<>)
 71
     5
 42
1280.000000000001
  3
IGA
100
AcDbAlignedDimension
 13
5046.500975653525
 23
4126.144075523782
 33
0.0
 14
6326.500975653526
 24
5541.543861990349
 34
0.0
100
AcDbRotatedDimension
1001
ACAD
1000
DSTYLE
1002
{
1070
    40
1040
40.0
1070
   143
1040
0.039
1070
   172
1070
     1
1070
   271
1070
     4
1070
   272
1070
     4
1070
   279
1070
     0
1070
   284
1070
     0
1070
   285
1070
     0
1070
   286
1070
     0
1070
   341
1005
8420
1070
   343
1005
8420
1070
   344
1005
8420
1002
}
  0
DIMENSION
  5
845A
330
8409
100
AcDbEntity
  8
3
100
AcDbDimension
  2
*D27
 10
7346.500975653523
 20
5634.50716684925
 30
0.0
 11
6836.500975653525
 21
5765.935738277821
 31
0.0
 70
    32
  1
(<>)
 71
     5
 42
1019.999999999997
  3
IGA
100
AcDbAlignedDimension
 13
6326.500975653526
 23
5541.543861990349
 33
0.0
 14
7346.500975653523
 24
3670.144075523784
 34
0.0
100
AcDbRotatedDimension
1001
ACAD
1000
DSTYLE
1002
{
1070
    40
1040
40.0
1070
   143
1040
0.039
1070
   172
1070
     1
1070
   271
1070
     4
1070
   272
1070
     4
1070
   279
1070
     1
1070
   284
1070
     0
1070
   285
1070
     0
1070
   286
1070
     0
1070
   341
1005
8420
1070
   343
1005
8420
1070
   344
1005
8420
1002
}
  0
DIMENSION
  5
846B
330
8409
100
AcDbEntity
  8
3
100
AcDbDimension
  2
*D28
 10
7587.77060056603
 20
4371.144075523783
 30
0.0
 11
7487.77060056603
 21
3746.144075523786
 31
0.0
 70
    32
  1
\U+03C6<>
 71
     5
 42
1250.0
  3
IGA
100
AcDbAlignedDimension
 13
7176.500975653526
 23
3121.144075523783
 33
0.0
 14
7176.500975653526
 24
4371.144075523783
 34
0.0
 50
90.0
100
AcDbRotatedDimension
1001
ACAD
1000
DSTYLE
1002
{
1070
    40
1040
40.0
1070
   143
1040
0.039
1070
   172
1070
     1
1070
   271
1070
     4
1070
   272
1070
     4
1070
   279
1070
     0
1070
   284
1070
     0
1070
   285
1070
     0
1070
   286
1070
     0
1070
   341
1005
8420
1070
   343
1005
8420
1070
   344
1005
8420
1002
}
  0
DIMENSION
  5
8478
330
8409
100
AcDbEntity
  8
3
100
AcDbDimension
  2
*D29
 10
7176.500975653524
 20
5381.543861990349
 30
0.0
 11
6326.500975653525
 21
5481.543861990349
 31
0.0
 70
    32
 71
     5
 42
1700.0
  3
IGA
100
AcDbAlignedDimension
 13
5476.500975653525
 23
5080.144075523783
 33
0.0
 14
7176.500975653524
 24
5080.144075523783
 34
0.0
100
AcDbRotatedDimension
1001
ACAD
1000
DSTYLE
1002
{
1070
    40
1040
40.0
1070
   143
1040
0.039
1070
   172
1070
     1
1070
   271
1070
     4
1070
   272
1070
     4
1070
   279
1070
     0
1070
   284
1070
     0
1070
   285
1070
     0
1070
   286
1070
     0
1070
   341
1005
8420
1070
   343
1005
8420
1070
   344
1005
8420
1002
}
  0
DIMENSION
  5
84E2
330
8409
100
AcDbEntity
  8
3
100
AcDbDimension
  2
*D30
 10
879.830554885666
 20
6405.027814553498
 30
0.0
 11
779.830554885665
 21
6905.027814553498
 31
0.0
 70
    32
 71
     5
 42
1000.0
  3
IGA
100
AcDbAlignedDimension
 13
1146.156955993244
 23
7405.027814553498
 33
0.0
 14
1146.156955993244
 24
6405.027814553498
 34
0.0
 50
90.0
100
AcDbRotatedDimension
1001
ACAD
1000
DSTYLE
1002
{
1070
    40
1040
40.0
1070
   143
1040
0.039
1070
   172
1070
     1
1070
   271
1070
     4
1070
   272
1070
     4
1070
   279
1070
     0
1070
   284
1070
     0
1070
   285
1070
     0
1070
   286
1070
     0
1070
   341
1005
8420
1070
   343
1005
8420
1070
   344
1005
8420
1002
}
  0
DIMENSION
  5
84EF
330
8409
100
AcDbEntity
  8
3
100
AcDbDimension
  2
*D31
 10
2096.156955993245
 20
8729.663953058681
 30
0.0
 11
1621.156955993244
 21
8829.663953058682
 31
0.0
 70
    32
 71
     5
 42
950.0000000000008
  3
IGA
100
AcDbAlignedDimension
 13
1146.156955993244
 23
7405.027814553498
 33
0.0
 14
2096.156955993245
 24
8525.027814553499
 34
0.0
100
AcDbRotatedDimension
1001
ACAD
1000
DSTYLE
1002
{
1070
    40
1040
40.0
1070
   143
1040
0.039
1070
   172
1070
     1
1070
   271
1070
     4
1070
   272
1070
     4
1070
   279
1070
     0
1070
   284
1070
     0
1070
   285
1070
     0
1070
   286
1070
     0
1070
   341
1005
8420
1070
   343
1005
8420
1070
   344
1005
8420
1002
}
  0
DIMENSION
  5
84FC
330
8409
100
AcDbEntity
  8
3
100
AcDbDimension
  2
*D32
 10
3596.156955993246
 20
8729.663953058681
 30
0.0
 11
2846.156955993245
 21
8829.663953058682
 31
0.0
 70
    32
 71
     5
 42
1500.0
  3
IGA
100
AcDbAlignedDimension
 13
2096.156955993245
 23
8525.027814553499
 33
0.0
 14
3596.156955993246
 24
8525.027814553499
 34
0.0
100
AcDbRotatedDimension
1001
ACAD
1000
DSTYLE
1002
{
1070
    40
1040
40.0
1070
   143
1040
0.039
1070
   172
1070
     1
1070
   271
1070
     4
1070
   272
1070
     4
1070
   279
1070
     1
1070
   284
1070
     0
1070
   285
1070
     0
1070
   286
1070
     0
1070
   341
1005
8420
1070
   343
1005
8420
1070
   344
1005
8420
1002
}
  0
DIMENSION
  5
8509
330
8409
100
AcDbEntity
  8
3
100
AcDbDimension
  2
*D33
 10
4045.173097229079
 20
6405.027814553498
 30
0.0
 11
3945.173097229078
 21
7465.027814553497
 31
0.0
 70
    32
 71
     5
 42
2119.999999999995
  3
IGA
100
AcDbAlignedDimension
 13
3596.156955993246
 23
8525.027814553494
 33
0.0
 14
3596.156955993246
 24
6405.027814553498
 34
0.0
 50
90.0
100
AcDbRotatedDimension
1001
ACAD
1000
DSTYLE
1002
{
1070
    40
1040
40.0
1070
   143
1040
0.039
1070
   172
1070
     1
1070
   271
1070
     4
1070
   272
1070
     4
1070
   279
1070
     0
1070
   284
1070
     0
1070
   285
1070
     0
1070
   286
1070
     0
1070
   341
1005
8420
1070
   343
1005
8420
1070
   344
1005
8420
1002
}
  0
DIMENSION
  5
8516
330
8409
100
AcDbEntity
  8
3
100
AcDbDimension
  2
*D34
 10
3596.156955993246
 20
6040.273936363845
 30
0.0
 11
2371.156955993245
 21
6140.273936363844
 31
0.0
 70
    32
 71
     5
 42
2450.000000000001
  3
IGA
100
AcDbAlignedDimension
 13
1146.156955993244
 23
6405.027814553498
 33
0.0
 14
3596.156955993246
 24
6405.027814553496
 34
0.0
100
AcDbRotatedDimension
1001
ACAD
1000
DSTYLE
1002
{
1070
    40
1040
40.0
1070
   143
1040
0.039
1070
   172
1070
     1
1070
   271
1070
     4
1070
   272
1070
     4
1070
   279
1070
     0
1070
   284
1070
     0
1070
   285
1070
     0
1070
   286
1070
     0
1070
   341
1005
8420
1070
   343
1005
8420
1070
   344
1005
8420
1002
}
  0
DIMENSION
  5
8539
330
8409
100
AcDbEntity
  8
3
100
AcDbDimension
  2
*D36
 10
3924.167988683201
 20
5080.144075523783
 30
0.0
 11
3824.167988683201
 21
4440.144075523784
 31
0.0
 70
    32
 71
     5
 42
1279.999999999998
  3
IGA
100
AcDbAlignedDimension
 13
3671.156955993246
 23
3800.144075523784
 33
0.0
 14
3671.156955993246
 24
5080.144075523783
 34
0.0
 50
90.0
100
AcDbRotatedDimension
1001
ACAD
1000
DSTYLE
1002
{
1070
    40
1040
40.0
1070
   143
1040
0.039
1070
   172
1070
     1
1070
   271
1070
     4
1070
   272
1070
     4
1070
   279
1070
     0
1070
   284
1070
     0
1070
   285
1070
     0
1070
   286
1070
     0
1070
   341
1005
8420
1070
   343
1005
8420
1070
   344
1005
8420
1002
}
  0
DIMENSION
  5
8546
330
8409
100
AcDbEntity
  8
3
100
AcDbDimension
  2
*D37
 10
4170.57822273558
 20
3746.144075523783
 30
0.0
 11
4070.578222735579
 21
4413.144075523784
 31
0.0
 70
    32
 71
     5
 42
1333.999999999999
  3
IGA
100
AcDbAlignedDimension
 13
3671.156955993246
 23
5080.144075523783
 33
0.0
 14
3749.593494242097
 24
3746.144075523783
 34
0.0
 50
90.0
100
AcDbRotatedDimension
1001
ACAD
1000
DSTYLE
1002
{
1070
    40
1040
40.0
1070
   143
1040
0.039
1070
   172
1070
     1
1070
   271
1070
     4
1070
   272
1070
     4
1070
   279
1070
     0
1070
   284
1070
     0
1070
   285
1070
     0
1070
   286
1070
     0
1070
   341
1005
8420
1070
   343
1005
8420
1070
   344
1005
8420
1002
}
  0
DIMENSION
  5
8553
330
8409
100
AcDbEntity
  8
3
100
AcDbDimension
  2
*D38
 10
4170.57822273558
 20
2821.144075523783
 30
0.0
 11
4070.578222735578
 21
3283.644075523784
 31
0.0
 70
    32
 71
     5
 42
925.0
  3
IGA
100
AcDbAlignedDimension
 13
3749.593494242097
 23
3746.144075523783
 33
0.0
 14
3596.156955993246
 24
2821.144075523783
 34
0.0
 50
90.0
100
AcDbRotatedDimension
1001
ACAD
1000
DSTYLE
1002
{
1070
    40
1040
40.0
1070
   143
1040
0.039
1070
   172
1070
     1
1070
   271
1070
     4
1070
   272
1070
     4
1070
   279
1070
     1
1070
   284
1070
     0
1070
   285
1070
     0
1070
   286
1070
     0
1070
   341
1005
8420
1070
   343
1005
8420
1070
   344
1005
8420
1002
}
  0
DIMENSION
  5
8560
330
8409
100
AcDbEntity
  8
3
100
AcDbDimension
  2
*D39
 10
2846.156955993246
 20
5382.667020841306
 30
0.0
 11
3258.656955993246
 21
5482.667020841306
 31
0.0
 70
    32
 71
     5
 42
825.0
  3
IGA
100
AcDbAlignedDimension
 13
3671.156955993246
 23
5133.144075523785
 33
0.0
 14
2846.156955993246
 24
5101.429794629098
 34
0.0
100
AcDbRotatedDimension
1001
ACAD
1000
DSTYLE
1002
{
1070
    40
1040
40.0
1070
   143
1040
0.039
1070
   172
1070
     1
1070
   271
1070
     4
1070
   272
1070
     4
1070
   279
1070
     0
1070
   284
1070
     0
1070
   285
1070
     0
1070
   286
1070
     0
1070
   341
1005
8420
1070
   343
1005
8420
1070
   344
1005
8420
1002
}
  0
DIMENSION
  5
856D
330
8409
100
AcDbEntity
  8
3
100
AcDbDimension
  2
*D40
 10
1767.156955993245
 20
5382.667020841306
 30
0.0
 11
2306.656955993245
 21
5482.667020841306
 31
0.0
 70
    32
 71
     5
 42
1079.0
  3
IGA
100
AcDbAlignedDimension
 13
2846.156955993246
 23
5101.429794629098
 33
0.0
 14
1767.156955993245
 24
3837.144075523784
 34
0.0
100
AcDbRotatedDimension
1001
ACAD
1000
DSTYLE
1002
{
1070
    40
1040
40.0
1070
   143
1040
0.039
1070
   172
1070
     1
1070
   271
1070
     4
1070
   272
1070
     4
1070
   279
1070
     1
1070
   284
1070
     0
1070
   285
1070
     0
1070
   286
1070
     0
1070
   341
1005
8420
1070
   343
1005
8420
1070
   344
1005
8420
1002
}
  0
DIMENSION
  5
857A
330
8409
100
AcDbEntity
  8
3
100
AcDbDimension
  2
*D41
 10
1146.156955993244
 20
5607.120238149416
 30
0.0
 11
2408.656955993245
 21
5707.120238149417
 31
0.0
 70
    32
 71
     5
 42
2525.000000000002
  3
IGA
100
AcDbAlignedDimension
 13
3671.156955993246
 23
5133.144075523785
 33
0.0
 14
1146.156955993244
 24
2946.144075523783
 34
0.0
100
AcDbRotatedDimension
1001
ACAD
1000
DSTYLE
1002
{
1070
    40
1040
40.0
1070
   143
1040
0.039
1070
   172
1070
     1
1070
   271
1070
     4
1070
   272
1070
     4
1070
   279
1070
     0
1070
   284
1070
     0
1070
   285
1070
     0
1070
   286
1070
     0
1070
   341
1005
8420
1070
   343
1005
8420
1070
   344
1005
8420
1002
}
  0
ENDSEC
  0
SECTION
  2
OBJECTS
  0
DICTIONARY
  5
83A6
330
0
100
AcDbDictionary
281
     1
  3
ACAD_CIP_PREVIOUS_PRODUCT_INFO
350
844C
  3
ACAD_COLOR
350
83FC
  3
ACAD_DETAILVIEWSTYLE
350
8403
  3
ACAD_GROUP
350
83A7
  3
ACAD_LAYOUT
350
83FB
  3
ACAD_MATERIAL
350
83AA
  3
ACAD_MLEADERSTYLE
350
83FF
  3
ACAD_MLINESTYLE
350
83F8
  3
ACAD_PLOTSETTINGS
350
83FA
  3
ACAD_PLOTSTYLENAME
350
83A8
  3
ACAD_SCALELIST
350
83DC
  3
ACAD_SECTIONVIEWSTYLE
350
8401
  3
ACAD_TABLESTYLE
350
83FD
  3
ACAD_VISUALSTYLE
350
83C3
  3
ACDB_RECOMPOSE_DATA
350
859E
  3
AcDbVariableDictionary
350
8591
  3
DWGPROPS
350
859F
  0
DICTIONARY
  5
8587
330
83EE
100
AcDbDictionary
280
     1
281
     1
  3
ADSK_XREC_LAYER_RECONCILED
360
8588
  0
DICTIONARY
  5
8589
330
840D
100
AcDbDictionary
280
     1
281
     1
  3
ADSK_XREC_LAYER_RECONCILED
360
858A
  0
DICTIONARY
  5
858B
330
8410
100
AcDbDictionary
280
     1
281
     1
  3
ADSK_XREC_LAYER_RECONCILED
360
858C
  0
DICTIONARY
  5
858D
330
8411
100
AcDbDictionary
280
     1
281
     1
  3
ADSK_XREC_LAYER_RECONCILED
360
858E
  0
DICTIONARY
  5
858F
330
8412
100
AcDbDictionary
280
     1
281
     1
  3
ADSK_XREC_LAYER_RECONCILED
360
8590
  0
DICTIONARY
  5
8468
330
8409
100
AcDbDictionary
280
     1
281
     1
  3
ACAD_SORTENTS
360
8469
  0
XRECORD
  5
844C
102
{ACAD_REACTORS
330
83A6
102
}
330
83A6
100
AcDbXrecord
280
     1
300
ACDLT
300
2015
300
INVLTS_F_S
  0
DICTIONARY
  5
83FC
102
{ACAD_REACTORS
330
83A6
102
}
330
83A6
100
AcDbDictionary
281
     1
  0
DICTIONARY
  5
8403
102
{ACAD_REACTORS
330
83A6
102
}
330
83A6
100
AcDbDictionary
281
     1
  3
Imperial24
350
8404
  0
DICTIONARY
  5
83A7
102
{ACAD_REACTORS
330
83A6
102
}
330
83A6
100
AcDbDictionary
281
     1
  0
DICTIONARY
  5
83FB
102
{ACAD_REACTORS
330
83A6
102
}
330
83A6
100
AcDbDictionary
281
     1
  3
Model
350
840C
  3
レイアウト1
350
8408
  0
DICTIONARY
  5
83AA
102
{ACAD_REACTORS
330
83A6
102
}
330
83A6
100
AcDbDictionary
281
     1
  3
ByBlock
350
83B3
  3
ByLayer
350
83AB
  3
Global
350
83BB
  0
DICTIONARY
  5
83FF
102
{ACAD_REACTORS
330
83A6
102
}
330
83A6
100
AcDbDictionary
281
     1
  3
Standard
350
8400
  0
DICTIONARY
  5
83F8
102
{ACAD_REACTORS
330
83A6
102
}
330
83A6
100
AcDbDictionary
281
     1
  3
Standard
350
83F9
  0
DICTIONARY
  5
83FA
102
{ACAD_REACTORS
330
83A6
102
}
330
83A6
100
AcDbDictionary
281
     1
  0
ACDBDICTIONARYWDFLT
  5
83A8
102
{ACAD_REACTORS
330
83A6
102
}
330
83A6
100
AcDbDictionary
281
     1
  3
Normal
350
83A9
100
AcDbDictionaryWithDefault
340
83A9
  0
DICTIONARY
  5
83DC
102
{ACAD_REACTORS
330
83A6
102
}
330
83A6
100
AcDbDictionary
281
     1
  3
A0
350
83DD
  3
A1
350
83DE
  3
A2
350
83DF
  3
A3
350
83E0
  3
A4
350
83E1
  3
A5
350
83E2
  3
A6
350
83E3
  3
A7
350
83E4
  3
A8
350
83E5
  3
A9
350
83E6
  3
B0
350
83E7
  3
B1
350
83E8
  3
B2
350
83E9
  3
B3
350
83EA
  3
B4
350
83EB
  3
B5
350
83EC
  3
B6
350
83ED
  0
DICTIONARY
  5
8401
102
{ACAD_REACTORS
330
83A6
102
}
330
83A6
100
AcDbDictionary
281
     1
  3
Imperial24
350
8402
  0
DICTIONARY
  5
83FD
102
{ACAD_REACTORS
330
83A6
102
}
330
83A6
100
AcDbDictionary
281
     1
  3
Standard
350
83FE
  0
DICTIONARY
  5
83C3
102
{ACAD_REACTORS
330
83A6
102
}
330
83A6
100
AcDbDictionary
281
     1
  3
2dWireframe
350
83C9
  3
Basic
350
83C8
  3
Brighten
350
83CF
  3
ColorChange
350
83D3
  3
Conceptual
350
83CC
  3
Dim
350
83CE
  3
EdgeColorOff
350
83DB
  3
Facepattern
350
83D2
  3
Flat
350
83C4
  3
FlatWithEdges
350
83C5
  3
Gouraud
350
83C6
  3
GouraudWithEdges
350
83C7
  3
Hidden
350
83CB
  3
JitterOff
350
83D9
  3
Linepattern
350
83D1
  3
OverhangOff
350
83DA
  3
Realistic
350
83CD
  3
Shaded
350
83D8
  3
Shaded with edges
350
83D7
  3
Shades of Gray
350
83D4
  3
Sketchy
350
83D5
  3
Thicken
350
83D0
  3
Wireframe
350
83CA
  3
X-Ray
350
83D6
  0
XRECORD
  5
859E
102
{ACAD_REACTORS
330
83A6
102
}
330
83A6
100
AcDbXrecord
280
     1
 90
        1
330
83FE
  0
DICTIONARY
  5
8591
102
{ACAD_REACTORS
330
83A6
102
}
330
83A6
100
AcDbDictionary
281
     1
  3
CANNOSCALE
350
8596
  3
CMLEADERSTYLE
350
8593
  3
CTABLESTYLE
350
8592
  3
CVIEWDETAILSTYLE
350
8594
  3
CVIEWSECTIONSTYLE
350
8595
  3
DIMASSOC
350
8599
  3
INDEXCTL
350
8598
  3
SORTENTS
350
8597
  3
XCLIPFRAME
350
859A
  0
XRECORD
  5
859F
102
{ACAD_REACTORS
330
83A6
102
}
330
83A6
100
AcDbXrecord
280
     1
  1
DWGPROPS COOKIE
  2

  3

  4

  6

  7

  8
yasukiyo.ogawa
  9

300
=
301
=
302
=
303
=
304
=
305
=
306
=
307
=
308
=
309
=
 40
0.0581502314814815
 41
2451897.649359722
 42
2460280.710513136
  1

 90
        0
  0
XRECORD
  5
8588
102
{ACAD_REACTORS
330
8587
102
}
330
8587
100
AcDbXrecord
280
     1
290
     1
  0
XRECORD
  5
858A
102
{ACAD_REACTORS
330
8589
102
}
330
8589
100
AcDbXrecord
280
     1
290
     1
  0
XRECORD
  5
858C
102
{ACAD_REACTORS
330
858B
102
}
330
858B
100
AcDbXrecord
280
     1
290
     1
  0
XRECORD
  5
858E
102
{ACAD_REACTORS
330
858D
102
}
330
858D
100
AcDbXrecord
280
     1
290
     1
  0
XRECORD
  5
8590
102
{ACAD_REACTORS
330
858F
102
}
330
858F
100
AcDbXrecord
280
     1
290
     1
  0
SORTENTSTABLE
  5
8469
102
{ACAD_REACTORS
330
8468
102
}
330
8468
100
AcDbSortentsTable
330
8409
331
80A9
  5
80AB
331
8098
  5
809A
331
844D
  5
8467
331
7CF5
  5
7CF7
331
7CDC
  5
7CDE
331
7CCB
  5
7CCD
331
7CB2
  5
7CB4
331
7CA1
  5
7CA3
331
7C87
  5
7C89
331
7C76
  5
7C7C
331
7C43
  5
7C45
331
7D17
  5
7D19
331
7D06
  5
7D08
331
7C32
  5
7C32
331
80AA
  5
80AC
331
8099
  5
809B
331
7D18
  5
7D1A
331
7D07
  5
7D09
331
7CF6
  5
7CF8
331
7CDD
  5
7CDF
331
7CCC
  5
7CCE
331
7CB3
  5
7CB5
331
7CA2
  5
7CA4
331
7C88
  5
7C8A
331
7C77
  5
7C7D
331
7C66
  5
7C68
331
7C55
  5
7C57
331
7C44
  5
7C46
331
7C33
  5
7C33
331
80AB
  5
80AD
331
809A
  5
809C
331
7D19
  5
7D1B
331
7D08
  5
7D0A
331
7CF7
  5
7CF9
331
7CDE
  5
7CE0
331
7CCD
  5
7CCF
331
7CB4
  5
7CB6
331
7CA3
  5
7CA5
331
7C89
  5
7C8B
331
7C67
  5
7C69
331
7C56
  5
7C58
331
7C45
  5
7C47
331
7C23
  5
7C23
331
80AC
  5
80AE
331
809B
  5
809E
331
7D1A
  5
7D1C
331
7D09
  5
7D0B
331
7CF8
  5
7CFA
331
7CDF
  5
7CE1
331
7CCE
  5
7CD0
331
7CB5
  5
7CC6
331
7CA4
  5
7CA6
331
7C8A
  5
7C8C
331
7C68
  5
7C6A
331
7C57
  5
7C59
331
7C46
  5
7C48
331
7C24
  5
7C24
331
80AD
  5
80AF
331
809C
  5
809F
331
7D0A
  5
7D0C
331
7CF9
  5
7CFB
331
7CE0
  5
7CE2
331
7CCF
  5
7CD2
331
7CA5
  5
7CA8
331
7C8B
  5
7C8D
331
7C69
  5
7C6B
331
7C58
  5
7C5D
331
7C47
  5
7C49
331
7C25
  5
7C25
331
80AE
  5
80B0
331
7D0B
  5
7D0D
331
7CFA
  5
7CFC
331
7CE1
  5
7CF1
331
7CD0
  5
7CD6
331
7CA6
  5
7CA9
331
7C8C
  5
7C8E
331
7C6A
  5
7C6C
331
7C59
  5
7C5E
331
7C48
  5
7C4A
331
7C26
  5
7C26
331
80AF
  5
81F9
331
809E
  5
80A0
331
7D0C
  5
7D0E
331
7CFB
  5
7CFD
331
7CE2
  5
7CF2
331
7C8D
  5
7C8F
331
7C6B
  5
7C6D
331
7C49
  5
7C4B
331
7C27
  5
7C27
331
8213
  5
822D
331
7CD2
  5
7CD7
331
822D
  5
845A
331
7D0D
  5
7D0F
331
7CFC
  5
7CFE
331
80B0
  5
8206
331
809F
  5
80A1
331
7C8E
  5
7C90
331
7C6C
  5
7C6E
331
7C4A
  5
7C4C
331
7C39
  5
7C39
331
7C28
  5
7C28
331
80A0
  5
80A2
331
7D0E
  5
7D10
331
7CFD
  5
7CFF
331
7C98
  5
7C9A
331
845A
  5
846A
331
7C8F
  5
7C91
331
7C6D
  5
7C6F
331
7C4B
  5
7C4D
331
7C3A
  5
7C3A
331
7C29
  5
7C29
331
80A1
  5
80A3
331
7D0F
  5
7D11
331
7CFE
  5
7D00
331
7CAA
  5
7CAC
331
7C99
  5
7C9B
331
7C90
  5
7C92
331
7C6E
  5
7C70
331
7C5D
  5
7C5F
331
7C4C
  5
7C4E
331
7C3B
  5
7C3D
331
7C2A
  5
7C2A
331
80A2
  5
80A4
331
7D10
  5
7D13
331
7CFF
  5
7D01
331
7CAB
  5
7CAF
331
7C9A
  5
7C9C
331
7C91
  5
7C93
331
7C6F
  5
7C72
331
7C5E
  5
7C60
331
7C4D
  5
7C4F
331
7C3C
  5
7C3E
331
7C2B
  5
7C2B
331
8206
  5
8220
331
7CD6
  5
7CD8
331
7C9B
  5
7C9D
331
7C92
  5
7C94
331
7C81
  5
7C87
331
7C70
  5
7C73
331
8220
  5
844D
331
7D00
  5
7D02
331
80A3
  5
80A5
331
8092
  5
8094
331
7D11
  5
7D14
331
7C5F
  5
7C61
331
7C4E
  5
7C50
331
7C3D
  5
7C3F
331
7C2C
  5
7C2C
331
80A4
  5
80A6
331
8093
  5
8097
331
7D01
  5
7D03
331
7CD7
  5
7CD9
331
7CC6
  5
7CCB
331
7C9C
  5
7C9E
331
7C93
  5
7C95
331
7C60
  5
7C62
331
7C4F
  5
7C55
331
7C3E
  5
7C40
331
7C2D
  5
7C2D
331
80A5
  5
80A7
331
8094
  5
8098
331
7D13
  5
7D15
331
7D02
  5
7D04
331
7CF1
  5
7CF3
331
7CD8
  5
7CDA
331
7C9D
  5
7C9F
331
7C94
  5
7C96
331
7C83
  5
7C88
331
7C72
  5
7C76
331
7C61
  5
7C66
331
7C50
  5
7C56
331
7C3F
  5
7C41
331
7C2E
  5
7C2E
331
80A6
  5
80A8
331
7D14
  5
7D16
331
7D03
  5
7D05
331
7CF2
  5
7CF4
331
7CD9
  5
7CDB
331
7CAF
  5
7CB1
331
7C9E
  5
7CA0
331
7C95
  5
7C97
331
7C73
  5
7C77
331
7C62
  5
7C67
331
7C40
  5
7C42
331
7C2F
  5
7C2F
331
81F9
  5
8213
331
7CB0
  5
7CB2
331
7C9F
  5
7CA1
331
7C41
  5
7C43
331
80A7
  5
80A9
331
7D15
  5
7D17
331
7D04
  5
7D06
331
7CF3
  5
7CF5
331
7CDA
  5
7CDC
331
7C30
  5
7C30
331
80A8
  5
80AA
331
8097
  5
8099
331
7D16
  5
7D18
331
7D05
  5
7D07
331
7CF4
  5
7CF6
331
7CDB
  5
7CDD
331
7CCA
  5
7CCC
331
7CB1
  5
7CB3
331
7CA0
  5
7CA2
331
7C97
  5
7C99
331
7C42
  5
7C44
331
7C31
  5
7C31
  0
ACDBDETAILVIEWSTYLE
  5
8404
102
{ACAD_XDICTIONARY
360
85D7
102
}
102
{ACAD_REACTORS
330
8403
102
}
330
8403
100
AcDbModelDocViewStyle
 70
     0
  3
Imperial24
290
     0
100
AcDbDetailViewStyle
 70
     0
 71
     0
 90
        3
 71
     1
340
83EF
 40
0.24
340
0
 40
0.24
300

 40
0.36
280
     3
 71
     2
340
83F6
 90
       25
 71
     3
340
83EF
 40
0.24
 90
        1
 40
0.75
 90
        1
300
%<\AcVar ViewType \f "%tc1">% %<\AcVar ViewDetailId>%\PSCALE %<\AcVar ViewScale \f "%sn">%
 71
     4
340
83F6
 90
       25
340
83F6
 90
       25
280
     0
  0
LAYOUT
  5
840C
102
{ACAD_XDICTIONARY
360
85DB
102
}
102
{ACAD_REACTORS
330
83FB
102
}
330
83FB
100
AcDbPlotSettings
  1

  2
RICOH imagio MP W3600 RPCS
  4

  6

 40
0.0
 41
0.0
 42
0.0
 43
0.0
 44
0.0
 45
0.0
 46
0.0
 47
0.0
 48
0.0
 49
0.0
140
0.0
141
0.0
142
1.0
143
1.0
 70
  1712
 72
     0
 73
     0
 74
     0
  7

 75
     0
147
1.0
148
0.0
149
0.0
100
AcDbLayout
  1
Model
 70
     1
 71
     0
 10
0.0
 20
0.0
 11
12.0
 21
9.0
 12
0.0
 22
0.0
 32
0.0
 14
0.0
 24
0.0
 34
0.0
 15
0.0
 25
0.0
 35
0.0
146
0.0
 13
0.0
 23
0.0
 33
0.0
 16
1.0
 26
0.0
 36
0.0
 17
0.0
 27
1.0
 37
0.0
 76
     0
330
8409
331
840E
  0
LAYOUT
  5
8408
102
{ACAD_XDICTIONARY
360
85D9
102
}
102
{ACAD_REACTORS
330
83FB
102
}
330
83FB
100
AcDbPlotSettings
  1

  2
RICOH imagio MP W3600 RPCS
  4

  6

 40
0.0
 41
0.0
 42
0.0
 43
0.0
 44
0.0
 45
0.0
 46
0.0
 47
0.0
 48
0.0
 49
0.0
140
0.0
141
0.0
142
1.0
143
1.0
 70
   688
 72
     0
 73
     0
 74
     5
  7

 75
    16
147
1.0
148
0.0
149
0.0
100
AcDbLayout
  1
レイアウト1
 70
     1
 71
     1
 10
0.0
 20
0.0
 11
12.0
 21
9.0
 12
0.0
 22
0.0
 32
0.0
 14
1.000000000000000E+20
 24
1.000000000000000E+20
 34
1.000000000000000E+20
 15
-1.000000000000000E+20
 25
-1.000000000000000E+20
 35
-1.000000000000000E+20
146
0.0
 13
0.0
 23
0.0
 33
0.0
 16
1.0
 26
0.0
 36
0.0
 17
0.0
 27
1.0
 37
0.0
 76
     0
330
8405
  0
MATERIAL
  5
83B3
102
{ACAD_XDICTIONARY
360
83B4
102
}
102
{ACAD_REACTORS
330
83AA
102
}
330
83AA
100
AcDbMaterial
  1
ByBlock
 72
     0
 43
0.0208333333333333
 43
0.0
 43
0.0
 43
0.0
 43
0.0
 43
0.0208333333333333
 43
0.0
 43
0.0
 43
0.0
 43
0.0
 43
1.0
 43
0.0
 43
0.0
 43
0.0
 43
0.0
 43
1.0
 77
     0
 47
0.0208333333333333
 47
0.0
 47
0.0
 47
0.0
 47
0.0
 47
0.0208333333333333
 47
0.0
 47
0.0
 47
0.0
 47
0.0
 47
1.0
 47
0.0
 47
0.0
 47
0.0
 47
0.0
 47
1.0
171
     0
 49
0.0208333333333333
 49
0.0
 49
0.0
 49
0.0
 49
0.0
 49
0.0208333333333333
 49
0.0
 49
0.0
 49
0.0
 49
0.0
 49
1.0
 49
0.0
 49
0.0
 49
0.0
 49
0.0
 49
1.0
175
     0
142
0.0208333333333333
142
0.0
142
0.0
142
0.0
142
0.0
142
0.0208333333333333
142
0.0
142
0.0
142
0.0
142
0.0
142
1.0
142
0.0
142
0.0
142
0.0
142
0.0
142
1.0
179
     0
144
0.0208333333333333
144
0.0
144
0.0
144
0.0
144
0.0
144
0.0208333333333333
144
0.0
144
0.0
144
0.0
144
0.0
144
1.0
144
0.0
144
0.0
144
0.0
144
0.0
144
1.0
147
0.0208333333333333
147
0.0
147
0.0
147
0.0
147
0.0
147
0.0208333333333333
147
0.0
147
0.0
147
0.0
147
0.0
147
1.0
147
0.0
147
0.0
147
0.0
147
0.0
147
1.0
  0
MATERIAL
  5
83AB
102
{ACAD_XDICTIONARY
360
83AC
102
}
102
{ACAD_REACTORS
330
83AA
102
}
330
83AA
100
AcDbMaterial
  1
ByLayer
 72
     0
 43
0.0208333333333333
 43
0.0
 43
0.0
 43
0.0
 43
0.0
 43
0.0208333333333333
 43
0.0
 43
0.0
 43
0.0
 43
0.0
 43
1.0
 43
0.0
 43
0.0
 43
0.0
 43
0.0
 43
1.0
 77
     0
 47
0.0208333333333333
 47
0.0
 47
0.0
 47
0.0
 47
0.0
 47
0.0208333333333333
 47
0.0
 47
0.0
 47
0.0
 47
0.0
 47
1.0
 47
0.0
 47
0.0
 47
0.0
 47
0.0
 47
1.0
171
     0
 49
0.0208333333333333
 49
0.0
 49
0.0
 49
0.0
 49
0.0
 49
0.0208333333333333
 49
0.0
 49
0.0
 49
0.0
 49
0.0
 49
1.0
 49
0.0
 49
0.0
 49
0.0
 49
0.0
 49
1.0
175
     0
142
0.0208333333333333
142
0.0
142
0.0
142
0.0
142
0.0
142
0.0208333333333333
142
0.0
142
0.0
142
0.0
142
0.0
142
1.0
142
0.0
142
0.0
142
0.0
142
0.0
142
1.0
179
     0
144
0.0208333333333333
144
0.0
144
0.0
144
0.0
144
0.0
144
0.0208333333333333
144
0.0
144
0.0
144
0.0
144
0.0
144
1.0
144
0.0
144
0.0
144
0.0
144
0.0
144
1.0
147
0.0208333333333333
147
0.0
147
0.0
147
0.0
147
0.0
147
0.0208333333333333
147
0.0
147
0.0
147
0.0
147
0.0
147
1.0
147
0.0
147
0.0
147
0.0
147
0.0
147
1.0
  0
MATERIAL
  5
83BB
102
{ACAD_XDICTIONARY
360
83BC
102
}
102
{ACAD_REACTORS
330
83AA
102
}
330
83AA
100
AcDbMaterial
  1
Global
 72
     0
 43
0.0208333333333333
 43
0.0
 43
0.0
 43
0.0
 43
0.0
 43
0.0208333333333333
 43
0.0
 43
0.0
 43
0.0
 43
0.0
 43
1.0
 43
0.0
 43
0.0
 43
0.0
 43
0.0
 43
1.0
 77
     0
 47
0.0208333333333333
 47
0.0
 47
0.0
 47
0.0
 47
0.0
 47
0.0208333333333333
 47
0.0
 47
0.0
 47
0.0
 47
0.0
 47
1.0
 47
0.0
 47
0.0
 47
0.0
 47
0.0
 47
1.0
171
     0
 49
0.0208333333333333
 49
0.0
 49
0.0
 49
0.0
 49
0.0
 49
0.0208333333333333
 49
0.0
 49
0.0
 49
0.0
 49
0.0
 49
1.0
 49
0.0
 49
0.0
 49
0.0
 49
0.0
 49
1.0
175
     0
142
0.0208333333333333
142
0.0
142
0.0
142
0.0
142
0.0
142
0.0208333333333333
142
0.0
142
0.0
142
0.0
142
0.0
142
1.0
142
0.0
142
0.0
142
0.0
142
0.0
142
1.0
179
     0
144
0.0208333333333333
144
0.0
144
0.0
144
0.0
144
0.0
144
0.0208333333333333
144
0.0
144
0.0
144
0.0
144
0.0
144
1.0
144
0.0
144
0.0
144
0.0
144
0.0
144
1.0
147
0.0208333333333333
147
0.0
147
0.0
147
0.0
147
0.0
147
0.0208333333333333
147
0.0
147
0.0
147
0.0
147
0.0
147
1.0
147
0.0
147
0.0
147
0.0
147
0.0
147
1.0
  0
MLEADERSTYLE
  5
8400
102
{ACAD_REACTORS
330
83FF
102
}
330
83FF
100
AcDbMLeaderStyle
170
     2
171
     1
172
     0
 90
        2
 40
0.0
 41
0.0
173
     1
 91
-1056964608
340
83F4
 92
       -2
290
     1
 42
0.09
291
     1
 43
0.36
  3
Standard
 44
0.18
300

342
83EF
174
     1
178
     6
175
     1
176
     0
 93
-1056964608
 45
0.18
292
     0
297
     0
 46
0.18
 94
-1056964608
 47
1.0
 49
1.0
140
1.0
293
     1
141
0.0
294
     1
177
     0
142
1.0
295
     0
296
     0
143
0.125
1001
ACAD_MLEADERVER
1070
     2
  0
MLINESTYLE
  5
83F9
102
{ACAD_REACTORS
330
83F8
102
}
330
83F8
100
AcDbMlineStyle
  2
STANDARD
 70
     0
  3

 62
   256
 51
90.0
 52
90.0
 71
     2
 49
0.5
 62
   256
  6
BYLAYER
 49
-0.5
 62
   256
  6
BYLAYER
  0
ACDBPLACEHOLDER
  5
83A9
102
{ACAD_REACTORS
330
83A8
102
}
330
83A8
  0
SCALE
  5
83DD
102
{ACAD_REACTORS
330
83DC
102
}
330
83DC
100
AcDbScale
 70
     0
300
1:1
140
1.0
141
1.0
290
     1
  0
SCALE
  5
83DE
102
{ACAD_REACTORS
330
83DC
102
}
330
83DC
100
AcDbScale
 70
     0
300
1/128" = 1'-0"
140
0.0078125
141
12.0
290
     0
  0
SCALE
  5
83DF
102
{ACAD_REACTORS
330
83DC
102
}
330
83DC
100
AcDbScale
 70
     0
300
1/64" = 1'-0"
140
0.015625
141
12.0
290
     0
  0
SCALE
  5
83E0
102
{ACAD_REACTORS
330
83DC
102
}
330
83DC
100
AcDbScale
 70
     0
300
1/32" = 1'-0"
140
0.03125
141
12.0
290
     0
  0
SCALE
  5
83E1
102
{ACAD_REACTORS
330
83DC
102
}
330
83DC
100
AcDbScale
 70
     0
300
1/16" = 1'-0"
140
0.0625
141
12.0
290
     0
  0
SCALE
  5
83E2
102
{ACAD_REACTORS
330
83DC
102
}
330
83DC
100
AcDbScale
 70
     0
300
3/32" = 1'-0"
140
0.09375
141
12.0
290
     0
  0
SCALE
  5
83E3
102
{ACAD_REACTORS
330
83DC
102
}
330
83DC
100
AcDbScale
 70
     0
300
1/8" = 1'-0"
140
0.125
141
12.0
290
     0
  0
SCALE
  5
83E4
102
{ACAD_REACTORS
330
83DC
102
}
330
83DC
100
AcDbScale
 70
     0
300
3/16" = 1'-0"
140
0.1875
141
12.0
290
     0
  0
SCALE
  5
83E5
102
{ACAD_REACTORS
330
83DC
102
}
330
83DC
100
AcDbScale
 70
     0
300
1/4" = 1'-0"
140
0.25
141
12.0
290
     0
  0
SCALE
  5
83E6
102
{ACAD_REACTORS
330
83DC
102
}
330
83DC
100
AcDbScale
 70
     0
300
3/8" = 1'-0"
140
0.375
141
12.0
290
     0
  0
SCALE
  5
83E7
102
{ACAD_REACTORS
330
83DC
102
}
330
83DC
100
AcDbScale
 70
     0
300
1/2" = 1'-0"
140
0.5
141
12.0
290
     0
  0
SCALE
  5
83E8
102
{ACAD_REACTORS
330
83DC
102
}
330
83DC
100
AcDbScale
 70
     0
300
3/4" = 1'-0"
140
0.75
141
12.0
290
     0
  0
SCALE
  5
83E9
102
{ACAD_REACTORS
330
83DC
102
}
330
83DC
100
AcDbScale
 70
     0
300
1" = 1'-0"
140
1.0
141
12.0
290
     0
  0
SCALE
  5
83EA
102
{ACAD_REACTORS
330
83DC
102
}
330
83DC
100
AcDbScale
 70
     0
300
1-1/2" = 1'-0"
140
1.5
141
12.0
290
     0
  0
SCALE
  5
83EB
102
{ACAD_REACTORS
330
83DC
102
}
330
83DC
100
AcDbScale
 70
     0
300
3" = 1'-0"
140
3.0
141
12.0
290
     0
  0
SCALE
  5
83EC
102
{ACAD_REACTORS
330
83DC
102
}
330
83DC
100
AcDbScale
 70
     0
300
6" = 1'-0"
140
6.0
141
12.0
290
     0
  0
SCALE
  5
83ED
102
{ACAD_REACTORS
330
83DC
102
}
330
83DC
100
AcDbScale
 70
     0
300
1'-0" = 1'-0"
140
12.0
141
12.0
290
     0
  0
ACDBSECTIONVIEWSTYLE
  5
8402
102
{ACAD_XDICTIONARY
360
85D5
102
}
102
{ACAD_REACTORS
330
8401
102
}
330
8401
100
AcDbModelDocViewStyle
 70
     0
  3
Imperial24
290
     0
100
AcDbSectionViewStyle
 70
     0
 71
     0
 90
       78
 71
     1
340
83EF
 40
0.24
340
0
340
0
 40
0.24
300
I, O, Q, S, X, Z
 40
0.48
 90
        3
 40
0.18
 90
        1
 71
     2
340
83F6
 90
       25
340
83F6
 90
       50
 40
0.24
 40
0.0
 40
0.24
 71
     3
340
83EF
 40
0.24
 90
        1
 40
0.75
 90
        1
300
%<\AcVar ViewType \f "%tc1">% %<\AcVar ViewSectionStartId>%-%<\AcVar ViewSectionEndId>%\PSCALE %<\AcVar ViewScale \f "%sn">%
 71
     4
300
ANSI31
 40
1.0
 90
        0
290
     0
290
     0
 90
        6
 40
0.0
 40
1.570796326794896
 40
0.2617993877991494
 40
1.308996938995747
 40
-0.2617993877991494
 40
1.832595714594046
  0
TABLESTYLE
  5
83FE
102
{ACAD_XDICTIONARY
360
859C
102
}
102
{ACAD_REACTORS
330
83FD
102
}
330
83FD
100
AcDbTableStyle
  3
Standard
 70
     0
 71
     0
 40
0.06
 41
0.06
280
     0
281
     0
  7
STANDARD
140
0.18
170
     2
 62
     0
 63
     7
283
     0
274
    -2
284
     1
 64
     0
275
    -2
285
     1
 65
     0
276
    -2
286
     1
 66
     0
277
    -2
287
     1
 67
     0
278
    -2
288
     1
 68
     0
279
    -2
289
     1
 69
     0
  7
STANDARD
140
0.25
170
     5
 62
     0
 63
     7
283
     0
274
    -2
284
     1
 64
     0
275
    -2
285
     1
 65
     0
276
    -2
286
     1
 66
     0
277
    -2
287
     1
 67
     0
278
    -2
288
     1
 68
     0
279
    -2
289
     1
 69
     0
  7
STANDARD
140
0.18
170
     5
 62
     0
 63
     7
283
     0
274
    -2
284
     1
 64
     0
275
    -2
285
     1
 65
     0
276
    -2
286
     1
 66
     0
277
    -2
287
     1
 67
     0
278
    -2
288
     1
 68
     0
279
    -2
289
     1
 69
     0
  0
VISUALSTYLE
  5
83C9
102
{ACAD_XDICTIONARY
360
85AD
102
}
102
{ACAD_REACTORS
330
83C3
102
}
330
83C3
100
AcDbVisualStyle
  2
2dWireframe
 70
     4
 71
     0
 72
     2
 73
     0
 90
        0
 40
-0.6
 41
-30.0
 62
     5
 63
     7
 74
     1
 91
        4
 64
     7
 65
   257
 75
     1
175
     1
 42
1.0
 92
        0
 66
   257
 43
1.0
 76
     1
 77
     6
 78
     2
 67
     7
 79
     5
170
     0
171
     0
290
     0
174
     0
 93
        1
 44
0.0
173
     0
291
     0
 45
0.0
1001
ACAD
1000
AcDbSavedByObjectVersion
1070
     0
  0
VISUALSTYLE
  5
83C8
102
{ACAD_XDICTIONARY
360
85AB
102
}
102
{ACAD_REACTORS
330
83C3
102
}
330
83C3
100
AcDbVisualStyle
  2
Basic
 70
     7
 71
     1
 72
     0
 73
     1
 90
        0
 40
-0.6
 41
-30.0
 62
     5
 63
     7
 74
     0
 91
        4
 64
     7
 65
   257
 75
     1
175
     1
 42
1.0
 92
        8
 66
     7
 43
1.0
 76
     1
 77
     6
 78
     2
 67
     7
 79
     5
170
     0
171
     0
290
     0
174
     0
 93
        1
 44
0.0
173
     0
291
     1
 45
0.0
1001
ACAD
1000
AcDbSavedByObjectVersion
1070
     0
  0
VISUALSTYLE
  5
83CF
102
{ACAD_XDICTIONARY
360
85B9
102
}
102
{ACAD_REACTORS
330
83C3
102
}
330
83C3
100
AcDbVisualStyle
  2
Brighten
 70
    12
 71
     2
 72
     2
 73
     0
 90
        0
 40
-0.6
 41
-30.0
 62
     5
 63
     7
 74
     1
 91
        4
 64
     7
 65
   257
 75
     1
175
     1
 42
1.0
 92
        8
 66
     7
 43
1.0
 76
     1
 77
     6
 78
     2
 67
     7
 79
     5
170
     0
171
     0
290
     0
174
     0
 93
        1
 44
50.0
173
     0
291
     1
 45
0.0
1001
ACAD
1000
AcDbSavedByObjectVersion
1070
     0
  0
VISUALSTYLE
  5
83D3
102
{ACAD_XDICTIONARY
360
85C1
102
}
102
{ACAD_REACTORS
330
83C3
102
}
330
83C3
100
AcDbVisualStyle
  2
ColorChange
 70
    16
 71
     2
 72
     2
 73
     3
 90
        0
 40
-0.6
 41
-30.0
 62
     5
 63
     8
 74
     1
 91
        4
 64
     7
 65
   257
 75
     1
175
     1
 42
1.0
 92
        8
 66
     8
 43
1.0
 76
     1
 77
     6
 78
     2
 67
     7
 79
     5
170
     0
171
     0
290
     0
174
     0
 93
        1
 44
0.0
173
     0
291
     1
 45
0.0
1001
ACAD
1000
AcDbSavedByObjectVersion
1070
     0
  0
VISUALSTYLE
  5
83CC
102
{ACAD_XDICTIONARY
360
85B3
102
}
102
{ACAD_REACTORS
330
83C3
102
}
330
83C3
100
AcDbVisualStyle
  2
Conceptual
 70
     9
 71
     3
 72
     2
 73
     0
 90
        0
 40
-0.6
 41
-30.0
 62
     5
 63
     7
 74
     2
 91
        2
 64
     7
 65
   257
 75
     1
175
     1
 42
179.0
 92
        8
 66
     7
 43
1.0
 76
     1
 77
     6
 78
     2
 67
     7
 79
     3
170
     0
171
     0
290
     0
174
     0
 93
        1
 44
0.0
173
     0
291
     0
 45
0.0
1001
ACAD
1000
AcDbSavedByObjectVersion
1070
     0
  0
VISUALSTYLE
  5
83CE
102
{ACAD_XDICTIONARY
360
85B7
102
}
102
{ACAD_REACTORS
330
83C3
102
}
330
83C3
100
AcDbVisualStyle
  2
Dim
 70
    11
 71
     2
 72
     2
 73
     0
 90
        0
 40
-0.6
 41
-30.0
 62
     5
 63
     7
 74
     1
 91
        4
 64
     7
 65
   257
 75
     1
175
     1
 42
1.0
 92
        8
 66
     7
 43
1.0
 76
     1
 77
     6
 78
     2
 67
     7
 79
     5
170
     0
171
     0
290
     0
174
     0
 93
        1
 44
-50.0
173
     0
291
     1
 45
0.0
1001
ACAD
1000
AcDbSavedByObjectVersion
1070
     0
  0
VISUALSTYLE
  5
83DB
102
{ACAD_XDICTIONARY
360
85D1
102
}
102
{ACAD_REACTORS
330
83C3
102
}
330
83C3
100
AcDbVisualStyle
  2
EdgeColorOff
 70
    22
 71
     2
 72
     2
 73
     0
 90
        0
 40
-0.6
 41
-30.0
 62
     5
 63
     7
 74
     1
 91
        4
 64
     7
 65
   257
 75
     1
175
     1
 42
1.0
 92
        8
 66
     7
 43
1.0
 76
     1
 77
     6
 78
     2
 67
     7
 79
     5
170
     0
171
     0
290
     0
174
     0
 93
        1
 44
0.0
173
     0
291
     1
 45
0.0
1001
ACAD
1000
AcDbSavedByObjectVersion
1070
     0
  0
VISUALSTYLE
  5
83D2
102
{ACAD_XDICTIONARY
360
85BF
102
}
102
{ACAD_REACTORS
330
83C3
102
}
330
83C3
100
AcDbVisualStyle
  2
Facepattern
 70
    15
 71
     2
 72
     2
 73
     0
 90
        0
 40
-0.6
 41
-30.0
 62
     5
 63
     7
 74
     1
 91
        4
 64
     7
 65
   257
 75
     1
175
     1
 42
1.0
 92
        8
 66
     7
 43
1.0
 76
     1
 77
     6
 78
     2
 67
     7
 79
     5
170
     0
171
     0
290
     0
174
     0
 93
        1
 44
0.0
173
     0
291
     1
 45
0.0
1001
ACAD
1000
AcDbSavedByObjectVersion
1070
     0
  0
VISUALSTYLE
  5
83C4
102
{ACAD_XDICTIONARY
360
85A3
102
}
102
{ACAD_REACTORS
330
83C3
102
}
330
83C3
100
AcDbVisualStyle
  2
Flat
 70
     0
 71
     2
 72
     1
 73
     1
 90
        2
 40
-0.6
 41
30.0
 62
     5
 63
     7
 74
     0
 91
        0
 64
     7
 65
   257
 75
     1
175
     1
 42
1.0
 92
        8
 66
     7
 43
1.0
 76
     1
 77
     6
 78
     2
 67
     7
 79
     5
170
     0
171
     0
290
     0
174
     0
 93
       13
 44
0.0
173
     0
291
     1
 45
0.0
1001
ACAD
1000
AcDbSavedByObjectVersion
1070
     0
  0
VISUALSTYLE
  5
83C5
102
{ACAD_XDICTIONARY
360
85A5
102
}
102
{ACAD_REACTORS
330
83C3
102
}
330
83C3
100
AcDbVisualStyle
  2
FlatWithEdges
 70
     1
 71
     2
 72
     1
 73
     1
 90
        2
 40
-0.6
 41
30.0
 62
     5
 63
     7
 74
     1
 91
        0
 64
     7
 65
   257
 75
     1
175
     1
 42
1.0
 92
        0
 66
   257
 43
1.0
 76
     1
 77
     6
 78
     2
 67
     7
 79
     5
170
     0
171
     0
290
     0
174
     0
 93
       13
 44
0.0
173
     0
291
     1
 45
0.0
1001
ACAD
1000
AcDbSavedByObjectVersion
1070
     0
  0
VISUALSTYLE
  5
83C6
102
{ACAD_XDICTIONARY
360
85A7
102
}
102
{ACAD_REACTORS
330
83C3
102
}
330
83C3
100
AcDbVisualStyle
  2
Gouraud
 70
     2
 71
     2
 72
     2
 73
     1
 90
        2
 40
-0.6
 41
30.0
 62
     5
 63
     7
 74
     0
 91
        0
 64
     7
 65
   257
 75
     1
175
     1
 42
1.0
 92
        0
 66
     7
 43
1.0
 76
     1
 77
     6
 78
     2
 67
     7
 79
     5
170
     0
171
     0
290
     0
174
     0
 93
       13
 44
0.0
173
     0
291
     1
 45
0.0
1001
ACAD
1000
AcDbSavedByObjectVersion
1070
     0
  0
VISUALSTYLE
  5
83C7
102
{ACAD_XDICTIONARY
360
85A9
102
}
102
{ACAD_REACTORS
330
83C3
102
}
330
83C3
100
AcDbVisualStyle
  2
GouraudWithEdges
 70
     3
 71
     2
 72
     2
 73
     1
 90
        2
 40
-0.6
 41
30.0
 62
     5
 63
     7
 74
     1
 91
        0
 64
     7
 65
   257
 75
     1
175
     1
 42
1.0
 92
        0
 66
   257
 43
1.0
 76
     1
 77
     6
 78
     2
 67
     7
 79
     5
170
     0
171
     0
290
     0
174
     0
 93
       13
 44
0.0
173
     0
291
     1
 45
0.0
1001
ACAD
1000
AcDbSavedByObjectVersion
1070
     0
  0
VISUALSTYLE
  5
83CB
102
{ACAD_XDICTIONARY
360
85B1
102
}
102
{ACAD_REACTORS
330
83C3
102
}
330
83C3
100
AcDbVisualStyle
  2
Hidden
 70
     6
 71
     1
 72
     2
 73
     2
 90
        0
 40
-0.6
 41
-30.0
 62
     5
 63
     7
 74
     2
 91
        2
 64
     7
 65
   257
 75
     2
175
     1
 42
40.0
 92
        0
 66
   257
 43
1.0
 76
     1
 77
     6
 78
     2
 67
     7
 79
     3
170
     0
171
     0
290
     0
174
     0
 93
        1
 44
0.0
173
     0
291
     0
 45
0.0
1001
ACAD
1000
AcDbSavedByObjectVersion
1070
     0
  0
VISUALSTYLE
  5
83D9
102
{ACAD_XDICTIONARY
360
85CD
102
}
102
{ACAD_REACTORS
330
83C3
102
}
330
83C3
100
AcDbVisualStyle
  2
JitterOff
 70
    20
 71
     2
 72
     2
 73
     0
 90
        0
 40
-0.6
 41
-30.0
 62
     5
 63
     7
 74
     1
 91
        4
 64
     7
 65
   257
 75
     1
175
     1
 42
1.0
 92
       10
 66
     7
 43
1.0
 76
     1
 77
     6
 78
     2
 67
     7
 79
     5
170
     0
171
     0
290
     0
174
     0
 93
        1
 44
0.0
173
     0
291
     1
 45
0.0
1001
ACAD
1000
AcDbSavedByObjectVersion
1070
     0
  0
VISUALSTYLE
  5
83D1
102
{ACAD_XDICTIONARY
360
85BD
102
}
102
{ACAD_REACTORS
330
83C3
102
}
330
83C3
100
AcDbVisualStyle
  2
Linepattern
 70
    14
 71
     2
 72
     2
 73
     0
 90
        0
 40
-0.6
 41
-30.0
 62
     5
 63
     7
 74
     1
 91
        4
 64
     7
 65
   257
 75
     7
175
     7
 42
1.0
 92
        8
 66
     7
 43
1.0
 76
     1
 77
     6
 78
     2
 67
     7
 79
     5
170
     0
171
     0
290
     0
174
     0
 93
        1
 44
0.0
173
     0
291
     1
 45
0.0
1001
ACAD
1000
AcDbSavedByObjectVersion
1070
     0
  0
VISUALSTYLE
  5
83DA
102
{ACAD_XDICTIONARY
360
85CF
102
}
102
{ACAD_REACTORS
330
83C3
102
}
330
83C3
100
AcDbVisualStyle
  2
OverhangOff
 70
    21
 71
     2
 72
     2
 73
     0
 90
        0
 40
-0.6
 41
-30.0
 62
     5
 63
     7
 74
     1
 91
        4
 64
     7
 65
   257
 75
     1
175
     1
 42
1.0
 92
        9
 66
     7
 43
1.0
 76
     1
 77
     6
 78
     2
 67
     7
 79
     5
170
     0
171
     0
290
     0
174
     0
 93
        1
 44
0.0
173
     0
291
     1
 45
0.0
1001
ACAD
1000
AcDbSavedByObjectVersion
1070
     0
  0
VISUALSTYLE
  5
83CD
102
{ACAD_XDICTIONARY
360
85B5
102
}
102
{ACAD_REACTORS
330
83C3
102
}
330
83C3
100
AcDbVisualStyle
  2
Realistic
 70
     8
 71
     2
 72
     3
 73
     0
 90
        2
 40
-0.6
 41
30.0
 62
     5
 63
     7
 74
     0
 91
        0
 64
     7
 65
   257
 75
     1
175
     1
 42
1.0
 92
        8
 66
   257
 43
1.0
 76
     1
 77
     6
 78
     2
 67
     7
 79
     3
170
     0
171
     0
290
     0
174
     0
 93
       13
 44
0.0
173
     0
291
     0
 45
0.0
1001
ACAD
1000
AcDbSavedByObjectVersion
1070
     0
  0
VISUALSTYLE
  5
83D8
102
{ACAD_XDICTIONARY
360
85CB
102
}
102
{ACAD_REACTORS
330
83C3
102
}
330
83C3
100
AcDbVisualStyle
  2
Shaded
 70
    27
 71
     2
 72
     2
 73
     1
 90
        2
 40
-0.6
 41
30.0
 62
     5
 63
     7
 74
     0
 91
        4
 64
     7
 65
   257
 75
     1
175
     1
 42
1.0
 92
        8
 66
   257
 43
1.0
 76
     1
 77
     6
 78
     2
 67
     8
 79
     3
170
     0
171
     0
290
     0
174
     0
 93
        5
 44
0.0
173
     0
291
     0
 45
0.0
1001
ACAD
1000
AcDbSavedByObjectVersion
1070
     0
  0
VISUALSTYLE
  5
83D7
102
{ACAD_XDICTIONARY
360
85C9
102
}
102
{ACAD_REACTORS
330
83C3
102
}
330
83C3
100
AcDbVisualStyle
  2
Shaded with edges
 70
    26
 71
     2
 72
     2
 73
     1
 90
        2
 40
-0.6
 41
30.0
 62
     5
 63
     7
 74
     1
 91
       10
 64
     7
 65
   257
 75
     2
175
     1
 42
1.0
 92
        8
 66
   257
 43
1.0
 76
     1
 77
     6
 78
     2
 67
     7
 79
     3
170
     0
171
     0
290
     0
174
     0
 93
        5
 44
0.0
173
     0
291
     0
 45
0.0
1001
ACAD
1000
AcDbSavedByObjectVersion
1070
     0
  0
VISUALSTYLE
  5
83D4
102
{ACAD_XDICTIONARY
360
85C3
102
}
102
{ACAD_REACTORS
330
83C3
102
}
330
83C3
100
AcDbVisualStyle
  2
Shades of Gray
 70
    23
 71
     2
 72
     2
 73
     3
 90
        0
 40
-0.6
 41
-30.0
 62
     5
 63
     7
 74
     2
 91
        2
 64
     7
 65
     7
 75
     1
175
     1
 42
40.0
 92
        8
 66
     7
 43
1.0
 76
     1
 77
     6
 78
     2
 67
     7
 79
     3
170
     0
171
     0
290
     0
174
     0
 93
        1
 44
0.0
173
     0
291
     0
 45
0.0
1001
ACAD
1000
AcDbSavedByObjectVersion
1070
     0
  0
VISUALSTYLE
  5
83D5
102
{ACAD_XDICTIONARY
360
85C5
102
}
102
{ACAD_REACTORS
330
83C3
102
}
330
83C3
100
AcDbVisualStyle
  2
Sketchy
 70
    24
 71
     1
 72
     2
 73
     2
 90
        0
 40
-0.6
 41
-30.0
 62
     5
 63
     7
 74
     2
 91
        2
 64
     7
 65
     7
 75
     1
175
     1
 42
40.0
 92
       11
 66
     7
 43
1.0
 76
     1
 77
     6
 78
     2
 67
     7
 79
     6
170
     0
171
     0
290
     0
174
     0
 93
        1
 44
0.0
173
     0
291
     0
 45
0.0
1001
ACAD
1000
AcDbSavedByObjectVersion
1070
     0
  0
VISUALSTYLE
  5
83D0
102
{ACAD_XDICTIONARY
360
85BB
102
}
102
{ACAD_REACTORS
330
83C3
102
}
330
83C3
100
AcDbVisualStyle
  2
Thicken
 70
    13
 71
     2
 72
     2
 73
     0
 90
        0
 40
-0.6
 41
-30.0
 62
     5
 63
     7
 74
     1
 91
        4
 64
     7
 65
   257
 75
     1
175
     1
 42
1.0
 92
       12
 66
     7
 43
1.0
 76
     1
 77
     6
 78
     2
 67
     7
 79
     5
170
     0
171
     0
290
     0
174
     0
 93
        1
 44
0.0
173
     0
291
     1
 45
0.0
1001
ACAD
1000
AcDbSavedByObjectVersion
1070
     0
  0
VISUALSTYLE
  5
83CA
102
{ACAD_XDICTIONARY
360
85AF
102
}
102
{ACAD_REACTORS
330
83C3
102
}
330
83C3
100
AcDbVisualStyle
  2
Wireframe
 70
     5
 71
     0
 72
     2
 73
     0
 90
        0
 40
-0.6
 41
-30.0
 62
     5
 63
     7
 74
     1
 91
        4
 64
     7
 65
   257
 75
     1
175
     1
 42
1.0
 92
        0
 66
   257
 43
1.0
 76
     1
 77
     6
 78
     2
 67
     7
 79
     3
170
     0
171
     0
290
     0
174
     0
 93
        1
 44
0.0
173
     0
291
     0
 45
0.0
1001
ACAD
1000
AcDbSavedByObjectVersion
1070
     0
  0
VISUALSTYLE
  5
83D6
102
{ACAD_XDICTIONARY
360
85C7
102
}
102
{ACAD_REACTORS
330
83C3
102
}
330
83C3
100
AcDbVisualStyle
  2
X-Ray
 70
    25
 71
     2
 72
     2
 73
     1
 90
        1
 40
0.5
 41
-30.0
 62
     5
 63
     7
 74
     1
 91
        0
 64
     7
 65
   257
 75
     1
175
     1
 42
1.0
 92
        8
 66
     7
 43
1.0
 76
     1
 77
     6
 78
     2
 67
     7
 79
     3
170
     0
171
     0
290
     0
174
     0
 93
       13
 44
0.0
173
     0
291
     0
 45
0.0
1001
ACAD
1000
AcDbSavedByObjectVersion
1070
     0
  0
DICTIONARYVAR
  5
8596
102
{ACAD_REACTORS
330
8591
102
}
330
8591
100
DictionaryVariables
280
     0
  1
1:1
  0
DICTIONARYVAR
  5
8593
102
{ACAD_REACTORS
330
8591
102
}
330
8591
100
DictionaryVariables
280
     0
  1
STANDARD
  0
DICTIONARYVAR
  5
8592
102
{ACAD_REACTORS
330
8591
102
}
330
8591
100
DictionaryVariables
280
     0
  1
STANDARD
  0
DICTIONARYVAR
  5
8594
102
{ACAD_REACTORS
330
8591
102
}
330
8591
100
DictionaryVariables
280
     0
  1
Imperial24
  0
DICTIONARYVAR
  5
8595
102
{ACAD_REACTORS
330
8591
102
}
330
8591
100
DictionaryVariables
280
     0
  1
Imperial24
  0
DICTIONARYVAR
  5
8599
102
{ACAD_REACTORS
330
8591
102
}
330
8591
100
DictionaryVariables
280
     0
  1
1
  0
DICTIONARYVAR
  5
8598
102
{ACAD_REACTORS
330
8591
102
}
330
8591
100
DictionaryVariables
280
     0
  1
0
  0
DICTIONARYVAR
  5
8597
102
{ACAD_REACTORS
330
8591
102
}
330
8591
100
DictionaryVariables
280
     0
  1
127
  0
DICTIONARYVAR
  5
859A
102
{ACAD_REACTORS
330
8591
102
}
330
8591
100
DictionaryVariables
280
     0
  1
2
  0
DICTIONARY
  5
85D7
330
8404
100
AcDbDictionary
280
     1
281
     1
  3
ACAD_XREC_ROUNDTRIP
360
85D8
  0
DICTIONARY
  5
85DB
330
840C
100
AcDbDictionary
280
     1
281
     1
  3
ACAD_XREC_ROUNDTRIP
360
85DC
  0
DICTIONARY
  5
85D9
330
8408
100
AcDbDictionary
280
     1
281
     1
  3
ACAD_XREC_ROUNDTRIP
360
85DA
  0
DICTIONARY
  5
83B4
330
83B3
100
AcDbDictionary
280
     1
281
     1
  3
ACAD_XREC_ROUNDTRIP
360
85A1
  3
BUMPTILE
360
83B6
  3
DIFFUSETILE
360
83B5
  3
OPACITYTILE
360
83B9
  3
REFLECTIONTILE
360
83B8
  3
REFRACTIONTILE
360
83BA
  3
SPECULARTILE
360
83B7
  0
DICTIONARY
  5
83AC
330
83AB
100
AcDbDictionary
280
     1
281
     1
  3
ACAD_XREC_ROUNDTRIP
360
85A0
  3
BUMPTILE
360
83AE
  3
DIFFUSETILE
360
83AD
  3
OPACITYTILE
360
83B1
  3
REFLECTIONTILE
360
83B0
  3
REFRACTIONTILE
360
83B2
  3
SPECULARTILE
360
83AF
  0
DICTIONARY
  5
83BC
330
83BB
100
AcDbDictionary
280
     1
281
     1
  3
ACAD_XREC_ROUNDTRIP
360
85A2
  3
BUMPTILE
360
83BE
  3
DIFFUSETILE
360
83BD
  3
OPACITYTILE
360
83C1
  3
REFLECTIONTILE
360
83C0
  3
REFRACTIONTILE
360
83C2
  3
SPECULARTILE
360
83BF
  0
DICTIONARY
  5
85D5
330
8402
100
AcDbDictionary
280
     1
281
     1
  3
ACAD_XREC_ROUNDTRIP
360
85D6
  0
DICTIONARY
  5
859C
330
83FE
100
AcDbDictionary
280
     1
281
     1
  3
ACAD_ROUNDTRIP_2008_TABLESTYLE_CELLSTYLEMAP
360
859D
  3
ACAD_XREC_ROUNDTRIP
360
85D3
  0
DICTIONARY
  5
85AD
330
83C9
100
AcDbDictionary
280
     1
281
     1
  3
ACAD_XREC_ROUNDTRIP
360
85AE
  0
DICTIONARY
  5
85AB
330
83C8
100
AcDbDictionary
280
     1
281
     1
  3
ACAD_XREC_ROUNDTRIP
360
85AC
  0
DICTIONARY
  5
85B9
330
83CF
100
AcDbDictionary
280
     1
281
     1
  3
ACAD_XREC_ROUNDTRIP
360
85BA
  0
DICTIONARY
  5
85C1
330
83D3
100
AcDbDictionary
280
     1
281
     1
  3
ACAD_XREC_ROUNDTRIP
360
85C2
  0
DICTIONARY
  5
85B3
330
83CC
100
AcDbDictionary
280
     1
281
     1
  3
ACAD_XREC_ROUNDTRIP
360
85B4
  0
DICTIONARY
  5
85B7
330
83CE
100
AcDbDictionary
280
     1
281
     1
  3
ACAD_XREC_ROUNDTRIP
360
85B8
  0
DICTIONARY
  5
85D1
330
83DB
100
AcDbDictionary
280
     1
281
     1
  3
ACAD_XREC_ROUNDTRIP
360
85D2
  0
DICTIONARY
  5
85BF
330
83D2
100
AcDbDictionary
280
     1
281
     1
  3
ACAD_XREC_ROUNDTRIP
360
85C0
  0
DICTIONARY
  5
85A3
330
83C4
100
AcDbDictionary
280
     1
281
     1
  3
ACAD_XREC_ROUNDTRIP
360
85A4
  0
DICTIONARY
  5
85A5
330
83C5
100
AcDbDictionary
280
     1
281
     1
  3
ACAD_XREC_ROUNDTRIP
360
85A6
  0
DICTIONARY
  5
85A7
330
83C6
100
AcDbDictionary
280
     1
281
     1
  3
ACAD_XREC_ROUNDTRIP
360
85A8
  0
DICTIONARY
  5
85A9
330
83C7
100
AcDbDictionary
280
     1
281
     1
  3
ACAD_XREC_ROUNDTRIP
360
85AA
  0
DICTIONARY
  5
85B1
330
83CB
100
AcDbDictionary
280
     1
281
     1
  3
ACAD_XREC_ROUNDTRIP
360
85B2
  0
DICTIONARY
  5
85CD
330
83D9
100
AcDbDictionary
280
     1
281
     1
  3
ACAD_XREC_ROUNDTRIP
360
85CE
  0
DICTIONARY
  5
85BD
330
83D1
100
AcDbDictionary
280
     1
281
     1
  3
ACAD_XREC_ROUNDTRIP
360
85BE
  0
DICTIONARY
  5
85CF
330
83DA
100
AcDbDictionary
280
     1
281
     1
  3
ACAD_XREC_ROUNDTRIP
360
85D0
  0
DICTIONARY
  5
85B5
330
83CD
100
AcDbDictionary
280
     1
281
     1
  3
ACAD_XREC_ROUNDTRIP
360
85B6
  0
DICTIONARY
  5
85CB
330
83D8
100
AcDbDictionary
280
     1
281
     1
  3
ACAD_XREC_ROUNDTRIP
360
85CC
  0
DICTIONARY
  5
85C9
330
83D7
100
AcDbDictionary
280
     1
281
     1
  3
ACAD_XREC_ROUNDTRIP
360
85CA
  0
DICTIONARY
  5
85C3
330
83D4
100
AcDbDictionary
280
     1
281
     1
  3
ACAD_XREC_ROUNDTRIP
360
85C4
  0
DICTIONARY
  5
85C5
330
83D5
100
AcDbDictionary
280
     1
281
     1
  3
ACAD_XREC_ROUNDTRIP
360
85C6
  0
DICTIONARY
  5
85BB
330
83D0
100
AcDbDictionary
280
     1
281
     1
  3
ACAD_XREC_ROUNDTRIP
360
85BC
  0
DICTIONARY
  5
85AF
330
83CA
100
AcDbDictionary
280
     1
281
     1
  3
ACAD_XREC_ROUNDTRIP
360
85B0
  0
DICTIONARY
  5
85C7
330
83D6
100
AcDbDictionary
280
     1
281
     1
  3
ACAD_XREC_ROUNDTRIP
360
85C8
  0
XRECORD
  5
85D8
102
{ACAD_REACTORS
330
85D7
102
}
330
85D7
100
AcDbXrecord
280
     1
102
DISPLAYNAME
  1
Imperial24
102
FLAGS
 90
        0
  0
XRECORD
  5
85DC
102
{ACAD_REACTORS
330
85DB
102
}
330
85DB
100
AcDbXrecord
280
     1
102
SHADEPLOT
 70
     0
102
SHADEPLOTRESLEVEL
 70
     2
102
SHADEPLOTCUSTOMDPI
 70
   300
  0
XRECORD
  5
85DA
102
{ACAD_REACTORS
330
85D9
102
}
330
85D9
100
AcDbXrecord
280
     1
102
SHADEPLOT
 70
     0
102
SHADEPLOTRESLEVEL
 70
     2
102
SHADEPLOTCUSTOMDPI
 70
   300
  0
XRECORD
  5
85A1
102
{ACAD_REACTORS
330
83B4
102
}
330
83B4
100
AcDbXrecord
280
     1
102
MATERIAL
148
0.0
149
0.0
149
0.0
 93
        0
 94
      127
282
     0
 72
     0
 77
     0
171
     0
175
     0
179
     0
273
     0
  0
XRECORD
  5
83B6
102
{ACAD_REACTORS
330
83B4
102
}
330
83B4
100
AcDbXrecord
280
     1
270
     1
271
     1
  0
XRECORD
  5
83B5
102
{ACAD_REACTORS
330
83B4
102
}
330
83B4
100
AcDbXrecord
280
     1
270
     1
271
     1
  0
XRECORD
  5
83B9
102
{ACAD_REACTORS
330
83B4
102
}
330
83B4
100
AcDbXrecord
280
     1
270
     1
271
     1
  0
XRECORD
  5
83B8
102
{ACAD_REACTORS
330
83B4
102
}
330
83B4
100
AcDbXrecord
280
     1
270
     1
271
     1
  0
XRECORD
  5
83BA
102
{ACAD_REACTORS
330
83B4
102
}
330
83B4
100
AcDbXrecord
280
     1
270
     1
271
     1
  0
XRECORD
  5
83B7
102
{ACAD_REACTORS
330
83B4
102
}
330
83B4
100
AcDbXrecord
280
     1
270
     1
271
     1
  0
XRECORD
  5
85A0
102
{ACAD_REACTORS
330
83AC
102
}
330
83AC
100
AcDbXrecord
280
     1
102
MATERIAL
148
0.0
149
0.0
149
0.0
 93
        0
 94
      127
282
     0
 72
     0
 77
     0
171
     0
175
     0
179
     0
273
     0
  0
XRECORD
  5
83AE
102
{ACAD_REACTORS
330
83AC
102
}
330
83AC
100
AcDbXrecord
280
     1
270
     1
271
     1
  0
XRECORD
  5
83AD
102
{ACAD_REACTORS
330
83AC
102
}
330
83AC
100
AcDbXrecord
280
     1
270
     1
271
     1
  0
XRECORD
  5
83B1
102
{ACAD_REACTORS
330
83AC
102
}
330
83AC
100
AcDbXrecord
280
     1
270
     1
271
     1
  0
XRECORD
  5
83B0
102
{ACAD_REACTORS
330
83AC
102
}
330
83AC
100
AcDbXrecord
280
     1
270
     1
271
     1
  0
XRECORD
  5
83B2
102
{ACAD_REACTORS
330
83AC
102
}
330
83AC
100
AcDbXrecord
280
     1
270
     1
271
     1
  0
XRECORD
  5
83AF
102
{ACAD_REACTORS
330
83AC
102
}
330
83AC
100
AcDbXrecord
280
     1
270
     1
271
     1
  0
XRECORD
  5
85A2
102
{ACAD_REACTORS
330
83BC
102
}
330
83BC
100
AcDbXrecord
280
     1
102
MATERIAL
148
0.0
149
0.0
149
0.0
 93
        0
 94
      127
282
     0
 72
     0
 77
     0
171
     0
175
     0
179
     0
273
     0
  0
XRECORD
  5
83BE
102
{ACAD_REACTORS
330
83BC
102
}
330
83BC
100
AcDbXrecord
280
     1
270
     1
271
     1
  0
XRECORD
  5
83BD
102
{ACAD_REACTORS
330
83BC
102
}
330
83BC
100
AcDbXrecord
280
     1
270
     1
271
     1
  0
XRECORD
  5
83C1
102
{ACAD_REACTORS
330
83BC
102
}
330
83BC
100
AcDbXrecord
280
     1
270
     1
271
     1
  0
XRECORD
  5
83C0
102
{ACAD_REACTORS
330
83BC
102
}
330
83BC
100
AcDbXrecord
280
     1
270
     1
271
     1
  0
XRECORD
  5
83C2
102
{ACAD_REACTORS
330
83BC
102
}
330
83BC
100
AcDbXrecord
280
     1
270
     1
271
     1
  0
XRECORD
  5
83BF
102
{ACAD_REACTORS
330
83BC
102
}
330
83BC
100
AcDbXrecord
280
     1
270
     1
271
     1
  0
XRECORD
  5
85D6
102
{ACAD_REACTORS
330
85D5
102
}
330
85D5
100
AcDbXrecord
280
     1
102
DISPLAYNAME
  1
Imperial24
102
FLAGS
 90
        0
  0
CELLSTYLEMAP
  5
859D
102
{ACAD_REACTORS
330
859C
102
}
330
859C
100
AcDbCellStyleMap
 90
        3
300
CELLSTYLE
  1
TABLEFORMAT_BEGIN
 90
        5
170
     1
 91
        0
 92
    32768
 62
   257
 93
        1
300
CONTENTFORMAT
  1
CONTENTFORMAT_BEGIN
 90
        0
 91
        0
 92
      512
 93
        0
300

 40
0.0
140
1.0
 94
        5
 62
     0
340
83EF
144
0.25
309
CONTENTFORMAT_END
171
     0
 94
        0
309
TABLEFORMAT_END
  1
CELLSTYLE_BEGIN
 90
        1
 91
        1
300
_TITLE
309
CELLSTYLE_END
300
CELLSTYLE
  1
TABLEFORMAT_BEGIN
 90
        5
170
     1
 91
        0
 92
        0
 62
   257
 93
        1
300
CONTENTFORMAT
  1
CONTENTFORMAT_BEGIN
 90
        0
 91
        0
 92
      512
 93
        0
300

 40
0.0
140
1.0
 94
        5
 62
     0
340
83EF
144
0.18
309
CONTENTFORMAT_END
171
     0
 94
        0
309
TABLEFORMAT_END
  1
CELLSTYLE_BEGIN
 90
        2
 91
        1
300
_HEADER
309
CELLSTYLE_END
300
CELLSTYLE
  1
TABLEFORMAT_BEGIN
 90
        5
170
     1
 91
        0
 92
        0
 62
   257
 93
        1
300
CONTENTFORMAT
  1
CONTENTFORMAT_BEGIN
 90
        0
 91
        0
 92
      512
 93
        0
300

 40
0.0
140
1.0
 94
        2
 62
     0
340
83EF
144
0.18
309
CONTENTFORMAT_END
171
     0
 94
        0
309
TABLEFORMAT_END
  1
CELLSTYLE_BEGIN
 90
        3
 91
        2
300
_DATA
309
CELLSTYLE_END
  0
XRECORD
  5
85D3
102
{ACAD_REACTORS
330
859C
102
}
330
859C
100
AcDbXrecord
280
     1
102
ACAD_ROUNDTRIP_PRE2007_TABLESTYLE
 90
      512
 91
        0
  1

 92
      512
 93
        0
  2

 94
      512
 95
        0
  3

  0
XRECORD
  5
85AE
102
{ACAD_REACTORS
330
85AD
102
}
330
85AD
100
AcDbXrecord
280
     1
102
RTVSPost2010Prop28
280
     1
102
RTVSPost2010PropOp28
 70
     1
102
RTVSPost2010Prop29
280
     1
102
RTVSPost2010PropOp29
 70
     1
102
RTVSPost2010Prop30
280
     0
102
RTVSPost2010PropOp30
 70
     1
102
RTVSPost2010Prop31
280
     0
102
RTVSPost2010PropOp31
 70
     1
102
RTVSPost2010Prop32
280
     0
102
RTVSPost2010PropOp32
 70
     1
102
RTVSPost2010Prop33
280
     0
102
RTVSPost2010PropOp33
 70
     1
102
RTVSPost2010Prop34
280
     0
102
RTVSPost2010PropOp34
 70
     1
102
RTVSPost2010Prop35
280
     0
102
RTVSPost2010PropOp35
 70
     1
102
RTVSPost2010Prop36
280
     0
102
RTVSPost2010PropOp36
 70
     1
102
RTVSPost2010Prop37
 90
       50
102
RTVSPost2010PropOp37
 70
     1
102
RTVSPost2010Prop38
140
0.0
102
RTVSPost2010PropOp38
 70
     1
102
RTVSPost2010Prop39
140
1.0
102
RTVSPost2010PropOp39
 70
     1
102
RTVSPost2010Prop40
 90
        0
102
RTVSPost2010PropOp40
 70
     1
102
RTVSPost2010Prop41ColorIndex
 90
       18
102
RTVSPost2010Prop41ColorRGB
 90
        0
102
RTVSPost2010PropOp41
 70
     1
102
RTVSPost2010Prop42
 90
       50
102
RTVSPost2010PropOp42
 70
     1
102
RTVSPost2010Prop43
 90
        3
102
RTVSPost2010PropOp43
 70
     1
102
RTVSPost2010Prop44ColorIndex
 90
        5
102
RTVSPost2010Prop44ColorRGB
 90
      255
102
RTVSPost2010PropOp44
 70
     1
102
RTVSPost2010Prop45
280
     0
102
RTVSPost2010PropOp45
 70
     1
102
RTVSPost2010Prop46
 90
       50
102
RTVSPost2010PropOp46
 70
     1
102
RTVSPost2010Prop47
 90
       50
102
RTVSPost2010PropOp47
 70
     1
102
RTVSPost2010Prop48
 90
       50
102
RTVSPost2010PropOp48
 70
     1
102
RTVSPost2010Prop49
280
     0
102
RTVSPost2010PropOp49
 70
     1
102
RTVSPost2010Prop50
 90
       50
102
RTVSPost2010PropOp50
 70
     1
102
RTVSPost2010Prop51ColorIndex
 90
      256
102
RTVSPost2010Prop51ColorRGB
 90
-16777216
102
RTVSPost2010PropOp51
 70
     0
102
RTVSPost2010Prop52
140
1.0
102
RTVSPost2010PropOp52
 70
     0
102
RTVSPost2010Prop53
 90
        2
102
RTVSPost2010PropOp53
 70
     1
102
RTVSPost2010Prop54
  1
strokes_ogs.tif
102
RTVSPost2010PropOp54
 70
     1
102
RTVSPost2010Prop55
280
     0
102
RTVSPost2010PropOp55
 70
     1
102
RTVSPost2010Prop56
140
1.0
102
RTVSPost2010PropOp56
 70
     1
102
RTVSPost2010Prop57
140
1.0
102
RTVSPost2010PropOp57
 70
     1
102
RTVSPropertyOp0
 70
     1
102
RTVSPropertyOp1
 70
     1
102
RTVSPropertyOp2
 70
     1
102
RTVSPropertyOp3
 70
     1
102
RTVSPropertyOp4
 70
     1
102
RTVSPropertyOp5
 70
     1
102
RTVSPropertyOp6
 70
     1
102
RTVSPropertyOp7
 70
     1
102
RTVSPropertyOp8
 70
     1
102
RTVSPropertyOp9
 70
     1
102
RTVSPropertyOp10
 70
     1
102
RTVSPropertyOp11
 70
     1
102
RTVSPropertyOp12
 70
     1
102
RTVSPropertyOp13
 70
     1
102
RTVSPropertyOp14
 70
     1
102
RTVSPropertyOp15
 70
     1
102
RTVSPropertyOp16
 70
     1
102
RTVSPropertyOp17
 70
     1
102
RTVSPropertyOp18
 70
     1
102
RTVSPropertyOp19
 70
     1
102
RTVSPropertyOp20
 70
     1
102
RTVSPropertyOp21
 70
     1
102
RTVSPropertyOp22
 70
     1
102
RTVSPropertyOp23
 70
     1
102
RTVSPropertyOp24
 70
     1
102
RTVSPropertyOp25
 70
     1
102
RTVSPropertyOp26
 70
     1
102
RTVSPropertyOp27
 70
     1
102
RTVSPropertyOp28
 70
     1
102
RTVSPropertyOp29
 70
     1
102
RTVSPropertyOp30
 70
     1
102
RTVSPropertyOp31
 70
     1
102
RTVSPropertyOp32
 70
     1
102
RTVSPropertyOp33
 70
     1
102
RTVSPropertyOp34
 70
     1
102
RTVSPropertyOp35
 70
     1
102
RTVSPropertyOp36
 70
     1
102
RTVSPropertyOp37
 70
     1
102
RTVSPropertyOp38
 70
     1
102
RTVSPropertyOp39
 70
     1
102
RTVSPropertyOp40
 70
     1
102
RTVSPropertyOp41
 70
     1
102
RTVSPropertyOp42
 70
     1
102
RTVSPropertyOp43
 70
     1
102
RTVSPropertyOp44
 70
     1
102
RTVSPropertyOp45
 70
     1
102
RTVSPropertyOp46
 70
     1
102
RTVSPropertyOp47
 70
     1
102
RTVSPropertyOp48
 70
     1
102
RTVSPropertyOp49
 70
     1
102
RTVSPropertyOp50
 70
     1
102
RTVSPropertyOp51
 70
     0
102
RTVSPropertyOp52
 70
     0
102
RTVSPropertyOp53
 70
     1
102
RTVSPropertyOp54
 70
     1
102
RTVSPropertyOp55
 70
     1
102
RTVSPropertyOp56
 70
     1
102
RTVSPropertyOp57
 70
     1
102
RTVSPropertyOp58
 70
     1
102
RTVSPropertyOp59
 70
     1
102
RTVSPropertyOp60
 70
     1
102
RTVSPropertyOp61
 70
     1
102
RTVSPropertyOp62
 70
     1
  0
XRECORD
  5
85AC
102
{ACAD_REACTORS
330
85AB
102
}
330
85AB
100
AcDbXrecord
280
     1
102
RTVSPost2010Prop28
280
     0
102
RTVSPost2010PropOp28
 70
     1
102
RTVSPost2010Prop29
280
     1
102
RTVSPost2010PropOp29
 70
     1
102
RTVSPost2010Prop30
280
     1
102
RTVSPost2010PropOp30
 70
     1
102
RTVSPost2010Prop31
280
     0
102
RTVSPost2010PropOp31
 70
     1
102
RTVSPost2010Prop32
280
     0
102
RTVSPost2010PropOp32
 70
     1
102
RTVSPost2010Prop33
280
     0
102
RTVSPost2010PropOp33
 70
     1
102
RTVSPost2010Prop34
280
     0
102
RTVSPost2010PropOp34
 70
     1
102
RTVSPost2010Prop35
280
     0
102
RTVSPost2010PropOp35
 70
     1
102
RTVSPost2010Prop36
280
     0
102
RTVSPost2010PropOp36
 70
     1
102
RTVSPost2010Prop37
 90
       50
102
RTVSPost2010PropOp37
 70
     1
102
RTVSPost2010Prop38
140
0.0
102
RTVSPost2010PropOp38
 70
     1
102
RTVSPost2010Prop39
140
1.0
102
RTVSPost2010PropOp39
 70
     1
102
RTVSPost2010Prop40
 90
        0
102
RTVSPost2010PropOp40
 70
     1
102
RTVSPost2010Prop41ColorIndex
 90
       18
102
RTVSPost2010Prop41ColorRGB
 90
        0
102
RTVSPost2010PropOp41
 70
     1
102
RTVSPost2010Prop42
 90
       50
102
RTVSPost2010PropOp42
 70
     1
102
RTVSPost2010Prop43
 90
        3
102
RTVSPost2010PropOp43
 70
     1
102
RTVSPost2010Prop44ColorIndex
 90
        5
102
RTVSPost2010Prop44ColorRGB
 90
      255
102
RTVSPost2010PropOp44
 70
     1
102
RTVSPost2010Prop45
280
     0
102
RTVSPost2010PropOp45
 70
     1
102
RTVSPost2010Prop46
 90
       50
102
RTVSPost2010PropOp46
 70
     1
102
RTVSPost2010Prop47
 90
       50
102
RTVSPost2010PropOp47
 70
     1
102
RTVSPost2010Prop48
 90
       50
102
RTVSPost2010PropOp48
 70
     1
102
RTVSPost2010Prop49
280
     0
102
RTVSPost2010PropOp49
 70
     1
102
RTVSPost2010Prop50
 90
       50
102
RTVSPost2010PropOp50
 70
     1
102
RTVSPost2010Prop51ColorIndex
 90
      256
102
RTVSPost2010Prop51ColorRGB
 90
-16777216
102
RTVSPost2010PropOp51
 70
     0
102
RTVSPost2010Prop52
140
1.0
102
RTVSPost2010PropOp52
 70
     0
102
RTVSPost2010Prop53
 90
        2
102
RTVSPost2010PropOp53
 70
     1
102
RTVSPost2010Prop54
  1
strokes_ogs.tif
102
RTVSPost2010PropOp54
 70
     1
102
RTVSPost2010Prop55
280
     0
102
RTVSPost2010PropOp55
 70
     1
102
RTVSPost2010Prop56
140
1.0
102
RTVSPost2010PropOp56
 70
     1
102
RTVSPost2010Prop57
140
1.0
102
RTVSPost2010PropOp57
 70
     1
102
RTVSPropertyOp0
 70
     1
102
RTVSPropertyOp1
 70
     1
102
RTVSPropertyOp2
 70
     1
102
RTVSPropertyOp3
 70
     1
102
RTVSPropertyOp4
 70
     1
102
RTVSPropertyOp5
 70
     1
102
RTVSPropertyOp6
 70
     1
102
RTVSPropertyOp7
 70
     1
102
RTVSPropertyOp8
 70
     1
102
RTVSPropertyOp9
 70
     1
102
RTVSPropertyOp10
 70
     1
102
RTVSPropertyOp11
 70
     1
102
RTVSPropertyOp12
 70
     1
102
RTVSPropertyOp13
 70
     1
102
RTVSPropertyOp14
 70
     1
102
RTVSPropertyOp15
 70
     1
102
RTVSPropertyOp16
 70
     1
102
RTVSPropertyOp17
 70
     1
102
RTVSPropertyOp18
 70
     1
102
RTVSPropertyOp19
 70
     1
102
RTVSPropertyOp20
 70
     1
102
RTVSPropertyOp21
 70
     1
102
RTVSPropertyOp22
 70
     1
102
RTVSPropertyOp23
 70
     1
102
RTVSPropertyOp24
 70
     1
102
RTVSPropertyOp25
 70
     1
102
RTVSPropertyOp26
 70
     1
102
RTVSPropertyOp27
 70
     1
102
RTVSPropertyOp28
 70
     1
102
RTVSPropertyOp29
 70
     1
102
RTVSPropertyOp30
 70
     1
102
RTVSPropertyOp31
 70
     1
102
RTVSPropertyOp32
 70
     1
102
RTVSPropertyOp33
 70
     1
102
RTVSPropertyOp34
 70
     1
102
RTVSPropertyOp35
 70
     1
102
RTVSPropertyOp36
 70
     1
102
RTVSPropertyOp37
 70
     1
102
RTVSPropertyOp38
 70
     1
102
RTVSPropertyOp39
 70
     1
102
RTVSPropertyOp40
 70
     1
102
RTVSPropertyOp41
 70
     1
102
RTVSPropertyOp42
 70
     1
102
RTVSPropertyOp43
 70
     1
102
RTVSPropertyOp44
 70
     1
102
RTVSPropertyOp45
 70
     1
102
RTVSPropertyOp46
 70
     1
102
RTVSPropertyOp47
 70
     1
102
RTVSPropertyOp48
 70
     1
102
RTVSPropertyOp49
 70
     1
102
RTVSPropertyOp50
 70
     1
102
RTVSPropertyOp51
 70
     0
102
RTVSPropertyOp52
 70
     0
102
RTVSPropertyOp53
 70
     1
102
RTVSPropertyOp54
 70
     1
102
RTVSPropertyOp55
 70
     1
102
RTVSPropertyOp56
 70
     1
102
RTVSPropertyOp57
 70
     1
102
RTVSPropertyOp58
 70
     1
102
RTVSPropertyOp59
 70
     1
102
RTVSPropertyOp60
 70
     1
102
RTVSPropertyOp61
 70
     1
102
RTVSPropertyOp62
 70
     1
  0
XRECORD
  5
85BA
102
{ACAD_REACTORS
330
85B9
102
}
330
85B9
100
AcDbXrecord
280
     1
102
RTVSPost2010Prop28
280
     0
102
RTVSPost2010PropOp28
 70
     1
102
RTVSPost2010Prop29
280
     1
102
RTVSPost2010PropOp29
 70
     1
102
RTVSPost2010Prop30
280
     1
102
RTVSPost2010PropOp30
 70
     1
102
RTVSPost2010Prop31
280
     0
102
RTVSPost2010PropOp31
 70
     1
102
RTVSPost2010Prop32
280
     0
102
RTVSPost2010PropOp32
 70
     1
102
RTVSPost2010Prop33
280
     0
102
RTVSPost2010PropOp33
 70
     1
102
RTVSPost2010Prop34
280
     0
102
RTVSPost2010PropOp34
 70
     1
102
RTVSPost2010Prop35
280
     0
102
RTVSPost2010PropOp35
 70
     1
102
RTVSPost2010Prop36
280
     0
102
RTVSPost2010PropOp36
 70
     1
102
RTVSPost2010Prop37
 90
       50
102
RTVSPost2010PropOp37
 70
     1
102
RTVSPost2010Prop38
140
0.0
102
RTVSPost2010PropOp38
 70
     1
102
RTVSPost2010Prop39
140
1.0
102
RTVSPost2010PropOp39
 70
     1
102
RTVSPost2010Prop40
 90
        0
102
RTVSPost2010PropOp40
 70
     1
102
RTVSPost2010Prop41ColorIndex
 90
       18
102
RTVSPost2010Prop41ColorRGB
 90
        0
102
RTVSPost2010PropOp41
 70
     1
102
RTVSPost2010Prop42
 90
       50
102
RTVSPost2010PropOp42
 70
     1
102
RTVSPost2010Prop43
 90
        3
102
RTVSPost2010PropOp43
 70
     1
102
RTVSPost2010Prop44ColorIndex
 90
        5
102
RTVSPost2010Prop44ColorRGB
 90
      255
102
RTVSPost2010PropOp44
 70
     1
102
RTVSPost2010Prop45
280
     0
102
RTVSPost2010PropOp45
 70
     1
102
RTVSPost2010Prop46
 90
       50
102
RTVSPost2010PropOp46
 70
     1
102
RTVSPost2010Prop47
 90
       50
102
RTVSPost2010PropOp47
 70
     1
102
RTVSPost2010Prop48
 90
       50
102
RTVSPost2010PropOp48
 70
     1
102
RTVSPost2010Prop49
280
     0
102
RTVSPost2010PropOp49
 70
     1
102
RTVSPost2010Prop50
 90
       50
102
RTVSPost2010PropOp50
 70
     1
102
RTVSPost2010Prop51ColorIndex
 90
      256
102
RTVSPost2010Prop51ColorRGB
 90
-16777216
102
RTVSPost2010PropOp51
 70
     0
102
RTVSPost2010Prop52
140
1.0
102
RTVSPost2010PropOp52
 70
     0
102
RTVSPost2010Prop53
 90
        2
102
RTVSPost2010PropOp53
 70
     1
102
RTVSPost2010Prop54
  1
strokes_ogs.tif
102
RTVSPost2010PropOp54
 70
     1
102
RTVSPost2010Prop55
280
     0
102
RTVSPost2010PropOp55
 70
     1
102
RTVSPost2010Prop56
140
1.0
102
RTVSPost2010PropOp56
 70
     1
102
RTVSPost2010Prop57
140
1.0
102
RTVSPost2010PropOp57
 70
     1
102
RTVSPropertyOp0
 70
     1
102
RTVSPropertyOp1
 70
     1
102
RTVSPropertyOp2
 70
     1
102
RTVSPropertyOp3
 70
     1
102
RTVSPropertyOp4
 70
     1
102
RTVSPropertyOp5
 70
     1
102
RTVSPropertyOp6
 70
     1
102
RTVSPropertyOp7
 70
     1
102
RTVSPropertyOp8
 70
     1
102
RTVSPropertyOp9
 70
     1
102
RTVSPropertyOp10
 70
     1
102
RTVSPropertyOp11
 70
     1
102
RTVSPropertyOp12
 70
     1
102
RTVSPropertyOp13
 70
     1
102
RTVSPropertyOp14
 70
     1
102
RTVSPropertyOp15
 70
     1
102
RTVSPropertyOp16
 70
     1
102
RTVSPropertyOp17
 70
     1
102
RTVSPropertyOp18
 70
     1
102
RTVSPropertyOp19
 70
     1
102
RTVSPropertyOp20
 70
     1
102
RTVSPropertyOp21
 70
     1
102
RTVSPropertyOp22
 70
     1
102
RTVSPropertyOp23
 70
     1
102
RTVSPropertyOp24
 70
     1
102
RTVSPropertyOp25
 70
     1
102
RTVSPropertyOp26
 70
     1
102
RTVSPropertyOp27
 70
     1
102
RTVSPropertyOp28
 70
     1
102
RTVSPropertyOp29
 70
     1
102
RTVSPropertyOp30
 70
     1
102
RTVSPropertyOp31
 70
     1
102
RTVSPropertyOp32
 70
     1
102
RTVSPropertyOp33
 70
     1
102
RTVSPropertyOp34
 70
     1
102
RTVSPropertyOp35
 70
     1
102
RTVSPropertyOp36
 70
     1
102
RTVSPropertyOp37
 70
     1
102
RTVSPropertyOp38
 70
     1
102
RTVSPropertyOp39
 70
     1
102
RTVSPropertyOp40
 70
     1
102
RTVSPropertyOp41
 70
     1
102
RTVSPropertyOp42
 70
     1
102
RTVSPropertyOp43
 70
     1
102
RTVSPropertyOp44
 70
     1
102
RTVSPropertyOp45
 70
     1
102
RTVSPropertyOp46
 70
     1
102
RTVSPropertyOp47
 70
     1
102
RTVSPropertyOp48
 70
     1
102
RTVSPropertyOp49
 70
     1
102
RTVSPropertyOp50
 70
     1
102
RTVSPropertyOp51
 70
     0
102
RTVSPropertyOp52
 70
     0
102
RTVSPropertyOp53
 70
     1
102
RTVSPropertyOp54
 70
     1
102
RTVSPropertyOp55
 70
     1
102
RTVSPropertyOp56
 70
     1
102
RTVSPropertyOp57
 70
     1
102
RTVSPropertyOp58
 70
     1
102
RTVSPropertyOp59
 70
     1
102
RTVSPropertyOp60
 70
     1
102
RTVSPropertyOp61
 70
     1
102
RTVSPropertyOp62
 70
     1
  0
XRECORD
  5
85C2
102
{ACAD_REACTORS
330
85C1
102
}
330
85C1
100
AcDbXrecord
280
     1
102
RTVSPost2010Prop28
280
     0
102
RTVSPost2010PropOp28
 70
     1
102
RTVSPost2010Prop29
280
     1
102
RTVSPost2010PropOp29
 70
     1
102
RTVSPost2010Prop30
280
     1
102
RTVSPost2010PropOp30
 70
     1
102
RTVSPost2010Prop31
280
     0
102
RTVSPost2010PropOp31
 70
     1
102
RTVSPost2010Prop32
280
     0
102
RTVSPost2010PropOp32
 70
     1
102
RTVSPost2010Prop33
280
     0
102
RTVSPost2010PropOp33
 70
     1
102
RTVSPost2010Prop34
280
     0
102
RTVSPost2010PropOp34
 70
     1
102
RTVSPost2010Prop35
280
     0
102
RTVSPost2010PropOp35
 70
     1
102
RTVSPost2010Prop36
280
     0
102
RTVSPost2010PropOp36
 70
     1
102
RTVSPost2010Prop37
 90
       50
102
RTVSPost2010PropOp37
 70
     1
102
RTVSPost2010Prop38
140
0.0
102
RTVSPost2010PropOp38
 70
     1
102
RTVSPost2010Prop39
140
1.0
102
RTVSPost2010PropOp39
 70
     1
102
RTVSPost2010Prop40
 90
        0
102
RTVSPost2010PropOp40
 70
     1
102
RTVSPost2010Prop41ColorIndex
 90
       18
102
RTVSPost2010Prop41ColorRGB
 90
        0
102
RTVSPost2010PropOp41
 70
     1
102
RTVSPost2010Prop42
 90
       50
102
RTVSPost2010PropOp42
 70
     1
102
RTVSPost2010Prop43
 90
        3
102
RTVSPost2010PropOp43
 70
     1
102
RTVSPost2010Prop44ColorIndex
 90
        5
102
RTVSPost2010Prop44ColorRGB
 90
      255
102
RTVSPost2010PropOp44
 70
     1
102
RTVSPost2010Prop45
280
     0
102
RTVSPost2010PropOp45
 70
     1
102
RTVSPost2010Prop46
 90
       50
102
RTVSPost2010PropOp46
 70
     1
102
RTVSPost2010Prop47
 90
       50
102
RTVSPost2010PropOp47
 70
     1
102
RTVSPost2010Prop48
 90
       50
102
RTVSPost2010PropOp48
 70
     1
102
RTVSPost2010Prop49
280
     0
102
RTVSPost2010PropOp49
 70
     1
102
RTVSPost2010Prop50
 90
       50
102
RTVSPost2010PropOp50
 70
     1
102
RTVSPost2010Prop51ColorIndex
 90
      256
102
RTVSPost2010Prop51ColorRGB
 90
-16777216
102
RTVSPost2010PropOp51
 70
     0
102
RTVSPost2010Prop52
140
1.0
102
RTVSPost2010PropOp52
 70
     0
102
RTVSPost2010Prop53
 90
        2
102
RTVSPost2010PropOp53
 70
     1
102
RTVSPost2010Prop54
  1
strokes_ogs.tif
102
RTVSPost2010PropOp54
 70
     1
102
RTVSPost2010Prop55
280
     0
102
RTVSPost2010PropOp55
 70
     1
102
RTVSPost2010Prop56
140
1.0
102
RTVSPost2010PropOp56
 70
     1
102
RTVSPost2010Prop57
140
1.0
102
RTVSPost2010PropOp57
 70
     1
102
RTVSPropertyOp0
 70
     1
102
RTVSPropertyOp1
 70
     1
102
RTVSPropertyOp2
 70
     1
102
RTVSPropertyOp3
 70
     1
102
RTVSPropertyOp4
 70
     1
102
RTVSPropertyOp5
 70
     1
102
RTVSPropertyOp6
 70
     1
102
RTVSPropertyOp7
 70
     1
102
RTVSPropertyOp8
 70
     1
102
RTVSPropertyOp9
 70
     1
102
RTVSPropertyOp10
 70
     1
102
RTVSPropertyOp11
 70
     1
102
RTVSPropertyOp12
 70
     1
102
RTVSPropertyOp13
 70
     1
102
RTVSPropertyOp14
 70
     1
102
RTVSPropertyOp15
 70
     1
102
RTVSPropertyOp16
 70
     1
102
RTVSPropertyOp17
 70
     1
102
RTVSPropertyOp18
 70
     1
102
RTVSPropertyOp19
 70
     1
102
RTVSPropertyOp20
 70
     1
102
RTVSPropertyOp21
 70
     1
102
RTVSPropertyOp22
 70
     1
102
RTVSPropertyOp23
 70
     1
102
RTVSPropertyOp24
 70
     1
102
RTVSPropertyOp25
 70
     1
102
RTVSPropertyOp26
 70
     1
102
RTVSPropertyOp27
 70
     1
102
RTVSPropertyOp28
 70
     1
102
RTVSPropertyOp29
 70
     1
102
RTVSPropertyOp30
 70
     1
102
RTVSPropertyOp31
 70
     1
102
RTVSPropertyOp32
 70
     1
102
RTVSPropertyOp33
 70
     1
102
RTVSPropertyOp34
 70
     1
102
RTVSPropertyOp35
 70
     1
102
RTVSPropertyOp36
 70
     1
102
RTVSPropertyOp37
 70
     1
102
RTVSPropertyOp38
 70
     1
102
RTVSPropertyOp39
 70
     1
102
RTVSPropertyOp40
 70
     1
102
RTVSPropertyOp41
 70
     1
102
RTVSPropertyOp42
 70
     1
102
RTVSPropertyOp43
 70
     1
102
RTVSPropertyOp44
 70
     1
102
RTVSPropertyOp45
 70
     1
102
RTVSPropertyOp46
 70
     1
102
RTVSPropertyOp47
 70
     1
102
RTVSPropertyOp48
 70
     1
102
RTVSPropertyOp49
 70
     1
102
RTVSPropertyOp50
 70
     1
102
RTVSPropertyOp51
 70
     0
102
RTVSPropertyOp52
 70
     0
102
RTVSPropertyOp53
 70
     1
102
RTVSPropertyOp54
 70
     1
102
RTVSPropertyOp55
 70
     1
102
RTVSPropertyOp56
 70
     1
102
RTVSPropertyOp57
 70
     1
102
RTVSPropertyOp58
 70
     1
102
RTVSPropertyOp59
 70
     1
102
RTVSPropertyOp60
 70
     1
102
RTVSPropertyOp61
 70
     1
102
RTVSPropertyOp62
 70
     1
  0
XRECORD
  5
85B4
102
{ACAD_REACTORS
330
85B3
102
}
330
85B3
100
AcDbXrecord
280
     1
102
RTVSPost2010Prop28
280
     0
102
RTVSPost2010PropOp28
 70
     1
102
RTVSPost2010Prop29
280
     1
102
RTVSPost2010PropOp29
 70
     1
102
RTVSPost2010Prop30
280
     1
102
RTVSPost2010PropOp30
 70
     1
102
RTVSPost2010Prop31
280
     0
102
RTVSPost2010PropOp31
 70
     1
102
RTVSPost2010Prop32
280
     0
102
RTVSPost2010PropOp32
 70
     1
102
RTVSPost2010Prop33
280
     0
102
RTVSPost2010PropOp33
 70
     1
102
RTVSPost2010Prop34
280
     0
102
RTVSPost2010PropOp34
 70
     1
102
RTVSPost2010Prop35
280
     0
102
RTVSPost2010PropOp35
 70
     1
102
RTVSPost2010Prop36
280
     0
102
RTVSPost2010PropOp36
 70
     1
102
RTVSPost2010Prop37
 90
       50
102
RTVSPost2010PropOp37
 70
     1
102
RTVSPost2010Prop38
140
0.0
102
RTVSPost2010PropOp38
 70
     1
102
RTVSPost2010Prop39
140
1.0
102
RTVSPost2010PropOp39
 70
     1
102
RTVSPost2010Prop40
 90
        0
102
RTVSPost2010PropOp40
 70
     1
102
RTVSPost2010Prop41ColorIndex
 90
       18
102
RTVSPost2010Prop41ColorRGB
 90
        0
102
RTVSPost2010PropOp41
 70
     1
102
RTVSPost2010Prop42
 90
       50
102
RTVSPost2010PropOp42
 70
     1
102
RTVSPost2010Prop43
 90
        3
102
RTVSPost2010PropOp43
 70
     1
102
RTVSPost2010Prop44ColorIndex
 90
        5
102
RTVSPost2010Prop44ColorRGB
 90
      255
102
RTVSPost2010PropOp44
 70
     1
102
RTVSPost2010Prop45
280
     0
102
RTVSPost2010PropOp45
 70
     1
102
RTVSPost2010Prop46
 90
       50
102
RTVSPost2010PropOp46
 70
     1
102
RTVSPost2010Prop47
 90
       50
102
RTVSPost2010PropOp47
 70
     1
102
RTVSPost2010Prop48
 90
       50
102
RTVSPost2010PropOp48
 70
     1
102
RTVSPost2010Prop49
280
     0
102
RTVSPost2010PropOp49
 70
     1
102
RTVSPost2010Prop50
 90
       50
102
RTVSPost2010PropOp50
 70
     1
102
RTVSPost2010Prop51ColorIndex
 90
      256
102
RTVSPost2010Prop51ColorRGB
 90
-16777216
102
RTVSPost2010PropOp51
 70
     0
102
RTVSPost2010Prop52
140
1.0
102
RTVSPost2010PropOp52
 70
     0
102
RTVSPost2010Prop53
 90
        2
102
RTVSPost2010PropOp53
 70
     1
102
RTVSPost2010Prop54
  1
strokes_ogs.tif
102
RTVSPost2010PropOp54
 70
     1
102
RTVSPost2010Prop55
280
     0
102
RTVSPost2010PropOp55
 70
     1
102
RTVSPost2010Prop56
140
1.0
102
RTVSPost2010PropOp56
 70
     1
102
RTVSPost2010Prop57
140
1.0
102
RTVSPost2010PropOp57
 70
     1
102
RTVSPropertyOp0
 70
     1
102
RTVSPropertyOp1
 70
     1
102
RTVSPropertyOp2
 70
     1
102
RTVSPropertyOp3
 70
     1
102
RTVSPropertyOp4
 70
     1
102
RTVSPropertyOp5
 70
     1
102
RTVSPropertyOp6
 70
     1
102
RTVSPropertyOp7
 70
     1
102
RTVSPropertyOp8
 70
     1
102
RTVSPropertyOp9
 70
     1
102
RTVSPropertyOp10
 70
     1
102
RTVSPropertyOp11
 70
     1
102
RTVSPropertyOp12
 70
     1
102
RTVSPropertyOp13
 70
     1
102
RTVSPropertyOp14
 70
     1
102
RTVSPropertyOp15
 70
     1
102
RTVSPropertyOp16
 70
     1
102
RTVSPropertyOp17
 70
     1
102
RTVSPropertyOp18
 70
     1
102
RTVSPropertyOp19
 70
     1
102
RTVSPropertyOp20
 70
     1
102
RTVSPropertyOp21
 70
     1
102
RTVSPropertyOp22
 70
     1
102
RTVSPropertyOp23
 70
     1
102
RTVSPropertyOp24
 70
     1
102
RTVSPropertyOp25
 70
     1
102
RTVSPropertyOp26
 70
     1
102
RTVSPropertyOp27
 70
     1
102
RTVSPropertyOp28
 70
     1
102
RTVSPropertyOp29
 70
     1
102
RTVSPropertyOp30
 70
     1
102
RTVSPropertyOp31
 70
     1
102
RTVSPropertyOp32
 70
     1
102
RTVSPropertyOp33
 70
     1
102
RTVSPropertyOp34
 70
     1
102
RTVSPropertyOp35
 70
     1
102
RTVSPropertyOp36
 70
     1
102
RTVSPropertyOp37
 70
     1
102
RTVSPropertyOp38
 70
     1
102
RTVSPropertyOp39
 70
     1
102
RTVSPropertyOp40
 70
     1
102
RTVSPropertyOp41
 70
     1
102
RTVSPropertyOp42
 70
     1
102
RTVSPropertyOp43
 70
     1
102
RTVSPropertyOp44
 70
     1
102
RTVSPropertyOp45
 70
     1
102
RTVSPropertyOp46
 70
     1
102
RTVSPropertyOp47
 70
     1
102
RTVSPropertyOp48
 70
     1
102
RTVSPropertyOp49
 70
     1
102
RTVSPropertyOp50
 70
     1
102
RTVSPropertyOp51
 70
     0
102
RTVSPropertyOp52
 70
     0
102
RTVSPropertyOp53
 70
     1
102
RTVSPropertyOp54
 70
     1
102
RTVSPropertyOp55
 70
     1
102
RTVSPropertyOp56
 70
     1
102
RTVSPropertyOp57
 70
     1
102
RTVSPropertyOp58
 70
     1
102
RTVSPropertyOp59
 70
     1
102
RTVSPropertyOp60
 70
     1
102
RTVSPropertyOp61
 70
     1
102
RTVSPropertyOp62
 70
     1
  0
XRECORD
  5
85B8
102
{ACAD_REACTORS
330
85B7
102
}
330
85B7
100
AcDbXrecord
280
     1
102
RTVSPost2010Prop28
280
     0
102
RTVSPost2010PropOp28
 70
     1
102
RTVSPost2010Prop29
280
     1
102
RTVSPost2010PropOp29
 70
     1
102
RTVSPost2010Prop30
280
     1
102
RTVSPost2010PropOp30
 70
     1
102
RTVSPost2010Prop31
280
     0
102
RTVSPost2010PropOp31
 70
     1
102
RTVSPost2010Prop32
280
     0
102
RTVSPost2010PropOp32
 70
     1
102
RTVSPost2010Prop33
280
     0
102
RTVSPost2010PropOp33
 70
     1
102
RTVSPost2010Prop34
280
     0
102
RTVSPost2010PropOp34
 70
     1
102
RTVSPost2010Prop35
280
     0
102
RTVSPost2010PropOp35
 70
     1
102
RTVSPost2010Prop36
280
     0
102
RTVSPost2010PropOp36
 70
     1
102
RTVSPost2010Prop37
 90
       50
102
RTVSPost2010PropOp37
 70
     1
102
RTVSPost2010Prop38
140
0.0
102
RTVSPost2010PropOp38
 70
     1
102
RTVSPost2010Prop39
140
1.0
102
RTVSPost2010PropOp39
 70
     1
102
RTVSPost2010Prop40
 90
        0
102
RTVSPost2010PropOp40
 70
     1
102
RTVSPost2010Prop41ColorIndex
 90
       18
102
RTVSPost2010Prop41ColorRGB
 90
        0
102
RTVSPost2010PropOp41
 70
     1
102
RTVSPost2010Prop42
 90
       50
102
RTVSPost2010PropOp42
 70
     1
102
RTVSPost2010Prop43
 90
        3
102
RTVSPost2010PropOp43
 70
     1
102
RTVSPost2010Prop44ColorIndex
 90
        5
102
RTVSPost2010Prop44ColorRGB
 90
      255
102
RTVSPost2010PropOp44
 70
     1
102
RTVSPost2010Prop45
280
     0
102
RTVSPost2010PropOp45
 70
     1
102
RTVSPost2010Prop46
 90
       50
102
RTVSPost2010PropOp46
 70
     1
102
RTVSPost2010Prop47
 90
       50
102
RTVSPost2010PropOp47
 70
     1
102
RTVSPost2010Prop48
 90
       50
102
RTVSPost2010PropOp48
 70
     1
102
RTVSPost2010Prop49
280
     0
102
RTVSPost2010PropOp49
 70
     1
102
RTVSPost2010Prop50
 90
       50
102
RTVSPost2010PropOp50
 70
     1
102
RTVSPost2010Prop51ColorIndex
 90
      256
102
RTVSPost2010Prop51ColorRGB
 90
-16777216
102
RTVSPost2010PropOp51
 70
     0
102
RTVSPost2010Prop52
140
1.0
102
RTVSPost2010PropOp52
 70
     0
102
RTVSPost2010Prop53
 90
        2
102
RTVSPost2010PropOp53
 70
     1
102
RTVSPost2010Prop54
  1
strokes_ogs.tif
102
RTVSPost2010PropOp54
 70
     1
102
RTVSPost2010Prop55
280
     0
102
RTVSPost2010PropOp55
 70
     1
102
RTVSPost2010Prop56
140
1.0
102
RTVSPost2010PropOp56
 70
     1
102
RTVSPost2010Prop57
140
1.0
102
RTVSPost2010PropOp57
 70
     1
102
RTVSPropertyOp0
 70
     1
102
RTVSPropertyOp1
 70
     1
102
RTVSPropertyOp2
 70
     1
102
RTVSPropertyOp3
 70
     1
102
RTVSPropertyOp4
 70
     1
102
RTVSPropertyOp5
 70
     1
102
RTVSPropertyOp6
 70
     1
102
RTVSPropertyOp7
 70
     1
102
RTVSPropertyOp8
 70
     1
102
RTVSPropertyOp9
 70
     1
102
RTVSPropertyOp10
 70
     1
102
RTVSPropertyOp11
 70
     1
102
RTVSPropertyOp12
 70
     1
102
RTVSPropertyOp13
 70
     1
102
RTVSPropertyOp14
 70
     1
102
RTVSPropertyOp15
 70
     1
102
RTVSPropertyOp16
 70
     1
102
RTVSPropertyOp17
 70
     1
102
RTVSPropertyOp18
 70
     1
102
RTVSPropertyOp19
 70
     1
102
RTVSPropertyOp20
 70
     1
102
RTVSPropertyOp21
 70
     1
102
RTVSPropertyOp22
 70
     1
102
RTVSPropertyOp23
 70
     1
102
RTVSPropertyOp24
 70
     1
102
RTVSPropertyOp25
 70
     1
102
RTVSPropertyOp26
 70
     1
102
RTVSPropertyOp27
 70
     1
102
RTVSPropertyOp28
 70
     1
102
RTVSPropertyOp29
 70
     1
102
RTVSPropertyOp30
 70
     1
102
RTVSPropertyOp31
 70
     1
102
RTVSPropertyOp32
 70
     1
102
RTVSPropertyOp33
 70
     1
102
RTVSPropertyOp34
 70
     1
102
RTVSPropertyOp35
 70
     1
102
RTVSPropertyOp36
 70
     1
102
RTVSPropertyOp37
 70
     1
102
RTVSPropertyOp38
 70
     1
102
RTVSPropertyOp39
 70
     1
102
RTVSPropertyOp40
 70
     1
102
RTVSPropertyOp41
 70
     1
102
RTVSPropertyOp42
 70
     1
102
RTVSPropertyOp43
 70
     1
102
RTVSPropertyOp44
 70
     1
102
RTVSPropertyOp45
 70
     1
102
RTVSPropertyOp46
 70
     1
102
RTVSPropertyOp47
 70
     1
102
RTVSPropertyOp48
 70
     1
102
RTVSPropertyOp49
 70
     1
102
RTVSPropertyOp50
 70
     1
102
RTVSPropertyOp51
 70
     0
102
RTVSPropertyOp52
 70
     0
102
RTVSPropertyOp53
 70
     1
102
RTVSPropertyOp54
 70
     1
102
RTVSPropertyOp55
 70
     1
102
RTVSPropertyOp56
 70
     1
102
RTVSPropertyOp57
 70
     1
102
RTVSPropertyOp58
 70
     1
102
RTVSPropertyOp59
 70
     1
102
RTVSPropertyOp60
 70
     1
102
RTVSPropertyOp61
 70
     1
102
RTVSPropertyOp62
 70
     1
  0
XRECORD
  5
85D2
102
{ACAD_REACTORS
330
85D1
102
}
330
85D1
100
AcDbXrecord
280
     1
102
RTVSPost2010Prop28
280
     0
102
RTVSPost2010PropOp28
 70
     1
102
RTVSPost2010Prop29
280
     1
102
RTVSPost2010PropOp29
 70
     1
102
RTVSPost2010Prop30
280
     1
102
RTVSPost2010PropOp30
 70
     1
102
RTVSPost2010Prop31
280
     0
102
RTVSPost2010PropOp31
 70
     1
102
RTVSPost2010Prop32
280
     0
102
RTVSPost2010PropOp32
 70
     1
102
RTVSPost2010Prop33
280
     0
102
RTVSPost2010PropOp33
 70
     1
102
RTVSPost2010Prop34
280
     0
102
RTVSPost2010PropOp34
 70
     1
102
RTVSPost2010Prop35
280
     0
102
RTVSPost2010PropOp35
 70
     1
102
RTVSPost2010Prop36
280
     0
102
RTVSPost2010PropOp36
 70
     1
102
RTVSPost2010Prop37
 90
       50
102
RTVSPost2010PropOp37
 70
     0
102
RTVSPost2010Prop38
140
0.0
102
RTVSPost2010PropOp38
 70
     0
102
RTVSPost2010Prop39
140
1.0
102
RTVSPost2010PropOp39
 70
     0
102
RTVSPost2010Prop40
 90
        0
102
RTVSPost2010PropOp40
 70
     0
102
RTVSPost2010Prop41ColorIndex
 90
       18
102
RTVSPost2010Prop41ColorRGB
 90
        0
102
RTVSPost2010PropOp41
 70
     0
102
RTVSPost2010Prop42
 90
       50
102
RTVSPost2010PropOp42
 70
     0
102
RTVSPost2010Prop43
 90
        3
102
RTVSPost2010PropOp43
 70
     0
102
RTVSPost2010Prop44ColorIndex
 90
        5
102
RTVSPost2010Prop44ColorRGB
 90
      255
102
RTVSPost2010PropOp44
 70
     0
102
RTVSPost2010Prop45
280
     0
102
RTVSPost2010PropOp45
 70
     1
102
RTVSPost2010Prop46
 90
       50
102
RTVSPost2010PropOp46
 70
     0
102
RTVSPost2010Prop47
 90
       50
102
RTVSPost2010PropOp47
 70
     0
102
RTVSPost2010Prop48
 90
       50
102
RTVSPost2010PropOp48
 70
     0
102
RTVSPost2010Prop49
280
     0
102
RTVSPost2010PropOp49
 70
     1
102
RTVSPost2010Prop50
 90
       50
102
RTVSPost2010PropOp50
 70
     0
102
RTVSPost2010Prop51ColorIndex
 90
      256
102
RTVSPost2010Prop51ColorRGB
 90
-16777216
102
RTVSPost2010PropOp51
 70
     0
102
RTVSPost2010Prop52
140
1.0
102
RTVSPost2010PropOp52
 70
     0
102
RTVSPost2010Prop53
 90
        2
102
RTVSPost2010PropOp53
 70
     0
102
RTVSPost2010Prop54
  1
strokes_ogs.tif
102
RTVSPost2010PropOp54
 70
     0
102
RTVSPost2010Prop55
280
     0
102
RTVSPost2010PropOp55
 70
     1
102
RTVSPost2010Prop56
140
1.0
102
RTVSPost2010PropOp56
 70
     0
102
RTVSPost2010Prop57
140
1.0
102
RTVSPost2010PropOp57
 70
     0
102
RTVSPropertyOp0
 70
     0
102
RTVSPropertyOp1
 70
     0
102
RTVSPropertyOp2
 70
     0
102
RTVSPropertyOp3
 70
     0
102
RTVSPropertyOp4
 70
     0
102
RTVSPropertyOp5
 70
     0
102
RTVSPropertyOp6
 70
     0
102
RTVSPropertyOp7
 70
     0
102
RTVSPropertyOp8
 70
     0
102
RTVSPropertyOp9
 70
     0
102
RTVSPropertyOp10
 70
     0
102
RTVSPropertyOp11
 70
     0
102
RTVSPropertyOp12
 70
     0
102
RTVSPropertyOp13
 70
     0
102
RTVSPropertyOp14
 70
     2
102
RTVSPropertyOp15
 70
     0
102
RTVSPropertyOp16
 70
     0
102
RTVSPropertyOp17
 70
     0
102
RTVSPropertyOp18
 70
     0
102
RTVSPropertyOp19
 70
     0
102
RTVSPropertyOp20
 70
     0
102
RTVSPropertyOp21
 70
     0
102
RTVSPropertyOp22
 70
     0
102
RTVSPropertyOp23
 70
     0
102
RTVSPropertyOp24
 70
     0
102
RTVSPropertyOp25
 70
     0
102
RTVSPropertyOp26
 70
     0
102
RTVSPropertyOp27
 70
     0
102
RTVSPropertyOp28
 70
     1
102
RTVSPropertyOp29
 70
     1
102
RTVSPropertyOp30
 70
     1
102
RTVSPropertyOp31
 70
     1
102
RTVSPropertyOp32
 70
     1
102
RTVSPropertyOp33
 70
     1
102
RTVSPropertyOp34
 70
     1
102
RTVSPropertyOp35
 70
     1
102
RTVSPropertyOp36
 70
     1
102
RTVSPropertyOp37
 70
     0
102
RTVSPropertyOp38
 70
     0
102
RTVSPropertyOp39
 70
     0
102
RTVSPropertyOp40
 70
     0
102
RTVSPropertyOp41
 70
     0
102
RTVSPropertyOp42
 70
     0
102
RTVSPropertyOp43
 70
     0
102
RTVSPropertyOp44
 70
     0
102
RTVSPropertyOp45
 70
     1
102
RTVSPropertyOp46
 70
     0
102
RTVSPropertyOp47
 70
     0
102
RTVSPropertyOp48
 70
     0
102
RTVSPropertyOp49
 70
     1
102
RTVSPropertyOp50
 70
     0
102
RTVSPropertyOp51
 70
     0
102
RTVSPropertyOp52
 70
     0
102
RTVSPropertyOp53
 70
     0
102
RTVSPropertyOp54
 70
     0
102
RTVSPropertyOp55
 70
     1
102
RTVSPropertyOp56
 70
     0
102
RTVSPropertyOp57
 70
     0
102
RTVSPropertyOp58
 70
     0
102
RTVSPropertyOp59
 70
     0
102
RTVSPropertyOp60
 70
     0
102
RTVSPropertyOp61
 70
     0
102
RTVSPropertyOp62
 70
     0
  0
XRECORD
  5
85C0
102
{ACAD_REACTORS
330
85BF
102
}
330
85BF
100
AcDbXrecord
280
     1
102
RTVSPost2010Prop28
280
     0
102
RTVSPost2010PropOp28
 70
     1
102
RTVSPost2010Prop29
280
     1
102
RTVSPost2010PropOp29
 70
     1
102
RTVSPost2010Prop30
280
     1
102
RTVSPost2010PropOp30
 70
     1
102
RTVSPost2010Prop31
280
     0
102
RTVSPost2010PropOp31
 70
     1
102
RTVSPost2010Prop32
280
     0
102
RTVSPost2010PropOp32
 70
     1
102
RTVSPost2010Prop33
280
     0
102
RTVSPost2010PropOp33
 70
     1
102
RTVSPost2010Prop34
280
     0
102
RTVSPost2010PropOp34
 70
     1
102
RTVSPost2010Prop35
280
     0
102
RTVSPost2010PropOp35
 70
     1
102
RTVSPost2010Prop36
280
     0
102
RTVSPost2010PropOp36
 70
     1
102
RTVSPost2010Prop37
 90
       50
102
RTVSPost2010PropOp37
 70
     1
102
RTVSPost2010Prop38
140
0.0
102
RTVSPost2010PropOp38
 70
     1
102
RTVSPost2010Prop39
140
1.0
102
RTVSPost2010PropOp39
 70
     1
102
RTVSPost2010Prop40
 90
        0
102
RTVSPost2010PropOp40
 70
     1
102
RTVSPost2010Prop41ColorIndex
 90
       18
102
RTVSPost2010Prop41ColorRGB
 90
        0
102
RTVSPost2010PropOp41
 70
     1
102
RTVSPost2010Prop42
 90
       50
102
RTVSPost2010PropOp42
 70
     1
102
RTVSPost2010Prop43
 90
        3
102
RTVSPost2010PropOp43
 70
     1
102
RTVSPost2010Prop44ColorIndex
 90
        5
102
RTVSPost2010Prop44ColorRGB
 90
      255
102
RTVSPost2010PropOp44
 70
     1
102
RTVSPost2010Prop45
280
     0
102
RTVSPost2010PropOp45
 70
     1
102
RTVSPost2010Prop46
 90
       50
102
RTVSPost2010PropOp46
 70
     1
102
RTVSPost2010Prop47
 90
       50
102
RTVSPost2010PropOp47
 70
     1
102
RTVSPost2010Prop48
 90
       50
102
RTVSPost2010PropOp48
 70
     1
102
RTVSPost2010Prop49
280
     0
102
RTVSPost2010PropOp49
 70
     1
102
RTVSPost2010Prop50
 90
       50
102
RTVSPost2010PropOp50
 70
     1
102
RTVSPost2010Prop51ColorIndex
 90
      256
102
RTVSPost2010Prop51ColorRGB
 90
-16777216
102
RTVSPost2010PropOp51
 70
     0
102
RTVSPost2010Prop52
140
1.0
102
RTVSPost2010PropOp52
 70
     0
102
RTVSPost2010Prop53
 90
        2
102
RTVSPost2010PropOp53
 70
     1
102
RTVSPost2010Prop54
  1
strokes_ogs.tif
102
RTVSPost2010PropOp54
 70
     1
102
RTVSPost2010Prop55
280
     0
102
RTVSPost2010PropOp55
 70
     1
102
RTVSPost2010Prop56
140
1.0
102
RTVSPost2010PropOp56
 70
     1
102
RTVSPost2010Prop57
140
1.0
102
RTVSPost2010PropOp57
 70
     1
102
RTVSPropertyOp0
 70
     1
102
RTVSPropertyOp1
 70
     1
102
RTVSPropertyOp2
 70
     1
102
RTVSPropertyOp3
 70
     1
102
RTVSPropertyOp4
 70
     1
102
RTVSPropertyOp5
 70
     1
102
RTVSPropertyOp6
 70
     1
102
RTVSPropertyOp7
 70
     1
102
RTVSPropertyOp8
 70
     1
102
RTVSPropertyOp9
 70
     1
102
RTVSPropertyOp10
 70
     1
102
RTVSPropertyOp11
 70
     1
102
RTVSPropertyOp12
 70
     1
102
RTVSPropertyOp13
 70
     1
102
RTVSPropertyOp14
 70
     1
102
RTVSPropertyOp15
 70
     1
102
RTVSPropertyOp16
 70
     1
102
RTVSPropertyOp17
 70
     1
102
RTVSPropertyOp18
 70
     1
102
RTVSPropertyOp19
 70
     1
102
RTVSPropertyOp20
 70
     1
102
RTVSPropertyOp21
 70
     1
102
RTVSPropertyOp22
 70
     1
102
RTVSPropertyOp23
 70
     1
102
RTVSPropertyOp24
 70
     1
102
RTVSPropertyOp25
 70
     1
102
RTVSPropertyOp26
 70
     1
102
RTVSPropertyOp27
 70
     1
102
RTVSPropertyOp28
 70
     1
102
RTVSPropertyOp29
 70
     1
102
RTVSPropertyOp30
 70
     1
102
RTVSPropertyOp31
 70
     1
102
RTVSPropertyOp32
 70
     1
102
RTVSPropertyOp33
 70
     1
102
RTVSPropertyOp34
 70
     1
102
RTVSPropertyOp35
 70
     1
102
RTVSPropertyOp36
 70
     1
102
RTVSPropertyOp37
 70
     1
102
RTVSPropertyOp38
 70
     1
102
RTVSPropertyOp39
 70
     1
102
RTVSPropertyOp40
 70
     1
102
RTVSPropertyOp41
 70
     1
102
RTVSPropertyOp42
 70
     1
102
RTVSPropertyOp43
 70
     1
102
RTVSPropertyOp44
 70
     1
102
RTVSPropertyOp45
 70
     1
102
RTVSPropertyOp46
 70
     1
102
RTVSPropertyOp47
 70
     1
102
RTVSPropertyOp48
 70
     1
102
RTVSPropertyOp49
 70
     1
102
RTVSPropertyOp50
 70
     1
102
RTVSPropertyOp51
 70
     0
102
RTVSPropertyOp52
 70
     0
102
RTVSPropertyOp53
 70
     1
102
RTVSPropertyOp54
 70
     1
102
RTVSPropertyOp55
 70
     1
102
RTVSPropertyOp56
 70
     1
102
RTVSPropertyOp57
 70
     1
102
RTVSPropertyOp58
 70
     1
102
RTVSPropertyOp59
 70
     1
102
RTVSPropertyOp60
 70
     1
102
RTVSPropertyOp61
 70
     1
102
RTVSPropertyOp62
 70
     1
  0
XRECORD
  5
85A4
102
{ACAD_REACTORS
330
85A3
102
}
330
85A3
100
AcDbXrecord
280
     1
102
RTVSPost2010Prop28
280
     0
102
RTVSPost2010PropOp28
 70
     1
102
RTVSPost2010Prop29
280
     1
102
RTVSPost2010PropOp29
 70
     1
102
RTVSPost2010Prop30
280
     1
102
RTVSPost2010PropOp30
 70
     1
102
RTVSPost2010Prop31
280
     0
102
RTVSPost2010PropOp31
 70
     1
102
RTVSPost2010Prop32
280
     0
102
RTVSPost2010PropOp32
 70
     1
102
RTVSPost2010Prop33
280
     0
102
RTVSPost2010PropOp33
 70
     1
102
RTVSPost2010Prop34
280
     0
102
RTVSPost2010PropOp34
 70
     1
102
RTVSPost2010Prop35
280
     0
102
RTVSPost2010PropOp35
 70
     1
102
RTVSPost2010Prop36
280
     0
102
RTVSPost2010PropOp36
 70
     1
102
RTVSPost2010Prop37
 90
       50
102
RTVSPost2010PropOp37
 70
     1
102
RTVSPost2010Prop38
140
0.0
102
RTVSPost2010PropOp38
 70
     1
102
RTVSPost2010Prop39
140
1.0
102
RTVSPost2010PropOp39
 70
     1
102
RTVSPost2010Prop40
 90
        0
102
RTVSPost2010PropOp40
 70
     1
102
RTVSPost2010Prop41ColorIndex
 90
       18
102
RTVSPost2010Prop41ColorRGB
 90
        0
102
RTVSPost2010PropOp41
 70
     1
102
RTVSPost2010Prop42
 90
       50
102
RTVSPost2010PropOp42
 70
     1
102
RTVSPost2010Prop43
 90
        3
102
RTVSPost2010PropOp43
 70
     1
102
RTVSPost2010Prop44ColorIndex
 90
        5
102
RTVSPost2010Prop44ColorRGB
 90
      255
102
RTVSPost2010PropOp44
 70
     1
102
RTVSPost2010Prop45
280
     0
102
RTVSPost2010PropOp45
 70
     1
102
RTVSPost2010Prop46
 90
       50
102
RTVSPost2010PropOp46
 70
     1
102
RTVSPost2010Prop47
 90
       50
102
RTVSPost2010PropOp47
 70
     1
102
RTVSPost2010Prop48
 90
       50
102
RTVSPost2010PropOp48
 70
     1
102
RTVSPost2010Prop49
280
     0
102
RTVSPost2010PropOp49
 70
     1
102
RTVSPost2010Prop50
 90
       50
102
RTVSPost2010PropOp50
 70
     1
102
RTVSPost2010Prop51ColorIndex
 90
      256
102
RTVSPost2010Prop51ColorRGB
 90
-16777216
102
RTVSPost2010PropOp51
 70
     0
102
RTVSPost2010Prop52
140
1.0
102
RTVSPost2010PropOp52
 70
     0
102
RTVSPost2010Prop53
 90
        2
102
RTVSPost2010PropOp53
 70
     1
102
RTVSPost2010Prop54
  1
strokes_ogs.tif
102
RTVSPost2010PropOp54
 70
     1
102
RTVSPost2010Prop55
280
     0
102
RTVSPost2010PropOp55
 70
     1
102
RTVSPost2010Prop56
140
1.0
102
RTVSPost2010PropOp56
 70
     1
102
RTVSPost2010Prop57
140
1.0
102
RTVSPost2010PropOp57
 70
     1
102
RTVSPropertyOp0
 70
     1
102
RTVSPropertyOp1
 70
     1
102
RTVSPropertyOp2
 70
     1
102
RTVSPropertyOp3
 70
     1
102
RTVSPropertyOp4
 70
     1
102
RTVSPropertyOp5
 70
     1
102
RTVSPropertyOp6
 70
     1
102
RTVSPropertyOp7
 70
     1
102
RTVSPropertyOp8
 70
     1
102
RTVSPropertyOp9
 70
     1
102
RTVSPropertyOp10
 70
     1
102
RTVSPropertyOp11
 70
     1
102
RTVSPropertyOp12
 70
     1
102
RTVSPropertyOp13
 70
     1
102
RTVSPropertyOp14
 70
     1
102
RTVSPropertyOp15
 70
     1
102
RTVSPropertyOp16
 70
     1
102
RTVSPropertyOp17
 70
     1
102
RTVSPropertyOp18
 70
     1
102
RTVSPropertyOp19
 70
     1
102
RTVSPropertyOp20
 70
     1
102
RTVSPropertyOp21
 70
     1
102
RTVSPropertyOp22
 70
     1
102
RTVSPropertyOp23
 70
     1
102
RTVSPropertyOp24
 70
     1
102
RTVSPropertyOp25
 70
     1
102
RTVSPropertyOp26
 70
     1
102
RTVSPropertyOp27
 70
     1
102
RTVSPropertyOp28
 70
     1
102
RTVSPropertyOp29
 70
     1
102
RTVSPropertyOp30
 70
     1
102
RTVSPropertyOp31
 70
     1
102
RTVSPropertyOp32
 70
     1
102
RTVSPropertyOp33
 70
     1
102
RTVSPropertyOp34
 70
     1
102
RTVSPropertyOp35
 70
     1
102
RTVSPropertyOp36
 70
     1
102
RTVSPropertyOp37
 70
     1
102
RTVSPropertyOp38
 70
     1
102
RTVSPropertyOp39
 70
     1
102
RTVSPropertyOp40
 70
     1
102
RTVSPropertyOp41
 70
     1
102
RTVSPropertyOp42
 70
     1
102
RTVSPropertyOp43
 70
     1
102
RTVSPropertyOp44
 70
     1
102
RTVSPropertyOp45
 70
     1
102
RTVSPropertyOp46
 70
     1
102
RTVSPropertyOp47
 70
     1
102
RTVSPropertyOp48
 70
     1
102
RTVSPropertyOp49
 70
     1
102
RTVSPropertyOp50
 70
     1
102
RTVSPropertyOp51
 70
     0
102
RTVSPropertyOp52
 70
     0
102
RTVSPropertyOp53
 70
     1
102
RTVSPropertyOp54
 70
     1
102
RTVSPropertyOp55
 70
     1
102
RTVSPropertyOp56
 70
     1
102
RTVSPropertyOp57
 70
     1
102
RTVSPropertyOp58
 70
     1
102
RTVSPropertyOp59
 70
     1
102
RTVSPropertyOp60
 70
     1
102
RTVSPropertyOp61
 70
     1
102
RTVSPropertyOp62
 70
     1
  0
XRECORD
  5
85A6
102
{ACAD_REACTORS
330
85A5
102
}
330
85A5
100
AcDbXrecord
280
     1
102
RTVSPost2010Prop28
280
     0
102
RTVSPost2010PropOp28
 70
     1
102
RTVSPost2010Prop29
280
     1
102
RTVSPost2010PropOp29
 70
     1
102
RTVSPost2010Prop30
280
     1
102
RTVSPost2010PropOp30
 70
     1
102
RTVSPost2010Prop31
280
     0
102
RTVSPost2010PropOp31
 70
     1
102
RTVSPost2010Prop32
280
     0
102
RTVSPost2010PropOp32
 70
     1
102
RTVSPost2010Prop33
280
     0
102
RTVSPost2010PropOp33
 70
     1
102
RTVSPost2010Prop34
280
     0
102
RTVSPost2010PropOp34
 70
     1
102
RTVSPost2010Prop35
280
     0
102
RTVSPost2010PropOp35
 70
     1
102
RTVSPost2010Prop36
280
     0
102
RTVSPost2010PropOp36
 70
     1
102
RTVSPost2010Prop37
 90
       50
102
RTVSPost2010PropOp37
 70
     1
102
RTVSPost2010Prop38
140
0.0
102
RTVSPost2010PropOp38
 70
     1
102
RTVSPost2010Prop39
140
1.0
102
RTVSPost2010PropOp39
 70
     1
102
RTVSPost2010Prop40
 90
        0
102
RTVSPost2010PropOp40
 70
     1
102
RTVSPost2010Prop41ColorIndex
 90
       18
102
RTVSPost2010Prop41ColorRGB
 90
        0
102
RTVSPost2010PropOp41
 70
     1
102
RTVSPost2010Prop42
 90
       50
102
RTVSPost2010PropOp42
 70
     1
102
RTVSPost2010Prop43
 90
        3
102
RTVSPost2010PropOp43
 70
     1
102
RTVSPost2010Prop44ColorIndex
 90
        5
102
RTVSPost2010Prop44ColorRGB
 90
      255
102
RTVSPost2010PropOp44
 70
     1
102
RTVSPost2010Prop45
280
     0
102
RTVSPost2010PropOp45
 70
     1
102
RTVSPost2010Prop46
 90
       50
102
RTVSPost2010PropOp46
 70
     1
102
RTVSPost2010Prop47
 90
       50
102
RTVSPost2010PropOp47
 70
     1
102
RTVSPost2010Prop48
 90
       50
102
RTVSPost2010PropOp48
 70
     1
102
RTVSPost2010Prop49
280
     0
102
RTVSPost2010PropOp49
 70
     1
102
RTVSPost2010Prop50
 90
       50
102
RTVSPost2010PropOp50
 70
     1
102
RTVSPost2010Prop51ColorIndex
 90
      256
102
RTVSPost2010Prop51ColorRGB
 90
-16777216
102
RTVSPost2010PropOp51
 70
     0
102
RTVSPost2010Prop52
140
1.0
102
RTVSPost2010PropOp52
 70
     0
102
RTVSPost2010Prop53
 90
        2
102
RTVSPost2010PropOp53
 70
     1
102
RTVSPost2010Prop54
  1
strokes_ogs.tif
102
RTVSPost2010PropOp54
 70
     1
102
RTVSPost2010Prop55
280
     0
102
RTVSPost2010PropOp55
 70
     1
102
RTVSPost2010Prop56
140
1.0
102
RTVSPost2010PropOp56
 70
     1
102
RTVSPost2010Prop57
140
1.0
102
RTVSPost2010PropOp57
 70
     1
102
RTVSPropertyOp0
 70
     1
102
RTVSPropertyOp1
 70
     1
102
RTVSPropertyOp2
 70
     1
102
RTVSPropertyOp3
 70
     1
102
RTVSPropertyOp4
 70
     1
102
RTVSPropertyOp5
 70
     1
102
RTVSPropertyOp6
 70
     1
102
RTVSPropertyOp7
 70
     1
102
RTVSPropertyOp8
 70
     1
102
RTVSPropertyOp9
 70
     1
102
RTVSPropertyOp10
 70
     1
102
RTVSPropertyOp11
 70
     1
102
RTVSPropertyOp12
 70
     1
102
RTVSPropertyOp13
 70
     1
102
RTVSPropertyOp14
 70
     1
102
RTVSPropertyOp15
 70
     1
102
RTVSPropertyOp16
 70
     1
102
RTVSPropertyOp17
 70
     1
102
RTVSPropertyOp18
 70
     1
102
RTVSPropertyOp19
 70
     1
102
RTVSPropertyOp20
 70
     1
102
RTVSPropertyOp21
 70
     1
102
RTVSPropertyOp22
 70
     1
102
RTVSPropertyOp23
 70
     1
102
RTVSPropertyOp24
 70
     1
102
RTVSPropertyOp25
 70
     1
102
RTVSPropertyOp26
 70
     1
102
RTVSPropertyOp27
 70
     1
102
RTVSPropertyOp28
 70
     1
102
RTVSPropertyOp29
 70
     1
102
RTVSPropertyOp30
 70
     1
102
RTVSPropertyOp31
 70
     1
102
RTVSPropertyOp32
 70
     1
102
RTVSPropertyOp33
 70
     1
102
RTVSPropertyOp34
 70
     1
102
RTVSPropertyOp35
 70
     1
102
RTVSPropertyOp36
 70
     1
102
RTVSPropertyOp37
 70
     1
102
RTVSPropertyOp38
 70
     1
102
RTVSPropertyOp39
 70
     1
102
RTVSPropertyOp40
 70
     1
102
RTVSPropertyOp41
 70
     1
102
RTVSPropertyOp42
 70
     1
102
RTVSPropertyOp43
 70
     1
102
RTVSPropertyOp44
 70
     1
102
RTVSPropertyOp45
 70
     1
102
RTVSPropertyOp46
 70
     1
102
RTVSPropertyOp47
 70
     1
102
RTVSPropertyOp48
 70
     1
102
RTVSPropertyOp49
 70
     1
102
RTVSPropertyOp50
 70
     1
102
RTVSPropertyOp51
 70
     0
102
RTVSPropertyOp52
 70
     0
102
RTVSPropertyOp53
 70
     1
102
RTVSPropertyOp54
 70
     1
102
RTVSPropertyOp55
 70
     1
102
RTVSPropertyOp56
 70
     1
102
RTVSPropertyOp57
 70
     1
102
RTVSPropertyOp58
 70
     1
102
RTVSPropertyOp59
 70
     1
102
RTVSPropertyOp60
 70
     1
102
RTVSPropertyOp61
 70
     1
102
RTVSPropertyOp62
 70
     1
  0
XRECORD
  5
85A8
102
{ACAD_REACTORS
330
85A7
102
}
330
85A7
100
AcDbXrecord
280
     1
102
RTVSPost2010Prop28
280
     0
102
RTVSPost2010PropOp28
 70
     1
102
RTVSPost2010Prop29
280
     1
102
RTVSPost2010PropOp29
 70
     1
102
RTVSPost2010Prop30
280
     1
102
RTVSPost2010PropOp30
 70
     1
102
RTVSPost2010Prop31
280
     0
102
RTVSPost2010PropOp31
 70
     1
102
RTVSPost2010Prop32
280
     0
102
RTVSPost2010PropOp32
 70
     1
102
RTVSPost2010Prop33
280
     0
102
RTVSPost2010PropOp33
 70
     1
102
RTVSPost2010Prop34
280
     0
102
RTVSPost2010PropOp34
 70
     1
102
RTVSPost2010Prop35
280
     0
102
RTVSPost2010PropOp35
 70
     1
102
RTVSPost2010Prop36
280
     0
102
RTVSPost2010PropOp36
 70
     1
102
RTVSPost2010Prop37
 90
       50
102
RTVSPost2010PropOp37
 70
     1
102
RTVSPost2010Prop38
140
0.0
102
RTVSPost2010PropOp38
 70
     1
102
RTVSPost2010Prop39
140
1.0
102
RTVSPost2010PropOp39
 70
     1
102
RTVSPost2010Prop40
 90
        0
102
RTVSPost2010PropOp40
 70
     1
102
RTVSPost2010Prop41ColorIndex
 90
       18
102
RTVSPost2010Prop41ColorRGB
 90
        0
102
RTVSPost2010PropOp41
 70
     1
102
RTVSPost2010Prop42
 90
       50
102
RTVSPost2010PropOp42
 70
     1
102
RTVSPost2010Prop43
 90
        3
102
RTVSPost2010PropOp43
 70
     1
102
RTVSPost2010Prop44ColorIndex
 90
        5
102
RTVSPost2010Prop44ColorRGB
 90
      255
102
RTVSPost2010PropOp44
 70
     1
102
RTVSPost2010Prop45
280
     0
102
RTVSPost2010PropOp45
 70
     1
102
RTVSPost2010Prop46
 90
       50
102
RTVSPost2010PropOp46
 70
     1
102
RTVSPost2010Prop47
 90
       50
102
RTVSPost2010PropOp47
 70
     1
102
RTVSPost2010Prop48
 90
       50
102
RTVSPost2010PropOp48
 70
     1
102
RTVSPost2010Prop49
280
     0
102
RTVSPost2010PropOp49
 70
     1
102
RTVSPost2010Prop50
 90
       50
102
RTVSPost2010PropOp50
 70
     1
102
RTVSPost2010Prop51ColorIndex
 90
      256
102
RTVSPost2010Prop51ColorRGB
 90
-16777216
102
RTVSPost2010PropOp51
 70
     0
102
RTVSPost2010Prop52
140
1.0
102
RTVSPost2010PropOp52
 70
     0
102
RTVSPost2010Prop53
 90
        2
102
RTVSPost2010PropOp53
 70
     1
102
RTVSPost2010Prop54
  1
strokes_ogs.tif
102
RTVSPost2010PropOp54
 70
     1
102
RTVSPost2010Prop55
280
     0
102
RTVSPost2010PropOp55
 70
     1
102
RTVSPost2010Prop56
140
1.0
102
RTVSPost2010PropOp56
 70
     1
102
RTVSPost2010Prop57
140
1.0
102
RTVSPost2010PropOp57
 70
     1
102
RTVSPropertyOp0
 70
     1
102
RTVSPropertyOp1
 70
     1
102
RTVSPropertyOp2
 70
     1
102
RTVSPropertyOp3
 70
     1
102
RTVSPropertyOp4
 70
     1
102
RTVSPropertyOp5
 70
     1
102
RTVSPropertyOp6
 70
     1
102
RTVSPropertyOp7
 70
     1
102
RTVSPropertyOp8
 70
     1
102
RTVSPropertyOp9
 70
     1
102
RTVSPropertyOp10
 70
     1
102
RTVSPropertyOp11
 70
     1
102
RTVSPropertyOp12
 70
     1
102
RTVSPropertyOp13
 70
     1
102
RTVSPropertyOp14
 70
     1
102
RTVSPropertyOp15
 70
     1
102
RTVSPropertyOp16
 70
     1
102
RTVSPropertyOp17
 70
     1
102
RTVSPropertyOp18
 70
     1
102
RTVSPropertyOp19
 70
     1
102
RTVSPropertyOp20
 70
     1
102
RTVSPropertyOp21
 70
     1
102
RTVSPropertyOp22
 70
     1
102
RTVSPropertyOp23
 70
     1
102
RTVSPropertyOp24
 70
     1
102
RTVSPropertyOp25
 70
     1
102
RTVSPropertyOp26
 70
     1
102
RTVSPropertyOp27
 70
     1
102
RTVSPropertyOp28
 70
     1
102
RTVSPropertyOp29
 70
     1
102
RTVSPropertyOp30
 70
     1
102
RTVSPropertyOp31
 70
     1
102
RTVSPropertyOp32
 70
     1
102
RTVSPropertyOp33
 70
     1
102
RTVSPropertyOp34
 70
     1
102
RTVSPropertyOp35
 70
     1
102
RTVSPropertyOp36
 70
     1
102
RTVSPropertyOp37
 70
     1
102
RTVSPropertyOp38
 70
     1
102
RTVSPropertyOp39
 70
     1
102
RTVSPropertyOp40
 70
     1
102
RTVSPropertyOp41
 70
     1
102
RTVSPropertyOp42
 70
     1
102
RTVSPropertyOp43
 70
     1
102
RTVSPropertyOp44
 70
     1
102
RTVSPropertyOp45
 70
     1
102
RTVSPropertyOp46
 70
     1
102
RTVSPropertyOp47
 70
     1
102
RTVSPropertyOp48
 70
     1
102
RTVSPropertyOp49
 70
     1
102
RTVSPropertyOp50
 70
     1
102
RTVSPropertyOp51
 70
     0
102
RTVSPropertyOp52
 70
     0
102
RTVSPropertyOp53
 70
     1
102
RTVSPropertyOp54
 70
     1
102
RTVSPropertyOp55
 70
     1
102
RTVSPropertyOp56
 70
     1
102
RTVSPropertyOp57
 70
     1
102
RTVSPropertyOp58
 70
     1
102
RTVSPropertyOp59
 70
     1
102
RTVSPropertyOp60
 70
     1
102
RTVSPropertyOp61
 70
     1
102
RTVSPropertyOp62
 70
     1
  0
XRECORD
  5
85AA
102
{ACAD_REACTORS
330
85A9
102
}
330
85A9
100
AcDbXrecord
280
     1
102
RTVSPost2010Prop28
280
     0
102
RTVSPost2010PropOp28
 70
     1
102
RTVSPost2010Prop29
280
     1
102
RTVSPost2010PropOp29
 70
     1
102
RTVSPost2010Prop30
280
     1
102
RTVSPost2010PropOp30
 70
     1
102
RTVSPost2010Prop31
280
     0
102
RTVSPost2010PropOp31
 70
     1
102
RTVSPost2010Prop32
280
     0
102
RTVSPost2010PropOp32
 70
     1
102
RTVSPost2010Prop33
280
     0
102
RTVSPost2010PropOp33
 70
     1
102
RTVSPost2010Prop34
280
     0
102
RTVSPost2010PropOp34
 70
     1
102
RTVSPost2010Prop35
280
     0
102
RTVSPost2010PropOp35
 70
     1
102
RTVSPost2010Prop36
280
     0
102
RTVSPost2010PropOp36
 70
     1
102
RTVSPost2010Prop37
 90
       50
102
RTVSPost2010PropOp37
 70
     1
102
RTVSPost2010Prop38
140
0.0
102
RTVSPost2010PropOp38
 70
     1
102
RTVSPost2010Prop39
140
1.0
102
RTVSPost2010PropOp39
 70
     1
102
RTVSPost2010Prop40
 90
        0
102
RTVSPost2010PropOp40
 70
     1
102
RTVSPost2010Prop41ColorIndex
 90
       18
102
RTVSPost2010Prop41ColorRGB
 90
        0
102
RTVSPost2010PropOp41
 70
     1
102
RTVSPost2010Prop42
 90
       50
102
RTVSPost2010PropOp42
 70
     1
102
RTVSPost2010Prop43
 90
        3
102
RTVSPost2010PropOp43
 70
     1
102
RTVSPost2010Prop44ColorIndex
 90
        5
102
RTVSPost2010Prop44ColorRGB
 90
      255
102
RTVSPost2010PropOp44
 70
     1
102
RTVSPost2010Prop45
280
     0
102
RTVSPost2010PropOp45
 70
     1
102
RTVSPost2010Prop46
 90
       50
102
RTVSPost2010PropOp46
 70
     1
102
RTVSPost2010Prop47
 90
       50
102
RTVSPost2010PropOp47
 70
     1
102
RTVSPost2010Prop48
 90
       50
102
RTVSPost2010PropOp48
 70
     1
102
RTVSPost2010Prop49
280
     0
102
RTVSPost2010PropOp49
 70
     1
102
RTVSPost2010Prop50
 90
       50
102
RTVSPost2010PropOp50
 70
     1
102
RTVSPost2010Prop51ColorIndex
 90
      256
102
RTVSPost2010Prop51ColorRGB
 90
-16777216
102
RTVSPost2010PropOp51
 70
     0
102
RTVSPost2010Prop52
140
1.0
102
RTVSPost2010PropOp52
 70
     0
102
RTVSPost2010Prop53
 90
        2
102
RTVSPost2010PropOp53
 70
     1
102
RTVSPost2010Prop54
  1
strokes_ogs.tif
102
RTVSPost2010PropOp54
 70
     1
102
RTVSPost2010Prop55
280
     0
102
RTVSPost2010PropOp55
 70
     1
102
RTVSPost2010Prop56
140
1.0
102
RTVSPost2010PropOp56
 70
     1
102
RTVSPost2010Prop57
140
1.0
102
RTVSPost2010PropOp57
 70
     1
102
RTVSPropertyOp0
 70
     1
102
RTVSPropertyOp1
 70
     1
102
RTVSPropertyOp2
 70
     1
102
RTVSPropertyOp3
 70
     1
102
RTVSPropertyOp4
 70
     1
102
RTVSPropertyOp5
 70
     1
102
RTVSPropertyOp6
 70
     1
102
RTVSPropertyOp7
 70
     1
102
RTVSPropertyOp8
 70
     1
102
RTVSPropertyOp9
 70
     1
102
RTVSPropertyOp10
 70
     1
102
RTVSPropertyOp11
 70
     1
102
RTVSPropertyOp12
 70
     1
102
RTVSPropertyOp13
 70
     1
102
RTVSPropertyOp14
 70
     1
102
RTVSPropertyOp15
 70
     1
102
RTVSPropertyOp16
 70
     1
102
RTVSPropertyOp17
 70
     1
102
RTVSPropertyOp18
 70
     1
102
RTVSPropertyOp19
 70
     1
102
RTVSPropertyOp20
 70
     1
102
RTVSPropertyOp21
 70
     1
102
RTVSPropertyOp22
 70
     1
102
RTVSPropertyOp23
 70
     1
102
RTVSPropertyOp24
 70
     1
102
RTVSPropertyOp25
 70
     1
102
RTVSPropertyOp26
 70
     1
102
RTVSPropertyOp27
 70
     1
102
RTVSPropertyOp28
 70
     1
102
RTVSPropertyOp29
 70
     1
102
RTVSPropertyOp30
 70
     1
102
RTVSPropertyOp31
 70
     1
102
RTVSPropertyOp32
 70
     1
102
RTVSPropertyOp33
 70
     1
102
RTVSPropertyOp34
 70
     1
102
RTVSPropertyOp35
 70
     1
102
RTVSPropertyOp36
 70
     1
102
RTVSPropertyOp37
 70
     1
102
RTVSPropertyOp38
 70
     1
102
RTVSPropertyOp39
 70
     1
102
RTVSPropertyOp40
 70
     1
102
RTVSPropertyOp41
 70
     1
102
RTVSPropertyOp42
 70
     1
102
RTVSPropertyOp43
 70
     1
102
RTVSPropertyOp44
 70
     1
102
RTVSPropertyOp45
 70
     1
102
RTVSPropertyOp46
 70
     1
102
RTVSPropertyOp47
 70
     1
102
RTVSPropertyOp48
 70
     1
102
RTVSPropertyOp49
 70
     1
102
RTVSPropertyOp50
 70
     1
102
RTVSPropertyOp51
 70
     0
102
RTVSPropertyOp52
 70
     0
102
RTVSPropertyOp53
 70
     1
102
RTVSPropertyOp54
 70
     1
102
RTVSPropertyOp55
 70
     1
102
RTVSPropertyOp56
 70
     1
102
RTVSPropertyOp57
 70
     1
102
RTVSPropertyOp58
 70
     1
102
RTVSPropertyOp59
 70
     1
102
RTVSPropertyOp60
 70
     1
102
RTVSPropertyOp61
 70
     1
102
RTVSPropertyOp62
 70
     1
  0
XRECORD
  5
85B2
102
{ACAD_REACTORS
330
85B1
102
}
330
85B1
100
AcDbXrecord
280
     1
102
RTVSPost2010Prop28
280
     0
102
RTVSPost2010PropOp28
 70
     1
102
RTVSPost2010Prop29
280
     1
102
RTVSPost2010PropOp29
 70
     1
102
RTVSPost2010Prop30
280
     1
102
RTVSPost2010PropOp30
 70
     1
102
RTVSPost2010Prop31
280
     0
102
RTVSPost2010PropOp31
 70
     1
102
RTVSPost2010Prop32
280
     0
102
RTVSPost2010PropOp32
 70
     1
102
RTVSPost2010Prop33
280
     0
102
RTVSPost2010PropOp33
 70
     1
102
RTVSPost2010Prop34
280
     0
102
RTVSPost2010PropOp34
 70
     1
102
RTVSPost2010Prop35
280
     0
102
RTVSPost2010PropOp35
 70
     1
102
RTVSPost2010Prop36
280
     0
102
RTVSPost2010PropOp36
 70
     1
102
RTVSPost2010Prop37
 90
       50
102
RTVSPost2010PropOp37
 70
     1
102
RTVSPost2010Prop38
140
0.0
102
RTVSPost2010PropOp38
 70
     1
102
RTVSPost2010Prop39
140
1.0
102
RTVSPost2010PropOp39
 70
     1
102
RTVSPost2010Prop40
 90
        0
102
RTVSPost2010PropOp40
 70
     1
102
RTVSPost2010Prop41ColorIndex
 90
       18
102
RTVSPost2010Prop41ColorRGB
 90
        0
102
RTVSPost2010PropOp41
 70
     1
102
RTVSPost2010Prop42
 90
       50
102
RTVSPost2010PropOp42
 70
     1
102
RTVSPost2010Prop43
 90
        3
102
RTVSPost2010PropOp43
 70
     1
102
RTVSPost2010Prop44ColorIndex
 90
        5
102
RTVSPost2010Prop44ColorRGB
 90
      255
102
RTVSPost2010PropOp44
 70
     1
102
RTVSPost2010Prop45
280
     0
102
RTVSPost2010PropOp45
 70
     1
102
RTVSPost2010Prop46
 90
       50
102
RTVSPost2010PropOp46
 70
     1
102
RTVSPost2010Prop47
 90
       50
102
RTVSPost2010PropOp47
 70
     1
102
RTVSPost2010Prop48
 90
       50
102
RTVSPost2010PropOp48
 70
     1
102
RTVSPost2010Prop49
280
     0
102
RTVSPost2010PropOp49
 70
     1
102
RTVSPost2010Prop50
 90
       50
102
RTVSPost2010PropOp50
 70
     1
102
RTVSPost2010Prop51ColorIndex
 90
      256
102
RTVSPost2010Prop51ColorRGB
 90
-16777216
102
RTVSPost2010PropOp51
 70
     0
102
RTVSPost2010Prop52
140
1.0
102
RTVSPost2010PropOp52
 70
     0
102
RTVSPost2010Prop53
 90
        2
102
RTVSPost2010PropOp53
 70
     1
102
RTVSPost2010Prop54
  1
strokes_ogs.tif
102
RTVSPost2010PropOp54
 70
     1
102
RTVSPost2010Prop55
280
     0
102
RTVSPost2010PropOp55
 70
     1
102
RTVSPost2010Prop56
140
1.0
102
RTVSPost2010PropOp56
 70
     1
102
RTVSPost2010Prop57
140
1.0
102
RTVSPost2010PropOp57
 70
     1
102
RTVSPropertyOp0
 70
     1
102
RTVSPropertyOp1
 70
     1
102
RTVSPropertyOp2
 70
     1
102
RTVSPropertyOp3
 70
     1
102
RTVSPropertyOp4
 70
     1
102
RTVSPropertyOp5
 70
     1
102
RTVSPropertyOp6
 70
     1
102
RTVSPropertyOp7
 70
     1
102
RTVSPropertyOp8
 70
     1
102
RTVSPropertyOp9
 70
     1
102
RTVSPropertyOp10
 70
     1
102
RTVSPropertyOp11
 70
     1
102
RTVSPropertyOp12
 70
     1
102
RTVSPropertyOp13
 70
     1
102
RTVSPropertyOp14
 70
     1
102
RTVSPropertyOp15
 70
     1
102
RTVSPropertyOp16
 70
     1
102
RTVSPropertyOp17
 70
     1
102
RTVSPropertyOp18
 70
     1
102
RTVSPropertyOp19
 70
     1
102
RTVSPropertyOp20
 70
     1
102
RTVSPropertyOp21
 70
     1
102
RTVSPropertyOp22
 70
     1
102
RTVSPropertyOp23
 70
     1
102
RTVSPropertyOp24
 70
     1
102
RTVSPropertyOp25
 70
     1
102
RTVSPropertyOp26
 70
     1
102
RTVSPropertyOp27
 70
     1
102
RTVSPropertyOp28
 70
     1
102
RTVSPropertyOp29
 70
     1
102
RTVSPropertyOp30
 70
     1
102
RTVSPropertyOp31
 70
     1
102
RTVSPropertyOp32
 70
     1
102
RTVSPropertyOp33
 70
     1
102
RTVSPropertyOp34
 70
     1
102
RTVSPropertyOp35
 70
     1
102
RTVSPropertyOp36
 70
     1
102
RTVSPropertyOp37
 70
     1
102
RTVSPropertyOp38
 70
     1
102
RTVSPropertyOp39
 70
     1
102
RTVSPropertyOp40
 70
     1
102
RTVSPropertyOp41
 70
     1
102
RTVSPropertyOp42
 70
     1
102
RTVSPropertyOp43
 70
     1
102
RTVSPropertyOp44
 70
     1
102
RTVSPropertyOp45
 70
     1
102
RTVSPropertyOp46
 70
     1
102
RTVSPropertyOp47
 70
     1
102
RTVSPropertyOp48
 70
     1
102
RTVSPropertyOp49
 70
     1
102
RTVSPropertyOp50
 70
     1
102
RTVSPropertyOp51
 70
     0
102
RTVSPropertyOp52
 70
     0
102
RTVSPropertyOp53
 70
     1
102
RTVSPropertyOp54
 70
     1
102
RTVSPropertyOp55
 70
     1
102
RTVSPropertyOp56
 70
     1
102
RTVSPropertyOp57
 70
     1
102
RTVSPropertyOp58
 70
     1
102
RTVSPropertyOp59
 70
     1
102
RTVSPropertyOp60
 70
     1
102
RTVSPropertyOp61
 70
     1
102
RTVSPropertyOp62
 70
     1
  0
XRECORD
  5
85CE
102
{ACAD_REACTORS
330
85CD
102
}
330
85CD
100
AcDbXrecord
280
     1
102
RTVSPost2010Prop28
280
     0
102
RTVSPost2010PropOp28
 70
     1
102
RTVSPost2010Prop29
280
     1
102
RTVSPost2010PropOp29
 70
     1
102
RTVSPost2010Prop30
280
     1
102
RTVSPost2010PropOp30
 70
     1
102
RTVSPost2010Prop31
280
     0
102
RTVSPost2010PropOp31
 70
     1
102
RTVSPost2010Prop32
280
     0
102
RTVSPost2010PropOp32
 70
     1
102
RTVSPost2010Prop33
280
     0
102
RTVSPost2010PropOp33
 70
     1
102
RTVSPost2010Prop34
280
     0
102
RTVSPost2010PropOp34
 70
     1
102
RTVSPost2010Prop35
280
     0
102
RTVSPost2010PropOp35
 70
     1
102
RTVSPost2010Prop36
280
     0
102
RTVSPost2010PropOp36
 70
     1
102
RTVSPost2010Prop37
 90
       50
102
RTVSPost2010PropOp37
 70
     0
102
RTVSPost2010Prop38
140
0.0
102
RTVSPost2010PropOp38
 70
     0
102
RTVSPost2010Prop39
140
1.0
102
RTVSPost2010PropOp39
 70
     0
102
RTVSPost2010Prop40
 90
        0
102
RTVSPost2010PropOp40
 70
     0
102
RTVSPost2010Prop41ColorIndex
 90
       18
102
RTVSPost2010Prop41ColorRGB
 90
        0
102
RTVSPost2010PropOp41
 70
     0
102
RTVSPost2010Prop42
 90
       50
102
RTVSPost2010PropOp42
 70
     0
102
RTVSPost2010Prop43
 90
        3
102
RTVSPost2010PropOp43
 70
     0
102
RTVSPost2010Prop44ColorIndex
 90
        5
102
RTVSPost2010Prop44ColorRGB
 90
      255
102
RTVSPost2010PropOp44
 70
     0
102
RTVSPost2010Prop45
280
     0
102
RTVSPost2010PropOp45
 70
     1
102
RTVSPost2010Prop46
 90
       50
102
RTVSPost2010PropOp46
 70
     0
102
RTVSPost2010Prop47
 90
       50
102
RTVSPost2010PropOp47
 70
     0
102
RTVSPost2010Prop48
 90
       50
102
RTVSPost2010PropOp48
 70
     0
102
RTVSPost2010Prop49
280
     0
102
RTVSPost2010PropOp49
 70
     1
102
RTVSPost2010Prop50
 90
       50
102
RTVSPost2010PropOp50
 70
     0
102
RTVSPost2010Prop51ColorIndex
 90
      256
102
RTVSPost2010Prop51ColorRGB
 90
-16777216
102
RTVSPost2010PropOp51
 70
     0
102
RTVSPost2010Prop52
140
1.0
102
RTVSPost2010PropOp52
 70
     0
102
RTVSPost2010Prop53
 90
        2
102
RTVSPost2010PropOp53
 70
     0
102
RTVSPost2010Prop54
  1
strokes_ogs.tif
102
RTVSPost2010PropOp54
 70
     0
102
RTVSPost2010Prop55
280
     0
102
RTVSPost2010PropOp55
 70
     1
102
RTVSPost2010Prop56
140
1.0
102
RTVSPost2010PropOp56
 70
     0
102
RTVSPost2010Prop57
140
1.0
102
RTVSPost2010PropOp57
 70
     0
102
RTVSPropertyOp0
 70
     0
102
RTVSPropertyOp1
 70
     0
102
RTVSPropertyOp2
 70
     0
102
RTVSPropertyOp3
 70
     0
102
RTVSPropertyOp4
 70
     0
102
RTVSPropertyOp5
 70
     0
102
RTVSPropertyOp6
 70
     0
102
RTVSPropertyOp7
 70
     0
102
RTVSPropertyOp8
 70
     0
102
RTVSPropertyOp9
 70
     0
102
RTVSPropertyOp10
 70
     0
102
RTVSPropertyOp11
 70
     0
102
RTVSPropertyOp12
 70
     0
102
RTVSPropertyOp13
 70
     0
102
RTVSPropertyOp14
 70
     2
102
RTVSPropertyOp15
 70
     0
102
RTVSPropertyOp16
 70
     0
102
RTVSPropertyOp17
 70
     0
102
RTVSPropertyOp18
 70
     0
102
RTVSPropertyOp19
 70
     0
102
RTVSPropertyOp20
 70
     0
102
RTVSPropertyOp21
 70
     0
102
RTVSPropertyOp22
 70
     0
102
RTVSPropertyOp23
 70
     0
102
RTVSPropertyOp24
 70
     0
102
RTVSPropertyOp25
 70
     0
102
RTVSPropertyOp26
 70
     0
102
RTVSPropertyOp27
 70
     0
102
RTVSPropertyOp28
 70
     1
102
RTVSPropertyOp29
 70
     1
102
RTVSPropertyOp30
 70
     1
102
RTVSPropertyOp31
 70
     1
102
RTVSPropertyOp32
 70
     1
102
RTVSPropertyOp33
 70
     1
102
RTVSPropertyOp34
 70
     1
102
RTVSPropertyOp35
 70
     1
102
RTVSPropertyOp36
 70
     1
102
RTVSPropertyOp37
 70
     0
102
RTVSPropertyOp38
 70
     0
102
RTVSPropertyOp39
 70
     0
102
RTVSPropertyOp40
 70
     0
102
RTVSPropertyOp41
 70
     0
102
RTVSPropertyOp42
 70
     0
102
RTVSPropertyOp43
 70
     0
102
RTVSPropertyOp44
 70
     0
102
RTVSPropertyOp45
 70
     1
102
RTVSPropertyOp46
 70
     0
102
RTVSPropertyOp47
 70
     0
102
RTVSPropertyOp48
 70
     0
102
RTVSPropertyOp49
 70
     1
102
RTVSPropertyOp50
 70
     0
102
RTVSPropertyOp51
 70
     0
102
RTVSPropertyOp52
 70
     0
102
RTVSPropertyOp53
 70
     0
102
RTVSPropertyOp54
 70
     0
102
RTVSPropertyOp55
 70
     1
102
RTVSPropertyOp56
 70
     0
102
RTVSPropertyOp57
 70
     0
102
RTVSPropertyOp58
 70
     0
102
RTVSPropertyOp59
 70
     0
102
RTVSPropertyOp60
 70
     0
102
RTVSPropertyOp61
 70
     0
102
RTVSPropertyOp62
 70
     0
  0
XRECORD
  5
85BE
102
{ACAD_REACTORS
330
85BD
102
}
330
85BD
100
AcDbXrecord
280
     1
102
RTVSPost2010Prop28
280
     0
102
RTVSPost2010PropOp28
 70
     1
102
RTVSPost2010Prop29
280
     1
102
RTVSPost2010PropOp29
 70
     1
102
RTVSPost2010Prop30
280
     1
102
RTVSPost2010PropOp30
 70
     1
102
RTVSPost2010Prop31
280
     0
102
RTVSPost2010PropOp31
 70
     1
102
RTVSPost2010Prop32
280
     0
102
RTVSPost2010PropOp32
 70
     1
102
RTVSPost2010Prop33
280
     0
102
RTVSPost2010PropOp33
 70
     1
102
RTVSPost2010Prop34
280
     0
102
RTVSPost2010PropOp34
 70
     1
102
RTVSPost2010Prop35
280
     0
102
RTVSPost2010PropOp35
 70
     1
102
RTVSPost2010Prop36
280
     0
102
RTVSPost2010PropOp36
 70
     1
102
RTVSPost2010Prop37
 90
       50
102
RTVSPost2010PropOp37
 70
     1
102
RTVSPost2010Prop38
140
0.0
102
RTVSPost2010PropOp38
 70
     1
102
RTVSPost2010Prop39
140
1.0
102
RTVSPost2010PropOp39
 70
     1
102
RTVSPost2010Prop40
 90
        0
102
RTVSPost2010PropOp40
 70
     1
102
RTVSPost2010Prop41ColorIndex
 90
       18
102
RTVSPost2010Prop41ColorRGB
 90
        0
102
RTVSPost2010PropOp41
 70
     1
102
RTVSPost2010Prop42
 90
       50
102
RTVSPost2010PropOp42
 70
     1
102
RTVSPost2010Prop43
 90
        3
102
RTVSPost2010PropOp43
 70
     1
102
RTVSPost2010Prop44ColorIndex
 90
        5
102
RTVSPost2010Prop44ColorRGB
 90
      255
102
RTVSPost2010PropOp44
 70
     1
102
RTVSPost2010Prop45
280
     0
102
RTVSPost2010PropOp45
 70
     1
102
RTVSPost2010Prop46
 90
       50
102
RTVSPost2010PropOp46
 70
     1
102
RTVSPost2010Prop47
 90
       50
102
RTVSPost2010PropOp47
 70
     1
102
RTVSPost2010Prop48
 90
       50
102
RTVSPost2010PropOp48
 70
     1
102
RTVSPost2010Prop49
280
     0
102
RTVSPost2010PropOp49
 70
     1
102
RTVSPost2010Prop50
 90
       50
102
RTVSPost2010PropOp50
 70
     1
102
RTVSPost2010Prop51ColorIndex
 90
      256
102
RTVSPost2010Prop51ColorRGB
 90
-16777216
102
RTVSPost2010PropOp51
 70
     0
102
RTVSPost2010Prop52
140
1.0
102
RTVSPost2010PropOp52
 70
     0
102
RTVSPost2010Prop53
 90
        2
102
RTVSPost2010PropOp53
 70
     1
102
RTVSPost2010Prop54
  1
strokes_ogs.tif
102
RTVSPost2010PropOp54
 70
     1
102
RTVSPost2010Prop55
280
     0
102
RTVSPost2010PropOp55
 70
     1
102
RTVSPost2010Prop56
140
1.0
102
RTVSPost2010PropOp56
 70
     1
102
RTVSPost2010Prop57
140
1.0
102
RTVSPost2010PropOp57
 70
     1
102
RTVSPropertyOp0
 70
     1
102
RTVSPropertyOp1
 70
     1
102
RTVSPropertyOp2
 70
     1
102
RTVSPropertyOp3
 70
     1
102
RTVSPropertyOp4
 70
     1
102
RTVSPropertyOp5
 70
     1
102
RTVSPropertyOp6
 70
     1
102
RTVSPropertyOp7
 70
     1
102
RTVSPropertyOp8
 70
     1
102
RTVSPropertyOp9
 70
     1
102
RTVSPropertyOp10
 70
     1
102
RTVSPropertyOp11
 70
     1
102
RTVSPropertyOp12
 70
     1
102
RTVSPropertyOp13
 70
     1
102
RTVSPropertyOp14
 70
     1
102
RTVSPropertyOp15
 70
     1
102
RTVSPropertyOp16
 70
     1
102
RTVSPropertyOp17
 70
     1
102
RTVSPropertyOp18
 70
     1
102
RTVSPropertyOp19
 70
     1
102
RTVSPropertyOp20
 70
     1
102
RTVSPropertyOp21
 70
     1
102
RTVSPropertyOp22
 70
     1
102
RTVSPropertyOp23
 70
     1
102
RTVSPropertyOp24
 70
     1
102
RTVSPropertyOp25
 70
     1
102
RTVSPropertyOp26
 70
     1
102
RTVSPropertyOp27
 70
     1
102
RTVSPropertyOp28
 70
     1
102
RTVSPropertyOp29
 70
     1
102
RTVSPropertyOp30
 70
     1
102
RTVSPropertyOp31
 70
     1
102
RTVSPropertyOp32
 70
     1
102
RTVSPropertyOp33
 70
     1
102
RTVSPropertyOp34
 70
     1
102
RTVSPropertyOp35
 70
     1
102
RTVSPropertyOp36
 70
     1
102
RTVSPropertyOp37
 70
     1
102
RTVSPropertyOp38
 70
     1
102
RTVSPropertyOp39
 70
     1
102
RTVSPropertyOp40
 70
     1
102
RTVSPropertyOp41
 70
     1
102
RTVSPropertyOp42
 70
     1
102
RTVSPropertyOp43
 70
     1
102
RTVSPropertyOp44
 70
     1
102
RTVSPropertyOp45
 70
     1
102
RTVSPropertyOp46
 70
     1
102
RTVSPropertyOp47
 70
     1
102
RTVSPropertyOp48
 70
     1
102
RTVSPropertyOp49
 70
     1
102
RTVSPropertyOp50
 70
     1
102
RTVSPropertyOp51
 70
     0
102
RTVSPropertyOp52
 70
     0
102
RTVSPropertyOp53
 70
     1
102
RTVSPropertyOp54
 70
     1
102
RTVSPropertyOp55
 70
     1
102
RTVSPropertyOp56
 70
     1
102
RTVSPropertyOp57
 70
     1
102
RTVSPropertyOp58
 70
     1
102
RTVSPropertyOp59
 70
     1
102
RTVSPropertyOp60
 70
     1
102
RTVSPropertyOp61
 70
     1
102
RTVSPropertyOp62
 70
     1
  0
XRECORD
  5
85D0
102
{ACAD_REACTORS
330
85CF
102
}
330
85CF
100
AcDbXrecord
280
     1
102
RTVSPost2010Prop28
280
     0
102
RTVSPost2010PropOp28
 70
     1
102
RTVSPost2010Prop29
280
     1
102
RTVSPost2010PropOp29
 70
     1
102
RTVSPost2010Prop30
280
     1
102
RTVSPost2010PropOp30
 70
     1
102
RTVSPost2010Prop31
280
     0
102
RTVSPost2010PropOp31
 70
     1
102
RTVSPost2010Prop32
280
     0
102
RTVSPost2010PropOp32
 70
     1
102
RTVSPost2010Prop33
280
     0
102
RTVSPost2010PropOp33
 70
     1
102
RTVSPost2010Prop34
280
     0
102
RTVSPost2010PropOp34
 70
     1
102
RTVSPost2010Prop35
280
     0
102
RTVSPost2010PropOp35
 70
     1
102
RTVSPost2010Prop36
280
     0
102
RTVSPost2010PropOp36
 70
     1
102
RTVSPost2010Prop37
 90
       50
102
RTVSPost2010PropOp37
 70
     0
102
RTVSPost2010Prop38
140
0.0
102
RTVSPost2010PropOp38
 70
     0
102
RTVSPost2010Prop39
140
1.0
102
RTVSPost2010PropOp39
 70
     0
102
RTVSPost2010Prop40
 90
        0
102
RTVSPost2010PropOp40
 70
     0
102
RTVSPost2010Prop41ColorIndex
 90
       18
102
RTVSPost2010Prop41ColorRGB
 90
        0
102
RTVSPost2010PropOp41
 70
     0
102
RTVSPost2010Prop42
 90
       50
102
RTVSPost2010PropOp42
 70
     0
102
RTVSPost2010Prop43
 90
        3
102
RTVSPost2010PropOp43
 70
     0
102
RTVSPost2010Prop44ColorIndex
 90
        5
102
RTVSPost2010Prop44ColorRGB
 90
      255
102
RTVSPost2010PropOp44
 70
     0
102
RTVSPost2010Prop45
280
     0
102
RTVSPost2010PropOp45
 70
     1
102
RTVSPost2010Prop46
 90
       50
102
RTVSPost2010PropOp46
 70
     0
102
RTVSPost2010Prop47
 90
       50
102
RTVSPost2010PropOp47
 70
     0
102
RTVSPost2010Prop48
 90
       50
102
RTVSPost2010PropOp48
 70
     0
102
RTVSPost2010Prop49
280
     0
102
RTVSPost2010PropOp49
 70
     1
102
RTVSPost2010Prop50
 90
       50
102
RTVSPost2010PropOp50
 70
     0
102
RTVSPost2010Prop51ColorIndex
 90
      256
102
RTVSPost2010Prop51ColorRGB
 90
-16777216
102
RTVSPost2010PropOp51
 70
     0
102
RTVSPost2010Prop52
140
1.0
102
RTVSPost2010PropOp52
 70
     0
102
RTVSPost2010Prop53
 90
        2
102
RTVSPost2010PropOp53
 70
     0
102
RTVSPost2010Prop54
  1
strokes_ogs.tif
102
RTVSPost2010PropOp54
 70
     0
102
RTVSPost2010Prop55
280
     0
102
RTVSPost2010PropOp55
 70
     1
102
RTVSPost2010Prop56
140
1.0
102
RTVSPost2010PropOp56
 70
     0
102
RTVSPost2010Prop57
140
1.0
102
RTVSPost2010PropOp57
 70
     0
102
RTVSPropertyOp0
 70
     0
102
RTVSPropertyOp1
 70
     0
102
RTVSPropertyOp2
 70
     0
102
RTVSPropertyOp3
 70
     0
102
RTVSPropertyOp4
 70
     0
102
RTVSPropertyOp5
 70
     0
102
RTVSPropertyOp6
 70
     0
102
RTVSPropertyOp7
 70
     0
102
RTVSPropertyOp8
 70
     0
102
RTVSPropertyOp9
 70
     0
102
RTVSPropertyOp10
 70
     0
102
RTVSPropertyOp11
 70
     0
102
RTVSPropertyOp12
 70
     0
102
RTVSPropertyOp13
 70
     0
102
RTVSPropertyOp14
 70
     2
102
RTVSPropertyOp15
 70
     0
102
RTVSPropertyOp16
 70
     0
102
RTVSPropertyOp17
 70
     0
102
RTVSPropertyOp18
 70
     0
102
RTVSPropertyOp19
 70
     0
102
RTVSPropertyOp20
 70
     0
102
RTVSPropertyOp21
 70
     0
102
RTVSPropertyOp22
 70
     0
102
RTVSPropertyOp23
 70
     0
102
RTVSPropertyOp24
 70
     0
102
RTVSPropertyOp25
 70
     0
102
RTVSPropertyOp26
 70
     0
102
RTVSPropertyOp27
 70
     0
102
RTVSPropertyOp28
 70
     1
102
RTVSPropertyOp29
 70
     1
102
RTVSPropertyOp30
 70
     1
102
RTVSPropertyOp31
 70
     1
102
RTVSPropertyOp32
 70
     1
102
RTVSPropertyOp33
 70
     1
102
RTVSPropertyOp34
 70
     1
102
RTVSPropertyOp35
 70
     1
102
RTVSPropertyOp36
 70
     1
102
RTVSPropertyOp37
 70
     0
102
RTVSPropertyOp38
 70
     0
102
RTVSPropertyOp39
 70
     0
102
RTVSPropertyOp40
 70
     0
102
RTVSPropertyOp41
 70
     0
102
RTVSPropertyOp42
 70
     0
102
RTVSPropertyOp43
 70
     0
102
RTVSPropertyOp44
 70
     0
102
RTVSPropertyOp45
 70
     1
102
RTVSPropertyOp46
 70
     0
102
RTVSPropertyOp47
 70
     0
102
RTVSPropertyOp48
 70
     0
102
RTVSPropertyOp49
 70
     1
102
RTVSPropertyOp50
 70
     0
102
RTVSPropertyOp51
 70
     0
102
RTVSPropertyOp52
 70
     0
102
RTVSPropertyOp53
 70
     0
102
RTVSPropertyOp54
 70
     0
102
RTVSPropertyOp55
 70
     1
102
RTVSPropertyOp56
 70
     0
102
RTVSPropertyOp57
 70
     0
102
RTVSPropertyOp58
 70
     0
102
RTVSPropertyOp59
 70
     0
102
RTVSPropertyOp60
 70
     0
102
RTVSPropertyOp61
 70
     0
102
RTVSPropertyOp62
 70
     0
  0
XRECORD
  5
85B6
102
{ACAD_REACTORS
330
85B5
102
}
330
85B5
100
AcDbXrecord
280
     1
102
RTVSPost2010Prop28
280
     0
102
RTVSPost2010PropOp28
 70
     1
102
RTVSPost2010Prop29
280
     1
102
RTVSPost2010PropOp29
 70
     1
102
RTVSPost2010Prop30
280
     1
102
RTVSPost2010PropOp30
 70
     1
102
RTVSPost2010Prop31
280
     0
102
RTVSPost2010PropOp31
 70
     1
102
RTVSPost2010Prop32
280
     0
102
RTVSPost2010PropOp32
 70
     1
102
RTVSPost2010Prop33
280
     0
102
RTVSPost2010PropOp33
 70
     1
102
RTVSPost2010Prop34
280
     0
102
RTVSPost2010PropOp34
 70
     1
102
RTVSPost2010Prop35
280
     0
102
RTVSPost2010PropOp35
 70
     1
102
RTVSPost2010Prop36
280
     0
102
RTVSPost2010PropOp36
 70
     1
102
RTVSPost2010Prop37
 90
       50
102
RTVSPost2010PropOp37
 70
     1
102
RTVSPost2010Prop38
140
0.0
102
RTVSPost2010PropOp38
 70
     1
102
RTVSPost2010Prop39
140
1.0
102
RTVSPost2010PropOp39
 70
     1
102
RTVSPost2010Prop40
 90
        0
102
RTVSPost2010PropOp40
 70
     1
102
RTVSPost2010Prop41ColorIndex
 90
       18
102
RTVSPost2010Prop41ColorRGB
 90
        0
102
RTVSPost2010PropOp41
 70
     1
102
RTVSPost2010Prop42
 90
       50
102
RTVSPost2010PropOp42
 70
     1
102
RTVSPost2010Prop43
 90
        3
102
RTVSPost2010PropOp43
 70
     1
102
RTVSPost2010Prop44ColorIndex
 90
        5
102
RTVSPost2010Prop44ColorRGB
 90
      255
102
RTVSPost2010PropOp44
 70
     1
102
RTVSPost2010Prop45
280
     0
102
RTVSPost2010PropOp45
 70
     1
102
RTVSPost2010Prop46
 90
       50
102
RTVSPost2010PropOp46
 70
     1
102
RTVSPost2010Prop47
 90
       50
102
RTVSPost2010PropOp47
 70
     1
102
RTVSPost2010Prop48
 90
       50
102
RTVSPost2010PropOp48
 70
     1
102
RTVSPost2010Prop49
280
     0
102
RTVSPost2010PropOp49
 70
     1
102
RTVSPost2010Prop50
 90
       50
102
RTVSPost2010PropOp50
 70
     1
102
RTVSPost2010Prop51ColorIndex
 90
      256
102
RTVSPost2010Prop51ColorRGB
 90
-16777216
102
RTVSPost2010PropOp51
 70
     0
102
RTVSPost2010Prop52
140
1.0
102
RTVSPost2010PropOp52
 70
     0
102
RTVSPost2010Prop53
 90
        2
102
RTVSPost2010PropOp53
 70
     1
102
RTVSPost2010Prop54
  1
strokes_ogs.tif
102
RTVSPost2010PropOp54
 70
     1
102
RTVSPost2010Prop55
280
     0
102
RTVSPost2010PropOp55
 70
     1
102
RTVSPost2010Prop56
140
1.0
102
RTVSPost2010PropOp56
 70
     1
102
RTVSPost2010Prop57
140
1.0
102
RTVSPost2010PropOp57
 70
     1
102
RTVSPropertyOp0
 70
     1
102
RTVSPropertyOp1
 70
     1
102
RTVSPropertyOp2
 70
     1
102
RTVSPropertyOp3
 70
     1
102
RTVSPropertyOp4
 70
     1
102
RTVSPropertyOp5
 70
     1
102
RTVSPropertyOp6
 70
     1
102
RTVSPropertyOp7
 70
     1
102
RTVSPropertyOp8
 70
     1
102
RTVSPropertyOp9
 70
     1
102
RTVSPropertyOp10
 70
     1
102
RTVSPropertyOp11
 70
     1
102
RTVSPropertyOp12
 70
     1
102
RTVSPropertyOp13
 70
     1
102
RTVSPropertyOp14
 70
     1
102
RTVSPropertyOp15
 70
     1
102
RTVSPropertyOp16
 70
     1
102
RTVSPropertyOp17
 70
     1
102
RTVSPropertyOp18
 70
     1
102
RTVSPropertyOp19
 70
     1
102
RTVSPropertyOp20
 70
     1
102
RTVSPropertyOp21
 70
     1
102
RTVSPropertyOp22
 70
     1
102
RTVSPropertyOp23
 70
     1
102
RTVSPropertyOp24
 70
     1
102
RTVSPropertyOp25
 70
     1
102
RTVSPropertyOp26
 70
     1
102
RTVSPropertyOp27
 70
     1
102
RTVSPropertyOp28
 70
     1
102
RTVSPropertyOp29
 70
     1
102
RTVSPropertyOp30
 70
     1
102
RTVSPropertyOp31
 70
     1
102
RTVSPropertyOp32
 70
     1
102
RTVSPropertyOp33
 70
     1
102
RTVSPropertyOp34
 70
     1
102
RTVSPropertyOp35
 70
     1
102
RTVSPropertyOp36
 70
     1
102
RTVSPropertyOp37
 70
     1
102
RTVSPropertyOp38
 70
     1
102
RTVSPropertyOp39
 70
     1
102
RTVSPropertyOp40
 70
     1
102
RTVSPropertyOp41
 70
     1
102
RTVSPropertyOp42
 70
     1
102
RTVSPropertyOp43
 70
     1
102
RTVSPropertyOp44
 70
     1
102
RTVSPropertyOp45
 70
     1
102
RTVSPropertyOp46
 70
     1
102
RTVSPropertyOp47
 70
     1
102
RTVSPropertyOp48
 70
     1
102
RTVSPropertyOp49
 70
     1
102
RTVSPropertyOp50
 70
     1
102
RTVSPropertyOp51
 70
     0
102
RTVSPropertyOp52
 70
     0
102
RTVSPropertyOp53
 70
     1
102
RTVSPropertyOp54
 70
     1
102
RTVSPropertyOp55
 70
     1
102
RTVSPropertyOp56
 70
     1
102
RTVSPropertyOp57
 70
     1
102
RTVSPropertyOp58
 70
     1
102
RTVSPropertyOp59
 70
     1
102
RTVSPropertyOp60
 70
     1
102
RTVSPropertyOp61
 70
     1
102
RTVSPropertyOp62
 70
     1
  0
XRECORD
  5
85CC
102
{ACAD_REACTORS
330
85CB
102
}
330
85CB
100
AcDbXrecord
280
     1
102
RTVSPost2010Prop28
280
     0
102
RTVSPost2010PropOp28
 70
     1
102
RTVSPost2010Prop29
280
     1
102
RTVSPost2010PropOp29
 70
     1
102
RTVSPost2010Prop30
280
     1
102
RTVSPost2010PropOp30
 70
     1
102
RTVSPost2010Prop31
280
     0
102
RTVSPost2010PropOp31
 70
     1
102
RTVSPost2010Prop32
280
     0
102
RTVSPost2010PropOp32
 70
     1
102
RTVSPost2010Prop33
280
     0
102
RTVSPost2010PropOp33
 70
     1
102
RTVSPost2010Prop34
280
     0
102
RTVSPost2010PropOp34
 70
     1
102
RTVSPost2010Prop35
280
     0
102
RTVSPost2010PropOp35
 70
     1
102
RTVSPost2010Prop36
280
     0
102
RTVSPost2010PropOp36
 70
     1
102
RTVSPost2010Prop37
 90
       50
102
RTVSPost2010PropOp37
 70
     1
102
RTVSPost2010Prop38
140
0.0
102
RTVSPost2010PropOp38
 70
     1
102
RTVSPost2010Prop39
140
1.0
102
RTVSPost2010PropOp39
 70
     1
102
RTVSPost2010Prop40
 90
        0
102
RTVSPost2010PropOp40
 70
     1
102
RTVSPost2010Prop41ColorIndex
 90
       18
102
RTVSPost2010Prop41ColorRGB
 90
        0
102
RTVSPost2010PropOp41
 70
     1
102
RTVSPost2010Prop42
 90
       50
102
RTVSPost2010PropOp42
 70
     1
102
RTVSPost2010Prop43
 90
        3
102
RTVSPost2010PropOp43
 70
     1
102
RTVSPost2010Prop44ColorIndex
 90
        5
102
RTVSPost2010Prop44ColorRGB
 90
      255
102
RTVSPost2010PropOp44
 70
     1
102
RTVSPost2010Prop45
280
     0
102
RTVSPost2010PropOp45
 70
     1
102
RTVSPost2010Prop46
 90
       50
102
RTVSPost2010PropOp46
 70
     1
102
RTVSPost2010Prop47
 90
       50
102
RTVSPost2010PropOp47
 70
     1
102
RTVSPost2010Prop48
 90
       50
102
RTVSPost2010PropOp48
 70
     1
102
RTVSPost2010Prop49
280
     0
102
RTVSPost2010PropOp49
 70
     1
102
RTVSPost2010Prop50
 90
       50
102
RTVSPost2010PropOp50
 70
     1
102
RTVSPost2010Prop51ColorIndex
 90
      256
102
RTVSPost2010Prop51ColorRGB
 90
-16777216
102
RTVSPost2010PropOp51
 70
     0
102
RTVSPost2010Prop52
140
1.0
102
RTVSPost2010PropOp52
 70
     0
102
RTVSPost2010Prop53
 90
        2
102
RTVSPost2010PropOp53
 70
     1
102
RTVSPost2010Prop54
  1
strokes_ogs.tif
102
RTVSPost2010PropOp54
 70
     1
102
RTVSPost2010Prop55
280
     0
102
RTVSPost2010PropOp55
 70
     1
102
RTVSPost2010Prop56
140
1.0
102
RTVSPost2010PropOp56
 70
     1
102
RTVSPost2010Prop57
140
1.0
102
RTVSPost2010PropOp57
 70
     1
102
RTVSPropertyOp0
 70
     1
102
RTVSPropertyOp1
 70
     1
102
RTVSPropertyOp2
 70
     1
102
RTVSPropertyOp3
 70
     1
102
RTVSPropertyOp4
 70
     1
102
RTVSPropertyOp5
 70
     1
102
RTVSPropertyOp6
 70
     1
102
RTVSPropertyOp7
 70
     1
102
RTVSPropertyOp8
 70
     1
102
RTVSPropertyOp9
 70
     1
102
RTVSPropertyOp10
 70
     1
102
RTVSPropertyOp11
 70
     1
102
RTVSPropertyOp12
 70
     1
102
RTVSPropertyOp13
 70
     1
102
RTVSPropertyOp14
 70
     1
102
RTVSPropertyOp15
 70
     1
102
RTVSPropertyOp16
 70
     1
102
RTVSPropertyOp17
 70
     1
102
RTVSPropertyOp18
 70
     1
102
RTVSPropertyOp19
 70
     1
102
RTVSPropertyOp20
 70
     1
102
RTVSPropertyOp21
 70
     1
102
RTVSPropertyOp22
 70
     1
102
RTVSPropertyOp23
 70
     1
102
RTVSPropertyOp24
 70
     1
102
RTVSPropertyOp25
 70
     1
102
RTVSPropertyOp26
 70
     1
102
RTVSPropertyOp27
 70
     1
102
RTVSPropertyOp28
 70
     1
102
RTVSPropertyOp29
 70
     1
102
RTVSPropertyOp30
 70
     1
102
RTVSPropertyOp31
 70
     1
102
RTVSPropertyOp32
 70
     1
102
RTVSPropertyOp33
 70
     1
102
RTVSPropertyOp34
 70
     1
102
RTVSPropertyOp35
 70
     1
102
RTVSPropertyOp36
 70
     1
102
RTVSPropertyOp37
 70
     1
102
RTVSPropertyOp38
 70
     1
102
RTVSPropertyOp39
 70
     1
102
RTVSPropertyOp40
 70
     1
102
RTVSPropertyOp41
 70
     1
102
RTVSPropertyOp42
 70
     1
102
RTVSPropertyOp43
 70
     1
102
RTVSPropertyOp44
 70
     1
102
RTVSPropertyOp45
 70
     1
102
RTVSPropertyOp46
 70
     1
102
RTVSPropertyOp47
 70
     1
102
RTVSPropertyOp48
 70
     1
102
RTVSPropertyOp49
 70
     1
102
RTVSPropertyOp50
 70
     1
102
RTVSPropertyOp51
 70
     0
102
RTVSPropertyOp52
 70
     0
102
RTVSPropertyOp53
 70
     1
102
RTVSPropertyOp54
 70
     1
102
RTVSPropertyOp55
 70
     1
102
RTVSPropertyOp56
 70
     1
102
RTVSPropertyOp57
 70
     1
102
RTVSPropertyOp58
 70
     1
102
RTVSPropertyOp59
 70
     1
102
RTVSPropertyOp60
 70
     1
102
RTVSPropertyOp61
 70
     1
102
RTVSPropertyOp62
 70
     1
  0
XRECORD
  5
85CA
102
{ACAD_REACTORS
330
85C9
102
}
330
85C9
100
AcDbXrecord
280
     1
102
RTVSPost2010Prop28
280
     0
102
RTVSPost2010PropOp28
 70
     1
102
RTVSPost2010Prop29
280
     1
102
RTVSPost2010PropOp29
 70
     1
102
RTVSPost2010Prop30
280
     1
102
RTVSPost2010PropOp30
 70
     1
102
RTVSPost2010Prop31
280
     0
102
RTVSPost2010PropOp31
 70
     1
102
RTVSPost2010Prop32
280
     0
102
RTVSPost2010PropOp32
 70
     1
102
RTVSPost2010Prop33
280
     0
102
RTVSPost2010PropOp33
 70
     1
102
RTVSPost2010Prop34
280
     0
102
RTVSPost2010PropOp34
 70
     1
102
RTVSPost2010Prop35
280
     0
102
RTVSPost2010PropOp35
 70
     1
102
RTVSPost2010Prop36
280
     0
102
RTVSPost2010PropOp36
 70
     1
102
RTVSPost2010Prop37
 90
       50
102
RTVSPost2010PropOp37
 70
     1
102
RTVSPost2010Prop38
140
0.0
102
RTVSPost2010PropOp38
 70
     1
102
RTVSPost2010Prop39
140
1.0
102
RTVSPost2010PropOp39
 70
     1
102
RTVSPost2010Prop40
 90
        0
102
RTVSPost2010PropOp40
 70
     1
102
RTVSPost2010Prop41ColorIndex
 90
       18
102
RTVSPost2010Prop41ColorRGB
 90
        0
102
RTVSPost2010PropOp41
 70
     1
102
RTVSPost2010Prop42
 90
       50
102
RTVSPost2010PropOp42
 70
     1
102
RTVSPost2010Prop43
 90
        3
102
RTVSPost2010PropOp43
 70
     1
102
RTVSPost2010Prop44ColorIndex
 90
        5
102
RTVSPost2010Prop44ColorRGB
 90
      255
102
RTVSPost2010PropOp44
 70
     1
102
RTVSPost2010Prop45
280
     0
102
RTVSPost2010PropOp45
 70
     1
102
RTVSPost2010Prop46
 90
       50
102
RTVSPost2010PropOp46
 70
     1
102
RTVSPost2010Prop47
 90
       50
102
RTVSPost2010PropOp47
 70
     1
102
RTVSPost2010Prop48
 90
       50
102
RTVSPost2010PropOp48
 70
     1
102
RTVSPost2010Prop49
280
     0
102
RTVSPost2010PropOp49
 70
     1
102
RTVSPost2010Prop50
 90
       50
102
RTVSPost2010PropOp50
 70
     1
102
RTVSPost2010Prop51ColorIndex
 90
      256
102
RTVSPost2010Prop51ColorRGB
 90
-16777216
102
RTVSPost2010PropOp51
 70
     0
102
RTVSPost2010Prop52
140
1.0
102
RTVSPost2010PropOp52
 70
     0
102
RTVSPost2010Prop53
 90
        2
102
RTVSPost2010PropOp53
 70
     1
102
RTVSPost2010Prop54
  1
strokes_ogs.tif
102
RTVSPost2010PropOp54
 70
     1
102
RTVSPost2010Prop55
280
     0
102
RTVSPost2010PropOp55
 70
     1
102
RTVSPost2010Prop56
140
1.0
102
RTVSPost2010PropOp56
 70
     1
102
RTVSPost2010Prop57
140
1.0
102
RTVSPost2010PropOp57
 70
     1
102
RTVSPropertyOp0
 70
     1
102
RTVSPropertyOp1
 70
     1
102
RTVSPropertyOp2
 70
     1
102
RTVSPropertyOp3
 70
     1
102
RTVSPropertyOp4
 70
     1
102
RTVSPropertyOp5
 70
     1
102
RTVSPropertyOp6
 70
     1
102
RTVSPropertyOp7
 70
     1
102
RTVSPropertyOp8
 70
     1
102
RTVSPropertyOp9
 70
     1
102
RTVSPropertyOp10
 70
     1
102
RTVSPropertyOp11
 70
     1
102
RTVSPropertyOp12
 70
     1
102
RTVSPropertyOp13
 70
     1
102
RTVSPropertyOp14
 70
     1
102
RTVSPropertyOp15
 70
     1
102
RTVSPropertyOp16
 70
     1
102
RTVSPropertyOp17
 70
     1
102
RTVSPropertyOp18
 70
     1
102
RTVSPropertyOp19
 70
     1
102
RTVSPropertyOp20
 70
     1
102
RTVSPropertyOp21
 70
     1
102
RTVSPropertyOp22
 70
     1
102
RTVSPropertyOp23
 70
     1
102
RTVSPropertyOp24
 70
     1
102
RTVSPropertyOp25
 70
     1
102
RTVSPropertyOp26
 70
     1
102
RTVSPropertyOp27
 70
     1
102
RTVSPropertyOp28
 70
     1
102
RTVSPropertyOp29
 70
     1
102
RTVSPropertyOp30
 70
     1
102
RTVSPropertyOp31
 70
     1
102
RTVSPropertyOp32
 70
     1
102
RTVSPropertyOp33
 70
     1
102
RTVSPropertyOp34
 70
     1
102
RTVSPropertyOp35
 70
     1
102
RTVSPropertyOp36
 70
     1
102
RTVSPropertyOp37
 70
     1
102
RTVSPropertyOp38
 70
     1
102
RTVSPropertyOp39
 70
     1
102
RTVSPropertyOp40
 70
     1
102
RTVSPropertyOp41
 70
     1
102
RTVSPropertyOp42
 70
     1
102
RTVSPropertyOp43
 70
     1
102
RTVSPropertyOp44
 70
     1
102
RTVSPropertyOp45
 70
     1
102
RTVSPropertyOp46
 70
     1
102
RTVSPropertyOp47
 70
     1
102
RTVSPropertyOp48
 70
     1
102
RTVSPropertyOp49
 70
     1
102
RTVSPropertyOp50
 70
     1
102
RTVSPropertyOp51
 70
     0
102
RTVSPropertyOp52
 70
     0
102
RTVSPropertyOp53
 70
     1
102
RTVSPropertyOp54
 70
     1
102
RTVSPropertyOp55
 70
     1
102
RTVSPropertyOp56
 70
     1
102
RTVSPropertyOp57
 70
     1
102
RTVSPropertyOp58
 70
     1
102
RTVSPropertyOp59
 70
     1
102
RTVSPropertyOp60
 70
     1
102
RTVSPropertyOp61
 70
     1
102
RTVSPropertyOp62
 70
     1
  0
XRECORD
  5
85C4
102
{ACAD_REACTORS
330
85C3
102
}
330
85C3
100
AcDbXrecord
280
     1
102
RTVSPost2010Prop28
280
     0
102
RTVSPost2010PropOp28
 70
     1
102
RTVSPost2010Prop29
280
     1
102
RTVSPost2010PropOp29
 70
     1
102
RTVSPost2010Prop30
280
     1
102
RTVSPost2010PropOp30
 70
     1
102
RTVSPost2010Prop31
280
     0
102
RTVSPost2010PropOp31
 70
     1
102
RTVSPost2010Prop32
280
     0
102
RTVSPost2010PropOp32
 70
     1
102
RTVSPost2010Prop33
280
     0
102
RTVSPost2010PropOp33
 70
     1
102
RTVSPost2010Prop34
280
     0
102
RTVSPost2010PropOp34
 70
     1
102
RTVSPost2010Prop35
280
     0
102
RTVSPost2010PropOp35
 70
     1
102
RTVSPost2010Prop36
280
     0
102
RTVSPost2010PropOp36
 70
     1
102
RTVSPost2010Prop37
 90
       50
102
RTVSPost2010PropOp37
 70
     1
102
RTVSPost2010Prop38
140
0.0
102
RTVSPost2010PropOp38
 70
     1
102
RTVSPost2010Prop39
140
1.0
102
RTVSPost2010PropOp39
 70
     1
102
RTVSPost2010Prop40
 90
        0
102
RTVSPost2010PropOp40
 70
     1
102
RTVSPost2010Prop41ColorIndex
 90
       18
102
RTVSPost2010Prop41ColorRGB
 90
        0
102
RTVSPost2010PropOp41
 70
     1
102
RTVSPost2010Prop42
 90
       50
102
RTVSPost2010PropOp42
 70
     1
102
RTVSPost2010Prop43
 90
        3
102
RTVSPost2010PropOp43
 70
     1
102
RTVSPost2010Prop44ColorIndex
 90
        5
102
RTVSPost2010Prop44ColorRGB
 90
      255
102
RTVSPost2010PropOp44
 70
     1
102
RTVSPost2010Prop45
280
     0
102
RTVSPost2010PropOp45
 70
     1
102
RTVSPost2010Prop46
 90
       50
102
RTVSPost2010PropOp46
 70
     1
102
RTVSPost2010Prop47
 90
       50
102
RTVSPost2010PropOp47
 70
     1
102
RTVSPost2010Prop48
 90
       50
102
RTVSPost2010PropOp48
 70
     1
102
RTVSPost2010Prop49
280
     0
102
RTVSPost2010PropOp49
 70
     1
102
RTVSPost2010Prop50
 90
       50
102
RTVSPost2010PropOp50
 70
     1
102
RTVSPost2010Prop51ColorIndex
 90
      256
102
RTVSPost2010Prop51ColorRGB
 90
-16777216
102
RTVSPost2010PropOp51
 70
     0
102
RTVSPost2010Prop52
140
1.0
102
RTVSPost2010PropOp52
 70
     0
102
RTVSPost2010Prop53
 90
        2
102
RTVSPost2010PropOp53
 70
     1
102
RTVSPost2010Prop54
  1
strokes_ogs.tif
102
RTVSPost2010PropOp54
 70
     1
102
RTVSPost2010Prop55
280
     0
102
RTVSPost2010PropOp55
 70
     1
102
RTVSPost2010Prop56
140
1.0
102
RTVSPost2010PropOp56
 70
     1
102
RTVSPost2010Prop57
140
1.0
102
RTVSPost2010PropOp57
 70
     1
102
RTVSPropertyOp0
 70
     1
102
RTVSPropertyOp1
 70
     1
102
RTVSPropertyOp2
 70
     1
102
RTVSPropertyOp3
 70
     1
102
RTVSPropertyOp4
 70
     1
102
RTVSPropertyOp5
 70
     1
102
RTVSPropertyOp6
 70
     1
102
RTVSPropertyOp7
 70
     1
102
RTVSPropertyOp8
 70
     1
102
RTVSPropertyOp9
 70
     1
102
RTVSPropertyOp10
 70
     1
102
RTVSPropertyOp11
 70
     1
102
RTVSPropertyOp12
 70
     1
102
RTVSPropertyOp13
 70
     1
102
RTVSPropertyOp14
 70
     1
102
RTVSPropertyOp15
 70
     1
102
RTVSPropertyOp16
 70
     1
102
RTVSPropertyOp17
 70
     1
102
RTVSPropertyOp18
 70
     1
102
RTVSPropertyOp19
 70
     1
102
RTVSPropertyOp20
 70
     1
102
RTVSPropertyOp21
 70
     1
102
RTVSPropertyOp22
 70
     1
102
RTVSPropertyOp23
 70
     1
102
RTVSPropertyOp24
 70
     1
102
RTVSPropertyOp25
 70
     1
102
RTVSPropertyOp26
 70
     1
102
RTVSPropertyOp27
 70
     1
102
RTVSPropertyOp28
 70
     1
102
RTVSPropertyOp29
 70
     1
102
RTVSPropertyOp30
 70
     1
102
RTVSPropertyOp31
 70
     1
102
RTVSPropertyOp32
 70
     1
102
RTVSPropertyOp33
 70
     1
102
RTVSPropertyOp34
 70
     1
102
RTVSPropertyOp35
 70
     1
102
RTVSPropertyOp36
 70
     1
102
RTVSPropertyOp37
 70
     1
102
RTVSPropertyOp38
 70
     1
102
RTVSPropertyOp39
 70
     1
102
RTVSPropertyOp40
 70
     1
102
RTVSPropertyOp41
 70
     1
102
RTVSPropertyOp42
 70
     1
102
RTVSPropertyOp43
 70
     1
102
RTVSPropertyOp44
 70
     1
102
RTVSPropertyOp45
 70
     1
102
RTVSPropertyOp46
 70
     1
102
RTVSPropertyOp47
 70
     1
102
RTVSPropertyOp48
 70
     1
102
RTVSPropertyOp49
 70
     1
102
RTVSPropertyOp50
 70
     1
102
RTVSPropertyOp51
 70
     0
102
RTVSPropertyOp52
 70
     0
102
RTVSPropertyOp53
 70
     1
102
RTVSPropertyOp54
 70
     1
102
RTVSPropertyOp55
 70
     1
102
RTVSPropertyOp56
 70
     1
102
RTVSPropertyOp57
 70
     1
102
RTVSPropertyOp58
 70
     1
102
RTVSPropertyOp59
 70
     1
102
RTVSPropertyOp60
 70
     1
102
RTVSPropertyOp61
 70
     1
102
RTVSPropertyOp62
 70
     1
  0
XRECORD
  5
85C6
102
{ACAD_REACTORS
330
85C5
102
}
330
85C5
100
AcDbXrecord
280
     1
102
RTVSPost2010Prop28
280
     0
102
RTVSPost2010PropOp28
 70
     1
102
RTVSPost2010Prop29
280
     1
102
RTVSPost2010PropOp29
 70
     1
102
RTVSPost2010Prop30
280
     1
102
RTVSPost2010PropOp30
 70
     1
102
RTVSPost2010Prop31
280
     0
102
RTVSPost2010PropOp31
 70
     1
102
RTVSPost2010Prop32
280
     0
102
RTVSPost2010PropOp32
 70
     1
102
RTVSPost2010Prop33
280
     0
102
RTVSPost2010PropOp33
 70
     1
102
RTVSPost2010Prop34
280
     0
102
RTVSPost2010PropOp34
 70
     1
102
RTVSPost2010Prop35
280
     0
102
RTVSPost2010PropOp35
 70
     1
102
RTVSPost2010Prop36
280
     0
102
RTVSPost2010PropOp36
 70
     1
102
RTVSPost2010Prop37
 90
       50
102
RTVSPost2010PropOp37
 70
     1
102
RTVSPost2010Prop38
140
0.0
102
RTVSPost2010PropOp38
 70
     1
102
RTVSPost2010Prop39
140
1.0
102
RTVSPost2010PropOp39
 70
     1
102
RTVSPost2010Prop40
 90
        0
102
RTVSPost2010PropOp40
 70
     1
102
RTVSPost2010Prop41ColorIndex
 90
       18
102
RTVSPost2010Prop41ColorRGB
 90
        0
102
RTVSPost2010PropOp41
 70
     1
102
RTVSPost2010Prop42
 90
       50
102
RTVSPost2010PropOp42
 70
     1
102
RTVSPost2010Prop43
 90
        3
102
RTVSPost2010PropOp43
 70
     1
102
RTVSPost2010Prop44ColorIndex
 90
        5
102
RTVSPost2010Prop44ColorRGB
 90
      255
102
RTVSPost2010PropOp44
 70
     1
102
RTVSPost2010Prop45
280
     0
102
RTVSPost2010PropOp45
 70
     1
102
RTVSPost2010Prop46
 90
       50
102
RTVSPost2010PropOp46
 70
     1
102
RTVSPost2010Prop47
 90
       50
102
RTVSPost2010PropOp47
 70
     1
102
RTVSPost2010Prop48
 90
       50
102
RTVSPost2010PropOp48
 70
     1
102
RTVSPost2010Prop49
280
     0
102
RTVSPost2010PropOp49
 70
     1
102
RTVSPost2010Prop50
 90
       50
102
RTVSPost2010PropOp50
 70
     1
102
RTVSPost2010Prop51ColorIndex
 90
      256
102
RTVSPost2010Prop51ColorRGB
 90
-16777216
102
RTVSPost2010PropOp51
 70
     0
102
RTVSPost2010Prop52
140
1.0
102
RTVSPost2010PropOp52
 70
     0
102
RTVSPost2010Prop53
 90
        2
102
RTVSPost2010PropOp53
 70
     1
102
RTVSPost2010Prop54
  1
strokes_ogs.tif
102
RTVSPost2010PropOp54
 70
     1
102
RTVSPost2010Prop55
280
     0
102
RTVSPost2010PropOp55
 70
     1
102
RTVSPost2010Prop56
140
1.0
102
RTVSPost2010PropOp56
 70
     1
102
RTVSPost2010Prop57
140
1.0
102
RTVSPost2010PropOp57
 70
     1
102
RTVSPropertyOp0
 70
     1
102
RTVSPropertyOp1
 70
     1
102
RTVSPropertyOp2
 70
     1
102
RTVSPropertyOp3
 70
     1
102
RTVSPropertyOp4
 70
     1
102
RTVSPropertyOp5
 70
     1
102
RTVSPropertyOp6
 70
     1
102
RTVSPropertyOp7
 70
     1
102
RTVSPropertyOp8
 70
     1
102
RTVSPropertyOp9
 70
     1
102
RTVSPropertyOp10
 70
     1
102
RTVSPropertyOp11
 70
     1
102
RTVSPropertyOp12
 70
     1
102
RTVSPropertyOp13
 70
     1
102
RTVSPropertyOp14
 70
     1
102
RTVSPropertyOp15
 70
     1
102
RTVSPropertyOp16
 70
     1
102
RTVSPropertyOp17
 70
     1
102
RTVSPropertyOp18
 70
     1
102
RTVSPropertyOp19
 70
     1
102
RTVSPropertyOp20
 70
     1
102
RTVSPropertyOp21
 70
     1
102
RTVSPropertyOp22
 70
     1
102
RTVSPropertyOp23
 70
     1
102
RTVSPropertyOp24
 70
     1
102
RTVSPropertyOp25
 70
     1
102
RTVSPropertyOp26
 70
     1
102
RTVSPropertyOp27
 70
     1
102
RTVSPropertyOp28
 70
     1
102
RTVSPropertyOp29
 70
     1
102
RTVSPropertyOp30
 70
     1
102
RTVSPropertyOp31
 70
     1
102
RTVSPropertyOp32
 70
     1
102
RTVSPropertyOp33
 70
     1
102
RTVSPropertyOp34
 70
     1
102
RTVSPropertyOp35
 70
     1
102
RTVSPropertyOp36
 70
     1
102
RTVSPropertyOp37
 70
     1
102
RTVSPropertyOp38
 70
     1
102
RTVSPropertyOp39
 70
     1
102
RTVSPropertyOp40
 70
     1
102
RTVSPropertyOp41
 70
     1
102
RTVSPropertyOp42
 70
     1
102
RTVSPropertyOp43
 70
     1
102
RTVSPropertyOp44
 70
     1
102
RTVSPropertyOp45
 70
     1
102
RTVSPropertyOp46
 70
     1
102
RTVSPropertyOp47
 70
     1
102
RTVSPropertyOp48
 70
     1
102
RTVSPropertyOp49
 70
     1
102
RTVSPropertyOp50
 70
     1
102
RTVSPropertyOp51
 70
     0
102
RTVSPropertyOp52
 70
     0
102
RTVSPropertyOp53
 70
     1
102
RTVSPropertyOp54
 70
     1
102
RTVSPropertyOp55
 70
     1
102
RTVSPropertyOp56
 70
     1
102
RTVSPropertyOp57
 70
     1
102
RTVSPropertyOp58
 70
     1
102
RTVSPropertyOp59
 70
     1
102
RTVSPropertyOp60
 70
     1
102
RTVSPropertyOp61
 70
     1
102
RTVSPropertyOp62
 70
     1
  0
XRECORD
  5
85BC
102
{ACAD_REACTORS
330
85BB
102
}
330
85BB
100
AcDbXrecord
280
     1
102
RTVSPost2010Prop28
280
     0
102
RTVSPost2010PropOp28
 70
     1
102
RTVSPost2010Prop29
280
     1
102
RTVSPost2010PropOp29
 70
     1
102
RTVSPost2010Prop30
280
     1
102
RTVSPost2010PropOp30
 70
     1
102
RTVSPost2010Prop31
280
     0
102
RTVSPost2010PropOp31
 70
     1
102
RTVSPost2010Prop32
280
     0
102
RTVSPost2010PropOp32
 70
     1
102
RTVSPost2010Prop33
280
     0
102
RTVSPost2010PropOp33
 70
     1
102
RTVSPost2010Prop34
280
     0
102
RTVSPost2010PropOp34
 70
     1
102
RTVSPost2010Prop35
280
     0
102
RTVSPost2010PropOp35
 70
     1
102
RTVSPost2010Prop36
280
     0
102
RTVSPost2010PropOp36
 70
     1
102
RTVSPost2010Prop37
 90
       50
102
RTVSPost2010PropOp37
 70
     1
102
RTVSPost2010Prop38
140
0.0
102
RTVSPost2010PropOp38
 70
     1
102
RTVSPost2010Prop39
140
1.0
102
RTVSPost2010PropOp39
 70
     1
102
RTVSPost2010Prop40
 90
        0
102
RTVSPost2010PropOp40
 70
     1
102
RTVSPost2010Prop41ColorIndex
 90
       18
102
RTVSPost2010Prop41ColorRGB
 90
        0
102
RTVSPost2010PropOp41
 70
     1
102
RTVSPost2010Prop42
 90
       50
102
RTVSPost2010PropOp42
 70
     1
102
RTVSPost2010Prop43
 90
        3
102
RTVSPost2010PropOp43
 70
     1
102
RTVSPost2010Prop44ColorIndex
 90
        5
102
RTVSPost2010Prop44ColorRGB
 90
      255
102
RTVSPost2010PropOp44
 70
     1
102
RTVSPost2010Prop45
280
     0
102
RTVSPost2010PropOp45
 70
     1
102
RTVSPost2010Prop46
 90
       50
102
RTVSPost2010PropOp46
 70
     1
102
RTVSPost2010Prop47
 90
       50
102
RTVSPost2010PropOp47
 70
     1
102
RTVSPost2010Prop48
 90
       50
102
RTVSPost2010PropOp48
 70
     1
102
RTVSPost2010Prop49
280
     0
102
RTVSPost2010PropOp49
 70
     1
102
RTVSPost2010Prop50
 90
       50
102
RTVSPost2010PropOp50
 70
     1
102
RTVSPost2010Prop51ColorIndex
 90
      256
102
RTVSPost2010Prop51ColorRGB
 90
-16777216
102
RTVSPost2010PropOp51
 70
     0
102
RTVSPost2010Prop52
140
1.0
102
RTVSPost2010PropOp52
 70
     0
102
RTVSPost2010Prop53
 90
        2
102
RTVSPost2010PropOp53
 70
     1
102
RTVSPost2010Prop54
  1
strokes_ogs.tif
102
RTVSPost2010PropOp54
 70
     1
102
RTVSPost2010Prop55
280
     0
102
RTVSPost2010PropOp55
 70
     1
102
RTVSPost2010Prop56
140
1.0
102
RTVSPost2010PropOp56
 70
     1
102
RTVSPost2010Prop57
140
1.0
102
RTVSPost2010PropOp57
 70
     1
102
RTVSPropertyOp0
 70
     1
102
RTVSPropertyOp1
 70
     1
102
RTVSPropertyOp2
 70
     1
102
RTVSPropertyOp3
 70
     1
102
RTVSPropertyOp4
 70
     1
102
RTVSPropertyOp5
 70
     1
102
RTVSPropertyOp6
 70
     1
102
RTVSPropertyOp7
 70
     1
102
RTVSPropertyOp8
 70
     1
102
RTVSPropertyOp9
 70
     1
102
RTVSPropertyOp10
 70
     1
102
RTVSPropertyOp11
 70
     1
102
RTVSPropertyOp12
 70
     1
102
RTVSPropertyOp13
 70
     1
102
RTVSPropertyOp14
 70
     1
102
RTVSPropertyOp15
 70
     1
102
RTVSPropertyOp16
 70
     1
102
RTVSPropertyOp17
 70
     1
102
RTVSPropertyOp18
 70
     1
102
RTVSPropertyOp19
 70
     1
102
RTVSPropertyOp20
 70
     1
102
RTVSPropertyOp21
 70
     1
102
RTVSPropertyOp22
 70
     1
102
RTVSPropertyOp23
 70
     1
102
RTVSPropertyOp24
 70
     1
102
RTVSPropertyOp25
 70
     1
102
RTVSPropertyOp26
 70
     1
102
RTVSPropertyOp27
 70
     1
102
RTVSPropertyOp28
 70
     1
102
RTVSPropertyOp29
 70
     1
102
RTVSPropertyOp30
 70
     1
102
RTVSPropertyOp31
 70
     1
102
RTVSPropertyOp32
 70
     1
102
RTVSPropertyOp33
 70
     1
102
RTVSPropertyOp34
 70
     1
102
RTVSPropertyOp35
 70
     1
102
RTVSPropertyOp36
 70
     1
102
RTVSPropertyOp37
 70
     1
102
RTVSPropertyOp38
 70
     1
102
RTVSPropertyOp39
 70
     1
102
RTVSPropertyOp40
 70
     1
102
RTVSPropertyOp41
 70
     1
102
RTVSPropertyOp42
 70
     1
102
RTVSPropertyOp43
 70
     1
102
RTVSPropertyOp44
 70
     1
102
RTVSPropertyOp45
 70
     1
102
RTVSPropertyOp46
 70
     1
102
RTVSPropertyOp47
 70
     1
102
RTVSPropertyOp48
 70
     1
102
RTVSPropertyOp49
 70
     1
102
RTVSPropertyOp50
 70
     1
102
RTVSPropertyOp51
 70
     0
102
RTVSPropertyOp52
 70
     0
102
RTVSPropertyOp53
 70
     1
102
RTVSPropertyOp54
 70
     1
102
RTVSPropertyOp55
 70
     1
102
RTVSPropertyOp56
 70
     1
102
RTVSPropertyOp57
 70
     1
102
RTVSPropertyOp58
 70
     1
102
RTVSPropertyOp59
 70
     1
102
RTVSPropertyOp60
 70
     1
102
RTVSPropertyOp61
 70
     1
102
RTVSPropertyOp62
 70
     1
  0
XRECORD
  5
85B0
102
{ACAD_REACTORS
330
85AF
102
}
330
85AF
100
AcDbXrecord
280
     1
102
RTVSPost2010Prop28
280
     0
102
RTVSPost2010PropOp28
 70
     1
102
RTVSPost2010Prop29
280
     1
102
RTVSPost2010PropOp29
 70
     1
102
RTVSPost2010Prop30
280
     1
102
RTVSPost2010PropOp30
 70
     1
102
RTVSPost2010Prop31
280
     0
102
RTVSPost2010PropOp31
 70
     1
102
RTVSPost2010Prop32
280
     0
102
RTVSPost2010PropOp32
 70
     1
102
RTVSPost2010Prop33
280
     0
102
RTVSPost2010PropOp33
 70
     1
102
RTVSPost2010Prop34
280
     0
102
RTVSPost2010PropOp34
 70
     1
102
RTVSPost2010Prop35
280
     0
102
RTVSPost2010PropOp35
 70
     1
102
RTVSPost2010Prop36
280
     0
102
RTVSPost2010PropOp36
 70
     1
102
RTVSPost2010Prop37
 90
       50
102
RTVSPost2010PropOp37
 70
     1
102
RTVSPost2010Prop38
140
0.0
102
RTVSPost2010PropOp38
 70
     1
102
RTVSPost2010Prop39
140
1.0
102
RTVSPost2010PropOp39
 70
     1
102
RTVSPost2010Prop40
 90
        0
102
RTVSPost2010PropOp40
 70
     1
102
RTVSPost2010Prop41ColorIndex
 90
       18
102
RTVSPost2010Prop41ColorRGB
 90
        0
102
RTVSPost2010PropOp41
 70
     1
102
RTVSPost2010Prop42
 90
       50
102
RTVSPost2010PropOp42
 70
     1
102
RTVSPost2010Prop43
 90
        3
102
RTVSPost2010PropOp43
 70
     1
102
RTVSPost2010Prop44ColorIndex
 90
        5
102
RTVSPost2010Prop44ColorRGB
 90
      255
102
RTVSPost2010PropOp44
 70
     1
102
RTVSPost2010Prop45
280
     0
102
RTVSPost2010PropOp45
 70
     1
102
RTVSPost2010Prop46
 90
       50
102
RTVSPost2010PropOp46
 70
     1
102
RTVSPost2010Prop47
 90
       50
102
RTVSPost2010PropOp47
 70
     1
102
RTVSPost2010Prop48
 90
       50
102
RTVSPost2010PropOp48
 70
     1
102
RTVSPost2010Prop49
280
     0
102
RTVSPost2010PropOp49
 70
     1
102
RTVSPost2010Prop50
 90
       50
102
RTVSPost2010PropOp50
 70
     1
102
RTVSPost2010Prop51ColorIndex
 90
      256
102
RTVSPost2010Prop51ColorRGB
 90
-16777216
102
RTVSPost2010PropOp51
 70
     0
102
RTVSPost2010Prop52
140
1.0
102
RTVSPost2010PropOp52
 70
     0
102
RTVSPost2010Prop53
 90
        2
102
RTVSPost2010PropOp53
 70
     1
102
RTVSPost2010Prop54
  1
strokes_ogs.tif
102
RTVSPost2010PropOp54
 70
     1
102
RTVSPost2010Prop55
280
     0
102
RTVSPost2010PropOp55
 70
     1
102
RTVSPost2010Prop56
140
1.0
102
RTVSPost2010PropOp56
 70
     1
102
RTVSPost2010Prop57
140
1.0
102
RTVSPost2010PropOp57
 70
     1
102
RTVSPropertyOp0
 70
     1
102
RTVSPropertyOp1
 70
     1
102
RTVSPropertyOp2
 70
     1
102
RTVSPropertyOp3
 70
     1
102
RTVSPropertyOp4
 70
     1
102
RTVSPropertyOp5
 70
     1
102
RTVSPropertyOp6
 70
     1
102
RTVSPropertyOp7
 70
     1
102
RTVSPropertyOp8
 70
     1
102
RTVSPropertyOp9
 70
     1
102
RTVSPropertyOp10
 70
     1
102
RTVSPropertyOp11
 70
     1
102
RTVSPropertyOp12
 70
     1
102
RTVSPropertyOp13
 70
     1
102
RTVSPropertyOp14
 70
     1
102
RTVSPropertyOp15
 70
     1
102
RTVSPropertyOp16
 70
     1
102
RTVSPropertyOp17
 70
     1
102
RTVSPropertyOp18
 70
     1
102
RTVSPropertyOp19
 70
     1
102
RTVSPropertyOp20
 70
     1
102
RTVSPropertyOp21
 70
     1
102
RTVSPropertyOp22
 70
     1
102
RTVSPropertyOp23
 70
     1
102
RTVSPropertyOp24
 70
     1
102
RTVSPropertyOp25
 70
     1
102
RTVSPropertyOp26
 70
     1
102
RTVSPropertyOp27
 70
     1
102
RTVSPropertyOp28
 70
     1
102
RTVSPropertyOp29
 70
     1
102
RTVSPropertyOp30
 70
     1
102
RTVSPropertyOp31
 70
     1
102
RTVSPropertyOp32
 70
     1
102
RTVSPropertyOp33
 70
     1
102
RTVSPropertyOp34
 70
     1
102
RTVSPropertyOp35
 70
     1
102
RTVSPropertyOp36
 70
     1
102
RTVSPropertyOp37
 70
     1
102
RTVSPropertyOp38
 70
     1
102
RTVSPropertyOp39
 70
     1
102
RTVSPropertyOp40
 70
     1
102
RTVSPropertyOp41
 70
     1
102
RTVSPropertyOp42
 70
     1
102
RTVSPropertyOp43
 70
     1
102
RTVSPropertyOp44
 70
     1
102
RTVSPropertyOp45
 70
     1
102
RTVSPropertyOp46
 70
     1
102
RTVSPropertyOp47
 70
     1
102
RTVSPropertyOp48
 70
     1
102
RTVSPropertyOp49
 70
     1
102
RTVSPropertyOp50
 70
     1
102
RTVSPropertyOp51
 70
     0
102
RTVSPropertyOp52
 70
     0
102
RTVSPropertyOp53
 70
     1
102
RTVSPropertyOp54
 70
     1
102
RTVSPropertyOp55
 70
     1
102
RTVSPropertyOp56
 70
     1
102
RTVSPropertyOp57
 70
     1
102
RTVSPropertyOp58
 70
     1
102
RTVSPropertyOp59
 70
     1
102
RTVSPropertyOp60
 70
     1
102
RTVSPropertyOp61
 70
     1
102
RTVSPropertyOp62
 70
     1
  0
XRECORD
  5
85C8
102
{ACAD_REACTORS
330
85C7
102
}
330
85C7
100
AcDbXrecord
280
     1
102
RTVSPost2010Prop28
280
     0
102
RTVSPost2010PropOp28
 70
     1
102
RTVSPost2010Prop29
280
     1
102
RTVSPost2010PropOp29
 70
     1
102
RTVSPost2010Prop30
280
     1
102
RTVSPost2010PropOp30
 70
     1
102
RTVSPost2010Prop31
280
     0
102
RTVSPost2010PropOp31
 70
     1
102
RTVSPost2010Prop32
280
     0
102
RTVSPost2010PropOp32
 70
     1
102
RTVSPost2010Prop33
280
     0
102
RTVSPost2010PropOp33
 70
     1
102
RTVSPost2010Prop34
280
     0
102
RTVSPost2010PropOp34
 70
     1
102
RTVSPost2010Prop35
280
     0
102
RTVSPost2010PropOp35
 70
     1
102
RTVSPost2010Prop36
280
     0
102
RTVSPost2010PropOp36
 70
     1
102
RTVSPost2010Prop37
 90
       50
102
RTVSPost2010PropOp37
 70
     1
102
RTVSPost2010Prop38
140
0.0
102
RTVSPost2010PropOp38
 70
     1
102
RTVSPost2010Prop39
140
1.0
102
RTVSPost2010PropOp39
 70
     1
102
RTVSPost2010Prop40
 90
        0
102
RTVSPost2010PropOp40
 70
     1
102
RTVSPost2010Prop41ColorIndex
 90
       18
102
RTVSPost2010Prop41ColorRGB
 90
        0
102
RTVSPost2010PropOp41
 70
     1
102
RTVSPost2010Prop42
 90
       50
102
RTVSPost2010PropOp42
 70
     1
102
RTVSPost2010Prop43
 90
        3
102
RTVSPost2010PropOp43
 70
     1
102
RTVSPost2010Prop44ColorIndex
 90
        5
102
RTVSPost2010Prop44ColorRGB
 90
      255
102
RTVSPost2010PropOp44
 70
     1
102
RTVSPost2010Prop45
280
     0
102
RTVSPost2010PropOp45
 70
     1
102
RTVSPost2010Prop46
 90
       50
102
RTVSPost2010PropOp46
 70
     1
102
RTVSPost2010Prop47
 90
       50
102
RTVSPost2010PropOp47
 70
     1
102
RTVSPost2010Prop48
 90
       50
102
RTVSPost2010PropOp48
 70
     1
102
RTVSPost2010Prop49
280
     0
102
RTVSPost2010PropOp49
 70
     1
102
RTVSPost2010Prop50
 90
       50
102
RTVSPost2010PropOp50
 70
     1
102
RTVSPost2010Prop51ColorIndex
 90
      256
102
RTVSPost2010Prop51ColorRGB
 90
-16777216
102
RTVSPost2010PropOp51
 70
     0
102
RTVSPost2010Prop52
140
1.0
102
RTVSPost2010PropOp52
 70
     0
102
RTVSPost2010Prop53
 90
        2
102
RTVSPost2010PropOp53
 70
     1
102
RTVSPost2010Prop54
  1
strokes_ogs.tif
102
RTVSPost2010PropOp54
 70
     1
102
RTVSPost2010Prop55
280
     0
102
RTVSPost2010PropOp55
 70
     1
102
RTVSPost2010Prop56
140
1.0
102
RTVSPost2010PropOp56
 70
     1
102
RTVSPost2010Prop57
140
1.0
102
RTVSPost2010PropOp57
 70
     1
102
RTVSPropertyOp0
 70
     1
102
RTVSPropertyOp1
 70
     1
102
RTVSPropertyOp2
 70
     1
102
RTVSPropertyOp3
 70
     1
102
RTVSPropertyOp4
 70
     1
102
RTVSPropertyOp5
 70
     1
102
RTVSPropertyOp6
 70
     1
102
RTVSPropertyOp7
 70
     1
102
RTVSPropertyOp8
 70
     1
102
RTVSPropertyOp9
 70
     1
102
RTVSPropertyOp10
 70
     1
102
RTVSPropertyOp11
 70
     1
102
RTVSPropertyOp12
 70
     1
102
RTVSPropertyOp13
 70
     1
102
RTVSPropertyOp14
 70
     1
102
RTVSPropertyOp15
 70
     1
102
RTVSPropertyOp16
 70
     1
102
RTVSPropertyOp17
 70
     1
102
RTVSPropertyOp18
 70
     1
102
RTVSPropertyOp19
 70
     1
102
RTVSPropertyOp20
 70
     1
102
RTVSPropertyOp21
 70
     1
102
RTVSPropertyOp22
 70
     1
102
RTVSPropertyOp23
 70
     1
102
RTVSPropertyOp24
 70
     1
102
RTVSPropertyOp25
 70
     1
102
RTVSPropertyOp26
 70
     1
102
RTVSPropertyOp27
 70
     1
102
RTVSPropertyOp28
 70
     1
102
RTVSPropertyOp29
 70
     1
102
RTVSPropertyOp30
 70
     1
102
RTVSPropertyOp31
 70
     1
102
RTVSPropertyOp32
 70
     1
102
RTVSPropertyOp33
 70
     1
102
RTVSPropertyOp34
 70
     1
102
RTVSPropertyOp35
 70
     1
102
RTVSPropertyOp36
 70
     1
102
RTVSPropertyOp37
 70
     1
102
RTVSPropertyOp38
 70
     1
102
RTVSPropertyOp39
 70
     1
102
RTVSPropertyOp40
 70
     1
102
RTVSPropertyOp41
 70
     1
102
RTVSPropertyOp42
 70
     1
102
RTVSPropertyOp43
 70
     1
102
RTVSPropertyOp44
 70
     1
102
RTVSPropertyOp45
 70
     1
102
RTVSPropertyOp46
 70
     1
102
RTVSPropertyOp47
 70
     1
102
RTVSPropertyOp48
 70
     1
102
RTVSPropertyOp49
 70
     1
102
RTVSPropertyOp50
 70
     1
102
RTVSPropertyOp51
 70
     0
102
RTVSPropertyOp52
 70
     0
102
RTVSPropertyOp53
 70
     1
102
RTVSPropertyOp54
 70
     1
102
RTVSPropertyOp55
 70
     1
102
RTVSPropertyOp56
 70
     1
102
RTVSPropertyOp57
 70
     1
102
RTVSPropertyOp58
 70
     1
102
RTVSPropertyOp59
 70
     1
102
RTVSPropertyOp60
 70
     1
102
RTVSPropertyOp61
 70
     1
102
RTVSPropertyOp62
 70
     1
  0
ENDSEC
  0
EOF
