  0
SECTION
  2
HEADER
  9
$ACADVER
  1
AC1015
  9
$ACADMAINTVER
 70
    20
  9
$DWGCODEPAGE
  3
ANSI_932
  9
$INSBASE
 10
0.0
 20
0.0
 30
0.0
  9
$EXTMIN
 10
-0.2563280987742473
 20
-0.3600799482810544
 30
-0.0015258207003583
  9
$EXTMAX
 10
8400.256367214323
 20
11800.3601348963
 30
0.0000000349246037
  9
$LIMMIN
 10
0.0
 20
0.0
  9
$LIMMAX
 10
297.0
 20
210.0
  9
$ORTHOMODE
 70
     1
  9
$REGENMODE
 70
     1
  9
$FILLMODE
 70
     0
  9
$QTEXTMODE
 70
     0
  9
$MIRRTEXT
 70
     1
  9
$LTSCALE
 40
100.0
  9
$ATTMODE
 70
     1
  9
$TEXTSIZE
 40
180.0
  9
$TRACEWID
 40
0.05
  9
$TEXTSTYLE
  7
STANDARD
  9
$CLAYER
  8
3
  9
$CELTYPE
  6
ByLayer
  9
$CECOLOR
 62
   256
  9
$CELTSCALE
 40
1.0
  9
$DISPSILH
 70
     0
  9
$DIMSCALE
 40
40.0
  9
$DIMASZ
 40
2.0
  9
$DIMEXO
 40
0.5
  9
$DIMDLI
 40
10.0
  9
$DIMRND
 40
0.0
  9
$DIMDLE
 40
0.0
  9
$DIMEXE
 40
1.0
  9
$DIMTP
 40
1.0
  9
$DIMTM
 40
1.0
  9
$DIMTXT
 40
3.0
  9
$DIMCEN
 40
0.0
  9
$DIMTSZ
 40
0.0
  9
$DIMTOL
 70
     0
  9
$DIMLIM
 70
     0
  9
$DIMTIH
 70
     0
  9
$DIMTOH
 70
     0
  9
$DIMSE1
 70
     0
  9
$DIMSE2
 70
     0
  9
$DIMTAD
 70
     1
  9
$DIMZIN
 70
     8
  9
$DIMBLK
  1

  9
$DIMASO
 70
     1
  9
$DIMSHO
 70
     1
  9
$DIMPOST
  1

  9
$DIMAPOST
  1

  9
$DIMALT
 70
     0
  9
$DIMALTD
 70
     2
  9
$DIMALTF
 40
0.039
  9
$DIMLFAC
 40
1.0
  9
$DIMTOFL
 70
     1
  9
$DIMTVP
 40
0.0
  9
$DIMTIX
 70
     0
  9
$DIMSOXD
 70
     0
  9
$DIMSAH
 70
     1
  9
$DIMBLK1
  1
OPEN
  9
$DIMBLK2
  1
OPEN
  9
$DIMSTYLE
  2
IGA
  9
$DIMCLRD
 70
     0
  9
$DIMCLRE
 70
     0
  9
$DIMCLRT
 70
     0
  9
$DIMTFAC
 40
10.0
  9
$DIMGAP
 40
1.0
  9
$DIMJUST
 70
     0
  9
$DIMSD1
 70
     0
  9
$DIMSD2
 70
     0
  9
$DIMTOLJ
 70
     1
  9
$DIMTZIN
 70
     0
  9
$DIMALTZ
 70
     0
  9
$DIMALTTZ
 70
     0
  9
$DIMUPT
 70
     0
  9
$DIMDEC
 70
     4
  9
$DIMTDEC
 70
     4
  9
$DIMALTU
 70
     2
  9
$DIMALTTD
 70
     2
  9
$DIMTXSTY
  7
STANDARD
  9
$DIMAUNIT
 70
     0
  9
$DIMADEC
 70
     0
  9
$DIMALTRND
 40
0.0
  9
$DIMAZIN
 70
     0
  9
$DIMDSEP
 70
    46
  9
$DIMATFIT
 70
     3
  9
$DIMFRAC
 70
     0
  9
$DIMLDRBLK
  1
OPEN
  9
$DIMLUNIT
 70
     2
  9
$DIMLWD
 70
    -2
  9
$DIMLWE
 70
    -2
  9
$DIMTMOVE
 70
     0
  9
$LUNITS
 70
     2
  9
$LUPREC
 70
     3
  9
$SKETCHINC
 40
0.1
  9
$FILLETRAD
 40
50.0
  9
$AUNITS
 70
     0
  9
$AUPREC
 70
     0
  9
$MENU
  1
acad
  9
$ELEVATION
 40
0.0
  9
$PELEVATION
 40
0.0
  9
$THICKNESS
 40
0.0
  9
$LIMCHECK
 70
     0
  9
$CHAMFERA
 40
0.5
  9
$CHAMFERB
 40
0.5
  9
$CHAMFERC
 40
0.0
  9
$CHAMFERD
 40
0.0
  9
$SKPOLY
 70
     0
  9
$TDCREATE
 40
2451898.665484606
  9
$TDUCREATE
 40
2451898.290484606
  9
$TDUPDATE
 40
2460280.707047523
  9
$TDUUPDATE
 40
2460280.332047523
  9
$TDINDWG
 40
0.0283359491
  9
$TDUSRTIMER
 40
0.0283357060
  9
$USRTIMER
 70
     1
  9
$ANGBASE
 50
0.0
  9
$ANGDIR
 70
     0
  9
$PDMODE
 70
     0
  9
$PDSIZE
 40
0.0
  9
$PLINEWID
 40
0.0
  9
$SPLFRAME
 70
     0
  9
$SPLINETYPE
 70
     6
  9
$SPLINESEGS
 70
     8
  9
$HANDSEED
  5
86B3
  9
$SURFTAB1
 70
     6
  9
$SURFTAB2
 70
     6
  9
$SURFTYPE
 70
     6
  9
$SURFU
 70
     6
  9
$SURFV
 70
     6
  9
$UCSBASE
  2

  9
$UCSNAME
  2

  9
$UCSORG
 10
0.0
 20
0.0
 30
0.0
  9
$UCSXDIR
 10
1.0
 20
0.0
 30
0.0
  9
$UCSYDIR
 10
0.0
 20
1.0
 30
0.0
  9
$UCSORTHOREF
  2

  9
$UCSORTHOVIEW
 70
     0
  9
$UCSORGTOP
 10
0.0
 20
0.0
 30
0.0
  9
$UCSORGBOTTOM
 10
0.0
 20
0.0
 30
0.0
  9
$UCSORGLEFT
 10
0.0
 20
0.0
 30
0.0
  9
$UCSORGRIGHT
 10
0.0
 20
0.0
 30
0.0
  9
$UCSORGFRONT
 10
0.0
 20
0.0
 30
0.0
  9
$UCSORGBACK
 10
0.0
 20
0.0
 30
0.0
  9
$PUCSBASE
  2

  9
$PUCSNAME
  2

  9
$PUCSORG
 10
0.0
 20
0.0
 30
0.0
  9
$PUCSXDIR
 10
1.0
 20
0.0
 30
0.0
  9
$PUCSYDIR
 10
0.0
 20
1.0
 30
0.0
  9
$PUCSORTHOREF
  2

  9
$PUCSORTHOVIEW
 70
     0
  9
$PUCSORGTOP
 10
0.0
 20
0.0
 30
0.0
  9
$PUCSORGBOTTOM
 10
0.0
 20
0.0
 30
0.0
  9
$PUCSORGLEFT
 10
0.0
 20
0.0
 30
0.0
  9
$PUCSORGRIGHT
 10
0.0
 20
0.0
 30
0.0
  9
$PUCSORGFRONT
 10
0.0
 20
0.0
 30
0.0
  9
$PUCSORGBACK
 10
0.0
 20
0.0
 30
0.0
  9
$USERI1
 70
     0
  9
$USERI2
 70
     0
  9
$USERI3
 70
     0
  9
$USERI4
 70
     0
  9
$USERI5
 70
     0
  9
$USERR1
 40
0.0
  9
$USERR2
 40
0.0
  9
$USERR3
 40
0.0
  9
$USERR4
 40
0.0
  9
$USERR5
 40
0.0
  9
$WORLDVIEW
 70
     1
  9
$SHADEDGE
 70
     3
  9
$SHADEDIF
 70
    70
  9
$TILEMODE
 70
     1
  9
$MAXACTVP
 70
    16
  9
$PINSBASE
 10
0.0
 20
0.0
 30
0.0
  9
$PLIMCHECK
 70
     0
  9
$PEXTMIN
 10
1.000000000000000E+20
 20
1.000000000000000E+20
 30
1.000000000000000E+20
  9
$PEXTMAX
 10
-1.000000000000000E+20
 20
-1.000000000000000E+20
 30
-1.000000000000000E+20
  9
$PLIMMIN
 10
0.0
 20
0.0
  9
$PLIMMAX
 10
12.0
 20
9.0
  9
$UNITMODE
 70
     0
  9
$VISRETAIN
 70
     0
  9
$PLINEGEN
 70
     0
  9
$PSLTSCALE
 70
     1
  9
$TREEDEPTH
 70
  3020
  9
$CMLSTYLE
  2
Standard
  9
$CMLJUST
 70
     0
  9
$CMLSCALE
 40
1.0
  9
$PROXYGRAPHICS
 70
     1
  9
$MEASUREMENT
 70
     0
  9
$CELWEIGHT
370
    -1
  9
$ENDCAPS
280
     0
  9
$JOINSTYLE
280
     0
  9
$LWDISPLAY
290
     0
  9
$INSUNITS
 70
     0
  9
$HYPERLINKBASE
  1

  9
$STYLESHEET
  1

  9
$XEDIT
290
     1
  9
$CEPSNTYPE
380
     0
  9
$PSTYLEMODE
290
     1
  9
$FINGERPRINTGUID
  2
{72FA2AA5-19C3-4D1F-933D-37A9E474B9B0}
  9
$VERSIONGUID
  2
{565B34F7-1720-4688-B5BB-D84BB93BE06A}
  9
$EXTNAMES
290
     1
  9
$PSVPSCALE
 40
0.0
  9
$OLESTARTUP
290
     0
  0
ENDSEC
  0
SECTION
  2
CLASSES
  0
CLASS
  1
ACDBDICTIONARYWDFLT
  2
AcDbDictionaryWithDefault
  3
ObjectDBX Classes
 90
        0
280
     0
281
     0
  0
CLASS
  1
MATERIAL
  2
AcDbMaterial
  3
ObjectDBX Classes
 90
     1153
280
     0
281
     0
  0
CLASS
  1
VISUALSTYLE
  2
AcDbVisualStyle
  3
ObjectDBX Classes
 90
     4095
280
     0
281
     0
  0
CLASS
  1
SCALE
  2
AcDbScale
  3
ObjectDBX Classes
 90
     1153
280
     0
281
     0
  0
CLASS
  1
TABLESTYLE
  2
AcDbTableStyle
  3
ObjectDBX Classes
 90
     4095
280
     0
281
     0
  0
CLASS
  1
MLEADERSTYLE
  2
AcDbMLeaderStyle
  3
ACDB_MLEADERSTYLE_CLASS
 90
     4095
280
     0
281
     0
  0
CLASS
  1
ACDBSECTIONVIEWSTYLE
  2
AcDbSectionViewStyle
  3
ObjectDBX Classes
 90
     1025
280
     0
281
     0
  0
CLASS
  1
ACDBDETAILVIEWSTYLE
  2
AcDbDetailViewStyle
  3
ObjectDBX Classes
 90
     1025
280
     0
281
     0
  0
CLASS
  1
DICTIONARYVAR
  2
AcDbDictionaryVar
  3
ObjectDBX Classes
 90
        0
280
     0
281
     0
  0
CLASS
  1
CELLSTYLEMAP
  2
AcDbCellStyleMap
  3
ObjectDBX Classes
 90
     1152
280
     0
281
     0
  0
CLASS
  1
SORTENTSTABLE
  2
AcDbSortentsTable
  3
ObjectDBX Classes
 90
        0
280
     0
281
     0
  0
CLASS
  1
ACDBPLACEHOLDER
  2
AcDbPlaceHolder
  3
ObjectDBX Classes
 90
        0
280
     0
281
     0
  0
CLASS
  1
LAYOUT
  2
AcDbLayout
  3
ObjectDBX Classes
 90
        0
280
     0
281
     0
  0
ENDSEC
  0
SECTION
  2
TABLES
  0
TABLE
  2
VPORT
  5
83FC
330
0
100
AcDbSymbolTable
 70
     1
  0
VPORT
  5
8468
330
83FC
100
AcDbSymbolTableRecord
100
AcDbViewportTableRecord
  2
*ACTIVE
 70
     0
 10
0.0
 20
0.0
 11
1.0
 21
1.0
 12
4200.000019557773
 22
5900.000027474012
 13
0.0
 23
0.0
 14
10.0
 24
10.0
 15
10.0
 25
10.0
 16
0.0
 26
0.0
 36
1.0
 17
0.0
 27
0.0
 37
0.0
 40
11876.28512550527
 41
2.050213675213675
 42
50.0
 43
0.0
 44
0.0
 50
0.0
 51
0.0
 71
     0
 72
   100
 73
     1
 74
     0
 75
     0
 76
     0
 77
     0
 78
     0
281
     0
 65
     1
110
0.0
120
0.0
130
0.0
111
1.0
121
0.0
131
0.0
112
0.0
122
1.0
132
0.0
 79
     0
146
0.0
1001
ACAD_NAV_VCDISPLAY
1070
     3
  0
ENDTAB
  0
TABLE
  2
LTYPE
  5
83F9
330
0
100
AcDbSymbolTable
 70
     3
  0
LTYPE
  5
844E
330
83F9
100
AcDbSymbolTableRecord
100
AcDbLinetypeTableRecord
  2
ByBlock
 70
     0
  3

 72
    65
 73
     0
 40
0.0
  0
LTYPE
  5
844F
330
83F9
100
AcDbSymbolTableRecord
100
AcDbLinetypeTableRecord
  2
ByLayer
 70
     0
  3

 72
    65
 73
     0
 40
0.0
  0
LTYPE
  5
8450
330
83F9
100
AcDbSymbolTableRecord
100
AcDbLinetypeTableRecord
  2
CONTINUOUS
 70
     0
  3
Solid line
 72
    65
 73
     0
 40
0.0
  0
LTYPE
  5
8469
330
83F9
100
AcDbSymbolTableRecord
100
AcDbLinetypeTableRecord
  2
CENTER
 70
     0
  3
____ _ ____ _ ____ _ ____ _ ____ _ ____ _ ____ 
 72
    65
 73
     4
 40
2.0
 49
1.25
 74
     0
 49
-0.25
 74
     0
 49
0.25
 74
     0
 49
-0.25
 74
     0
  0
ENDTAB
  0
TABLE
  2
LAYER
  5
83F6
330
0
100
AcDbSymbolTable
 70
     6
  0
LAYER
  5
8448
102
{ACAD_XDICTIONARY
360
84A9
102
}
330
83F6
100
AcDbSymbolTableRecord
100
AcDbLayerTableRecord
  2
0
 70
     0
 62
     7
  6
CONTINUOUS
370
    -3
390
8403
  0
LAYER
  5
8467
102
{ACAD_XDICTIONARY
360
84AB
102
}
330
83F6
100
AcDbSymbolTableRecord
100
AcDbLayerTableRecord
  2
3
 70
     0
 62
     2
  6
CONTINUOUS
370
    -3
390
8403
  0
LAYER
  5
846A
102
{ACAD_XDICTIONARY
360
84AD
102
}
330
83F6
100
AcDbSymbolTableRecord
100
AcDbLayerTableRecord
  2
2
 70
     0
 62
     3
  6
CENTER
370
    -3
390
8403
  0
LAYER
  5
846B
102
{ACAD_XDICTIONARY
360
84AF
102
}
330
83F6
100
AcDbSymbolTableRecord
100
AcDbLayerTableRecord
  2
1
 70
     0
 62
     4
  6
CONTINUOUS
370
    -3
390
8403
  0
LAYER
  5
846C
102
{ACAD_XDICTIONARY
360
84B1
102
}
330
83F6
100
AcDbSymbolTableRecord
100
AcDbLayerTableRecord
  2
4
 70
     0
 62
     7
  6
CONTINUOUS
370
    -3
390
8403
  0
LAYER
  5
846D
330
83F6
100
AcDbSymbolTableRecord
100
AcDbLayerTableRecord
  2
DEFPOINTS
 70
     0
 62
     7
  6
CONTINUOUS
290
     0
370
    -3
390
8403
  0
ENDTAB
  0
TABLE
  2
STYLE
  5
83F7
330
0
100
AcDbSymbolTable
 70
     2
  0
STYLE
  5
8449
330
83F7
100
AcDbSymbolTableRecord
100
AcDbTextStyleTableRecord
  2
STANDARD
 70
     0
 40
0.0
 41
1.0
 50
0.0
 71
     0
 42
180.0
  3
simplex.shx
  4
extfont.shx
  0
STYLE
  5
844D
330
83F7
100
AcDbSymbolTableRecord
100
AcDbTextStyleTableRecord
  2
Annotative
 70
     0
 40
0.0
 41
1.0
 50
0.0
 71
     0
 42
0.2
  3
txt
  4

1001
AcadAnnotative
1000
AnnotativeData
1002
{
1070
     1
1070
     1
1002
}
  0
ENDTAB
  0
TABLE
  2
VIEW
  5
83FA
330
0
100
AcDbSymbolTable
 70
     0
  0
ENDTAB
  0
TABLE
  2
UCS
  5
83FB
330
0
100
AcDbSymbolTable
 70
     0
  0
ENDTAB
  0
TABLE
  2
APPID
  5
83FD
330
0
100
AcDbSymbolTable
 70
     6
  0
APPID
  5
844A
330
83FD
100
AcDbSymbolTableRecord
100
AcDbRegAppTableRecord
  2
ACAD
 70
     0
  0
APPID
  5
8451
330
83FD
100
AcDbSymbolTableRecord
100
AcDbRegAppTableRecord
  2
AcadAnnotative
 70
     0
  0
APPID
  5
84BD
330
83FD
100
AcDbSymbolTableRecord
100
AcDbRegAppTableRecord
  2
ACAD_NAV_VCDISPLAY
 70
     0
  0
APPID
  5
8537
330
83FD
100
AcDbSymbolTableRecord
100
AcDbRegAppTableRecord
  2
AcadAnnoMonitorAlertIconDisabled
 70
     0
  0
APPID
  5
8538
330
83FD
100
AcDbSymbolTableRecord
100
AcDbRegAppTableRecord
  2
ACAD_EXEMPT_FROM_CAD_STANDARDS
 70
     0
  0
APPID
  5
86AA
330
83FD
100
AcDbSymbolTableRecord
100
AcDbRegAppTableRecord
  2
ACAD_MLEADERVER
 70
     0
  0
ENDTAB
  0
TABLE
  2
DIMSTYLE
  5
83FE
330
0
100
AcDbSymbolTable
 70
     3
100
AcDbDimStyleTable
 71
     1
340
846E
  0
DIMSTYLE
105
844B
102
{ACAD_REACTORS
330
8242
330
824F
330
825C
330
8269
330
8276
102
}
330
83FE
100
AcDbSymbolTableRecord
100
AcDbDimStyleTableRecord
  2
Standard
 70
     0
340
8449
  0
DIMSTYLE
105
844C
330
83FE
100
AcDbSymbolTableRecord
100
AcDbDimStyleTableRecord
  2
Annotative
 70
     0
340
8449
1001
AcadAnnotative
1000
AnnotativeData
1002
{
1070
     1
1070
     1
1002
}
  0
DIMSTYLE
105
846E
102
{ACAD_REACTORS
330
84FF
330
850C
330
8519
330
852A
330
85A1
330
85AE
330
85BB
330
85C8
330
85D5
330
85EB
330
85F8
330
8605
330
8612
330
861F
330
8658
330
8665
102
}
330
83FE
100
AcDbSymbolTableRecord
100
AcDbDimStyleTableRecord
  2
IGA
 70
     0
 40
2.0
 41
2.0
 42
0.5
 43
10.0
 44
1.0
 47
1.0
 48
1.0
 73
     0
 74
     0
 77
     1
 78
     8
140
3.0
141
0.0
143
0.03937
146
10.0
147
1.0
173
     1
271
     3
272
     3
279
     2
284
     8
285
     8
286
     8
340
8449
  0
ENDTAB
  0
TABLE
  2
BLOCK_RECORD
  5
83F5
330
0
100
AcDbSymbolTable
 70
    46
  0
BLOCK_RECORD
  5
8463
102
{ACAD_XDICTIONARY
360
8527
102
}
330
83F5
100
AcDbSymbolTableRecord
100
AcDbBlockTableRecord
  2
*Model_Space
340
8466
  0
BLOCK_RECORD
  5
845F
330
83F5
100
AcDbSymbolTableRecord
100
AcDbBlockTableRecord
  2
*Paper_Space
340
8462
  0
BLOCK_RECORD
  5
8472
330
83F5
100
AcDbSymbolTableRecord
100
AcDbBlockTableRecord
  2
$MODEL_SPACE
340
0
  0
BLOCK_RECORD
  5
8474
330
83F5
100
AcDbSymbolTableRecord
100
AcDbBlockTableRecord
  2
$PAPER_SPACE
340
0
  0
BLOCK_RECORD
  5
8476
330
83F5
100
AcDbSymbolTableRecord
100
AcDbBlockTableRecord
  2
YA_N
340
0
102
{BLKREFS
331
7CA1
331
7CB4
331
7CDA
331
7CF1
331
7C22
331
7C3D
331
7C3E
331
7C61
102
}
  0
BLOCK_RECORD
  5
8478
330
83F5
100
AcDbSymbolTableRecord
100
AcDbBlockTableRecord
  2
*D3
340
0
  0
BLOCK_RECORD
  5
847A
330
83F5
100
AcDbSymbolTableRecord
100
AcDbBlockTableRecord
  2
_OPEN
340
0
102
{BLKREFS
331
83B7
331
83B8
331
8619
331
861A
331
8626
331
8627
331
8649
331
864A
331
8652
331
8653
331
865F
331
8660
331
866C
331
866D
331
83A5
331
83A6
331
83AE
331
83AF
331
83C0
331
83C1
331
85A8
331
85A9
331
85B5
331
85B6
331
85C2
331
85C3
331
85CF
331
85D0
331
85DC
331
85DD
331
85E5
331
85E6
331
85F2
331
85F3
331
85FF
331
8600
331
860C
331
860D
331
83C9
331
83CA
331
8546
331
8547
331
8585
331
8586
331
858E
331
858F
331
838A
331
838B
331
8393
331
8394
331
839C
331
839D
331
8354
331
8355
331
835D
331
835E
331
8366
331
8367
331
836F
331
8370
331
8378
331
8379
331
8381
331
8382
331
83DE
331
83DF
331
823B
331
823C
331
8248
331
8249
331
8255
331
8256
331
8262
331
8263
331
826F
331
83D2
331
83D3
331
8506
331
8507
331
8270
102
}
  0
BLOCK_RECORD
  5
847B
330
83F5
100
AcDbSymbolTableRecord
100
AcDbBlockTableRecord
  2
*D5
340
0
  0
BLOCK_RECORD
  5
847D
330
83F5
100
AcDbSymbolTableRecord
100
AcDbBlockTableRecord
  2
*D6
340
0
  0
BLOCK_RECORD
  5
847F
330
83F5
100
AcDbSymbolTableRecord
100
AcDbBlockTableRecord
  2
*D7
340
0
  0
BLOCK_RECORD
  5
8481
330
83F5
100
AcDbSymbolTableRecord
100
AcDbBlockTableRecord
  2
*D8
340
0
  0
BLOCK_RECORD
  5
8483
330
83F5
100
AcDbSymbolTableRecord
100
AcDbBlockTableRecord
  2
*D9
340
0
  0
BLOCK_RECORD
  5
8485
330
83F5
100
AcDbSymbolTableRecord
100
AcDbBlockTableRecord
  2
*D10
340
0
  0
BLOCK_RECORD
  5
8487
330
83F5
100
AcDbSymbolTableRecord
100
AcDbBlockTableRecord
  2
*D11
340
0
  0
BLOCK_RECORD
  5
8489
330
83F5
100
AcDbSymbolTableRecord
100
AcDbBlockTableRecord
  2
*D12
340
0
  0
BLOCK_RECORD
  5
848B
330
83F5
100
AcDbSymbolTableRecord
100
AcDbBlockTableRecord
  2
*D13
340
0
  0
BLOCK_RECORD
  5
848D
330
83F5
100
AcDbSymbolTableRecord
100
AcDbBlockTableRecord
  2
*D14
340
0
  0
BLOCK_RECORD
  5
848F
330
83F5
100
AcDbSymbolTableRecord
100
AcDbBlockTableRecord
  2
*D15
340
0
  0
BLOCK_RECORD
  5
8491
330
83F5
100
AcDbSymbolTableRecord
100
AcDbBlockTableRecord
  2
*D16
340
0
  0
BLOCK_RECORD
  5
8493
330
83F5
100
AcDbSymbolTableRecord
100
AcDbBlockTableRecord
  2
*D17
340
0
  0
BLOCK_RECORD
  5
8495
330
83F5
100
AcDbSymbolTableRecord
100
AcDbBlockTableRecord
  2
*D18
340
0
  0
BLOCK_RECORD
  5
8498
330
83F5
100
AcDbSymbolTableRecord
100
AcDbBlockTableRecord
  2
_DOT
340
0
  0
BLOCK_RECORD
  5
849A
330
83F5
100
AcDbSymbolTableRecord
100
AcDbBlockTableRecord
  2
*D20
340
0
  0
BLOCK_RECORD
  5
849C
330
83F5
100
AcDbSymbolTableRecord
100
AcDbBlockTableRecord
  2
_NONE
340
0
  0
BLOCK_RECORD
  5
849E
330
83F5
100
AcDbSymbolTableRecord
100
AcDbBlockTableRecord
  2
*D22
340
0
  0
BLOCK_RECORD
  5
84A0
330
83F5
100
AcDbSymbolTableRecord
100
AcDbBlockTableRecord
  2
*D23
340
0
  0
BLOCK_RECORD
  5
84A2
330
83F5
100
AcDbSymbolTableRecord
100
AcDbBlockTableRecord
  2
*D24
340
0
  0
BLOCK_RECORD
  5
84A4
330
83F5
100
AcDbSymbolTableRecord
100
AcDbBlockTableRecord
  2
*D25
340
0
  0
BLOCK_RECORD
  5
84A6
330
83F5
100
AcDbSymbolTableRecord
100
AcDbBlockTableRecord
  2
*D26
340
0
  0
BLOCK_RECORD
  5
8500
330
83F5
100
AcDbSymbolTableRecord
100
AcDbBlockTableRecord
  2
*D27
340
0
  0
BLOCK_RECORD
  5
850D
330
83F5
100
AcDbSymbolTableRecord
100
AcDbBlockTableRecord
  2
*D28
340
0
  0
BLOCK_RECORD
  5
851A
330
83F5
100
AcDbSymbolTableRecord
100
AcDbBlockTableRecord
  2
*D29
340
0
  0
BLOCK_RECORD
  5
852B
330
83F5
100
AcDbSymbolTableRecord
100
AcDbBlockTableRecord
  2
*D30
340
0
  0
BLOCK_RECORD
  5
8595
330
83F5
100
AcDbSymbolTableRecord
100
AcDbBlockTableRecord
  2
*D31
340
0
  0
BLOCK_RECORD
  5
85A2
330
83F5
100
AcDbSymbolTableRecord
100
AcDbBlockTableRecord
  2
*D32
340
0
  0
BLOCK_RECORD
  5
85AF
330
83F5
100
AcDbSymbolTableRecord
100
AcDbBlockTableRecord
  2
*D33
340
0
  0
BLOCK_RECORD
  5
85BC
330
83F5
100
AcDbSymbolTableRecord
100
AcDbBlockTableRecord
  2
*D34
340
0
  0
BLOCK_RECORD
  5
85C9
330
83F5
100
AcDbSymbolTableRecord
100
AcDbBlockTableRecord
  2
*D35
340
0
  0
BLOCK_RECORD
  5
85D6
330
83F5
100
AcDbSymbolTableRecord
100
AcDbBlockTableRecord
  2
*D36
340
0
  0
BLOCK_RECORD
  5
85EC
330
83F5
100
AcDbSymbolTableRecord
100
AcDbBlockTableRecord
  2
*D37
340
0
  0
BLOCK_RECORD
  5
85F9
330
83F5
100
AcDbSymbolTableRecord
100
AcDbBlockTableRecord
  2
*D38
340
0
  0
BLOCK_RECORD
  5
8606
330
83F5
100
AcDbSymbolTableRecord
100
AcDbBlockTableRecord
  2
*D39
340
0
  0
BLOCK_RECORD
  5
8613
330
83F5
100
AcDbSymbolTableRecord
100
AcDbBlockTableRecord
  2
*D40
340
0
  0
BLOCK_RECORD
  5
8620
330
83F5
100
AcDbSymbolTableRecord
100
AcDbBlockTableRecord
  2
*D41
340
0
  0
BLOCK_RECORD
  5
862D
330
83F5
100
AcDbSymbolTableRecord
100
AcDbBlockTableRecord
  2
*D42
340
0
  0
BLOCK_RECORD
  5
863A
330
83F5
100
AcDbSymbolTableRecord
100
AcDbBlockTableRecord
  2
*D43
340
0
  0
BLOCK_RECORD
  5
8659
330
83F5
100
AcDbSymbolTableRecord
100
AcDbBlockTableRecord
  2
*D44
340
0
  0
BLOCK_RECORD
  5
8666
330
83F5
100
AcDbSymbolTableRecord
100
AcDbBlockTableRecord
  2
*D45
340
0
  0
ENDTAB
  0
ENDSEC
  0
SECTION
  2
BLOCKS
  0
BLOCK
  5
8464
330
8463
100
AcDbEntity
  8
0
100
AcDbBlockBegin
  2
*Model_Space
 70
     0
 10
0.0
 20
0.0
 30
0.0
  3
*Model_Space
  1

  0
ENDBLK
  5
8465
330
8463
100
AcDbEntity
  8
0
100
AcDbBlockEnd
  0
BLOCK
  5
8460
330
845F
100
AcDbEntity
 67
     1
  8
0
100
AcDbBlockBegin
  2
*Paper_Space
 70
     0
 10
0.0
 20
0.0
 30
0.0
  3
*Paper_Space
  1

  0
ENDBLK
  5
8461
330
845F
100
AcDbEntity
 67
     1
  8
0
100
AcDbBlockEnd
  0
BLOCK
  5
8473
330
8472
100
AcDbEntity
  8
0
100
AcDbBlockBegin
  2
$MODEL_SPACE
 70
     0
 10
0.0
 20
0.0
 30
0.0
  3
$MODEL_SPACE
  1

  0
ENDBLK
  5
1B
330
8472
100
AcDbEntity
  8
0
100
AcDbBlockEnd
  0
BLOCK
  5
8475
330
8474
100
AcDbEntity
  8
0
100
AcDbBlockBegin
  2
$PAPER_SPACE
 70
     0
 10
0.0
 20
0.0
 30
0.0
  3
$PAPER_SPACE
  1

  0
ENDBLK
  5
18
330
8474
100
AcDbEntity
  8
0
100
AcDbBlockEnd
  0
BLOCK
  5
8477
330
8476
100
AcDbEntity
  8
0
100
AcDbBlockBegin
  2
YA_N
 70
     0
 10
0.0
 20
0.0
 30
0.0
  3
YA_N
  1

  0
ENDBLK
  5
79FE
330
8476
100
AcDbEntity
  8
0
100
AcDbBlockEnd
  0
BLOCK
  5
8479
330
8478
100
AcDbEntity
  8
0
100
AcDbBlockBegin
  2
*D3
 70
     1
 10
0.0
 20
0.0
 30
0.0
  3
*D3
  1

  0
LINE
  5
8351
330
8478
100
AcDbEntity
  8
3
 62
     0
100
AcDbLine
 10
5391.092839011053
 20
5261.720885449071
 30
0.0
 11
5391.092839011053
 21
5530.120671915636
 31
0.0
  0
LINE
  5
8352
330
8478
100
AcDbEntity
  8
3
 62
     0
100
AcDbLine
 10
7091.092839011054
 20
5261.720885449071
 30
0.0
 11
7091.092839011054
 21
5530.120671915636
 31
0.0
  0
LINE
  5
8353
330
8478
100
AcDbEntity
  8
3
 62
     0
100
AcDbLine
 10
5471.092839011053
 20
5490.120671915637
 30
0.0
 11
7011.092839011054
 21
5490.120671915637
 31
0.0
  0
INSERT
  5
8354
330
8478
100
AcDbEntity
  8
3
 62
     0
100
AcDbBlockReference
  2
_OPEN
 10
5391.092839011053
 20
5490.120671915637
 30
0.0
 41
80.0
 42
80.0
 43
80.0
 50
180.0
  0
INSERT
  5
8355
330
8478
100
AcDbEntity
  8
3
 62
     0
100
AcDbBlockReference
  2
_OPEN
 10
7091.092839011054
 20
5490.120671915637
 30
0.0
 41
80.0
 42
80.0
 43
80.0
  0
TEXT
  5
83E4
330
8478
100
AcDbEntity
  8
3
 62
     0
100
AcDbText
 10
6001.09
 20
5377.72
 30
0.0
 40
120.0
  1
1700
100
AcDbText
  0
POINT
  5
8357
330
8478
100
AcDbEntity
  8
DEFPOINTS
 62
     0
100
AcDbPoint
 10
5391.092839011053
 20
5241.720885449071
 30
0.0
  0
POINT
  5
8358
330
8478
100
AcDbEntity
  8
DEFPOINTS
 62
     0
100
AcDbPoint
 10
7091.092839011054
 20
5241.720885449071
 30
0.0
  0
POINT
  5
8359
330
8478
100
AcDbEntity
  8
DEFPOINTS
 62
     0
100
AcDbPoint
 10
7091.092839011054
 20
5490.120671915637
 30
0.0
  0
ENDBLK
  5
804B
330
8478
100
AcDbEntity
  8
0
100
AcDbBlockEnd
  0
BLOCK
  5
8497
330
847A
100
AcDbEntity
  8
0
100
AcDbBlockBegin
  2
_OPEN
 70
     0
 10
0.0
 20
0.0
 30
0.0
  3
_OPEN
  1

  0
LINE
  5
7F3C
330
847A
100
AcDbEntity
  8
0
  6
ByBlock
 62
     0
100
AcDbLine
 10
-1.0
 20
0.1666666666666666
 30
0.0
 11
0.0
 21
0.0
 31
0.0
  0
LINE
  5
7F3D
330
847A
100
AcDbEntity
  8
0
  6
ByBlock
 62
     0
100
AcDbLine
 10
0.0
 20
0.0
 30
0.0
 11
-1.0
 21
-0.1666666666666666
 31
0.0
  0
LINE
  5
7F3E
330
847A
100
AcDbEntity
  8
0
  6
ByBlock
 62
     0
100
AcDbLine
 10
0.0
 20
0.0
 30
0.0
 11
-1.0
 21
0.0
 31
0.0
  0
ENDBLK
  5
7F3F
330
847A
100
AcDbEntity
  8
0
100
AcDbBlockEnd
  0
BLOCK
  5
847C
330
847B
100
AcDbEntity
  8
0
100
AcDbBlockBegin
  2
*D5
 70
     1
 10
0.0
 20
0.0
 30
0.0
  3
*D5
  1

  0
LINE
  5
835A
330
847B
100
AcDbEntity
  8
3
 62
     0
100
AcDbLine
 10
5006.092839011054
 20
4620.800457609003
 30
0.0
 11
5006.092839011054
 21
5855.197290539809
 31
0.0
  0
LINE
  5
835B
330
847B
100
AcDbEntity
  8
3
 62
     0
100
AcDbLine
 10
6241.092839011054
 20
5687.263901748139
 30
0.0
 11
6241.092839011054
 21
5855.197290539809
 31
0.0
  0
LINE
  5
835C
330
847B
100
AcDbEntity
  8
3
 62
     0
100
AcDbLine
 10
5086.092839011054
 20
5815.19729053981
 30
0.0
 11
6161.092839011054
 21
5815.19729053981
 31
0.0
  0
INSERT
  5
835D
330
847B
100
AcDbEntity
  8
3
 62
     0
100
AcDbBlockReference
  2
_OPEN
 10
5006.092839011054
 20
5815.19729053981
 30
0.0
 41
80.0
 42
80.0
 43
80.0
 50
180.0
  0
INSERT
  5
835E
330
847B
100
AcDbEntity
  8
3
 62
     0
100
AcDbBlockReference
  2
_OPEN
 10
6241.092839011054
 20
5815.19729053981
 30
0.0
 41
80.0
 42
80.0
 43
80.0
  0
TEXT
  5
83E5
330
847B
100
AcDbEntity
  8
3
 62
     0
100
AcDbText
 10
5383.59
 20
5802.800000000001
 30
0.0
 40
120.0
  1
MAX
100
AcDbText
  0
TEXT
  5
83E6
330
847B
100
AcDbEntity
  8
3
 62
     0
100
AcDbText
 10
5383.59
 20
5646.8
 30
0.0
 40
120.0
  1
1280
100
AcDbText
  0
POINT
  5
8360
330
847B
100
AcDbEntity
  8
DEFPOINTS
 62
     0
100
AcDbPoint
 10
5006.092839011054
 20
4600.800457609002
 30
0.0
  0
POINT
  5
8361
330
847B
100
AcDbEntity
  8
DEFPOINTS
 62
     0
100
AcDbPoint
 10
6241.092839011054
 20
5667.263901748139
 30
0.0
  0
POINT
  5
8362
330
847B
100
AcDbEntity
  8
DEFPOINTS
 62
     0
100
AcDbPoint
 10
6241.092839011054
 20
5815.19729053981
 30
0.0
  0
ENDBLK
  5
817F
330
847B
100
AcDbEntity
  8
0
100
AcDbBlockEnd
  0
BLOCK
  5
847E
330
847D
100
AcDbEntity
  8
0
100
AcDbBlockBegin
  2
*D6
 70
     1
 10
0.0
 20
0.0
 30
0.0
  3
*D6
  1

  0
LINE
  5
8363
330
847D
100
AcDbEntity
  8
3
 62
     0
100
AcDbLine
 10
6241.092839011054
 20
5687.263901748139
 30
0.0
 11
6241.092839011054
 21
5854.809703434625
 31
0.0
  0
LINE
  5
8364
330
847D
100
AcDbEntity
  8
3
 62
     0
100
AcDbLine
 10
7251.092839011054
 20
4236.13838871127
 30
0.0
 11
7251.092839011054
 21
5854.809703434625
 31
0.0
  0
LINE
  5
8365
330
847D
100
AcDbEntity
  8
3
 62
     0
100
AcDbLine
 10
6321.092839011054
 20
5814.809703434626
 30
0.0
 11
7171.092839011054
 21
5814.809703434626
 31
0.0
  0
INSERT
  5
8366
330
847D
100
AcDbEntity
  8
3
 62
     0
100
AcDbBlockReference
  2
_OPEN
 10
6241.092839011054
 20
5814.809703434626
 30
0.0
 41
80.0
 42
80.0
 43
80.0
 50
180.0
  0
INSERT
  5
8367
330
847D
100
AcDbEntity
  8
3
 62
     0
100
AcDbBlockReference
  2
_OPEN
 10
7251.092839011054
 20
5814.809703434626
 30
0.0
 41
80.0
 42
80.0
 43
80.0
  0
TEXT
  5
83E7
330
847D
100
AcDbEntity
  8
3
 62
     0
100
AcDbText
 10
6506.09
 20
5733.84
 30
0.0
 40
120.0
  1
(1020)
100
AcDbText
  0
POINT
  5
8369
330
847D
100
AcDbEntity
  8
DEFPOINTS
 62
     0
100
AcDbPoint
 10
6241.092839011054
 20
5667.263901748139
 30
0.0
  0
POINT
  5
836A
330
847D
100
AcDbEntity
  8
DEFPOINTS
 62
     0
100
AcDbPoint
 10
7251.092839011054
 20
4216.13838871127
 30
0.0
  0
POINT
  5
836B
330
847D
100
AcDbEntity
  8
DEFPOINTS
 62
     0
100
AcDbPoint
 10
7251.092839011054
 20
5814.809703434626
 30
0.0
  0
ENDBLK
  5
818A
330
847D
100
AcDbEntity
  8
0
100
AcDbBlockEnd
  0
BLOCK
  5
8480
330
847F
100
AcDbEntity
  8
0
100
AcDbBlockBegin
  2
*D7
 70
     1
 10
0.0
 20
0.0
 30
0.0
  3
*D7
  1

  0
LINE
  5
836C
330
847F
100
AcDbEntity
  8
3
 62
     0
100
AcDbLine
 10
7113.392839011054
 20
4945.800457609003
 30
0.0
 11
7574.264341757109
 21
4945.800457609003
 31
0.0
  0
LINE
  5
836D
330
847F
100
AcDbEntity
  8
3
 62
     0
100
AcDbLine
 10
7113.392839011054
 20
3695.800457609001
 30
0.0
 11
7574.264341757109
 21
3695.800457609001
 31
0.0
  0
LINE
  5
836E
330
847F
100
AcDbEntity
  8
3
 62
     0
100
AcDbLine
 10
7534.264341757111
 20
4865.800457609004
 30
0.0
 11
7534.264341757111
 21
3775.800457609001
 31
0.0
  0
INSERT
  5
836F
330
847F
100
AcDbEntity
  8
3
 62
     0
100
AcDbBlockReference
  2
_OPEN
 10
7534.264341757111
 20
4945.800457609003
 30
0.0
 41
80.0
 42
80.0
 43
80.0
 50
90.0
  0
INSERT
  5
8370
330
847F
100
AcDbEntity
  8
3
 62
     0
100
AcDbBlockReference
  2
_OPEN
 10
7534.264341757111
 20
3695.800457609001
 30
0.0
 41
80.0
 42
80.0
 43
80.0
 50
270.0
  0
TEXT
  5
83E8
330
847F
100
AcDbEntity
  8
3
 62
     0
100
AcDbText
 10
7194.259999999999
 20
4108.399999999999
 30
0.0
 40
120.0
  1
\U+03C61250
100
AcDbText
  0
POINT
  5
8372
330
847F
100
AcDbEntity
  8
DEFPOINTS
 62
     0
100
AcDbPoint
 10
7093.392839011054
 20
4945.800457609003
 30
0.0
  0
POINT
  5
8373
330
847F
100
AcDbEntity
  8
DEFPOINTS
 62
     0
100
AcDbPoint
 10
7093.392839011054
 20
3695.800457609001
 30
0.0
  0
POINT
  5
8374
330
847F
100
AcDbEntity
  8
DEFPOINTS
 62
     0
100
AcDbPoint
 10
7534.264341757111
 20
3695.800457609001
 30
0.0
  0
ENDBLK
  5
80DD
330
847F
100
AcDbEntity
  8
0
100
AcDbBlockEnd
  0
BLOCK
  5
8482
330
8481
100
AcDbEntity
  8
0
100
AcDbBlockBegin
  2
*D8
 70
     1
 10
0.0
 20
0.0
 30
0.0
  3
*D8
  1

  0
LINE
  5
8375
330
8481
100
AcDbEntity
  8
3
 62
     0
100
AcDbLine
 10
3616.156955993239
 20
8648.31161293584
 30
0.0
 11
4085.173097229072
 21
8648.31161293584
 31
0.0
  0
LINE
  5
8376
330
8481
100
AcDbEntity
  8
3
 62
     0
100
AcDbLine
 10
3616.156955993239
 20
6528.311612935839
 30
0.0
 11
4085.173097229072
 21
6528.311612935839
 31
0.0
  0
LINE
  5
8377
330
8481
100
AcDbEntity
  8
3
 62
     0
100
AcDbLine
 10
4045.173097229072
 20
8568.311612935836
 30
0.0
 11
4045.173097229072
 21
6608.311612935839
 31
0.0
  0
INSERT
  5
8378
330
8481
100
AcDbEntity
  8
3
 62
     0
100
AcDbBlockReference
  2
_OPEN
 10
4045.173097229072
 20
8648.31161293584
 30
0.0
 41
80.0
 42
80.0
 43
80.0
 50
90.0
  0
INSERT
  5
8379
330
8481
100
AcDbEntity
  8
3
 62
     0
100
AcDbBlockReference
  2
_OPEN
 10
4045.173097229072
 20
6528.311612935839
 30
0.0
 41
80.0
 42
80.0
 43
80.0
 50
270.0
  0
TEXT
  5
83E9
330
8481
100
AcDbEntity
  8
3
 62
     0
100
AcDbText
 10
3705.170000000001
 20
7375.910000000001
 30
0.0
 40
120.0
  1
2120
100
AcDbText
  0
POINT
  5
837B
330
8481
100
AcDbEntity
  8
DEFPOINTS
 62
     0
100
AcDbPoint
 10
3596.156955993239
 20
8648.31161293584
 30
0.0
  0
POINT
  5
837C
330
8481
100
AcDbEntity
  8
DEFPOINTS
 62
     0
100
AcDbPoint
 10
3596.156955993239
 20
6528.311612935839
 30
0.0
  0
POINT
  5
837D
330
8481
100
AcDbEntity
  8
DEFPOINTS
 62
     0
100
AcDbPoint
 10
4045.173097229072
 20
6528.311612935839
 30
0.0
  0
ENDBLK
  5
7FFE
330
8481
100
AcDbEntity
  8
0
100
AcDbBlockEnd
  0
BLOCK
  5
8484
330
8483
100
AcDbEntity
  8
0
100
AcDbBlockBegin
  2
*D9
 70
     1
 10
0.0
 20
0.0
 30
0.0
  3
*D9
  1

  0
LINE
  5
837E
330
8483
100
AcDbEntity
  8
3
 62
     0
100
AcDbLine
 10
3596.156955993239
 20
8668.311612935836
 30
0.0
 11
3596.156955993239
 21
8892.947751441026
 31
0.0
  0
LINE
  5
837F
330
8483
100
AcDbEntity
  8
3
 62
     0
100
AcDbLine
 10
2096.156955993238
 20
8668.311612935841
 30
0.0
 11
2096.156955993238
 21
8892.947751441026
 31
0.0
  0
LINE
  5
8380
330
8483
100
AcDbEntity
  8
3
 62
     0
100
AcDbLine
 10
3516.156955993239
 20
8852.947751441025
 30
0.0
 11
2176.156955993238
 21
8852.947751441025
 31
0.0
  0
INSERT
  5
8381
330
8483
100
AcDbEntity
  8
3
 62
     0
100
AcDbBlockReference
  2
_OPEN
 10
3596.156955993239
 20
8852.947751441025
 30
0.0
 41
80.0
 42
80.0
 43
80.0
  0
INSERT
  5
8382
330
8483
100
AcDbEntity
  8
3
 62
     0
100
AcDbBlockReference
  2
_OPEN
 10
2096.156955993238
 20
8852.947751441025
 30
0.0
 41
80.0
 42
80.0
 43
80.0
 50
180.0
  0
TEXT
  5
83EA
330
8483
100
AcDbEntity
  8
3
 62
     0
100
AcDbText
 10
2606.16
 20
8740.549999999998
 30
0.0
 40
120.0
  1
1500
100
AcDbText
  0
POINT
  5
8384
330
8483
100
AcDbEntity
  8
DEFPOINTS
 62
     0
100
AcDbPoint
 10
3596.156955993239
 20
8648.31161293584
 30
0.0
  0
POINT
  5
8385
330
8483
100
AcDbEntity
  8
DEFPOINTS
 62
     0
100
AcDbPoint
 10
2096.156955993238
 20
8648.31161293584
 30
0.0
  0
POINT
  5
8386
330
8483
100
AcDbEntity
  8
DEFPOINTS
 62
     0
100
AcDbPoint
 10
2096.156955993238
 20
8852.947751441025
 30
0.0
  0
ENDBLK
  5
7FF3
330
8483
100
AcDbEntity
  8
0
100
AcDbBlockEnd
  0
BLOCK
  5
8486
330
8485
100
AcDbEntity
  8
0
100
AcDbBlockBegin
  2
*D10
 70
     1
 10
0.0
 20
0.0
 30
0.0
  3
*D10
  1

  0
LINE
  5
8387
330
8485
100
AcDbEntity
  8
3
 62
     0
100
AcDbLine
 10
2096.156955993238
 20
8668.311612935841
 30
0.0
 11
2096.156955993238
 21
8892.947751441026
 31
0.0
  0
LINE
  5
8388
330
8485
100
AcDbEntity
  8
3
 62
     0
100
AcDbLine
 10
1146.156955993237
 20
7548.311612935838
 30
0.0
 11
1146.156955993237
 21
8892.947751441026
 31
0.0
  0
LINE
  5
8389
330
8485
100
AcDbEntity
  8
3
 62
     0
100
AcDbLine
 10
2016.156955993237
 20
8852.947751441025
 30
0.0
 11
1226.156955993237
 21
8852.947751441025
 31
0.0
  0
INSERT
  5
838A
330
8485
100
AcDbEntity
  8
3
 62
     0
100
AcDbBlockReference
  2
_OPEN
 10
2096.156955993238
 20
8852.947751441025
 30
0.0
 41
80.0
 42
80.0
 43
80.0
  0
INSERT
  5
838B
330
8485
100
AcDbEntity
  8
3
 62
     0
100
AcDbBlockReference
  2
_OPEN
 10
1146.156955993237
 20
8852.947751441025
 30
0.0
 41
80.0
 42
80.0
 43
80.0
 50
180.0
  0
TEXT
  5
83EB
330
8485
100
AcDbEntity
  8
3
 62
     0
100
AcDbText
 10
1381.16
 20
8740.549999999998
 30
0.0
 40
120.0
  1
950
100
AcDbText
  0
POINT
  5
838D
330
8485
100
AcDbEntity
  8
DEFPOINTS
 62
     0
100
AcDbPoint
 10
2096.156955993238
 20
8648.31161293584
 30
0.0
  0
POINT
  5
838E
330
8485
100
AcDbEntity
  8
DEFPOINTS
 62
     0
100
AcDbPoint
 10
1146.156955993237
 20
7528.311612935842
 30
0.0
  0
POINT
  5
838F
330
8485
100
AcDbEntity
  8
DEFPOINTS
 62
     0
100
AcDbPoint
 10
1146.156955993237
 20
8852.947751441025
 30
0.0
  0
ENDBLK
  5
7FE8
330
8485
100
AcDbEntity
  8
0
100
AcDbBlockEnd
  0
BLOCK
  5
8488
330
8487
100
AcDbEntity
  8
0
100
AcDbBlockBegin
  2
*D11
 70
     1
 10
0.0
 20
0.0
 30
0.0
  3
*D11
  1

  0
LINE
  5
8390
330
8487
100
AcDbEntity
  8
3
 62
     0
100
AcDbLine
 10
1126.156955993237
 20
7528.311612935842
 30
0.0
 11
839.830554885659
 21
7528.311612935842
 31
0.0
  0
LINE
  5
8391
330
8487
100
AcDbEntity
  8
3
 62
     0
100
AcDbLine
 10
1126.156955993237
 20
6528.311612935842
 30
0.0
 11
839.8305548856585
 21
6528.311612935842
 31
0.0
  0
LINE
  5
8392
330
8487
100
AcDbEntity
  8
3
 62
     0
100
AcDbLine
 10
879.8305548856589
 20
7448.311612935842
 30
0.0
 11
879.8305548856586
 21
6608.31161293584
 31
0.0
  0
INSERT
  5
8393
330
8487
100
AcDbEntity
  8
3
 62
     0
100
AcDbBlockReference
  2
_OPEN
 10
879.8305548856589
 20
7528.311612935842
 30
0.0
 41
80.0
 42
80.0
 43
80.0
 50
90.0
  0
INSERT
  5
8394
330
8487
100
AcDbEntity
  8
3
 62
     0
100
AcDbBlockReference
  2
_OPEN
 10
879.8305548856586
 20
6528.311612935842
 30
0.0
 41
80.0
 42
80.0
 43
80.0
 50
270.0
  0
TEXT
  5
83EC
330
8487
100
AcDbEntity
  8
3
 62
     0
100
AcDbText
 10
539.831
 20
6815.909999999999
 30
0.0
 40
120.0
  1
1000
100
AcDbText
  0
POINT
  5
8396
330
8487
100
AcDbEntity
  8
DEFPOINTS
 62
     0
100
AcDbPoint
 10
1146.156955993237
 20
7528.311612935842
 30
0.0
  0
POINT
  5
8397
330
8487
100
AcDbEntity
  8
DEFPOINTS
 62
     0
100
AcDbPoint
 10
1146.156955993237
 20
6528.311612935842
 30
0.0
  0
POINT
  5
8398
330
8487
100
AcDbEntity
  8
DEFPOINTS
 62
     0
100
AcDbPoint
 10
879.8305548856586
 20
6528.311612935842
 30
0.0
  0
ENDBLK
  5
7FDD
330
8487
100
AcDbEntity
  8
0
100
AcDbBlockEnd
  0
BLOCK
  5
848A
330
8489
100
AcDbEntity
  8
0
100
AcDbBlockBegin
  2
*D12
 70
     1
 10
0.0
 20
0.0
 30
0.0
  3
*D12
  1

  0
LINE
  5
8399
330
8489
100
AcDbEntity
  8
3
 62
     0
100
AcDbLine
 10
1146.156955993237
 20
6508.31161293584
 30
0.0
 11
1146.156955993237
 21
6123.557734746188
 31
0.0
  0
LINE
  5
839A
330
8489
100
AcDbEntity
  8
3
 62
     0
100
AcDbLine
 10
3596.156955993239
 20
6508.311612935838
 30
0.0
 11
3596.156955993239
 21
6123.557734746188
 31
0.0
  0
LINE
  5
839B
330
8489
100
AcDbEntity
  8
3
 62
     0
100
AcDbLine
 10
1226.156955993237
 20
6163.557734746188
 30
0.0
 11
3516.156955993239
 21
6163.557734746188
 31
0.0
  0
INSERT
  5
839C
330
8489
100
AcDbEntity
  8
3
 62
     0
100
AcDbBlockReference
  2
_OPEN
 10
1146.156955993237
 20
6163.557734746188
 30
0.0
 41
80.0
 42
80.0
 43
80.0
 50
180.0
  0
INSERT
  5
839D
330
8489
100
AcDbEntity
  8
3
 62
     0
100
AcDbBlockReference
  2
_OPEN
 10
3596.156955993239
 20
6163.557734746188
 30
0.0
 41
80.0
 42
80.0
 43
80.0
  0
TEXT
  5
83ED
330
8489
100
AcDbEntity
  8
3
 62
     0
100
AcDbText
 10
2131.16
 20
6051.16
 30
0.0
 40
120.0
  1
2450
100
AcDbText
  0
POINT
  5
839F
330
8489
100
AcDbEntity
  8
DEFPOINTS
 62
     0
100
AcDbPoint
 10
1146.156955993237
 20
6528.311612935842
 30
0.0
  0
POINT
  5
83A0
330
8489
100
AcDbEntity
  8
DEFPOINTS
 62
     0
100
AcDbPoint
 10
3596.156955993239
 20
6528.311612935839
 30
0.0
  0
POINT
  5
83A1
330
8489
100
AcDbEntity
  8
DEFPOINTS
 62
     0
100
AcDbPoint
 10
3596.156955993239
 20
6163.557734746188
 30
0.0
  0
ENDBLK
  5
7FD2
330
8489
100
AcDbEntity
  8
0
100
AcDbBlockEnd
  0
BLOCK
  5
848C
330
848B
100
AcDbEntity
  8
0
100
AcDbBlockBegin
  2
*D13
 70
     1
 10
0.0
 20
0.0
 30
0.0
  3
*D13
  1

  0
LINE
  5
83A2
330
848B
100
AcDbEntity
  8
3
 62
     0
100
AcDbLine
 10
3691.156955993239
 20
2986.800457609002
 30
0.0
 11
3964.167988683195
 21
2986.800457609002
 31
0.0
  0
LINE
  5
83A3
330
848B
100
AcDbEntity
  8
3
 62
     0
100
AcDbLine
 10
3691.156955993239
 20
4266.800457609003
 30
0.0
 11
3964.167988683195
 21
4266.800457609003
 31
0.0
  0
LINE
  5
83A4
330
848B
100
AcDbEntity
  8
3
 62
     0
100
AcDbLine
 10
3924.167988683194
 20
3066.800457609002
 30
0.0
 11
3924.167988683194
 21
4186.800457609002
 31
0.0
  0
INSERT
  5
83A5
330
848B
100
AcDbEntity
  8
3
 62
     0
100
AcDbBlockReference
  2
_OPEN
 10
3924.167988683194
 20
2986.800457609002
 30
0.0
 41
80.0
 42
80.0
 43
80.0
 50
270.0
  0
INSERT
  5
83A6
330
848B
100
AcDbEntity
  8
3
 62
     0
100
AcDbBlockReference
  2
_OPEN
 10
3924.167988683194
 20
4266.800457609003
 30
0.0
 41
80.0
 42
80.0
 43
80.0
 50
90.0
  0
TEXT
  5
83EE
330
848B
100
AcDbEntity
  8
3
 62
     0
100
AcDbText
 10
3584.17
 20
3414.4
 30
0.0
 40
120.0
  1
1280
100
AcDbText
  0
POINT
  5
83A8
330
848B
100
AcDbEntity
  8
DEFPOINTS
 62
     0
100
AcDbPoint
 10
3671.156955993239
 20
2986.800457609002
 30
0.0
  0
POINT
  5
83A9
330
848B
100
AcDbEntity
  8
DEFPOINTS
 62
     0
100
AcDbPoint
 10
3671.156955993239
 20
4266.800457609003
 30
0.0
  0
POINT
  5
83AA
330
848B
100
AcDbEntity
  8
DEFPOINTS
 62
     0
100
AcDbPoint
 10
3924.167988683194
 20
4266.800457609003
 30
0.0
  0
ENDBLK
  5
7FBC
330
848B
100
AcDbEntity
  8
0
100
AcDbBlockEnd
  0
BLOCK
  5
848E
330
848D
100
AcDbEntity
  8
0
100
AcDbBlockBegin
  2
*D14
 70
     1
 10
0.0
 20
0.0
 30
0.0
  3
*D14
  1

  0
LINE
  5
83AB
330
848D
100
AcDbEntity
  8
3
 62
     0
100
AcDbLine
 10
3691.156955993239
 20
2986.800457609002
 30
0.0
 11
4211.230831139725
 21
2986.800457609002
 31
0.0
  0
LINE
  5
83AC
330
848D
100
AcDbEntity
  8
3
 62
     0
100
AcDbLine
 10
3769.593494242089
 20
4320.800457609002
 30
0.0
 11
4211.230831139725
 21
4320.800457609002
 31
0.0
  0
LINE
  5
83AD
330
848D
100
AcDbEntity
  8
3
 62
     0
100
AcDbLine
 10
4171.230831139723
 20
3066.800457609002
 30
0.0
 11
4171.230831139723
 21
4240.800457609004
 31
0.0
  0
INSERT
  5
83AE
330
848D
100
AcDbEntity
  8
3
 62
     0
100
AcDbBlockReference
  2
_OPEN
 10
4171.230831139723
 20
2986.800457609002
 30
0.0
 41
80.0
 42
80.0
 43
80.0
 50
270.0
  0
INSERT
  5
83AF
330
848D
100
AcDbEntity
  8
3
 62
     0
100
AcDbBlockReference
  2
_OPEN
 10
4171.230831139723
 20
4320.800457609002
 30
0.0
 41
80.0
 42
80.0
 43
80.0
 50
90.0
  0
TEXT
  5
83EF
330
848D
100
AcDbEntity
  8
3
 62
     0
100
AcDbText
 10
3831.23
 20
3441.4
 30
0.0
 40
120.0
  1
1334
100
AcDbText
  0
POINT
  5
83B1
330
848D
100
AcDbEntity
  8
DEFPOINTS
 62
     0
100
AcDbPoint
 10
3671.156955993239
 20
2986.800457609002
 30
0.0
  0
POINT
  5
83B2
330
848D
100
AcDbEntity
  8
DEFPOINTS
 62
     0
100
AcDbPoint
 10
3749.593494242089
 20
4320.800457609002
 30
0.0
  0
POINT
  5
83B3
330
848D
100
AcDbEntity
  8
DEFPOINTS
 62
     0
100
AcDbPoint
 10
4171.230831139723
 20
4320.800457609002
 30
0.0
  0
ENDBLK
  5
7FB1
330
848D
100
AcDbEntity
  8
0
100
AcDbBlockEnd
  0
BLOCK
  5
8490
330
848F
100
AcDbEntity
  8
0
100
AcDbBlockBegin
  2
*D15
 70
     1
 10
0.0
 20
0.0
 30
0.0
  3
*D15
  1

  0
LINE
  5
83B4
330
848F
100
AcDbEntity
  8
3
 62
     0
100
AcDbLine
 10
1770.70121315513
 20
4340.800457609002
 30
0.0
 11
1770.70121315513
 21
5525.312615694231
 31
0.0
  0
LINE
  5
83B5
330
848F
100
AcDbEntity
  8
3
 62
     0
100
AcDbLine
 10
2846.156955993239
 20
5419.935007000526
 30
0.0
 11
2846.156955993239
 21
5525.312615694231
 31
0.0
  0
LINE
  5
83B6
330
848F
100
AcDbEntity
  8
3
 62
     0
100
AcDbLine
 10
1850.70121315513
 20
5485.312615694231
 30
0.0
 11
2766.156955993237
 21
5485.312615694231
 31
0.0
  0
INSERT
  5
83B7
330
848F
100
AcDbEntity
  8
3
 62
     0
100
AcDbBlockReference
  2
_OPEN
 10
1770.70121315513
 20
5485.312615694231
 30
0.0
 41
80.0
 42
80.0
 43
80.0
 50
180.0
  0
INSERT
  5
83B8
330
848F
100
AcDbEntity
  8
3
 62
     0
100
AcDbBlockReference
  2
_OPEN
 10
2846.156955993239
 20
5485.312615694231
 30
0.0
 41
80.0
 42
80.0
 43
80.0
  0
TEXT
  5
83F0
330
848F
100
AcDbEntity
  8
3
 62
     0
100
AcDbText
 10
2068.43
 20
5372.91
 30
0.0
 40
120.0
  1
1079
100
AcDbText
  0
POINT
  5
83BA
330
848F
100
AcDbEntity
  8
DEFPOINTS
 62
     0
100
AcDbPoint
 10
1770.70121315513
 20
4320.800457609002
 30
0.0
  0
POINT
  5
83BB
330
848F
100
AcDbEntity
  8
DEFPOINTS
 62
     0
100
AcDbPoint
 10
2846.156955993239
 20
5399.935007000528
 30
0.0
  0
POINT
  5
83BC
330
848F
100
AcDbEntity
  8
DEFPOINTS
 62
     0
100
AcDbPoint
 10
2846.156955993239
 20
5485.312615694231
 30
0.0
  0
ENDBLK
  5
7F90
330
848F
100
AcDbEntity
  8
0
100
AcDbBlockEnd
  0
BLOCK
  5
8492
330
8491
100
AcDbEntity
  8
0
100
AcDbBlockBegin
  2
*D16
 70
     1
 10
0.0
 20
0.0
 30
0.0
  3
*D16
  1

  0
LINE
  5
83BD
330
8491
100
AcDbEntity
  8
3
 62
     0
100
AcDbLine
 10
2846.156955993239
 20
5419.935007000526
 30
0.0
 11
2846.156955993239
 21
5525.312615694231
 31
0.0
  0
LINE
  5
83BE
330
8491
100
AcDbEntity
  8
3
 62
     0
100
AcDbLine
 10
3671.156955993239
 20
4339.800457609001
 30
0.0
 11
3671.156955993239
 21
5525.312615694231
 31
0.0
  0
LINE
  5
83BF
330
8491
100
AcDbEntity
  8
3
 62
     0
100
AcDbLine
 10
2926.156955993239
 20
5485.312615694231
 30
0.0
 11
3591.156955993239
 21
5485.312615694231
 31
0.0
  0
INSERT
  5
83C0
330
8491
100
AcDbEntity
  8
3
 62
     0
100
AcDbBlockReference
  2
_OPEN
 10
2846.156955993239
 20
5485.312615694231
 30
0.0
 41
80.0
 42
80.0
 43
80.0
 50
180.0
  0
INSERT
  5
83C1
330
8491
100
AcDbEntity
  8
3
 62
     0
100
AcDbBlockReference
  2
_OPEN
 10
3671.156955993239
 20
5485.312615694231
 30
0.0
 41
80.0
 42
80.0
 43
80.0
  0
TEXT
  5
83F1
330
8491
100
AcDbEntity
  8
3
 62
     0
100
AcDbText
 10
3018.66
 20
5372.91
 30
0.0
 40
120.0
  1
825
100
AcDbText
  0
POINT
  5
83C3
330
8491
100
AcDbEntity
  8
DEFPOINTS
 62
     0
100
AcDbPoint
 10
2846.156955993239
 20
5399.935007000528
 30
0.0
  0
POINT
  5
83C4
330
8491
100
AcDbEntity
  8
DEFPOINTS
 62
     0
100
AcDbPoint
 10
3671.156955993239
 20
4319.800457609001
 30
0.0
  0
POINT
  5
83C5
330
8491
100
AcDbEntity
  8
DEFPOINTS
 62
     0
100
AcDbPoint
 10
3671.156955993239
 20
5485.312615694231
 30
0.0
  0
ENDBLK
  5
7F85
330
8491
100
AcDbEntity
  8
0
100
AcDbBlockEnd
  0
BLOCK
  5
8494
330
8493
100
AcDbEntity
  8
0
100
AcDbBlockBegin
  2
*D17
 70
     1
 10
0.0
 20
0.0
 30
0.0
  3
*D17
  1

  0
LINE
  5
83C6
330
8493
100
AcDbEntity
  8
3
 62
     0
100
AcDbLine
 10
3769.593494242089
 20
4320.800457609002
 30
0.0
 11
4462.346544791297
 21
4320.800457609002
 31
0.0
  0
LINE
  5
83C7
330
8493
100
AcDbEntity
  8
3
 62
     0
100
AcDbLine
 10
3616.156955993239
 20
2890.800457609002
 30
0.0
 11
4462.346544791297
 21
2890.800457609002
 31
0.0
  0
LINE
  5
83C8
330
8493
100
AcDbEntity
  8
3
 62
     0
100
AcDbLine
 10
4422.346544791297
 20
4240.800457609004
 30
0.0
 11
4422.346544791297
 21
2970.800457609002
 31
0.0
  0
INSERT
  5
83C9
330
8493
100
AcDbEntity
  8
3
 62
     0
100
AcDbBlockReference
  2
_OPEN
 10
4422.346544791297
 20
4320.800457609002
 30
0.0
 41
80.0
 42
80.0
 43
80.0
 50
90.0
  0
INSERT
  5
83CA
330
8493
100
AcDbEntity
  8
3
 62
     0
100
AcDbBlockReference
  2
_OPEN
 10
4422.346544791297
 20
2890.800457609002
 30
0.0
 41
80.0
 42
80.0
 43
80.0
 50
270.0
  0
TEXT
  5
83F2
330
8493
100
AcDbEntity
  8
3
 62
     0
100
AcDbText
 10
4082.35
 20
3393.400000000001
 30
0.0
 40
120.0
  1
1430
100
AcDbText
  0
POINT
  5
83CC
330
8493
100
AcDbEntity
  8
DEFPOINTS
 62
     0
100
AcDbPoint
 10
3749.593494242089
 20
4320.800457609002
 30
0.0
  0
POINT
  5
83CD
330
8493
100
AcDbEntity
  8
DEFPOINTS
 62
     0
100
AcDbPoint
 10
3596.156955993239
 20
2890.800457609002
 30
0.0
  0
POINT
  5
83CE
330
8493
100
AcDbEntity
  8
DEFPOINTS
 62
     0
100
AcDbPoint
 10
4422.346544791297
 20
2890.800457609002
 30
0.0
  0
ENDBLK
  5
7F7A
330
8493
100
AcDbEntity
  8
0
100
AcDbBlockEnd
  0
BLOCK
  5
8496
330
8495
100
AcDbEntity
  8
0
100
AcDbBlockBegin
  2
*D18
 70
     1
 10
0.0
 20
0.0
 30
0.0
  3
*D18
  1

  0
LINE
  5
83CF
330
8495
100
AcDbEntity
  8
3
 62
     0
100
AcDbLine
 10
3769.593494242089
 20
4320.800457609002
 30
0.0
 11
4462.346544791297
 21
4320.800457609002
 31
0.0
  0
LINE
  5
83D0
330
8495
100
AcDbEntity
  8
3
 62
     0
100
AcDbLine
 10
2775.156955993237
 20
5217.800457609002
 30
0.0
 11
4462.346544791297
 21
5217.800457609002
 31
0.0
  0
LINE
  5
83D1
330
8495
100
AcDbEntity
  8
3
 62
     0
100
AcDbLine
 10
4422.346544791297
 20
4400.800457609001
 30
0.0
 11
4422.346544791297
 21
5137.800457609003
 31
0.0
  0
INSERT
  5
83D2
330
8495
100
AcDbEntity
  8
3
 62
     0
100
AcDbBlockReference
  2
_OPEN
 10
4422.346544791297
 20
4320.800457609002
 30
0.0
 41
80.0
 42
80.0
 43
80.0
 50
270.0
  0
INSERT
  5
83D3
330
8495
100
AcDbEntity
  8
3
 62
     0
100
AcDbBlockReference
  2
_OPEN
 10
4422.346544791297
 20
5217.800457609002
 30
0.0
 41
80.0
 42
80.0
 43
80.0
 50
90.0
  0
TEXT
  5
83F3
330
8495
100
AcDbEntity
  8
3
 62
     0
100
AcDbText
 10
4082.35
 20
4556.899999999999
 30
0.0
 40
120.0
  1
897
100
AcDbText
  0
POINT
  5
83D5
330
8495
100
AcDbEntity
  8
DEFPOINTS
 62
     0
100
AcDbPoint
 10
3749.593494242089
 20
4320.800457609002
 30
0.0
  0
POINT
  5
83D6
330
8495
100
AcDbEntity
  8
DEFPOINTS
 62
     0
100
AcDbPoint
 10
2755.156955993238
 20
5217.800457609002
 30
0.0
  0
POINT
  5
83D7
330
8495
100
AcDbEntity
  8
DEFPOINTS
 62
     0
100
AcDbPoint
 10
4422.346544791297
 20
5217.800457609002
 30
0.0
  0
ENDBLK
  5
7F64
330
8495
100
AcDbEntity
  8
0
100
AcDbBlockEnd
  0
BLOCK
  5
8499
330
8498
100
AcDbEntity
  8
0
100
AcDbBlockBegin
  2
_DOT
 70
     0
 10
0.0
 20
0.0
 30
0.0
  3
_DOT
  1

  0
LINE
  5
811A
330
8498
100
AcDbEntity
  8
0
  6
ByBlock
 62
     0
100
AcDbLine
 10
0.0
 20
0.0
 30
0.0
 11
-1.0
 21
-0.0000000000000284
 31
0.0
  0
LWPOLYLINE
  5
811B
330
8498
100
AcDbEntity
  8
0
  6
ByBlock
 62
     0
100
AcDbPolyline
 90
        2
 70
     1
 43
0.1666666666666666
 10
-0.0833333333333286
 20
-0.0000000000000284
 42
1.0
 10
0.0833333333333286
 20
-0.0000000000000284
 42
1.0
  0
ENDBLK
  5
80E5
330
8498
100
AcDbEntity
  8
0
100
AcDbBlockEnd
  0
BLOCK
  5
849B
330
849A
100
AcDbEntity
  8
0
100
AcDbBlockBegin
  2
*D20
 70
     1
 10
0.0
 20
0.0
 30
0.0
  3
*D20
  1

  0
LINE
  5
83DB
330
849A
100
AcDbEntity
  8
3
 62
     0
100
AcDbLine
 10
3671.156955993239
 20
4339.800457609001
 30
0.0
 11
3671.156955993239
 21
5778.269218418994
 31
0.0
  0
LINE
  5
83DC
330
849A
100
AcDbEntity
  8
3
 62
     0
100
AcDbLine
 10
1146.156955993237
 20
3035.800457609002
 30
0.0
 11
1146.156955993238
 21
5778.269218418994
 31
0.0
  0
LINE
  5
83DD
330
849A
100
AcDbEntity
  8
3
 62
     0
100
AcDbLine
 10
3591.156955993239
 20
5738.269218418995
 30
0.0
 11
1226.156955993237
 21
5738.269218418995
 31
0.0
  0
INSERT
  5
83DE
330
849A
100
AcDbEntity
  8
3
 62
     0
100
AcDbBlockReference
  2
_OPEN
 10
3671.156955993239
 20
5738.269218418995
 30
0.0
 41
80.0
 42
80.0
 43
80.0
  0
INSERT
  5
83DF
330
849A
100
AcDbEntity
  8
3
 62
     0
100
AcDbBlockReference
  2
_OPEN
 10
1146.156955993238
 20
5738.269218418995
 30
0.0
 41
80.0
 42
80.0
 43
80.0
 50
180.0
  0
TEXT
  5
83F4
330
849A
100
AcDbEntity
  8
3
 62
     0
100
AcDbText
 10
2307.04
 20
5625.869999999999
 30
0.0
 40
120.0
  1
2525
100
AcDbText
  0
POINT
  5
83E1
330
849A
100
AcDbEntity
  8
DEFPOINTS
 62
     0
100
AcDbPoint
 10
3671.156955993239
 20
4319.800457609001
 30
0.0
  0
POINT
  5
83E2
330
849A
100
AcDbEntity
  8
DEFPOINTS
 62
     0
100
AcDbPoint
 10
1146.156955993237
 20
3015.800457609002
 30
0.0
  0
POINT
  5
83E3
330
849A
100
AcDbEntity
  8
DEFPOINTS
 62
     0
100
AcDbPoint
 10
1146.156955993238
 20
5738.269218418995
 30
0.0
  0
ENDBLK
  5
813E
330
849A
100
AcDbEntity
  8
0
100
AcDbBlockEnd
  0
BLOCK
  5
849D
330
849C
100
AcDbEntity
  8
0
100
AcDbBlockBegin
  2
_NONE
 70
     0
 10
0.0
 20
0.0
 30
0.0
  3
_NONE
  1

  0
CIRCLE
  5
81D3
330
849C
100
AcDbEntity
  8
0
  6
ByBlock
 62
     0
100
AcDbCircle
 10
0.0
 20
0.0
 30
0.0
 40
0.25
  0
ENDBLK
  5
81D4
330
849C
100
AcDbEntity
  8
0
100
AcDbBlockEnd
  0
BLOCK
  5
849F
330
849E
100
AcDbEntity
  8
0
100
AcDbBlockBegin
  2
*D22
 70
     1
 10
0.0
 20
0.0
 30
0.0
  3
*D22
  1

  0
LINE
  5
8238
330
849E
100
AcDbEntity
  8
0
  6
ByBlock
 62
     0
100
AcDbLine
 10
1146.156955993237
 20
2870.800457609002
 30
0.0
 11
1146.156955993237
 21
2588.245721644006
 31
0.0
  0
LINE
  5
8239
330
849E
100
AcDbEntity
  8
0
  6
ByBlock
 62
     0
100
AcDbLine
 10
2846.156955993239
 20
2870.800457609002
 30
0.0
 11
2846.156955993239
 21
2588.245721644006
 31
0.0
  0
LINE
  5
823A
330
849E
100
AcDbEntity
  8
0
  6
ByBlock
 62
     0
100
AcDbLine
 10
1226.156955993237
 20
2628.245721644006
 30
0.0
 11
2766.156955993237
 21
2628.245721644006
 31
0.0
  0
INSERT
  5
823B
330
849E
100
AcDbEntity
  8
0
  6
ByBlock
 62
     0
100
AcDbBlockReference
  2
_OPEN
 10
1146.156955993237
 20
2628.245721644006
 30
0.0
 41
80.0
 42
80.0
 43
80.0
 50
180.0
  0
INSERT
  5
823C
330
849E
100
AcDbEntity
  8
0
  6
ByBlock
 62
     0
100
AcDbBlockReference
  2
_OPEN
 10
2846.156955993239
 20
2628.245721644006
 30
0.0
 41
80.0
 42
80.0
 43
80.0
  0
TEXT
  5
823D
330
849E
100
AcDbEntity
  8
3
 62
     0
100
AcDbText
 10
1796.156955993238
 20
2668.245721644006
 30
0.0
 40
120.0
  1
1700
100
AcDbText
  0
POINT
  5
823E
330
849E
100
AcDbEntity
  8
DEFPOINTS
  6
ByBlock
 62
     0
100
AcDbPoint
 10
1146.156955993237
 20
2890.800457609002
 30
0.0
  0
POINT
  5
823F
330
849E
100
AcDbEntity
  8
DEFPOINTS
  6
ByBlock
 62
     0
100
AcDbPoint
 10
2846.156955993239
 20
2890.800457609002
 30
0.0
  0
POINT
  5
8240
330
849E
100
AcDbEntity
  8
DEFPOINTS
  6
ByBlock
 62
     0
100
AcDbPoint
 10
2846.156955993239
 20
2628.245721644006
 30
0.0
  0
ENDBLK
  5
8241
330
849E
100
AcDbEntity
  8
0
100
AcDbBlockEnd
  0
BLOCK
  5
84A1
330
84A0
100
AcDbEntity
  8
0
100
AcDbBlockBegin
  2
*D23
 70
     1
 10
0.0
 20
0.0
 30
0.0
  3
*D23
  1

  0
LINE
  5
8245
330
84A0
100
AcDbEntity
  8
0
  6
ByBlock
 62
     0
100
AcDbLine
 10
2846.156955993239
 20
2870.800457609002
 30
0.0
 11
2846.156955993239
 21
2588.245721644006
 31
0.0
  0
LINE
  5
8246
330
84A0
100
AcDbEntity
  8
0
  6
ByBlock
 62
     0
100
AcDbLine
 10
3596.156955993239
 20
2870.800457609002
 30
0.0
 11
3596.156955993239
 21
2588.245721644006
 31
0.0
  0
LINE
  5
8247
330
84A0
100
AcDbEntity
  8
0
  6
ByBlock
 62
     0
100
AcDbLine
 10
2926.156955993239
 20
2628.245721644006
 30
0.0
 11
3516.156955993239
 21
2628.245721644006
 31
0.0
  0
INSERT
  5
8248
330
84A0
100
AcDbEntity
  8
0
  6
ByBlock
 62
     0
100
AcDbBlockReference
  2
_OPEN
 10
2846.156955993239
 20
2628.245721644006
 30
0.0
 41
80.0
 42
80.0
 43
80.0
 50
180.0
  0
INSERT
  5
8249
330
84A0
100
AcDbEntity
  8
0
  6
ByBlock
 62
     0
100
AcDbBlockReference
  2
_OPEN
 10
3596.156955993239
 20
2628.245721644006
 30
0.0
 41
80.0
 42
80.0
 43
80.0
  0
TEXT
  5
824A
330
84A0
100
AcDbEntity
  8
3
 62
     0
100
AcDbText
 10
3066.871241707523
 20
2668.245721644006
 30
0.0
 40
120.0
  1
750
100
AcDbText
  0
POINT
  5
824B
330
84A0
100
AcDbEntity
  8
DEFPOINTS
  6
ByBlock
 62
     0
100
AcDbPoint
 10
2846.156955993239
 20
2890.800457609002
 30
0.0
  0
POINT
  5
824C
330
84A0
100
AcDbEntity
  8
DEFPOINTS
  6
ByBlock
 62
     0
100
AcDbPoint
 10
3596.156955993239
 20
2890.800457609002
 30
0.0
  0
POINT
  5
824D
330
84A0
100
AcDbEntity
  8
DEFPOINTS
  6
ByBlock
 62
     0
100
AcDbPoint
 10
3596.156955993239
 20
2628.245721644006
 30
0.0
  0
ENDBLK
  5
824E
330
84A0
100
AcDbEntity
  8
0
100
AcDbBlockEnd
  0
BLOCK
  5
84A3
330
84A2
100
AcDbEntity
  8
0
100
AcDbBlockBegin
  2
*D24
 70
     1
 10
0.0
 20
0.0
 30
0.0
  3
*D24
  1

  0
LINE
  5
8252
330
84A2
100
AcDbEntity
  8
0
  6
ByBlock
 62
     0
100
AcDbLine
 10
5039.092839011053
 20
2870.800457609002
 30
0.0
 11
5039.092839011053
 21
2588.245721644006
 31
0.0
  0
LINE
  5
8253
330
84A2
100
AcDbEntity
  8
0
  6
ByBlock
 62
     0
100
AcDbLine
 10
6241.092839011051
 20
2870.800457609002
 30
0.0
 11
6241.092839011051
 21
2588.245721644006
 31
0.0
  0
LINE
  5
8254
330
84A2
100
AcDbEntity
  8
0
  6
ByBlock
 62
     0
100
AcDbLine
 10
5119.092839011052
 20
2628.245721644006
 30
0.0
 11
6161.092839011051
 21
2628.245721644006
 31
0.0
  0
INSERT
  5
8255
330
84A2
100
AcDbEntity
  8
0
  6
ByBlock
 62
     0
100
AcDbBlockReference
  2
_OPEN
 10
5039.092839011053
 20
2628.245721644006
 30
0.0
 41
80.0
 42
80.0
 43
80.0
 50
180.0
  0
INSERT
  5
8256
330
84A2
100
AcDbEntity
  8
0
  6
ByBlock
 62
     0
100
AcDbBlockReference
  2
_OPEN
 10
6241.092839011051
 20
2628.245721644006
 30
0.0
 41
80.0
 42
80.0
 43
80.0
  0
TEXT
  5
8257
330
84A2
100
AcDbEntity
  8
3
 62
     0
100
AcDbText
 10
5440.092839011052
 20
2668.245721644006
 30
0.0
 40
120.0
  1
1202
100
AcDbText
  0
POINT
  5
8258
330
84A2
100
AcDbEntity
  8
DEFPOINTS
  6
ByBlock
 62
     0
100
AcDbPoint
 10
5039.092839011053
 20
2890.800457609002
 30
0.0
  0
POINT
  5
8259
330
84A2
100
AcDbEntity
  8
DEFPOINTS
  6
ByBlock
 62
     0
100
AcDbPoint
 10
6241.092839011051
 20
2890.800457609002
 30
0.0
  0
POINT
  5
825A
330
84A2
100
AcDbEntity
  8
DEFPOINTS
  6
ByBlock
 62
     0
100
AcDbPoint
 10
6241.092839011051
 20
2628.245721644006
 30
0.0
  0
ENDBLK
  5
825B
330
84A2
100
AcDbEntity
  8
0
100
AcDbBlockEnd
  0
BLOCK
  5
84A5
330
84A4
100
AcDbEntity
  8
0
100
AcDbBlockBegin
  2
*D25
 70
     1
 10
0.0
 20
0.0
 30
0.0
  3
*D25
  1

  0
LINE
  5
825F
330
84A4
100
AcDbEntity
  8
0
  6
ByBlock
 62
     0
100
AcDbLine
 10
6241.092839011051
 20
2870.800457609002
 30
0.0
 11
6241.092839011051
 21
2588.245721644006
 31
0.0
  0
LINE
  5
8260
330
84A4
100
AcDbEntity
  8
0
  6
ByBlock
 62
     0
100
AcDbLine
 10
7159.092839011051
 20
2870.800457609002
 30
0.0
 11
7159.092839011051
 21
2588.245721644006
 31
0.0
  0
LINE
  5
8261
330
84A4
100
AcDbEntity
  8
0
  6
ByBlock
 62
     0
100
AcDbLine
 10
6321.092839011051
 20
2628.245721644006
 30
0.0
 11
7079.092839011052
 21
2628.245721644006
 31
0.0
  0
INSERT
  5
8262
330
84A4
100
AcDbEntity
  8
0
  6
ByBlock
 62
     0
100
AcDbBlockReference
  2
_OPEN
 10
6241.092839011051
 20
2628.245721644006
 30
0.0
 41
80.0
 42
80.0
 43
80.0
 50
180.0
  0
INSERT
  5
8263
330
84A4
100
AcDbEntity
  8
0
  6
ByBlock
 62
     0
100
AcDbBlockReference
  2
_OPEN
 10
7159.092839011051
 20
2628.245721644006
 30
0.0
 41
80.0
 42
80.0
 43
80.0
  0
TEXT
  5
8264
330
84A4
100
AcDbEntity
  8
3
 62
     0
100
AcDbText
 10
6557.235696153909
 20
2668.245721644006
 30
0.0
 40
120.0
  1
918
100
AcDbText
  0
POINT
  5
8265
330
84A4
100
AcDbEntity
  8
DEFPOINTS
  6
ByBlock
 62
     0
100
AcDbPoint
 10
6241.092839011051
 20
2890.800457609002
 30
0.0
  0
POINT
  5
8266
330
84A4
100
AcDbEntity
  8
DEFPOINTS
  6
ByBlock
 62
     0
100
AcDbPoint
 10
7159.092839011051
 20
2890.800457609002
 30
0.0
  0
POINT
  5
8267
330
84A4
100
AcDbEntity
  8
DEFPOINTS
  6
ByBlock
 62
     0
100
AcDbPoint
 10
7159.092839011051
 20
2628.245721644006
 30
0.0
  0
ENDBLK
  5
8268
330
84A4
100
AcDbEntity
  8
0
100
AcDbBlockEnd
  0
BLOCK
  5
84A7
330
84A6
100
AcDbEntity
  8
0
100
AcDbBlockBegin
  2
*D26
 70
     1
 10
0.0
 20
0.0
 30
0.0
  3
*D26
  1

  0
LINE
  5
826C
330
84A6
100
AcDbEntity
  8
0
  6
ByBlock
 62
     0
100
AcDbLine
 10
3616.156955993239
 20
2890.800457609002
 30
0.0
 11
4712.787526046886
 21
2890.800457609002
 31
0.0
  0
LINE
  5
826D
330
84A6
100
AcDbEntity
  8
0
  6
ByBlock
 62
     0
100
AcDbLine
 10
2795.156955993237
 20
5217.800457609002
 30
0.0
 11
4712.787526046886
 21
5217.800457609002
 31
0.0
  0
LINE
  5
826E
330
84A6
100
AcDbEntity
  8
0
  6
ByBlock
 62
     0
100
AcDbLine
 10
4672.787526046886
 20
2970.800457609002
 30
0.0
 11
4672.787526046886
 21
5137.800457609003
 31
0.0
  0
INSERT
  5
826F
330
84A6
100
AcDbEntity
  8
0
  6
ByBlock
 62
     0
100
AcDbBlockReference
  2
_OPEN
 10
4672.787526046886
 20
2890.800457609002
 30
0.0
 41
80.0
 42
80.0
 43
80.0
 50
270.0
  0
INSERT
  5
8270
330
84A6
100
AcDbEntity
  8
0
  6
ByBlock
 62
     0
100
AcDbBlockReference
  2
_OPEN
 10
4672.787526046886
 20
5217.800457609002
 30
0.0
 41
80.0
 42
80.0
 43
80.0
 50
90.0
  0
TEXT
  5
8271
330
84A6
100
AcDbEntity
  8
3
 62
     0
100
AcDbText
 10
4632.787526046886
 20
3842.871886180431
 30
0.0
 40
120.0
  1
2327
 50
90.0
100
AcDbText
  0
POINT
  5
8272
330
84A6
100
AcDbEntity
  8
DEFPOINTS
  6
ByBlock
 62
     0
100
AcDbPoint
 10
3596.156955993239
 20
2890.800457609002
 30
0.0
  0
POINT
  5
8273
330
84A6
100
AcDbEntity
  8
DEFPOINTS
  6
ByBlock
 62
     0
100
AcDbPoint
 10
2775.156955993237
 20
5217.800457609002
 30
0.0
  0
POINT
  5
8274
330
84A6
100
AcDbEntity
  8
DEFPOINTS
  6
ByBlock
 62
     0
100
AcDbPoint
 10
4672.787526046886
 20
5217.800457609002
 30
0.0
  0
ENDBLK
  5
8275
330
84A6
100
AcDbEntity
  8
0
100
AcDbBlockEnd
  0
BLOCK
  5
8501
330
8500
100
AcDbEntity
  8
0
100
AcDbBlockBegin
  2
*D27
 70
     1
 10
0.0
 20
0.0
 30
0.0
  3
*D27
  1

  0
LINE
  5
8503
330
8500
100
AcDbEntity
  8
3
 62
     0
370
    -2
100
AcDbLine
 10
5391.092839011054
 20
5237.800457609003
 30
0.0
 11
5391.092839011054
 21
5530.120671915637
 31
0.0
  0
LINE
  5
8504
330
8500
100
AcDbEntity
  8
3
 62
     0
370
    -2
100
AcDbLine
 10
7091.092839011054
 20
5237.800457609003
 30
0.0
 11
7091.092839011054
 21
5530.120671915637
 31
0.0
  0
LINE
  5
8505
330
8500
100
AcDbEntity
  8
3
 62
     0
370
    -2
100
AcDbLine
 10
5471.092839011054
 20
5490.120671915637
 30
0.0
 11
7011.092839011054
 21
5490.120671915637
 31
0.0
  0
INSERT
  5
8506
330
8500
100
AcDbEntity
  8
3
 62
     0
370
    -2
100
AcDbBlockReference
  2
_OPEN
 10
5391.092839011054
 20
5490.120671915637
 30
0.0
 41
80.0
 42
80.0
 43
80.0
 50
180.0
  0
INSERT
  5
8507
330
8500
100
AcDbEntity
  8
3
 62
     0
370
    -2
100
AcDbBlockReference
  2
_OPEN
 10
7091.092839011054
 20
5490.120671915637
 30
0.0
 41
80.0
 42
80.0
 43
80.0
  0
MTEXT
  5
8508
330
8500
100
AcDbEntity
  8
3
 62
     0
100
AcDbMText
 10
6241.092839011054
 20
5590.120671915637
 30
0.0
 40
120.0
 41
0.0
 71
     5
 72
     1
  1
\A1;1700
 73
     1
 44
1.0
1001
ACAD
1000
MTEXTBEGIN
1070
    73
1070
     1
1070
    44
1040
1.0
1070
    74
1070
     0
1000
MTEXTEND
  0
POINT
  5
8509
330
8500
100
AcDbEntity
  8
DEFPOINTS
 62
     0
100
AcDbPoint
 10
5391.092839011054
 20
5217.800457609002
 30
0.0
  0
POINT
  5
850A
330
8500
100
AcDbEntity
  8
DEFPOINTS
 62
     0
100
AcDbPoint
 10
7091.092839011054
 20
5217.800457609002
 30
0.0
  0
POINT
  5
850B
330
8500
100
AcDbEntity
  8
DEFPOINTS
 62
     0
100
AcDbPoint
 10
7091.092839011054
 20
5490.120671915637
 30
0.0
  0
ENDBLK
  5
8502
330
8500
100
AcDbEntity
  8
0
100
AcDbBlockEnd
  0
BLOCK
  5
850E
330
850D
100
AcDbEntity
  8
0
100
AcDbBlockBegin
  2
*D28
 70
     1
 10
0.0
 20
0.0
 30
0.0
  3
*D28
  1

  0
LINE
  5
858B
330
850D
100
AcDbEntity
  8
3
 62
     0
370
    -2
100
AcDbLine
 10
4961.092839011054
 20
4720.800457609002
 30
0.0
 11
4961.092839011054
 21
5855.197290539809
 31
0.0
  0
LINE
  5
858C
330
850D
100
AcDbEntity
  8
3
 62
     0
370
    -2
100
AcDbLine
 10
6241.092839011054
 20
5670.120671915637
 30
0.0
 11
6241.092839011054
 21
5855.197290539809
 31
0.0
  0
LINE
  5
858D
330
850D
100
AcDbEntity
  8
3
 62
     0
370
    -2
100
AcDbLine
 10
5041.092839011054
 20
5815.19729053981
 30
0.0
 11
6161.092839011054
 21
5815.19729053981
 31
0.0
  0
INSERT
  5
858E
330
850D
100
AcDbEntity
  8
3
 62
     0
370
    -2
100
AcDbBlockReference
  2
_OPEN
 10
4961.092839011054
 20
5815.19729053981
 30
0.0
 41
80.0
 42
80.0
 43
80.0
 50
180.0
  0
INSERT
  5
858F
330
850D
100
AcDbEntity
  8
3
 62
     0
370
    -2
100
AcDbBlockReference
  2
_OPEN
 10
6241.092839011054
 20
5815.19729053981
 30
0.0
 41
80.0
 42
80.0
 43
80.0
  0
MTEXT
  5
8590
330
850D
100
AcDbEntity
  8
3
 62
     0
100
AcDbMText
 10
5601.092839011054
 20
5946.625861968382
 30
0.0
 40
120.0
 41
0.0
 71
     5
 72
     1
  1
\A1;(1280)
 73
     1
 44
1.0
1001
ACAD
1000
MTEXTBEGIN
1070
    73
1070
     1
1070
    44
1040
1.0
1070
    74
1070
     0
1000
MTEXTEND
  0
POINT
  5
8591
330
850D
100
AcDbEntity
  8
DEFPOINTS
 62
     0
100
AcDbPoint
 10
4961.092839011054
 20
4700.800457609002
 30
0.0
  0
POINT
  5
8592
330
850D
100
AcDbEntity
  8
DEFPOINTS
 62
     0
100
AcDbPoint
 10
6241.092839011054
 20
5650.120671915637
 30
0.0
  0
POINT
  5
8593
330
850D
100
AcDbEntity
  8
DEFPOINTS
 62
     0
100
AcDbPoint
 10
6241.092839011054
 20
5815.19729053981
 30
0.0
  0
ENDBLK
  5
850F
330
850D
100
AcDbEntity
  8
0
100
AcDbBlockEnd
  0
BLOCK
  5
851B
330
851A
100
AcDbEntity
  8
0
100
AcDbBlockBegin
  2
*D29
 70
     1
 10
0.0
 20
0.0
 30
0.0
  3
*D29
  1

  0
LINE
  5
8582
330
851A
100
AcDbEntity
  8
3
 62
     0
370
    -2
100
AcDbLine
 10
6241.092839011054
 20
5670.120671915637
 30
0.0
 11
6241.092839011054
 21
5855.197290539809
 31
0.0
  0
LINE
  5
8583
330
851A
100
AcDbEntity
  8
3
 62
     0
370
    -2
100
AcDbLine
 10
7261.092839011054
 20
4264.800457609001
 30
0.0
 11
7261.092839011054
 21
5855.197290539809
 31
0.0
  0
LINE
  5
8584
330
851A
100
AcDbEntity
  8
3
 62
     0
370
    -2
100
AcDbLine
 10
6321.092839011054
 20
5815.19729053981
 30
0.0
 11
7181.092839011054
 21
5815.19729053981
 31
0.0
  0
INSERT
  5
8585
330
851A
100
AcDbEntity
  8
3
 62
     0
370
    -2
100
AcDbBlockReference
  2
_OPEN
 10
6241.092839011054
 20
5815.19729053981
 30
0.0
 41
80.0
 42
80.0
 43
80.0
 50
180.0
  0
INSERT
  5
8586
330
851A
100
AcDbEntity
  8
3
 62
     0
370
    -2
100
AcDbBlockReference
  2
_OPEN
 10
7261.092839011054
 20
5815.19729053981
 30
0.0
 41
80.0
 42
80.0
 43
80.0
  0
MTEXT
  5
8587
330
851A
100
AcDbEntity
  8
3
 62
     0
100
AcDbMText
 10
6751.092839011054
 20
5946.625861968382
 30
0.0
 40
120.0
 41
0.0
 71
     5
 72
     1
  1
\A1;(1020)
 73
     1
 44
1.0
1001
ACAD
1000
MTEXTBEGIN
1070
    73
1070
     1
1070
    44
1040
1.0
1070
    74
1070
     0
1000
MTEXTEND
  0
POINT
  5
8588
330
851A
100
AcDbEntity
  8
DEFPOINTS
 62
     0
100
AcDbPoint
 10
6241.092839011054
 20
5650.120671915637
 30
0.0
  0
POINT
  5
8589
330
851A
100
AcDbEntity
  8
DEFPOINTS
 62
     0
100
AcDbPoint
 10
7261.092839011054
 20
4244.800457609001
 30
0.0
  0
POINT
  5
858A
330
851A
100
AcDbEntity
  8
DEFPOINTS
 62
     0
100
AcDbPoint
 10
7261.092839011054
 20
5815.19729053981
 30
0.0
  0
ENDBLK
  5
851C
330
851A
100
AcDbEntity
  8
0
100
AcDbBlockEnd
  0
BLOCK
  5
852C
330
852B
100
AcDbEntity
  8
0
100
AcDbBlockBegin
  2
*D30
 70
     1
 10
0.0
 20
0.0
 30
0.0
  3
*D30
  1

  0
LINE
  5
8543
330
852B
100
AcDbEntity
  8
3
 62
     0
370
    -2
100
AcDbLine
 10
7111.092839011054
 20
4945.800457609002
 30
0.0
 11
7574.26434175711
 21
4945.800457609002
 31
0.0
  0
LINE
  5
8544
330
852B
100
AcDbEntity
  8
3
 62
     0
370
    -2
100
AcDbLine
 10
7111.092839011054
 20
3695.800457609002
 30
0.0
 11
7574.26434175711
 21
3695.800457609001
 31
0.0
  0
LINE
  5
8545
330
852B
100
AcDbEntity
  8
3
 62
     0
370
    -2
100
AcDbLine
 10
7534.264341757111
 20
4865.800457609001
 30
0.0
 11
7534.264341757111
 21
3775.800457609001
 31
0.0
  0
INSERT
  5
8546
330
852B
100
AcDbEntity
  8
3
 62
     0
370
    -2
100
AcDbBlockReference
  2
_OPEN
 10
7534.264341757111
 20
4945.800457609002
 30
0.0
 41
80.0
 42
80.0
 43
80.0
 50
90.0
  0
INSERT
  5
8547
330
852B
100
AcDbEntity
  8
3
 62
     0
370
    -2
100
AcDbBlockReference
  2
_OPEN
 10
7534.264341757111
 20
3695.800457609001
 30
0.0
 41
80.0
 42
80.0
 43
80.0
 50
270.0
  0
MTEXT
  5
8548
330
852B
100
AcDbEntity
  8
3
 62
     0
100
AcDbMText
 10
7434.26434175711
 20
4320.800457609002
 30
0.0
 40
120.0
 41
0.0
 71
     5
 72
     1
  1
\A1;\U+03C61250
 11
0.0000000000000001
 21
1.0
 31
0.0
 73
     1
 44
1.0
1001
ACAD
1000
MTEXTBEGIN
1070
    73
1070
     1
1070
    44
1040
1.0
1070
    74
1070
     0
1000
MTEXTEND
  0
POINT
  5
8549
330
852B
100
AcDbEntity
  8
DEFPOINTS
 62
     0
100
AcDbPoint
 10
7091.092839011054
 20
4945.800457609002
 30
0.0
  0
POINT
  5
854A
330
852B
100
AcDbEntity
  8
DEFPOINTS
 62
     0
100
AcDbPoint
 10
7091.092839011054
 20
3695.800457609002
 30
0.0
  0
POINT
  5
854B
330
852B
100
AcDbEntity
  8
DEFPOINTS
 62
     0
100
AcDbPoint
 10
7534.264341757111
 20
3695.800457609001
 30
0.0
  0
ENDBLK
  5
852D
330
852B
100
AcDbEntity
  8
0
100
AcDbBlockEnd
  0
BLOCK
  5
8596
330
8595
100
AcDbEntity
  8
0
100
AcDbBlockBegin
  2
*D31
 70
     1
 10
0.0
 20
0.0
 30
0.0
  3
*D31
  1

  0
LINE
  5
85E2
330
8595
100
AcDbEntity
  8
3
 62
     0
370
    -2
100
AcDbLine
 10
3841.984076714959
 20
7730.311612935842
 30
0.0
 11
4926.312299005193
 21
7730.311612935842
 31
0.0
  0
LINE
  5
85E3
330
8595
100
AcDbEntity
  8
3
 62
     0
370
    -2
100
AcDbLine
 10
3246.156955993237
 20
6450.311612935841
 30
0.0
 11
4926.312299005193
 21
6450.311612935841
 31
0.0
  0
LINE
  5
85E4
330
8595
100
AcDbEntity
  8
3
 62
     0
370
    -2
100
AcDbLine
 10
4886.312299005193
 20
7650.311612935841
 30
0.0
 11
4886.312299005193
 21
6530.311612935843
 31
0.0
  0
INSERT
  5
85E5
330
8595
100
AcDbEntity
  8
3
 62
     0
370
    -2
100
AcDbBlockReference
  2
_OPEN
 10
4886.312299005193
 20
7730.311612935842
 30
0.0
 41
80.0
 42
80.0
 43
80.0
 50
90.0
  0
INSERT
  5
85E6
330
8595
100
AcDbEntity
  8
3
 62
     0
370
    -2
100
AcDbBlockReference
  2
_OPEN
 10
4886.312299005193
 20
6450.311612935841
 30
0.0
 41
80.0
 42
80.0
 43
80.0
 50
270.0
  0
MTEXT
  5
85E7
330
8595
100
AcDbEntity
  8
3
 62
     0
100
AcDbMText
 10
4786.31229900519
 20
7090.311612935844
 30
0.0
 40
120.0
 41
0.0
 71
     5
 72
     1
  1
\A1;1280
 11
0.0000000000000001
 21
1.0
 31
0.0
 73
     1
 44
1.0
1001
ACAD
1000
MTEXTBEGIN
1070
    73
1070
     1
1070
    44
1040
1.0
1070
    74
1070
     0
1000
MTEXTEND
  0
POINT
  5
85E8
330
8595
100
AcDbEntity
  8
DEFPOINTS
 62
     0
100
AcDbPoint
 10
3821.984076714958
 20
7730.311612935842
 30
0.0
  0
POINT
  5
85E9
330
8595
100
AcDbEntity
  8
DEFPOINTS
 62
     0
100
AcDbPoint
 10
3226.156955993238
 20
6450.311612935841
 30
0.0
  0
POINT
  5
85EA
330
8595
100
AcDbEntity
  8
DEFPOINTS
 62
     0
100
AcDbPoint
 10
4886.312299005193
 20
6450.311612935841
 30
0.0
  0
ENDBLK
  5
8597
330
8595
100
AcDbEntity
  8
0
100
AcDbBlockEnd
  0
BLOCK
  5
85A3
330
85A2
100
AcDbEntity
  8
0
100
AcDbBlockBegin
  2
*D32
 70
     1
 10
0.0
 20
0.0
 30
0.0
  3
*D32
  1

  0
LINE
  5
85A5
330
85A2
100
AcDbEntity
  8
3
 62
     0
370
    -2
100
AcDbLine
 10
3596.156955993239
 20
8668.311612935841
 30
0.0
 11
3596.156955993239
 21
8892.947751441026
 31
0.0
  0
LINE
  5
85A6
330
85A2
100
AcDbEntity
  8
3
 62
     0
370
    -2
100
AcDbLine
 10
2096.156955993238
 20
8668.311612935841
 30
0.0
 11
2096.156955993238
 21
8892.947751441026
 31
0.0
  0
LINE
  5
85A7
330
85A2
100
AcDbEntity
  8
3
 62
     0
370
    -2
100
AcDbLine
 10
3516.156955993239
 20
8852.947751441025
 30
0.0
 11
2176.156955993238
 21
8852.947751441025
 31
0.0
  0
INSERT
  5
85A8
330
85A2
100
AcDbEntity
  8
3
 62
     0
370
    -2
100
AcDbBlockReference
  2
_OPEN
 10
3596.156955993239
 20
8852.947751441025
 30
0.0
 41
80.0
 42
80.0
 43
80.0
  0
INSERT
  5
85A9
330
85A2
100
AcDbEntity
  8
3
 62
     0
370
    -2
100
AcDbBlockReference
  2
_OPEN
 10
2096.156955993238
 20
8852.947751441025
 30
0.0
 41
80.0
 42
80.0
 43
80.0
 50
180.0
  0
MTEXT
  5
85AA
330
85A2
100
AcDbEntity
  8
3
 62
     0
100
AcDbMText
 10
2846.156955993239
 20
8952.947751441024
 30
0.0
 40
120.0
 41
0.0
 71
     5
 72
     1
  1
\A1;1500
 73
     1
 44
1.0
1001
ACAD
1000
MTEXTBEGIN
1070
    73
1070
     1
1070
    44
1040
1.0
1070
    74
1070
     0
1000
MTEXTEND
  0
POINT
  5
85AB
330
85A2
100
AcDbEntity
  8
DEFPOINTS
 62
     0
100
AcDbPoint
 10
3596.156955993239
 20
8648.31161293584
 30
0.0
  0
POINT
  5
85AC
330
85A2
100
AcDbEntity
  8
DEFPOINTS
 62
     0
100
AcDbPoint
 10
2096.156955993238
 20
8648.31161293584
 30
0.0
  0
POINT
  5
85AD
330
85A2
100
AcDbEntity
  8
DEFPOINTS
 62
     0
100
AcDbPoint
 10
2096.156955993238
 20
8852.947751441025
 30
0.0
  0
ENDBLK
  5
85A4
330
85A2
100
AcDbEntity
  8
0
100
AcDbBlockEnd
  0
BLOCK
  5
85B0
330
85AF
100
AcDbEntity
  8
0
100
AcDbBlockBegin
  2
*D33
 70
     1
 10
0.0
 20
0.0
 30
0.0
  3
*D33
  1

  0
LINE
  5
85B2
330
85AF
100
AcDbEntity
  8
3
 62
     0
370
    -2
100
AcDbLine
 10
2096.156955993238
 20
8668.311612935841
 30
0.0
 11
2096.156955993238
 21
8892.947751441026
 31
0.0
  0
LINE
  5
85B3
330
85AF
100
AcDbEntity
  8
3
 62
     0
370
    -2
100
AcDbLine
 10
1146.156955993237
 20
7548.311612935842
 30
0.0
 11
1146.156955993237
 21
8892.947751441026
 31
0.0
  0
LINE
  5
85B4
330
85AF
100
AcDbEntity
  8
3
 62
     0
370
    -2
100
AcDbLine
 10
2016.156955993238
 20
8852.947751441025
 30
0.0
 11
1226.156955993237
 21
8852.947751441025
 31
0.0
  0
INSERT
  5
85B5
330
85AF
100
AcDbEntity
  8
3
 62
     0
370
    -2
100
AcDbBlockReference
  2
_OPEN
 10
2096.156955993238
 20
8852.947751441025
 30
0.0
 41
80.0
 42
80.0
 43
80.0
  0
INSERT
  5
85B6
330
85AF
100
AcDbEntity
  8
3
 62
     0
370
    -2
100
AcDbBlockReference
  2
_OPEN
 10
1146.156955993237
 20
8852.947751441025
 30
0.0
 41
80.0
 42
80.0
 43
80.0
 50
180.0
  0
MTEXT
  5
85B7
330
85AF
100
AcDbEntity
  8
3
 62
     0
100
AcDbMText
 10
1621.156955993238
 20
8952.947751441024
 30
0.0
 40
120.0
 41
0.0
 71
     5
 72
     1
  1
\A1;950
 73
     1
 44
1.0
1001
ACAD
1000
MTEXTBEGIN
1070
    73
1070
     1
1070
    44
1040
1.0
1070
    74
1070
     0
1000
MTEXTEND
  0
POINT
  5
85B8
330
85AF
100
AcDbEntity
  8
DEFPOINTS
 62
     0
100
AcDbPoint
 10
2096.156955993238
 20
8648.31161293584
 30
0.0
  0
POINT
  5
85B9
330
85AF
100
AcDbEntity
  8
DEFPOINTS
 62
     0
100
AcDbPoint
 10
1146.156955993237
 20
7528.311612935842
 30
0.0
  0
POINT
  5
85BA
330
85AF
100
AcDbEntity
  8
DEFPOINTS
 62
     0
100
AcDbPoint
 10
1146.156955993237
 20
8852.947751441025
 30
0.0
  0
ENDBLK
  5
85B1
330
85AF
100
AcDbEntity
  8
0
100
AcDbBlockEnd
  0
BLOCK
  5
85BD
330
85BC
100
AcDbEntity
  8
0
100
AcDbBlockBegin
  2
*D34
 70
     1
 10
0.0
 20
0.0
 30
0.0
  3
*D34
  1

  0
LINE
  5
85BF
330
85BC
100
AcDbEntity
  8
3
 62
     0
370
    -2
100
AcDbLine
 10
1126.156955993237
 20
7528.311612935842
 30
0.0
 11
839.8305548856587
 21
7528.311612935842
 31
0.0
  0
LINE
  5
85C0
330
85BC
100
AcDbEntity
  8
3
 62
     0
370
    -2
100
AcDbLine
 10
1126.156955993237
 20
6528.311612935842
 30
0.0
 11
839.8305548856585
 21
6528.311612935842
 31
0.0
  0
LINE
  5
85C1
330
85BC
100
AcDbEntity
  8
3
 62
     0
370
    -2
100
AcDbLine
 10
879.8305548856587
 20
7448.311612935842
 30
0.0
 11
879.8305548856586
 21
6608.311612935843
 31
0.0
  0
INSERT
  5
85C2
330
85BC
100
AcDbEntity
  8
3
 62
     0
370
    -2
100
AcDbBlockReference
  2
_OPEN
 10
879.8305548856587
 20
7528.311612935842
 30
0.0
 41
80.0
 42
80.0
 43
80.0
 50
90.0
  0
INSERT
  5
85C3
330
85BC
100
AcDbEntity
  8
3
 62
     0
370
    -2
100
AcDbBlockReference
  2
_OPEN
 10
879.8305548856586
 20
6528.311612935842
 30
0.0
 41
80.0
 42
80.0
 43
80.0
 50
270.0
  0
MTEXT
  5
85C4
330
85BC
100
AcDbEntity
  8
3
 62
     0
100
AcDbMText
 10
779.8305548856575
 20
7028.311612935842
 30
0.0
 40
120.0
 41
0.0
 71
     5
 72
     1
  1
\A1;1000
 11
0.0000000000000001
 21
1.0
 31
0.0
 73
     1
 44
1.0
1001
ACAD
1000
MTEXTBEGIN
1070
    73
1070
     1
1070
    44
1040
1.0
1070
    74
1070
     0
1000
MTEXTEND
  0
POINT
  5
85C5
330
85BC
100
AcDbEntity
  8
DEFPOINTS
 62
     0
100
AcDbPoint
 10
1146.156955993237
 20
7528.311612935842
 30
0.0
  0
POINT
  5
85C6
330
85BC
100
AcDbEntity
  8
DEFPOINTS
 62
     0
100
AcDbPoint
 10
1146.156955993237
 20
6528.311612935842
 30
0.0
  0
POINT
  5
85C7
330
85BC
100
AcDbEntity
  8
DEFPOINTS
 62
     0
100
AcDbPoint
 10
879.8305548856586
 20
6528.311612935842
 30
0.0
  0
ENDBLK
  5
85BE
330
85BC
100
AcDbEntity
  8
0
100
AcDbBlockEnd
  0
BLOCK
  5
85CA
330
85C9
100
AcDbEntity
  8
0
100
AcDbBlockBegin
  2
*D35
 70
     1
 10
0.0
 20
0.0
 30
0.0
  3
*D35
  1

  0
LINE
  5
85CC
330
85C9
100
AcDbEntity
  8
3
 62
     0
370
    -2
100
AcDbLine
 10
1146.156955993237
 20
6508.311612935843
 30
0.0
 11
1146.156955993237
 21
6123.557734746188
 31
0.0
  0
LINE
  5
85CD
330
85C9
100
AcDbEntity
  8
3
 62
     0
370
    -2
100
AcDbLine
 10
3596.156955993239
 20
6508.311612935838
 30
0.0
 11
3596.156955993239
 21
6123.557734746188
 31
0.0
  0
LINE
  5
85CE
330
85C9
100
AcDbEntity
  8
3
 62
     0
370
    -2
100
AcDbLine
 10
1226.156955993237
 20
6163.557734746188
 30
0.0
 11
3516.156955993239
 21
6163.557734746188
 31
0.0
  0
INSERT
  5
85CF
330
85C9
100
AcDbEntity
  8
3
 62
     0
370
    -2
100
AcDbBlockReference
  2
_OPEN
 10
1146.156955993237
 20
6163.557734746188
 30
0.0
 41
80.0
 42
80.0
 43
80.0
 50
180.0
  0
INSERT
  5
85D0
330
85C9
100
AcDbEntity
  8
3
 62
     0
370
    -2
100
AcDbBlockReference
  2
_OPEN
 10
3596.156955993239
 20
6163.557734746188
 30
0.0
 41
80.0
 42
80.0
 43
80.0
  0
MTEXT
  5
85D1
330
85C9
100
AcDbEntity
  8
3
 62
     0
100
AcDbMText
 10
2371.156955993238
 20
6263.557734746187
 30
0.0
 40
120.0
 41
0.0
 71
     5
 72
     1
  1
\A1;2450
 73
     1
 44
1.0
1001
ACAD
1000
MTEXTBEGIN
1070
    73
1070
     1
1070
    44
1040
1.0
1070
    74
1070
     0
1000
MTEXTEND
  0
POINT
  5
85D2
330
85C9
100
AcDbEntity
  8
DEFPOINTS
 62
     0
100
AcDbPoint
 10
1146.156955993237
 20
6528.311612935842
 30
0.0
  0
POINT
  5
85D3
330
85C9
100
AcDbEntity
  8
DEFPOINTS
 62
     0
100
AcDbPoint
 10
3596.156955993239
 20
6528.311612935839
 30
0.0
  0
POINT
  5
85D4
330
85C9
100
AcDbEntity
  8
DEFPOINTS
 62
     0
100
AcDbPoint
 10
3596.156955993239
 20
6163.557734746188
 30
0.0
  0
ENDBLK
  5
85CB
330
85C9
100
AcDbEntity
  8
0
100
AcDbBlockEnd
  0
BLOCK
  5
85D7
330
85D6
100
AcDbEntity
  8
0
100
AcDbBlockBegin
  2
*D36
 70
     1
 10
0.0
 20
0.0
 30
0.0
  3
*D36
  1

  0
LINE
  5
85D9
330
85D6
100
AcDbEntity
  8
3
 62
     0
370
    -2
100
AcDbLine
 10
3616.156955993239
 20
8648.31161293584
 30
0.0
 11
4085.173097229072
 21
8648.31161293584
 31
0.0
  0
LINE
  5
85DA
330
85D6
100
AcDbEntity
  8
3
 62
     0
370
    -2
100
AcDbLine
 10
3616.156955993239
 20
6528.311612935839
 30
0.0
 11
4085.173097229072
 21
6528.311612935839
 31
0.0
  0
LINE
  5
85DB
330
85D6
100
AcDbEntity
  8
3
 62
     0
370
    -2
100
AcDbLine
 10
4045.173097229073
 20
8568.311612935842
 30
0.0
 11
4045.173097229072
 21
6608.311612935839
 31
0.0
  0
INSERT
  5
85DC
330
85D6
100
AcDbEntity
  8
3
 62
     0
370
    -2
100
AcDbBlockReference
  2
_OPEN
 10
4045.173097229073
 20
8648.31161293584
 30
0.0
 41
80.0
 42
80.0
 43
80.0
 50
90.0
  0
INSERT
  5
85DD
330
85D6
100
AcDbEntity
  8
3
 62
     0
370
    -2
100
AcDbBlockReference
  2
_OPEN
 10
4045.173097229072
 20
6528.311612935839
 30
0.0
 41
80.0
 42
80.0
 43
80.0
 50
270.0
  0
MTEXT
  5
85DE
330
85D6
100
AcDbEntity
  8
3
 62
     0
100
AcDbMText
 10
3945.173097229072
 20
7588.311612935841
 30
0.0
 40
120.0
 41
0.0
 71
     5
 72
     1
  1
\A1;2120
 11
0.0000000000000001
 21
1.0
 31
0.0
 73
     1
 44
1.0
1001
ACAD
1000
MTEXTBEGIN
1070
    73
1070
     1
1070
    44
1040
1.0
1070
    74
1070
     0
1000
MTEXTEND
  0
POINT
  5
85DF
330
85D6
100
AcDbEntity
  8
DEFPOINTS
 62
     0
100
AcDbPoint
 10
3596.156955993239
 20
8648.31161293584
 30
0.0
  0
POINT
  5
85E0
330
85D6
100
AcDbEntity
  8
DEFPOINTS
 62
     0
100
AcDbPoint
 10
3596.156955993239
 20
6528.311612935839
 30
0.0
  0
POINT
  5
85E1
330
85D6
100
AcDbEntity
  8
DEFPOINTS
 62
     0
100
AcDbPoint
 10
4045.173097229072
 20
6528.311612935839
 30
0.0
  0
ENDBLK
  5
85D8
330
85D6
100
AcDbEntity
  8
0
100
AcDbBlockEnd
  0
BLOCK
  5
85ED
330
85EC
100
AcDbEntity
  8
0
100
AcDbBlockBegin
  2
*D37
 70
     1
 10
0.0
 20
0.0
 30
0.0
  3
*D37
  1

  0
LINE
  5
85EF
330
85EC
100
AcDbEntity
  8
3
 62
     0
370
    -2
100
AcDbLine
 10
3671.156955993239
 20
4339.800457609001
 30
0.0
 11
3671.156955993239
 21
5525.312615694231
 31
0.0
  0
LINE
  5
85F0
330
85EC
100
AcDbEntity
  8
3
 62
     0
370
    -2
100
AcDbLine
 10
2846.156955993239
 20
5389.39887263968
 30
0.0
 11
2846.156955993239
 21
5525.312615694231
 31
0.0
  0
LINE
  5
85F1
330
85EC
100
AcDbEntity
  8
3
 62
     0
370
    -2
100
AcDbLine
 10
3591.156955993239
 20
5485.312615694231
 30
0.0
 11
2926.156955993239
 21
5485.312615694231
 31
0.0
  0
INSERT
  5
85F2
330
85EC
100
AcDbEntity
  8
3
 62
     0
370
    -2
100
AcDbBlockReference
  2
_OPEN
 10
3671.156955993239
 20
5485.312615694231
 30
0.0
 41
80.0
 42
80.0
 43
80.0
  0
INSERT
  5
85F3
330
85EC
100
AcDbEntity
  8
3
 62
     0
370
    -2
100
AcDbBlockReference
  2
_OPEN
 10
2846.156955993239
 20
5485.312615694231
 30
0.0
 41
80.0
 42
80.0
 43
80.0
 50
180.0
  0
MTEXT
  5
85F4
330
85EC
100
AcDbEntity
  8
3
 62
     0
100
AcDbMText
 10
3258.656955993239
 20
5585.312615694231
 30
0.0
 40
120.0
 41
0.0
 71
     5
 72
     1
  1
\A1;825
 73
     1
 44
1.0
1001
ACAD
1000
MTEXTBEGIN
1070
    73
1070
     1
1070
    44
1040
1.0
1070
    74
1070
     0
1000
MTEXTEND
  0
POINT
  5
85F5
330
85EC
100
AcDbEntity
  8
DEFPOINTS
 62
     0
100
AcDbPoint
 10
3671.156955993239
 20
4319.800457609001
 30
0.0
  0
POINT
  5
85F6
330
85EC
100
AcDbEntity
  8
DEFPOINTS
 62
     0
100
AcDbPoint
 10
2846.156955993239
 20
5369.39887263968
 30
0.0
  0
POINT
  5
85F7
330
85EC
100
AcDbEntity
  8
DEFPOINTS
 62
     0
100
AcDbPoint
 10
2846.156955993239
 20
5485.312615694231
 30
0.0
  0
ENDBLK
  5
85EE
330
85EC
100
AcDbEntity
  8
0
100
AcDbBlockEnd
  0
BLOCK
  5
85FA
330
85F9
100
AcDbEntity
  8
0
100
AcDbBlockBegin
  2
*D38
 70
     1
 10
0.0
 20
0.0
 30
0.0
  3
*D38
  1

  0
LINE
  5
85FC
330
85F9
100
AcDbEntity
  8
3
 62
     0
370
    -2
100
AcDbLine
 10
2846.156955993239
 20
5389.39887263968
 30
0.0
 11
2846.156955993239
 21
5525.312615694231
 31
0.0
  0
LINE
  5
85FD
330
85F9
100
AcDbEntity
  8
3
 62
     0
370
    -2
100
AcDbLine
 10
1767.156955993239
 20
4249.800457609001
 30
0.0
 11
1767.156955993239
 21
5525.312615694231
 31
0.0
  0
LINE
  5
85FE
330
85F9
100
AcDbEntity
  8
3
 62
     0
370
    -2
100
AcDbLine
 10
2766.156955993239
 20
5485.312615694231
 30
0.0
 11
1847.156955993239
 21
5485.312615694231
 31
0.0
  0
INSERT
  5
85FF
330
85F9
100
AcDbEntity
  8
3
 62
     0
370
    -2
100
AcDbBlockReference
  2
_OPEN
 10
2846.156955993239
 20
5485.312615694231
 30
0.0
 41
80.0
 42
80.0
 43
80.0
  0
INSERT
  5
8600
330
85F9
100
AcDbEntity
  8
3
 62
     0
370
    -2
100
AcDbBlockReference
  2
_OPEN
 10
1767.156955993239
 20
5485.312615694231
 30
0.0
 41
80.0
 42
80.0
 43
80.0
 50
180.0
  0
MTEXT
  5
8601
330
85F9
100
AcDbEntity
  8
3
 62
     0
100
AcDbMText
 10
2306.656955993239
 20
5585.312615694231
 30
0.0
 40
120.0
 41
0.0
 71
     5
 72
     1
  1
\A1;1079
 73
     1
 44
1.0
1001
ACAD
1000
MTEXTBEGIN
1070
    73
1070
     1
1070
    44
1040
1.0
1070
    74
1070
     0
1000
MTEXTEND
  0
POINT
  5
8602
330
85F9
100
AcDbEntity
  8
DEFPOINTS
 62
     0
100
AcDbPoint
 10
2846.156955993239
 20
5369.39887263968
 30
0.0
  0
POINT
  5
8603
330
85F9
100
AcDbEntity
  8
DEFPOINTS
 62
     0
100
AcDbPoint
 10
1767.156955993239
 20
4229.800457609001
 30
0.0
  0
POINT
  5
8604
330
85F9
100
AcDbEntity
  8
DEFPOINTS
 62
     0
100
AcDbPoint
 10
1767.156955993239
 20
5485.312615694231
 30
0.0
  0
ENDBLK
  5
85FB
330
85F9
100
AcDbEntity
  8
0
100
AcDbBlockEnd
  0
BLOCK
  5
8607
330
8606
100
AcDbEntity
  8
0
100
AcDbBlockBegin
  2
*D39
 70
     1
 10
0.0
 20
0.0
 30
0.0
  3
*D39
  1

  0
LINE
  5
8609
330
8606
100
AcDbEntity
  8
3
 62
     0
370
    -2
100
AcDbLine
 10
3671.156955993239
 20
4339.800457609001
 30
0.0
 11
3671.156955993239
 21
5778.269218418994
 31
0.0
  0
LINE
  5
860A
330
8606
100
AcDbEntity
  8
3
 62
     0
370
    -2
100
AcDbLine
 10
1146.156955993237
 20
3035.800457609002
 30
0.0
 11
1146.156955993237
 21
5778.269218418994
 31
0.0
  0
LINE
  5
860B
330
8606
100
AcDbEntity
  8
3
 62
     0
370
    -2
100
AcDbLine
 10
3591.156955993239
 20
5738.269218418995
 30
0.0
 11
1226.156955993237
 21
5738.269218418995
 31
0.0
  0
INSERT
  5
860C
330
8606
100
AcDbEntity
  8
3
 62
     0
370
    -2
100
AcDbBlockReference
  2
_OPEN
 10
3671.156955993239
 20
5738.269218418995
 30
0.0
 41
80.0
 42
80.0
 43
80.0
  0
INSERT
  5
860D
330
8606
100
AcDbEntity
  8
3
 62
     0
370
    -2
100
AcDbBlockReference
  2
_OPEN
 10
1146.156955993237
 20
5738.269218418995
 30
0.0
 41
80.0
 42
80.0
 43
80.0
 50
180.0
  0
MTEXT
  5
860E
330
8606
100
AcDbEntity
  8
3
 62
     0
100
AcDbMText
 10
2408.656955993238
 20
5838.269218418995
 30
0.0
 40
120.0
 41
0.0
 71
     5
 72
     1
  1
\A1;2525
 73
     1
 44
1.0
1001
ACAD
1000
MTEXTBEGIN
1070
    73
1070
     1
1070
    44
1040
1.0
1070
    74
1070
     0
1000
MTEXTEND
  0
POINT
  5
860F
330
8606
100
AcDbEntity
  8
DEFPOINTS
 62
     0
100
AcDbPoint
 10
3671.156955993239
 20
4319.800457609001
 30
0.0
  0
POINT
  5
8610
330
8606
100
AcDbEntity
  8
DEFPOINTS
 62
     0
100
AcDbPoint
 10
1146.156955993237
 20
3015.800457609002
 30
0.0
  0
POINT
  5
8611
330
8606
100
AcDbEntity
  8
DEFPOINTS
 62
     0
100
AcDbPoint
 10
1146.156955993237
 20
5738.269218418995
 30
0.0
  0
ENDBLK
  5
8608
330
8606
100
AcDbEntity
  8
0
100
AcDbBlockEnd
  0
BLOCK
  5
8614
330
8613
100
AcDbEntity
  8
0
100
AcDbBlockBegin
  2
*D40
 70
     1
 10
0.0
 20
0.0
 30
0.0
  3
*D40
  1

  0
LINE
  5
8616
330
8613
100
AcDbEntity
  8
3
 62
     0
370
    -2
100
AcDbLine
 10
3691.156955993239
 20
2986.800457609002
 30
0.0
 11
3964.167988683194
 21
2986.800457609002
 31
0.0
  0
LINE
  5
8617
330
8613
100
AcDbEntity
  8
3
 62
     0
370
    -2
100
AcDbLine
 10
3691.156955993239
 20
4266.800457609003
 30
0.0
 11
3964.167988683195
 21
4266.800457609003
 31
0.0
  0
LINE
  5
8618
330
8613
100
AcDbEntity
  8
3
 62
     0
370
    -2
100
AcDbLine
 10
3924.167988683194
 20
3066.800457609002
 30
0.0
 11
3924.167988683194
 21
4186.800457609003
 31
0.0
  0
INSERT
  5
8619
330
8613
100
AcDbEntity
  8
3
 62
     0
370
    -2
100
AcDbBlockReference
  2
_OPEN
 10
3924.167988683194
 20
2986.800457609002
 30
0.0
 41
80.0
 42
80.0
 43
80.0
 50
270.0
  0
INSERT
  5
861A
330
8613
100
AcDbEntity
  8
3
 62
     0
370
    -2
100
AcDbBlockReference
  2
_OPEN
 10
3924.167988683194
 20
4266.800457609003
 30
0.0
 41
80.0
 42
80.0
 43
80.0
 50
90.0
  0
MTEXT
  5
861B
330
8613
100
AcDbEntity
  8
3
 62
     0
100
AcDbMText
 10
3824.167988683194
 20
3626.800457609003
 30
0.0
 40
120.0
 41
0.0
 71
     5
 72
     1
  1
\A1;1280
 11
0.0000000000000001
 21
1.0
 31
0.0
 73
     1
 44
1.0
1001
ACAD
1000
MTEXTBEGIN
1070
    73
1070
     1
1070
    44
1040
1.0
1070
    74
1070
     0
1000
MTEXTEND
  0
POINT
  5
861C
330
8613
100
AcDbEntity
  8
DEFPOINTS
 62
     0
100
AcDbPoint
 10
3671.156955993239
 20
2986.800457609002
 30
0.0
  0
POINT
  5
861D
330
8613
100
AcDbEntity
  8
DEFPOINTS
 62
     0
100
AcDbPoint
 10
3671.156955993239
 20
4266.800457609003
 30
0.0
  0
POINT
  5
861E
330
8613
100
AcDbEntity
  8
DEFPOINTS
 62
     0
100
AcDbPoint
 10
3924.167988683194
 20
4266.800457609003
 30
0.0
  0
ENDBLK
  5
8615
330
8613
100
AcDbEntity
  8
0
100
AcDbBlockEnd
  0
BLOCK
  5
8621
330
8620
100
AcDbEntity
  8
0
100
AcDbBlockBegin
  2
*D41
 70
     1
 10
0.0
 20
0.0
 30
0.0
  3
*D41
  1

  0
LINE
  5
8623
330
8620
100
AcDbEntity
  8
3
 62
     0
370
    -2
100
AcDbLine
 10
3691.156955993239
 20
2986.800457609002
 30
0.0
 11
4211.230831139723
 21
2986.800457609002
 31
0.0
  0
LINE
  5
8624
330
8620
100
AcDbEntity
  8
3
 62
     0
370
    -2
100
AcDbLine
 10
3703.677800684858
 20
4320.800457609002
 30
0.0
 11
4211.230831139723
 21
4320.800457609002
 31
0.0
  0
LINE
  5
8625
330
8620
100
AcDbEntity
  8
3
 62
     0
370
    -2
100
AcDbLine
 10
4171.230831139723
 20
3066.800457609002
 30
0.0
 11
4171.230831139723
 21
4240.800457609001
 31
0.0
  0
INSERT
  5
8626
330
8620
100
AcDbEntity
  8
3
 62
     0
370
    -2
100
AcDbBlockReference
  2
_OPEN
 10
4171.230831139723
 20
2986.800457609002
 30
0.0
 41
80.0
 42
80.0
 43
80.0
 50
270.0
  0
INSERT
  5
8627
330
8620
100
AcDbEntity
  8
3
 62
     0
370
    -2
100
AcDbBlockReference
  2
_OPEN
 10
4171.230831139723
 20
4320.800457609002
 30
0.0
 41
80.0
 42
80.0
 43
80.0
 50
90.0
  0
MTEXT
  5
8628
330
8620
100
AcDbEntity
  8
3
 62
     0
100
AcDbMText
 10
4071.230831139723
 20
3653.800457609003
 30
0.0
 40
120.0
 41
0.0
 71
     5
 72
     1
  1
\A1;1334
 11
0.0000000000000001
 21
1.0
 31
0.0
 73
     1
 44
1.0
1001
ACAD
1000
MTEXTBEGIN
1070
    73
1070
     1
1070
    44
1040
1.0
1070
    74
1070
     0
1000
MTEXTEND
  0
POINT
  5
8629
330
8620
100
AcDbEntity
  8
DEFPOINTS
 62
     0
100
AcDbPoint
 10
3671.156955993239
 20
2986.800457609002
 30
0.0
  0
POINT
  5
862A
330
8620
100
AcDbEntity
  8
DEFPOINTS
 62
     0
100
AcDbPoint
 10
3683.677800684858
 20
4320.800457609002
 30
0.0
  0
POINT
  5
862B
330
8620
100
AcDbEntity
  8
DEFPOINTS
 62
     0
100
AcDbPoint
 10
4171.230831139723
 20
4320.800457609002
 30
0.0
  0
ENDBLK
  5
8622
330
8620
100
AcDbEntity
  8
0
100
AcDbBlockEnd
  0
BLOCK
  5
862E
330
862D
100
AcDbEntity
  8
0
100
AcDbBlockBegin
  2
*D42
 70
     1
 10
0.0
 20
0.0
 30
0.0
  3
*D42
  1

  0
LINE
  5
864F
330
862D
100
AcDbEntity
  8
3
 62
     0
370
    -2
100
AcDbLine
 10
3616.156955993239
 20
2890.800457609002
 30
0.0
 11
4462.346544791297
 21
2890.800457609002
 31
0.0
  0
LINE
  5
8650
330
862D
100
AcDbEntity
  8
3
 62
     0
370
    -2
100
AcDbLine
 10
4402.346544791297
 20
4320.800457609002
 30
0.0
 11
4382.346544791296
 21
4320.800457609002
 31
0.0
  0
LINE
  5
8651
330
862D
100
AcDbEntity
  8
3
 62
     0
370
    -2
100
AcDbLine
 10
4422.346544791297
 20
2970.800457609002
 30
0.0
 11
4422.346544791297
 21
4240.800457609001
 31
0.0
  0
INSERT
  5
8652
330
862D
100
AcDbEntity
  8
3
 62
     0
370
    -2
100
AcDbBlockReference
  2
_OPEN
 10
4422.346544791297
 20
2890.800457609002
 30
0.0
 41
80.0
 42
80.0
 43
80.0
 50
270.0
  0
INSERT
  5
8653
330
862D
100
AcDbEntity
  8
3
 62
     0
370
    -2
100
AcDbBlockReference
  2
_OPEN
 10
4422.346544791297
 20
4320.800457609002
 30
0.0
 41
80.0
 42
80.0
 43
80.0
 50
90.0
  0
MTEXT
  5
8654
330
862D
100
AcDbEntity
  8
3
 62
     0
100
AcDbMText
 10
4322.346544791296
 20
3605.800457609002
 30
0.0
 40
120.0
 41
0.0
 71
     5
 72
     1
  1
\A1;1430
 11
0.0000000000000001
 21
1.0
 31
0.0
 73
     1
 44
1.0
1001
ACAD
1000
MTEXTBEGIN
1070
    73
1070
     1
1070
    44
1040
1.0
1070
    74
1070
     0
1000
MTEXTEND
  0
POINT
  5
8655
330
862D
100
AcDbEntity
  8
DEFPOINTS
 62
     0
100
AcDbPoint
 10
3596.156955993239
 20
2890.800457609002
 30
0.0
  0
POINT
  5
8656
330
862D
100
AcDbEntity
  8
DEFPOINTS
 62
     0
100
AcDbPoint
 10
4422.346544791297
 20
4320.800457609002
 30
0.0
  0
POINT
  5
8657
330
862D
100
AcDbEntity
  8
DEFPOINTS
 62
     0
100
AcDbPoint
 10
4422.346544791297
 20
4320.800457609002
 30
0.0
  0
ENDBLK
  5
862F
330
862D
100
AcDbEntity
  8
0
100
AcDbBlockEnd
  0
BLOCK
  5
863B
330
863A
100
AcDbEntity
  8
0
100
AcDbBlockBegin
  2
*D43
 70
     1
 10
0.0
 20
0.0
 30
0.0
  3
*D43
  1

  0
LINE
  5
8646
330
863A
100
AcDbEntity
  8
3
 62
     0
370
    -2
100
AcDbLine
 10
4191.230831139724
 20
4320.800457609002
 30
0.0
 11
4171.230831139723
 21
4320.800457609002
 31
0.0
  0
LINE
  5
8647
330
863A
100
AcDbEntity
  8
3
 62
     0
370
    -2
100
AcDbLine
 10
2775.156955993237
 20
5217.800457609001
 30
0.0
 11
4251.230831139724
 21
5217.800457609001
 31
0.0
  0
LINE
  5
8648
330
863A
100
AcDbEntity
  8
3
 62
     0
370
    -2
100
AcDbLine
 10
4211.230831139723
 20
4400.800457609001
 30
0.0
 11
4211.230831139723
 21
5137.800457609001
 31
0.0
  0
INSERT
  5
8649
330
863A
100
AcDbEntity
  8
3
 62
     0
370
    -2
100
AcDbBlockReference
  2
_OPEN
 10
4211.230831139723
 20
4320.800457609002
 30
0.0
 41
80.0
 42
80.0
 43
80.0
 50
270.0
  0
INSERT
  5
864A
330
863A
100
AcDbEntity
  8
3
 62
     0
370
    -2
100
AcDbBlockReference
  2
_OPEN
 10
4211.230831139723
 20
5217.800457609001
 30
0.0
 41
80.0
 42
80.0
 43
80.0
 50
90.0
  0
MTEXT
  5
864B
330
863A
100
AcDbEntity
  8
3
 62
     0
100
AcDbMText
 10
4111.230831139723
 20
4769.300457609002
 30
0.0
 40
120.0
 41
0.0
 71
     5
 72
     1
  1
\A1;897
 11
0.0000000000000001
 21
1.0
 31
0.0
 73
     1
 44
1.0
1001
ACAD
1000
MTEXTBEGIN
1070
    73
1070
     1
1070
    44
1040
1.0
1070
    74
1070
     0
1000
MTEXTEND
  0
POINT
  5
864C
330
863A
100
AcDbEntity
  8
DEFPOINTS
 62
     0
100
AcDbPoint
 10
4211.230831139723
 20
4320.800457609002
 30
0.0
  0
POINT
  5
864D
330
863A
100
AcDbEntity
  8
DEFPOINTS
 62
     0
100
AcDbPoint
 10
2755.156955993238
 20
5217.800457609001
 30
0.0
  0
POINT
  5
864E
330
863A
100
AcDbEntity
  8
DEFPOINTS
 62
     0
100
AcDbPoint
 10
4211.230831139723
 20
5217.800457609001
 30
0.0
  0
ENDBLK
  5
863C
330
863A
100
AcDbEntity
  8
0
100
AcDbBlockEnd
  0
BLOCK
  5
865A
330
8659
100
AcDbEntity
  8
0
100
AcDbBlockBegin
  2
*D44
 70
     1
 10
0.0
 20
0.0
 30
0.0
  3
*D44
  1

  0
LINE
  5
865C
330
8659
100
AcDbEntity
  8
3
 62
     0
370
    -2
100
AcDbLine
 10
3616.156955993239
 20
2890.800457609002
 30
0.0
 11
4431.632407327648
 21
2890.800457609002
 31
0.0
  0
LINE
  5
865D
330
8659
100
AcDbEntity
  8
3
 62
     0
370
    -2
100
AcDbLine
 10
3703.677800684858
 20
4320.800457609002
 30
0.0
 11
4431.632407327648
 21
4320.800457609002
 31
0.0
  0
LINE
  5
865E
330
8659
100
AcDbEntity
  8
3
 62
     0
370
    -2
100
AcDbLine
 10
4391.632407327648
 20
2970.800457609002
 30
0.0
 11
4391.632407327648
 21
4240.800457609001
 31
0.0
  0
INSERT
  5
865F
330
8659
100
AcDbEntity
  8
3
 62
     0
370
    -2
100
AcDbBlockReference
  2
_OPEN
 10
4391.632407327648
 20
2890.800457609002
 30
0.0
 41
80.0
 42
80.0
 43
80.0
 50
270.0
  0
INSERT
  5
8660
330
8659
100
AcDbEntity
  8
3
 62
     0
370
    -2
100
AcDbBlockReference
  2
_OPEN
 10
4391.632407327648
 20
4320.800457609002
 30
0.0
 41
80.0
 42
80.0
 43
80.0
 50
90.0
  0
MTEXT
  5
8661
330
8659
100
AcDbEntity
  8
3
 62
     0
100
AcDbMText
 10
4291.632407327647
 20
3605.800457609002
 30
0.0
 40
120.0
 41
0.0
 71
     5
 72
     1
  1
\A1;1430
 11
0.0000000000000001
 21
1.0
 31
0.0
 73
     1
 44
1.0
1001
ACAD
1000
MTEXTBEGIN
1070
    73
1070
     1
1070
    44
1040
1.0
1070
    74
1070
     0
1000
MTEXTEND
  0
POINT
  5
8662
330
8659
100
AcDbEntity
  8
DEFPOINTS
 62
     0
100
AcDbPoint
 10
3596.156955993239
 20
2890.800457609002
 30
0.0
  0
POINT
  5
8663
330
8659
100
AcDbEntity
  8
DEFPOINTS
 62
     0
100
AcDbPoint
 10
3683.677800684858
 20
4320.800457609002
 30
0.0
  0
POINT
  5
8664
330
8659
100
AcDbEntity
  8
DEFPOINTS
 62
     0
100
AcDbPoint
 10
4391.632407327648
 20
4320.800457609002
 30
0.0
  0
ENDBLK
  5
865B
330
8659
100
AcDbEntity
  8
0
100
AcDbBlockEnd
  0
BLOCK
  5
8667
330
8666
100
AcDbEntity
  8
0
100
AcDbBlockBegin
  2
*D45
 70
     1
 10
0.0
 20
0.0
 30
0.0
  3
*D45
  1

  0
LINE
  5
8669
330
8666
100
AcDbEntity
  8
3
 62
     0
370
    -2
100
AcDbLine
 10
3703.677800684858
 20
4320.800457609002
 30
0.0
 11
4431.632407327648
 21
4320.800457609002
 31
0.0
  0
LINE
  5
866A
330
8666
100
AcDbEntity
  8
3
 62
     0
370
    -2
100
AcDbLine
 10
2775.156955993237
 20
5217.800457609001
 30
0.0
 11
4431.632407327648
 21
5217.800457609001
 31
0.0
  0
LINE
  5
866B
330
8666
100
AcDbEntity
  8
3
 62
     0
370
    -2
100
AcDbLine
 10
4391.632407327648
 20
4400.800457609001
 30
0.0
 11
4391.632407327648
 21
5137.800457609001
 31
0.0
  0
INSERT
  5
866C
330
8666
100
AcDbEntity
  8
3
 62
     0
370
    -2
100
AcDbBlockReference
  2
_OPEN
 10
4391.632407327648
 20
4320.800457609002
 30
0.0
 41
80.0
 42
80.0
 43
80.0
 50
270.0
  0
INSERT
  5
866D
330
8666
100
AcDbEntity
  8
3
 62
     0
370
    -2
100
AcDbBlockReference
  2
_OPEN
 10
4391.632407327648
 20
5217.800457609001
 30
0.0
 41
80.0
 42
80.0
 43
80.0
 50
90.0
  0
MTEXT
  5
866E
330
8666
100
AcDbEntity
  8
3
 62
     0
100
AcDbMText
 10
4291.632407327647
 20
4769.300457609002
 30
0.0
 40
120.0
 41
0.0
 71
     5
 72
     1
  1
\A1;897
 11
0.0000000000000001
 21
1.0
 31
0.0
 73
     1
 44
1.0
1001
ACAD
1000
MTEXTBEGIN
1070
    73
1070
     1
1070
    44
1040
1.0
1070
    74
1070
     0
1000
MTEXTEND
  0
POINT
  5
866F
330
8666
100
AcDbEntity
  8
DEFPOINTS
 62
     0
100
AcDbPoint
 10
3683.677800684858
 20
4320.800457609002
 30
0.0
  0
POINT
  5
8670
330
8666
100
AcDbEntity
  8
DEFPOINTS
 62
     0
100
AcDbPoint
 10
2755.156955993238
 20
5217.800457609001
 30
0.0
  0
POINT
  5
8671
330
8666
100
AcDbEntity
  8
DEFPOINTS
 62
     0
100
AcDbPoint
 10
4391.632407327648
 20
5217.800457609001
 30
0.0
  0
ENDBLK
  5
8668
330
8666
100
AcDbEntity
  8
0
100
AcDbBlockEnd
  0
ENDSEC
  0
SECTION
  2
ENTITIES
  0
INSERT
  5
7C22
330
8463
100
AcDbEntity
  8
1
100
AcDbBlockReference
  2
YA_N
 10
6.0
 20
5.0
 30
0.0
  0
LINE
  5
7C23
330
8463
100
AcDbEntity
  8
2
100
AcDbLine
 10
2846.156955993239
 20
5369.39887263968
 30
0.0
 11
2846.156955993239
 21
2890.800457609002
 31
0.0
  0
LINE
  5
7C24
330
8463
100
AcDbEntity
  8
1
100
AcDbLine
 10
5039.092839011053
 20
2890.800457609002
 30
0.0
 11
7159.092839011051
 21
2890.800457609002
 31
0.0
1001
ACAD
1000
ASC_BOUNDS
1002
{
1070
    19
1005
0
1005
0
1002
}
  0
LINE
  5
7C25
330
8463
100
AcDbEntity
  8
1
100
AcDbLine
 10
5039.092839011053
 20
3015.800457609002
 30
0.0
 11
5391.092839011053
 21
3015.800457609002
 31
0.0
  0
LINE
  5
7C28
330
8463
100
AcDbEntity
  8
2
100
AcDbLine
 10
1638.616022453501
 20
4320.800457609002
 30
0.0
 11
3683.677800684858
 21
4320.800457609002
 31
0.0
  0
LINE
  5
7C29
330
8463
100
AcDbEntity
  8
2
100
AcDbLine
 10
4980.792839011053
 20
4320.800457609002
 30
0.0
 11
7274.603325250289
 21
4320.800457609002
 31
0.0
  0
LINE
  5
7C2A
330
8463
100
AcDbEntity
  8
2
100
AcDbLine
 10
4969.590112414675
 20
3275.800457609002
 30
0.0
 11
5492.434130173948
 21
3275.800457609002
 31
0.0
  0
LINE
  5
7C2B
330
8463
100
AcDbEntity
  8
1
100
AcDbLine
 10
5046.092839011054
 20
3381.800457609002
 30
0.0
 11
5123.992839011052
 21
3381.800457609002
 31
0.0
  0
LINE
  5
7C2C
330
8463
100
AcDbEntity
  8
1
100
AcDbLine
 10
5046.092839011054
 20
3169.800457609002
 30
0.0
 11
5123.992839011052
 21
3169.800457609002
 31
0.0
  0
LINE
  5
7C2D
330
8463
100
AcDbEntity
  8
1
100
AcDbLine
 10
5144.092839011054
 20
4390.800457609001
 30
0.0
 11
5144.092839011054
 21
4250.800457609002
 31
0.0
  0
LINE
  5
7C2E
330
8463
100
AcDbEntity
  8
1
100
AcDbLine
 10
5123.992839011052
 20
4574.800457609002
 30
0.0
 11
5123.992839011052
 21
4390.800457609001
 31
0.0
  0
LINE
  5
7C2F
330
8463
100
AcDbEntity
  8
1
100
AcDbLine
 10
5123.992839011052
 20
4390.800457609001
 30
0.0
 11
5144.092839011054
 21
4390.800457609001
 31
0.0
  0
LINE
  5
7C30
330
8463
100
AcDbEntity
  8
1
100
AcDbLine
 10
5123.992839011052
 20
4250.800457609002
 30
0.0
 11
5144.092839011054
 21
4250.800457609002
 31
0.0
  0
LINE
  5
7C31
330
8463
100
AcDbEntity
  8
1
100
AcDbLine
 10
5123.992839011052
 20
4250.800457609002
 30
0.0
 11
5123.992839011052
 21
3335.800457609002
 31
0.0
  0
LINE
  5
7C32
330
8463
100
AcDbEntity
  8
1
100
AcDbLine
 10
5046.092839011054
 20
4574.800457609002
 30
0.0
 11
5046.092839011054
 21
3169.800457609002
 31
0.0
  0
LINE
  5
7C33
330
8463
100
AcDbEntity
  8
1
100
AcDbLine
 10
5139.092839011054
 20
3335.800457609002
 30
0.0
 11
5139.092839011054
 21
3215.800457609002
 31
0.0
  0
LINE
  5
7C34
330
8463
100
AcDbEntity
  8
1
100
AcDbLine
 10
5123.992839011052
 20
3335.800457609002
 30
0.0
 11
5139.092839011054
 21
3335.800457609002
 31
0.0
  0
LINE
  5
7C35
330
8463
100
AcDbEntity
  8
1
100
AcDbLine
 10
5123.992839011052
 20
3215.800457609002
 30
0.0
 11
5139.092839011054
 21
3215.800457609002
 31
0.0
  0
LINE
  5
7C36
330
8463
100
AcDbEntity
  8
1
100
AcDbLine
 10
5123.992839011052
 20
3215.800457609002
 30
0.0
 11
5123.992839011052
 21
3169.800457609002
 31
0.0
  0
LINE
  5
7C37
330
8463
100
AcDbEntity
  8
1
100
AcDbLine
 10
4961.092839011054
 20
3055.800457609002
 30
0.0
 11
5206.092839011054
 21
3055.800457609002
 31
0.0
  0
LINE
  5
7C38
330
8463
100
AcDbEntity
  8
1
100
AcDbLine
 10
4961.092839011054
 20
4700.800457609002
 30
0.0
 11
4961.092839011054
 21
3055.800457609002
 31
0.0
  0
LINE
  5
7C39
330
8463
100
AcDbEntity
  8
1
100
AcDbLine
 10
5206.092839011053
 20
4700.800457609002
 30
0.0
 11
5206.092839011054
 21
4680.800457609002
 31
0.0
  0
LINE
  5
7C3A
330
8463
100
AcDbEntity
  8
2
100
AcDbLine
 10
2846.156955993239
 20
8747.995955661606
 30
0.0
 11
2846.156955993239
 21
6367.818278393301
 31
0.0
  0
LINE
  5
7C3B
330
8463
100
AcDbEntity
  8
2
100
AcDbLine
 10
1426.156955993237
 20
7403.128832059166
 30
0.0
 11
1426.156955993237
 21
6354.699299825018
 31
0.0
  0
LINE
  5
7C3C
330
8463
100
AcDbEntity
  8
2
100
AcDbLine
 10
6241.092839011054
 20
5467.750106454829
 30
0.0
 11
6241.092839011051
 21
2890.800457609002
 31
0.0
  0
INSERT
  5
7C3D
330
8463
100
AcDbEntity
  8
1
100
AcDbBlockReference
  2
YA_N
 10
-1757.227407310314
 20
-1218.78641745778
 30
0.0
 41
30.0
 42
30.0
 43
30.0
  0
INSERT
  5
7C3E
330
8463
100
AcDbEntity
  8
1
100
AcDbBlockReference
  2
YA_N
 10
-755.2436758818473
 20
-538.554984833856
 30
0.0
 41
30.0
 42
30.0
 43
30.0
  0
LINE
  5
7C42
330
8463
100
AcDbEntity
  8
1
100
AcDbLine
 10
7091.092839011054
 20
2986.800457609001
 30
0.0
 11
7091.092839011054
 21
5217.800457609002
 31
0.0
  0
LINE
  5
7C43
330
8463
100
AcDbEntity
  8
1
100
AcDbLine
 10
5391.092839011052
 20
2986.800457609002
 30
0.0
 11
5391.092839011054
 21
5217.800457609002
 31
0.0
  0
LINE
  5
7C44
330
8463
100
AcDbEntity
  8
1
100
AcDbLine
 10
3596.156955993239
 20
8648.31161293584
 30
0.0
 11
2096.156955993238
 21
8648.31161293584
 31
0.0
  0
LINE
  5
7C45
330
8463
100
AcDbEntity
  8
1
100
AcDbLine
 10
3596.156955993239
 20
6528.311612935839
 30
0.0
 11
1146.156955993237
 21
6528.311612935842
 31
0.0
  0
LINE
  5
7C46
330
8463
100
AcDbEntity
  8
1
100
AcDbLine
 10
3596.156955993239
 20
8648.31161293584
 30
0.0
 11
3596.156955993239
 21
8580.311612935842
 31
0.0
  0
LINE
  5
7C47
330
8463
100
AcDbEntity
  8
1
100
AcDbLine
 10
1146.156955993237
 20
7528.311612935842
 30
0.0
 11
1146.156955993237
 21
6528.311612935839
 31
0.0
  0
LINE
  5
7C48
330
8463
100
AcDbEntity
  8
1
100
AcDbLine
 10
2096.156955993238
 20
8648.31161293584
 30
0.0
 11
2096.156955993238
 21
8580.311612935842
 31
0.0
  0
LINE
  5
7C49
330
8463
100
AcDbEntity
  8
1
100
AcDbLine
 10
1767.156955993237
 20
7528.311612935837
 30
0.0
 11
1146.156955993237
 21
7528.311612935842
 31
0.0
  0
LINE
  5
7C4B
330
8463
100
AcDbEntity
  8
1
100
AcDbLine
 10
5233.592839011053
 20
4244.800457609001
 30
0.0
 11
5233.592839011053
 21
4114.800457609002
 31
0.0
  0
LINE
  5
7C4C
330
8463
100
AcDbEntity
  8
1
100
AcDbLine
 10
5243.592839011053
 20
4254.800457609001
 30
0.0
 11
5313.792839011053
 21
4254.800457609001
 31
0.0
  0
LINE
  5
7C4D
330
8463
100
AcDbEntity
  8
1
100
AcDbLine
 10
5243.592839011053
 20
4104.800457609001
 30
0.0
 11
5313.792839011053
 21
4104.800457609001
 31
0.0
  0
ARC
  5
7C4E
330
8463
100
AcDbEntity
  8
1
100
AcDbCircle
 10
5243.592839011053
 20
4244.800457609001
 30
0.0
 40
10.0
100
AcDbArc
 50
90.0
 51
180.0
  0
ARC
  5
7C4F
330
8463
100
AcDbEntity
  8
1
100
AcDbCircle
 10
5243.592839011053
 20
4114.800457609002
 30
0.0
 40
10.0
100
AcDbArc
 50
180.0
 51
270.0
  0
LINE
  5
7C50
330
8463
100
AcDbEntity
  8
1
100
AcDbLine
 10
5313.792839011053
 20
4104.800457609001
 30
0.0
 11
5338.092839011061
 21
4104.800457609001
 31
0.0
  0
LINE
  5
7C51
330
8463
100
AcDbEntity
  8
1
100
AcDbLine
 10
5313.792839011053
 20
4254.800457609001
 30
0.0
 11
5338.092839011056
 21
4254.800457609001
 31
0.0
  0
LINE
  5
7C52
330
8463
100
AcDbEntity
  8
1
100
AcDbLine
 10
7261.092839011054
 20
4244.800457609001
 30
0.0
 11
7261.092839011054
 21
4114.800457609002
 31
0.0
  0
LINE
  5
7C53
330
8463
100
AcDbEntity
  8
1
100
AcDbLine
 10
7251.092839011054
 20
4104.800457609001
 30
0.0
 11
7168.392839011052
 21
4104.800457609001
 31
0.0
  0
ARC
  5
7C54
330
8463
100
AcDbEntity
  8
1
100
AcDbCircle
 10
7251.092839011054
 20
4114.800457609002
 30
0.0
 40
10.0
100
AcDbArc
 50
270.0
 51
0.0
  0
LINE
  5
7C55
330
8463
100
AcDbEntity
  8
1
100
AcDbLine
 10
7168.392839011052
 20
4104.800457609001
 30
0.0
 11
7144.092839011054
 21
4104.800457609001
 31
0.0
  0
LINE
  5
7C56
330
8463
100
AcDbEntity
  8
1
100
AcDbLine
 10
7251.092839011054
 20
4254.800457609001
 30
0.0
 11
7168.392839011052
 21
4254.800457609001
 31
0.0
  0
ARC
  5
7C57
330
8463
100
AcDbEntity
  8
1
100
AcDbCircle
 10
7251.092839011054
 20
4244.800457609001
 30
0.0
 40
10.0
100
AcDbArc
 50
0.0
 51
90.0
  0
LINE
  5
7C58
330
8463
100
AcDbEntity
  8
1
100
AcDbLine
 10
7168.392839011052
 20
4254.800457609001
 30
0.0
 11
7144.092839011054
 21
4254.800457609001
 31
0.0
  0
LINE
  5
7C5D
330
8463
100
AcDbEntity
  8
1
100
AcDbLine
 10
5046.092839011054
 20
4574.800457609002
 30
0.0
 11
5123.992839011052
 21
4574.800457609002
 31
0.0
  0
LINE
  5
7C5E
330
8463
100
AcDbEntity
  8
1
100
AcDbLine
 10
5046.092839011054
 20
4066.800457609001
 30
0.0
 11
5123.992839011052
 21
4066.800457609001
 31
0.0
  0
LINE
  5
7C5F
330
8463
100
AcDbEntity
  8
1
100
AcDbLine
 10
4961.092839011053
 20
4700.800457609002
 30
0.0
 11
5206.092839011052
 21
4700.800457609002
 31
0.0
  0
LINE
  5
7C60
330
8463
100
AcDbEntity
  8
1
100
AcDbLine
 10
5206.092839011054
 20
3075.800457609002
 30
0.0
 11
5206.092839011054
 21
3055.800457609002
 31
0.0
  0
INSERT
  5
7C61
330
8463
100
AcDbEntity
  8
1
100
AcDbBlockReference
  2
YA_N
 10
4767.943419715615
 20
-1494.695868425496
 30
0.0
  0
LINE
  5
7C62
330
8463
100
AcDbEntity
  8
1
100
AcDbLine
 10
7159.092839011053
 20
3015.800457609002
 30
0.0
 11
7159.092839011051
 21
2890.800457609002
 31
0.0
  0
LINE
  5
7C64
330
8463
100
AcDbEntity
  8
1
100
AcDbLine
 10
5039.092839011053
 20
3015.800457609002
 30
0.0
 11
5039.092839011053
 21
2890.800457609002
 31
0.0
  0
LINE
  5
7C68
330
8463
100
AcDbEntity
  8
1
100
AcDbLine
 10
5144.092839011054
 20
4358.300457609002
 30
0.0
 11
5391.092839011053
 21
4358.300457609002
 31
0.0
  0
LINE
  5
7C69
330
8463
100
AcDbEntity
  8
1
100
AcDbLine
 10
5144.092839011054
 20
4283.300457609001
 30
0.0
 11
5391.092839011053
 21
4283.300457609001
 31
0.0
  0
LINE
  5
7C6A
330
8463
100
AcDbEntity
  8
1
100
AcDbLine
 10
5235.042839011056
 20
3075.800457609002
 30
0.0
 11
5235.042839011054
 21
3275.800457609004
 31
0.0
  0
LINE
  5
7C6B
330
8463
100
AcDbEntity
  8
1
100
AcDbLine
 10
5235.042839011056
 20
3075.800457609004
 30
0.0
 11
5391.092839011053
 21
3075.800457609004
 31
0.0
  0
LINE
  5
7C6C
330
8463
100
AcDbEntity
  8
1
100
AcDbLine
 10
5391.092839011054
 20
3485.800457609006
 30
0.0
 11
5235.042839011053
 21
3485.800457609003
 31
0.0
  0
LINE
  5
7C6D
330
8463
100
AcDbEntity
  8
1
100
AcDbLine
 10
5225.042839011052
 20
3245.800457609004
 30
0.0
 11
5139.092839011054
 21
3245.800457609004
 31
0.0
  0
LINE
  5
7C6E
330
8463
100
AcDbEntity
  8
1
100
AcDbLine
 10
5225.042839011052
 20
3305.800457609004
 30
0.0
 11
5139.092839011054
 21
3305.800457609002
 31
0.0
  0
LINE
  5
7C6F
330
8463
100
AcDbEntity
  8
1
100
AcDbLine
 10
5235.042839011054
 20
3485.800457609003
 30
0.0
 11
5235.042839011054
 21
3275.800457609004
 31
0.0
  0
LINE
  5
7C70
330
8463
100
AcDbEntity
  8
1
100
AcDbLine
 10
5225.042839011052
 20
3243.300457609004
 30
0.0
 11
5225.042839011052
 21
3308.300457609004
 31
0.0
  0
LINE
  5
7C71
330
8463
100
AcDbEntity
  8
1
100
AcDbLine
 10
5225.042839011052
 20
3243.300457609004
 30
0.0
 11
5235.042839011054
 21
3243.300457609004
 31
0.0
  0
LINE
  5
7C72
330
8463
100
AcDbEntity
  8
1
100
AcDbLine
 10
5225.042839011052
 20
3308.300457609004
 30
0.0
 11
5235.042839011054
 21
3308.300457609004
 31
0.0
  0
LINE
  5
7C73
330
8463
100
AcDbEntity
  8
2
100
AcDbLine
 10
3821.984076714958
 20
7730.311612935842
 30
0.0
 11
1588.632147140524
 21
7730.311612935837
 31
0.0
  0
LINE
  5
7C74
330
8463
100
AcDbEntity
  8
1
100
AcDbLine
 10
3226.156955993238
 20
6450.311612935841
 30
0.0
 11
1206.156955993237
 21
6450.311612935841
 31
0.0
  0
LINE
  5
7C75
330
8463
100
AcDbEntity
  8
1
100
AcDbLine
 10
3100.156955993239
 20
6535.311612935842
 30
0.0
 11
2592.156955993239
 21
6535.311612935842
 31
0.0
  0
LINE
  5
7C76
330
8463
100
AcDbEntity
  8
1
100
AcDbLine
 10
2776.156955993239
 20
6613.211612935842
 30
0.0
 11
2592.156955993239
 21
6613.211612935842
 31
0.0
  0
LINE
  5
7C77
330
8463
100
AcDbEntity
  8
1
100
AcDbLine
 10
1396.156955993237
 20
6714.261612935844
 30
0.0
 11
1396.156955993237
 21
6628.311612935842
 31
0.0
  0
LINE
  5
7C78
330
8463
100
AcDbEntity
  8
1
100
AcDbLine
 10
1456.156955993237
 20
6714.261612935844
 30
0.0
 11
1456.156955993237
 21
6628.311612935842
 31
0.0
  0
LINE
  5
7C79
330
8463
100
AcDbEntity
  8
1
100
AcDbLine
 10
1206.156955993237
 20
6450.311612935841
 30
0.0
 11
1206.156955993237
 21
6695.311612935842
 31
0.0
  0
LINE
  5
7C7A
330
8463
100
AcDbEntity
  8
1
100
AcDbLine
 10
2046.156955993237
 20
6528.311612935842
 30
0.0
 11
1921.156955993238
 21
6528.311612935842
 31
0.0
  0
LINE
  5
7C7B
330
8463
100
AcDbEntity
  8
1
100
AcDbLine
 10
1902.156955993237
 20
6528.311612935842
 30
0.0
 11
1837.156955993237
 21
6528.311612935842
 31
0.0
  0
LINE
  5
7C7C
330
8463
100
AcDbEntity
  8
1
100
AcDbLine
 10
1486.156955993237
 20
6628.311612935842
 30
0.0
 11
1366.156955993237
 21
6628.311612935842
 31
0.0
  0
LINE
  5
7C7D
330
8463
100
AcDbEntity
  8
1
100
AcDbLine
 10
1366.156955993237
 20
6613.211612935842
 30
0.0
 11
1320.156955993237
 21
6613.211612935842
 31
0.0
  0
LINE
  5
7C7E
330
8463
100
AcDbEntity
  8
1
100
AcDbLine
 10
1320.156955993237
 20
6535.311612935842
 30
0.0
 11
1320.156955993237
 21
6613.211612935842
 31
0.0
  0
LINE
  5
7C7F
330
8463
100
AcDbEntity
  8
1
100
AcDbLine
 10
1366.156955993237
 20
6613.211612935842
 30
0.0
 11
1366.156955993237
 21
6628.311612935842
 31
0.0
  0
LINE
  5
7C80
330
8463
100
AcDbEntity
  8
1
100
AcDbLine
 10
1532.156955993237
 20
6535.311612935842
 30
0.0
 11
1532.156955993237
 21
6613.211612935841
 31
0.0
  0
LINE
  5
7C81
330
8463
100
AcDbEntity
  8
1
100
AcDbLine
 10
1486.156955993237
 20
6613.211612935842
 30
0.0
 11
1486.156955993237
 21
6628.311612935842
 31
0.0
  0
LINE
  5
7C82
330
8463
100
AcDbEntity
  8
1
100
AcDbLine
 10
2592.156955993239
 20
6535.311612935842
 30
0.0
 11
2592.156955993239
 21
6613.211612935841
 31
0.0
  0
LINE
  5
7C83
330
8463
100
AcDbEntity
  8
1
100
AcDbLine
 10
1636.156955993237
 20
6724.261612935842
 30
0.0
 11
1426.156955993237
 21
6724.261612935842
 31
0.0
  0
LINE
  5
7C84
330
8463
100
AcDbEntity
  8
1
100
AcDbLine
 10
1393.656955993237
 20
6714.261612935844
 30
0.0
 11
1458.656955993237
 21
6714.261612935844
 31
0.0
  0
LINE
  5
7C85
330
8463
100
AcDbEntity
  8
1
100
AcDbLine
 10
1226.156955993237
 20
6724.261612935842
 30
0.0
 11
1226.156955993245
 21
7373.761612935844
 31
0.0
  0
LINE
  5
7C86
330
8463
100
AcDbEntity
  8
1
100
AcDbLine
 10
1226.156955993237
 20
6724.261612935842
 30
0.0
 11
1426.156955993237
 21
6724.261612935842
 31
0.0
  0
LINE
  5
7C87
330
8463
100
AcDbEntity
  8
1
100
AcDbLine
 10
1393.656955993237
 20
6714.261612935844
 30
0.0
 11
1393.656955993237
 21
6724.261612935842
 31
0.0
  0
LINE
  5
7C88
330
8463
100
AcDbEntity
  8
1
100
AcDbLine
 10
1226.156955993239
 20
6899.761612935844
 30
0.0
 11
1227.156955993239
 21
6899.761612935844
 31
0.0
  0
LINE
  5
7C89
330
8463
100
AcDbEntity
  8
1
100
AcDbLine
 10
1636.156955993245
 20
7373.761612935843
 30
0.0
 11
1636.156955993237
 21
6724.261612935841
 31
0.0
  0
LINE
  5
7C8A
330
8463
100
AcDbEntity
  8
1
100
AcDbLine
 10
1458.656955993237
 20
6714.261612935844
 30
0.0
 11
1458.656955993237
 21
6724.261612935842
 31
0.0
  0
LINE
  5
7C8B
330
8463
100
AcDbEntity
  8
1
100
AcDbLine
 10
2808.656955993237
 20
6633.311612935843
 30
0.0
 11
2808.656955993237
 21
6880.31161293584
 31
0.0
  0
LINE
  5
7C8C
330
8463
100
AcDbEntity
  8
1
100
AcDbLine
 10
2883.656955993238
 20
6633.311612935843
 30
0.0
 11
2883.656955993238
 21
6880.311612935843
 31
0.0
  0
LINE
  5
7C8D
330
8463
100
AcDbEntity
  8
1
100
AcDbLine
 10
3226.156955993238
 20
6450.311612935841
 30
0.0
 11
3226.156955993238
 21
6695.311612935839
 31
0.0
  0
LINE
  5
7C8E
330
8463
100
AcDbEntity
  8
1
100
AcDbLine
 10
2916.156955993237
 20
6633.311612935843
 30
0.0
 11
2776.156955993239
 21
6633.311612935843
 31
0.0
  0
LINE
  5
7C8F
330
8463
100
AcDbEntity
  8
1
100
AcDbLine
 10
2776.156955993239
 20
6613.211612935841
 30
0.0
 11
2776.156955993239
 21
6633.311612935843
 31
0.0
  0
LINE
  5
7C90
330
8463
100
AcDbEntity
  8
1
100
AcDbLine
 10
3100.156955993239
 20
6613.211612935842
 30
0.0
 11
2916.156955993237
 21
6613.211612935842
 31
0.0
  0
LINE
  5
7C91
330
8463
100
AcDbEntity
  8
1
100
AcDbLine
 10
2916.156955993237
 20
6613.211612935842
 30
0.0
 11
2916.156955993237
 21
6633.311612935843
 31
0.0
  0
LINE
  5
7C92
330
8463
100
AcDbEntity
  8
1
100
AcDbLine
 10
3100.156955993239
 20
6535.311612935842
 30
0.0
 11
3100.156955993239
 21
6613.211612935841
 31
0.0
  0
LINE
  5
7C93
330
8463
100
AcDbEntity
  8
1
100
AcDbLine
 10
3226.156955993238
 20
6695.311612935842
 30
0.0
 11
1206.156955993237
 21
6695.311612935933
 31
0.0
  0
LINE
  5
7C94
330
8463
100
AcDbEntity
  8
1
100
AcDbLine
 10
1226.156955993239
 20
7373.761612935844
 30
0.0
 11
1636.156955993245
 21
7373.761612935843
 31
0.0
  0
LINE
  5
7C95
330
8463
100
AcDbEntity
  8
1
100
AcDbLine
 10
3671.156955993239
 20
8580.311612935842
 30
0.0
 11
1767.156955993239
 21
8580.311612935842
 31
0.0
  0
LINE
  5
7C96
330
8463
100
AcDbEntity
  8
1
100
AcDbLine
 10
3671.156955993239
 20
6880.311612935837
 30
0.0
 11
1767.156955993237
 21
6880.31161293584
 31
0.0
  0
LINE
  5
7C97
330
8463
100
AcDbEntity
  8
1
100
AcDbLine
 10
3671.156955993239
 20
8630.311612935843
 30
0.0
 11
3671.156955993239
 21
6830.31161293584
 31
0.0
  0
LINE
  5
7C98
330
8463
100
AcDbEntity
  8
1
100
AcDbLine
 10
1767.156955993237
 20
8580.31161293584
 30
0.0
 11
1767.156955993237
 21
6880.31161293584
 31
0.0
  0
LINE
  5
7C99
330
8463
100
AcDbEntity
  8
1
100
AcDbLine
 10
3596.156955993239
 20
6880.31161293584
 30
0.0
 11
3596.156955993239
 21
6528.311612935839
 31
0.0
  0
LINE
  5
7C9A
330
8463
100
AcDbEntity
  8
1
100
AcDbLine
 10
1532.156955993237
 20
6613.211612935842
 30
0.0
 11
1486.156955993237
 21
6613.211612935842
 31
0.0
  0
LINE
  5
7C9B
330
8463
100
AcDbEntity
  8
1
100
AcDbLine
 10
1532.156955993237
 20
6535.311612935842
 30
0.0
 11
1320.156955993237
 21
6535.311612935842
 31
0.0
  0
INSERT
  5
7CA1
330
8463
100
AcDbEntity
  8
1
100
AcDbBlockReference
  2
YA_N
 10
10491.49125510566
 20
1972.966762031963
 30
0.0
  0
ARC
  5
7CA3
330
8463
100
AcDbEntity
  8
1
100
AcDbCircle
 10
2937.156955993239
 20
4229.800457609001
 30
0.0
 40
1170.0
100
AcDbArc
 50
175.539156302126
 51
265.539156302126
  0
ARC
  5
7CA4
330
8463
100
AcDbEntity
  8
1
100
AcDbCircle
 10
2755.156955993238
 20
4229.800457609001
 30
0.0
 40
988.0
100
AcDbArc
 50
84.71526704546546
 51
174.7152670454654
  0
ARC
  5
7CA5
330
8463
100
AcDbEntity
  8
1
100
AcDbCircle
 10
2769.156955993239
 20
4397.800457609001
 30
0.0
 40
820.0
100
AcDbArc
 50
357.2424852442078
 51
84.61184819567256
  0
LINE
  5
7CA6
330
8463
100
AcDbEntity
  8
1
100
AcDbLine
 10
2846.156955993239
 20
3063.344714770895
 30
0.0
 11
3671.156955993239
 21
2986.800457609002
 31
0.0
  0
LINE
  5
7CA7
330
8463
100
AcDbEntity
  8
1
100
AcDbLine
 10
3596.156955993239
 20
2890.800457609002
 30
0.0
 11
1146.156955993237
 21
2890.800457609002
 31
0.0
1001
ACAD
1000
ASC_BOUNDS
1002
{
1070
    19
1002
}
  0
LINE
  5
7CA8
330
8463
100
AcDbEntity
  8
1
100
AcDbLine
 10
3596.156955993239
 20
3015.800457609002
 30
0.0
 11
1146.156955993237
 21
3015.800457609002
 31
0.0
  0
LINE
  5
7CA9
330
8463
100
AcDbEntity
  8
1
100
AcDbLine
 10
3596.156955993239
 20
3015.800457609002
 30
0.0
 11
3596.156955993239
 21
2890.800457609002
 31
0.0
  0
LINE
  5
7CAA
330
8463
100
AcDbEntity
  8
1
100
AcDbLine
 10
1146.156955993237
 20
3015.800457609002
 30
0.0
 11
1146.156955993237
 21
2890.800457609002
 31
0.0
  0
LINE
  5
7CAB
330
8463
100
AcDbEntity
  8
2
100
AcDbLine
 10
1426.156955993237
 20
3566.654974214712
 30
0.0
 11
1426.156955993238
 21
2890.800457609002
 31
0.0
  0
LINE
  5
7CAC
330
8463
100
AcDbEntity
  8
2
100
AcDbLine
 10
1706.471172751389
 20
3275.800457609002
 30
0.0
 11
1156.050935125989
 21
3275.800457609002
 31
0.0
  0
LINE
  5
7CAF
330
8463
100
AcDbEntity
  8
1
100
AcDbLine
 10
3671.156955993239
 20
4266.800457609003
 30
0.0
 11
3587.192042881841
 21
4266.800457609003
 31
0.0
  0
LINE
  5
7CB0
330
8463
100
AcDbEntity
  8
1
100
AcDbLine
 10
3621.156955993237
 20
2991.439503497602
 30
0.0
 11
3621.156955993237
 21
4266.800457609003
 31
0.0
  0
LINE
  5
7CB1
330
8463
100
AcDbEntity
  8
1
100
AcDbLine
 10
3671.156955993239
 20
2933.800457609002
 30
0.0
 11
3671.156955993239
 21
4319.800457609001
 31
0.0
  0
POINT
  5
7CB3
330
8463
100
AcDbEntity
  8
1
100
AcDbPoint
 10
1771.356671382585
 20
4320.800457609002
 30
0.0
  0
INSERT
  5
7CB4
330
8463
100
AcDbEntity
  8
1
100
AcDbBlockReference
  2
YA_N
 10
8728.26384779535
 20
749.1803445741823
 30
0.0
 41
30.0
 42
30.0
 43
30.0
  0
ARC
  5
7CBA
330
8463
100
AcDbEntity
  8
1
100
AcDbCircle
 10
1426.156955993237
 20
3275.800457609002
 30
0.0
 40
203.5
100
AcDbArc
 50
285.603699
 51
254.39624
  0
LINE
  5
7CBB
330
8463
100
AcDbEntity
  8
1
100
AcDbLine
 10
1371.418918993236
 20
3079.800457609002
 30
0.0
 11
1480.894992993238
 21
3079.800457609002
 31
0.0
  0
ARC
  5
7CBC
330
8463
100
AcDbEntity
  8
1
100
AcDbCircle
 10
1612.156955993238
 20
3092.800457609002
 30
0.0
 40
3.0
100
AcDbArc
 50
0.0
 51
90.0
  0
ARC
  5
7CBD
330
8463
100
AcDbEntity
  8
1
100
AcDbCircle
 10
1610.156955993238
 20
3150.127118609002
 30
0.0
 40
5.000066999999999
100
AcDbArc
 50
0.0
 51
55.056335
  0
LINE
  5
7CBE
330
8463
100
AcDbEntity
  8
1
100
AcDbLine
 10
1615.156955993237
 20
3150.127118609002
 30
0.0
 11
1615.156955993237
 21
3075.800457609002
 31
0.0
  0
LINE
  5
7CC1
330
8463
100
AcDbEntity
  8
1
100
AcDbLine
 10
1530.259525993238
 20
3100.943646609004
 30
0.0
 11
1535.656955993237
 21
3080.800457609002
 31
0.0
  0
LINE
  5
7CC2
330
8463
100
AcDbEntity
  8
1
100
AcDbLine
 10
1535.656955993237
 20
3092.800457609002
 30
0.0
 11
1535.656955993237
 21
3075.800457609002
 31
0.0
  0
LINE
  5
7CC3
330
8463
100
AcDbEntity
  8
1
100
AcDbLine
 10
1538.656955993237
 20
3095.800457609002
 30
0.0
 11
1612.156955993238
 21
3095.800457609002
 31
0.0
  0
ARC
  5
7CC4
330
8463
100
AcDbEntity
  8
1
100
AcDbCircle
 10
1538.656955993237
 20
3092.800457609002
 30
0.0
 40
3.0
100
AcDbArc
 50
90.0
 51
180.0
  0
LINE
  5
7CC5
330
8463
100
AcDbEntity
  8
1
100
AcDbLine
 10
1613.020725993237
 20
3154.225750609001
 30
0.0
 11
1597.082859993237
 21
3165.362225609002
 31
0.0
  0
LINE
  5
7CC6
330
8463
100
AcDbEntity
  8
1
100
AcDbLine
 10
1237.156955993237
 20
3150.127118609002
 30
0.0
 11
1237.156955993237
 21
3075.800457609002
 31
0.0
  0
LINE
  5
7CC9
330
8463
100
AcDbEntity
  8
1
100
AcDbLine
 10
1322.054172993237
 20
3100.943768609001
 30
0.0
 11
1316.656955993237
 21
3080.800457609002
 31
0.0
  0
LINE
  5
7CCA
330
8463
100
AcDbEntity
  8
1
100
AcDbLine
 10
1316.656955993237
 20
3092.800457609002
 30
0.0
 11
1316.656955993237
 21
3075.800457609002
 31
0.0
  0
LINE
  5
7CCB
330
8463
100
AcDbEntity
  8
1
100
AcDbLine
 10
1313.656955993237
 20
3095.800457609002
 30
0.0
 11
1240.156955993237
 21
3095.800457609002
 31
0.0
  0
ARC
  5
7CCC
330
8463
100
AcDbEntity
  8
1
100
AcDbCircle
 10
1313.656955993237
 20
3092.800457609002
 30
0.0
 40
3.0
100
AcDbArc
 50
0.0
 51
90.0
  0
ARC
  5
7CCD
330
8463
100
AcDbEntity
  8
1
100
AcDbCircle
 10
1240.156955993237
 20
3092.800457609002
 30
0.0
 40
3.0
100
AcDbArc
 50
90.0
 51
180.0
  0
LINE
  5
7CCE
330
8463
100
AcDbEntity
  8
1
100
AcDbLine
 10
1239.293064993238
 20
3154.225750609001
 30
0.0
 11
1255.230930993239
 21
3165.362225609002
 31
0.0
  0
ARC
  5
7CCF
330
8463
100
AcDbEntity
  8
1
100
AcDbCircle
 10
1242.156955993237
 20
3150.127118609002
 30
0.0
 40
5.0
100
AcDbArc
 50
124.943661
 51
180.0
  0
LINE
  5
7CD0
330
8463
100
AcDbEntity
  8
1
100
AcDbLine
 10
1669.579981035847
 20
3075.800457609002
 30
0.0
 11
1496.156955993237
 21
3075.800457609002
 31
0.0
  0
LINE
  5
7CD1
330
8463
100
AcDbEntity
  8
1
100
AcDbLine
 10
1686.156955993237
 20
3015.800457609002
 30
0.0
 11
1669.579981035847
 21
3075.800457609002
 31
0.0
  0
LINE
  5
7CD2
330
8463
100
AcDbEntity
  8
1
100
AcDbLine
 10
1166.156955993237
 20
3015.800457609002
 30
0.0
 11
1182.337912538356
 21
3075.800457609002
 31
0.0
  0
LINE
  5
7CD3
330
8463
100
AcDbEntity
  8
1
100
AcDbLine
 10
1496.156955993237
 20
3065.800457609002
 30
0.0
 11
1356.156955993237
 21
3065.800457609002
 31
0.0
  0
LINE
  5
7CD5
330
8463
100
AcDbEntity
  8
1
100
AcDbLine
 10
1356.156955993237
 20
3075.800457609002
 30
0.0
 11
1356.156955993237
 21
3065.800457609002
 31
0.0
  0
LINE
  5
7CD6
330
8463
100
AcDbEntity
  8
1
100
AcDbLine
 10
1496.156955993237
 20
3075.800457609002
 30
0.0
 11
1496.156955993237
 21
3065.800457609002
 31
0.0
  0
LINE
  5
7CD9
330
8463
100
AcDbEntity
  8
1
100
AcDbLine
 10
1356.156955993237
 20
3075.800457609002
 30
0.0
 11
1182.337912538356
 21
3075.800457609002
 31
0.0
  0
INSERT
  5
7CDA
330
8463
100
AcDbEntity
  8
1
100
AcDbBlockReference
  2
YA_N
 10
9730.247579223819
 20
1429.411777198107
 30
0.0
 41
30.0
 42
30.0
 43
30.0
  0
CIRCLE
  5
7CE0
330
8463
100
AcDbEntity
  8
1
100
AcDbCircle
 10
1426.156955993237
 20
3275.800457609002
 30
0.0
 40
107.0
  0
POINT
  5
7CE2
330
8463
100
AcDbEntity
  8
1
100
AcDbPoint
 10
3596.156955993239
 20
2890.800457609002
 30
0.0
  0
ARC
  5
7CE5
330
8463
100
AcDbEntity
  8
1
100
AcDbCircle
 10
2846.156955993239
 20
4320.800457609002
 30
0.0
 40
625.0
100
AcDbArc
 50
0.0
 51
180.0
  0
ARC
  5
7CE6
330
8463
100
AcDbEntity
  8
1
100
AcDbCircle
 10
2846.156955993239
 20
4320.800457609002
 30
0.0
 40
675.0
100
AcDbArc
 50
0.0
 51
180.0
  0
ARC
  5
7CE7
330
8463
100
AcDbEntity
  8
1
100
AcDbCircle
 10
2846.156955993239
 20
4320.800457609002
 30
0.0
 40
625.0
100
AcDbArc
 50
180.0
 51
0.0
  0
ARC
  5
7CE8
330
8463
100
AcDbEntity
  8
1
100
AcDbCircle
 10
2846.156955993239
 20
4320.800457609002
 30
0.0
 40
675.0
100
AcDbArc
 50
180.0
 51
0.0
  0
CIRCLE
  5
7CEB
330
8463
100
AcDbEntity
  8
1
100
AcDbCircle
 10
2846.156955993239
 20
4320.800457609002
 30
0.0
 40
254.0
  0
POINT
  5
7CEF
330
8463
100
AcDbEntity
  8
1
100
AcDbPoint
 10
3596.156955993239
 20
2890.800457609002
 30
0.0
  0
ARC
  5
7CF0
330
8463
100
AcDbEntity
  8
1
100
AcDbCircle
 10
2846.156955993239
 20
4320.800457609002
 30
0.0
 40
743.0
100
AcDbArc
 50
355.8321636778381
 51
2.896908041025933
  0
INSERT
  5
7CF1
330
8463
100
AcDbEntity
  8
1
100
AcDbBlockReference
  2
YA_N
 10
15253.43467482128
 20
473.2708936064663
 30
0.0
  0
ARC
  5
7CF3
330
8463
100
AcDbEntity
  8
1
100
AcDbCircle
 10
2846.156955993239
 20
4320.800457609002
 30
0.0
 40
380.0
100
AcDbArc
 50
301.1431341389922
 51
131.5567209314936
  0
ARC
  5
7CF4
330
8463
100
AcDbEntity
  8
1
100
AcDbCircle
 10
1426.156955993237
 20
3275.800457609002
 30
0.0
 40
220.0
100
AcDbArc
 50
131.5567209314936
 51
301.1431341389922
  0
LINE
  5
7CF5
330
8463
100
AcDbEntity
  8
1
100
AcDbLine
 10
2594.079713348567
 20
4605.154222733818
 30
0.0
 11
1280.217499725268
 21
3440.426321628633
 31
0.0
  0
LINE
  5
7CF6
330
8463
100
AcDbEntity
  8
1
100
AcDbLine
 10
2679.074632947891
 20
4512.110408541436
 30
0.0
 11
1355.771882899331
 21
3356.391657411248
 31
0.0
  0
LINE
  5
7CF7
330
8463
100
AcDbEntity
  8
1
100
AcDbLine
 10
2979.125565501986
 20
4104.385696362664
 30
0.0
 11
1482.171291494954
 21
3184.633609367435
 31
0.0
  0
LINE
  5
7CF8
330
8463
100
AcDbEntity
  8
1
100
AcDbLine
 10
3042.684523159171
 20
3995.566825670607
 30
0.0
 11
1539.936073826145
 21
3087.507302276247
 31
0.0
  0
POINT
  5
7CFF
330
8463
100
AcDbEntity
  8
1
100
AcDbPoint
 10
3596.156955993239
 20
2890.800457609002
 30
0.0
  0
LINE
  5
7D00
330
8463
100
AcDbEntity
  8
1
100
AcDbLine
 10
5391.092839011054
 20
5217.800457609002
 30
0.0
 11
7091.092839011054
 21
5217.800457609002
 31
0.0
  0
LINE
  5
7D05
330
8463
100
AcDbEntity
  8
1
100
AcDbLine
 10
5391.092839011053
 20
4266.800457609003
 30
0.0
 11
7091.092839011054
 21
4266.800457609003
 31
0.0
  0
LINE
  5
7D06
330
8463
100
AcDbEntity
  8
1
100
AcDbLine
 10
7091.092839011054
 20
4266.800457609003
 30
0.0
 11
5391.092839011053
 21
2986.800457609004
 31
0.0
  0
LINE
  5
7D07
330
8463
100
AcDbEntity
  8
1
100
AcDbLine
 10
7091.092839011054
 20
2986.800457609002
 30
0.0
 11
5391.092839011053
 21
4266.800457609003
 31
0.0
  0
LINE
  5
7D0D
330
8463
100
AcDbEntity
  8
1
100
AcDbLine
 10
7091.092839011055
 20
2986.800457609002
 30
0.0
 11
5391.092839011054
 21
2986.800457609004
 31
0.0
  0
LINE
  5
7D0F
330
8463
100
AcDbEntity
  8
1
100
AcDbLine
 10
7091.092839011055
 20
3015.800457609002
 30
0.0
 11
7159.092839011053
 21
3015.800457609002
 31
0.0
  0
LINE
  5
807E
330
8463
100
AcDbEntity
  8
4
100
AcDbLine
 10
7400.0
 20
2000.0
 30
0.0
 11
7400.0
 21
1200.0
 31
0.0
  0
LINE
  5
807F
330
8463
100
AcDbEntity
  8
4
100
AcDbLine
 10
4600.0
 20
2000.0
 30
0.0
 11
4600.0
 21
1200.0
 31
0.0
  0
LINE
  5
8080
330
8463
100
AcDbEntity
  8
4
100
AcDbLine
 10
2600.0
 20
2000.0
 30
0.0
 11
2600.0
 21
1200.0
 31
0.0
  0
LINE
  5
8083
330
8463
100
AcDbEntity
  8
4
100
AcDbLine
 10
2600.0
 20
1200.0
 30
0.0
 11
7400.0
 21
1200.0
 31
0.0
  0
LINE
  5
8084
330
8463
100
AcDbEntity
  8
4
100
AcDbLine
 10
2600.0
 20
1600.0
 30
0.0
 11
7400.0
 21
1600.0
 31
0.0
  0
TEXT
  5
8085
330
8463
100
AcDbEntity
  8
4
100
AcDbText
 10
2754.008323387607
 20
1726.172103466451
 30
0.0
 40
200.0
  1
機器名称
100
AcDbText
  0
TEXT
  5
8086
330
8463
100
AcDbEntity
  8
4
100
AcDbText
 10
2745.03242409919
 20
1286.580626928043
 30
0.0
 40
200.0
  1
機器型番
100
AcDbText
  0
TEXT
  5
8087
330
8463
100
AcDbEntity
  8
4
100
AcDbText
 10
4710.714981950659
 20
1690.287075830274
 30
0.0
 40
200.0
  1
ミツヤ多翼送風機
100
AcDbText
  0
TEXT
  5
8088
330
8463
100
AcDbEntity
  8
4
100
AcDbText
 10
4746.617982341923
 20
1268.638337119773
 30
0.0
 40
200.0
  1
MF#8-5
100
AcDbText
  0
TEXT
  5
808A
330
8463
100
AcDbEntity
  8
4
100
AcDbText
 10
3150.362428668937
 20
9511.40912933649
 30
0.0
 40
215.9999999999999
  1
床置ベット
100
AcDbText
  0
TEXT
  5
808B
330
8463
100
AcDbEntity
  8
4
100
AcDbText
 10
1264.670373317785
 20
10135.52390479719
 30
0.0
 40
288.0
  1
遠心式両吸込両持多翼ファン
100
AcDbText
  0
LINE
  5
808C
330
8463
100
AcDbEntity
  8
4
100
AcDbLine
 10
1000.0
 20
9877.635017059219
 30
0.0
 11
7400.0
 21
9877.635017059219
 31
0.0
  0
LINE
  5
808D
330
8463
100
AcDbEntity
  8
4
100
AcDbLine
 10
1000.0
 20
10677.63501705921
 30
0.0
 11
7400.0
 21
10677.63501705921
 31
0.0
  0
LINE
  5
808E
330
8463
100
AcDbEntity
  8
4
100
AcDbLine
 10
2600.0
 20
2000.0
 30
0.0
 11
7400.0
 21
2000.0
 31
0.0
  0
LINE
  5
808F
330
8463
100
AcDbEntity
  8
4
100
AcDbLine
 10
1000.0
 20
10677.63501705921
 30
0.0
 11
1000.0
 21
9877.635017059219
 31
0.0
  0
TEXT
  5
8090
330
8463
100
AcDbEntity
  8
4
100
AcDbText
 10
1406.927099698128
 20
9506.971674191801
 30
0.0
 40
215.9999999999999
  1
左回転右横向
100
AcDbText
  0
TEXT
  5
8091
330
8463
100
AcDbEntity
  8
4
100
AcDbText
 10
5875.878236997159
 20
10824.24432598123
 30
0.0
 40
224.0
  1
No.
100
AcDbText
  0
TEXT
  5
8092
330
8463
100
AcDbEntity
  8
4
100
AcDbText
 10
5245.184250400053
 20
9533.715365330063
 30
0.0
 40
215.9999999999999
  1
縮尺：1/40
100
AcDbText
  0
LINE
  5
8093
330
8463
100
AcDbEntity
  8
4
100
AcDbLine
 10
7400.0
 20
10677.63501705921
 30
0.0
 11
7400.0
 21
9877.635017059219
 31
0.0
  0
LINE
  5
8094
330
8463
100
AcDbEntity
  8
4
100
AcDbLine
 10
8400.0
 20
11800.0
 30
0.0
 11
8400.0
 21
11800.0
 31
0.0
  0
LINE
  5
8095
330
8463
100
AcDbEntity
  8
4
100
AcDbLine
 10
5762.469689439458
 20
10725.0543325016
 30
0.0
 11
5762.469689439458
 21
11146.609046199
 31
0.0
  0
LINE
  5
8096
330
8463
100
AcDbEntity
  8
4
100
AcDbLine
 10
5762.469689439458
 20
11146.609046199
 30
0.0
 11
7400.0
 21
11146.609046199
 31
0.0
  0
LINE
  5
8097
330
8463
100
AcDbEntity
  8
4
100
AcDbLine
 10
7400.0
 20
11146.609046199
 30
0.0
 11
7400.0
 21
10725.0543325016
 31
0.0
  0
LINE
  5
8098
330
8463
100
AcDbEntity
  8
4
100
AcDbLine
 10
7400.0
 20
10725.0543325016
 30
0.0
 11
5762.469689439458
 21
10725.0543325016
 31
0.0
  0
LINE
  5
8099
330
8463
100
AcDbEntity
  8
4
100
AcDbLine
 10
0.0
 20
0.0
 30
0.0
 11
0.0
 21
11800.0
 31
0.0
  0
LINE
  5
809A
330
8463
100
AcDbEntity
  8
4
100
AcDbLine
 10
0.0
 20
11800.0
 30
0.0
 11
8400.0
 21
11800.0
 31
0.0
  0
LINE
  5
809B
330
8463
100
AcDbEntity
  8
4
100
AcDbLine
 10
8400.0
 20
11800.0
 30
0.0
 11
8400.0
 21
0.0
 31
0.0
  0
LINE
  5
809C
330
8463
100
AcDbEntity
  8
4
100
AcDbLine
 10
8400.0
 20
0.0
 30
0.0
 11
0.0
 21
0.0
 31
0.0
  0
LINE
  5
819B
330
8463
100
AcDbEntity
  8
1
100
AcDbLine
 10
7144.092839011054
 20
4254.800457609001
 30
0.0
 11
7144.092839011054
 21
4104.800457609001
 31
0.0
  0
LINE
  5
819C
330
8463
100
AcDbEntity
  8
1
100
AcDbLine
 10
5338.092839011056
 20
4254.800457609001
 30
0.0
 11
5338.092839011061
 21
4104.800457609001
 31
0.0
  0
DIMENSION
  5
8242
330
8463
100
AcDbEntity
  8
3
100
AcDbDimension
  2
*D22
 10
2846.156955993239
 20
2628.245721644006
 30
0.0
 11
1996.156955993237
 21
2728.245721644006
 31
0.0
 71
     5
 42
-1.0
  3
Standard
100
AcDbAlignedDimension
 13
1146.156955993237
 23
2890.800457609002
 33
0.0
 14
2846.156955993239
 24
2890.800457609002
 34
0.0
100
AcDbRotatedDimension
1001
ACAD
1000
DSTYLE
1002
{
1070
   172
1070
     1
1070
    40
1040
40.0
1070
   271
1070
     0
1070
   143
1040
0.039
1002
}
  0
DIMENSION
  5
824F
330
8463
100
AcDbEntity
  8
3
100
AcDbDimension
  2
*D23
 10
3596.156955993239
 20
2628.245721644006
 30
0.0
 11
3221.156955993239
 21
2728.245721644006
 31
0.0
 71
     5
 42
-1.0
  3
Standard
100
AcDbAlignedDimension
 13
2846.156955993239
 23
2890.800457609002
 33
0.0
 14
3596.156955993239
 24
2890.800457609002
 34
0.0
100
AcDbRotatedDimension
1001
ACAD
1000
DSTYLE
1002
{
1070
   172
1070
     1
1070
    40
1040
40.0
1070
   271
1070
     0
1070
   143
1040
0.039
1002
}
  0
DIMENSION
  5
825C
330
8463
100
AcDbEntity
  8
3
100
AcDbDimension
  2
*D24
 10
6241.092839011051
 20
2628.245721644006
 30
0.0
 11
5640.092839011052
 21
2728.245721644006
 31
0.0
 71
     5
 42
-1.0
  3
Standard
100
AcDbAlignedDimension
 13
5039.092839011053
 23
2890.800457609002
 33
0.0
 14
6241.092839011051
 24
2890.800457609002
 34
0.0
100
AcDbRotatedDimension
1001
ACAD
1000
DSTYLE
1002
{
1070
   172
1070
     1
1070
    40
1040
40.0
1070
   271
1070
     0
1070
   143
1040
0.039
1002
}
  0
DIMENSION
  5
8269
330
8463
100
AcDbEntity
  8
3
100
AcDbDimension
  2
*D25
 10
7159.092839011051
 20
2628.245721644006
 30
0.0
 11
6700.092839011052
 21
2728.245721644006
 31
0.0
 71
     5
 42
-1.0
  3
Standard
100
AcDbAlignedDimension
 13
6241.092839011051
 23
2890.800457609002
 33
0.0
 14
7159.092839011051
 24
2890.800457609002
 34
0.0
100
AcDbRotatedDimension
1001
ACAD
1000
DSTYLE
1002
{
1070
   172
1070
     1
1070
    40
1040
40.0
1070
   271
1070
     0
1070
   143
1040
0.039
1002
}
  0
DIMENSION
  5
8276
330
8463
100
AcDbEntity
  8
3
100
AcDbDimension
  2
*D26
 10
4672.787526046886
 20
5217.800457609002
 30
0.0
 11
4572.787526046886
 21
4054.300457609001
 31
0.0
 71
     5
 42
-1.0
  3
Standard
100
AcDbAlignedDimension
 13
3596.156955993239
 23
2890.800457609002
 33
0.0
 14
2775.156955993237
 24
5217.800457609002
 34
0.0
 50
90.0
100
AcDbRotatedDimension
1001
ACAD
1000
DSTYLE
1002
{
1070
   172
1070
     1
1070
    40
1040
40.0
1070
   271
1070
     0
1070
   143
1040
0.039
1002
}
  0
DIMENSION
  5
84FF
330
8463
100
AcDbEntity
  8
3
100
AcDbDimension
  2
*D27
 10
7091.092839011054
 20
5490.120671915637
 30
0.0
 11
6241.092839011054
 21
5590.120671915637
 31
0.0
 70
    32
 71
     5
 42
1700.0
  3
IGA
100
AcDbAlignedDimension
 13
5391.092839011054
 23
5217.800457609002
 33
0.0
 14
7091.092839011054
 24
5217.800457609002
 34
0.0
100
AcDbRotatedDimension
1001
ACAD
1000
DSTYLE
1002
{
1070
    40
1040
40.0
1070
   143
1040
0.039
1070
   172
1070
     1
1070
   271
1070
     4
1070
   272
1070
     4
1070
   279
1070
     0
1070
   284
1070
     0
1070
   285
1070
     0
1070
   286
1070
     0
1070
   341
1005
847A
1070
   343
1005
847A
1070
   344
1005
847A
1002
}
  0
DIMENSION
  5
850C
330
8463
100
AcDbEntity
  8
3
100
AcDbDimension
  2
*D28
 10
6241.092839011054
 20
5815.19729053981
 30
0.0
 11
5601.092839011054
 21
5946.625861968382
 31
0.0
 70
    32
  1
(<>)
 71
     5
 42
1280.0
  3
IGA
100
AcDbAlignedDimension
 13
4961.092839011054
 23
4700.800457609002
 33
0.0
 14
6241.092839011054
 24
5650.120671915637
 34
0.0
100
AcDbRotatedDimension
1001
ACAD
1000
DSTYLE
1002
{
1070
    40
1040
40.0
1070
   143
1040
0.039
1070
   172
1070
     1
1070
   271
1070
     4
1070
   272
1070
     4
1070
   279
1070
     0
1070
   284
1070
     0
1070
   285
1070
     0
1070
   286
1070
     0
1070
   341
1005
847A
1070
   343
1005
847A
1070
   344
1005
847A
1002
}
  0
DIMENSION
  5
8519
330
8463
100
AcDbEntity
  8
3
100
AcDbDimension
  2
*D29
 10
7261.092839011054
 20
5815.19729053981
 30
0.0
 11
6751.092839011054
 21
5946.625861968382
 31
0.0
 70
    32
  1
(<>)
 71
     5
 42
1020.0
  3
IGA
100
AcDbAlignedDimension
 13
6241.092839011054
 23
5650.120671915637
 33
0.0
 14
7261.092839011054
 24
4244.800457609001
 34
0.0
100
AcDbRotatedDimension
1001
ACAD
1000
DSTYLE
1002
{
1070
    40
1040
40.0
1070
   143
1040
0.039
1070
   172
1070
     1
1070
   271
1070
     4
1070
   272
1070
     4
1070
   279
1070
     1
1070
   284
1070
     0
1070
   285
1070
     0
1070
   286
1070
     0
1070
   341
1005
847A
1070
   343
1005
847A
1070
   344
1005
847A
1002
}
  0
DIMENSION
  5
852A
330
8463
100
AcDbEntity
  8
3
100
AcDbDimension
  2
*D30
 10
7534.264341757111
 20
3695.800457609001
 30
0.0
 11
7434.26434175711
 21
4320.800457609002
 31
0.0
 70
    32
  1
\U+03C6<>
 71
     5
 42
1250.0
  3
IGA
100
AcDbAlignedDimension
 13
7091.092839011054
 23
4945.800457609002
 33
0.0
 14
7091.092839011054
 24
3695.800457609002
 34
0.0
 50
90.0
100
AcDbRotatedDimension
1001
ACAD
1000
DSTYLE
1002
{
1070
    40
1040
40.0
1070
   143
1040
0.039
1070
   172
1070
     1
1070
   271
1070
     4
1070
   272
1070
     4
1070
   279
1070
     0
1070
   284
1070
     0
1070
   285
1070
     0
1070
   286
1070
     0
1070
   341
1005
847A
1070
   343
1005
847A
1070
   344
1005
847A
1002
}
  0
DIMENSION
  5
85A1
330
8463
100
AcDbEntity
  8
3
100
AcDbDimension
  2
*D32
 10
2096.156955993238
 20
8852.947751441025
 30
0.0
 11
2846.156955993239
 21
8952.947751441024
 31
0.0
 70
    32
 71
     5
 42
1500.0
  3
IGA
100
AcDbAlignedDimension
 13
3596.156955993239
 23
8648.31161293584
 33
0.0
 14
2096.156955993238
 24
8648.31161293584
 34
0.0
100
AcDbRotatedDimension
1001
ACAD
1000
DSTYLE
1002
{
1070
    40
1040
40.0
1070
   143
1040
0.039
1070
   172
1070
     1
1070
   271
1070
     4
1070
   272
1070
     4
1070
   279
1070
     0
1070
   284
1070
     0
1070
   285
1070
     0
1070
   286
1070
     0
1070
   341
1005
847A
1070
   343
1005
847A
1070
   344
1005
847A
1002
}
  0
DIMENSION
  5
85AE
330
8463
100
AcDbEntity
  8
3
100
AcDbDimension
  2
*D33
 10
1146.156955993237
 20
8852.947751441025
 30
0.0
 11
1621.156955993238
 21
8952.947751441024
 31
0.0
 70
    32
 71
     5
 42
950.0000000000015
  3
IGA
100
AcDbAlignedDimension
 13
2096.156955993238
 23
8648.31161293584
 33
0.0
 14
1146.156955993237
 24
7528.311612935842
 34
0.0
100
AcDbRotatedDimension
1001
ACAD
1000
DSTYLE
1002
{
1070
    40
1040
40.0
1070
   143
1040
0.039
1070
   172
1070
     1
1070
   271
1070
     4
1070
   272
1070
     4
1070
   279
1070
     1
1070
   284
1070
     0
1070
   285
1070
     0
1070
   286
1070
     0
1070
   341
1005
847A
1070
   343
1005
847A
1070
   344
1005
847A
1002
}
  0
DIMENSION
  5
85BB
330
8463
100
AcDbEntity
  8
3
100
AcDbDimension
  2
*D34
 10
879.8305548856586
 20
6528.311612935842
 30
0.0
 11
779.8305548856575
 21
7028.311612935842
 31
0.0
 70
    32
 71
     5
 42
1000.0
  3
IGA
100
AcDbAlignedDimension
 13
1146.156955993237
 23
7528.311612935842
 33
0.0
 14
1146.156955993237
 24
6528.311612935842
 34
0.0
 50
90.0
100
AcDbRotatedDimension
1001
ACAD
1000
DSTYLE
1002
{
1070
    40
1040
40.0
1070
   143
1040
0.039
1070
   172
1070
     1
1070
   271
1070
     4
1070
   272
1070
     4
1070
   279
1070
     0
1070
   284
1070
     0
1070
   285
1070
     0
1070
   286
1070
     0
1070
   341
1005
847A
1070
   343
1005
847A
1070
   344
1005
847A
1002
}
  0
DIMENSION
  5
85C8
330
8463
100
AcDbEntity
  8
3
100
AcDbDimension
  2
*D35
 10
3596.156955993239
 20
6163.557734746188
 30
0.0
 11
2371.156955993238
 21
6263.557734746187
 31
0.0
 70
    32
 71
     5
 42
2450.000000000002
  3
IGA
100
AcDbAlignedDimension
 13
1146.156955993237
 23
6528.311612935842
 33
0.0
 14
3596.156955993239
 24
6528.311612935839
 34
0.0
100
AcDbRotatedDimension
1001
ACAD
1000
DSTYLE
1002
{
1070
    40
1040
40.0
1070
   143
1040
0.039
1070
   172
1070
     1
1070
   271
1070
     4
1070
   272
1070
     4
1070
   279
1070
     0
1070
   284
1070
     0
1070
   285
1070
     0
1070
   286
1070
     0
1070
   341
1005
847A
1070
   343
1005
847A
1070
   344
1005
847A
1002
}
  0
DIMENSION
  5
85D5
330
8463
100
AcDbEntity
  8
3
100
AcDbDimension
  2
*D36
 10
4045.173097229072
 20
6528.311612935839
 30
0.0
 11
3945.173097229072
 21
7588.311612935841
 31
0.0
 70
    32
 71
     5
 42
2120.000000000001
  3
IGA
100
AcDbAlignedDimension
 13
3596.156955993239
 23
8648.31161293584
 33
0.0
 14
3596.156955993239
 24
6528.311612935839
 34
0.0
 50
90.0
100
AcDbRotatedDimension
1001
ACAD
1000
DSTYLE
1002
{
1070
    40
1040
40.0
1070
   143
1040
0.039
1070
   172
1070
     1
1070
   271
1070
     4
1070
   272
1070
     4
1070
   279
1070
     0
1070
   284
1070
     0
1070
   285
1070
     0
1070
   286
1070
     0
1070
   341
1005
847A
1070
   343
1005
847A
1070
   344
1005
847A
1002
}
  0
DIMENSION
  5
85EB
330
8463
100
AcDbEntity
  8
3
100
AcDbDimension
  2
*D37
 10
2846.156955993239
 20
5485.312615694231
 30
0.0
 11
3258.656955993239
 21
5585.312615694231
 31
0.0
 70
    32
 71
     5
 42
825.0
  3
IGA
100
AcDbAlignedDimension
 13
3671.156955993239
 23
4319.800457609001
 33
0.0
 14
2846.156955993239
 24
5369.39887263968
 34
0.0
100
AcDbRotatedDimension
1001
ACAD
1000
DSTYLE
1002
{
1070
    40
1040
40.0
1070
   143
1040
0.039
1070
   172
1070
     1
1070
   271
1070
     4
1070
   272
1070
     4
1070
   279
1070
     0
1070
   284
1070
     0
1070
   285
1070
     0
1070
   286
1070
     0
1070
   341
1005
847A
1070
   343
1005
847A
1070
   344
1005
847A
1002
}
  0
DIMENSION
  5
85F8
330
8463
100
AcDbEntity
  8
3
100
AcDbDimension
  2
*D38
 10
1767.156955993239
 20
5485.312615694231
 30
0.0
 11
2306.656955993239
 21
5585.312615694231
 31
0.0
 70
    32
 71
     5
 42
1079.0
  3
IGA
100
AcDbAlignedDimension
 13
2846.156955993239
 23
5369.39887263968
 33
0.0
 14
1767.156955993239
 24
4229.800457609001
 34
0.0
100
AcDbRotatedDimension
1001
ACAD
1000
DSTYLE
1002
{
1070
    40
1040
40.0
1070
   143
1040
0.039
1070
   172
1070
     1
1070
   271
1070
     4
1070
   272
1070
     4
1070
   279
1070
     1
1070
   284
1070
     0
1070
   285
1070
     0
1070
   286
1070
     0
1070
   341
1005
847A
1070
   343
1005
847A
1070
   344
1005
847A
1002
}
  0
DIMENSION
  5
8605
330
8463
100
AcDbEntity
  8
3
100
AcDbDimension
  2
*D39
 10
1146.156955993237
 20
5738.269218418995
 30
0.0
 11
2408.656955993238
 21
5838.269218418995
 31
0.0
 70
    32
 71
     5
 42
2525.000000000002
  3
IGA
100
AcDbAlignedDimension
 13
3671.156955993239
 23
4319.800457609001
 33
0.0
 14
1146.156955993237
 24
3015.800457609002
 34
0.0
100
AcDbRotatedDimension
1001
ACAD
1000
DSTYLE
1002
{
1070
    40
1040
40.0
1070
   143
1040
0.039
1070
   172
1070
     1
1070
   271
1070
     4
1070
   272
1070
     4
1070
   279
1070
     0
1070
   284
1070
     0
1070
   285
1070
     0
1070
   286
1070
     0
1070
   341
1005
847A
1070
   343
1005
847A
1070
   344
1005
847A
1002
}
  0
DIMENSION
  5
8612
330
8463
100
AcDbEntity
  8
3
100
AcDbDimension
  2
*D40
 10
3924.167988683194
 20
4266.800457609003
 30
0.0
 11
3824.167988683194
 21
3626.800457609003
 31
0.0
 70
    32
 71
     5
 42
1280.000000000001
  3
IGA
100
AcDbAlignedDimension
 13
3671.156955993239
 23
2986.800457609002
 33
0.0
 14
3671.156955993239
 24
4266.800457609003
 34
0.0
 50
90.0
100
AcDbRotatedDimension
1001
ACAD
1000
DSTYLE
1002
{
1070
    40
1040
40.0
1070
   143
1040
0.039
1070
   172
1070
     1
1070
   271
1070
     4
1070
   272
1070
     4
1070
   279
1070
     0
1070
   284
1070
     0
1070
   285
1070
     0
1070
   286
1070
     0
1070
   341
1005
847A
1070
   343
1005
847A
1070
   344
1005
847A
1002
}
  0
DIMENSION
  5
861F
330
8463
100
AcDbEntity
  8
3
100
AcDbDimension
  2
*D41
 10
4171.230831139723
 20
4320.800457609002
 30
0.0
 11
4071.230831139723
 21
3653.800457609003
 31
0.0
 70
    32
 71
     5
 42
1333.999999999999
  3
IGA
100
AcDbAlignedDimension
 13
3671.156955993239
 23
2986.800457609002
 33
0.0
 14
3683.677800684858
 24
4320.800457609002
 34
0.0
 50
90.0
100
AcDbRotatedDimension
1001
ACAD
1000
DSTYLE
1002
{
1070
    40
1040
40.0
1070
   143
1040
0.039
1070
   172
1070
     1
1070
   271
1070
     4
1070
   272
1070
     4
1070
   279
1070
     0
1070
   284
1070
     0
1070
   285
1070
     0
1070
   286
1070
     0
1070
   341
1005
847A
1070
   343
1005
847A
1070
   344
1005
847A
1002
}
  0
DIMENSION
  5
8658
330
8463
100
AcDbEntity
  8
3
100
AcDbDimension
  2
*D44
 10
4391.632407327648
 20
4320.800457609002
 30
0.0
 11
4291.632407327647
 21
3605.800457609002
 31
0.0
 70
    32
 71
     5
 42
1429.999999999999
  3
IGA
100
AcDbAlignedDimension
 13
3596.156955993239
 23
2890.800457609002
 33
0.0
 14
3683.677800684858
 24
4320.800457609002
 34
0.0
 50
90.0
100
AcDbRotatedDimension
1001
ACAD
1000
DSTYLE
1002
{
1070
    40
1040
40.0
1070
   143
1040
0.039
1070
   172
1070
     1
1070
   271
1070
     4
1070
   272
1070
     4
1070
   279
1070
     0
1070
   284
1070
     0
1070
   285
1070
     0
1070
   286
1070
     0
1070
   341
1005
847A
1070
   343
1005
847A
1070
   344
1005
847A
1002
}
  0
DIMENSION
  5
8665
330
8463
100
AcDbEntity
  8
3
100
AcDbDimension
  2
*D45
 10
4391.632407327648
 20
5217.800457609001
 30
0.0
 11
4291.632407327647
 21
4769.300457609002
 31
0.0
 70
    32
 71
     5
 42
897.0
  3
IGA
100
AcDbAlignedDimension
 13
3683.677800684858
 23
4320.800457609002
 33
0.0
 14
2755.156955993238
 24
5217.800457609001
 34
0.0
 50
90.0
100
AcDbRotatedDimension
1001
ACAD
1000
DSTYLE
1002
{
1070
    40
1040
40.0
1070
   143
1040
0.039
1070
   172
1070
     1
1070
   271
1070
     4
1070
   272
1070
     4
1070
   279
1070
     1
1070
   284
1070
     0
1070
   285
1070
     0
1070
   286
1070
     0
1070
   341
1005
847A
1070
   343
1005
847A
1070
   344
1005
847A
1002
}
  0
ENDSEC
  0
SECTION
  2
OBJECTS
  0
DICTIONARY
  5
8400
330
0
100
AcDbDictionary
281
     1
  3
ACAD_CIP_PREVIOUS_PRODUCT_INFO
350
84A8
  3
ACAD_COLOR
350
8456
  3
ACAD_DETAILVIEWSTYLE
350
845D
  3
ACAD_GROUP
350
8401
  3
ACAD_LAYOUT
350
8455
  3
ACAD_MATERIAL
350
8404
  3
ACAD_MLEADERSTYLE
350
8459
  3
ACAD_MLINESTYLE
350
8452
  3
ACAD_PLOTSETTINGS
350
8454
  3
ACAD_PLOTSTYLENAME
350
8402
  3
ACAD_SCALELIST
350
8436
  3
ACAD_SECTIONVIEWSTYLE
350
845B
  3
ACAD_TABLESTYLE
350
8457
  3
ACAD_VISUALSTYLE
350
841D
  3
ACDB_RECOMPOSE_DATA
350
8674
  3
AcDbVariableDictionary
350
84B3
  3
DWGPROPS
350
8675
  0
DICTIONARY
  5
84A9
330
8448
100
AcDbDictionary
280
     1
281
     1
  3
ADSK_XREC_LAYER_RECONCILED
360
84AA
  0
DICTIONARY
  5
84AB
330
8467
100
AcDbDictionary
280
     1
281
     1
  3
ADSK_XREC_LAYER_RECONCILED
360
84AC
  0
DICTIONARY
  5
84AD
330
846A
100
AcDbDictionary
280
     1
281
     1
  3
ADSK_XREC_LAYER_RECONCILED
360
84AE
  0
DICTIONARY
  5
84AF
330
846B
100
AcDbDictionary
280
     1
281
     1
  3
ADSK_XREC_LAYER_RECONCILED
360
84B0
  0
DICTIONARY
  5
84B1
330
846C
100
AcDbDictionary
280
     1
281
     1
  3
ADSK_XREC_LAYER_RECONCILED
360
84B2
  0
DICTIONARY
  5
8527
330
8463
100
AcDbDictionary
280
     1
281
     1
  3
ACAD_SORTENTS
360
8528
  0
XRECORD
  5
84A8
102
{ACAD_REACTORS
330
8400
102
}
330
8400
100
AcDbXrecord
280
     1
300
ACDLT
300
2015
300
INVLTS_F_S
  0
DICTIONARY
  5
8456
102
{ACAD_REACTORS
330
8400
102
}
330
8400
100
AcDbDictionary
281
     1
  0
DICTIONARY
  5
845D
102
{ACAD_REACTORS
330
8400
102
}
330
8400
100
AcDbDictionary
281
     1
  3
Imperial24
350
845E
  0
DICTIONARY
  5
8401
102
{ACAD_REACTORS
330
8400
102
}
330
8400
100
AcDbDictionary
281
     1
  0
DICTIONARY
  5
8455
102
{ACAD_REACTORS
330
8400
102
}
330
8400
100
AcDbDictionary
281
     1
  3
Model
350
8466
  3
レイアウト1
350
8462
  0
DICTIONARY
  5
8404
102
{ACAD_REACTORS
330
8400
102
}
330
8400
100
AcDbDictionary
281
     1
  3
ByBlock
350
840D
  3
ByLayer
350
8405
  3
Global
350
8415
  0
DICTIONARY
  5
8459
102
{ACAD_REACTORS
330
8400
102
}
330
8400
100
AcDbDictionary
281
     1
  3
Standard
350
845A
  0
DICTIONARY
  5
8452
102
{ACAD_REACTORS
330
8400
102
}
330
8400
100
AcDbDictionary
281
     1
  3
Standard
350
8453
  0
DICTIONARY
  5
8454
102
{ACAD_REACTORS
330
8400
102
}
330
8400
100
AcDbDictionary
281
     1
  0
ACDBDICTIONARYWDFLT
  5
8402
102
{ACAD_REACTORS
330
8400
102
}
330
8400
100
AcDbDictionary
281
     1
  3
Normal
350
8403
100
AcDbDictionaryWithDefault
340
8403
  0
DICTIONARY
  5
8436
102
{ACAD_REACTORS
330
8400
102
}
330
8400
100
AcDbDictionary
281
     1
  3
A0
350
8437
  3
A1
350
8438
  3
A2
350
8439
  3
A3
350
843A
  3
A4
350
843B
  3
A5
350
843C
  3
A6
350
843D
  3
A7
350
843E
  3
A8
350
843F
  3
A9
350
8440
  3
B0
350
8441
  3
B1
350
8442
  3
B2
350
8443
  3
B3
350
8444
  3
B4
350
8445
  3
B5
350
8446
  3
B6
350
8447
  0
DICTIONARY
  5
845B
102
{ACAD_REACTORS
330
8400
102
}
330
8400
100
AcDbDictionary
281
     1
  3
Imperial24
350
845C
  0
DICTIONARY
  5
8457
102
{ACAD_REACTORS
330
8400
102
}
330
8400
100
AcDbDictionary
281
     1
  3
Standard
350
8458
  0
DICTIONARY
  5
841D
102
{ACAD_REACTORS
330
8400
102
}
330
8400
100
AcDbDictionary
281
     1
  3
2dWireframe
350
8423
  3
Basic
350
8422
  3
Brighten
350
8429
  3
ColorChange
350
842D
  3
Conceptual
350
8426
  3
Dim
350
8428
  3
EdgeColorOff
350
8435
  3
Facepattern
350
842C
  3
Flat
350
841E
  3
FlatWithEdges
350
841F
  3
Gouraud
350
8420
  3
GouraudWithEdges
350
8421
  3
Hidden
350
8425
  3
JitterOff
350
8433
  3
Linepattern
350
842B
  3
OverhangOff
350
8434
  3
Realistic
350
8427
  3
Shaded
350
8432
  3
Shaded with edges
350
8431
  3
Shades of Gray
350
842E
  3
Sketchy
350
842F
  3
Thicken
350
842A
  3
Wireframe
350
8424
  3
X-Ray
350
8430
  0
XRECORD
  5
8674
102
{ACAD_REACTORS
330
8400
102
}
330
8400
100
AcDbXrecord
280
     1
 90
        1
330
8458
  0
DICTIONARY
  5
84B3
102
{ACAD_REACTORS
330
8400
102
}
330
8400
100
AcDbDictionary
281
     1
  3
CANNOSCALE
350
84B8
  3
CMLEADERSTYLE
350
84B5
  3
CTABLESTYLE
350
84B4
  3
CVIEWDETAILSTYLE
350
84B6
  3
CVIEWSECTIONSTYLE
350
84B7
  3
DIMASSOC
350
84BB
  3
INDEXCTL
350
84BA
  3
SORTENTS
350
84B9
  3
XCLIPFRAME
350
84BC
  0
XRECORD
  5
8675
102
{ACAD_REACTORS
330
8400
102
}
330
8400
100
AcDbXrecord
280
     1
  1
DWGPROPS COOKIE
  2

  3

  4

  6

  7

  8
yasukiyo.ogawa
  9

300
=
301
=
302
=
303
=
304
=
305
=
306
=
307
=
308
=
309
=
 40
0.0283350578703704
 41
2451898.665484606
 42
2460280.707047523
  1

 90
        0
  0
XRECORD
  5
84AA
102
{ACAD_REACTORS
330
84A9
102
}
330
84A9
100
AcDbXrecord
280
     1
290
     1
  0
XRECORD
  5
84AC
102
{ACAD_REACTORS
330
84AB
102
}
330
84AB
100
AcDbXrecord
280
     1
290
     1
  0
XRECORD
  5
84AE
102
{ACAD_REACTORS
330
84AD
102
}
330
84AD
100
AcDbXrecord
280
     1
290
     1
  0
XRECORD
  5
84B0
102
{ACAD_REACTORS
330
84AF
102
}
330
84AF
100
AcDbXrecord
280
     1
290
     1
  0
XRECORD
  5
84B2
102
{ACAD_REACTORS
330
84B1
102
}
330
84B1
100
AcDbXrecord
280
     1
290
     1
  0
SORTENTSTABLE
  5
8528
102
{ACAD_REACTORS
330
8527
102
}
330
8527
100
AcDbSortentsTable
330
8463
331
7C43
  5
7C45
331
7C32
  5
7C34
331
7CBE
  5
7CC2
331
7C54
  5
7C56
331
7CCF
  5
7CD1
331
8093
  5
8095
331
7CF1
  5
7CF4
331
7CE0
  5
7CE5
331
7C87
  5
7C89
331
7C76
  5
7C78
331
8269
  5
84FF
331
7C44
  5
7C46
331
7C33
  5
7C35
331
7CD0
  5
7CD2
331
7C77
  5
7C79
331
7C55
  5
7C57
331
8094
  5
8096
331
8083
  5
8085
331
7C88
  5
7C8A
331
7C22
  5
7C22
331
7C45
  5
7C47
331
7C34
  5
7C36
331
7CAF
  5
7CB1
331
7C56
  5
7C58
331
7CD1
  5
7CD3
331
8095
  5
8097
331
8084
  5
8086
331
7CF3
  5
7CF5
331
7CE2
  5
7CE6
331
7C89
  5
7C8B
331
7C78
  5
7C7A
331
7C23
  5
7C23
331
84FF
  5
8519
331
7C46
  5
7C48
331
7C35
  5
7C37
331
7CB0
  5
7CB3
331
7C57
  5
7C5A
331
7CC1
  5
7CC3
331
7CD2
  5
7CD5
331
7C79
  5
7C7B
331
8096
  5
8098
331
8085
  5
8087
331
7D05
  5
7D07
331
7CF4
  5
7CF6
331
7C8A
  5
7C8C
331
7C68
  5
7C6A
331
7C24
  5
7C24
331
7C47
  5
7C49
331
7C36
  5
7C38
331
7CB1
  5
7CB4
331
7C58
  5
7C5B
331
7CC2
  5
7CC4
331
7CD3
  5
7CD6
331
7C7A
  5
7C7C
331
8097
  5
8099
331
8086
  5
8088
331
7D06
  5
7D0A
331
7CF5
  5
7CF7
331
7C8B
  5
7C8D
331
7C69
  5
7C6B
331
7C25
  5
7C25
331
825C
  5
8276
331
8242
  5
825C
331
8098
  5
809A
331
7CA1
  5
7CA4
331
7C48
  5
7C4A
331
7C37
  5
7C39
331
7CC3
  5
7CC5
331
7C6A
  5
7C6C
331
8276
  5
850C
331
7CF6
  5
7CF8
331
7CE5
  5
7CE7
331
7C8C
  5
7C8E
331
8087
  5
808A
331
7D07
  5
7D0D
331
7C7B
  5
7C7D
331
8099
  5
809B
331
8088
  5
808B
331
7CB3
  5
7CBA
331
7C49
  5
7C4B
331
7C38
  5
7C3A
331
7CC4
  5
7CC6
331
7C6B
  5
7C6D
331
7CD5
  5
7CD9
331
7CF7
  5
7CF9
331
7CE6
  5
7CE8
331
7C8D
  5
7C8F
331
7C7C
  5
7C7E
331
819B
  5
8242
331
809A
  5
809C
331
7CF8
  5
7CFA
331
7CA3
  5
7CA5
331
7C39
  5
7C3B
331
7CB4
  5
7CBB
331
7CC5
  5
7CC9
331
7CD6
  5
7CDA
331
7C7D
  5
7C7F
331
7CE7
  5
7CEB
331
7C8E
  5
7C90
331
7C6C
  5
7C6E
331
7C28
  5
7C28
331
819C
  5
824F
331
809B
  5
8133
331
808A
  5
808C
331
7CE8
  5
7CEF
331
7CA4
  5
7CA6
331
7C4B
  5
7C4D
331
7C3A
  5
7C3C
331
7CC6
  5
7CCA
331
7C6D
  5
7C6F
331
7C8F
  5
7C91
331
7C7E
  5
7C80
331
7C29
  5
7C29
331
824F
  5
8269
331
809C
  5
819B
331
808B
  5
808D
331
7C90
  5
7C92
331
7CA5
  5
7CA7
331
7C4C
  5
7C4E
331
7C3B
  5
7C3D
331
7C2A
  5
7C2C
331
7C7F
  5
7C81
331
7C6E
  5
7C70
331
7C5D
  5
7C5F
331
7CD9
  5
7CDD
331
7C80
  5
7C82
331
808C
  5
808E
331
7C91
  5
7C93
331
7CA6
  5
7CA8
331
7C4D
  5
7C4F
331
7C3C
  5
7C3E
331
7C2B
  5
7C2D
331
7C6F
  5
7C71
331
7C5E
  5
7C60
331
7CC9
  5
7CCB
331
7C70
  5
7C72
331
7CDA
  5
7CDE
331
7C81
  5
7C83
331
808D
  5
808F
331
7D0D
  5
807E
331
7CEB
  5
7CF0
331
7C92
  5
7C94
331
7CA7
  5
7CA9
331
7C4E
  5
7C50
331
7C3D
  5
7C42
331
7C5F
  5
7C61
331
7C2C
  5
7C2E
331
7CA8
  5
7CAA
331
8519
  5
8529
331
7C60
  5
7C62
331
7CCA
  5
7CCC
331
7C71
  5
7C73
331
808E
  5
8090
331
7C93
  5
7C95
331
7C4F
  5
7C51
331
7C3E
  5
7C43
331
7C2D
  5
7C2F
331
7C82
  5
7C84
331
7C98
  5
7C9A
331
7CA9
  5
7CAB
331
7C50
  5
7C52
331
7CBA
  5
7CBC
331
7C61
  5
7C64
331
7CCB
  5
7CCD
331
807E
  5
8080
331
7C94
  5
7C96
331
7C83
  5
7C85
331
808F
  5
8091
331
7C2E
  5
7C30
331
7D0F
  5
807F
331
7C72
  5
7C74
331
7C99
  5
7C9B
331
7CAA
  5
7CAC
331
7C51
  5
7C53
331
7CBB
  5
7CBD
331
7C62
  5
7C68
331
7CCC
  5
7CCE
331
7C84
  5
7C86
331
8090
  5
8092
331
807F
  5
8083
331
7CFF
  5
7D05
331
7C2F
  5
7C31
331
7C95
  5
7C97
331
7C73
  5
7C75
331
7C9A
  5
7C9C
331
7C30
  5
7C32
331
7CBC
  5
7CBE
331
7CAB
  5
7CAF
331
7C52
  5
7C54
331
7CCD
  5
7CCF
331
7C74
  5
7C76
331
8091
  5
8093
331
8080
  5
8084
331
7D00
  5
7D06
331
7CEF
  5
7CF1
331
7C96
  5
7C98
331
7C85
  5
7C87
331
7C9B
  5
7C9D
331
7C42
  5
7C44
331
7C31
  5
7C33
331
850C
  5
8526
331
7CAC
  5
7CB0
331
7C53
  5
7C55
331
7CBD
  5
7CC1
331
7CCE
  5
7CD0
331
7C75
  5
7C77
331
8092
  5
8094
331
7CF0
  5
7CF3
331
7C97
  5
7C99
331
7C86
  5
7C88
331
7C64
  5
7C69
  0
ACDBDETAILVIEWSTYLE
  5
845E
102
{ACAD_XDICTIONARY
360
86AD
102
}
102
{ACAD_REACTORS
330
845D
102
}
330
845D
100
AcDbModelDocViewStyle
 70
     0
  3
Imperial24
290
     0
100
AcDbDetailViewStyle
 70
     0
 71
     0
 90
        3
 71
     1
340
8449
 40
0.24
340
0
 40
0.24
300

 40
0.36
280
     3
 71
     2
340
8450
 90
       25
 71
     3
340
8449
 40
0.24
 90
        1
 40
0.75
 90
        1
300
%<\AcVar ViewType \f "%tc1">% %<\AcVar ViewDetailId>%\PSCALE %<\AcVar ViewScale \f "%sn">%
 71
     4
340
8450
 90
       25
340
8450
 90
       25
280
     0
  0
LAYOUT
  5
8466
102
{ACAD_XDICTIONARY
360
86B1
102
}
102
{ACAD_REACTORS
330
8455
102
}
330
8455
100
AcDbPlotSettings
  1

  2
RICOH imagio MP W3600 RPCS
  4

  6

 40
0.0
 41
0.0
 42
0.0
 43
0.0
 44
0.0
 45
0.0
 46
0.0
 47
0.0
 48
0.0
 49
0.0
140
0.0
141
0.0
142
1.0
143
1.0
 70
  1712
 72
     0
 73
     0
 74
     0
  7

 75
     0
147
1.0
148
0.0
149
0.0
100
AcDbLayout
  1
Model
 70
     1
 71
     0
 10
0.0
 20
0.0
 11
12.0
 21
9.0
 12
0.0
 22
0.0
 32
0.0
 14
0.0
 24
0.0
 34
0.0
 15
0.0
 25
0.0
 35
0.0
146
0.0
 13
0.0
 23
0.0
 33
0.0
 16
1.0
 26
0.0
 36
0.0
 17
0.0
 27
1.0
 37
0.0
 76
     0
330
8463
331
8468
  0
LAYOUT
  5
8462
102
{ACAD_XDICTIONARY
360
86AF
102
}
102
{ACAD_REACTORS
330
8455
102
}
330
8455
100
AcDbPlotSettings
  1

  2
RICOH imagio MP W3600 RPCS
  4

  6

 40
0.0
 41
0.0
 42
0.0
 43
0.0
 44
0.0
 45
0.0
 46
0.0
 47
0.0
 48
0.0
 49
0.0
140
0.0
141
0.0
142
1.0
143
1.0
 70
   688
 72
     0
 73
     0
 74
     5
  7

 75
    16
147
1.0
148
0.0
149
0.0
100
AcDbLayout
  1
レイアウト1
 70
     1
 71
     1
 10
0.0
 20
0.0
 11
12.0
 21
9.0
 12
0.0
 22
0.0
 32
0.0
 14
1.000000000000000E+20
 24
1.000000000000000E+20
 34
1.000000000000000E+20
 15
-1.000000000000000E+20
 25
-1.000000000000000E+20
 35
-1.000000000000000E+20
146
0.0
 13
0.0
 23
0.0
 33
0.0
 16
1.0
 26
0.0
 36
0.0
 17
0.0
 27
1.0
 37
0.0
 76
     0
330
845F
  0
MATERIAL
  5
840D
102
{ACAD_XDICTIONARY
360
840E
102
}
102
{ACAD_REACTORS
330
8404
102
}
330
8404
100
AcDbMaterial
  1
ByBlock
 72
     0
 43
0.0208333333333333
 43
0.0
 43
0.0
 43
0.0
 43
0.0
 43
0.0208333333333333
 43
0.0
 43
0.0
 43
0.0
 43
0.0
 43
1.0
 43
0.0
 43
0.0
 43
0.0
 43
0.0
 43
1.0
 77
     0
 47
0.0208333333333333
 47
0.0
 47
0.0
 47
0.0
 47
0.0
 47
0.0208333333333333
 47
0.0
 47
0.0
 47
0.0
 47
0.0
 47
1.0
 47
0.0
 47
0.0
 47
0.0
 47
0.0
 47
1.0
171
     0
 49
0.0208333333333333
 49
0.0
 49
0.0
 49
0.0
 49
0.0
 49
0.0208333333333333
 49
0.0
 49
0.0
 49
0.0
 49
0.0
 49
1.0
 49
0.0
 49
0.0
 49
0.0
 49
0.0
 49
1.0
175
     0
142
0.0208333333333333
142
0.0
142
0.0
142
0.0
142
0.0
142
0.0208333333333333
142
0.0
142
0.0
142
0.0
142
0.0
142
1.0
142
0.0
142
0.0
142
0.0
142
0.0
142
1.0
179
     0
144
0.0208333333333333
144
0.0
144
0.0
144
0.0
144
0.0
144
0.0208333333333333
144
0.0
144
0.0
144
0.0
144
0.0
144
1.0
144
0.0
144
0.0
144
0.0
144
0.0
144
1.0
147
0.0208333333333333
147
0.0
147
0.0
147
0.0
147
0.0
147
0.0208333333333333
147
0.0
147
0.0
147
0.0
147
0.0
147
1.0
147
0.0
147
0.0
147
0.0
147
0.0
147
1.0
  0
MATERIAL
  5
8405
102
{ACAD_XDICTIONARY
360
8406
102
}
102
{ACAD_REACTORS
330
8404
102
}
330
8404
100
AcDbMaterial
  1
ByLayer
 72
     0
 43
0.0208333333333333
 43
0.0
 43
0.0
 43
0.0
 43
0.0
 43
0.0208333333333333
 43
0.0
 43
0.0
 43
0.0
 43
0.0
 43
1.0
 43
0.0
 43
0.0
 43
0.0
 43
0.0
 43
1.0
 77
     0
 47
0.0208333333333333
 47
0.0
 47
0.0
 47
0.0
 47
0.0
 47
0.0208333333333333
 47
0.0
 47
0.0
 47
0.0
 47
0.0
 47
1.0
 47
0.0
 47
0.0
 47
0.0
 47
0.0
 47
1.0
171
     0
 49
0.0208333333333333
 49
0.0
 49
0.0
 49
0.0
 49
0.0
 49
0.0208333333333333
 49
0.0
 49
0.0
 49
0.0
 49
0.0
 49
1.0
 49
0.0
 49
0.0
 49
0.0
 49
0.0
 49
1.0
175
     0
142
0.0208333333333333
142
0.0
142
0.0
142
0.0
142
0.0
142
0.0208333333333333
142
0.0
142
0.0
142
0.0
142
0.0
142
1.0
142
0.0
142
0.0
142
0.0
142
0.0
142
1.0
179
     0
144
0.0208333333333333
144
0.0
144
0.0
144
0.0
144
0.0
144
0.0208333333333333
144
0.0
144
0.0
144
0.0
144
0.0
144
1.0
144
0.0
144
0.0
144
0.0
144
0.0
144
1.0
147
0.0208333333333333
147
0.0
147
0.0
147
0.0
147
0.0
147
0.0208333333333333
147
0.0
147
0.0
147
0.0
147
0.0
147
1.0
147
0.0
147
0.0
147
0.0
147
0.0
147
1.0
  0
MATERIAL
  5
8415
102
{ACAD_XDICTIONARY
360
8416
102
}
102
{ACAD_REACTORS
330
8404
102
}
330
8404
100
AcDbMaterial
  1
Global
 72
     0
 43
0.0208333333333333
 43
0.0
 43
0.0
 43
0.0
 43
0.0
 43
0.0208333333333333
 43
0.0
 43
0.0
 43
0.0
 43
0.0
 43
1.0
 43
0.0
 43
0.0
 43
0.0
 43
0.0
 43
1.0
 77
     0
 47
0.0208333333333333
 47
0.0
 47
0.0
 47
0.0
 47
0.0
 47
0.0208333333333333
 47
0.0
 47
0.0
 47
0.0
 47
0.0
 47
1.0
 47
0.0
 47
0.0
 47
0.0
 47
0.0
 47
1.0
171
     0
 49
0.0208333333333333
 49
0.0
 49
0.0
 49
0.0
 49
0.0
 49
0.0208333333333333
 49
0.0
 49
0.0
 49
0.0
 49
0.0
 49
1.0
 49
0.0
 49
0.0
 49
0.0
 49
0.0
 49
1.0
175
     0
142
0.0208333333333333
142
0.0
142
0.0
142
0.0
142
0.0
142
0.0208333333333333
142
0.0
142
0.0
142
0.0
142
0.0
142
1.0
142
0.0
142
0.0
142
0.0
142
0.0
142
1.0
179
     0
144
0.0208333333333333
144
0.0
144
0.0
144
0.0
144
0.0
144
0.0208333333333333
144
0.0
144
0.0
144
0.0
144
0.0
144
1.0
144
0.0
144
0.0
144
0.0
144
0.0
144
1.0
147
0.0208333333333333
147
0.0
147
0.0
147
0.0
147
0.0
147
0.0208333333333333
147
0.0
147
0.0
147
0.0
147
0.0
147
1.0
147
0.0
147
0.0
147
0.0
147
0.0
147
1.0
  0
MLEADERSTYLE
  5
845A
102
{ACAD_REACTORS
330
8459
102
}
330
8459
100
AcDbMLeaderStyle
170
     2
171
     1
172
     0
 90
        2
 40
0.0
 41
0.0
173
     1
 91
-1056964608
340
844E
 92
       -2
290
     1
 42
0.09
291
     1
 43
0.36
  3
Standard
 44
0.18
300

342
8449
174
     1
178
     6
175
     1
176
     0
 93
-1056964608
 45
0.18
292
     0
297
     0
 46
0.18
 94
-1056964608
 47
1.0
 49
1.0
140
1.0
293
     1
141
0.0
294
     1
177
     0
142
1.0
295
     0
296
     0
143
0.125
1001
ACAD_MLEADERVER
1070
     2
  0
MLINESTYLE
  5
8453
102
{ACAD_REACTORS
330
8452
102
}
330
8452
100
AcDbMlineStyle
  2
STANDARD
 70
     0
  3

 62
   256
 51
90.0
 52
90.0
 71
     2
 49
0.5
 62
   256
  6
BYLAYER
 49
-0.5
 62
   256
  6
BYLAYER
  0
ACDBPLACEHOLDER
  5
8403
102
{ACAD_REACTORS
330
8402
102
}
330
8402
  0
SCALE
  5
8437
102
{ACAD_REACTORS
330
8436
102
}
330
8436
100
AcDbScale
 70
     0
300
1:1
140
1.0
141
1.0
290
     1
  0
SCALE
  5
8438
102
{ACAD_REACTORS
330
8436
102
}
330
8436
100
AcDbScale
 70
     0
300
1/128" = 1'-0"
140
0.0078125
141
12.0
290
     0
  0
SCALE
  5
8439
102
{ACAD_REACTORS
330
8436
102
}
330
8436
100
AcDbScale
 70
     0
300
1/64" = 1'-0"
140
0.015625
141
12.0
290
     0
  0
SCALE
  5
843A
102
{ACAD_REACTORS
330
8436
102
}
330
8436
100
AcDbScale
 70
     0
300
1/32" = 1'-0"
140
0.03125
141
12.0
290
     0
  0
SCALE
  5
843B
102
{ACAD_REACTORS
330
8436
102
}
330
8436
100
AcDbScale
 70
     0
300
1/16" = 1'-0"
140
0.0625
141
12.0
290
     0
  0
SCALE
  5
843C
102
{ACAD_REACTORS
330
8436
102
}
330
8436
100
AcDbScale
 70
     0
300
3/32" = 1'-0"
140
0.09375
141
12.0
290
     0
  0
SCALE
  5
843D
102
{ACAD_REACTORS
330
8436
102
}
330
8436
100
AcDbScale
 70
     0
300
1/8" = 1'-0"
140
0.125
141
12.0
290
     0
  0
SCALE
  5
843E
102
{ACAD_REACTORS
330
8436
102
}
330
8436
100
AcDbScale
 70
     0
300
3/16" = 1'-0"
140
0.1875
141
12.0
290
     0
  0
SCALE
  5
843F
102
{ACAD_REACTORS
330
8436
102
}
330
8436
100
AcDbScale
 70
     0
300
1/4" = 1'-0"
140
0.25
141
12.0
290
     0
  0
SCALE
  5
8440
102
{ACAD_REACTORS
330
8436
102
}
330
8436
100
AcDbScale
 70
     0
300
3/8" = 1'-0"
140
0.375
141
12.0
290
     0
  0
SCALE
  5
8441
102
{ACAD_REACTORS
330
8436
102
}
330
8436
100
AcDbScale
 70
     0
300
1/2" = 1'-0"
140
0.5
141
12.0
290
     0
  0
SCALE
  5
8442
102
{ACAD_REACTORS
330
8436
102
}
330
8436
100
AcDbScale
 70
     0
300
3/4" = 1'-0"
140
0.75
141
12.0
290
     0
  0
SCALE
  5
8443
102
{ACAD_REACTORS
330
8436
102
}
330
8436
100
AcDbScale
 70
     0
300
1" = 1'-0"
140
1.0
141
12.0
290
     0
  0
SCALE
  5
8444
102
{ACAD_REACTORS
330
8436
102
}
330
8436
100
AcDbScale
 70
     0
300
1-1/2" = 1'-0"
140
1.5
141
12.0
290
     0
  0
SCALE
  5
8445
102
{ACAD_REACTORS
330
8436
102
}
330
8436
100
AcDbScale
 70
     0
300
3" = 1'-0"
140
3.0
141
12.0
290
     0
  0
SCALE
  5
8446
102
{ACAD_REACTORS
330
8436
102
}
330
8436
100
AcDbScale
 70
     0
300
6" = 1'-0"
140
6.0
141
12.0
290
     0
  0
SCALE
  5
8447
102
{ACAD_REACTORS
330
8436
102
}
330
8436
100
AcDbScale
 70
     0
300
1'-0" = 1'-0"
140
12.0
141
12.0
290
     0
  0
ACDBSECTIONVIEWSTYLE
  5
845C
102
{ACAD_XDICTIONARY
360
86AB
102
}
102
{ACAD_REACTORS
330
845B
102
}
330
845B
100
AcDbModelDocViewStyle
 70
     0
  3
Imperial24
290
     0
100
AcDbSectionViewStyle
 70
     0
 71
     0
 90
       78
 71
     1
340
8449
 40
0.24
340
0
340
0
 40
0.24
300
I, O, Q, S, X, Z
 40
0.48
 90
        3
 40
0.18
 90
        1
 71
     2
340
8450
 90
       25
340
8450
 90
       50
 40
0.24
 40
0.0
 40
0.24
 71
     3
340
8449
 40
0.24
 90
        1
 40
0.75
 90
        1
300
%<\AcVar ViewType \f "%tc1">% %<\AcVar ViewSectionStartId>%-%<\AcVar ViewSectionEndId>%\PSCALE %<\AcVar ViewScale \f "%sn">%
 71
     4
300
ANSI31
 40
1.0
 90
        0
290
     0
290
     0
 90
        6
 40
0.0
 40
1.570796326794896
 40
0.2617993877991494
 40
1.308996938995747
 40
-0.2617993877991494
 40
1.832595714594046
  0
TABLESTYLE
  5
8458
102
{ACAD_XDICTIONARY
360
8672
102
}
102
{ACAD_REACTORS
330
8457
102
}
330
8457
100
AcDbTableStyle
  3
Standard
 70
     0
 71
     0
 40
0.06
 41
0.06
280
     0
281
     0
  7
STANDARD
140
0.18
170
     2
 62
     0
 63
     7
283
     0
274
    -2
284
     1
 64
     0
275
    -2
285
     1
 65
     0
276
    -2
286
     1
 66
     0
277
    -2
287
     1
 67
     0
278
    -2
288
     1
 68
     0
279
    -2
289
     1
 69
     0
  7
STANDARD
140
0.25
170
     5
 62
     0
 63
     7
283
     0
274
    -2
284
     1
 64
     0
275
    -2
285
     1
 65
     0
276
    -2
286
     1
 66
     0
277
    -2
287
     1
 67
     0
278
    -2
288
     1
 68
     0
279
    -2
289
     1
 69
     0
  7
STANDARD
140
0.18
170
     5
 62
     0
 63
     7
283
     0
274
    -2
284
     1
 64
     0
275
    -2
285
     1
 65
     0
276
    -2
286
     1
 66
     0
277
    -2
287
     1
 67
     0
278
    -2
288
     1
 68
     0
279
    -2
289
     1
 69
     0
  0
VISUALSTYLE
  5
8423
102
{ACAD_XDICTIONARY
360
8683
102
}
102
{ACAD_REACTORS
330
841D
102
}
330
841D
100
AcDbVisualStyle
  2
2dWireframe
 70
     4
 71
     0
 72
     2
 73
     0
 90
        0
 40
-0.6
 41
-30.0
 62
     5
 63
     7
 74
     1
 91
        4
 64
     7
 65
   257
 75
     1
175
     1
 42
1.0
 92
        0
 66
   257
 43
1.0
 76
     1
 77
     6
 78
     2
 67
     7
 79
     5
170
     0
171
     0
290
     0
174
     0
 93
        1
 44
0.0
173
     0
291
     0
 45
0.0
1001
ACAD
1000
AcDbSavedByObjectVersion
1070
     0
  0
VISUALSTYLE
  5
8422
102
{ACAD_XDICTIONARY
360
8681
102
}
102
{ACAD_REACTORS
330
841D
102
}
330
841D
100
AcDbVisualStyle
  2
Basic
 70
     7
 71
     1
 72
     0
 73
     1
 90
        0
 40
-0.6
 41
-30.0
 62
     5
 63
     7
 74
     0
 91
        4
 64
     7
 65
   257
 75
     1
175
     1
 42
1.0
 92
        8
 66
     7
 43
1.0
 76
     1
 77
     6
 78
     2
 67
     7
 79
     5
170
     0
171
     0
290
     0
174
     0
 93
        1
 44
0.0
173
     0
291
     1
 45
0.0
1001
ACAD
1000
AcDbSavedByObjectVersion
1070
     0
  0
VISUALSTYLE
  5
8429
102
{ACAD_XDICTIONARY
360
868F
102
}
102
{ACAD_REACTORS
330
841D
102
}
330
841D
100
AcDbVisualStyle
  2
Brighten
 70
    12
 71
     2
 72
     2
 73
     0
 90
        0
 40
-0.6
 41
-30.0
 62
     5
 63
     7
 74
     1
 91
        4
 64
     7
 65
   257
 75
     1
175
     1
 42
1.0
 92
        8
 66
     7
 43
1.0
 76
     1
 77
     6
 78
     2
 67
     7
 79
     5
170
     0
171
     0
290
     0
174
     0
 93
        1
 44
50.0
173
     0
291
     1
 45
0.0
1001
ACAD
1000
AcDbSavedByObjectVersion
1070
     0
  0
VISUALSTYLE
  5
842D
102
{ACAD_XDICTIONARY
360
8697
102
}
102
{ACAD_REACTORS
330
841D
102
}
330
841D
100
AcDbVisualStyle
  2
ColorChange
 70
    16
 71
     2
 72
     2
 73
     3
 90
        0
 40
-0.6
 41
-30.0
 62
     5
 63
     8
 74
     1
 91
        4
 64
     7
 65
   257
 75
     1
175
     1
 42
1.0
 92
        8
 66
     8
 43
1.0
 76
     1
 77
     6
 78
     2
 67
     7
 79
     5
170
     0
171
     0
290
     0
174
     0
 93
        1
 44
0.0
173
     0
291
     1
 45
0.0
1001
ACAD
1000
AcDbSavedByObjectVersion
1070
     0
  0
VISUALSTYLE
  5
8426
102
{ACAD_XDICTIONARY
360
8689
102
}
102
{ACAD_REACTORS
330
841D
102
}
330
841D
100
AcDbVisualStyle
  2
Conceptual
 70
     9
 71
     3
 72
     2
 73
     0
 90
        0
 40
-0.6
 41
-30.0
 62
     5
 63
     7
 74
     2
 91
        2
 64
     7
 65
   257
 75
     1
175
     1
 42
179.0
 92
        8
 66
     7
 43
1.0
 76
     1
 77
     6
 78
     2
 67
     7
 79
     3
170
     0
171
     0
290
     0
174
     0
 93
        1
 44
0.0
173
     0
291
     0
 45
0.0
1001
ACAD
1000
AcDbSavedByObjectVersion
1070
     0
  0
VISUALSTYLE
  5
8428
102
{ACAD_XDICTIONARY
360
868D
102
}
102
{ACAD_REACTORS
330
841D
102
}
330
841D
100
AcDbVisualStyle
  2
Dim
 70
    11
 71
     2
 72
     2
 73
     0
 90
        0
 40
-0.6
 41
-30.0
 62
     5
 63
     7
 74
     1
 91
        4
 64
     7
 65
   257
 75
     1
175
     1
 42
1.0
 92
        8
 66
     7
 43
1.0
 76
     1
 77
     6
 78
     2
 67
     7
 79
     5
170
     0
171
     0
290
     0
174
     0
 93
        1
 44
-50.0
173
     0
291
     1
 45
0.0
1001
ACAD
1000
AcDbSavedByObjectVersion
1070
     0
  0
VISUALSTYLE
  5
8435
102
{ACAD_XDICTIONARY
360
86A7
102
}
102
{ACAD_REACTORS
330
841D
102
}
330
841D
100
AcDbVisualStyle
  2
EdgeColorOff
 70
    22
 71
     2
 72
     2
 73
     0
 90
        0
 40
-0.6
 41
-30.0
 62
     5
 63
     7
 74
     1
 91
        4
 64
     7
 65
   257
 75
     1
175
     1
 42
1.0
 92
        8
 66
     7
 43
1.0
 76
     1
 77
     6
 78
     2
 67
     7
 79
     5
170
     0
171
     0
290
     0
174
     0
 93
        1
 44
0.0
173
     0
291
     1
 45
0.0
1001
ACAD
1000
AcDbSavedByObjectVersion
1070
     0
  0
VISUALSTYLE
  5
842C
102
{ACAD_XDICTIONARY
360
8695
102
}
102
{ACAD_REACTORS
330
841D
102
}
330
841D
100
AcDbVisualStyle
  2
Facepattern
 70
    15
 71
     2
 72
     2
 73
     0
 90
        0
 40
-0.6
 41
-30.0
 62
     5
 63
     7
 74
     1
 91
        4
 64
     7
 65
   257
 75
     1
175
     1
 42
1.0
 92
        8
 66
     7
 43
1.0
 76
     1
 77
     6
 78
     2
 67
     7
 79
     5
170
     0
171
     0
290
     0
174
     0
 93
        1
 44
0.0
173
     0
291
     1
 45
0.0
1001
ACAD
1000
AcDbSavedByObjectVersion
1070
     0
  0
VISUALSTYLE
  5
841E
102
{ACAD_XDICTIONARY
360
8679
102
}
102
{ACAD_REACTORS
330
841D
102
}
330
841D
100
AcDbVisualStyle
  2
Flat
 70
     0
 71
     2
 72
     1
 73
     1
 90
        2
 40
-0.6
 41
30.0
 62
     5
 63
     7
 74
     0
 91
        0
 64
     7
 65
   257
 75
     1
175
     1
 42
1.0
 92
        8
 66
     7
 43
1.0
 76
     1
 77
     6
 78
     2
 67
     7
 79
     5
170
     0
171
     0
290
     0
174
     0
 93
       13
 44
0.0
173
     0
291
     1
 45
0.0
1001
ACAD
1000
AcDbSavedByObjectVersion
1070
     0
  0
VISUALSTYLE
  5
841F
102
{ACAD_XDICTIONARY
360
867B
102
}
102
{ACAD_REACTORS
330
841D
102
}
330
841D
100
AcDbVisualStyle
  2
FlatWithEdges
 70
     1
 71
     2
 72
     1
 73
     1
 90
        2
 40
-0.6
 41
30.0
 62
     5
 63
     7
 74
     1
 91
        0
 64
     7
 65
   257
 75
     1
175
     1
 42
1.0
 92
        0
 66
   257
 43
1.0
 76
     1
 77
     6
 78
     2
 67
     7
 79
     5
170
     0
171
     0
290
     0
174
     0
 93
       13
 44
0.0
173
     0
291
     1
 45
0.0
1001
ACAD
1000
AcDbSavedByObjectVersion
1070
     0
  0
VISUALSTYLE
  5
8420
102
{ACAD_XDICTIONARY
360
867D
102
}
102
{ACAD_REACTORS
330
841D
102
}
330
841D
100
AcDbVisualStyle
  2
Gouraud
 70
     2
 71
     2
 72
     2
 73
     1
 90
        2
 40
-0.6
 41
30.0
 62
     5
 63
     7
 74
     0
 91
        0
 64
     7
 65
   257
 75
     1
175
     1
 42
1.0
 92
        0
 66
     7
 43
1.0
 76
     1
 77
     6
 78
     2
 67
     7
 79
     5
170
     0
171
     0
290
     0
174
     0
 93
       13
 44
0.0
173
     0
291
     1
 45
0.0
1001
ACAD
1000
AcDbSavedByObjectVersion
1070
     0
  0
VISUALSTYLE
  5
8421
102
{ACAD_XDICTIONARY
360
867F
102
}
102
{ACAD_REACTORS
330
841D
102
}
330
841D
100
AcDbVisualStyle
  2
GouraudWithEdges
 70
     3
 71
     2
 72
     2
 73
     1
 90
        2
 40
-0.6
 41
30.0
 62
     5
 63
     7
 74
     1
 91
        0
 64
     7
 65
   257
 75
     1
175
     1
 42
1.0
 92
        0
 66
   257
 43
1.0
 76
     1
 77
     6
 78
     2
 67
     7
 79
     5
170
     0
171
     0
290
     0
174
     0
 93
       13
 44
0.0
173
     0
291
     1
 45
0.0
1001
ACAD
1000
AcDbSavedByObjectVersion
1070
     0
  0
VISUALSTYLE
  5
8425
102
{ACAD_XDICTIONARY
360
8687
102
}
102
{ACAD_REACTORS
330
841D
102
}
330
841D
100
AcDbVisualStyle
  2
Hidden
 70
     6
 71
     1
 72
     2
 73
     2
 90
        0
 40
-0.6
 41
-30.0
 62
     5
 63
     7
 74
     2
 91
        2
 64
     7
 65
   257
 75
     2
175
     1
 42
40.0
 92
        0
 66
   257
 43
1.0
 76
     1
 77
     6
 78
     2
 67
     7
 79
     3
170
     0
171
     0
290
     0
174
     0
 93
        1
 44
0.0
173
     0
291
     0
 45
0.0
1001
ACAD
1000
AcDbSavedByObjectVersion
1070
     0
  0
VISUALSTYLE
  5
8433
102
{ACAD_XDICTIONARY
360
86A3
102
}
102
{ACAD_REACTORS
330
841D
102
}
330
841D
100
AcDbVisualStyle
  2
JitterOff
 70
    20
 71
     2
 72
     2
 73
     0
 90
        0
 40
-0.6
 41
-30.0
 62
     5
 63
     7
 74
     1
 91
        4
 64
     7
 65
   257
 75
     1
175
     1
 42
1.0
 92
       10
 66
     7
 43
1.0
 76
     1
 77
     6
 78
     2
 67
     7
 79
     5
170
     0
171
     0
290
     0
174
     0
 93
        1
 44
0.0
173
     0
291
     1
 45
0.0
1001
ACAD
1000
AcDbSavedByObjectVersion
1070
     0
  0
VISUALSTYLE
  5
842B
102
{ACAD_XDICTIONARY
360
8693
102
}
102
{ACAD_REACTORS
330
841D
102
}
330
841D
100
AcDbVisualStyle
  2
Linepattern
 70
    14
 71
     2
 72
     2
 73
     0
 90
        0
 40
-0.6
 41
-30.0
 62
     5
 63
     7
 74
     1
 91
        4
 64
     7
 65
   257
 75
     7
175
     7
 42
1.0
 92
        8
 66
     7
 43
1.0
 76
     1
 77
     6
 78
     2
 67
     7
 79
     5
170
     0
171
     0
290
     0
174
     0
 93
        1
 44
0.0
173
     0
291
     1
 45
0.0
1001
ACAD
1000
AcDbSavedByObjectVersion
1070
     0
  0
VISUALSTYLE
  5
8434
102
{ACAD_XDICTIONARY
360
86A5
102
}
102
{ACAD_REACTORS
330
841D
102
}
330
841D
100
AcDbVisualStyle
  2
OverhangOff
 70
    21
 71
     2
 72
     2
 73
     0
 90
        0
 40
-0.6
 41
-30.0
 62
     5
 63
     7
 74
     1
 91
        4
 64
     7
 65
   257
 75
     1
175
     1
 42
1.0
 92
        9
 66
     7
 43
1.0
 76
     1
 77
     6
 78
     2
 67
     7
 79
     5
170
     0
171
     0
290
     0
174
     0
 93
        1
 44
0.0
173
     0
291
     1
 45
0.0
1001
ACAD
1000
AcDbSavedByObjectVersion
1070
     0
  0
VISUALSTYLE
  5
8427
102
{ACAD_XDICTIONARY
360
868B
102
}
102
{ACAD_REACTORS
330
841D
102
}
330
841D
100
AcDbVisualStyle
  2
Realistic
 70
     8
 71
     2
 72
     3
 73
     0
 90
        2
 40
-0.6
 41
30.0
 62
     5
 63
     7
 74
     0
 91
        0
 64
     7
 65
   257
 75
     1
175
     1
 42
1.0
 92
        8
 66
   257
 43
1.0
 76
     1
 77
     6
 78
     2
 67
     7
 79
     3
170
     0
171
     0
290
     0
174
     0
 93
       13
 44
0.0
173
     0
291
     0
 45
0.0
1001
ACAD
1000
AcDbSavedByObjectVersion
1070
     0
  0
VISUALSTYLE
  5
8432
102
{ACAD_XDICTIONARY
360
86A1
102
}
102
{ACAD_REACTORS
330
841D
102
}
330
841D
100
AcDbVisualStyle
  2
Shaded
 70
    27
 71
     2
 72
     2
 73
     1
 90
        2
 40
-0.6
 41
30.0
 62
     5
 63
     7
 74
     0
 91
        4
 64
     7
 65
   257
 75
     1
175
     1
 42
1.0
 92
        8
 66
   257
 43
1.0
 76
     1
 77
     6
 78
     2
 67
     8
 79
     3
170
     0
171
     0
290
     0
174
     0
 93
        5
 44
0.0
173
     0
291
     0
 45
0.0
1001
ACAD
1000
AcDbSavedByObjectVersion
1070
     0
  0
VISUALSTYLE
  5
8431
102
{ACAD_XDICTIONARY
360
869F
102
}
102
{ACAD_REACTORS
330
841D
102
}
330
841D
100
AcDbVisualStyle
  2
Shaded with edges
 70
    26
 71
     2
 72
     2
 73
     1
 90
        2
 40
-0.6
 41
30.0
 62
     5
 63
     7
 74
     1
 91
       10
 64
     7
 65
   257
 75
     2
175
     1
 42
1.0
 92
        8
 66
   257
 43
1.0
 76
     1
 77
     6
 78
     2
 67
     7
 79
     3
170
     0
171
     0
290
     0
174
     0
 93
        5
 44
0.0
173
     0
291
     0
 45
0.0
1001
ACAD
1000
AcDbSavedByObjectVersion
1070
     0
  0
VISUALSTYLE
  5
842E
102
{ACAD_XDICTIONARY
360
8699
102
}
102
{ACAD_REACTORS
330
841D
102
}
330
841D
100
AcDbVisualStyle
  2
Shades of Gray
 70
    23
 71
     2
 72
     2
 73
     3
 90
        0
 40
-0.6
 41
-30.0
 62
     5
 63
     7
 74
     2
 91
        2
 64
     7
 65
     7
 75
     1
175
     1
 42
40.0
 92
        8
 66
     7
 43
1.0
 76
     1
 77
     6
 78
     2
 67
     7
 79
     3
170
     0
171
     0
290
     0
174
     0
 93
        1
 44
0.0
173
     0
291
     0
 45
0.0
1001
ACAD
1000
AcDbSavedByObjectVersion
1070
     0
  0
VISUALSTYLE
  5
842F
102
{ACAD_XDICTIONARY
360
869B
102
}
102
{ACAD_REACTORS
330
841D
102
}
330
841D
100
AcDbVisualStyle
  2
Sketchy
 70
    24
 71
     1
 72
     2
 73
     2
 90
        0
 40
-0.6
 41
-30.0
 62
     5
 63
     7
 74
     2
 91
        2
 64
     7
 65
     7
 75
     1
175
     1
 42
40.0
 92
       11
 66
     7
 43
1.0
 76
     1
 77
     6
 78
     2
 67
     7
 79
     6
170
     0
171
     0
290
     0
174
     0
 93
        1
 44
0.0
173
     0
291
     0
 45
0.0
1001
ACAD
1000
AcDbSavedByObjectVersion
1070
     0
  0
VISUALSTYLE
  5
842A
102
{ACAD_XDICTIONARY
360
8691
102
}
102
{ACAD_REACTORS
330
841D
102
}
330
841D
100
AcDbVisualStyle
  2
Thicken
 70
    13
 71
     2
 72
     2
 73
     0
 90
        0
 40
-0.6
 41
-30.0
 62
     5
 63
     7
 74
     1
 91
        4
 64
     7
 65
   257
 75
     1
175
     1
 42
1.0
 92
       12
 66
     7
 43
1.0
 76
     1
 77
     6
 78
     2
 67
     7
 79
     5
170
     0
171
     0
290
     0
174
     0
 93
        1
 44
0.0
173
     0
291
     1
 45
0.0
1001
ACAD
1000
AcDbSavedByObjectVersion
1070
     0
  0
VISUALSTYLE
  5
8424
102
{ACAD_XDICTIONARY
360
8685
102
}
102
{ACAD_REACTORS
330
841D
102
}
330
841D
100
AcDbVisualStyle
  2
Wireframe
 70
     5
 71
     0
 72
     2
 73
     0
 90
        0
 40
-0.6
 41
-30.0
 62
     5
 63
     7
 74
     1
 91
        4
 64
     7
 65
   257
 75
     1
175
     1
 42
1.0
 92
        0
 66
   257
 43
1.0
 76
     1
 77
     6
 78
     2
 67
     7
 79
     3
170
     0
171
     0
290
     0
174
     0
 93
        1
 44
0.0
173
     0
291
     0
 45
0.0
1001
ACAD
1000
AcDbSavedByObjectVersion
1070
     0
  0
VISUALSTYLE
  5
8430
102
{ACAD_XDICTIONARY
360
869D
102
}
102
{ACAD_REACTORS
330
841D
102
}
330
841D
100
AcDbVisualStyle
  2
X-Ray
 70
    25
 71
     2
 72
     2
 73
     1
 90
        1
 40
0.5
 41
-30.0
 62
     5
 63
     7
 74
     1
 91
        0
 64
     7
 65
   257
 75
     1
175
     1
 42
1.0
 92
        8
 66
     7
 43
1.0
 76
     1
 77
     6
 78
     2
 67
     7
 79
     3
170
     0
171
     0
290
     0
174
     0
 93
       13
 44
0.0
173
     0
291
     0
 45
0.0
1001
ACAD
1000
AcDbSavedByObjectVersion
1070
     0
  0
DICTIONARYVAR
  5
84B8
102
{ACAD_REACTORS
330
84B3
102
}
330
84B3
100
DictionaryVariables
280
     0
  1
1:1
  0
DICTIONARYVAR
  5
84B5
102
{ACAD_REACTORS
330
84B3
102
}
330
84B3
100
DictionaryVariables
280
     0
  1
STANDARD
  0
DICTIONARYVAR
  5
84B4
102
{ACAD_REACTORS
330
84B3
102
}
330
84B3
100
DictionaryVariables
280
     0
  1
STANDARD
  0
DICTIONARYVAR
  5
84B6
102
{ACAD_REACTORS
330
84B3
102
}
330
84B3
100
DictionaryVariables
280
     0
  1
Imperial24
  0
DICTIONARYVAR
  5
84B7
102
{ACAD_REACTORS
330
84B3
102
}
330
84B3
100
DictionaryVariables
280
     0
  1
Imperial24
  0
DICTIONARYVAR
  5
84BB
102
{ACAD_REACTORS
330
84B3
102
}
330
84B3
100
DictionaryVariables
280
     0
  1
1
  0
DICTIONARYVAR
  5
84BA
102
{ACAD_REACTORS
330
84B3
102
}
330
84B3
100
DictionaryVariables
280
     0
  1
0
  0
DICTIONARYVAR
  5
84B9
102
{ACAD_REACTORS
330
84B3
102
}
330
84B3
100
DictionaryVariables
280
     0
  1
127
  0
DICTIONARYVAR
  5
84BC
102
{ACAD_REACTORS
330
84B3
102
}
330
84B3
100
DictionaryVariables
280
     0
  1
2
  0
DICTIONARY
  5
86AD
330
845E
100
AcDbDictionary
280
     1
281
     1
  3
ACAD_XREC_ROUNDTRIP
360
86AE
  0
DICTIONARY
  5
86B1
330
8466
100
AcDbDictionary
280
     1
281
     1
  3
ACAD_XREC_ROUNDTRIP
360
86B2
  0
DICTIONARY
  5
86AF
330
8462
100
AcDbDictionary
280
     1
281
     1
  3
ACAD_XREC_ROUNDTRIP
360
86B0
  0
DICTIONARY
  5
840E
330
840D
100
AcDbDictionary
280
     1
281
     1
  3
ACAD_XREC_ROUNDTRIP
360
8677
  3
BUMPTILE
360
8410
  3
DIFFUSETILE
360
840F
  3
OPACITYTILE
360
8413
  3
REFLECTIONTILE
360
8412
  3
REFRACTIONTILE
360
8414
  3
SPECULARTILE
360
8411
  0
DICTIONARY
  5
8406
330
8405
100
AcDbDictionary
280
     1
281
     1
  3
ACAD_XREC_ROUNDTRIP
360
8676
  3
BUMPTILE
360
8408
  3
DIFFUSETILE
360
8407
  3
OPACITYTILE
360
840B
  3
REFLECTIONTILE
360
840A
  3
REFRACTIONTILE
360
840C
  3
SPECULARTILE
360
8409
  0
DICTIONARY
  5
8416
330
8415
100
AcDbDictionary
280
     1
281
     1
  3
ACAD_XREC_ROUNDTRIP
360
8678
  3
BUMPTILE
360
8418
  3
DIFFUSETILE
360
8417
  3
OPACITYTILE
360
841B
  3
REFLECTIONTILE
360
841A
  3
REFRACTIONTILE
360
841C
  3
SPECULARTILE
360
8419
  0
DICTIONARY
  5
86AB
330
845C
100
AcDbDictionary
280
     1
281
     1
  3
ACAD_XREC_ROUNDTRIP
360
86AC
  0
DICTIONARY
  5
8672
330
8458
100
AcDbDictionary
280
     1
281
     1
  3
ACAD_ROUNDTRIP_2008_TABLESTYLE_CELLSTYLEMAP
360
8673
  3
ACAD_XREC_ROUNDTRIP
360
86A9
  0
DICTIONARY
  5
8683
330
8423
100
AcDbDictionary
280
     1
281
     1
  3
ACAD_XREC_ROUNDTRIP
360
8684
  0
DICTIONARY
  5
8681
330
8422
100
AcDbDictionary
280
     1
281
     1
  3
ACAD_XREC_ROUNDTRIP
360
8682
  0
DICTIONARY
  5
868F
330
8429
100
AcDbDictionary
280
     1
281
     1
  3
ACAD_XREC_ROUNDTRIP
360
8690
  0
DICTIONARY
  5
8697
330
842D
100
AcDbDictionary
280
     1
281
     1
  3
ACAD_XREC_ROUNDTRIP
360
8698
  0
DICTIONARY
  5
8689
330
8426
100
AcDbDictionary
280
     1
281
     1
  3
ACAD_XREC_ROUNDTRIP
360
868A
  0
DICTIONARY
  5
868D
330
8428
100
AcDbDictionary
280
     1
281
     1
  3
ACAD_XREC_ROUNDTRIP
360
868E
  0
DICTIONARY
  5
86A7
330
8435
100
AcDbDictionary
280
     1
281
     1
  3
ACAD_XREC_ROUNDTRIP
360
86A8
  0
DICTIONARY
  5
8695
330
842C
100
AcDbDictionary
280
     1
281
     1
  3
ACAD_XREC_ROUNDTRIP
360
8696
  0
DICTIONARY
  5
8679
330
841E
100
AcDbDictionary
280
     1
281
     1
  3
ACAD_XREC_ROUNDTRIP
360
867A
  0
DICTIONARY
  5
867B
330
841F
100
AcDbDictionary
280
     1
281
     1
  3
ACAD_XREC_ROUNDTRIP
360
867C
  0
DICTIONARY
  5
867D
330
8420
100
AcDbDictionary
280
     1
281
     1
  3
ACAD_XREC_ROUNDTRIP
360
867E
  0
DICTIONARY
  5
867F
330
8421
100
AcDbDictionary
280
     1
281
     1
  3
ACAD_XREC_ROUNDTRIP
360
8680
  0
DICTIONARY
  5
8687
330
8425
100
AcDbDictionary
280
     1
281
     1
  3
ACAD_XREC_ROUNDTRIP
360
8688
  0
DICTIONARY
  5
86A3
330
8433
100
AcDbDictionary
280
     1
281
     1
  3
ACAD_XREC_ROUNDTRIP
360
86A4
  0
DICTIONARY
  5
8693
330
842B
100
AcDbDictionary
280
     1
281
     1
  3
ACAD_XREC_ROUNDTRIP
360
8694
  0
DICTIONARY
  5
86A5
330
8434
100
AcDbDictionary
280
     1
281
     1
  3
ACAD_XREC_ROUNDTRIP
360
86A6
  0
DICTIONARY
  5
868B
330
8427
100
AcDbDictionary
280
     1
281
     1
  3
ACAD_XREC_ROUNDTRIP
360
868C
  0
DICTIONARY
  5
86A1
330
8432
100
AcDbDictionary
280
     1
281
     1
  3
ACAD_XREC_ROUNDTRIP
360
86A2
  0
DICTIONARY
  5
869F
330
8431
100
AcDbDictionary
280
     1
281
     1
  3
ACAD_XREC_ROUNDTRIP
360
86A0
  0
DICTIONARY
  5
8699
330
842E
100
AcDbDictionary
280
     1
281
     1
  3
ACAD_XREC_ROUNDTRIP
360
869A
  0
DICTIONARY
  5
869B
330
842F
100
AcDbDictionary
280
     1
281
     1
  3
ACAD_XREC_ROUNDTRIP
360
869C
  0
DICTIONARY
  5
8691
330
842A
100
AcDbDictionary
280
     1
281
     1
  3
ACAD_XREC_ROUNDTRIP
360
8692
  0
DICTIONARY
  5
8685
330
8424
100
AcDbDictionary
280
     1
281
     1
  3
ACAD_XREC_ROUNDTRIP
360
8686
  0
DICTIONARY
  5
869D
330
8430
100
AcDbDictionary
280
     1
281
     1
  3
ACAD_XREC_ROUNDTRIP
360
869E
  0
XRECORD
  5
86AE
102
{ACAD_REACTORS
330
86AD
102
}
330
86AD
100
AcDbXrecord
280
     1
102
DISPLAYNAME
  1
Imperial24
102
FLAGS
 90
        0
  0
XRECORD
  5
86B2
102
{ACAD_REACTORS
330
86B1
102
}
330
86B1
100
AcDbXrecord
280
     1
102
SHADEPLOT
 70
     0
102
SHADEPLOTRESLEVEL
 70
     2
102
SHADEPLOTCUSTOMDPI
 70
   300
  0
XRECORD
  5
86B0
102
{ACAD_REACTORS
330
86AF
102
}
330
86AF
100
AcDbXrecord
280
     1
102
SHADEPLOT
 70
     0
102
SHADEPLOTRESLEVEL
 70
     2
102
SHADEPLOTCUSTOMDPI
 70
   300
  0
XRECORD
  5
8677
102
{ACAD_REACTORS
330
840E
102
}
330
840E
100
AcDbXrecord
280
     1
102
MATERIAL
148
0.0
149
0.0
149
0.0
 93
        0
 94
      127
282
     0
 72
     0
 77
     0
171
     0
175
     0
179
     0
273
     0
  0
XRECORD
  5
8410
102
{ACAD_REACTORS
330
840E
102
}
330
840E
100
AcDbXrecord
280
     1
270
     1
271
     1
  0
XRECORD
  5
840F
102
{ACAD_REACTORS
330
840E
102
}
330
840E
100
AcDbXrecord
280
     1
270
     1
271
     1
  0
XRECORD
  5
8413
102
{ACAD_REACTORS
330
840E
102
}
330
840E
100
AcDbXrecord
280
     1
270
     1
271
     1
  0
XRECORD
  5
8412
102
{ACAD_REACTORS
330
840E
102
}
330
840E
100
AcDbXrecord
280
     1
270
     1
271
     1
  0
XRECORD
  5
8414
102
{ACAD_REACTORS
330
840E
102
}
330
840E
100
AcDbXrecord
280
     1
270
     1
271
     1
  0
XRECORD
  5
8411
102
{ACAD_REACTORS
330
840E
102
}
330
840E
100
AcDbXrecord
280
     1
270
     1
271
     1
  0
XRECORD
  5
8676
102
{ACAD_REACTORS
330
8406
102
}
330
8406
100
AcDbXrecord
280
     1
102
MATERIAL
148
0.0
149
0.0
149
0.0
 93
        0
 94
      127
282
     0
 72
     0
 77
     0
171
     0
175
     0
179
     0
273
     0
  0
XRECORD
  5
8408
102
{ACAD_REACTORS
330
8406
102
}
330
8406
100
AcDbXrecord
280
     1
270
     1
271
     1
  0
XRECORD
  5
8407
102
{ACAD_REACTORS
330
8406
102
}
330
8406
100
AcDbXrecord
280
     1
270
     1
271
     1
  0
XRECORD
  5
840B
102
{ACAD_REACTORS
330
8406
102
}
330
8406
100
AcDbXrecord
280
     1
270
     1
271
     1
  0
XRECORD
  5
840A
102
{ACAD_REACTORS
330
8406
102
}
330
8406
100
AcDbXrecord
280
     1
270
     1
271
     1
  0
XRECORD
  5
840C
102
{ACAD_REACTORS
330
8406
102
}
330
8406
100
AcDbXrecord
280
     1
270
     1
271
     1
  0
XRECORD
  5
8409
102
{ACAD_REACTORS
330
8406
102
}
330
8406
100
AcDbXrecord
280
     1
270
     1
271
     1
  0
XRECORD
  5
8678
102
{ACAD_REACTORS
330
8416
102
}
330
8416
100
AcDbXrecord
280
     1
102
MATERIAL
148
0.0
149
0.0
149
0.0
 93
        0
 94
      127
282
     0
 72
     0
 77
     0
171
     0
175
     0
179
     0
273
     0
  0
XRECORD
  5
8418
102
{ACAD_REACTORS
330
8416
102
}
330
8416
100
AcDbXrecord
280
     1
270
     1
271
     1
  0
XRECORD
  5
8417
102
{ACAD_REACTORS
330
8416
102
}
330
8416
100
AcDbXrecord
280
     1
270
     1
271
     1
  0
XRECORD
  5
841B
102
{ACAD_REACTORS
330
8416
102
}
330
8416
100
AcDbXrecord
280
     1
270
     1
271
     1
  0
XRECORD
  5
841A
102
{ACAD_REACTORS
330
8416
102
}
330
8416
100
AcDbXrecord
280
     1
270
     1
271
     1
  0
XRECORD
  5
841C
102
{ACAD_REACTORS
330
8416
102
}
330
8416
100
AcDbXrecord
280
     1
270
     1
271
     1
  0
XRECORD
  5
8419
102
{ACAD_REACTORS
330
8416
102
}
330
8416
100
AcDbXrecord
280
     1
270
     1
271
     1
  0
XRECORD
  5
86AC
102
{ACAD_REACTORS
330
86AB
102
}
330
86AB
100
AcDbXrecord
280
     1
102
DISPLAYNAME
  1
Imperial24
102
FLAGS
 90
        0
  0
CELLSTYLEMAP
  5
8673
102
{ACAD_REACTORS
330
8672
102
}
330
8672
100
AcDbCellStyleMap
 90
        3
300
CELLSTYLE
  1
TABLEFORMAT_BEGIN
 90
        5
170
     1
 91
        0
 92
    32768
 62
   257
 93
        1
300
CONTENTFORMAT
  1
CONTENTFORMAT_BEGIN
 90
        0
 91
        0
 92
      512
 93
        0
300

 40
0.0
140
1.0
 94
        5
 62
     0
340
8449
144
0.25
309
CONTENTFORMAT_END
171
     0
 94
        0
309
TABLEFORMAT_END
  1
CELLSTYLE_BEGIN
 90
        1
 91
        1
300
_TITLE
309
CELLSTYLE_END
300
CELLSTYLE
  1
TABLEFORMAT_BEGIN
 90
        5
170
     1
 91
        0
 92
        0
 62
   257
 93
        1
300
CONTENTFORMAT
  1
CONTENTFORMAT_BEGIN
 90
        0
 91
        0
 92
      512
 93
        0
300

 40
0.0
140
1.0
 94
        5
 62
     0
340
8449
144
0.18
309
CONTENTFORMAT_END
171
     0
 94
        0
309
TABLEFORMAT_END
  1
CELLSTYLE_BEGIN
 90
        2
 91
        1
300
_HEADER
309
CELLSTYLE_END
300
CELLSTYLE
  1
TABLEFORMAT_BEGIN
 90
        5
170
     1
 91
        0
 92
        0
 62
   257
 93
        1
300
CONTENTFORMAT
  1
CONTENTFORMAT_BEGIN
 90
        0
 91
        0
 92
      512
 93
        0
300

 40
0.0
140
1.0
 94
        2
 62
     0
340
8449
144
0.18
309
CONTENTFORMAT_END
171
     0
 94
        0
309
TABLEFORMAT_END
  1
CELLSTYLE_BEGIN
 90
        3
 91
        2
300
_DATA
309
CELLSTYLE_END
  0
XRECORD
  5
86A9
102
{ACAD_REACTORS
330
8672
102
}
330
8672
100
AcDbXrecord
280
     1
102
ACAD_ROUNDTRIP_PRE2007_TABLESTYLE
 90
      512
 91
        0
  1

 92
      512
 93
        0
  2

 94
      512
 95
        0
  3

  0
XRECORD
  5
8684
102
{ACAD_REACTORS
330
8683
102
}
330
8683
100
AcDbXrecord
280
     1
102
RTVSPost2010Prop28
280
     1
102
RTVSPost2010PropOp28
 70
     1
102
RTVSPost2010Prop29
280
     1
102
RTVSPost2010PropOp29
 70
     1
102
RTVSPost2010Prop30
280
     0
102
RTVSPost2010PropOp30
 70
     1
102
RTVSPost2010Prop31
280
     0
102
RTVSPost2010PropOp31
 70
     1
102
RTVSPost2010Prop32
280
     0
102
RTVSPost2010PropOp32
 70
     1
102
RTVSPost2010Prop33
280
     0
102
RTVSPost2010PropOp33
 70
     1
102
RTVSPost2010Prop34
280
     0
102
RTVSPost2010PropOp34
 70
     1
102
RTVSPost2010Prop35
280
     0
102
RTVSPost2010PropOp35
 70
     1
102
RTVSPost2010Prop36
280
     0
102
RTVSPost2010PropOp36
 70
     1
102
RTVSPost2010Prop37
 90
       50
102
RTVSPost2010PropOp37
 70
     1
102
RTVSPost2010Prop38
140
0.0
102
RTVSPost2010PropOp38
 70
     1
102
RTVSPost2010Prop39
140
1.0
102
RTVSPost2010PropOp39
 70
     1
102
RTVSPost2010Prop40
 90
        0
102
RTVSPost2010PropOp40
 70
     1
102
RTVSPost2010Prop41ColorIndex
 90
       18
102
RTVSPost2010Prop41ColorRGB
 90
        0
102
RTVSPost2010PropOp41
 70
     1
102
RTVSPost2010Prop42
 90
       50
102
RTVSPost2010PropOp42
 70
     1
102
RTVSPost2010Prop43
 90
        3
102
RTVSPost2010PropOp43
 70
     1
102
RTVSPost2010Prop44ColorIndex
 90
        5
102
RTVSPost2010Prop44ColorRGB
 90
      255
102
RTVSPost2010PropOp44
 70
     1
102
RTVSPost2010Prop45
280
     0
102
RTVSPost2010PropOp45
 70
     1
102
RTVSPost2010Prop46
 90
       50
102
RTVSPost2010PropOp46
 70
     1
102
RTVSPost2010Prop47
 90
       50
102
RTVSPost2010PropOp47
 70
     1
102
RTVSPost2010Prop48
 90
       50
102
RTVSPost2010PropOp48
 70
     1
102
RTVSPost2010Prop49
280
     0
102
RTVSPost2010PropOp49
 70
     1
102
RTVSPost2010Prop50
 90
       50
102
RTVSPost2010PropOp50
 70
     1
102
RTVSPost2010Prop51ColorIndex
 90
      256
102
RTVSPost2010Prop51ColorRGB
 90
-16777216
102
RTVSPost2010PropOp51
 70
     0
102
RTVSPost2010Prop52
140
1.0
102
RTVSPost2010PropOp52
 70
     0
102
RTVSPost2010Prop53
 90
        2
102
RTVSPost2010PropOp53
 70
     1
102
RTVSPost2010Prop54
  1
strokes_ogs.tif
102
RTVSPost2010PropOp54
 70
     1
102
RTVSPost2010Prop55
280
     0
102
RTVSPost2010PropOp55
 70
     1
102
RTVSPost2010Prop56
140
1.0
102
RTVSPost2010PropOp56
 70
     1
102
RTVSPost2010Prop57
140
1.0
102
RTVSPost2010PropOp57
 70
     1
102
RTVSPropertyOp0
 70
     1
102
RTVSPropertyOp1
 70
     1
102
RTVSPropertyOp2
 70
     1
102
RTVSPropertyOp3
 70
     1
102
RTVSPropertyOp4
 70
     1
102
RTVSPropertyOp5
 70
     1
102
RTVSPropertyOp6
 70
     1
102
RTVSPropertyOp7
 70
     1
102
RTVSPropertyOp8
 70
     1
102
RTVSPropertyOp9
 70
     1
102
RTVSPropertyOp10
 70
     1
102
RTVSPropertyOp11
 70
     1
102
RTVSPropertyOp12
 70
     1
102
RTVSPropertyOp13
 70
     1
102
RTVSPropertyOp14
 70
     1
102
RTVSPropertyOp15
 70
     1
102
RTVSPropertyOp16
 70
     1
102
RTVSPropertyOp17
 70
     1
102
RTVSPropertyOp18
 70
     1
102
RTVSPropertyOp19
 70
     1
102
RTVSPropertyOp20
 70
     1
102
RTVSPropertyOp21
 70
     1
102
RTVSPropertyOp22
 70
     1
102
RTVSPropertyOp23
 70
     1
102
RTVSPropertyOp24
 70
     1
102
RTVSPropertyOp25
 70
     1
102
RTVSPropertyOp26
 70
     1
102
RTVSPropertyOp27
 70
     1
102
RTVSPropertyOp28
 70
     1
102
RTVSPropertyOp29
 70
     1
102
RTVSPropertyOp30
 70
     1
102
RTVSPropertyOp31
 70
     1
102
RTVSPropertyOp32
 70
     1
102
RTVSPropertyOp33
 70
     1
102
RTVSPropertyOp34
 70
     1
102
RTVSPropertyOp35
 70
     1
102
RTVSPropertyOp36
 70
     1
102
RTVSPropertyOp37
 70
     1
102
RTVSPropertyOp38
 70
     1
102
RTVSPropertyOp39
 70
     1
102
RTVSPropertyOp40
 70
     1
102
RTVSPropertyOp41
 70
     1
102
RTVSPropertyOp42
 70
     1
102
RTVSPropertyOp43
 70
     1
102
RTVSPropertyOp44
 70
     1
102
RTVSPropertyOp45
 70
     1
102
RTVSPropertyOp46
 70
     1
102
RTVSPropertyOp47
 70
     1
102
RTVSPropertyOp48
 70
     1
102
RTVSPropertyOp49
 70
     1
102
RTVSPropertyOp50
 70
     1
102
RTVSPropertyOp51
 70
     0
102
RTVSPropertyOp52
 70
     0
102
RTVSPropertyOp53
 70
     1
102
RTVSPropertyOp54
 70
     1
102
RTVSPropertyOp55
 70
     1
102
RTVSPropertyOp56
 70
     1
102
RTVSPropertyOp57
 70
     1
102
RTVSPropertyOp58
 70
     1
102
RTVSPropertyOp59
 70
     1
102
RTVSPropertyOp60
 70
     1
102
RTVSPropertyOp61
 70
     1
102
RTVSPropertyOp62
 70
     1
  0
XRECORD
  5
8682
102
{ACAD_REACTORS
330
8681
102
}
330
8681
100
AcDbXrecord
280
     1
102
RTVSPost2010Prop28
280
     0
102
RTVSPost2010PropOp28
 70
     1
102
RTVSPost2010Prop29
280
     1
102
RTVSPost2010PropOp29
 70
     1
102
RTVSPost2010Prop30
280
     1
102
RTVSPost2010PropOp30
 70
     1
102
RTVSPost2010Prop31
280
     0
102
RTVSPost2010PropOp31
 70
     1
102
RTVSPost2010Prop32
280
     0
102
RTVSPost2010PropOp32
 70
     1
102
RTVSPost2010Prop33
280
     0
102
RTVSPost2010PropOp33
 70
     1
102
RTVSPost2010Prop34
280
     0
102
RTVSPost2010PropOp34
 70
     1
102
RTVSPost2010Prop35
280
     0
102
RTVSPost2010PropOp35
 70
     1
102
RTVSPost2010Prop36
280
     0
102
RTVSPost2010PropOp36
 70
     1
102
RTVSPost2010Prop37
 90
       50
102
RTVSPost2010PropOp37
 70
     1
102
RTVSPost2010Prop38
140
0.0
102
RTVSPost2010PropOp38
 70
     1
102
RTVSPost2010Prop39
140
1.0
102
RTVSPost2010PropOp39
 70
     1
102
RTVSPost2010Prop40
 90
        0
102
RTVSPost2010PropOp40
 70
     1
102
RTVSPost2010Prop41ColorIndex
 90
       18
102
RTVSPost2010Prop41ColorRGB
 90
        0
102
RTVSPost2010PropOp41
 70
     1
102
RTVSPost2010Prop42
 90
       50
102
RTVSPost2010PropOp42
 70
     1
102
RTVSPost2010Prop43
 90
        3
102
RTVSPost2010PropOp43
 70
     1
102
RTVSPost2010Prop44ColorIndex
 90
        5
102
RTVSPost2010Prop44ColorRGB
 90
      255
102
RTVSPost2010PropOp44
 70
     1
102
RTVSPost2010Prop45
280
     0
102
RTVSPost2010PropOp45
 70
     1
102
RTVSPost2010Prop46
 90
       50
102
RTVSPost2010PropOp46
 70
     1
102
RTVSPost2010Prop47
 90
       50
102
RTVSPost2010PropOp47
 70
     1
102
RTVSPost2010Prop48
 90
       50
102
RTVSPost2010PropOp48
 70
     1
102
RTVSPost2010Prop49
280
     0
102
RTVSPost2010PropOp49
 70
     1
102
RTVSPost2010Prop50
 90
       50
102
RTVSPost2010PropOp50
 70
     1
102
RTVSPost2010Prop51ColorIndex
 90
      256
102
RTVSPost2010Prop51ColorRGB
 90
-16777216
102
RTVSPost2010PropOp51
 70
     0
102
RTVSPost2010Prop52
140
1.0
102
RTVSPost2010PropOp52
 70
     0
102
RTVSPost2010Prop53
 90
        2
102
RTVSPost2010PropOp53
 70
     1
102
RTVSPost2010Prop54
  1
strokes_ogs.tif
102
RTVSPost2010PropOp54
 70
     1
102
RTVSPost2010Prop55
280
     0
102
RTVSPost2010PropOp55
 70
     1
102
RTVSPost2010Prop56
140
1.0
102
RTVSPost2010PropOp56
 70
     1
102
RTVSPost2010Prop57
140
1.0
102
RTVSPost2010PropOp57
 70
     1
102
RTVSPropertyOp0
 70
     1
102
RTVSPropertyOp1
 70
     1
102
RTVSPropertyOp2
 70
     1
102
RTVSPropertyOp3
 70
     1
102
RTVSPropertyOp4
 70
     1
102
RTVSPropertyOp5
 70
     1
102
RTVSPropertyOp6
 70
     1
102
RTVSPropertyOp7
 70
     1
102
RTVSPropertyOp8
 70
     1
102
RTVSPropertyOp9
 70
     1
102
RTVSPropertyOp10
 70
     1
102
RTVSPropertyOp11
 70
     1
102
RTVSPropertyOp12
 70
     1
102
RTVSPropertyOp13
 70
     1
102
RTVSPropertyOp14
 70
     1
102
RTVSPropertyOp15
 70
     1
102
RTVSPropertyOp16
 70
     1
102
RTVSPropertyOp17
 70
     1
102
RTVSPropertyOp18
 70
     1
102
RTVSPropertyOp19
 70
     1
102
RTVSPropertyOp20
 70
     1
102
RTVSPropertyOp21
 70
     1
102
RTVSPropertyOp22
 70
     1
102
RTVSPropertyOp23
 70
     1
102
RTVSPropertyOp24
 70
     1
102
RTVSPropertyOp25
 70
     1
102
RTVSPropertyOp26
 70
     1
102
RTVSPropertyOp27
 70
     1
102
RTVSPropertyOp28
 70
     1
102
RTVSPropertyOp29
 70
     1
102
RTVSPropertyOp30
 70
     1
102
RTVSPropertyOp31
 70
     1
102
RTVSPropertyOp32
 70
     1
102
RTVSPropertyOp33
 70
     1
102
RTVSPropertyOp34
 70
     1
102
RTVSPropertyOp35
 70
     1
102
RTVSPropertyOp36
 70
     1
102
RTVSPropertyOp37
 70
     1
102
RTVSPropertyOp38
 70
     1
102
RTVSPropertyOp39
 70
     1
102
RTVSPropertyOp40
 70
     1
102
RTVSPropertyOp41
 70
     1
102
RTVSPropertyOp42
 70
     1
102
RTVSPropertyOp43
 70
     1
102
RTVSPropertyOp44
 70
     1
102
RTVSPropertyOp45
 70
     1
102
RTVSPropertyOp46
 70
     1
102
RTVSPropertyOp47
 70
     1
102
RTVSPropertyOp48
 70
     1
102
RTVSPropertyOp49
 70
     1
102
RTVSPropertyOp50
 70
     1
102
RTVSPropertyOp51
 70
     0
102
RTVSPropertyOp52
 70
     0
102
RTVSPropertyOp53
 70
     1
102
RTVSPropertyOp54
 70
     1
102
RTVSPropertyOp55
 70
     1
102
RTVSPropertyOp56
 70
     1
102
RTVSPropertyOp57
 70
     1
102
RTVSPropertyOp58
 70
     1
102
RTVSPropertyOp59
 70
     1
102
RTVSPropertyOp60
 70
     1
102
RTVSPropertyOp61
 70
     1
102
RTVSPropertyOp62
 70
     1
  0
XRECORD
  5
8690
102
{ACAD_REACTORS
330
868F
102
}
330
868F
100
AcDbXrecord
280
     1
102
RTVSPost2010Prop28
280
     0
102
RTVSPost2010PropOp28
 70
     1
102
RTVSPost2010Prop29
280
     1
102
RTVSPost2010PropOp29
 70
     1
102
RTVSPost2010Prop30
280
     1
102
RTVSPost2010PropOp30
 70
     1
102
RTVSPost2010Prop31
280
     0
102
RTVSPost2010PropOp31
 70
     1
102
RTVSPost2010Prop32
280
     0
102
RTVSPost2010PropOp32
 70
     1
102
RTVSPost2010Prop33
280
     0
102
RTVSPost2010PropOp33
 70
     1
102
RTVSPost2010Prop34
280
     0
102
RTVSPost2010PropOp34
 70
     1
102
RTVSPost2010Prop35
280
     0
102
RTVSPost2010PropOp35
 70
     1
102
RTVSPost2010Prop36
280
     0
102
RTVSPost2010PropOp36
 70
     1
102
RTVSPost2010Prop37
 90
       50
102
RTVSPost2010PropOp37
 70
     1
102
RTVSPost2010Prop38
140
0.0
102
RTVSPost2010PropOp38
 70
     1
102
RTVSPost2010Prop39
140
1.0
102
RTVSPost2010PropOp39
 70
     1
102
RTVSPost2010Prop40
 90
        0
102
RTVSPost2010PropOp40
 70
     1
102
RTVSPost2010Prop41ColorIndex
 90
       18
102
RTVSPost2010Prop41ColorRGB
 90
        0
102
RTVSPost2010PropOp41
 70
     1
102
RTVSPost2010Prop42
 90
       50
102
RTVSPost2010PropOp42
 70
     1
102
RTVSPost2010Prop43
 90
        3
102
RTVSPost2010PropOp43
 70
     1
102
RTVSPost2010Prop44ColorIndex
 90
        5
102
RTVSPost2010Prop44ColorRGB
 90
      255
102
RTVSPost2010PropOp44
 70
     1
102
RTVSPost2010Prop45
280
     0
102
RTVSPost2010PropOp45
 70
     1
102
RTVSPost2010Prop46
 90
       50
102
RTVSPost2010PropOp46
 70
     1
102
RTVSPost2010Prop47
 90
       50
102
RTVSPost2010PropOp47
 70
     1
102
RTVSPost2010Prop48
 90
       50
102
RTVSPost2010PropOp48
 70
     1
102
RTVSPost2010Prop49
280
     0
102
RTVSPost2010PropOp49
 70
     1
102
RTVSPost2010Prop50
 90
       50
102
RTVSPost2010PropOp50
 70
     1
102
RTVSPost2010Prop51ColorIndex
 90
      256
102
RTVSPost2010Prop51ColorRGB
 90
-16777216
102
RTVSPost2010PropOp51
 70
     0
102
RTVSPost2010Prop52
140
1.0
102
RTVSPost2010PropOp52
 70
     0
102
RTVSPost2010Prop53
 90
        2
102
RTVSPost2010PropOp53
 70
     1
102
RTVSPost2010Prop54
  1
strokes_ogs.tif
102
RTVSPost2010PropOp54
 70
     1
102
RTVSPost2010Prop55
280
     0
102
RTVSPost2010PropOp55
 70
     1
102
RTVSPost2010Prop56
140
1.0
102
RTVSPost2010PropOp56
 70
     1
102
RTVSPost2010Prop57
140
1.0
102
RTVSPost2010PropOp57
 70
     1
102
RTVSPropertyOp0
 70
     1
102
RTVSPropertyOp1
 70
     1
102
RTVSPropertyOp2
 70
     1
102
RTVSPropertyOp3
 70
     1
102
RTVSPropertyOp4
 70
     1
102
RTVSPropertyOp5
 70
     1
102
RTVSPropertyOp6
 70
     1
102
RTVSPropertyOp7
 70
     1
102
RTVSPropertyOp8
 70
     1
102
RTVSPropertyOp9
 70
     1
102
RTVSPropertyOp10
 70
     1
102
RTVSPropertyOp11
 70
     1
102
RTVSPropertyOp12
 70
     1
102
RTVSPropertyOp13
 70
     1
102
RTVSPropertyOp14
 70
     1
102
RTVSPropertyOp15
 70
     1
102
RTVSPropertyOp16
 70
     1
102
RTVSPropertyOp17
 70
     1
102
RTVSPropertyOp18
 70
     1
102
RTVSPropertyOp19
 70
     1
102
RTVSPropertyOp20
 70
     1
102
RTVSPropertyOp21
 70
     1
102
RTVSPropertyOp22
 70
     1
102
RTVSPropertyOp23
 70
     1
102
RTVSPropertyOp24
 70
     1
102
RTVSPropertyOp25
 70
     1
102
RTVSPropertyOp26
 70
     1
102
RTVSPropertyOp27
 70
     1
102
RTVSPropertyOp28
 70
     1
102
RTVSPropertyOp29
 70
     1
102
RTVSPropertyOp30
 70
     1
102
RTVSPropertyOp31
 70
     1
102
RTVSPropertyOp32
 70
     1
102
RTVSPropertyOp33
 70
     1
102
RTVSPropertyOp34
 70
     1
102
RTVSPropertyOp35
 70
     1
102
RTVSPropertyOp36
 70
     1
102
RTVSPropertyOp37
 70
     1
102
RTVSPropertyOp38
 70
     1
102
RTVSPropertyOp39
 70
     1
102
RTVSPropertyOp40
 70
     1
102
RTVSPropertyOp41
 70
     1
102
RTVSPropertyOp42
 70
     1
102
RTVSPropertyOp43
 70
     1
102
RTVSPropertyOp44
 70
     1
102
RTVSPropertyOp45
 70
     1
102
RTVSPropertyOp46
 70
     1
102
RTVSPropertyOp47
 70
     1
102
RTVSPropertyOp48
 70
     1
102
RTVSPropertyOp49
 70
     1
102
RTVSPropertyOp50
 70
     1
102
RTVSPropertyOp51
 70
     0
102
RTVSPropertyOp52
 70
     0
102
RTVSPropertyOp53
 70
     1
102
RTVSPropertyOp54
 70
     1
102
RTVSPropertyOp55
 70
     1
102
RTVSPropertyOp56
 70
     1
102
RTVSPropertyOp57
 70
     1
102
RTVSPropertyOp58
 70
     1
102
RTVSPropertyOp59
 70
     1
102
RTVSPropertyOp60
 70
     1
102
RTVSPropertyOp61
 70
     1
102
RTVSPropertyOp62
 70
     1
  0
XRECORD
  5
8698
102
{ACAD_REACTORS
330
8697
102
}
330
8697
100
AcDbXrecord
280
     1
102
RTVSPost2010Prop28
280
     0
102
RTVSPost2010PropOp28
 70
     1
102
RTVSPost2010Prop29
280
     1
102
RTVSPost2010PropOp29
 70
     1
102
RTVSPost2010Prop30
280
     1
102
RTVSPost2010PropOp30
 70
     1
102
RTVSPost2010Prop31
280
     0
102
RTVSPost2010PropOp31
 70
     1
102
RTVSPost2010Prop32
280
     0
102
RTVSPost2010PropOp32
 70
     1
102
RTVSPost2010Prop33
280
     0
102
RTVSPost2010PropOp33
 70
     1
102
RTVSPost2010Prop34
280
     0
102
RTVSPost2010PropOp34
 70
     1
102
RTVSPost2010Prop35
280
     0
102
RTVSPost2010PropOp35
 70
     1
102
RTVSPost2010Prop36
280
     0
102
RTVSPost2010PropOp36
 70
     1
102
RTVSPost2010Prop37
 90
       50
102
RTVSPost2010PropOp37
 70
     1
102
RTVSPost2010Prop38
140
0.0
102
RTVSPost2010PropOp38
 70
     1
102
RTVSPost2010Prop39
140
1.0
102
RTVSPost2010PropOp39
 70
     1
102
RTVSPost2010Prop40
 90
        0
102
RTVSPost2010PropOp40
 70
     1
102
RTVSPost2010Prop41ColorIndex
 90
       18
102
RTVSPost2010Prop41ColorRGB
 90
        0
102
RTVSPost2010PropOp41
 70
     1
102
RTVSPost2010Prop42
 90
       50
102
RTVSPost2010PropOp42
 70
     1
102
RTVSPost2010Prop43
 90
        3
102
RTVSPost2010PropOp43
 70
     1
102
RTVSPost2010Prop44ColorIndex
 90
        5
102
RTVSPost2010Prop44ColorRGB
 90
      255
102
RTVSPost2010PropOp44
 70
     1
102
RTVSPost2010Prop45
280
     0
102
RTVSPost2010PropOp45
 70
     1
102
RTVSPost2010Prop46
 90
       50
102
RTVSPost2010PropOp46
 70
     1
102
RTVSPost2010Prop47
 90
       50
102
RTVSPost2010PropOp47
 70
     1
102
RTVSPost2010Prop48
 90
       50
102
RTVSPost2010PropOp48
 70
     1
102
RTVSPost2010Prop49
280
     0
102
RTVSPost2010PropOp49
 70
     1
102
RTVSPost2010Prop50
 90
       50
102
RTVSPost2010PropOp50
 70
     1
102
RTVSPost2010Prop51ColorIndex
 90
      256
102
RTVSPost2010Prop51ColorRGB
 90
-16777216
102
RTVSPost2010PropOp51
 70
     0
102
RTVSPost2010Prop52
140
1.0
102
RTVSPost2010PropOp52
 70
     0
102
RTVSPost2010Prop53
 90
        2
102
RTVSPost2010PropOp53
 70
     1
102
RTVSPost2010Prop54
  1
strokes_ogs.tif
102
RTVSPost2010PropOp54
 70
     1
102
RTVSPost2010Prop55
280
     0
102
RTVSPost2010PropOp55
 70
     1
102
RTVSPost2010Prop56
140
1.0
102
RTVSPost2010PropOp56
 70
     1
102
RTVSPost2010Prop57
140
1.0
102
RTVSPost2010PropOp57
 70
     1
102
RTVSPropertyOp0
 70
     1
102
RTVSPropertyOp1
 70
     1
102
RTVSPropertyOp2
 70
     1
102
RTVSPropertyOp3
 70
     1
102
RTVSPropertyOp4
 70
     1
102
RTVSPropertyOp5
 70
     1
102
RTVSPropertyOp6
 70
     1
102
RTVSPropertyOp7
 70
     1
102
RTVSPropertyOp8
 70
     1
102
RTVSPropertyOp9
 70
     1
102
RTVSPropertyOp10
 70
     1
102
RTVSPropertyOp11
 70
     1
102
RTVSPropertyOp12
 70
     1
102
RTVSPropertyOp13
 70
     1
102
RTVSPropertyOp14
 70
     1
102
RTVSPropertyOp15
 70
     1
102
RTVSPropertyOp16
 70
     1
102
RTVSPropertyOp17
 70
     1
102
RTVSPropertyOp18
 70
     1
102
RTVSPropertyOp19
 70
     1
102
RTVSPropertyOp20
 70
     1
102
RTVSPropertyOp21
 70
     1
102
RTVSPropertyOp22
 70
     1
102
RTVSPropertyOp23
 70
     1
102
RTVSPropertyOp24
 70
     1
102
RTVSPropertyOp25
 70
     1
102
RTVSPropertyOp26
 70
     1
102
RTVSPropertyOp27
 70
     1
102
RTVSPropertyOp28
 70
     1
102
RTVSPropertyOp29
 70
     1
102
RTVSPropertyOp30
 70
     1
102
RTVSPropertyOp31
 70
     1
102
RTVSPropertyOp32
 70
     1
102
RTVSPropertyOp33
 70
     1
102
RTVSPropertyOp34
 70
     1
102
RTVSPropertyOp35
 70
     1
102
RTVSPropertyOp36
 70
     1
102
RTVSPropertyOp37
 70
     1
102
RTVSPropertyOp38
 70
     1
102
RTVSPropertyOp39
 70
     1
102
RTVSPropertyOp40
 70
     1
102
RTVSPropertyOp41
 70
     1
102
RTVSPropertyOp42
 70
     1
102
RTVSPropertyOp43
 70
     1
102
RTVSPropertyOp44
 70
     1
102
RTVSPropertyOp45
 70
     1
102
RTVSPropertyOp46
 70
     1
102
RTVSPropertyOp47
 70
     1
102
RTVSPropertyOp48
 70
     1
102
RTVSPropertyOp49
 70
     1
102
RTVSPropertyOp50
 70
     1
102
RTVSPropertyOp51
 70
     0
102
RTVSPropertyOp52
 70
     0
102
RTVSPropertyOp53
 70
     1
102
RTVSPropertyOp54
 70
     1
102
RTVSPropertyOp55
 70
     1
102
RTVSPropertyOp56
 70
     1
102
RTVSPropertyOp57
 70
     1
102
RTVSPropertyOp58
 70
     1
102
RTVSPropertyOp59
 70
     1
102
RTVSPropertyOp60
 70
     1
102
RTVSPropertyOp61
 70
     1
102
RTVSPropertyOp62
 70
     1
  0
XRECORD
  5
868A
102
{ACAD_REACTORS
330
8689
102
}
330
8689
100
AcDbXrecord
280
     1
102
RTVSPost2010Prop28
280
     0
102
RTVSPost2010PropOp28
 70
     1
102
RTVSPost2010Prop29
280
     1
102
RTVSPost2010PropOp29
 70
     1
102
RTVSPost2010Prop30
280
     1
102
RTVSPost2010PropOp30
 70
     1
102
RTVSPost2010Prop31
280
     0
102
RTVSPost2010PropOp31
 70
     1
102
RTVSPost2010Prop32
280
     0
102
RTVSPost2010PropOp32
 70
     1
102
RTVSPost2010Prop33
280
     0
102
RTVSPost2010PropOp33
 70
     1
102
RTVSPost2010Prop34
280
     0
102
RTVSPost2010PropOp34
 70
     1
102
RTVSPost2010Prop35
280
     0
102
RTVSPost2010PropOp35
 70
     1
102
RTVSPost2010Prop36
280
     0
102
RTVSPost2010PropOp36
 70
     1
102
RTVSPost2010Prop37
 90
       50
102
RTVSPost2010PropOp37
 70
     1
102
RTVSPost2010Prop38
140
0.0
102
RTVSPost2010PropOp38
 70
     1
102
RTVSPost2010Prop39
140
1.0
102
RTVSPost2010PropOp39
 70
     1
102
RTVSPost2010Prop40
 90
        0
102
RTVSPost2010PropOp40
 70
     1
102
RTVSPost2010Prop41ColorIndex
 90
       18
102
RTVSPost2010Prop41ColorRGB
 90
        0
102
RTVSPost2010PropOp41
 70
     1
102
RTVSPost2010Prop42
 90
       50
102
RTVSPost2010PropOp42
 70
     1
102
RTVSPost2010Prop43
 90
        3
102
RTVSPost2010PropOp43
 70
     1
102
RTVSPost2010Prop44ColorIndex
 90
        5
102
RTVSPost2010Prop44ColorRGB
 90
      255
102
RTVSPost2010PropOp44
 70
     1
102
RTVSPost2010Prop45
280
     0
102
RTVSPost2010PropOp45
 70
     1
102
RTVSPost2010Prop46
 90
       50
102
RTVSPost2010PropOp46
 70
     1
102
RTVSPost2010Prop47
 90
       50
102
RTVSPost2010PropOp47
 70
     1
102
RTVSPost2010Prop48
 90
       50
102
RTVSPost2010PropOp48
 70
     1
102
RTVSPost2010Prop49
280
     0
102
RTVSPost2010PropOp49
 70
     1
102
RTVSPost2010Prop50
 90
       50
102
RTVSPost2010PropOp50
 70
     1
102
RTVSPost2010Prop51ColorIndex
 90
      256
102
RTVSPost2010Prop51ColorRGB
 90
-16777216
102
RTVSPost2010PropOp51
 70
     0
102
RTVSPost2010Prop52
140
1.0
102
RTVSPost2010PropOp52
 70
     0
102
RTVSPost2010Prop53
 90
        2
102
RTVSPost2010PropOp53
 70
     1
102
RTVSPost2010Prop54
  1
strokes_ogs.tif
102
RTVSPost2010PropOp54
 70
     1
102
RTVSPost2010Prop55
280
     0
102
RTVSPost2010PropOp55
 70
     1
102
RTVSPost2010Prop56
140
1.0
102
RTVSPost2010PropOp56
 70
     1
102
RTVSPost2010Prop57
140
1.0
102
RTVSPost2010PropOp57
 70
     1
102
RTVSPropertyOp0
 70
     1
102
RTVSPropertyOp1
 70
     1
102
RTVSPropertyOp2
 70
     1
102
RTVSPropertyOp3
 70
     1
102
RTVSPropertyOp4
 70
     1
102
RTVSPropertyOp5
 70
     1
102
RTVSPropertyOp6
 70
     1
102
RTVSPropertyOp7
 70
     1
102
RTVSPropertyOp8
 70
     1
102
RTVSPropertyOp9
 70
     1
102
RTVSPropertyOp10
 70
     1
102
RTVSPropertyOp11
 70
     1
102
RTVSPropertyOp12
 70
     1
102
RTVSPropertyOp13
 70
     1
102
RTVSPropertyOp14
 70
     1
102
RTVSPropertyOp15
 70
     1
102
RTVSPropertyOp16
 70
     1
102
RTVSPropertyOp17
 70
     1
102
RTVSPropertyOp18
 70
     1
102
RTVSPropertyOp19
 70
     1
102
RTVSPropertyOp20
 70
     1
102
RTVSPropertyOp21
 70
     1
102
RTVSPropertyOp22
 70
     1
102
RTVSPropertyOp23
 70
     1
102
RTVSPropertyOp24
 70
     1
102
RTVSPropertyOp25
 70
     1
102
RTVSPropertyOp26
 70
     1
102
RTVSPropertyOp27
 70
     1
102
RTVSPropertyOp28
 70
     1
102
RTVSPropertyOp29
 70
     1
102
RTVSPropertyOp30
 70
     1
102
RTVSPropertyOp31
 70
     1
102
RTVSPropertyOp32
 70
     1
102
RTVSPropertyOp33
 70
     1
102
RTVSPropertyOp34
 70
     1
102
RTVSPropertyOp35
 70
     1
102
RTVSPropertyOp36
 70
     1
102
RTVSPropertyOp37
 70
     1
102
RTVSPropertyOp38
 70
     1
102
RTVSPropertyOp39
 70
     1
102
RTVSPropertyOp40
 70
     1
102
RTVSPropertyOp41
 70
     1
102
RTVSPropertyOp42
 70
     1
102
RTVSPropertyOp43
 70
     1
102
RTVSPropertyOp44
 70
     1
102
RTVSPropertyOp45
 70
     1
102
RTVSPropertyOp46
 70
     1
102
RTVSPropertyOp47
 70
     1
102
RTVSPropertyOp48
 70
     1
102
RTVSPropertyOp49
 70
     1
102
RTVSPropertyOp50
 70
     1
102
RTVSPropertyOp51
 70
     0
102
RTVSPropertyOp52
 70
     0
102
RTVSPropertyOp53
 70
     1
102
RTVSPropertyOp54
 70
     1
102
RTVSPropertyOp55
 70
     1
102
RTVSPropertyOp56
 70
     1
102
RTVSPropertyOp57
 70
     1
102
RTVSPropertyOp58
 70
     1
102
RTVSPropertyOp59
 70
     1
102
RTVSPropertyOp60
 70
     1
102
RTVSPropertyOp61
 70
     1
102
RTVSPropertyOp62
 70
     1
  0
XRECORD
  5
868E
102
{ACAD_REACTORS
330
868D
102
}
330
868D
100
AcDbXrecord
280
     1
102
RTVSPost2010Prop28
280
     0
102
RTVSPost2010PropOp28
 70
     1
102
RTVSPost2010Prop29
280
     1
102
RTVSPost2010PropOp29
 70
     1
102
RTVSPost2010Prop30
280
     1
102
RTVSPost2010PropOp30
 70
     1
102
RTVSPost2010Prop31
280
     0
102
RTVSPost2010PropOp31
 70
     1
102
RTVSPost2010Prop32
280
     0
102
RTVSPost2010PropOp32
 70
     1
102
RTVSPost2010Prop33
280
     0
102
RTVSPost2010PropOp33
 70
     1
102
RTVSPost2010Prop34
280
     0
102
RTVSPost2010PropOp34
 70
     1
102
RTVSPost2010Prop35
280
     0
102
RTVSPost2010PropOp35
 70
     1
102
RTVSPost2010Prop36
280
     0
102
RTVSPost2010PropOp36
 70
     1
102
RTVSPost2010Prop37
 90
       50
102
RTVSPost2010PropOp37
 70
     1
102
RTVSPost2010Prop38
140
0.0
102
RTVSPost2010PropOp38
 70
     1
102
RTVSPost2010Prop39
140
1.0
102
RTVSPost2010PropOp39
 70
     1
102
RTVSPost2010Prop40
 90
        0
102
RTVSPost2010PropOp40
 70
     1
102
RTVSPost2010Prop41ColorIndex
 90
       18
102
RTVSPost2010Prop41ColorRGB
 90
        0
102
RTVSPost2010PropOp41
 70
     1
102
RTVSPost2010Prop42
 90
       50
102
RTVSPost2010PropOp42
 70
     1
102
RTVSPost2010Prop43
 90
        3
102
RTVSPost2010PropOp43
 70
     1
102
RTVSPost2010Prop44ColorIndex
 90
        5
102
RTVSPost2010Prop44ColorRGB
 90
      255
102
RTVSPost2010PropOp44
 70
     1
102
RTVSPost2010Prop45
280
     0
102
RTVSPost2010PropOp45
 70
     1
102
RTVSPost2010Prop46
 90
       50
102
RTVSPost2010PropOp46
 70
     1
102
RTVSPost2010Prop47
 90
       50
102
RTVSPost2010PropOp47
 70
     1
102
RTVSPost2010Prop48
 90
       50
102
RTVSPost2010PropOp48
 70
     1
102
RTVSPost2010Prop49
280
     0
102
RTVSPost2010PropOp49
 70
     1
102
RTVSPost2010Prop50
 90
       50
102
RTVSPost2010PropOp50
 70
     1
102
RTVSPost2010Prop51ColorIndex
 90
      256
102
RTVSPost2010Prop51ColorRGB
 90
-16777216
102
RTVSPost2010PropOp51
 70
     0
102
RTVSPost2010Prop52
140
1.0
102
RTVSPost2010PropOp52
 70
     0
102
RTVSPost2010Prop53
 90
        2
102
RTVSPost2010PropOp53
 70
     1
102
RTVSPost2010Prop54
  1
strokes_ogs.tif
102
RTVSPost2010PropOp54
 70
     1
102
RTVSPost2010Prop55
280
     0
102
RTVSPost2010PropOp55
 70
     1
102
RTVSPost2010Prop56
140
1.0
102
RTVSPost2010PropOp56
 70
     1
102
RTVSPost2010Prop57
140
1.0
102
RTVSPost2010PropOp57
 70
     1
102
RTVSPropertyOp0
 70
     1
102
RTVSPropertyOp1
 70
     1
102
RTVSPropertyOp2
 70
     1
102
RTVSPropertyOp3
 70
     1
102
RTVSPropertyOp4
 70
     1
102
RTVSPropertyOp5
 70
     1
102
RTVSPropertyOp6
 70
     1
102
RTVSPropertyOp7
 70
     1
102
RTVSPropertyOp8
 70
     1
102
RTVSPropertyOp9
 70
     1
102
RTVSPropertyOp10
 70
     1
102
RTVSPropertyOp11
 70
     1
102
RTVSPropertyOp12
 70
     1
102
RTVSPropertyOp13
 70
     1
102
RTVSPropertyOp14
 70
     1
102
RTVSPropertyOp15
 70
     1
102
RTVSPropertyOp16
 70
     1
102
RTVSPropertyOp17
 70
     1
102
RTVSPropertyOp18
 70
     1
102
RTVSPropertyOp19
 70
     1
102
RTVSPropertyOp20
 70
     1
102
RTVSPropertyOp21
 70
     1
102
RTVSPropertyOp22
 70
     1
102
RTVSPropertyOp23
 70
     1
102
RTVSPropertyOp24
 70
     1
102
RTVSPropertyOp25
 70
     1
102
RTVSPropertyOp26
 70
     1
102
RTVSPropertyOp27
 70
     1
102
RTVSPropertyOp28
 70
     1
102
RTVSPropertyOp29
 70
     1
102
RTVSPropertyOp30
 70
     1
102
RTVSPropertyOp31
 70
     1
102
RTVSPropertyOp32
 70
     1
102
RTVSPropertyOp33
 70
     1
102
RTVSPropertyOp34
 70
     1
102
RTVSPropertyOp35
 70
     1
102
RTVSPropertyOp36
 70
     1
102
RTVSPropertyOp37
 70
     1
102
RTVSPropertyOp38
 70
     1
102
RTVSPropertyOp39
 70
     1
102
RTVSPropertyOp40
 70
     1
102
RTVSPropertyOp41
 70
     1
102
RTVSPropertyOp42
 70
     1
102
RTVSPropertyOp43
 70
     1
102
RTVSPropertyOp44
 70
     1
102
RTVSPropertyOp45
 70
     1
102
RTVSPropertyOp46
 70
     1
102
RTVSPropertyOp47
 70
     1
102
RTVSPropertyOp48
 70
     1
102
RTVSPropertyOp49
 70
     1
102
RTVSPropertyOp50
 70
     1
102
RTVSPropertyOp51
 70
     0
102
RTVSPropertyOp52
 70
     0
102
RTVSPropertyOp53
 70
     1
102
RTVSPropertyOp54
 70
     1
102
RTVSPropertyOp55
 70
     1
102
RTVSPropertyOp56
 70
     1
102
RTVSPropertyOp57
 70
     1
102
RTVSPropertyOp58
 70
     1
102
RTVSPropertyOp59
 70
     1
102
RTVSPropertyOp60
 70
     1
102
RTVSPropertyOp61
 70
     1
102
RTVSPropertyOp62
 70
     1
  0
XRECORD
  5
86A8
102
{ACAD_REACTORS
330
86A7
102
}
330
86A7
100
AcDbXrecord
280
     1
102
RTVSPost2010Prop28
280
     0
102
RTVSPost2010PropOp28
 70
     1
102
RTVSPost2010Prop29
280
     1
102
RTVSPost2010PropOp29
 70
     1
102
RTVSPost2010Prop30
280
     1
102
RTVSPost2010PropOp30
 70
     1
102
RTVSPost2010Prop31
280
     0
102
RTVSPost2010PropOp31
 70
     1
102
RTVSPost2010Prop32
280
     0
102
RTVSPost2010PropOp32
 70
     1
102
RTVSPost2010Prop33
280
     0
102
RTVSPost2010PropOp33
 70
     1
102
RTVSPost2010Prop34
280
     0
102
RTVSPost2010PropOp34
 70
     1
102
RTVSPost2010Prop35
280
     0
102
RTVSPost2010PropOp35
 70
     1
102
RTVSPost2010Prop36
280
     0
102
RTVSPost2010PropOp36
 70
     1
102
RTVSPost2010Prop37
 90
       50
102
RTVSPost2010PropOp37
 70
     0
102
RTVSPost2010Prop38
140
0.0
102
RTVSPost2010PropOp38
 70
     0
102
RTVSPost2010Prop39
140
1.0
102
RTVSPost2010PropOp39
 70
     0
102
RTVSPost2010Prop40
 90
        0
102
RTVSPost2010PropOp40
 70
     0
102
RTVSPost2010Prop41ColorIndex
 90
       18
102
RTVSPost2010Prop41ColorRGB
 90
        0
102
RTVSPost2010PropOp41
 70
     0
102
RTVSPost2010Prop42
 90
       50
102
RTVSPost2010PropOp42
 70
     0
102
RTVSPost2010Prop43
 90
        3
102
RTVSPost2010PropOp43
 70
     0
102
RTVSPost2010Prop44ColorIndex
 90
        5
102
RTVSPost2010Prop44ColorRGB
 90
      255
102
RTVSPost2010PropOp44
 70
     0
102
RTVSPost2010Prop45
280
     0
102
RTVSPost2010PropOp45
 70
     1
102
RTVSPost2010Prop46
 90
       50
102
RTVSPost2010PropOp46
 70
     0
102
RTVSPost2010Prop47
 90
       50
102
RTVSPost2010PropOp47
 70
     0
102
RTVSPost2010Prop48
 90
       50
102
RTVSPost2010PropOp48
 70
     0
102
RTVSPost2010Prop49
280
     0
102
RTVSPost2010PropOp49
 70
     1
102
RTVSPost2010Prop50
 90
       50
102
RTVSPost2010PropOp50
 70
     0
102
RTVSPost2010Prop51ColorIndex
 90
      256
102
RTVSPost2010Prop51ColorRGB
 90
-16777216
102
RTVSPost2010PropOp51
 70
     0
102
RTVSPost2010Prop52
140
1.0
102
RTVSPost2010PropOp52
 70
     0
102
RTVSPost2010Prop53
 90
        2
102
RTVSPost2010PropOp53
 70
     0
102
RTVSPost2010Prop54
  1
strokes_ogs.tif
102
RTVSPost2010PropOp54
 70
     0
102
RTVSPost2010Prop55
280
     0
102
RTVSPost2010PropOp55
 70
     1
102
RTVSPost2010Prop56
140
1.0
102
RTVSPost2010PropOp56
 70
     0
102
RTVSPost2010Prop57
140
1.0
102
RTVSPost2010PropOp57
 70
     0
102
RTVSPropertyOp0
 70
     0
102
RTVSPropertyOp1
 70
     0
102
RTVSPropertyOp2
 70
     0
102
RTVSPropertyOp3
 70
     0
102
RTVSPropertyOp4
 70
     0
102
RTVSPropertyOp5
 70
     0
102
RTVSPropertyOp6
 70
     0
102
RTVSPropertyOp7
 70
     0
102
RTVSPropertyOp8
 70
     0
102
RTVSPropertyOp9
 70
     0
102
RTVSPropertyOp10
 70
     0
102
RTVSPropertyOp11
 70
     0
102
RTVSPropertyOp12
 70
     0
102
RTVSPropertyOp13
 70
     0
102
RTVSPropertyOp14
 70
     2
102
RTVSPropertyOp15
 70
     0
102
RTVSPropertyOp16
 70
     0
102
RTVSPropertyOp17
 70
     0
102
RTVSPropertyOp18
 70
     0
102
RTVSPropertyOp19
 70
     0
102
RTVSPropertyOp20
 70
     0
102
RTVSPropertyOp21
 70
     0
102
RTVSPropertyOp22
 70
     0
102
RTVSPropertyOp23
 70
     0
102
RTVSPropertyOp24
 70
     0
102
RTVSPropertyOp25
 70
     0
102
RTVSPropertyOp26
 70
     0
102
RTVSPropertyOp27
 70
     0
102
RTVSPropertyOp28
 70
     1
102
RTVSPropertyOp29
 70
     1
102
RTVSPropertyOp30
 70
     1
102
RTVSPropertyOp31
 70
     1
102
RTVSPropertyOp32
 70
     1
102
RTVSPropertyOp33
 70
     1
102
RTVSPropertyOp34
 70
     1
102
RTVSPropertyOp35
 70
     1
102
RTVSPropertyOp36
 70
     1
102
RTVSPropertyOp37
 70
     0
102
RTVSPropertyOp38
 70
     0
102
RTVSPropertyOp39
 70
     0
102
RTVSPropertyOp40
 70
     0
102
RTVSPropertyOp41
 70
     0
102
RTVSPropertyOp42
 70
     0
102
RTVSPropertyOp43
 70
     0
102
RTVSPropertyOp44
 70
     0
102
RTVSPropertyOp45
 70
     1
102
RTVSPropertyOp46
 70
     0
102
RTVSPropertyOp47
 70
     0
102
RTVSPropertyOp48
 70
     0
102
RTVSPropertyOp49
 70
     1
102
RTVSPropertyOp50
 70
     0
102
RTVSPropertyOp51
 70
     0
102
RTVSPropertyOp52
 70
     0
102
RTVSPropertyOp53
 70
     0
102
RTVSPropertyOp54
 70
     0
102
RTVSPropertyOp55
 70
     1
102
RTVSPropertyOp56
 70
     0
102
RTVSPropertyOp57
 70
     0
102
RTVSPropertyOp58
 70
     0
102
RTVSPropertyOp59
 70
     0
102
RTVSPropertyOp60
 70
     0
102
RTVSPropertyOp61
 70
     0
102
RTVSPropertyOp62
 70
     0
  0
XRECORD
  5
8696
102
{ACAD_REACTORS
330
8695
102
}
330
8695
100
AcDbXrecord
280
     1
102
RTVSPost2010Prop28
280
     0
102
RTVSPost2010PropOp28
 70
     1
102
RTVSPost2010Prop29
280
     1
102
RTVSPost2010PropOp29
 70
     1
102
RTVSPost2010Prop30
280
     1
102
RTVSPost2010PropOp30
 70
     1
102
RTVSPost2010Prop31
280
     0
102
RTVSPost2010PropOp31
 70
     1
102
RTVSPost2010Prop32
280
     0
102
RTVSPost2010PropOp32
 70
     1
102
RTVSPost2010Prop33
280
     0
102
RTVSPost2010PropOp33
 70
     1
102
RTVSPost2010Prop34
280
     0
102
RTVSPost2010PropOp34
 70
     1
102
RTVSPost2010Prop35
280
     0
102
RTVSPost2010PropOp35
 70
     1
102
RTVSPost2010Prop36
280
     0
102
RTVSPost2010PropOp36
 70
     1
102
RTVSPost2010Prop37
 90
       50
102
RTVSPost2010PropOp37
 70
     1
102
RTVSPost2010Prop38
140
0.0
102
RTVSPost2010PropOp38
 70
     1
102
RTVSPost2010Prop39
140
1.0
102
RTVSPost2010PropOp39
 70
     1
102
RTVSPost2010Prop40
 90
        0
102
RTVSPost2010PropOp40
 70
     1
102
RTVSPost2010Prop41ColorIndex
 90
       18
102
RTVSPost2010Prop41ColorRGB
 90
        0
102
RTVSPost2010PropOp41
 70
     1
102
RTVSPost2010Prop42
 90
       50
102
RTVSPost2010PropOp42
 70
     1
102
RTVSPost2010Prop43
 90
        3
102
RTVSPost2010PropOp43
 70
     1
102
RTVSPost2010Prop44ColorIndex
 90
        5
102
RTVSPost2010Prop44ColorRGB
 90
      255
102
RTVSPost2010PropOp44
 70
     1
102
RTVSPost2010Prop45
280
     0
102
RTVSPost2010PropOp45
 70
     1
102
RTVSPost2010Prop46
 90
       50
102
RTVSPost2010PropOp46
 70
     1
102
RTVSPost2010Prop47
 90
       50
102
RTVSPost2010PropOp47
 70
     1
102
RTVSPost2010Prop48
 90
       50
102
RTVSPost2010PropOp48
 70
     1
102
RTVSPost2010Prop49
280
     0
102
RTVSPost2010PropOp49
 70
     1
102
RTVSPost2010Prop50
 90
       50
102
RTVSPost2010PropOp50
 70
     1
102
RTVSPost2010Prop51ColorIndex
 90
      256
102
RTVSPost2010Prop51ColorRGB
 90
-16777216
102
RTVSPost2010PropOp51
 70
     0
102
RTVSPost2010Prop52
140
1.0
102
RTVSPost2010PropOp52
 70
     0
102
RTVSPost2010Prop53
 90
        2
102
RTVSPost2010PropOp53
 70
     1
102
RTVSPost2010Prop54
  1
strokes_ogs.tif
102
RTVSPost2010PropOp54
 70
     1
102
RTVSPost2010Prop55
280
     0
102
RTVSPost2010PropOp55
 70
     1
102
RTVSPost2010Prop56
140
1.0
102
RTVSPost2010PropOp56
 70
     1
102
RTVSPost2010Prop57
140
1.0
102
RTVSPost2010PropOp57
 70
     1
102
RTVSPropertyOp0
 70
     1
102
RTVSPropertyOp1
 70
     1
102
RTVSPropertyOp2
 70
     1
102
RTVSPropertyOp3
 70
     1
102
RTVSPropertyOp4
 70
     1
102
RTVSPropertyOp5
 70
     1
102
RTVSPropertyOp6
 70
     1
102
RTVSPropertyOp7
 70
     1
102
RTVSPropertyOp8
 70
     1
102
RTVSPropertyOp9
 70
     1
102
RTVSPropertyOp10
 70
     1
102
RTVSPropertyOp11
 70
     1
102
RTVSPropertyOp12
 70
     1
102
RTVSPropertyOp13
 70
     1
102
RTVSPropertyOp14
 70
     1
102
RTVSPropertyOp15
 70
     1
102
RTVSPropertyOp16
 70
     1
102
RTVSPropertyOp17
 70
     1
102
RTVSPropertyOp18
 70
     1
102
RTVSPropertyOp19
 70
     1
102
RTVSPropertyOp20
 70
     1
102
RTVSPropertyOp21
 70
     1
102
RTVSPropertyOp22
 70
     1
102
RTVSPropertyOp23
 70
     1
102
RTVSPropertyOp24
 70
     1
102
RTVSPropertyOp25
 70
     1
102
RTVSPropertyOp26
 70
     1
102
RTVSPropertyOp27
 70
     1
102
RTVSPropertyOp28
 70
     1
102
RTVSPropertyOp29
 70
     1
102
RTVSPropertyOp30
 70
     1
102
RTVSPropertyOp31
 70
     1
102
RTVSPropertyOp32
 70
     1
102
RTVSPropertyOp33
 70
     1
102
RTVSPropertyOp34
 70
     1
102
RTVSPropertyOp35
 70
     1
102
RTVSPropertyOp36
 70
     1
102
RTVSPropertyOp37
 70
     1
102
RTVSPropertyOp38
 70
     1
102
RTVSPropertyOp39
 70
     1
102
RTVSPropertyOp40
 70
     1
102
RTVSPropertyOp41
 70
     1
102
RTVSPropertyOp42
 70
     1
102
RTVSPropertyOp43
 70
     1
102
RTVSPropertyOp44
 70
     1
102
RTVSPropertyOp45
 70
     1
102
RTVSPropertyOp46
 70
     1
102
RTVSPropertyOp47
 70
     1
102
RTVSPropertyOp48
 70
     1
102
RTVSPropertyOp49
 70
     1
102
RTVSPropertyOp50
 70
     1
102
RTVSPropertyOp51
 70
     0
102
RTVSPropertyOp52
 70
     0
102
RTVSPropertyOp53
 70
     1
102
RTVSPropertyOp54
 70
     1
102
RTVSPropertyOp55
 70
     1
102
RTVSPropertyOp56
 70
     1
102
RTVSPropertyOp57
 70
     1
102
RTVSPropertyOp58
 70
     1
102
RTVSPropertyOp59
 70
     1
102
RTVSPropertyOp60
 70
     1
102
RTVSPropertyOp61
 70
     1
102
RTVSPropertyOp62
 70
     1
  0
XRECORD
  5
867A
102
{ACAD_REACTORS
330
8679
102
}
330
8679
100
AcDbXrecord
280
     1
102
RTVSPost2010Prop28
280
     0
102
RTVSPost2010PropOp28
 70
     1
102
RTVSPost2010Prop29
280
     1
102
RTVSPost2010PropOp29
 70
     1
102
RTVSPost2010Prop30
280
     1
102
RTVSPost2010PropOp30
 70
     1
102
RTVSPost2010Prop31
280
     0
102
RTVSPost2010PropOp31
 70
     1
102
RTVSPost2010Prop32
280
     0
102
RTVSPost2010PropOp32
 70
     1
102
RTVSPost2010Prop33
280
     0
102
RTVSPost2010PropOp33
 70
     1
102
RTVSPost2010Prop34
280
     0
102
RTVSPost2010PropOp34
 70
     1
102
RTVSPost2010Prop35
280
     0
102
RTVSPost2010PropOp35
 70
     1
102
RTVSPost2010Prop36
280
     0
102
RTVSPost2010PropOp36
 70
     1
102
RTVSPost2010Prop37
 90
       50
102
RTVSPost2010PropOp37
 70
     1
102
RTVSPost2010Prop38
140
0.0
102
RTVSPost2010PropOp38
 70
     1
102
RTVSPost2010Prop39
140
1.0
102
RTVSPost2010PropOp39
 70
     1
102
RTVSPost2010Prop40
 90
        0
102
RTVSPost2010PropOp40
 70
     1
102
RTVSPost2010Prop41ColorIndex
 90
       18
102
RTVSPost2010Prop41ColorRGB
 90
        0
102
RTVSPost2010PropOp41
 70
     1
102
RTVSPost2010Prop42
 90
       50
102
RTVSPost2010PropOp42
 70
     1
102
RTVSPost2010Prop43
 90
        3
102
RTVSPost2010PropOp43
 70
     1
102
RTVSPost2010Prop44ColorIndex
 90
        5
102
RTVSPost2010Prop44ColorRGB
 90
      255
102
RTVSPost2010PropOp44
 70
     1
102
RTVSPost2010Prop45
280
     0
102
RTVSPost2010PropOp45
 70
     1
102
RTVSPost2010Prop46
 90
       50
102
RTVSPost2010PropOp46
 70
     1
102
RTVSPost2010Prop47
 90
       50
102
RTVSPost2010PropOp47
 70
     1
102
RTVSPost2010Prop48
 90
       50
102
RTVSPost2010PropOp48
 70
     1
102
RTVSPost2010Prop49
280
     0
102
RTVSPost2010PropOp49
 70
     1
102
RTVSPost2010Prop50
 90
       50
102
RTVSPost2010PropOp50
 70
     1
102
RTVSPost2010Prop51ColorIndex
 90
      256
102
RTVSPost2010Prop51ColorRGB
 90
-16777216
102
RTVSPost2010PropOp51
 70
     0
102
RTVSPost2010Prop52
140
1.0
102
RTVSPost2010PropOp52
 70
     0
102
RTVSPost2010Prop53
 90
        2
102
RTVSPost2010PropOp53
 70
     1
102
RTVSPost2010Prop54
  1
strokes_ogs.tif
102
RTVSPost2010PropOp54
 70
     1
102
RTVSPost2010Prop55
280
     0
102
RTVSPost2010PropOp55
 70
     1
102
RTVSPost2010Prop56
140
1.0
102
RTVSPost2010PropOp56
 70
     1
102
RTVSPost2010Prop57
140
1.0
102
RTVSPost2010PropOp57
 70
     1
102
RTVSPropertyOp0
 70
     1
102
RTVSPropertyOp1
 70
     1
102
RTVSPropertyOp2
 70
     1
102
RTVSPropertyOp3
 70
     1
102
RTVSPropertyOp4
 70
     1
102
RTVSPropertyOp5
 70
     1
102
RTVSPropertyOp6
 70
     1
102
RTVSPropertyOp7
 70
     1
102
RTVSPropertyOp8
 70
     1
102
RTVSPropertyOp9
 70
     1
102
RTVSPropertyOp10
 70
     1
102
RTVSPropertyOp11
 70
     1
102
RTVSPropertyOp12
 70
     1
102
RTVSPropertyOp13
 70
     1
102
RTVSPropertyOp14
 70
     1
102
RTVSPropertyOp15
 70
     1
102
RTVSPropertyOp16
 70
     1
102
RTVSPropertyOp17
 70
     1
102
RTVSPropertyOp18
 70
     1
102
RTVSPropertyOp19
 70
     1
102
RTVSPropertyOp20
 70
     1
102
RTVSPropertyOp21
 70
     1
102
RTVSPropertyOp22
 70
     1
102
RTVSPropertyOp23
 70
     1
102
RTVSPropertyOp24
 70
     1
102
RTVSPropertyOp25
 70
     1
102
RTVSPropertyOp26
 70
     1
102
RTVSPropertyOp27
 70
     1
102
RTVSPropertyOp28
 70
     1
102
RTVSPropertyOp29
 70
     1
102
RTVSPropertyOp30
 70
     1
102
RTVSPropertyOp31
 70
     1
102
RTVSPropertyOp32
 70
     1
102
RTVSPropertyOp33
 70
     1
102
RTVSPropertyOp34
 70
     1
102
RTVSPropertyOp35
 70
     1
102
RTVSPropertyOp36
 70
     1
102
RTVSPropertyOp37
 70
     1
102
RTVSPropertyOp38
 70
     1
102
RTVSPropertyOp39
 70
     1
102
RTVSPropertyOp40
 70
     1
102
RTVSPropertyOp41
 70
     1
102
RTVSPropertyOp42
 70
     1
102
RTVSPropertyOp43
 70
     1
102
RTVSPropertyOp44
 70
     1
102
RTVSPropertyOp45
 70
     1
102
RTVSPropertyOp46
 70
     1
102
RTVSPropertyOp47
 70
     1
102
RTVSPropertyOp48
 70
     1
102
RTVSPropertyOp49
 70
     1
102
RTVSPropertyOp50
 70
     1
102
RTVSPropertyOp51
 70
     0
102
RTVSPropertyOp52
 70
     0
102
RTVSPropertyOp53
 70
     1
102
RTVSPropertyOp54
 70
     1
102
RTVSPropertyOp55
 70
     1
102
RTVSPropertyOp56
 70
     1
102
RTVSPropertyOp57
 70
     1
102
RTVSPropertyOp58
 70
     1
102
RTVSPropertyOp59
 70
     1
102
RTVSPropertyOp60
 70
     1
102
RTVSPropertyOp61
 70
     1
102
RTVSPropertyOp62
 70
     1
  0
XRECORD
  5
867C
102
{ACAD_REACTORS
330
867B
102
}
330
867B
100
AcDbXrecord
280
     1
102
RTVSPost2010Prop28
280
     0
102
RTVSPost2010PropOp28
 70
     1
102
RTVSPost2010Prop29
280
     1
102
RTVSPost2010PropOp29
 70
     1
102
RTVSPost2010Prop30
280
     1
102
RTVSPost2010PropOp30
 70
     1
102
RTVSPost2010Prop31
280
     0
102
RTVSPost2010PropOp31
 70
     1
102
RTVSPost2010Prop32
280
     0
102
RTVSPost2010PropOp32
 70
     1
102
RTVSPost2010Prop33
280
     0
102
RTVSPost2010PropOp33
 70
     1
102
RTVSPost2010Prop34
280
     0
102
RTVSPost2010PropOp34
 70
     1
102
RTVSPost2010Prop35
280
     0
102
RTVSPost2010PropOp35
 70
     1
102
RTVSPost2010Prop36
280
     0
102
RTVSPost2010PropOp36
 70
     1
102
RTVSPost2010Prop37
 90
       50
102
RTVSPost2010PropOp37
 70
     1
102
RTVSPost2010Prop38
140
0.0
102
RTVSPost2010PropOp38
 70
     1
102
RTVSPost2010Prop39
140
1.0
102
RTVSPost2010PropOp39
 70
     1
102
RTVSPost2010Prop40
 90
        0
102
RTVSPost2010PropOp40
 70
     1
102
RTVSPost2010Prop41ColorIndex
 90
       18
102
RTVSPost2010Prop41ColorRGB
 90
        0
102
RTVSPost2010PropOp41
 70
     1
102
RTVSPost2010Prop42
 90
       50
102
RTVSPost2010PropOp42
 70
     1
102
RTVSPost2010Prop43
 90
        3
102
RTVSPost2010PropOp43
 70
     1
102
RTVSPost2010Prop44ColorIndex
 90
        5
102
RTVSPost2010Prop44ColorRGB
 90
      255
102
RTVSPost2010PropOp44
 70
     1
102
RTVSPost2010Prop45
280
     0
102
RTVSPost2010PropOp45
 70
     1
102
RTVSPost2010Prop46
 90
       50
102
RTVSPost2010PropOp46
 70
     1
102
RTVSPost2010Prop47
 90
       50
102
RTVSPost2010PropOp47
 70
     1
102
RTVSPost2010Prop48
 90
       50
102
RTVSPost2010PropOp48
 70
     1
102
RTVSPost2010Prop49
280
     0
102
RTVSPost2010PropOp49
 70
     1
102
RTVSPost2010Prop50
 90
       50
102
RTVSPost2010PropOp50
 70
     1
102
RTVSPost2010Prop51ColorIndex
 90
      256
102
RTVSPost2010Prop51ColorRGB
 90
-16777216
102
RTVSPost2010PropOp51
 70
     0
102
RTVSPost2010Prop52
140
1.0
102
RTVSPost2010PropOp52
 70
     0
102
RTVSPost2010Prop53
 90
        2
102
RTVSPost2010PropOp53
 70
     1
102
RTVSPost2010Prop54
  1
strokes_ogs.tif
102
RTVSPost2010PropOp54
 70
     1
102
RTVSPost2010Prop55
280
     0
102
RTVSPost2010PropOp55
 70
     1
102
RTVSPost2010Prop56
140
1.0
102
RTVSPost2010PropOp56
 70
     1
102
RTVSPost2010Prop57
140
1.0
102
RTVSPost2010PropOp57
 70
     1
102
RTVSPropertyOp0
 70
     1
102
RTVSPropertyOp1
 70
     1
102
RTVSPropertyOp2
 70
     1
102
RTVSPropertyOp3
 70
     1
102
RTVSPropertyOp4
 70
     1
102
RTVSPropertyOp5
 70
     1
102
RTVSPropertyOp6
 70
     1
102
RTVSPropertyOp7
 70
     1
102
RTVSPropertyOp8
 70
     1
102
RTVSPropertyOp9
 70
     1
102
RTVSPropertyOp10
 70
     1
102
RTVSPropertyOp11
 70
     1
102
RTVSPropertyOp12
 70
     1
102
RTVSPropertyOp13
 70
     1
102
RTVSPropertyOp14
 70
     1
102
RTVSPropertyOp15
 70
     1
102
RTVSPropertyOp16
 70
     1
102
RTVSPropertyOp17
 70
     1
102
RTVSPropertyOp18
 70
     1
102
RTVSPropertyOp19
 70
     1
102
RTVSPropertyOp20
 70
     1
102
RTVSPropertyOp21
 70
     1
102
RTVSPropertyOp22
 70
     1
102
RTVSPropertyOp23
 70
     1
102
RTVSPropertyOp24
 70
     1
102
RTVSPropertyOp25
 70
     1
102
RTVSPropertyOp26
 70
     1
102
RTVSPropertyOp27
 70
     1
102
RTVSPropertyOp28
 70
     1
102
RTVSPropertyOp29
 70
     1
102
RTVSPropertyOp30
 70
     1
102
RTVSPropertyOp31
 70
     1
102
RTVSPropertyOp32
 70
     1
102
RTVSPropertyOp33
 70
     1
102
RTVSPropertyOp34
 70
     1
102
RTVSPropertyOp35
 70
     1
102
RTVSPropertyOp36
 70
     1
102
RTVSPropertyOp37
 70
     1
102
RTVSPropertyOp38
 70
     1
102
RTVSPropertyOp39
 70
     1
102
RTVSPropertyOp40
 70
     1
102
RTVSPropertyOp41
 70
     1
102
RTVSPropertyOp42
 70
     1
102
RTVSPropertyOp43
 70
     1
102
RTVSPropertyOp44
 70
     1
102
RTVSPropertyOp45
 70
     1
102
RTVSPropertyOp46
 70
     1
102
RTVSPropertyOp47
 70
     1
102
RTVSPropertyOp48
 70
     1
102
RTVSPropertyOp49
 70
     1
102
RTVSPropertyOp50
 70
     1
102
RTVSPropertyOp51
 70
     0
102
RTVSPropertyOp52
 70
     0
102
RTVSPropertyOp53
 70
     1
102
RTVSPropertyOp54
 70
     1
102
RTVSPropertyOp55
 70
     1
102
RTVSPropertyOp56
 70
     1
102
RTVSPropertyOp57
 70
     1
102
RTVSPropertyOp58
 70
     1
102
RTVSPropertyOp59
 70
     1
102
RTVSPropertyOp60
 70
     1
102
RTVSPropertyOp61
 70
     1
102
RTVSPropertyOp62
 70
     1
  0
XRECORD
  5
867E
102
{ACAD_REACTORS
330
867D
102
}
330
867D
100
AcDbXrecord
280
     1
102
RTVSPost2010Prop28
280
     0
102
RTVSPost2010PropOp28
 70
     1
102
RTVSPost2010Prop29
280
     1
102
RTVSPost2010PropOp29
 70
     1
102
RTVSPost2010Prop30
280
     1
102
RTVSPost2010PropOp30
 70
     1
102
RTVSPost2010Prop31
280
     0
102
RTVSPost2010PropOp31
 70
     1
102
RTVSPost2010Prop32
280
     0
102
RTVSPost2010PropOp32
 70
     1
102
RTVSPost2010Prop33
280
     0
102
RTVSPost2010PropOp33
 70
     1
102
RTVSPost2010Prop34
280
     0
102
RTVSPost2010PropOp34
 70
     1
102
RTVSPost2010Prop35
280
     0
102
RTVSPost2010PropOp35
 70
     1
102
RTVSPost2010Prop36
280
     0
102
RTVSPost2010PropOp36
 70
     1
102
RTVSPost2010Prop37
 90
       50
102
RTVSPost2010PropOp37
 70
     1
102
RTVSPost2010Prop38
140
0.0
102
RTVSPost2010PropOp38
 70
     1
102
RTVSPost2010Prop39
140
1.0
102
RTVSPost2010PropOp39
 70
     1
102
RTVSPost2010Prop40
 90
        0
102
RTVSPost2010PropOp40
 70
     1
102
RTVSPost2010Prop41ColorIndex
 90
       18
102
RTVSPost2010Prop41ColorRGB
 90
        0
102
RTVSPost2010PropOp41
 70
     1
102
RTVSPost2010Prop42
 90
       50
102
RTVSPost2010PropOp42
 70
     1
102
RTVSPost2010Prop43
 90
        3
102
RTVSPost2010PropOp43
 70
     1
102
RTVSPost2010Prop44ColorIndex
 90
        5
102
RTVSPost2010Prop44ColorRGB
 90
      255
102
RTVSPost2010PropOp44
 70
     1
102
RTVSPost2010Prop45
280
     0
102
RTVSPost2010PropOp45
 70
     1
102
RTVSPost2010Prop46
 90
       50
102
RTVSPost2010PropOp46
 70
     1
102
RTVSPost2010Prop47
 90
       50
102
RTVSPost2010PropOp47
 70
     1
102
RTVSPost2010Prop48
 90
       50
102
RTVSPost2010PropOp48
 70
     1
102
RTVSPost2010Prop49
280
     0
102
RTVSPost2010PropOp49
 70
     1
102
RTVSPost2010Prop50
 90
       50
102
RTVSPost2010PropOp50
 70
     1
102
RTVSPost2010Prop51ColorIndex
 90
      256
102
RTVSPost2010Prop51ColorRGB
 90
-16777216
102
RTVSPost2010PropOp51
 70
     0
102
RTVSPost2010Prop52
140
1.0
102
RTVSPost2010PropOp52
 70
     0
102
RTVSPost2010Prop53
 90
        2
102
RTVSPost2010PropOp53
 70
     1
102
RTVSPost2010Prop54
  1
strokes_ogs.tif
102
RTVSPost2010PropOp54
 70
     1
102
RTVSPost2010Prop55
280
     0
102
RTVSPost2010PropOp55
 70
     1
102
RTVSPost2010Prop56
140
1.0
102
RTVSPost2010PropOp56
 70
     1
102
RTVSPost2010Prop57
140
1.0
102
RTVSPost2010PropOp57
 70
     1
102
RTVSPropertyOp0
 70
     1
102
RTVSPropertyOp1
 70
     1
102
RTVSPropertyOp2
 70
     1
102
RTVSPropertyOp3
 70
     1
102
RTVSPropertyOp4
 70
     1
102
RTVSPropertyOp5
 70
     1
102
RTVSPropertyOp6
 70
     1
102
RTVSPropertyOp7
 70
     1
102
RTVSPropertyOp8
 70
     1
102
RTVSPropertyOp9
 70
     1
102
RTVSPropertyOp10
 70
     1
102
RTVSPropertyOp11
 70
     1
102
RTVSPropertyOp12
 70
     1
102
RTVSPropertyOp13
 70
     1
102
RTVSPropertyOp14
 70
     1
102
RTVSPropertyOp15
 70
     1
102
RTVSPropertyOp16
 70
     1
102
RTVSPropertyOp17
 70
     1
102
RTVSPropertyOp18
 70
     1
102
RTVSPropertyOp19
 70
     1
102
RTVSPropertyOp20
 70
     1
102
RTVSPropertyOp21
 70
     1
102
RTVSPropertyOp22
 70
     1
102
RTVSPropertyOp23
 70
     1
102
RTVSPropertyOp24
 70
     1
102
RTVSPropertyOp25
 70
     1
102
RTVSPropertyOp26
 70
     1
102
RTVSPropertyOp27
 70
     1
102
RTVSPropertyOp28
 70
     1
102
RTVSPropertyOp29
 70
     1
102
RTVSPropertyOp30
 70
     1
102
RTVSPropertyOp31
 70
     1
102
RTVSPropertyOp32
 70
     1
102
RTVSPropertyOp33
 70
     1
102
RTVSPropertyOp34
 70
     1
102
RTVSPropertyOp35
 70
     1
102
RTVSPropertyOp36
 70
     1
102
RTVSPropertyOp37
 70
     1
102
RTVSPropertyOp38
 70
     1
102
RTVSPropertyOp39
 70
     1
102
RTVSPropertyOp40
 70
     1
102
RTVSPropertyOp41
 70
     1
102
RTVSPropertyOp42
 70
     1
102
RTVSPropertyOp43
 70
     1
102
RTVSPropertyOp44
 70
     1
102
RTVSPropertyOp45
 70
     1
102
RTVSPropertyOp46
 70
     1
102
RTVSPropertyOp47
 70
     1
102
RTVSPropertyOp48
 70
     1
102
RTVSPropertyOp49
 70
     1
102
RTVSPropertyOp50
 70
     1
102
RTVSPropertyOp51
 70
     0
102
RTVSPropertyOp52
 70
     0
102
RTVSPropertyOp53
 70
     1
102
RTVSPropertyOp54
 70
     1
102
RTVSPropertyOp55
 70
     1
102
RTVSPropertyOp56
 70
     1
102
RTVSPropertyOp57
 70
     1
102
RTVSPropertyOp58
 70
     1
102
RTVSPropertyOp59
 70
     1
102
RTVSPropertyOp60
 70
     1
102
RTVSPropertyOp61
 70
     1
102
RTVSPropertyOp62
 70
     1
  0
XRECORD
  5
8680
102
{ACAD_REACTORS
330
867F
102
}
330
867F
100
AcDbXrecord
280
     1
102
RTVSPost2010Prop28
280
     0
102
RTVSPost2010PropOp28
 70
     1
102
RTVSPost2010Prop29
280
     1
102
RTVSPost2010PropOp29
 70
     1
102
RTVSPost2010Prop30
280
     1
102
RTVSPost2010PropOp30
 70
     1
102
RTVSPost2010Prop31
280
     0
102
RTVSPost2010PropOp31
 70
     1
102
RTVSPost2010Prop32
280
     0
102
RTVSPost2010PropOp32
 70
     1
102
RTVSPost2010Prop33
280
     0
102
RTVSPost2010PropOp33
 70
     1
102
RTVSPost2010Prop34
280
     0
102
RTVSPost2010PropOp34
 70
     1
102
RTVSPost2010Prop35
280
     0
102
RTVSPost2010PropOp35
 70
     1
102
RTVSPost2010Prop36
280
     0
102
RTVSPost2010PropOp36
 70
     1
102
RTVSPost2010Prop37
 90
       50
102
RTVSPost2010PropOp37
 70
     1
102
RTVSPost2010Prop38
140
0.0
102
RTVSPost2010PropOp38
 70
     1
102
RTVSPost2010Prop39
140
1.0
102
RTVSPost2010PropOp39
 70
     1
102
RTVSPost2010Prop40
 90
        0
102
RTVSPost2010PropOp40
 70
     1
102
RTVSPost2010Prop41ColorIndex
 90
       18
102
RTVSPost2010Prop41ColorRGB
 90
        0
102
RTVSPost2010PropOp41
 70
     1
102
RTVSPost2010Prop42
 90
       50
102
RTVSPost2010PropOp42
 70
     1
102
RTVSPost2010Prop43
 90
        3
102
RTVSPost2010PropOp43
 70
     1
102
RTVSPost2010Prop44ColorIndex
 90
        5
102
RTVSPost2010Prop44ColorRGB
 90
      255
102
RTVSPost2010PropOp44
 70
     1
102
RTVSPost2010Prop45
280
     0
102
RTVSPost2010PropOp45
 70
     1
102
RTVSPost2010Prop46
 90
       50
102
RTVSPost2010PropOp46
 70
     1
102
RTVSPost2010Prop47
 90
       50
102
RTVSPost2010PropOp47
 70
     1
102
RTVSPost2010Prop48
 90
       50
102
RTVSPost2010PropOp48
 70
     1
102
RTVSPost2010Prop49
280
     0
102
RTVSPost2010PropOp49
 70
     1
102
RTVSPost2010Prop50
 90
       50
102
RTVSPost2010PropOp50
 70
     1
102
RTVSPost2010Prop51ColorIndex
 90
      256
102
RTVSPost2010Prop51ColorRGB
 90
-16777216
102
RTVSPost2010PropOp51
 70
     0
102
RTVSPost2010Prop52
140
1.0
102
RTVSPost2010PropOp52
 70
     0
102
RTVSPost2010Prop53
 90
        2
102
RTVSPost2010PropOp53
 70
     1
102
RTVSPost2010Prop54
  1
strokes_ogs.tif
102
RTVSPost2010PropOp54
 70
     1
102
RTVSPost2010Prop55
280
     0
102
RTVSPost2010PropOp55
 70
     1
102
RTVSPost2010Prop56
140
1.0
102
RTVSPost2010PropOp56
 70
     1
102
RTVSPost2010Prop57
140
1.0
102
RTVSPost2010PropOp57
 70
     1
102
RTVSPropertyOp0
 70
     1
102
RTVSPropertyOp1
 70
     1
102
RTVSPropertyOp2
 70
     1
102
RTVSPropertyOp3
 70
     1
102
RTVSPropertyOp4
 70
     1
102
RTVSPropertyOp5
 70
     1
102
RTVSPropertyOp6
 70
     1
102
RTVSPropertyOp7
 70
     1
102
RTVSPropertyOp8
 70
     1
102
RTVSPropertyOp9
 70
     1
102
RTVSPropertyOp10
 70
     1
102
RTVSPropertyOp11
 70
     1
102
RTVSPropertyOp12
 70
     1
102
RTVSPropertyOp13
 70
     1
102
RTVSPropertyOp14
 70
     1
102
RTVSPropertyOp15
 70
     1
102
RTVSPropertyOp16
 70
     1
102
RTVSPropertyOp17
 70
     1
102
RTVSPropertyOp18
 70
     1
102
RTVSPropertyOp19
 70
     1
102
RTVSPropertyOp20
 70
     1
102
RTVSPropertyOp21
 70
     1
102
RTVSPropertyOp22
 70
     1
102
RTVSPropertyOp23
 70
     1
102
RTVSPropertyOp24
 70
     1
102
RTVSPropertyOp25
 70
     1
102
RTVSPropertyOp26
 70
     1
102
RTVSPropertyOp27
 70
     1
102
RTVSPropertyOp28
 70
     1
102
RTVSPropertyOp29
 70
     1
102
RTVSPropertyOp30
 70
     1
102
RTVSPropertyOp31
 70
     1
102
RTVSPropertyOp32
 70
     1
102
RTVSPropertyOp33
 70
     1
102
RTVSPropertyOp34
 70
     1
102
RTVSPropertyOp35
 70
     1
102
RTVSPropertyOp36
 70
     1
102
RTVSPropertyOp37
 70
     1
102
RTVSPropertyOp38
 70
     1
102
RTVSPropertyOp39
 70
     1
102
RTVSPropertyOp40
 70
     1
102
RTVSPropertyOp41
 70
     1
102
RTVSPropertyOp42
 70
     1
102
RTVSPropertyOp43
 70
     1
102
RTVSPropertyOp44
 70
     1
102
RTVSPropertyOp45
 70
     1
102
RTVSPropertyOp46
 70
     1
102
RTVSPropertyOp47
 70
     1
102
RTVSPropertyOp48
 70
     1
102
RTVSPropertyOp49
 70
     1
102
RTVSPropertyOp50
 70
     1
102
RTVSPropertyOp51
 70
     0
102
RTVSPropertyOp52
 70
     0
102
RTVSPropertyOp53
 70
     1
102
RTVSPropertyOp54
 70
     1
102
RTVSPropertyOp55
 70
     1
102
RTVSPropertyOp56
 70
     1
102
RTVSPropertyOp57
 70
     1
102
RTVSPropertyOp58
 70
     1
102
RTVSPropertyOp59
 70
     1
102
RTVSPropertyOp60
 70
     1
102
RTVSPropertyOp61
 70
     1
102
RTVSPropertyOp62
 70
     1
  0
XRECORD
  5
8688
102
{ACAD_REACTORS
330
8687
102
}
330
8687
100
AcDbXrecord
280
     1
102
RTVSPost2010Prop28
280
     0
102
RTVSPost2010PropOp28
 70
     1
102
RTVSPost2010Prop29
280
     1
102
RTVSPost2010PropOp29
 70
     1
102
RTVSPost2010Prop30
280
     1
102
RTVSPost2010PropOp30
 70
     1
102
RTVSPost2010Prop31
280
     0
102
RTVSPost2010PropOp31
 70
     1
102
RTVSPost2010Prop32
280
     0
102
RTVSPost2010PropOp32
 70
     1
102
RTVSPost2010Prop33
280
     0
102
RTVSPost2010PropOp33
 70
     1
102
RTVSPost2010Prop34
280
     0
102
RTVSPost2010PropOp34
 70
     1
102
RTVSPost2010Prop35
280
     0
102
RTVSPost2010PropOp35
 70
     1
102
RTVSPost2010Prop36
280
     0
102
RTVSPost2010PropOp36
 70
     1
102
RTVSPost2010Prop37
 90
       50
102
RTVSPost2010PropOp37
 70
     1
102
RTVSPost2010Prop38
140
0.0
102
RTVSPost2010PropOp38
 70
     1
102
RTVSPost2010Prop39
140
1.0
102
RTVSPost2010PropOp39
 70
     1
102
RTVSPost2010Prop40
 90
        0
102
RTVSPost2010PropOp40
 70
     1
102
RTVSPost2010Prop41ColorIndex
 90
       18
102
RTVSPost2010Prop41ColorRGB
 90
        0
102
RTVSPost2010PropOp41
 70
     1
102
RTVSPost2010Prop42
 90
       50
102
RTVSPost2010PropOp42
 70
     1
102
RTVSPost2010Prop43
 90
        3
102
RTVSPost2010PropOp43
 70
     1
102
RTVSPost2010Prop44ColorIndex
 90
        5
102
RTVSPost2010Prop44ColorRGB
 90
      255
102
RTVSPost2010PropOp44
 70
     1
102
RTVSPost2010Prop45
280
     0
102
RTVSPost2010PropOp45
 70
     1
102
RTVSPost2010Prop46
 90
       50
102
RTVSPost2010PropOp46
 70
     1
102
RTVSPost2010Prop47
 90
       50
102
RTVSPost2010PropOp47
 70
     1
102
RTVSPost2010Prop48
 90
       50
102
RTVSPost2010PropOp48
 70
     1
102
RTVSPost2010Prop49
280
     0
102
RTVSPost2010PropOp49
 70
     1
102
RTVSPost2010Prop50
 90
       50
102
RTVSPost2010PropOp50
 70
     1
102
RTVSPost2010Prop51ColorIndex
 90
      256
102
RTVSPost2010Prop51ColorRGB
 90
-16777216
102
RTVSPost2010PropOp51
 70
     0
102
RTVSPost2010Prop52
140
1.0
102
RTVSPost2010PropOp52
 70
     0
102
RTVSPost2010Prop53
 90
        2
102
RTVSPost2010PropOp53
 70
     1
102
RTVSPost2010Prop54
  1
strokes_ogs.tif
102
RTVSPost2010PropOp54
 70
     1
102
RTVSPost2010Prop55
280
     0
102
RTVSPost2010PropOp55
 70
     1
102
RTVSPost2010Prop56
140
1.0
102
RTVSPost2010PropOp56
 70
     1
102
RTVSPost2010Prop57
140
1.0
102
RTVSPost2010PropOp57
 70
     1
102
RTVSPropertyOp0
 70
     1
102
RTVSPropertyOp1
 70
     1
102
RTVSPropertyOp2
 70
     1
102
RTVSPropertyOp3
 70
     1
102
RTVSPropertyOp4
 70
     1
102
RTVSPropertyOp5
 70
     1
102
RTVSPropertyOp6
 70
     1
102
RTVSPropertyOp7
 70
     1
102
RTVSPropertyOp8
 70
     1
102
RTVSPropertyOp9
 70
     1
102
RTVSPropertyOp10
 70
     1
102
RTVSPropertyOp11
 70
     1
102
RTVSPropertyOp12
 70
     1
102
RTVSPropertyOp13
 70
     1
102
RTVSPropertyOp14
 70
     1
102
RTVSPropertyOp15
 70
     1
102
RTVSPropertyOp16
 70
     1
102
RTVSPropertyOp17
 70
     1
102
RTVSPropertyOp18
 70
     1
102
RTVSPropertyOp19
 70
     1
102
RTVSPropertyOp20
 70
     1
102
RTVSPropertyOp21
 70
     1
102
RTVSPropertyOp22
 70
     1
102
RTVSPropertyOp23
 70
     1
102
RTVSPropertyOp24
 70
     1
102
RTVSPropertyOp25
 70
     1
102
RTVSPropertyOp26
 70
     1
102
RTVSPropertyOp27
 70
     1
102
RTVSPropertyOp28
 70
     1
102
RTVSPropertyOp29
 70
     1
102
RTVSPropertyOp30
 70
     1
102
RTVSPropertyOp31
 70
     1
102
RTVSPropertyOp32
 70
     1
102
RTVSPropertyOp33
 70
     1
102
RTVSPropertyOp34
 70
     1
102
RTVSPropertyOp35
 70
     1
102
RTVSPropertyOp36
 70
     1
102
RTVSPropertyOp37
 70
     1
102
RTVSPropertyOp38
 70
     1
102
RTVSPropertyOp39
 70
     1
102
RTVSPropertyOp40
 70
     1
102
RTVSPropertyOp41
 70
     1
102
RTVSPropertyOp42
 70
     1
102
RTVSPropertyOp43
 70
     1
102
RTVSPropertyOp44
 70
     1
102
RTVSPropertyOp45
 70
     1
102
RTVSPropertyOp46
 70
     1
102
RTVSPropertyOp47
 70
     1
102
RTVSPropertyOp48
 70
     1
102
RTVSPropertyOp49
 70
     1
102
RTVSPropertyOp50
 70
     1
102
RTVSPropertyOp51
 70
     0
102
RTVSPropertyOp52
 70
     0
102
RTVSPropertyOp53
 70
     1
102
RTVSPropertyOp54
 70
     1
102
RTVSPropertyOp55
 70
     1
102
RTVSPropertyOp56
 70
     1
102
RTVSPropertyOp57
 70
     1
102
RTVSPropertyOp58
 70
     1
102
RTVSPropertyOp59
 70
     1
102
RTVSPropertyOp60
 70
     1
102
RTVSPropertyOp61
 70
     1
102
RTVSPropertyOp62
 70
     1
  0
XRECORD
  5
86A4
102
{ACAD_REACTORS
330
86A3
102
}
330
86A3
100
AcDbXrecord
280
     1
102
RTVSPost2010Prop28
280
     0
102
RTVSPost2010PropOp28
 70
     1
102
RTVSPost2010Prop29
280
     1
102
RTVSPost2010PropOp29
 70
     1
102
RTVSPost2010Prop30
280
     1
102
RTVSPost2010PropOp30
 70
     1
102
RTVSPost2010Prop31
280
     0
102
RTVSPost2010PropOp31
 70
     1
102
RTVSPost2010Prop32
280
     0
102
RTVSPost2010PropOp32
 70
     1
102
RTVSPost2010Prop33
280
     0
102
RTVSPost2010PropOp33
 70
     1
102
RTVSPost2010Prop34
280
     0
102
RTVSPost2010PropOp34
 70
     1
102
RTVSPost2010Prop35
280
     0
102
RTVSPost2010PropOp35
 70
     1
102
RTVSPost2010Prop36
280
     0
102
RTVSPost2010PropOp36
 70
     1
102
RTVSPost2010Prop37
 90
       50
102
RTVSPost2010PropOp37
 70
     0
102
RTVSPost2010Prop38
140
0.0
102
RTVSPost2010PropOp38
 70
     0
102
RTVSPost2010Prop39
140
1.0
102
RTVSPost2010PropOp39
 70
     0
102
RTVSPost2010Prop40
 90
        0
102
RTVSPost2010PropOp40
 70
     0
102
RTVSPost2010Prop41ColorIndex
 90
       18
102
RTVSPost2010Prop41ColorRGB
 90
        0
102
RTVSPost2010PropOp41
 70
     0
102
RTVSPost2010Prop42
 90
       50
102
RTVSPost2010PropOp42
 70
     0
102
RTVSPost2010Prop43
 90
        3
102
RTVSPost2010PropOp43
 70
     0
102
RTVSPost2010Prop44ColorIndex
 90
        5
102
RTVSPost2010Prop44ColorRGB
 90
      255
102
RTVSPost2010PropOp44
 70
     0
102
RTVSPost2010Prop45
280
     0
102
RTVSPost2010PropOp45
 70
     1
102
RTVSPost2010Prop46
 90
       50
102
RTVSPost2010PropOp46
 70
     0
102
RTVSPost2010Prop47
 90
       50
102
RTVSPost2010PropOp47
 70
     0
102
RTVSPost2010Prop48
 90
       50
102
RTVSPost2010PropOp48
 70
     0
102
RTVSPost2010Prop49
280
     0
102
RTVSPost2010PropOp49
 70
     1
102
RTVSPost2010Prop50
 90
       50
102
RTVSPost2010PropOp50
 70
     0
102
RTVSPost2010Prop51ColorIndex
 90
      256
102
RTVSPost2010Prop51ColorRGB
 90
-16777216
102
RTVSPost2010PropOp51
 70
     0
102
RTVSPost2010Prop52
140
1.0
102
RTVSPost2010PropOp52
 70
     0
102
RTVSPost2010Prop53
 90
        2
102
RTVSPost2010PropOp53
 70
     0
102
RTVSPost2010Prop54
  1
strokes_ogs.tif
102
RTVSPost2010PropOp54
 70
     0
102
RTVSPost2010Prop55
280
     0
102
RTVSPost2010PropOp55
 70
     1
102
RTVSPost2010Prop56
140
1.0
102
RTVSPost2010PropOp56
 70
     0
102
RTVSPost2010Prop57
140
1.0
102
RTVSPost2010PropOp57
 70
     0
102
RTVSPropertyOp0
 70
     0
102
RTVSPropertyOp1
 70
     0
102
RTVSPropertyOp2
 70
     0
102
RTVSPropertyOp3
 70
     0
102
RTVSPropertyOp4
 70
     0
102
RTVSPropertyOp5
 70
     0
102
RTVSPropertyOp6
 70
     0
102
RTVSPropertyOp7
 70
     0
102
RTVSPropertyOp8
 70
     0
102
RTVSPropertyOp9
 70
     0
102
RTVSPropertyOp10
 70
     0
102
RTVSPropertyOp11
 70
     0
102
RTVSPropertyOp12
 70
     0
102
RTVSPropertyOp13
 70
     0
102
RTVSPropertyOp14
 70
     2
102
RTVSPropertyOp15
 70
     0
102
RTVSPropertyOp16
 70
     0
102
RTVSPropertyOp17
 70
     0
102
RTVSPropertyOp18
 70
     0
102
RTVSPropertyOp19
 70
     0
102
RTVSPropertyOp20
 70
     0
102
RTVSPropertyOp21
 70
     0
102
RTVSPropertyOp22
 70
     0
102
RTVSPropertyOp23
 70
     0
102
RTVSPropertyOp24
 70
     0
102
RTVSPropertyOp25
 70
     0
102
RTVSPropertyOp26
 70
     0
102
RTVSPropertyOp27
 70
     0
102
RTVSPropertyOp28
 70
     1
102
RTVSPropertyOp29
 70
     1
102
RTVSPropertyOp30
 70
     1
102
RTVSPropertyOp31
 70
     1
102
RTVSPropertyOp32
 70
     1
102
RTVSPropertyOp33
 70
     1
102
RTVSPropertyOp34
 70
     1
102
RTVSPropertyOp35
 70
     1
102
RTVSPropertyOp36
 70
     1
102
RTVSPropertyOp37
 70
     0
102
RTVSPropertyOp38
 70
     0
102
RTVSPropertyOp39
 70
     0
102
RTVSPropertyOp40
 70
     0
102
RTVSPropertyOp41
 70
     0
102
RTVSPropertyOp42
 70
     0
102
RTVSPropertyOp43
 70
     0
102
RTVSPropertyOp44
 70
     0
102
RTVSPropertyOp45
 70
     1
102
RTVSPropertyOp46
 70
     0
102
RTVSPropertyOp47
 70
     0
102
RTVSPropertyOp48
 70
     0
102
RTVSPropertyOp49
 70
     1
102
RTVSPropertyOp50
 70
     0
102
RTVSPropertyOp51
 70
     0
102
RTVSPropertyOp52
 70
     0
102
RTVSPropertyOp53
 70
     0
102
RTVSPropertyOp54
 70
     0
102
RTVSPropertyOp55
 70
     1
102
RTVSPropertyOp56
 70
     0
102
RTVSPropertyOp57
 70
     0
102
RTVSPropertyOp58
 70
     0
102
RTVSPropertyOp59
 70
     0
102
RTVSPropertyOp60
 70
     0
102
RTVSPropertyOp61
 70
     0
102
RTVSPropertyOp62
 70
     0
  0
XRECORD
  5
8694
102
{ACAD_REACTORS
330
8693
102
}
330
8693
100
AcDbXrecord
280
     1
102
RTVSPost2010Prop28
280
     0
102
RTVSPost2010PropOp28
 70
     1
102
RTVSPost2010Prop29
280
     1
102
RTVSPost2010PropOp29
 70
     1
102
RTVSPost2010Prop30
280
     1
102
RTVSPost2010PropOp30
 70
     1
102
RTVSPost2010Prop31
280
     0
102
RTVSPost2010PropOp31
 70
     1
102
RTVSPost2010Prop32
280
     0
102
RTVSPost2010PropOp32
 70
     1
102
RTVSPost2010Prop33
280
     0
102
RTVSPost2010PropOp33
 70
     1
102
RTVSPost2010Prop34
280
     0
102
RTVSPost2010PropOp34
 70
     1
102
RTVSPost2010Prop35
280
     0
102
RTVSPost2010PropOp35
 70
     1
102
RTVSPost2010Prop36
280
     0
102
RTVSPost2010PropOp36
 70
     1
102
RTVSPost2010Prop37
 90
       50
102
RTVSPost2010PropOp37
 70
     1
102
RTVSPost2010Prop38
140
0.0
102
RTVSPost2010PropOp38
 70
     1
102
RTVSPost2010Prop39
140
1.0
102
RTVSPost2010PropOp39
 70
     1
102
RTVSPost2010Prop40
 90
        0
102
RTVSPost2010PropOp40
 70
     1
102
RTVSPost2010Prop41ColorIndex
 90
       18
102
RTVSPost2010Prop41ColorRGB
 90
        0
102
RTVSPost2010PropOp41
 70
     1
102
RTVSPost2010Prop42
 90
       50
102
RTVSPost2010PropOp42
 70
     1
102
RTVSPost2010Prop43
 90
        3
102
RTVSPost2010PropOp43
 70
     1
102
RTVSPost2010Prop44ColorIndex
 90
        5
102
RTVSPost2010Prop44ColorRGB
 90
      255
102
RTVSPost2010PropOp44
 70
     1
102
RTVSPost2010Prop45
280
     0
102
RTVSPost2010PropOp45
 70
     1
102
RTVSPost2010Prop46
 90
       50
102
RTVSPost2010PropOp46
 70
     1
102
RTVSPost2010Prop47
 90
       50
102
RTVSPost2010PropOp47
 70
     1
102
RTVSPost2010Prop48
 90
       50
102
RTVSPost2010PropOp48
 70
     1
102
RTVSPost2010Prop49
280
     0
102
RTVSPost2010PropOp49
 70
     1
102
RTVSPost2010Prop50
 90
       50
102
RTVSPost2010PropOp50
 70
     1
102
RTVSPost2010Prop51ColorIndex
 90
      256
102
RTVSPost2010Prop51ColorRGB
 90
-16777216
102
RTVSPost2010PropOp51
 70
     0
102
RTVSPost2010Prop52
140
1.0
102
RTVSPost2010PropOp52
 70
     0
102
RTVSPost2010Prop53
 90
        2
102
RTVSPost2010PropOp53
 70
     1
102
RTVSPost2010Prop54
  1
strokes_ogs.tif
102
RTVSPost2010PropOp54
 70
     1
102
RTVSPost2010Prop55
280
     0
102
RTVSPost2010PropOp55
 70
     1
102
RTVSPost2010Prop56
140
1.0
102
RTVSPost2010PropOp56
 70
     1
102
RTVSPost2010Prop57
140
1.0
102
RTVSPost2010PropOp57
 70
     1
102
RTVSPropertyOp0
 70
     1
102
RTVSPropertyOp1
 70
     1
102
RTVSPropertyOp2
 70
     1
102
RTVSPropertyOp3
 70
     1
102
RTVSPropertyOp4
 70
     1
102
RTVSPropertyOp5
 70
     1
102
RTVSPropertyOp6
 70
     1
102
RTVSPropertyOp7
 70
     1
102
RTVSPropertyOp8
 70
     1
102
RTVSPropertyOp9
 70
     1
102
RTVSPropertyOp10
 70
     1
102
RTVSPropertyOp11
 70
     1
102
RTVSPropertyOp12
 70
     1
102
RTVSPropertyOp13
 70
     1
102
RTVSPropertyOp14
 70
     1
102
RTVSPropertyOp15
 70
     1
102
RTVSPropertyOp16
 70
     1
102
RTVSPropertyOp17
 70
     1
102
RTVSPropertyOp18
 70
     1
102
RTVSPropertyOp19
 70
     1
102
RTVSPropertyOp20
 70
     1
102
RTVSPropertyOp21
 70
     1
102
RTVSPropertyOp22
 70
     1
102
RTVSPropertyOp23
 70
     1
102
RTVSPropertyOp24
 70
     1
102
RTVSPropertyOp25
 70
     1
102
RTVSPropertyOp26
 70
     1
102
RTVSPropertyOp27
 70
     1
102
RTVSPropertyOp28
 70
     1
102
RTVSPropertyOp29
 70
     1
102
RTVSPropertyOp30
 70
     1
102
RTVSPropertyOp31
 70
     1
102
RTVSPropertyOp32
 70
     1
102
RTVSPropertyOp33
 70
     1
102
RTVSPropertyOp34
 70
     1
102
RTVSPropertyOp35
 70
     1
102
RTVSPropertyOp36
 70
     1
102
RTVSPropertyOp37
 70
     1
102
RTVSPropertyOp38
 70
     1
102
RTVSPropertyOp39
 70
     1
102
RTVSPropertyOp40
 70
     1
102
RTVSPropertyOp41
 70
     1
102
RTVSPropertyOp42
 70
     1
102
RTVSPropertyOp43
 70
     1
102
RTVSPropertyOp44
 70
     1
102
RTVSPropertyOp45
 70
     1
102
RTVSPropertyOp46
 70
     1
102
RTVSPropertyOp47
 70
     1
102
RTVSPropertyOp48
 70
     1
102
RTVSPropertyOp49
 70
     1
102
RTVSPropertyOp50
 70
     1
102
RTVSPropertyOp51
 70
     0
102
RTVSPropertyOp52
 70
     0
102
RTVSPropertyOp53
 70
     1
102
RTVSPropertyOp54
 70
     1
102
RTVSPropertyOp55
 70
     1
102
RTVSPropertyOp56
 70
     1
102
RTVSPropertyOp57
 70
     1
102
RTVSPropertyOp58
 70
     1
102
RTVSPropertyOp59
 70
     1
102
RTVSPropertyOp60
 70
     1
102
RTVSPropertyOp61
 70
     1
102
RTVSPropertyOp62
 70
     1
  0
XRECORD
  5
86A6
102
{ACAD_REACTORS
330
86A5
102
}
330
86A5
100
AcDbXrecord
280
     1
102
RTVSPost2010Prop28
280
     0
102
RTVSPost2010PropOp28
 70
     1
102
RTVSPost2010Prop29
280
     1
102
RTVSPost2010PropOp29
 70
     1
102
RTVSPost2010Prop30
280
     1
102
RTVSPost2010PropOp30
 70
     1
102
RTVSPost2010Prop31
280
     0
102
RTVSPost2010PropOp31
 70
     1
102
RTVSPost2010Prop32
280
     0
102
RTVSPost2010PropOp32
 70
     1
102
RTVSPost2010Prop33
280
     0
102
RTVSPost2010PropOp33
 70
     1
102
RTVSPost2010Prop34
280
     0
102
RTVSPost2010PropOp34
 70
     1
102
RTVSPost2010Prop35
280
     0
102
RTVSPost2010PropOp35
 70
     1
102
RTVSPost2010Prop36
280
     0
102
RTVSPost2010PropOp36
 70
     1
102
RTVSPost2010Prop37
 90
       50
102
RTVSPost2010PropOp37
 70
     0
102
RTVSPost2010Prop38
140
0.0
102
RTVSPost2010PropOp38
 70
     0
102
RTVSPost2010Prop39
140
1.0
102
RTVSPost2010PropOp39
 70
     0
102
RTVSPost2010Prop40
 90
        0
102
RTVSPost2010PropOp40
 70
     0
102
RTVSPost2010Prop41ColorIndex
 90
       18
102
RTVSPost2010Prop41ColorRGB
 90
        0
102
RTVSPost2010PropOp41
 70
     0
102
RTVSPost2010Prop42
 90
       50
102
RTVSPost2010PropOp42
 70
     0
102
RTVSPost2010Prop43
 90
        3
102
RTVSPost2010PropOp43
 70
     0
102
RTVSPost2010Prop44ColorIndex
 90
        5
102
RTVSPost2010Prop44ColorRGB
 90
      255
102
RTVSPost2010PropOp44
 70
     0
102
RTVSPost2010Prop45
280
     0
102
RTVSPost2010PropOp45
 70
     1
102
RTVSPost2010Prop46
 90
       50
102
RTVSPost2010PropOp46
 70
     0
102
RTVSPost2010Prop47
 90
       50
102
RTVSPost2010PropOp47
 70
     0
102
RTVSPost2010Prop48
 90
       50
102
RTVSPost2010PropOp48
 70
     0
102
RTVSPost2010Prop49
280
     0
102
RTVSPost2010PropOp49
 70
     1
102
RTVSPost2010Prop50
 90
       50
102
RTVSPost2010PropOp50
 70
     0
102
RTVSPost2010Prop51ColorIndex
 90
      256
102
RTVSPost2010Prop51ColorRGB
 90
-16777216
102
RTVSPost2010PropOp51
 70
     0
102
RTVSPost2010Prop52
140
1.0
102
RTVSPost2010PropOp52
 70
     0
102
RTVSPost2010Prop53
 90
        2
102
RTVSPost2010PropOp53
 70
     0
102
RTVSPost2010Prop54
  1
strokes_ogs.tif
102
RTVSPost2010PropOp54
 70
     0
102
RTVSPost2010Prop55
280
     0
102
RTVSPost2010PropOp55
 70
     1
102
RTVSPost2010Prop56
140
1.0
102
RTVSPost2010PropOp56
 70
     0
102
RTVSPost2010Prop57
140
1.0
102
RTVSPost2010PropOp57
 70
     0
102
RTVSPropertyOp0
 70
     0
102
RTVSPropertyOp1
 70
     0
102
RTVSPropertyOp2
 70
     0
102
RTVSPropertyOp3
 70
     0
102
RTVSPropertyOp4
 70
     0
102
RTVSPropertyOp5
 70
     0
102
RTVSPropertyOp6
 70
     0
102
RTVSPropertyOp7
 70
     0
102
RTVSPropertyOp8
 70
     0
102
RTVSPropertyOp9
 70
     0
102
RTVSPropertyOp10
 70
     0
102
RTVSPropertyOp11
 70
     0
102
RTVSPropertyOp12
 70
     0
102
RTVSPropertyOp13
 70
     0
102
RTVSPropertyOp14
 70
     2
102
RTVSPropertyOp15
 70
     0
102
RTVSPropertyOp16
 70
     0
102
RTVSPropertyOp17
 70
     0
102
RTVSPropertyOp18
 70
     0
102
RTVSPropertyOp19
 70
     0
102
RTVSPropertyOp20
 70
     0
102
RTVSPropertyOp21
 70
     0
102
RTVSPropertyOp22
 70
     0
102
RTVSPropertyOp23
 70
     0
102
RTVSPropertyOp24
 70
     0
102
RTVSPropertyOp25
 70
     0
102
RTVSPropertyOp26
 70
     0
102
RTVSPropertyOp27
 70
     0
102
RTVSPropertyOp28
 70
     1
102
RTVSPropertyOp29
 70
     1
102
RTVSPropertyOp30
 70
     1
102
RTVSPropertyOp31
 70
     1
102
RTVSPropertyOp32
 70
     1
102
RTVSPropertyOp33
 70
     1
102
RTVSPropertyOp34
 70
     1
102
RTVSPropertyOp35
 70
     1
102
RTVSPropertyOp36
 70
     1
102
RTVSPropertyOp37
 70
     0
102
RTVSPropertyOp38
 70
     0
102
RTVSPropertyOp39
 70
     0
102
RTVSPropertyOp40
 70
     0
102
RTVSPropertyOp41
 70
     0
102
RTVSPropertyOp42
 70
     0
102
RTVSPropertyOp43
 70
     0
102
RTVSPropertyOp44
 70
     0
102
RTVSPropertyOp45
 70
     1
102
RTVSPropertyOp46
 70
     0
102
RTVSPropertyOp47
 70
     0
102
RTVSPropertyOp48
 70
     0
102
RTVSPropertyOp49
 70
     1
102
RTVSPropertyOp50
 70
     0
102
RTVSPropertyOp51
 70
     0
102
RTVSPropertyOp52
 70
     0
102
RTVSPropertyOp53
 70
     0
102
RTVSPropertyOp54
 70
     0
102
RTVSPropertyOp55
 70
     1
102
RTVSPropertyOp56
 70
     0
102
RTVSPropertyOp57
 70
     0
102
RTVSPropertyOp58
 70
     0
102
RTVSPropertyOp59
 70
     0
102
RTVSPropertyOp60
 70
     0
102
RTVSPropertyOp61
 70
     0
102
RTVSPropertyOp62
 70
     0
  0
XRECORD
  5
868C
102
{ACAD_REACTORS
330
868B
102
}
330
868B
100
AcDbXrecord
280
     1
102
RTVSPost2010Prop28
280
     0
102
RTVSPost2010PropOp28
 70
     1
102
RTVSPost2010Prop29
280
     1
102
RTVSPost2010PropOp29
 70
     1
102
RTVSPost2010Prop30
280
     1
102
RTVSPost2010PropOp30
 70
     1
102
RTVSPost2010Prop31
280
     0
102
RTVSPost2010PropOp31
 70
     1
102
RTVSPost2010Prop32
280
     0
102
RTVSPost2010PropOp32
 70
     1
102
RTVSPost2010Prop33
280
     0
102
RTVSPost2010PropOp33
 70
     1
102
RTVSPost2010Prop34
280
     0
102
RTVSPost2010PropOp34
 70
     1
102
RTVSPost2010Prop35
280
     0
102
RTVSPost2010PropOp35
 70
     1
102
RTVSPost2010Prop36
280
     0
102
RTVSPost2010PropOp36
 70
     1
102
RTVSPost2010Prop37
 90
       50
102
RTVSPost2010PropOp37
 70
     1
102
RTVSPost2010Prop38
140
0.0
102
RTVSPost2010PropOp38
 70
     1
102
RTVSPost2010Prop39
140
1.0
102
RTVSPost2010PropOp39
 70
     1
102
RTVSPost2010Prop40
 90
        0
102
RTVSPost2010PropOp40
 70
     1
102
RTVSPost2010Prop41ColorIndex
 90
       18
102
RTVSPost2010Prop41ColorRGB
 90
        0
102
RTVSPost2010PropOp41
 70
     1
102
RTVSPost2010Prop42
 90
       50
102
RTVSPost2010PropOp42
 70
     1
102
RTVSPost2010Prop43
 90
        3
102
RTVSPost2010PropOp43
 70
     1
102
RTVSPost2010Prop44ColorIndex
 90
        5
102
RTVSPost2010Prop44ColorRGB
 90
      255
102
RTVSPost2010PropOp44
 70
     1
102
RTVSPost2010Prop45
280
     0
102
RTVSPost2010PropOp45
 70
     1
102
RTVSPost2010Prop46
 90
       50
102
RTVSPost2010PropOp46
 70
     1
102
RTVSPost2010Prop47
 90
       50
102
RTVSPost2010PropOp47
 70
     1
102
RTVSPost2010Prop48
 90
       50
102
RTVSPost2010PropOp48
 70
     1
102
RTVSPost2010Prop49
280
     0
102
RTVSPost2010PropOp49
 70
     1
102
RTVSPost2010Prop50
 90
       50
102
RTVSPost2010PropOp50
 70
     1
102
RTVSPost2010Prop51ColorIndex
 90
      256
102
RTVSPost2010Prop51ColorRGB
 90
-16777216
102
RTVSPost2010PropOp51
 70
     0
102
RTVSPost2010Prop52
140
1.0
102
RTVSPost2010PropOp52
 70
     0
102
RTVSPost2010Prop53
 90
        2
102
RTVSPost2010PropOp53
 70
     1
102
RTVSPost2010Prop54
  1
strokes_ogs.tif
102
RTVSPost2010PropOp54
 70
     1
102
RTVSPost2010Prop55
280
     0
102
RTVSPost2010PropOp55
 70
     1
102
RTVSPost2010Prop56
140
1.0
102
RTVSPost2010PropOp56
 70
     1
102
RTVSPost2010Prop57
140
1.0
102
RTVSPost2010PropOp57
 70
     1
102
RTVSPropertyOp0
 70
     1
102
RTVSPropertyOp1
 70
     1
102
RTVSPropertyOp2
 70
     1
102
RTVSPropertyOp3
 70
     1
102
RTVSPropertyOp4
 70
     1
102
RTVSPropertyOp5
 70
     1
102
RTVSPropertyOp6
 70
     1
102
RTVSPropertyOp7
 70
     1
102
RTVSPropertyOp8
 70
     1
102
RTVSPropertyOp9
 70
     1
102
RTVSPropertyOp10
 70
     1
102
RTVSPropertyOp11
 70
     1
102
RTVSPropertyOp12
 70
     1
102
RTVSPropertyOp13
 70
     1
102
RTVSPropertyOp14
 70
     1
102
RTVSPropertyOp15
 70
     1
102
RTVSPropertyOp16
 70
     1
102
RTVSPropertyOp17
 70
     1
102
RTVSPropertyOp18
 70
     1
102
RTVSPropertyOp19
 70
     1
102
RTVSPropertyOp20
 70
     1
102
RTVSPropertyOp21
 70
     1
102
RTVSPropertyOp22
 70
     1
102
RTVSPropertyOp23
 70
     1
102
RTVSPropertyOp24
 70
     1
102
RTVSPropertyOp25
 70
     1
102
RTVSPropertyOp26
 70
     1
102
RTVSPropertyOp27
 70
     1
102
RTVSPropertyOp28
 70
     1
102
RTVSPropertyOp29
 70
     1
102
RTVSPropertyOp30
 70
     1
102
RTVSPropertyOp31
 70
     1
102
RTVSPropertyOp32
 70
     1
102
RTVSPropertyOp33
 70
     1
102
RTVSPropertyOp34
 70
     1
102
RTVSPropertyOp35
 70
     1
102
RTVSPropertyOp36
 70
     1
102
RTVSPropertyOp37
 70
     1
102
RTVSPropertyOp38
 70
     1
102
RTVSPropertyOp39
 70
     1
102
RTVSPropertyOp40
 70
     1
102
RTVSPropertyOp41
 70
     1
102
RTVSPropertyOp42
 70
     1
102
RTVSPropertyOp43
 70
     1
102
RTVSPropertyOp44
 70
     1
102
RTVSPropertyOp45
 70
     1
102
RTVSPropertyOp46
 70
     1
102
RTVSPropertyOp47
 70
     1
102
RTVSPropertyOp48
 70
     1
102
RTVSPropertyOp49
 70
     1
102
RTVSPropertyOp50
 70
     1
102
RTVSPropertyOp51
 70
     0
102
RTVSPropertyOp52
 70
     0
102
RTVSPropertyOp53
 70
     1
102
RTVSPropertyOp54
 70
     1
102
RTVSPropertyOp55
 70
     1
102
RTVSPropertyOp56
 70
     1
102
RTVSPropertyOp57
 70
     1
102
RTVSPropertyOp58
 70
     1
102
RTVSPropertyOp59
 70
     1
102
RTVSPropertyOp60
 70
     1
102
RTVSPropertyOp61
 70
     1
102
RTVSPropertyOp62
 70
     1
  0
XRECORD
  5
86A2
102
{ACAD_REACTORS
330
86A1
102
}
330
86A1
100
AcDbXrecord
280
     1
102
RTVSPost2010Prop28
280
     0
102
RTVSPost2010PropOp28
 70
     1
102
RTVSPost2010Prop29
280
     1
102
RTVSPost2010PropOp29
 70
     1
102
RTVSPost2010Prop30
280
     1
102
RTVSPost2010PropOp30
 70
     1
102
RTVSPost2010Prop31
280
     0
102
RTVSPost2010PropOp31
 70
     1
102
RTVSPost2010Prop32
280
     0
102
RTVSPost2010PropOp32
 70
     1
102
RTVSPost2010Prop33
280
     0
102
RTVSPost2010PropOp33
 70
     1
102
RTVSPost2010Prop34
280
     0
102
RTVSPost2010PropOp34
 70
     1
102
RTVSPost2010Prop35
280
     0
102
RTVSPost2010PropOp35
 70
     1
102
RTVSPost2010Prop36
280
     0
102
RTVSPost2010PropOp36
 70
     1
102
RTVSPost2010Prop37
 90
       50
102
RTVSPost2010PropOp37
 70
     1
102
RTVSPost2010Prop38
140
0.0
102
RTVSPost2010PropOp38
 70
     1
102
RTVSPost2010Prop39
140
1.0
102
RTVSPost2010PropOp39
 70
     1
102
RTVSPost2010Prop40
 90
        0
102
RTVSPost2010PropOp40
 70
     1
102
RTVSPost2010Prop41ColorIndex
 90
       18
102
RTVSPost2010Prop41ColorRGB
 90
        0
102
RTVSPost2010PropOp41
 70
     1
102
RTVSPost2010Prop42
 90
       50
102
RTVSPost2010PropOp42
 70
     1
102
RTVSPost2010Prop43
 90
        3
102
RTVSPost2010PropOp43
 70
     1
102
RTVSPost2010Prop44ColorIndex
 90
        5
102
RTVSPost2010Prop44ColorRGB
 90
      255
102
RTVSPost2010PropOp44
 70
     1
102
RTVSPost2010Prop45
280
     0
102
RTVSPost2010PropOp45
 70
     1
102
RTVSPost2010Prop46
 90
       50
102
RTVSPost2010PropOp46
 70
     1
102
RTVSPost2010Prop47
 90
       50
102
RTVSPost2010PropOp47
 70
     1
102
RTVSPost2010Prop48
 90
       50
102
RTVSPost2010PropOp48
 70
     1
102
RTVSPost2010Prop49
280
     0
102
RTVSPost2010PropOp49
 70
     1
102
RTVSPost2010Prop50
 90
       50
102
RTVSPost2010PropOp50
 70
     1
102
RTVSPost2010Prop51ColorIndex
 90
      256
102
RTVSPost2010Prop51ColorRGB
 90
-16777216
102
RTVSPost2010PropOp51
 70
     0
102
RTVSPost2010Prop52
140
1.0
102
RTVSPost2010PropOp52
 70
     0
102
RTVSPost2010Prop53
 90
        2
102
RTVSPost2010PropOp53
 70
     1
102
RTVSPost2010Prop54
  1
strokes_ogs.tif
102
RTVSPost2010PropOp54
 70
     1
102
RTVSPost2010Prop55
280
     0
102
RTVSPost2010PropOp55
 70
     1
102
RTVSPost2010Prop56
140
1.0
102
RTVSPost2010PropOp56
 70
     1
102
RTVSPost2010Prop57
140
1.0
102
RTVSPost2010PropOp57
 70
     1
102
RTVSPropertyOp0
 70
     1
102
RTVSPropertyOp1
 70
     1
102
RTVSPropertyOp2
 70
     1
102
RTVSPropertyOp3
 70
     1
102
RTVSPropertyOp4
 70
     1
102
RTVSPropertyOp5
 70
     1
102
RTVSPropertyOp6
 70
     1
102
RTVSPropertyOp7
 70
     1
102
RTVSPropertyOp8
 70
     1
102
RTVSPropertyOp9
 70
     1
102
RTVSPropertyOp10
 70
     1
102
RTVSPropertyOp11
 70
     1
102
RTVSPropertyOp12
 70
     1
102
RTVSPropertyOp13
 70
     1
102
RTVSPropertyOp14
 70
     1
102
RTVSPropertyOp15
 70
     1
102
RTVSPropertyOp16
 70
     1
102
RTVSPropertyOp17
 70
     1
102
RTVSPropertyOp18
 70
     1
102
RTVSPropertyOp19
 70
     1
102
RTVSPropertyOp20
 70
     1
102
RTVSPropertyOp21
 70
     1
102
RTVSPropertyOp22
 70
     1
102
RTVSPropertyOp23
 70
     1
102
RTVSPropertyOp24
 70
     1
102
RTVSPropertyOp25
 70
     1
102
RTVSPropertyOp26
 70
     1
102
RTVSPropertyOp27
 70
     1
102
RTVSPropertyOp28
 70
     1
102
RTVSPropertyOp29
 70
     1
102
RTVSPropertyOp30
 70
     1
102
RTVSPropertyOp31
 70
     1
102
RTVSPropertyOp32
 70
     1
102
RTVSPropertyOp33
 70
     1
102
RTVSPropertyOp34
 70
     1
102
RTVSPropertyOp35
 70
     1
102
RTVSPropertyOp36
 70
     1
102
RTVSPropertyOp37
 70
     1
102
RTVSPropertyOp38
 70
     1
102
RTVSPropertyOp39
 70
     1
102
RTVSPropertyOp40
 70
     1
102
RTVSPropertyOp41
 70
     1
102
RTVSPropertyOp42
 70
     1
102
RTVSPropertyOp43
 70
     1
102
RTVSPropertyOp44
 70
     1
102
RTVSPropertyOp45
 70
     1
102
RTVSPropertyOp46
 70
     1
102
RTVSPropertyOp47
 70
     1
102
RTVSPropertyOp48
 70
     1
102
RTVSPropertyOp49
 70
     1
102
RTVSPropertyOp50
 70
     1
102
RTVSPropertyOp51
 70
     0
102
RTVSPropertyOp52
 70
     0
102
RTVSPropertyOp53
 70
     1
102
RTVSPropertyOp54
 70
     1
102
RTVSPropertyOp55
 70
     1
102
RTVSPropertyOp56
 70
     1
102
RTVSPropertyOp57
 70
     1
102
RTVSPropertyOp58
 70
     1
102
RTVSPropertyOp59
 70
     1
102
RTVSPropertyOp60
 70
     1
102
RTVSPropertyOp61
 70
     1
102
RTVSPropertyOp62
 70
     1
  0
XRECORD
  5
86A0
102
{ACAD_REACTORS
330
869F
102
}
330
869F
100
AcDbXrecord
280
     1
102
RTVSPost2010Prop28
280
     0
102
RTVSPost2010PropOp28
 70
     1
102
RTVSPost2010Prop29
280
     1
102
RTVSPost2010PropOp29
 70
     1
102
RTVSPost2010Prop30
280
     1
102
RTVSPost2010PropOp30
 70
     1
102
RTVSPost2010Prop31
280
     0
102
RTVSPost2010PropOp31
 70
     1
102
RTVSPost2010Prop32
280
     0
102
RTVSPost2010PropOp32
 70
     1
102
RTVSPost2010Prop33
280
     0
102
RTVSPost2010PropOp33
 70
     1
102
RTVSPost2010Prop34
280
     0
102
RTVSPost2010PropOp34
 70
     1
102
RTVSPost2010Prop35
280
     0
102
RTVSPost2010PropOp35
 70
     1
102
RTVSPost2010Prop36
280
     0
102
RTVSPost2010PropOp36
 70
     1
102
RTVSPost2010Prop37
 90
       50
102
RTVSPost2010PropOp37
 70
     1
102
RTVSPost2010Prop38
140
0.0
102
RTVSPost2010PropOp38
 70
     1
102
RTVSPost2010Prop39
140
1.0
102
RTVSPost2010PropOp39
 70
     1
102
RTVSPost2010Prop40
 90
        0
102
RTVSPost2010PropOp40
 70
     1
102
RTVSPost2010Prop41ColorIndex
 90
       18
102
RTVSPost2010Prop41ColorRGB
 90
        0
102
RTVSPost2010PropOp41
 70
     1
102
RTVSPost2010Prop42
 90
       50
102
RTVSPost2010PropOp42
 70
     1
102
RTVSPost2010Prop43
 90
        3
102
RTVSPost2010PropOp43
 70
     1
102
RTVSPost2010Prop44ColorIndex
 90
        5
102
RTVSPost2010Prop44ColorRGB
 90
      255
102
RTVSPost2010PropOp44
 70
     1
102
RTVSPost2010Prop45
280
     0
102
RTVSPost2010PropOp45
 70
     1
102
RTVSPost2010Prop46
 90
       50
102
RTVSPost2010PropOp46
 70
     1
102
RTVSPost2010Prop47
 90
       50
102
RTVSPost2010PropOp47
 70
     1
102
RTVSPost2010Prop48
 90
       50
102
RTVSPost2010PropOp48
 70
     1
102
RTVSPost2010Prop49
280
     0
102
RTVSPost2010PropOp49
 70
     1
102
RTVSPost2010Prop50
 90
       50
102
RTVSPost2010PropOp50
 70
     1
102
RTVSPost2010Prop51ColorIndex
 90
      256
102
RTVSPost2010Prop51ColorRGB
 90
-16777216
102
RTVSPost2010PropOp51
 70
     0
102
RTVSPost2010Prop52
140
1.0
102
RTVSPost2010PropOp52
 70
     0
102
RTVSPost2010Prop53
 90
        2
102
RTVSPost2010PropOp53
 70
     1
102
RTVSPost2010Prop54
  1
strokes_ogs.tif
102
RTVSPost2010PropOp54
 70
     1
102
RTVSPost2010Prop55
280
     0
102
RTVSPost2010PropOp55
 70
     1
102
RTVSPost2010Prop56
140
1.0
102
RTVSPost2010PropOp56
 70
     1
102
RTVSPost2010Prop57
140
1.0
102
RTVSPost2010PropOp57
 70
     1
102
RTVSPropertyOp0
 70
     1
102
RTVSPropertyOp1
 70
     1
102
RTVSPropertyOp2
 70
     1
102
RTVSPropertyOp3
 70
     1
102
RTVSPropertyOp4
 70
     1
102
RTVSPropertyOp5
 70
     1
102
RTVSPropertyOp6
 70
     1
102
RTVSPropertyOp7
 70
     1
102
RTVSPropertyOp8
 70
     1
102
RTVSPropertyOp9
 70
     1
102
RTVSPropertyOp10
 70
     1
102
RTVSPropertyOp11
 70
     1
102
RTVSPropertyOp12
 70
     1
102
RTVSPropertyOp13
 70
     1
102
RTVSPropertyOp14
 70
     1
102
RTVSPropertyOp15
 70
     1
102
RTVSPropertyOp16
 70
     1
102
RTVSPropertyOp17
 70
     1
102
RTVSPropertyOp18
 70
     1
102
RTVSPropertyOp19
 70
     1
102
RTVSPropertyOp20
 70
     1
102
RTVSPropertyOp21
 70
     1
102
RTVSPropertyOp22
 70
     1
102
RTVSPropertyOp23
 70
     1
102
RTVSPropertyOp24
 70
     1
102
RTVSPropertyOp25
 70
     1
102
RTVSPropertyOp26
 70
     1
102
RTVSPropertyOp27
 70
     1
102
RTVSPropertyOp28
 70
     1
102
RTVSPropertyOp29
 70
     1
102
RTVSPropertyOp30
 70
     1
102
RTVSPropertyOp31
 70
     1
102
RTVSPropertyOp32
 70
     1
102
RTVSPropertyOp33
 70
     1
102
RTVSPropertyOp34
 70
     1
102
RTVSPropertyOp35
 70
     1
102
RTVSPropertyOp36
 70
     1
102
RTVSPropertyOp37
 70
     1
102
RTVSPropertyOp38
 70
     1
102
RTVSPropertyOp39
 70
     1
102
RTVSPropertyOp40
 70
     1
102
RTVSPropertyOp41
 70
     1
102
RTVSPropertyOp42
 70
     1
102
RTVSPropertyOp43
 70
     1
102
RTVSPropertyOp44
 70
     1
102
RTVSPropertyOp45
 70
     1
102
RTVSPropertyOp46
 70
     1
102
RTVSPropertyOp47
 70
     1
102
RTVSPropertyOp48
 70
     1
102
RTVSPropertyOp49
 70
     1
102
RTVSPropertyOp50
 70
     1
102
RTVSPropertyOp51
 70
     0
102
RTVSPropertyOp52
 70
     0
102
RTVSPropertyOp53
 70
     1
102
RTVSPropertyOp54
 70
     1
102
RTVSPropertyOp55
 70
     1
102
RTVSPropertyOp56
 70
     1
102
RTVSPropertyOp57
 70
     1
102
RTVSPropertyOp58
 70
     1
102
RTVSPropertyOp59
 70
     1
102
RTVSPropertyOp60
 70
     1
102
RTVSPropertyOp61
 70
     1
102
RTVSPropertyOp62
 70
     1
  0
XRECORD
  5
869A
102
{ACAD_REACTORS
330
8699
102
}
330
8699
100
AcDbXrecord
280
     1
102
RTVSPost2010Prop28
280
     0
102
RTVSPost2010PropOp28
 70
     1
102
RTVSPost2010Prop29
280
     1
102
RTVSPost2010PropOp29
 70
     1
102
RTVSPost2010Prop30
280
     1
102
RTVSPost2010PropOp30
 70
     1
102
RTVSPost2010Prop31
280
     0
102
RTVSPost2010PropOp31
 70
     1
102
RTVSPost2010Prop32
280
     0
102
RTVSPost2010PropOp32
 70
     1
102
RTVSPost2010Prop33
280
     0
102
RTVSPost2010PropOp33
 70
     1
102
RTVSPost2010Prop34
280
     0
102
RTVSPost2010PropOp34
 70
     1
102
RTVSPost2010Prop35
280
     0
102
RTVSPost2010PropOp35
 70
     1
102
RTVSPost2010Prop36
280
     0
102
RTVSPost2010PropOp36
 70
     1
102
RTVSPost2010Prop37
 90
       50
102
RTVSPost2010PropOp37
 70
     1
102
RTVSPost2010Prop38
140
0.0
102
RTVSPost2010PropOp38
 70
     1
102
RTVSPost2010Prop39
140
1.0
102
RTVSPost2010PropOp39
 70
     1
102
RTVSPost2010Prop40
 90
        0
102
RTVSPost2010PropOp40
 70
     1
102
RTVSPost2010Prop41ColorIndex
 90
       18
102
RTVSPost2010Prop41ColorRGB
 90
        0
102
RTVSPost2010PropOp41
 70
     1
102
RTVSPost2010Prop42
 90
       50
102
RTVSPost2010PropOp42
 70
     1
102
RTVSPost2010Prop43
 90
        3
102
RTVSPost2010PropOp43
 70
     1
102
RTVSPost2010Prop44ColorIndex
 90
        5
102
RTVSPost2010Prop44ColorRGB
 90
      255
102
RTVSPost2010PropOp44
 70
     1
102
RTVSPost2010Prop45
280
     0
102
RTVSPost2010PropOp45
 70
     1
102
RTVSPost2010Prop46
 90
       50
102
RTVSPost2010PropOp46
 70
     1
102
RTVSPost2010Prop47
 90
       50
102
RTVSPost2010PropOp47
 70
     1
102
RTVSPost2010Prop48
 90
       50
102
RTVSPost2010PropOp48
 70
     1
102
RTVSPost2010Prop49
280
     0
102
RTVSPost2010PropOp49
 70
     1
102
RTVSPost2010Prop50
 90
       50
102
RTVSPost2010PropOp50
 70
     1
102
RTVSPost2010Prop51ColorIndex
 90
      256
102
RTVSPost2010Prop51ColorRGB
 90
-16777216
102
RTVSPost2010PropOp51
 70
     0
102
RTVSPost2010Prop52
140
1.0
102
RTVSPost2010PropOp52
 70
     0
102
RTVSPost2010Prop53
 90
        2
102
RTVSPost2010PropOp53
 70
     1
102
RTVSPost2010Prop54
  1
strokes_ogs.tif
102
RTVSPost2010PropOp54
 70
     1
102
RTVSPost2010Prop55
280
     0
102
RTVSPost2010PropOp55
 70
     1
102
RTVSPost2010Prop56
140
1.0
102
RTVSPost2010PropOp56
 70
     1
102
RTVSPost2010Prop57
140
1.0
102
RTVSPost2010PropOp57
 70
     1
102
RTVSPropertyOp0
 70
     1
102
RTVSPropertyOp1
 70
     1
102
RTVSPropertyOp2
 70
     1
102
RTVSPropertyOp3
 70
     1
102
RTVSPropertyOp4
 70
     1
102
RTVSPropertyOp5
 70
     1
102
RTVSPropertyOp6
 70
     1
102
RTVSPropertyOp7
 70
     1
102
RTVSPropertyOp8
 70
     1
102
RTVSPropertyOp9
 70
     1
102
RTVSPropertyOp10
 70
     1
102
RTVSPropertyOp11
 70
     1
102
RTVSPropertyOp12
 70
     1
102
RTVSPropertyOp13
 70
     1
102
RTVSPropertyOp14
 70
     1
102
RTVSPropertyOp15
 70
     1
102
RTVSPropertyOp16
 70
     1
102
RTVSPropertyOp17
 70
     1
102
RTVSPropertyOp18
 70
     1
102
RTVSPropertyOp19
 70
     1
102
RTVSPropertyOp20
 70
     1
102
RTVSPropertyOp21
 70
     1
102
RTVSPropertyOp22
 70
     1
102
RTVSPropertyOp23
 70
     1
102
RTVSPropertyOp24
 70
     1
102
RTVSPropertyOp25
 70
     1
102
RTVSPropertyOp26
 70
     1
102
RTVSPropertyOp27
 70
     1
102
RTVSPropertyOp28
 70
     1
102
RTVSPropertyOp29
 70
     1
102
RTVSPropertyOp30
 70
     1
102
RTVSPropertyOp31
 70
     1
102
RTVSPropertyOp32
 70
     1
102
RTVSPropertyOp33
 70
     1
102
RTVSPropertyOp34
 70
     1
102
RTVSPropertyOp35
 70
     1
102
RTVSPropertyOp36
 70
     1
102
RTVSPropertyOp37
 70
     1
102
RTVSPropertyOp38
 70
     1
102
RTVSPropertyOp39
 70
     1
102
RTVSPropertyOp40
 70
     1
102
RTVSPropertyOp41
 70
     1
102
RTVSPropertyOp42
 70
     1
102
RTVSPropertyOp43
 70
     1
102
RTVSPropertyOp44
 70
     1
102
RTVSPropertyOp45
 70
     1
102
RTVSPropertyOp46
 70
     1
102
RTVSPropertyOp47
 70
     1
102
RTVSPropertyOp48
 70
     1
102
RTVSPropertyOp49
 70
     1
102
RTVSPropertyOp50
 70
     1
102
RTVSPropertyOp51
 70
     0
102
RTVSPropertyOp52
 70
     0
102
RTVSPropertyOp53
 70
     1
102
RTVSPropertyOp54
 70
     1
102
RTVSPropertyOp55
 70
     1
102
RTVSPropertyOp56
 70
     1
102
RTVSPropertyOp57
 70
     1
102
RTVSPropertyOp58
 70
     1
102
RTVSPropertyOp59
 70
     1
102
RTVSPropertyOp60
 70
     1
102
RTVSPropertyOp61
 70
     1
102
RTVSPropertyOp62
 70
     1
  0
XRECORD
  5
869C
102
{ACAD_REACTORS
330
869B
102
}
330
869B
100
AcDbXrecord
280
     1
102
RTVSPost2010Prop28
280
     0
102
RTVSPost2010PropOp28
 70
     1
102
RTVSPost2010Prop29
280
     1
102
RTVSPost2010PropOp29
 70
     1
102
RTVSPost2010Prop30
280
     1
102
RTVSPost2010PropOp30
 70
     1
102
RTVSPost2010Prop31
280
     0
102
RTVSPost2010PropOp31
 70
     1
102
RTVSPost2010Prop32
280
     0
102
RTVSPost2010PropOp32
 70
     1
102
RTVSPost2010Prop33
280
     0
102
RTVSPost2010PropOp33
 70
     1
102
RTVSPost2010Prop34
280
     0
102
RTVSPost2010PropOp34
 70
     1
102
RTVSPost2010Prop35
280
     0
102
RTVSPost2010PropOp35
 70
     1
102
RTVSPost2010Prop36
280
     0
102
RTVSPost2010PropOp36
 70
     1
102
RTVSPost2010Prop37
 90
       50
102
RTVSPost2010PropOp37
 70
     1
102
RTVSPost2010Prop38
140
0.0
102
RTVSPost2010PropOp38
 70
     1
102
RTVSPost2010Prop39
140
1.0
102
RTVSPost2010PropOp39
 70
     1
102
RTVSPost2010Prop40
 90
        0
102
RTVSPost2010PropOp40
 70
     1
102
RTVSPost2010Prop41ColorIndex
 90
       18
102
RTVSPost2010Prop41ColorRGB
 90
        0
102
RTVSPost2010PropOp41
 70
     1
102
RTVSPost2010Prop42
 90
       50
102
RTVSPost2010PropOp42
 70
     1
102
RTVSPost2010Prop43
 90
        3
102
RTVSPost2010PropOp43
 70
     1
102
RTVSPost2010Prop44ColorIndex
 90
        5
102
RTVSPost2010Prop44ColorRGB
 90
      255
102
RTVSPost2010PropOp44
 70
     1
102
RTVSPost2010Prop45
280
     0
102
RTVSPost2010PropOp45
 70
     1
102
RTVSPost2010Prop46
 90
       50
102
RTVSPost2010PropOp46
 70
     1
102
RTVSPost2010Prop47
 90
       50
102
RTVSPost2010PropOp47
 70
     1
102
RTVSPost2010Prop48
 90
       50
102
RTVSPost2010PropOp48
 70
     1
102
RTVSPost2010Prop49
280
     0
102
RTVSPost2010PropOp49
 70
     1
102
RTVSPost2010Prop50
 90
       50
102
RTVSPost2010PropOp50
 70
     1
102
RTVSPost2010Prop51ColorIndex
 90
      256
102
RTVSPost2010Prop51ColorRGB
 90
-16777216
102
RTVSPost2010PropOp51
 70
     0
102
RTVSPost2010Prop52
140
1.0
102
RTVSPost2010PropOp52
 70
     0
102
RTVSPost2010Prop53
 90
        2
102
RTVSPost2010PropOp53
 70
     1
102
RTVSPost2010Prop54
  1
strokes_ogs.tif
102
RTVSPost2010PropOp54
 70
     1
102
RTVSPost2010Prop55
280
     0
102
RTVSPost2010PropOp55
 70
     1
102
RTVSPost2010Prop56
140
1.0
102
RTVSPost2010PropOp56
 70
     1
102
RTVSPost2010Prop57
140
1.0
102
RTVSPost2010PropOp57
 70
     1
102
RTVSPropertyOp0
 70
     1
102
RTVSPropertyOp1
 70
     1
102
RTVSPropertyOp2
 70
     1
102
RTVSPropertyOp3
 70
     1
102
RTVSPropertyOp4
 70
     1
102
RTVSPropertyOp5
 70
     1
102
RTVSPropertyOp6
 70
     1
102
RTVSPropertyOp7
 70
     1
102
RTVSPropertyOp8
 70
     1
102
RTVSPropertyOp9
 70
     1
102
RTVSPropertyOp10
 70
     1
102
RTVSPropertyOp11
 70
     1
102
RTVSPropertyOp12
 70
     1
102
RTVSPropertyOp13
 70
     1
102
RTVSPropertyOp14
 70
     1
102
RTVSPropertyOp15
 70
     1
102
RTVSPropertyOp16
 70
     1
102
RTVSPropertyOp17
 70
     1
102
RTVSPropertyOp18
 70
     1
102
RTVSPropertyOp19
 70
     1
102
RTVSPropertyOp20
 70
     1
102
RTVSPropertyOp21
 70
     1
102
RTVSPropertyOp22
 70
     1
102
RTVSPropertyOp23
 70
     1
102
RTVSPropertyOp24
 70
     1
102
RTVSPropertyOp25
 70
     1
102
RTVSPropertyOp26
 70
     1
102
RTVSPropertyOp27
 70
     1
102
RTVSPropertyOp28
 70
     1
102
RTVSPropertyOp29
 70
     1
102
RTVSPropertyOp30
 70
     1
102
RTVSPropertyOp31
 70
     1
102
RTVSPropertyOp32
 70
     1
102
RTVSPropertyOp33
 70
     1
102
RTVSPropertyOp34
 70
     1
102
RTVSPropertyOp35
 70
     1
102
RTVSPropertyOp36
 70
     1
102
RTVSPropertyOp37
 70
     1
102
RTVSPropertyOp38
 70
     1
102
RTVSPropertyOp39
 70
     1
102
RTVSPropertyOp40
 70
     1
102
RTVSPropertyOp41
 70
     1
102
RTVSPropertyOp42
 70
     1
102
RTVSPropertyOp43
 70
     1
102
RTVSPropertyOp44
 70
     1
102
RTVSPropertyOp45
 70
     1
102
RTVSPropertyOp46
 70
     1
102
RTVSPropertyOp47
 70
     1
102
RTVSPropertyOp48
 70
     1
102
RTVSPropertyOp49
 70
     1
102
RTVSPropertyOp50
 70
     1
102
RTVSPropertyOp51
 70
     0
102
RTVSPropertyOp52
 70
     0
102
RTVSPropertyOp53
 70
     1
102
RTVSPropertyOp54
 70
     1
102
RTVSPropertyOp55
 70
     1
102
RTVSPropertyOp56
 70
     1
102
RTVSPropertyOp57
 70
     1
102
RTVSPropertyOp58
 70
     1
102
RTVSPropertyOp59
 70
     1
102
RTVSPropertyOp60
 70
     1
102
RTVSPropertyOp61
 70
     1
102
RTVSPropertyOp62
 70
     1
  0
XRECORD
  5
8692
102
{ACAD_REACTORS
330
8691
102
}
330
8691
100
AcDbXrecord
280
     1
102
RTVSPost2010Prop28
280
     0
102
RTVSPost2010PropOp28
 70
     1
102
RTVSPost2010Prop29
280
     1
102
RTVSPost2010PropOp29
 70
     1
102
RTVSPost2010Prop30
280
     1
102
RTVSPost2010PropOp30
 70
     1
102
RTVSPost2010Prop31
280
     0
102
RTVSPost2010PropOp31
 70
     1
102
RTVSPost2010Prop32
280
     0
102
RTVSPost2010PropOp32
 70
     1
102
RTVSPost2010Prop33
280
     0
102
RTVSPost2010PropOp33
 70
     1
102
RTVSPost2010Prop34
280
     0
102
RTVSPost2010PropOp34
 70
     1
102
RTVSPost2010Prop35
280
     0
102
RTVSPost2010PropOp35
 70
     1
102
RTVSPost2010Prop36
280
     0
102
RTVSPost2010PropOp36
 70
     1
102
RTVSPost2010Prop37
 90
       50
102
RTVSPost2010PropOp37
 70
     1
102
RTVSPost2010Prop38
140
0.0
102
RTVSPost2010PropOp38
 70
     1
102
RTVSPost2010Prop39
140
1.0
102
RTVSPost2010PropOp39
 70
     1
102
RTVSPost2010Prop40
 90
        0
102
RTVSPost2010PropOp40
 70
     1
102
RTVSPost2010Prop41ColorIndex
 90
       18
102
RTVSPost2010Prop41ColorRGB
 90
        0
102
RTVSPost2010PropOp41
 70
     1
102
RTVSPost2010Prop42
 90
       50
102
RTVSPost2010PropOp42
 70
     1
102
RTVSPost2010Prop43
 90
        3
102
RTVSPost2010PropOp43
 70
     1
102
RTVSPost2010Prop44ColorIndex
 90
        5
102
RTVSPost2010Prop44ColorRGB
 90
      255
102
RTVSPost2010PropOp44
 70
     1
102
RTVSPost2010Prop45
280
     0
102
RTVSPost2010PropOp45
 70
     1
102
RTVSPost2010Prop46
 90
       50
102
RTVSPost2010PropOp46
 70
     1
102
RTVSPost2010Prop47
 90
       50
102
RTVSPost2010PropOp47
 70
     1
102
RTVSPost2010Prop48
 90
       50
102
RTVSPost2010PropOp48
 70
     1
102
RTVSPost2010Prop49
280
     0
102
RTVSPost2010PropOp49
 70
     1
102
RTVSPost2010Prop50
 90
       50
102
RTVSPost2010PropOp50
 70
     1
102
RTVSPost2010Prop51ColorIndex
 90
      256
102
RTVSPost2010Prop51ColorRGB
 90
-16777216
102
RTVSPost2010PropOp51
 70
     0
102
RTVSPost2010Prop52
140
1.0
102
RTVSPost2010PropOp52
 70
     0
102
RTVSPost2010Prop53
 90
        2
102
RTVSPost2010PropOp53
 70
     1
102
RTVSPost2010Prop54
  1
strokes_ogs.tif
102
RTVSPost2010PropOp54
 70
     1
102
RTVSPost2010Prop55
280
     0
102
RTVSPost2010PropOp55
 70
     1
102
RTVSPost2010Prop56
140
1.0
102
RTVSPost2010PropOp56
 70
     1
102
RTVSPost2010Prop57
140
1.0
102
RTVSPost2010PropOp57
 70
     1
102
RTVSPropertyOp0
 70
     1
102
RTVSPropertyOp1
 70
     1
102
RTVSPropertyOp2
 70
     1
102
RTVSPropertyOp3
 70
     1
102
RTVSPropertyOp4
 70
     1
102
RTVSPropertyOp5
 70
     1
102
RTVSPropertyOp6
 70
     1
102
RTVSPropertyOp7
 70
     1
102
RTVSPropertyOp8
 70
     1
102
RTVSPropertyOp9
 70
     1
102
RTVSPropertyOp10
 70
     1
102
RTVSPropertyOp11
 70
     1
102
RTVSPropertyOp12
 70
     1
102
RTVSPropertyOp13
 70
     1
102
RTVSPropertyOp14
 70
     1
102
RTVSPropertyOp15
 70
     1
102
RTVSPropertyOp16
 70
     1
102
RTVSPropertyOp17
 70
     1
102
RTVSPropertyOp18
 70
     1
102
RTVSPropertyOp19
 70
     1
102
RTVSPropertyOp20
 70
     1
102
RTVSPropertyOp21
 70
     1
102
RTVSPropertyOp22
 70
     1
102
RTVSPropertyOp23
 70
     1
102
RTVSPropertyOp24
 70
     1
102
RTVSPropertyOp25
 70
     1
102
RTVSPropertyOp26
 70
     1
102
RTVSPropertyOp27
 70
     1
102
RTVSPropertyOp28
 70
     1
102
RTVSPropertyOp29
 70
     1
102
RTVSPropertyOp30
 70
     1
102
RTVSPropertyOp31
 70
     1
102
RTVSPropertyOp32
 70
     1
102
RTVSPropertyOp33
 70
     1
102
RTVSPropertyOp34
 70
     1
102
RTVSPropertyOp35
 70
     1
102
RTVSPropertyOp36
 70
     1
102
RTVSPropertyOp37
 70
     1
102
RTVSPropertyOp38
 70
     1
102
RTVSPropertyOp39
 70
     1
102
RTVSPropertyOp40
 70
     1
102
RTVSPropertyOp41
 70
     1
102
RTVSPropertyOp42
 70
     1
102
RTVSPropertyOp43
 70
     1
102
RTVSPropertyOp44
 70
     1
102
RTVSPropertyOp45
 70
     1
102
RTVSPropertyOp46
 70
     1
102
RTVSPropertyOp47
 70
     1
102
RTVSPropertyOp48
 70
     1
102
RTVSPropertyOp49
 70
     1
102
RTVSPropertyOp50
 70
     1
102
RTVSPropertyOp51
 70
     0
102
RTVSPropertyOp52
 70
     0
102
RTVSPropertyOp53
 70
     1
102
RTVSPropertyOp54
 70
     1
102
RTVSPropertyOp55
 70
     1
102
RTVSPropertyOp56
 70
     1
102
RTVSPropertyOp57
 70
     1
102
RTVSPropertyOp58
 70
     1
102
RTVSPropertyOp59
 70
     1
102
RTVSPropertyOp60
 70
     1
102
RTVSPropertyOp61
 70
     1
102
RTVSPropertyOp62
 70
     1
  0
XRECORD
  5
8686
102
{ACAD_REACTORS
330
8685
102
}
330
8685
100
AcDbXrecord
280
     1
102
RTVSPost2010Prop28
280
     0
102
RTVSPost2010PropOp28
 70
     1
102
RTVSPost2010Prop29
280
     1
102
RTVSPost2010PropOp29
 70
     1
102
RTVSPost2010Prop30
280
     1
102
RTVSPost2010PropOp30
 70
     1
102
RTVSPost2010Prop31
280
     0
102
RTVSPost2010PropOp31
 70
     1
102
RTVSPost2010Prop32
280
     0
102
RTVSPost2010PropOp32
 70
     1
102
RTVSPost2010Prop33
280
     0
102
RTVSPost2010PropOp33
 70
     1
102
RTVSPost2010Prop34
280
     0
102
RTVSPost2010PropOp34
 70
     1
102
RTVSPost2010Prop35
280
     0
102
RTVSPost2010PropOp35
 70
     1
102
RTVSPost2010Prop36
280
     0
102
RTVSPost2010PropOp36
 70
     1
102
RTVSPost2010Prop37
 90
       50
102
RTVSPost2010PropOp37
 70
     1
102
RTVSPost2010Prop38
140
0.0
102
RTVSPost2010PropOp38
 70
     1
102
RTVSPost2010Prop39
140
1.0
102
RTVSPost2010PropOp39
 70
     1
102
RTVSPost2010Prop40
 90
        0
102
RTVSPost2010PropOp40
 70
     1
102
RTVSPost2010Prop41ColorIndex
 90
       18
102
RTVSPost2010Prop41ColorRGB
 90
        0
102
RTVSPost2010PropOp41
 70
     1
102
RTVSPost2010Prop42
 90
       50
102
RTVSPost2010PropOp42
 70
     1
102
RTVSPost2010Prop43
 90
        3
102
RTVSPost2010PropOp43
 70
     1
102
RTVSPost2010Prop44ColorIndex
 90
        5
102
RTVSPost2010Prop44ColorRGB
 90
      255
102
RTVSPost2010PropOp44
 70
     1
102
RTVSPost2010Prop45
280
     0
102
RTVSPost2010PropOp45
 70
     1
102
RTVSPost2010Prop46
 90
       50
102
RTVSPost2010PropOp46
 70
     1
102
RTVSPost2010Prop47
 90
       50
102
RTVSPost2010PropOp47
 70
     1
102
RTVSPost2010Prop48
 90
       50
102
RTVSPost2010PropOp48
 70
     1
102
RTVSPost2010Prop49
280
     0
102
RTVSPost2010PropOp49
 70
     1
102
RTVSPost2010Prop50
 90
       50
102
RTVSPost2010PropOp50
 70
     1
102
RTVSPost2010Prop51ColorIndex
 90
      256
102
RTVSPost2010Prop51ColorRGB
 90
-16777216
102
RTVSPost2010PropOp51
 70
     0
102
RTVSPost2010Prop52
140
1.0
102
RTVSPost2010PropOp52
 70
     0
102
RTVSPost2010Prop53
 90
        2
102
RTVSPost2010PropOp53
 70
     1
102
RTVSPost2010Prop54
  1
strokes_ogs.tif
102
RTVSPost2010PropOp54
 70
     1
102
RTVSPost2010Prop55
280
     0
102
RTVSPost2010PropOp55
 70
     1
102
RTVSPost2010Prop56
140
1.0
102
RTVSPost2010PropOp56
 70
     1
102
RTVSPost2010Prop57
140
1.0
102
RTVSPost2010PropOp57
 70
     1
102
RTVSPropertyOp0
 70
     1
102
RTVSPropertyOp1
 70
     1
102
RTVSPropertyOp2
 70
     1
102
RTVSPropertyOp3
 70
     1
102
RTVSPropertyOp4
 70
     1
102
RTVSPropertyOp5
 70
     1
102
RTVSPropertyOp6
 70
     1
102
RTVSPropertyOp7
 70
     1
102
RTVSPropertyOp8
 70
     1
102
RTVSPropertyOp9
 70
     1
102
RTVSPropertyOp10
 70
     1
102
RTVSPropertyOp11
 70
     1
102
RTVSPropertyOp12
 70
     1
102
RTVSPropertyOp13
 70
     1
102
RTVSPropertyOp14
 70
     1
102
RTVSPropertyOp15
 70
     1
102
RTVSPropertyOp16
 70
     1
102
RTVSPropertyOp17
 70
     1
102
RTVSPropertyOp18
 70
     1
102
RTVSPropertyOp19
 70
     1
102
RTVSPropertyOp20
 70
     1
102
RTVSPropertyOp21
 70
     1
102
RTVSPropertyOp22
 70
     1
102
RTVSPropertyOp23
 70
     1
102
RTVSPropertyOp24
 70
     1
102
RTVSPropertyOp25
 70
     1
102
RTVSPropertyOp26
 70
     1
102
RTVSPropertyOp27
 70
     1
102
RTVSPropertyOp28
 70
     1
102
RTVSPropertyOp29
 70
     1
102
RTVSPropertyOp30
 70
     1
102
RTVSPropertyOp31
 70
     1
102
RTVSPropertyOp32
 70
     1
102
RTVSPropertyOp33
 70
     1
102
RTVSPropertyOp34
 70
     1
102
RTVSPropertyOp35
 70
     1
102
RTVSPropertyOp36
 70
     1
102
RTVSPropertyOp37
 70
     1
102
RTVSPropertyOp38
 70
     1
102
RTVSPropertyOp39
 70
     1
102
RTVSPropertyOp40
 70
     1
102
RTVSPropertyOp41
 70
     1
102
RTVSPropertyOp42
 70
     1
102
RTVSPropertyOp43
 70
     1
102
RTVSPropertyOp44
 70
     1
102
RTVSPropertyOp45
 70
     1
102
RTVSPropertyOp46
 70
     1
102
RTVSPropertyOp47
 70
     1
102
RTVSPropertyOp48
 70
     1
102
RTVSPropertyOp49
 70
     1
102
RTVSPropertyOp50
 70
     1
102
RTVSPropertyOp51
 70
     0
102
RTVSPropertyOp52
 70
     0
102
RTVSPropertyOp53
 70
     1
102
RTVSPropertyOp54
 70
     1
102
RTVSPropertyOp55
 70
     1
102
RTVSPropertyOp56
 70
     1
102
RTVSPropertyOp57
 70
     1
102
RTVSPropertyOp58
 70
     1
102
RTVSPropertyOp59
 70
     1
102
RTVSPropertyOp60
 70
     1
102
RTVSPropertyOp61
 70
     1
102
RTVSPropertyOp62
 70
     1
  0
XRECORD
  5
869E
102
{ACAD_REACTORS
330
869D
102
}
330
869D
100
AcDbXrecord
280
     1
102
RTVSPost2010Prop28
280
     0
102
RTVSPost2010PropOp28
 70
     1
102
RTVSPost2010Prop29
280
     1
102
RTVSPost2010PropOp29
 70
     1
102
RTVSPost2010Prop30
280
     1
102
RTVSPost2010PropOp30
 70
     1
102
RTVSPost2010Prop31
280
     0
102
RTVSPost2010PropOp31
 70
     1
102
RTVSPost2010Prop32
280
     0
102
RTVSPost2010PropOp32
 70
     1
102
RTVSPost2010Prop33
280
     0
102
RTVSPost2010PropOp33
 70
     1
102
RTVSPost2010Prop34
280
     0
102
RTVSPost2010PropOp34
 70
     1
102
RTVSPost2010Prop35
280
     0
102
RTVSPost2010PropOp35
 70
     1
102
RTVSPost2010Prop36
280
     0
102
RTVSPost2010PropOp36
 70
     1
102
RTVSPost2010Prop37
 90
       50
102
RTVSPost2010PropOp37
 70
     1
102
RTVSPost2010Prop38
140
0.0
102
RTVSPost2010PropOp38
 70
     1
102
RTVSPost2010Prop39
140
1.0
102
RTVSPost2010PropOp39
 70
     1
102
RTVSPost2010Prop40
 90
        0
102
RTVSPost2010PropOp40
 70
     1
102
RTVSPost2010Prop41ColorIndex
 90
       18
102
RTVSPost2010Prop41ColorRGB
 90
        0
102
RTVSPost2010PropOp41
 70
     1
102
RTVSPost2010Prop42
 90
       50
102
RTVSPost2010PropOp42
 70
     1
102
RTVSPost2010Prop43
 90
        3
102
RTVSPost2010PropOp43
 70
     1
102
RTVSPost2010Prop44ColorIndex
 90
        5
102
RTVSPost2010Prop44ColorRGB
 90
      255
102
RTVSPost2010PropOp44
 70
     1
102
RTVSPost2010Prop45
280
     0
102
RTVSPost2010PropOp45
 70
     1
102
RTVSPost2010Prop46
 90
       50
102
RTVSPost2010PropOp46
 70
     1
102
RTVSPost2010Prop47
 90
       50
102
RTVSPost2010PropOp47
 70
     1
102
RTVSPost2010Prop48
 90
       50
102
RTVSPost2010PropOp48
 70
     1
102
RTVSPost2010Prop49
280
     0
102
RTVSPost2010PropOp49
 70
     1
102
RTVSPost2010Prop50
 90
       50
102
RTVSPost2010PropOp50
 70
     1
102
RTVSPost2010Prop51ColorIndex
 90
      256
102
RTVSPost2010Prop51ColorRGB
 90
-16777216
102
RTVSPost2010PropOp51
 70
     0
102
RTVSPost2010Prop52
140
1.0
102
RTVSPost2010PropOp52
 70
     0
102
RTVSPost2010Prop53
 90
        2
102
RTVSPost2010PropOp53
 70
     1
102
RTVSPost2010Prop54
  1
strokes_ogs.tif
102
RTVSPost2010PropOp54
 70
     1
102
RTVSPost2010Prop55
280
     0
102
RTVSPost2010PropOp55
 70
     1
102
RTVSPost2010Prop56
140
1.0
102
RTVSPost2010PropOp56
 70
     1
102
RTVSPost2010Prop57
140
1.0
102
RTVSPost2010PropOp57
 70
     1
102
RTVSPropertyOp0
 70
     1
102
RTVSPropertyOp1
 70
     1
102
RTVSPropertyOp2
 70
     1
102
RTVSPropertyOp3
 70
     1
102
RTVSPropertyOp4
 70
     1
102
RTVSPropertyOp5
 70
     1
102
RTVSPropertyOp6
 70
     1
102
RTVSPropertyOp7
 70
     1
102
RTVSPropertyOp8
 70
     1
102
RTVSPropertyOp9
 70
     1
102
RTVSPropertyOp10
 70
     1
102
RTVSPropertyOp11
 70
     1
102
RTVSPropertyOp12
 70
     1
102
RTVSPropertyOp13
 70
     1
102
RTVSPropertyOp14
 70
     1
102
RTVSPropertyOp15
 70
     1
102
RTVSPropertyOp16
 70
     1
102
RTVSPropertyOp17
 70
     1
102
RTVSPropertyOp18
 70
     1
102
RTVSPropertyOp19
 70
     1
102
RTVSPropertyOp20
 70
     1
102
RTVSPropertyOp21
 70
     1
102
RTVSPropertyOp22
 70
     1
102
RTVSPropertyOp23
 70
     1
102
RTVSPropertyOp24
 70
     1
102
RTVSPropertyOp25
 70
     1
102
RTVSPropertyOp26
 70
     1
102
RTVSPropertyOp27
 70
     1
102
RTVSPropertyOp28
 70
     1
102
RTVSPropertyOp29
 70
     1
102
RTVSPropertyOp30
 70
     1
102
RTVSPropertyOp31
 70
     1
102
RTVSPropertyOp32
 70
     1
102
RTVSPropertyOp33
 70
     1
102
RTVSPropertyOp34
 70
     1
102
RTVSPropertyOp35
 70
     1
102
RTVSPropertyOp36
 70
     1
102
RTVSPropertyOp37
 70
     1
102
RTVSPropertyOp38
 70
     1
102
RTVSPropertyOp39
 70
     1
102
RTVSPropertyOp40
 70
     1
102
RTVSPropertyOp41
 70
     1
102
RTVSPropertyOp42
 70
     1
102
RTVSPropertyOp43
 70
     1
102
RTVSPropertyOp44
 70
     1
102
RTVSPropertyOp45
 70
     1
102
RTVSPropertyOp46
 70
     1
102
RTVSPropertyOp47
 70
     1
102
RTVSPropertyOp48
 70
     1
102
RTVSPropertyOp49
 70
     1
102
RTVSPropertyOp50
 70
     1
102
RTVSPropertyOp51
 70
     0
102
RTVSPropertyOp52
 70
     0
102
RTVSPropertyOp53
 70
     1
102
RTVSPropertyOp54
 70
     1
102
RTVSPropertyOp55
 70
     1
102
RTVSPropertyOp56
 70
     1
102
RTVSPropertyOp57
 70
     1
102
RTVSPropertyOp58
 70
     1
102
RTVSPropertyOp59
 70
     1
102
RTVSPropertyOp60
 70
     1
102
RTVSPropertyOp61
 70
     1
102
RTVSPropertyOp62
 70
     1
  0
ENDSEC
  0
EOF
