  0
SECTION
  2
HEADER
  9
$ACADVER
  1
AC1015
  9
$ACADMAINTVER
 70
    20
  9
$DWGCODEPAGE
  3
ANSI_932
  9
$INSBASE
 10
0.0
 20
0.0
 30
0.0
  9
$EXTMIN
 10
-0.2563280987742473
 20
-0.3600799482810544
 30
-0.0015258207003583
  9
$EXTMAX
 10
8400.256367214323
 20
11800.3601348963
 30
0.0000000349246037
  9
$LIMMIN
 10
0.0
 20
0.0
  9
$LIMMAX
 10
297.0
 20
210.0
  9
$ORTHOMODE
 70
     1
  9
$REGENMODE
 70
     1
  9
$FILLMODE
 70
     0
  9
$QTEXTMODE
 70
     0
  9
$MIRRTEXT
 70
     1
  9
$LTSCALE
 40
100.0
  9
$ATTMODE
 70
     1
  9
$TEXTSIZE
 40
180.0
  9
$TRACEWID
 40
0.05
  9
$TEXTSTYLE
  7
STANDARD
  9
$CLAYER
  8
3
  9
$CELTYPE
  6
ByLayer
  9
$CECOLOR
 62
   256
  9
$CELTSCALE
 40
1.0
  9
$DISPSILH
 70
     0
  9
$DIMSCALE
 40
40.0
  9
$DIMASZ
 40
2.0
  9
$DIMEXO
 40
0.5
  9
$DIMDLI
 40
10.0
  9
$DIMRND
 40
0.0
  9
$DIMDLE
 40
0.0
  9
$DIMEXE
 40
1.0
  9
$DIMTP
 40
1.0
  9
$DIMTM
 40
1.0
  9
$DIMTXT
 40
3.0
  9
$DIMCEN
 40
0.0
  9
$DIMTSZ
 40
0.0
  9
$DIMTOL
 70
     0
  9
$DIMLIM
 70
     0
  9
$DIMTIH
 70
     0
  9
$DIMTOH
 70
     0
  9
$DIMSE1
 70
     0
  9
$DIMSE2
 70
     0
  9
$DIMTAD
 70
     1
  9
$DIMZIN
 70
     8
  9
$DIMBLK
  1

  9
$DIMASO
 70
     1
  9
$DIMSHO
 70
     1
  9
$DIMPOST
  1

  9
$DIMAPOST
  1

  9
$DIMALT
 70
     0
  9
$DIMALTD
 70
     2
  9
$DIMALTF
 40
0.039
  9
$DIMLFAC
 40
1.0
  9
$DIMTOFL
 70
     1
  9
$DIMTVP
 40
0.0
  9
$DIMTIX
 70
     0
  9
$DIMSOXD
 70
     0
  9
$DIMSAH
 70
     1
  9
$DIMBLK1
  1
OPEN
  9
$DIMBLK2
  1
OPEN
  9
$DIMSTYLE
  2
IGA
  9
$DIMCLRD
 70
     0
  9
$DIMCLRE
 70
     0
  9
$DIMCLRT
 70
     0
  9
$DIMTFAC
 40
10.0
  9
$DIMGAP
 40
1.0
  9
$DIMJUST
 70
     0
  9
$DIMSD1
 70
     0
  9
$DIMSD2
 70
     0
  9
$DIMTOLJ
 70
     1
  9
$DIMTZIN
 70
     0
  9
$DIMALTZ
 70
     0
  9
$DIMALTTZ
 70
     0
  9
$DIMUPT
 70
     0
  9
$DIMDEC
 70
     4
  9
$DIMTDEC
 70
     4
  9
$DIMALTU
 70
     2
  9
$DIMALTTD
 70
     2
  9
$DIMTXSTY
  7
STANDARD
  9
$DIMAUNIT
 70
     0
  9
$DIMADEC
 70
     0
  9
$DIMALTRND
 40
0.0
  9
$DIMAZIN
 70
     0
  9
$DIMDSEP
 70
    46
  9
$DIMATFIT
 70
     3
  9
$DIMFRAC
 70
     0
  9
$DIMLDRBLK
  1
OPEN
  9
$DIMLUNIT
 70
     2
  9
$DIMLWD
 70
    -2
  9
$DIMLWE
 70
    -2
  9
$DIMTMOVE
 70
     0
  9
$LUNITS
 70
     2
  9
$LUPREC
 70
     3
  9
$SKETCHINC
 40
0.1
  9
$FILLETRAD
 40
50.0
  9
$AUNITS
 70
     0
  9
$AUPREC
 70
     0
  9
$MENU
  1
acad
  9
$ELEVATION
 40
0.0
  9
$PELEVATION
 40
0.0
  9
$THICKNESS
 40
0.0
  9
$LIMCHECK
 70
     0
  9
$CHAMFERA
 40
0.5
  9
$CHAMFERB
 40
0.5
  9
$CHAMFERC
 40
0.0
  9
$CHAMFERD
 40
0.0
  9
$SKPOLY
 70
     0
  9
$TDCREATE
 40
2451898.497236459
  9
$TDUCREATE
 40
2451898.122236458
  9
$TDUPDATE
 40
2460280.701102986
  9
$TDUUPDATE
 40
2460280.326102986
  9
$TDINDWG
 40
0.0172965162
  9
$TDUSRTIMER
 40
0.0172962847
  9
$USRTIMER
 70
     1
  9
$ANGBASE
 50
0.0
  9
$ANGDIR
 70
     0
  9
$PDMODE
 70
     0
  9
$PDSIZE
 40
0.0
  9
$PLINEWID
 40
0.0
  9
$SPLFRAME
 70
     0
  9
$SPLINETYPE
 70
     6
  9
$SPLINESEGS
 70
     8
  9
$HANDSEED
  5
8678
  9
$SURFTAB1
 70
     6
  9
$SURFTAB2
 70
     6
  9
$SURFTYPE
 70
     6
  9
$SURFU
 70
     6
  9
$SURFV
 70
     6
  9
$UCSBASE
  2

  9
$UCSNAME
  2

  9
$UCSORG
 10
0.0
 20
0.0
 30
0.0
  9
$UCSXDIR
 10
1.0
 20
0.0
 30
0.0
  9
$UCSYDIR
 10
0.0
 20
1.0
 30
0.0
  9
$UCSORTHOREF
  2

  9
$UCSORTHOVIEW
 70
     0
  9
$UCSORGTOP
 10
0.0
 20
0.0
 30
0.0
  9
$UCSORGBOTTOM
 10
0.0
 20
0.0
 30
0.0
  9
$UCSORGLEFT
 10
0.0
 20
0.0
 30
0.0
  9
$UCSORGRIGHT
 10
0.0
 20
0.0
 30
0.0
  9
$UCSORGFRONT
 10
0.0
 20
0.0
 30
0.0
  9
$UCSORGBACK
 10
0.0
 20
0.0
 30
0.0
  9
$PUCSBASE
  2

  9
$PUCSNAME
  2

  9
$PUCSORG
 10
0.0
 20
0.0
 30
0.0
  9
$PUCSXDIR
 10
1.0
 20
0.0
 30
0.0
  9
$PUCSYDIR
 10
0.0
 20
1.0
 30
0.0
  9
$PUCSORTHOREF
  2

  9
$PUCSORTHOVIEW
 70
     0
  9
$PUCSORGTOP
 10
0.0
 20
0.0
 30
0.0
  9
$PUCSORGBOTTOM
 10
0.0
 20
0.0
 30
0.0
  9
$PUCSORGLEFT
 10
0.0
 20
0.0
 30
0.0
  9
$PUCSORGRIGHT
 10
0.0
 20
0.0
 30
0.0
  9
$PUCSORGFRONT
 10
0.0
 20
0.0
 30
0.0
  9
$PUCSORGBACK
 10
0.0
 20
0.0
 30
0.0
  9
$USERI1
 70
     0
  9
$USERI2
 70
     0
  9
$USERI3
 70
     0
  9
$USERI4
 70
     0
  9
$USERI5
 70
     0
  9
$USERR1
 40
0.0
  9
$USERR2
 40
0.0
  9
$USERR3
 40
0.0
  9
$USERR4
 40
0.0
  9
$USERR5
 40
0.0
  9
$WORLDVIEW
 70
     1
  9
$SHADEDGE
 70
     3
  9
$SHADEDIF
 70
    70
  9
$TILEMODE
 70
     1
  9
$MAXACTVP
 70
    16
  9
$PINSBASE
 10
0.0
 20
0.0
 30
0.0
  9
$PLIMCHECK
 70
     0
  9
$PEXTMIN
 10
1.000000000000000E+20
 20
1.000000000000000E+20
 30
1.000000000000000E+20
  9
$PEXTMAX
 10
-1.000000000000000E+20
 20
-1.000000000000000E+20
 30
-1.000000000000000E+20
  9
$PLIMMIN
 10
0.0
 20
0.0
  9
$PLIMMAX
 10
12.0
 20
9.0
  9
$UNITMODE
 70
     0
  9
$VISRETAIN
 70
     0
  9
$PLINEGEN
 70
     0
  9
$PSLTSCALE
 70
     1
  9
$TREEDEPTH
 70
  3020
  9
$CMLSTYLE
  2
Standard
  9
$CMLJUST
 70
     0
  9
$CMLSCALE
 40
1.0
  9
$PROXYGRAPHICS
 70
     1
  9
$MEASUREMENT
 70
     0
  9
$CELWEIGHT
370
    -1
  9
$ENDCAPS
280
     0
  9
$JOINSTYLE
280
     0
  9
$LWDISPLAY
290
     0
  9
$INSUNITS
 70
     0
  9
$HYPERLINKBASE
  1

  9
$STYLESHEET
  1

  9
$XEDIT
290
     1
  9
$CEPSNTYPE
380
     0
  9
$PSTYLEMODE
290
     1
  9
$FINGERPRINTGUID
  2
{40EC57E0-16A5-4C5E-974F-31CEA613337F}
  9
$VERSIONGUID
  2
{72831F21-47FB-45D5-8EF9-A3A81DF69C4B}
  9
$EXTNAMES
290
     1
  9
$PSVPSCALE
 40
0.0
  9
$OLESTARTUP
290
     0
  0
ENDSEC
  0
SECTION
  2
CLASSES
  0
CLASS
  1
ACDBDICTIONARYWDFLT
  2
AcDbDictionaryWithDefault
  3
ObjectDBX Classes
 90
        0
280
     0
281
     0
  0
CLASS
  1
MATERIAL
  2
AcDbMaterial
  3
ObjectDBX Classes
 90
     1153
280
     0
281
     0
  0
CLASS
  1
VISUALSTYLE
  2
AcDbVisualStyle
  3
ObjectDBX Classes
 90
     4095
280
     0
281
     0
  0
CLASS
  1
SCALE
  2
AcDbScale
  3
ObjectDBX Classes
 90
     1153
280
     0
281
     0
  0
CLASS
  1
TABLESTYLE
  2
AcDbTableStyle
  3
ObjectDBX Classes
 90
     4095
280
     0
281
     0
  0
CLASS
  1
MLEADERSTYLE
  2
AcDbMLeaderStyle
  3
ACDB_MLEADERSTYLE_CLASS
 90
     4095
280
     0
281
     0
  0
CLASS
  1
ACDBSECTIONVIEWSTYLE
  2
AcDbSectionViewStyle
  3
ObjectDBX Classes
 90
     1025
280
     0
281
     0
  0
CLASS
  1
ACDBDETAILVIEWSTYLE
  2
AcDbDetailViewStyle
  3
ObjectDBX Classes
 90
     1025
280
     0
281
     0
  0
CLASS
  1
DICTIONARYVAR
  2
AcDbDictionaryVar
  3
ObjectDBX Classes
 90
        0
280
     0
281
     0
  0
CLASS
  1
CELLSTYLEMAP
  2
AcDbCellStyleMap
  3
ObjectDBX Classes
 90
     1152
280
     0
281
     0
  0
CLASS
  1
SORTENTSTABLE
  2
AcDbSortentsTable
  3
ObjectDBX Classes
 90
        0
280
     0
281
     0
  0
CLASS
  1
ACDBPLACEHOLDER
  2
AcDbPlaceHolder
  3
ObjectDBX Classes
 90
        0
280
     0
281
     0
  0
CLASS
  1
LAYOUT
  2
AcDbLayout
  3
ObjectDBX Classes
 90
        0
280
     0
281
     0
  0
ENDSEC
  0
SECTION
  2
TABLES
  0
TABLE
  2
VPORT
  5
83DD
330
0
100
AcDbSymbolTable
 70
     1
  0
VPORT
  5
8449
330
83DD
100
AcDbSymbolTableRecord
100
AcDbViewportTableRecord
  2
*ACTIVE
 70
     0
 10
0.0
 20
0.0
 11
1.0
 21
1.0
 12
4200.000019557773
 22
5900.000027474012
 13
0.0
 23
0.0
 14
10.0
 24
10.0
 15
10.0
 25
10.0
 16
0.0
 26
0.0
 36
1.0
 17
0.0
 27
0.0
 37
0.0
 40
11876.28512550527
 41
2.050213675213675
 42
50.0
 43
0.0
 44
0.0
 50
0.0
 51
0.0
 71
     0
 72
   100
 73
     1
 74
     0
 75
     0
 76
     0
 77
     0
 78
     0
281
     0
 65
     1
110
0.0
120
0.0
130
0.0
111
1.0
121
0.0
131
0.0
112
0.0
122
1.0
132
0.0
 79
     0
146
0.0
1001
ACAD_NAV_VCDISPLAY
1070
     3
  0
ENDTAB
  0
TABLE
  2
LTYPE
  5
83DA
330
0
100
AcDbSymbolTable
 70
     3
  0
LTYPE
  5
842F
330
83DA
100
AcDbSymbolTableRecord
100
AcDbLinetypeTableRecord
  2
ByBlock
 70
     0
  3

 72
    65
 73
     0
 40
0.0
  0
LTYPE
  5
8430
330
83DA
100
AcDbSymbolTableRecord
100
AcDbLinetypeTableRecord
  2
ByLayer
 70
     0
  3

 72
    65
 73
     0
 40
0.0
  0
LTYPE
  5
8431
330
83DA
100
AcDbSymbolTableRecord
100
AcDbLinetypeTableRecord
  2
CONTINUOUS
 70
     0
  3
Solid line
 72
    65
 73
     0
 40
0.0
  0
LTYPE
  5
844A
330
83DA
100
AcDbSymbolTableRecord
100
AcDbLinetypeTableRecord
  2
CENTER
 70
     0
  3
____ _ ____ _ ____ _ ____ _ ____ _ ____ _ ____ 
 72
    65
 73
     4
 40
2.0
 49
1.25
 74
     0
 49
-0.25
 74
     0
 49
0.25
 74
     0
 49
-0.25
 74
     0
  0
ENDTAB
  0
TABLE
  2
LAYER
  5
83D7
330
0
100
AcDbSymbolTable
 70
     6
  0
LAYER
  5
8429
102
{ACAD_XDICTIONARY
360
8488
102
}
330
83D7
100
AcDbSymbolTableRecord
100
AcDbLayerTableRecord
  2
0
 70
     0
 62
     7
  6
CONTINUOUS
370
    -3
390
83E4
  0
LAYER
  5
8448
102
{ACAD_XDICTIONARY
360
848A
102
}
330
83D7
100
AcDbSymbolTableRecord
100
AcDbLayerTableRecord
  2
3
 70
     0
 62
     2
  6
CONTINUOUS
370
    -3
390
83E4
  0
LAYER
  5
844B
102
{ACAD_XDICTIONARY
360
848C
102
}
330
83D7
100
AcDbSymbolTableRecord
100
AcDbLayerTableRecord
  2
2
 70
     0
 62
     3
  6
CENTER
370
    -3
390
83E4
  0
LAYER
  5
844C
102
{ACAD_XDICTIONARY
360
848E
102
}
330
83D7
100
AcDbSymbolTableRecord
100
AcDbLayerTableRecord
  2
1
 70
     0
 62
     4
  6
CONTINUOUS
370
    -3
390
83E4
  0
LAYER
  5
844D
102
{ACAD_XDICTIONARY
360
8490
102
}
330
83D7
100
AcDbSymbolTableRecord
100
AcDbLayerTableRecord
  2
4
 70
     0
 62
     7
  6
CONTINUOUS
370
    -3
390
83E4
  0
LAYER
  5
844E
330
83D7
100
AcDbSymbolTableRecord
100
AcDbLayerTableRecord
  2
DEFPOINTS
 70
     0
 62
     7
  6
CONTINUOUS
290
     0
370
    -3
390
83E4
  0
ENDTAB
  0
TABLE
  2
STYLE
  5
83D8
330
0
100
AcDbSymbolTable
 70
     2
  0
STYLE
  5
842A
330
83D8
100
AcDbSymbolTableRecord
100
AcDbTextStyleTableRecord
  2
STANDARD
 70
     0
 40
0.0
 41
1.0
 50
0.0
 71
     0
 42
180.0
  3
simplex.shx
  4
extfont.shx
  0
STYLE
  5
842E
330
83D8
100
AcDbSymbolTableRecord
100
AcDbTextStyleTableRecord
  2
Annotative
 70
     0
 40
0.0
 41
1.0
 50
0.0
 71
     0
 42
0.2
  3
txt
  4

1001
AcadAnnotative
1000
AnnotativeData
1002
{
1070
     1
1070
     1
1002
}
  0
ENDTAB
  0
TABLE
  2
VIEW
  5
83DB
330
0
100
AcDbSymbolTable
 70
     0
  0
ENDTAB
  0
TABLE
  2
UCS
  5
83DC
330
0
100
AcDbSymbolTable
 70
     0
  0
ENDTAB
  0
TABLE
  2
APPID
  5
83DE
330
0
100
AcDbSymbolTable
 70
     6
  0
APPID
  5
842B
330
83DE
100
AcDbSymbolTableRecord
100
AcDbRegAppTableRecord
  2
ACAD
 70
     0
  0
APPID
  5
8432
330
83DE
100
AcDbSymbolTableRecord
100
AcDbRegAppTableRecord
  2
AcadAnnotative
 70
     0
  0
APPID
  5
849C
330
83DE
100
AcDbSymbolTableRecord
100
AcDbRegAppTableRecord
  2
ACAD_NAV_VCDISPLAY
 70
     0
  0
APPID
  5
8516
330
83DE
100
AcDbSymbolTableRecord
100
AcDbRegAppTableRecord
  2
AcadAnnoMonitorAlertIconDisabled
 70
     0
  0
APPID
  5
8517
330
83DE
100
AcDbSymbolTableRecord
100
AcDbRegAppTableRecord
  2
ACAD_EXEMPT_FROM_CAD_STANDARDS
 70
     0
  0
APPID
  5
866F
330
83DE
100
AcDbSymbolTableRecord
100
AcDbRegAppTableRecord
  2
ACAD_MLEADERVER
 70
     0
  0
ENDTAB
  0
TABLE
  2
DIMSTYLE
  5
83DF
330
0
100
AcDbSymbolTable
 70
     3
100
AcDbDimStyleTable
 71
     1
340
844F
  0
DIMSTYLE
105
842C
102
{ACAD_REACTORS
330
8229
330
8236
330
8243
330
825D
330
826A
102
}
330
83DF
100
AcDbSymbolTableRecord
100
AcDbDimStyleTableRecord
  2
Standard
 70
     0
340
842A
  0
DIMSTYLE
105
842D
330
83DF
100
AcDbSymbolTableRecord
100
AcDbDimStyleTableRecord
  2
Annotative
 70
     0
340
842A
1001
AcadAnnotative
1000
AnnotativeData
1002
{
1070
     1
1070
     1
1002
}
  0
DIMSTYLE
105
844F
102
{ACAD_REACTORS
330
84DE
330
84EB
330
84FC
330
8509
330
8573
330
8580
330
858D
330
859A
330
85A7
330
85CA
330
85D7
330
85F1
330
85FE
330
860B
330
8618
102
}
330
83DF
100
AcDbSymbolTableRecord
100
AcDbDimStyleTableRecord
  2
IGA
 70
     0
 40
2.0
 41
2.0
 42
0.5
 43
10.0
 44
1.0
 47
1.0
 48
1.0
 73
     0
 74
     0
 77
     1
 78
     8
140
3.0
141
0.0
143
0.03937
146
10.0
147
1.0
173
     1
271
     3
272
     3
279
     2
284
     8
285
     8
286
     8
340
842A
  0
ENDTAB
  0
TABLE
  2
BLOCK_RECORD
  5
83D6
330
0
100
AcDbSymbolTable
 70
    43
  0
BLOCK_RECORD
  5
8444
102
{ACAD_XDICTIONARY
360
84F9
102
}
330
83D6
100
AcDbSymbolTableRecord
100
AcDbBlockTableRecord
  2
*Model_Space
340
8447
  0
BLOCK_RECORD
  5
8440
330
83D6
100
AcDbSymbolTableRecord
100
AcDbBlockTableRecord
  2
*Paper_Space
340
8443
  0
BLOCK_RECORD
  5
8453
330
83D6
100
AcDbSymbolTableRecord
100
AcDbBlockTableRecord
  2
$MODEL_SPACE
340
0
  0
BLOCK_RECORD
  5
8455
330
83D6
100
AcDbSymbolTableRecord
100
AcDbBlockTableRecord
  2
$PAPER_SPACE
340
0
  0
BLOCK_RECORD
  5
8457
330
83D6
100
AcDbSymbolTableRecord
100
AcDbBlockTableRecord
  2
YA_N
340
0
102
{BLKREFS
331
7CA0
331
7CB0
331
7CDA
331
7CF1
331
7C21
331
7C3C
331
7C3D
331
7C62
102
}
  0
BLOCK_RECORD
  5
8459
330
83D6
100
AcDbSymbolTableRecord
100
AcDbBlockTableRecord
  2
*D3
340
0
  0
BLOCK_RECORD
  5
845B
330
83D6
100
AcDbSymbolTableRecord
100
AcDbBlockTableRecord
  2
_OPEN
340
0
102
{BLKREFS
331
83AB
331
83AC
331
83B4
331
83B5
331
85A1
331
85A2
331
85AE
331
85AF
331
85C4
331
85C5
331
85D1
331
85D2
331
85DE
331
85DF
331
85EB
331
85EC
331
85F8
331
85F9
331
83BD
331
83BE
331
8564
331
8565
331
856D
331
856E
331
857A
331
857B
331
8587
331
8588
331
8594
331
8595
331
8399
331
839A
331
83A2
331
83A3
331
861F
331
8620
331
8628
331
8629
331
8631
331
8632
331
837E
331
837F
331
8387
331
833F
331
8340
331
8348
331
8349
331
8351
331
8352
331
835A
331
835B
331
8363
331
8364
331
836C
331
836D
331
8375
331
8376
331
8388
331
8390
331
8391
331
8510
331
8511
331
8525
331
8526
331
8222
331
8223
331
822F
331
8230
331
823C
331
823D
331
8256
331
8257
331
8263
331
8264
102
}
  0
BLOCK_RECORD
  5
845C
330
83D6
100
AcDbSymbolTableRecord
100
AcDbBlockTableRecord
  2
*D5
340
0
  0
BLOCK_RECORD
  5
845E
330
83D6
100
AcDbSymbolTableRecord
100
AcDbBlockTableRecord
  2
*D6
340
0
  0
BLOCK_RECORD
  5
8460
330
83D6
100
AcDbSymbolTableRecord
100
AcDbBlockTableRecord
  2
*D7
340
0
  0
BLOCK_RECORD
  5
8462
330
83D6
100
AcDbSymbolTableRecord
100
AcDbBlockTableRecord
  2
*D8
340
0
  0
BLOCK_RECORD
  5
8464
330
83D6
100
AcDbSymbolTableRecord
100
AcDbBlockTableRecord
  2
*D9
340
0
  0
BLOCK_RECORD
  5
8466
330
83D6
100
AcDbSymbolTableRecord
100
AcDbBlockTableRecord
  2
*D10
340
0
  0
BLOCK_RECORD
  5
8468
330
83D6
100
AcDbSymbolTableRecord
100
AcDbBlockTableRecord
  2
*D11
340
0
  0
BLOCK_RECORD
  5
846A
330
83D6
100
AcDbSymbolTableRecord
100
AcDbBlockTableRecord
  2
*D12
340
0
  0
BLOCK_RECORD
  5
846C
330
83D6
100
AcDbSymbolTableRecord
100
AcDbBlockTableRecord
  2
*D13
340
0
  0
BLOCK_RECORD
  5
846E
330
83D6
100
AcDbSymbolTableRecord
100
AcDbBlockTableRecord
  2
*D14
340
0
  0
BLOCK_RECORD
  5
8470
330
83D6
100
AcDbSymbolTableRecord
100
AcDbBlockTableRecord
  2
*D15
340
0
  0
BLOCK_RECORD
  5
8472
330
83D6
100
AcDbSymbolTableRecord
100
AcDbBlockTableRecord
  2
*D16
340
0
  0
BLOCK_RECORD
  5
8474
330
83D6
100
AcDbSymbolTableRecord
100
AcDbBlockTableRecord
  2
*D17
340
0
  0
BLOCK_RECORD
  5
8476
330
83D6
100
AcDbSymbolTableRecord
100
AcDbBlockTableRecord
  2
*D18
340
0
  0
BLOCK_RECORD
  5
8479
330
83D6
100
AcDbSymbolTableRecord
100
AcDbBlockTableRecord
  2
_DOT
340
0
  0
BLOCK_RECORD
  5
847B
330
83D6
100
AcDbSymbolTableRecord
100
AcDbBlockTableRecord
  2
_NONE
340
0
  0
BLOCK_RECORD
  5
847D
330
83D6
100
AcDbSymbolTableRecord
100
AcDbBlockTableRecord
  2
*D21
340
0
  0
BLOCK_RECORD
  5
847F
330
83D6
100
AcDbSymbolTableRecord
100
AcDbBlockTableRecord
  2
*D22
340
0
  0
BLOCK_RECORD
  5
8481
330
83D6
100
AcDbSymbolTableRecord
100
AcDbBlockTableRecord
  2
*D23
340
0
  0
BLOCK_RECORD
  5
8483
330
83D6
100
AcDbSymbolTableRecord
100
AcDbBlockTableRecord
  2
*D24
340
0
  0
BLOCK_RECORD
  5
8485
330
83D6
100
AcDbSymbolTableRecord
100
AcDbBlockTableRecord
  2
*D25
340
0
  0
BLOCK_RECORD
  5
84DF
330
83D6
100
AcDbSymbolTableRecord
100
AcDbBlockTableRecord
  2
*D26
340
0
  0
BLOCK_RECORD
  5
84EC
330
83D6
100
AcDbSymbolTableRecord
100
AcDbBlockTableRecord
  2
*D27
340
0
  0
BLOCK_RECORD
  5
84FD
330
83D6
100
AcDbSymbolTableRecord
100
AcDbBlockTableRecord
  2
*D28
340
0
  0
BLOCK_RECORD
  5
850A
330
83D6
100
AcDbSymbolTableRecord
100
AcDbBlockTableRecord
  2
*D29
340
0
  0
BLOCK_RECORD
  5
8574
330
83D6
100
AcDbSymbolTableRecord
100
AcDbBlockTableRecord
  2
*D30
340
0
  0
BLOCK_RECORD
  5
8581
330
83D6
100
AcDbSymbolTableRecord
100
AcDbBlockTableRecord
  2
*D31
340
0
  0
BLOCK_RECORD
  5
858E
330
83D6
100
AcDbSymbolTableRecord
100
AcDbBlockTableRecord
  2
*D32
340
0
  0
BLOCK_RECORD
  5
859B
330
83D6
100
AcDbSymbolTableRecord
100
AcDbBlockTableRecord
  2
*D33
340
0
  0
BLOCK_RECORD
  5
85A8
330
83D6
100
AcDbSymbolTableRecord
100
AcDbBlockTableRecord
  2
*D34
340
0
  0
BLOCK_RECORD
  5
85B5
330
83D6
100
AcDbSymbolTableRecord
100
AcDbBlockTableRecord
  2
*D35
340
0
  0
BLOCK_RECORD
  5
85CB
330
83D6
100
AcDbSymbolTableRecord
100
AcDbBlockTableRecord
  2
*D36
340
0
  0
BLOCK_RECORD
  5
85D8
330
83D6
100
AcDbSymbolTableRecord
100
AcDbBlockTableRecord
  2
*D37
340
0
  0
BLOCK_RECORD
  5
85E5
330
83D6
100
AcDbSymbolTableRecord
100
AcDbBlockTableRecord
  2
*D38
340
0
  0
BLOCK_RECORD
  5
85F2
330
83D6
100
AcDbSymbolTableRecord
100
AcDbBlockTableRecord
  2
*D39
340
0
  0
BLOCK_RECORD
  5
85FF
330
83D6
100
AcDbSymbolTableRecord
100
AcDbBlockTableRecord
  2
*D40
340
0
  0
BLOCK_RECORD
  5
860C
330
83D6
100
AcDbSymbolTableRecord
100
AcDbBlockTableRecord
  2
*D41
340
0
  0
BLOCK_RECORD
  5
8619
330
83D6
100
AcDbSymbolTableRecord
100
AcDbBlockTableRecord
  2
*D42
340
0
  0
ENDTAB
  0
ENDSEC
  0
SECTION
  2
BLOCKS
  0
BLOCK
  5
8445
330
8444
100
AcDbEntity
  8
0
100
AcDbBlockBegin
  2
*Model_Space
 70
     0
 10
0.0
 20
0.0
 30
0.0
  3
*Model_Space
  1

  0
ENDBLK
  5
8446
330
8444
100
AcDbEntity
  8
0
100
AcDbBlockEnd
  0
BLOCK
  5
8441
330
8440
100
AcDbEntity
 67
     1
  8
0
100
AcDbBlockBegin
  2
*Paper_Space
 70
     0
 10
0.0
 20
0.0
 30
0.0
  3
*Paper_Space
  1

  0
ENDBLK
  5
8442
330
8440
100
AcDbEntity
 67
     1
  8
0
100
AcDbBlockEnd
  0
BLOCK
  5
8454
330
8453
100
AcDbEntity
  8
0
100
AcDbBlockBegin
  2
$MODEL_SPACE
 70
     0
 10
0.0
 20
0.0
 30
0.0
  3
$MODEL_SPACE
  1

  0
ENDBLK
  5
1B
330
8453
100
AcDbEntity
  8
0
100
AcDbBlockEnd
  0
BLOCK
  5
8456
330
8455
100
AcDbEntity
  8
0
100
AcDbBlockBegin
  2
$PAPER_SPACE
 70
     0
 10
0.0
 20
0.0
 30
0.0
  3
$PAPER_SPACE
  1

  0
ENDBLK
  5
18
330
8455
100
AcDbEntity
  8
0
100
AcDbBlockEnd
  0
BLOCK
  5
8458
330
8457
100
AcDbEntity
  8
0
100
AcDbBlockBegin
  2
YA_N
 70
     0
 10
0.0
 20
0.0
 30
0.0
  3
YA_N
  1

  0
ENDBLK
  5
79FE
330
8457
100
AcDbEntity
  8
0
100
AcDbBlockEnd
  0
BLOCK
  5
845A
330
8459
100
AcDbEntity
  8
0
100
AcDbBlockBegin
  2
*D3
 70
     1
 10
0.0
 20
0.0
 30
0.0
  3
*D3
  1

  0
LINE
  5
833C
330
8459
100
AcDbEntity
  8
3
 62
     0
100
AcDbLine
 10
5228.039116178845
 20
4757.552421855573
 30
0.0
 11
5228.039116178845
 21
5040.007557733632
 31
0.0
  0
LINE
  5
833D
330
8459
100
AcDbEntity
  8
3
 62
     0
100
AcDbLine
 10
6928.039116178847
 20
4757.552421855573
 30
0.0
 11
6928.039116178847
 21
5040.007557733632
 31
0.0
  0
LINE
  5
833E
330
8459
100
AcDbEntity
  8
3
 62
     0
100
AcDbLine
 10
5308.039116178846
 20
5000.007557733631
 30
0.0
 11
6848.039116178846
 21
5000.007557733631
 31
0.0
  0
INSERT
  5
833F
330
8459
100
AcDbEntity
  8
3
 62
     0
100
AcDbBlockReference
  2
_OPEN
 10
5228.039116178845
 20
5000.007557733631
 30
0.0
 41
80.0
 42
80.0
 43
80.0
 50
180.0
  0
INSERT
  5
8340
330
8459
100
AcDbEntity
  8
3
 62
     0
100
AcDbBlockReference
  2
_OPEN
 10
6928.039116178847
 20
5000.007557733631
 30
0.0
 41
80.0
 42
80.0
 43
80.0
  0
TEXT
  5
83C6
330
8459
100
AcDbEntity
  8
3
 62
     0
100
AcDbText
 10
5838.04
 20
4887.61
 30
0.0
 40
120.0
  1
1700
100
AcDbText
  0
POINT
  5
8342
330
8459
100
AcDbEntity
  8
DEFPOINTS
 62
     0
100
AcDbPoint
 10
5228.039116178845
 20
4737.552421855573
 30
0.0
  0
POINT
  5
8343
330
8459
100
AcDbEntity
  8
DEFPOINTS
 62
     0
100
AcDbPoint
 10
6928.039116178847
 20
4737.552421855573
 30
0.0
  0
POINT
  5
8344
330
8459
100
AcDbEntity
  8
DEFPOINTS
 62
     0
100
AcDbPoint
 10
6928.039116178847
 20
5000.007557733631
 30
0.0
  0
ENDBLK
  5
8134
330
8459
100
AcDbEntity
  8
0
100
AcDbBlockEnd
  0
BLOCK
  5
8478
330
845B
100
AcDbEntity
  8
0
100
AcDbBlockBegin
  2
_OPEN
 70
     0
 10
0.0
 20
0.0
 30
0.0
  3
_OPEN
  1

  0
LINE
  5
7F3A
330
845B
100
AcDbEntity
  8
0
  6
ByBlock
 62
     0
100
AcDbLine
 10
-1.0
 20
0.1666666666666666
 30
0.0
 11
0.0
 21
0.0
 31
0.0
  0
LINE
  5
7F3B
330
845B
100
AcDbEntity
  8
0
  6
ByBlock
 62
     0
100
AcDbLine
 10
0.0
 20
0.0
 30
0.0
 11
-1.0
 21
-0.1666666666666666
 31
0.0
  0
LINE
  5
7F3C
330
845B
100
AcDbEntity
  8
0
  6
ByBlock
 62
     0
100
AcDbLine
 10
0.0
 20
0.0
 30
0.0
 11
-1.0
 21
0.0
 31
0.0
  0
ENDBLK
  5
7F3D
330
845B
100
AcDbEntity
  8
0
100
AcDbBlockEnd
  0
BLOCK
  5
845D
330
845C
100
AcDbEntity
  8
0
100
AcDbBlockBegin
  2
*D5
 70
     1
 10
0.0
 20
0.0
 30
0.0
  3
*D5
  1

  0
LINE
  5
8345
330
845C
100
AcDbEntity
  8
3
 62
     0
100
AcDbLine
 10
4843.039116178847
 20
4227.929658934043
 30
0.0
 11
4843.039116178847
 21
5328.496809489447
 31
0.0
  0
LINE
  5
8346
330
845C
100
AcDbEntity
  8
3
 62
     0
100
AcDbLine
 10
6078.039116178846
 20
5185.719398998529
 30
0.0
 11
6078.039116178846
 21
5328.496809489447
 31
0.0
  0
LINE
  5
8347
330
845C
100
AcDbEntity
  8
3
 62
     0
100
AcDbLine
 10
4923.039116178848
 20
5288.496809489447
 30
0.0
 11
5998.039116178847
 21
5288.496809489447
 31
0.0
  0
INSERT
  5
8348
330
845C
100
AcDbEntity
  8
3
 62
     0
100
AcDbBlockReference
  2
_OPEN
 10
4843.039116178847
 20
5288.496809489447
 30
0.0
 41
80.0
 42
80.0
 43
80.0
 50
180.0
  0
INSERT
  5
8349
330
845C
100
AcDbEntity
  8
3
 62
     0
100
AcDbBlockReference
  2
_OPEN
 10
6078.039116178846
 20
5288.496809489447
 30
0.0
 41
80.0
 42
80.0
 43
80.0
  0
TEXT
  5
83C7
330
845C
100
AcDbEntity
  8
3
 62
     0
100
AcDbText
 10
5220.539999999999
 20
5276.1
 30
0.0
 40
120.0
  1
MAX
100
AcDbText
  0
TEXT
  5
83C8
330
845C
100
AcDbEntity
  8
3
 62
     0
100
AcDbText
 10
5220.539999999999
 20
5120.1
 30
0.0
 40
120.0
  1
1280
100
AcDbText
  0
POINT
  5
834B
330
845C
100
AcDbEntity
  8
DEFPOINTS
 62
     0
100
AcDbPoint
 10
4843.039116178847
 20
4207.929658934045
 30
0.0
  0
POINT
  5
834C
330
845C
100
AcDbEntity
  8
DEFPOINTS
 62
     0
100
AcDbPoint
 10
6078.039116178846
 20
5165.719398998528
 30
0.0
  0
POINT
  5
834D
330
845C
100
AcDbEntity
  8
DEFPOINTS
 62
     0
100
AcDbPoint
 10
6078.039116178846
 20
5288.496809489447
 30
0.0
  0
ENDBLK
  5
813F
330
845C
100
AcDbEntity
  8
0
100
AcDbBlockEnd
  0
BLOCK
  5
845F
330
845E
100
AcDbEntity
  8
0
100
AcDbBlockBegin
  2
*D6
 70
     1
 10
0.0
 20
0.0
 30
0.0
  3
*D6
  1

  0
LINE
  5
834E
330
845E
100
AcDbEntity
  8
3
 62
     0
100
AcDbLine
 10
6078.039116178846
 20
5185.719398998529
 30
0.0
 11
6078.039116178846
 21
5328.10922238426
 31
0.0
  0
LINE
  5
834F
330
845E
100
AcDbEntity
  8
3
 62
     0
100
AcDbLine
 10
7088.039116178847
 20
3843.267590036312
 30
0.0
 11
7088.039116178847
 21
5328.10922238426
 31
0.0
  0
LINE
  5
8350
330
845E
100
AcDbEntity
  8
3
 62
     0
100
AcDbLine
 10
6158.039116178847
 20
5288.10922238426
 30
0.0
 11
7008.039116178847
 21
5288.10922238426
 31
0.0
  0
INSERT
  5
8351
330
845E
100
AcDbEntity
  8
3
 62
     0
100
AcDbBlockReference
  2
_OPEN
 10
6078.039116178846
 20
5288.10922238426
 30
0.0
 41
80.0
 42
80.0
 43
80.0
 50
180.0
  0
INSERT
  5
8352
330
845E
100
AcDbEntity
  8
3
 62
     0
100
AcDbBlockReference
  2
_OPEN
 10
7088.039116178847
 20
5288.10922238426
 30
0.0
 41
80.0
 42
80.0
 43
80.0
  0
TEXT
  5
83C9
330
845E
100
AcDbEntity
  8
3
 62
     0
100
AcDbText
 10
6343.04
 20
5207.14
 30
0.0
 40
120.0
  1
(1020)
100
AcDbText
  0
POINT
  5
8354
330
845E
100
AcDbEntity
  8
DEFPOINTS
 62
     0
100
AcDbPoint
 10
6078.039116178846
 20
5165.719398998528
 30
0.0
  0
POINT
  5
8355
330
845E
100
AcDbEntity
  8
DEFPOINTS
 62
     0
100
AcDbPoint
 10
7088.039116178847
 20
3823.267590036313
 30
0.0
  0
POINT
  5
8356
330
845E
100
AcDbEntity
  8
DEFPOINTS
 62
     0
100
AcDbPoint
 10
7088.039116178847
 20
5288.10922238426
 30
0.0
  0
ENDBLK
  5
814A
330
845E
100
AcDbEntity
  8
0
100
AcDbBlockEnd
  0
BLOCK
  5
8461
330
8460
100
AcDbEntity
  8
0
100
AcDbBlockBegin
  2
*D7
 70
     1
 10
0.0
 20
0.0
 30
0.0
  3
*D7
  1

  0
LINE
  5
8357
330
8460
100
AcDbEntity
  8
3
 62
     0
100
AcDbLine
 10
6950.339116178849
 20
4552.929658934043
 30
0.0
 11
7379.30874109135
 21
4552.929658934043
 31
0.0
  0
LINE
  5
8358
330
8460
100
AcDbEntity
  8
3
 62
     0
100
AcDbLine
 10
6950.339116178849
 20
3302.929658934043
 30
0.0
 11
7379.30874109135
 21
3302.929658934043
 31
0.0
  0
LINE
  5
8359
330
8460
100
AcDbEntity
  8
3
 62
     0
100
AcDbLine
 10
7339.30874109135
 20
4472.929658934043
 30
0.0
 11
7339.30874109135
 21
3382.929658934044
 31
0.0
  0
INSERT
  5
835A
330
8460
100
AcDbEntity
  8
3
 62
     0
100
AcDbBlockReference
  2
_OPEN
 10
7339.30874109135
 20
4552.929658934043
 30
0.0
 41
80.0
 42
80.0
 43
80.0
 50
90.0
  0
INSERT
  5
835B
330
8460
100
AcDbEntity
  8
3
 62
     0
100
AcDbBlockReference
  2
_OPEN
 10
7339.30874109135
 20
3302.929658934043
 30
0.0
 41
80.0
 42
80.0
 43
80.0
 50
270.0
  0
TEXT
  5
83CA
330
8460
100
AcDbEntity
  8
3
 62
     0
100
AcDbText
 10
6999.310000000001
 20
3715.530000000001
 30
0.0
 40
120.0
  1
\U+03C61250
100
AcDbText
  0
POINT
  5
835D
330
8460
100
AcDbEntity
  8
DEFPOINTS
 62
     0
100
AcDbPoint
 10
6930.339116178848
 20
4552.929658934043
 30
0.0
  0
POINT
  5
835E
330
8460
100
AcDbEntity
  8
DEFPOINTS
 62
     0
100
AcDbPoint
 10
6930.339116178848
 20
3302.929658934043
 30
0.0
  0
POINT
  5
835F
330
8460
100
AcDbEntity
  8
DEFPOINTS
 62
     0
100
AcDbPoint
 10
7339.30874109135
 20
3302.929658934043
 30
0.0
  0
ENDBLK
  5
8028
330
8460
100
AcDbEntity
  8
0
100
AcDbBlockEnd
  0
BLOCK
  5
8463
330
8462
100
AcDbEntity
  8
0
100
AcDbBlockBegin
  2
*D8
 70
     1
 10
0.0
 20
0.0
 30
0.0
  3
*D8
  1

  0
LINE
  5
8360
330
8462
100
AcDbEntity
  8
3
 62
     0
100
AcDbLine
 10
1680.169444624878
 20
8705.437268273023
 30
0.0
 11
1211.153303389045
 21
8705.437268273023
 31
0.0
  0
LINE
  5
8361
330
8462
100
AcDbEntity
  8
3
 62
     0
100
AcDbLine
 10
1680.169444624878
 20
6585.437268273023
 30
0.0
 11
1211.153303389044
 21
6585.437268273023
 31
0.0
  0
LINE
  5
8362
330
8462
100
AcDbEntity
  8
3
 62
     0
100
AcDbLine
 10
1251.153303389045
 20
8625.437268273023
 30
0.0
 11
1251.153303389044
 21
6665.437268273021
 31
0.0
  0
INSERT
  5
8363
330
8462
100
AcDbEntity
  8
3
 62
     0
100
AcDbBlockReference
  2
_OPEN
 10
1251.153303389045
 20
8705.437268273023
 30
0.0
 41
80.0
 42
80.0
 43
80.0
 50
90.0
  0
INSERT
  5
8364
330
8462
100
AcDbEntity
  8
3
 62
     0
100
AcDbBlockReference
  2
_OPEN
 10
1251.153303389044
 20
6585.437268273023
 30
0.0
 41
80.0
 42
80.0
 43
80.0
 50
270.0
  0
TEXT
  5
83CB
330
8462
100
AcDbEntity
  8
3
 62
     0
100
AcDbText
 10
911.153
 20
7433.04
 30
0.0
 40
120.0
  1
2120
100
AcDbText
  0
POINT
  5
8366
330
8462
100
AcDbEntity
  8
DEFPOINTS
 62
     0
100
AcDbPoint
 10
1700.169444624878
 20
8705.437268273023
 30
0.0
  0
POINT
  5
8367
330
8462
100
AcDbEntity
  8
DEFPOINTS
 62
     0
100
AcDbPoint
 10
1700.169444624878
 20
6585.437268273023
 30
0.0
  0
POINT
  5
8368
330
8462
100
AcDbEntity
  8
DEFPOINTS
 62
     0
100
AcDbPoint
 10
1251.153303389044
 20
6585.437268273023
 30
0.0
  0
ENDBLK
  5
7FFC
330
8462
100
AcDbEntity
  8
0
100
AcDbBlockEnd
  0
BLOCK
  5
8465
330
8464
100
AcDbEntity
  8
0
100
AcDbBlockBegin
  2
*D9
 70
     1
 10
0.0
 20
0.0
 30
0.0
  3
*D9
  1

  0
LINE
  5
8369
330
8464
100
AcDbEntity
  8
3
 62
     0
100
AcDbLine
 10
1700.169444624878
 20
8725.437268273024
 30
0.0
 11
1700.169444624878
 21
8950.073406778209
 31
0.0
  0
LINE
  5
836A
330
8464
100
AcDbEntity
  8
3
 62
     0
100
AcDbLine
 10
3200.169444624878
 20
8725.437268273024
 30
0.0
 11
3200.169444624878
 21
8950.073406778209
 31
0.0
  0
LINE
  5
836B
330
8464
100
AcDbEntity
  8
3
 62
     0
100
AcDbLine
 10
1780.169444624878
 20
8910.073406778208
 30
0.0
 11
3120.169444624878
 21
8910.073406778208
 31
0.0
  0
INSERT
  5
836C
330
8464
100
AcDbEntity
  8
3
 62
     0
100
AcDbBlockReference
  2
_OPEN
 10
1700.169444624878
 20
8910.073406778208
 30
0.0
 41
80.0
 42
80.0
 43
80.0
 50
180.0
  0
INSERT
  5
836D
330
8464
100
AcDbEntity
  8
3
 62
     0
100
AcDbBlockReference
  2
_OPEN
 10
3200.169444624878
 20
8910.073406778208
 30
0.0
 41
80.0
 42
80.0
 43
80.0
  0
TEXT
  5
83CC
330
8464
100
AcDbEntity
  8
3
 62
     0
100
AcDbText
 10
2210.17
 20
8797.670000000001
 30
0.0
 40
120.0
  1
1500
100
AcDbText
  0
POINT
  5
836F
330
8464
100
AcDbEntity
  8
DEFPOINTS
 62
     0
100
AcDbPoint
 10
1700.169444624878
 20
8705.437268273023
 30
0.0
  0
POINT
  5
8370
330
8464
100
AcDbEntity
  8
DEFPOINTS
 62
     0
100
AcDbPoint
 10
3200.169444624878
 20
8705.437268273023
 30
0.0
  0
POINT
  5
8371
330
8464
100
AcDbEntity
  8
DEFPOINTS
 62
     0
100
AcDbPoint
 10
3200.169444624878
 20
8910.073406778208
 30
0.0
  0
ENDBLK
  5
7FF1
330
8464
100
AcDbEntity
  8
0
100
AcDbBlockEnd
  0
BLOCK
  5
8467
330
8466
100
AcDbEntity
  8
0
100
AcDbBlockBegin
  2
*D10
 70
     1
 10
0.0
 20
0.0
 30
0.0
  3
*D10
  1

  0
LINE
  5
8372
330
8466
100
AcDbEntity
  8
3
 62
     0
100
AcDbLine
 10
3200.169444624878
 20
8725.437268273024
 30
0.0
 11
3200.169444624878
 21
8950.073406778209
 31
0.0
  0
LINE
  5
8373
330
8466
100
AcDbEntity
  8
3
 62
     0
100
AcDbLine
 10
4150.169444624879
 20
7605.437268273023
 30
0.0
 11
4150.169444624879
 21
8950.073406778209
 31
0.0
  0
LINE
  5
8374
330
8466
100
AcDbEntity
  8
3
 62
     0
100
AcDbLine
 10
3280.16944462488
 20
8910.073406778208
 30
0.0
 11
4070.169444624879
 21
8910.073406778208
 31
0.0
  0
INSERT
  5
8375
330
8466
100
AcDbEntity
  8
3
 62
     0
100
AcDbBlockReference
  2
_OPEN
 10
3200.169444624878
 20
8910.073406778208
 30
0.0
 41
80.0
 42
80.0
 43
80.0
 50
180.0
  0
INSERT
  5
8376
330
8466
100
AcDbEntity
  8
3
 62
     0
100
AcDbBlockReference
  2
_OPEN
 10
4150.169444624879
 20
8910.073406778208
 30
0.0
 41
80.0
 42
80.0
 43
80.0
  0
TEXT
  5
83CD
330
8466
100
AcDbEntity
  8
3
 62
     0
100
AcDbText
 10
3435.17
 20
8797.670000000001
 30
0.0
 40
120.0
  1
950
100
AcDbText
  0
POINT
  5
8378
330
8466
100
AcDbEntity
  8
DEFPOINTS
 62
     0
100
AcDbPoint
 10
3200.169444624878
 20
8705.437268273023
 30
0.0
  0
POINT
  5
8379
330
8466
100
AcDbEntity
  8
DEFPOINTS
 62
     0
100
AcDbPoint
 10
4150.169444624879
 20
7585.437268273023
 30
0.0
  0
POINT
  5
837A
330
8466
100
AcDbEntity
  8
DEFPOINTS
 62
     0
100
AcDbPoint
 10
4150.169444624879
 20
8910.073406778208
 30
0.0
  0
ENDBLK
  5
7FE6
330
8466
100
AcDbEntity
  8
0
100
AcDbBlockEnd
  0
BLOCK
  5
8469
330
8468
100
AcDbEntity
  8
0
100
AcDbBlockBegin
  2
*D11
 70
     1
 10
0.0
 20
0.0
 30
0.0
  3
*D11
  1

  0
LINE
  5
837B
330
8468
100
AcDbEntity
  8
3
 62
     0
100
AcDbLine
 10
4170.169444624879
 20
7585.437268273023
 30
0.0
 11
4456.495845732457
 21
7585.437268273023
 31
0.0
  0
LINE
  5
837C
330
8468
100
AcDbEntity
  8
3
 62
     0
100
AcDbLine
 10
4170.169444624879
 20
6585.437268273023
 30
0.0
 11
4456.495845732457
 21
6585.437268273023
 31
0.0
  0
LINE
  5
837D
330
8468
100
AcDbEntity
  8
3
 62
     0
100
AcDbLine
 10
4416.495845732457
 20
7505.437268273023
 30
0.0
 11
4416.495845732457
 21
6665.437268273023
 31
0.0
  0
INSERT
  5
837E
330
8468
100
AcDbEntity
  8
3
 62
     0
100
AcDbBlockReference
  2
_OPEN
 10
4416.495845732457
 20
7585.437268273023
 30
0.0
 41
80.0
 42
80.0
 43
80.0
 50
90.0
  0
INSERT
  5
837F
330
8468
100
AcDbEntity
  8
3
 62
     0
100
AcDbBlockReference
  2
_OPEN
 10
4416.495845732457
 20
6585.437268273023
 30
0.0
 41
80.0
 42
80.0
 43
80.0
 50
270.0
  0
TEXT
  5
83CE
330
8468
100
AcDbEntity
  8
3
 62
     0
100
AcDbText
 10
4076.5
 20
6873.04
 30
0.0
 40
120.0
  1
1000
100
AcDbText
  0
POINT
  5
8381
330
8468
100
AcDbEntity
  8
DEFPOINTS
 62
     0
100
AcDbPoint
 10
4150.169444624879
 20
7585.437268273023
 30
0.0
  0
POINT
  5
8382
330
8468
100
AcDbEntity
  8
DEFPOINTS
 62
     0
100
AcDbPoint
 10
4150.169444624879
 20
6585.437268273023
 30
0.0
  0
POINT
  5
8383
330
8468
100
AcDbEntity
  8
DEFPOINTS
 62
     0
100
AcDbPoint
 10
4416.495845732457
 20
6585.437268273023
 30
0.0
  0
ENDBLK
  5
7FDB
330
8468
100
AcDbEntity
  8
0
100
AcDbBlockEnd
  0
BLOCK
  5
846B
330
846A
100
AcDbEntity
  8
0
100
AcDbBlockBegin
  2
*D12
 70
     1
 10
0.0
 20
0.0
 30
0.0
  3
*D12
  1

  0
LINE
  5
8384
330
846A
100
AcDbEntity
  8
3
 62
     0
100
AcDbLine
 10
4150.169444624879
 20
6565.437268273022
 30
0.0
 11
4150.169444624879
 21
6180.683390083371
 31
0.0
  0
LINE
  5
8385
330
846A
100
AcDbEntity
  8
3
 62
     0
100
AcDbLine
 10
1700.169444624878
 20
6565.437268273021
 30
0.0
 11
1700.169444624878
 21
6180.683390083371
 31
0.0
  0
LINE
  5
8386
330
846A
100
AcDbEntity
  8
3
 62
     0
100
AcDbLine
 10
4070.169444624879
 20
6220.683390083371
 30
0.0
 11
1780.169444624878
 21
6220.683390083371
 31
0.0
  0
INSERT
  5
8387
330
846A
100
AcDbEntity
  8
3
 62
     0
100
AcDbBlockReference
  2
_OPEN
 10
4150.169444624879
 20
6220.683390083371
 30
0.0
 41
80.0
 42
80.0
 43
80.0
  0
INSERT
  5
8388
330
846A
100
AcDbEntity
  8
3
 62
     0
100
AcDbBlockReference
  2
_OPEN
 10
1700.169444624878
 20
6220.683390083371
 30
0.0
 41
80.0
 42
80.0
 43
80.0
 50
180.0
  0
TEXT
  5
83CF
330
846A
100
AcDbEntity
  8
3
 62
     0
100
AcDbText
 10
2685.17
 20
6108.28
 30
0.0
 40
120.0
  1
2450
100
AcDbText
  0
POINT
  5
838A
330
846A
100
AcDbEntity
  8
DEFPOINTS
 62
     0
100
AcDbPoint
 10
4150.169444624879
 20
6585.437268273023
 30
0.0
  0
POINT
  5
838B
330
846A
100
AcDbEntity
  8
DEFPOINTS
 62
     0
100
AcDbPoint
 10
1700.169444624878
 20
6585.437268273023
 30
0.0
  0
POINT
  5
838C
330
846A
100
AcDbEntity
  8
DEFPOINTS
 62
     0
100
AcDbPoint
 10
1700.169444624878
 20
6220.683390083371
 30
0.0
  0
ENDBLK
  5
7FD0
330
846A
100
AcDbEntity
  8
0
100
AcDbBlockEnd
  0
BLOCK
  5
846D
330
846C
100
AcDbEntity
  8
0
100
AcDbBlockBegin
  2
*D13
 70
     1
 10
0.0
 20
0.0
 30
0.0
  3
*D13
  1

  0
LINE
  5
838D
330
846C
100
AcDbEntity
  8
3
 62
     0
100
AcDbLine
 10
3784.169444624879
 20
4772.929658934045
 30
0.0
 11
3784.169444624879
 21
5045.940691624004
 31
0.0
  0
LINE
  5
838E
330
846C
100
AcDbEntity
  8
3
 62
     0
100
AcDbLine
 10
2504.169444624878
 20
4772.929658934045
 30
0.0
 11
2504.169444624878
 21
5045.940691624004
 31
0.0
  0
LINE
  5
838F
330
846C
100
AcDbEntity
  8
3
 62
     0
100
AcDbLine
 10
3704.169444624878
 20
5005.940691624002
 30
0.0
 11
2584.169444624878
 21
5005.940691624002
 31
0.0
  0
INSERT
  5
8390
330
846C
100
AcDbEntity
  8
3
 62
     0
100
AcDbBlockReference
  2
_OPEN
 10
3784.169444624879
 20
5005.940691624002
 30
0.0
 41
80.0
 42
80.0
 43
80.0
  0
INSERT
  5
8391
330
846C
100
AcDbEntity
  8
3
 62
     0
100
AcDbBlockReference
  2
_OPEN
 10
2504.169444624878
 20
5005.940691624002
 30
0.0
 41
80.0
 42
80.0
 43
80.0
 50
180.0
  0
TEXT
  5
83D0
330
846C
100
AcDbEntity
  8
3
 62
     0
100
AcDbText
 10
2904.17
 20
4893.54
 30
0.0
 40
120.0
  1
1280
100
AcDbText
  0
POINT
  5
8393
330
846C
100
AcDbEntity
  8
DEFPOINTS
 62
     0
100
AcDbPoint
 10
3784.169444624879
 20
4752.929658934045
 30
0.0
  0
POINT
  5
8394
330
846C
100
AcDbEntity
  8
DEFPOINTS
 62
     0
100
AcDbPoint
 10
2504.169444624878
 20
4752.929658934045
 30
0.0
  0
POINT
  5
8395
330
846C
100
AcDbEntity
  8
DEFPOINTS
 62
     0
100
AcDbPoint
 10
2504.169444624878
 20
5005.940691624002
 30
0.0
  0
ENDBLK
  5
7FBA
330
846C
100
AcDbEntity
  8
0
100
AcDbBlockEnd
  0
BLOCK
  5
846F
330
846E
100
AcDbEntity
  8
0
100
AcDbBlockBegin
  2
*D14
 70
     1
 10
0.0
 20
0.0
 30
0.0
  3
*D14
  1

  0
LINE
  5
8396
330
846E
100
AcDbEntity
  8
3
 62
     0
100
AcDbLine
 10
3784.169444624879
 20
4772.929658934045
 30
0.0
 11
3784.169444624879
 21
5293.003534080533
 31
0.0
  0
LINE
  5
8397
330
846E
100
AcDbEntity
  8
3
 62
     0
100
AcDbLine
 10
2450.169444624878
 20
4851.366197182898
 30
0.0
 11
2450.169444624878
 21
5293.003534080533
 31
0.0
  0
LINE
  5
8398
330
846E
100
AcDbEntity
  8
3
 62
     0
100
AcDbLine
 10
3704.169444624878
 20
5253.003534080533
 30
0.0
 11
2530.169444624878
 21
5253.003534080533
 31
0.0
  0
INSERT
  5
8399
330
846E
100
AcDbEntity
  8
3
 62
     0
100
AcDbBlockReference
  2
_OPEN
 10
3784.169444624879
 20
5253.003534080533
 30
0.0
 41
80.0
 42
80.0
 43
80.0
  0
INSERT
  5
839A
330
846E
100
AcDbEntity
  8
3
 62
     0
100
AcDbBlockReference
  2
_OPEN
 10
2450.169444624878
 20
5253.003534080533
 30
0.0
 41
80.0
 42
80.0
 43
80.0
 50
180.0
  0
TEXT
  5
83D1
330
846E
100
AcDbEntity
  8
3
 62
     0
100
AcDbText
 10
2877.17
 20
5140.6
 30
0.0
 40
120.0
  1
1334
100
AcDbText
  0
POINT
  5
839C
330
846E
100
AcDbEntity
  8
DEFPOINTS
 62
     0
100
AcDbPoint
 10
3784.169444624879
 20
4752.929658934045
 30
0.0
  0
POINT
  5
839D
330
846E
100
AcDbEntity
  8
DEFPOINTS
 62
     0
100
AcDbPoint
 10
2450.169444624878
 20
4831.366197182897
 30
0.0
  0
POINT
  5
839E
330
846E
100
AcDbEntity
  8
DEFPOINTS
 62
     0
100
AcDbPoint
 10
2450.169444624878
 20
5253.003534080533
 30
0.0
  0
ENDBLK
  5
7FAF
330
846E
100
AcDbEntity
  8
0
100
AcDbBlockEnd
  0
BLOCK
  5
8471
330
8470
100
AcDbEntity
  8
0
100
AcDbBlockBegin
  2
*D15
 70
     1
 10
0.0
 20
0.0
 30
0.0
  3
*D15
  1

  0
LINE
  5
839F
330
8470
100
AcDbEntity
  8
3
 62
     0
100
AcDbLine
 10
2431.169444624878
 20
4752.929658934045
 30
0.0
 11
1245.934760259599
 21
4752.929658934045
 31
0.0
  0
LINE
  5
83A0
330
8470
100
AcDbEntity
  8
3
 62
     0
100
AcDbLine
 10
1444.143307902599
 20
3927.929658934044
 30
0.0
 11
1245.934760259599
 21
3927.929658934044
 31
0.0
  0
LINE
  5
83A1
330
8470
100
AcDbEntity
  8
3
 62
     0
100
AcDbLine
 10
1285.934760259599
 20
4672.929658934044
 30
0.0
 11
1285.934760259599
 21
4007.929658934044
 31
0.0
  0
INSERT
  5
83A2
330
8470
100
AcDbEntity
  8
3
 62
     0
100
AcDbBlockReference
  2
_OPEN
 10
1285.934760259599
 20
4752.929658934045
 30
0.0
 41
80.0
 42
80.0
 43
80.0
 50
90.0
  0
INSERT
  5
83A3
330
8470
100
AcDbEntity
  8
3
 62
     0
100
AcDbBlockReference
  2
_OPEN
 10
1285.934760259599
 20
3927.929658934044
 30
0.0
 41
80.0
 42
80.0
 43
80.0
 50
270.0
  0
TEXT
  5
83D2
330
8470
100
AcDbEntity
  8
3
 62
     0
100
AcDbText
 10
945.9349999999998
 20
4128.029999999999
 30
0.0
 40
120.0
  1
825
100
AcDbText
  0
POINT
  5
83A5
330
8470
100
AcDbEntity
  8
DEFPOINTS
 62
     0
100
AcDbPoint
 10
2451.169444624878
 20
4752.929658934045
 30
0.0
  0
POINT
  5
83A6
330
8470
100
AcDbEntity
  8
DEFPOINTS
 62
     0
100
AcDbPoint
 10
1464.143307902599
 20
3927.929658934044
 30
0.0
  0
POINT
  5
83A7
330
8470
100
AcDbEntity
  8
DEFPOINTS
 62
     0
100
AcDbPoint
 10
1285.934760259599
 20
3927.929658934044
 30
0.0
  0
ENDBLK
  5
7F8E
330
8470
100
AcDbEntity
  8
0
100
AcDbBlockEnd
  0
BLOCK
  5
8473
330
8472
100
AcDbEntity
  8
0
100
AcDbBlockBegin
  2
*D16
 70
     1
 10
0.0
 20
0.0
 30
0.0
  3
*D16
  1

  0
LINE
  5
83A8
330
8472
100
AcDbEntity
  8
3
 62
     0
100
AcDbLine
 10
1444.143307902599
 20
3927.929658934044
 30
0.0
 11
1245.934760259599
 21
3927.929658934044
 31
0.0
  0
LINE
  5
83A9
330
8472
100
AcDbEntity
  8
3
 62
     0
100
AcDbLine
 10
1680.169444624878
 20
2817.929658934044
 30
0.0
 11
1245.934760259599
 21
2817.929658934044
 31
0.0
  0
LINE
  5
83AA
330
8472
100
AcDbEntity
  8
3
 62
     0
100
AcDbLine
 10
1285.934760259599
 20
3847.929658934045
 30
0.0
 11
1285.934760259599
 21
2897.929658934044
 31
0.0
  0
INSERT
  5
83AB
330
8472
100
AcDbEntity
  8
3
 62
     0
100
AcDbBlockReference
  2
_OPEN
 10
1285.934760259599
 20
3927.929658934044
 30
0.0
 41
80.0
 42
80.0
 43
80.0
 50
90.0
  0
INSERT
  5
83AC
330
8472
100
AcDbEntity
  8
3
 62
     0
100
AcDbBlockReference
  2
_OPEN
 10
1285.934760259599
 20
2817.929658934044
 30
0.0
 41
80.0
 42
80.0
 43
80.0
 50
270.0
  0
TEXT
  5
83D3
330
8472
100
AcDbEntity
  8
3
 62
     0
100
AcDbText
 10
945.9349999999998
 20
3160.53
 30
0.0
 40
120.0
  1
1110
100
AcDbText
  0
POINT
  5
83AE
330
8472
100
AcDbEntity
  8
DEFPOINTS
 62
     0
100
AcDbPoint
 10
1464.143307902599
 20
3927.929658934044
 30
0.0
  0
POINT
  5
83AF
330
8472
100
AcDbEntity
  8
DEFPOINTS
 62
     0
100
AcDbPoint
 10
1700.169444624878
 20
2817.929658934044
 30
0.0
  0
POINT
  5
83B0
330
8472
100
AcDbEntity
  8
DEFPOINTS
 62
     0
100
AcDbPoint
 10
1285.934760259599
 20
2817.929658934044
 30
0.0
  0
ENDBLK
  5
7F83
330
8472
100
AcDbEntity
  8
0
100
AcDbBlockEnd
  0
BLOCK
  5
8475
330
8474
100
AcDbEntity
  8
0
100
AcDbBlockBegin
  2
*D17
 70
     1
 10
0.0
 20
0.0
 30
0.0
  3
*D17
  1

  0
LINE
  5
83B1
330
8474
100
AcDbEntity
  8
3
 62
     0
100
AcDbLine
 10
4150.169444624879
 20
2962.929658934045
 30
0.0
 11
4150.169444624879
 21
5534.836675797562
 31
0.0
  0
LINE
  5
83B2
330
8474
100
AcDbEntity
  8
3
 62
     0
100
AcDbLine
 10
1553.169444624878
 20
3856.929658934045
 30
0.0
 11
1553.169444624878
 21
5534.836675797562
 31
0.0
  0
LINE
  5
83B3
330
8474
100
AcDbEntity
  8
3
 62
     0
100
AcDbLine
 10
4070.169444624879
 20
5494.836675797562
 30
0.0
 11
1633.169444624878
 21
5494.836675797562
 31
0.0
  0
INSERT
  5
83B4
330
8474
100
AcDbEntity
  8
3
 62
     0
100
AcDbBlockReference
  2
_OPEN
 10
4150.169444624879
 20
5494.836675797562
 30
0.0
 41
80.0
 42
80.0
 43
80.0
  0
INSERT
  5
83B5
330
8474
100
AcDbEntity
  8
3
 62
     0
100
AcDbBlockReference
  2
_OPEN
 10
1553.169444624878
 20
5494.836675797562
 30
0.0
 41
80.0
 42
80.0
 43
80.0
 50
180.0
  0
TEXT
  5
83D4
330
8474
100
AcDbEntity
  8
3
 62
     0
100
AcDbText
 10
2611.67
 20
5382.439999999999
 30
0.0
 40
120.0
  1
2597
100
AcDbText
  0
POINT
  5
83B7
330
8474
100
AcDbEntity
  8
DEFPOINTS
 62
     0
100
AcDbPoint
 10
4150.169444624879
 20
2942.929658934044
 30
0.0
  0
POINT
  5
83B8
330
8474
100
AcDbEntity
  8
DEFPOINTS
 62
     0
100
AcDbPoint
 10
1553.169444624878
 20
3836.929658934045
 30
0.0
  0
POINT
  5
83B9
330
8474
100
AcDbEntity
  8
DEFPOINTS
 62
     0
100
AcDbPoint
 10
1553.169444624878
 20
5494.836675797562
 30
0.0
  0
ENDBLK
  5
7F53
330
8474
100
AcDbEntity
  8
0
100
AcDbBlockEnd
  0
BLOCK
  5
8477
330
8476
100
AcDbEntity
  8
0
100
AcDbBlockBegin
  2
*D18
 70
     1
 10
0.0
 20
0.0
 30
0.0
  3
*D18
  1

  0
LINE
  5
83BA
330
8476
100
AcDbEntity
  8
3
 62
     0
100
AcDbLine
 10
2450.169444624878
 20
4851.366197182898
 30
0.0
 11
2450.169444624878
 21
5293.003534080533
 31
0.0
  0
LINE
  5
83BB
330
8476
100
AcDbEntity
  8
3
 62
     0
100
AcDbLine
 10
1553.169444624878
 20
3856.929658934045
 30
0.0
 11
1553.169444624878
 21
5293.003534080533
 31
0.0
  0
LINE
  5
83BC
330
8476
100
AcDbEntity
  8
3
 62
     0
100
AcDbLine
 10
2370.169444624878
 20
5253.003534080533
 30
0.0
 11
1633.169444624878
 21
5253.003534080533
 31
0.0
  0
INSERT
  5
83BD
330
8476
100
AcDbEntity
  8
3
 62
     0
100
AcDbBlockReference
  2
_OPEN
 10
2450.169444624878
 20
5253.003534080533
 30
0.0
 41
80.0
 42
80.0
 43
80.0
  0
INSERT
  5
83BE
330
8476
100
AcDbEntity
  8
3
 62
     0
100
AcDbBlockReference
  2
_OPEN
 10
1553.169444624878
 20
5253.003534080533
 30
0.0
 41
80.0
 42
80.0
 43
80.0
 50
180.0
  0
TEXT
  5
83D5
330
8476
100
AcDbEntity
  8
3
 62
     0
100
AcDbText
 10
1761.67
 20
5140.6
 30
0.0
 40
120.0
  1
897
100
AcDbText
  0
POINT
  5
83C0
330
8476
100
AcDbEntity
  8
DEFPOINTS
 62
     0
100
AcDbPoint
 10
2450.169444624878
 20
4831.366197182897
 30
0.0
  0
POINT
  5
83C1
330
8476
100
AcDbEntity
  8
DEFPOINTS
 62
     0
100
AcDbPoint
 10
1553.169444624878
 20
3836.929658934045
 30
0.0
  0
POINT
  5
83C2
330
8476
100
AcDbEntity
  8
DEFPOINTS
 62
     0
100
AcDbPoint
 10
1553.169444624878
 20
5253.003534080533
 30
0.0
  0
ENDBLK
  5
7F48
330
8476
100
AcDbEntity
  8
0
100
AcDbBlockEnd
  0
BLOCK
  5
847A
330
8479
100
AcDbEntity
  8
0
100
AcDbBlockBegin
  2
_DOT
 70
     0
 10
0.0
 20
0.0
 30
0.0
  3
_DOT
  1

  0
LINE
  5
80EE
330
8479
100
AcDbEntity
  8
0
  6
ByBlock
 62
     0
100
AcDbLine
 10
0.0
 20
0.0
 30
0.0
 11
-1.0
 21
-0.0000000000000284
 31
0.0
  0
LWPOLYLINE
  5
80EF
330
8479
100
AcDbEntity
  8
0
  6
ByBlock
 62
     0
100
AcDbPolyline
 90
        2
 70
     1
 43
0.1666666666666666
 10
-0.0833333333333286
 20
-0.0000000000000284
 42
1.0
 10
0.0833333333333286
 20
-0.0000000000000284
 42
1.0
  0
ENDBLK
  5
80D3
330
8479
100
AcDbEntity
  8
0
100
AcDbBlockEnd
  0
BLOCK
  5
847C
330
847B
100
AcDbEntity
  8
0
100
AcDbBlockBegin
  2
_NONE
 70
     0
 10
0.0
 20
0.0
 30
0.0
  3
_NONE
  1

  0
CIRCLE
  5
81BA
330
847B
100
AcDbEntity
  8
0
  6
ByBlock
 62
     0
100
AcDbCircle
 10
0.0
 20
0.0
 30
0.0
 40
0.25
  0
ENDBLK
  5
81BB
330
847B
100
AcDbEntity
  8
0
100
AcDbBlockEnd
  0
BLOCK
  5
847E
330
847D
100
AcDbEntity
  8
0
100
AcDbBlockBegin
  2
*D21
 70
     1
 10
0.0
 20
0.0
 30
0.0
  3
*D21
  1

  0
LINE
  5
821F
330
847D
100
AcDbEntity
  8
0
  6
ByBlock
 62
     0
100
AcDbLine
 10
1700.169444624878
 20
2797.929658934044
 30
0.0
 11
1700.169444624878
 21
2520.935069351381
 31
0.0
  0
LINE
  5
8220
330
847D
100
AcDbEntity
  8
0
  6
ByBlock
 62
     0
100
AcDbLine
 10
2450.169444624878
 20
2797.929658934044
 30
0.0
 11
2450.169444624878
 21
2520.935069351381
 31
0.0
  0
LINE
  5
8221
330
847D
100
AcDbEntity
  8
0
  6
ByBlock
 62
     0
100
AcDbLine
 10
1780.169444624878
 20
2560.93506935138
 30
0.0
 11
2370.169444624877
 21
2560.93506935138
 31
0.0
  0
INSERT
  5
8222
330
847D
100
AcDbEntity
  8
0
  6
ByBlock
 62
     0
100
AcDbBlockReference
  2
_OPEN
 10
1700.169444624878
 20
2560.93506935138
 30
0.0
 41
80.0
 42
80.0
 43
80.0
 50
180.0
  0
INSERT
  5
8223
330
847D
100
AcDbEntity
  8
0
  6
ByBlock
 62
     0
100
AcDbBlockReference
  2
_OPEN
 10
2450.169444624878
 20
2560.93506935138
 30
0.0
 41
80.0
 42
80.0
 43
80.0
  0
TEXT
  5
8224
330
847D
100
AcDbEntity
  8
3
 62
     0
100
AcDbText
 10
1920.883730339164
 20
2600.93506935138
 30
0.0
 40
120.0
  1
750
100
AcDbText
  0
POINT
  5
8225
330
847D
100
AcDbEntity
  8
DEFPOINTS
  6
ByBlock
 62
     0
100
AcDbPoint
 10
1700.169444624878
 20
2817.929658934044
 30
0.0
  0
POINT
  5
8226
330
847D
100
AcDbEntity
  8
DEFPOINTS
  6
ByBlock
 62
     0
100
AcDbPoint
 10
2450.169444624878
 20
2817.929658934044
 30
0.0
  0
POINT
  5
8227
330
847D
100
AcDbEntity
  8
DEFPOINTS
  6
ByBlock
 62
     0
100
AcDbPoint
 10
2450.169444624878
 20
2560.93506935138
 30
0.0
  0
ENDBLK
  5
8228
330
847D
100
AcDbEntity
  8
0
100
AcDbBlockEnd
  0
BLOCK
  5
8480
330
847F
100
AcDbEntity
  8
0
100
AcDbBlockBegin
  2
*D22
 70
     1
 10
0.0
 20
0.0
 30
0.0
  3
*D22
  1

  0
LINE
  5
822C
330
847F
100
AcDbEntity
  8
0
  6
ByBlock
 62
     0
100
AcDbLine
 10
2450.169444624878
 20
2797.929658934044
 30
0.0
 11
2450.169444624878
 21
2520.935069351381
 31
0.0
  0
LINE
  5
822D
330
847F
100
AcDbEntity
  8
0
  6
ByBlock
 62
     0
100
AcDbLine
 10
4150.169444624879
 20
2797.929658934044
 30
0.0
 11
4150.169444624879
 21
2520.935069351381
 31
0.0
  0
LINE
  5
822E
330
847F
100
AcDbEntity
  8
0
  6
ByBlock
 62
     0
100
AcDbLine
 10
2530.169444624877
 20
2560.93506935138
 30
0.0
 11
4070.169444624879
 21
2560.93506935138
 31
0.0
  0
INSERT
  5
822F
330
847F
100
AcDbEntity
  8
0
  6
ByBlock
 62
     0
100
AcDbBlockReference
  2
_OPEN
 10
2450.169444624878
 20
2560.93506935138
 30
0.0
 41
80.0
 42
80.0
 43
80.0
 50
180.0
  0
INSERT
  5
8230
330
847F
100
AcDbEntity
  8
0
  6
ByBlock
 62
     0
100
AcDbBlockReference
  2
_OPEN
 10
4150.169444624879
 20
2560.93506935138
 30
0.0
 41
80.0
 42
80.0
 43
80.0
  0
TEXT
  5
8231
330
847F
100
AcDbEntity
  8
3
 62
     0
100
AcDbText
 10
3100.169444624878
 20
2600.93506935138
 30
0.0
 40
120.0
  1
1700
100
AcDbText
  0
POINT
  5
8232
330
847F
100
AcDbEntity
  8
DEFPOINTS
  6
ByBlock
 62
     0
100
AcDbPoint
 10
2450.169444624878
 20
2817.929658934044
 30
0.0
  0
POINT
  5
8233
330
847F
100
AcDbEntity
  8
DEFPOINTS
  6
ByBlock
 62
     0
100
AcDbPoint
 10
4150.169444624879
 20
2817.929658934044
 30
0.0
  0
POINT
  5
8234
330
847F
100
AcDbEntity
  8
DEFPOINTS
  6
ByBlock
 62
     0
100
AcDbPoint
 10
4150.169444624879
 20
2560.93506935138
 30
0.0
  0
ENDBLK
  5
8235
330
847F
100
AcDbEntity
  8
0
100
AcDbBlockEnd
  0
BLOCK
  5
8482
330
8481
100
AcDbEntity
  8
0
100
AcDbBlockBegin
  2
*D23
 70
     1
 10
0.0
 20
0.0
 30
0.0
  3
*D23
  1

  0
LINE
  5
8239
330
8481
100
AcDbEntity
  8
0
  6
ByBlock
 62
     0
100
AcDbLine
 10
4876.039116178847
 20
2797.929658934044
 30
0.0
 11
4876.039116178847
 21
2520.935069351381
 31
0.0
  0
LINE
  5
823A
330
8481
100
AcDbEntity
  8
0
  6
ByBlock
 62
     0
100
AcDbLine
 10
6078.039116178845
 20
2797.929658934044
 30
0.0
 11
6078.039116178845
 21
2520.935069351381
 31
0.0
  0
LINE
  5
823B
330
8481
100
AcDbEntity
  8
0
  6
ByBlock
 62
     0
100
AcDbLine
 10
4956.039116178846
 20
2560.93506935138
 30
0.0
 11
5998.039116178844
 21
2560.93506935138
 31
0.0
  0
INSERT
  5
823C
330
8481
100
AcDbEntity
  8
0
  6
ByBlock
 62
     0
100
AcDbBlockReference
  2
_OPEN
 10
4876.039116178847
 20
2560.93506935138
 30
0.0
 41
80.0
 42
80.0
 43
80.0
 50
180.0
  0
INSERT
  5
823D
330
8481
100
AcDbEntity
  8
0
  6
ByBlock
 62
     0
100
AcDbBlockReference
  2
_OPEN
 10
6078.039116178845
 20
2560.93506935138
 30
0.0
 41
80.0
 42
80.0
 43
80.0
  0
TEXT
  5
823E
330
8481
100
AcDbEntity
  8
3
 62
     0
100
AcDbText
 10
5277.039116178846
 20
2600.93506935138
 30
0.0
 40
120.0
  1
1202
100
AcDbText
  0
POINT
  5
823F
330
8481
100
AcDbEntity
  8
DEFPOINTS
  6
ByBlock
 62
     0
100
AcDbPoint
 10
4876.039116178847
 20
2817.929658934044
 30
0.0
  0
POINT
  5
8240
330
8481
100
AcDbEntity
  8
DEFPOINTS
  6
ByBlock
 62
     0
100
AcDbPoint
 10
6078.039116178845
 20
2817.929658934044
 30
0.0
  0
POINT
  5
8241
330
8481
100
AcDbEntity
  8
DEFPOINTS
  6
ByBlock
 62
     0
100
AcDbPoint
 10
6078.039116178845
 20
2560.93506935138
 30
0.0
  0
ENDBLK
  5
8242
330
8481
100
AcDbEntity
  8
0
100
AcDbBlockEnd
  0
BLOCK
  5
8484
330
8483
100
AcDbEntity
  8
0
100
AcDbBlockBegin
  2
*D24
 70
     1
 10
0.0
 20
0.0
 30
0.0
  3
*D24
  1

  0
LINE
  5
8253
330
8483
100
AcDbEntity
  8
0
  6
ByBlock
 62
     0
100
AcDbLine
 10
6078.039116178845
 20
2797.929658934044
 30
0.0
 11
6078.039116178845
 21
2520.935069351381
 31
0.0
  0
LINE
  5
8254
330
8483
100
AcDbEntity
  8
0
  6
ByBlock
 62
     0
100
AcDbLine
 10
6996.039116178846
 20
2797.929658934044
 30
0.0
 11
6996.039116178846
 21
2520.935069351381
 31
0.0
  0
LINE
  5
8255
330
8483
100
AcDbEntity
  8
0
  6
ByBlock
 62
     0
100
AcDbLine
 10
6158.039116178844
 20
2560.93506935138
 30
0.0
 11
6916.039116178845
 21
2560.93506935138
 31
0.0
  0
INSERT
  5
8256
330
8483
100
AcDbEntity
  8
0
  6
ByBlock
 62
     0
100
AcDbBlockReference
  2
_OPEN
 10
6078.039116178845
 20
2560.93506935138
 30
0.0
 41
80.0
 42
80.0
 43
80.0
 50
180.0
  0
INSERT
  5
8257
330
8483
100
AcDbEntity
  8
0
  6
ByBlock
 62
     0
100
AcDbBlockReference
  2
_OPEN
 10
6996.039116178846
 20
2560.93506935138
 30
0.0
 41
80.0
 42
80.0
 43
80.0
  0
TEXT
  5
8258
330
8483
100
AcDbEntity
  8
3
 62
     0
100
AcDbText
 10
6394.181973321702
 20
2600.93506935138
 30
0.0
 40
120.0
  1
918
100
AcDbText
  0
POINT
  5
8259
330
8483
100
AcDbEntity
  8
DEFPOINTS
  6
ByBlock
 62
     0
100
AcDbPoint
 10
6078.039116178845
 20
2817.929658934044
 30
0.0
  0
POINT
  5
825A
330
8483
100
AcDbEntity
  8
DEFPOINTS
  6
ByBlock
 62
     0
100
AcDbPoint
 10
6996.039116178846
 20
2817.929658934044
 30
0.0
  0
POINT
  5
825B
330
8483
100
AcDbEntity
  8
DEFPOINTS
  6
ByBlock
 62
     0
100
AcDbPoint
 10
6996.039116178846
 20
2560.93506935138
 30
0.0
  0
ENDBLK
  5
825C
330
8483
100
AcDbEntity
  8
0
100
AcDbBlockEnd
  0
BLOCK
  5
8486
330
8485
100
AcDbEntity
  8
0
100
AcDbBlockBegin
  2
*D25
 70
     1
 10
0.0
 20
0.0
 30
0.0
  3
*D25
  1

  0
LINE
  5
8260
330
8485
100
AcDbEntity
  8
0
  6
ByBlock
 62
     0
100
AcDbLine
 10
1680.169444624878
 20
2817.929658934044
 30
0.0
 11
995.0709536129943
 21
2817.929658934044
 31
0.0
  0
LINE
  5
8261
330
8485
100
AcDbEntity
  8
0
  6
ByBlock
 62
     0
100
AcDbLine
 10
2431.169444624878
 20
4752.929658934045
 30
0.0
 11
995.0709536129943
 21
4752.929658934045
 31
0.0
  0
LINE
  5
8262
330
8485
100
AcDbEntity
  8
0
  6
ByBlock
 62
     0
100
AcDbLine
 10
1035.070953612994
 20
2897.929658934044
 30
0.0
 11
1035.070953612994
 21
4672.929658934044
 31
0.0
  0
INSERT
  5
8263
330
8485
100
AcDbEntity
  8
0
  6
ByBlock
 62
     0
100
AcDbBlockReference
  2
_OPEN
 10
1035.070953612994
 20
2817.929658934044
 30
0.0
 41
80.0
 42
80.0
 43
80.0
 50
270.0
  0
INSERT
  5
8264
330
8485
100
AcDbEntity
  8
0
  6
ByBlock
 62
     0
100
AcDbBlockReference
  2
_OPEN
 10
1035.070953612994
 20
4752.929658934045
 30
0.0
 41
80.0
 42
80.0
 43
80.0
 50
90.0
  0
TEXT
  5
8265
330
8485
100
AcDbEntity
  8
3
 62
     0
100
AcDbText
 10
995.0709536129943
 20
3585.429658934045
 30
0.0
 40
120.0
  1
1935
 50
90.0
100
AcDbText
  0
POINT
  5
8266
330
8485
100
AcDbEntity
  8
DEFPOINTS
  6
ByBlock
 62
     0
100
AcDbPoint
 10
1700.169444624878
 20
2817.929658934044
 30
0.0
  0
POINT
  5
8267
330
8485
100
AcDbEntity
  8
DEFPOINTS
  6
ByBlock
 62
     0
100
AcDbPoint
 10
2451.169444624878
 20
4752.929658934045
 30
0.0
  0
POINT
  5
8268
330
8485
100
AcDbEntity
  8
DEFPOINTS
  6
ByBlock
 62
     0
100
AcDbPoint
 10
1035.070953612994
 20
4752.929658934045
 30
0.0
  0
ENDBLK
  5
8269
330
8485
100
AcDbEntity
  8
0
100
AcDbBlockEnd
  0
BLOCK
  5
84E0
330
84DF
100
AcDbEntity
  8
0
100
AcDbBlockBegin
  2
*D26
 70
     1
 10
0.0
 20
0.0
 30
0.0
  3
*D26
  1

  0
LINE
  5
8561
330
84DF
100
AcDbEntity
  8
3
 62
     0
370
    -2
100
AcDbLine
 10
4798.039116178847
 20
4327.929658934045
 30
0.0
 11
4798.039116178847
 21
5328.10922238426
 31
0.0
  0
LINE
  5
8562
330
84DF
100
AcDbEntity
  8
3
 62
     0
370
    -2
100
AcDbLine
 10
6078.039116178846
 20
5180.007557733631
 30
0.0
 11
6078.039116178846
 21
5328.10922238426
 31
0.0
  0
LINE
  5
8563
330
84DF
100
AcDbEntity
  8
3
 62
     0
370
    -2
100
AcDbLine
 10
4878.039116178847
 20
5288.10922238426
 30
0.0
 11
5998.039116178847
 21
5288.10922238426
 31
0.0
  0
INSERT
  5
8564
330
84DF
100
AcDbEntity
  8
3
 62
     0
370
    -2
100
AcDbBlockReference
  2
_OPEN
 10
4798.039116178847
 20
5288.10922238426
 30
0.0
 41
80.0
 42
80.0
 43
80.0
 50
180.0
  0
INSERT
  5
8565
330
84DF
100
AcDbEntity
  8
3
 62
     0
370
    -2
100
AcDbBlockReference
  2
_OPEN
 10
6078.039116178846
 20
5288.10922238426
 30
0.0
 41
80.0
 42
80.0
 43
80.0
  0
MTEXT
  5
8566
330
84DF
100
AcDbEntity
  8
3
 62
     0
100
AcDbMText
 10
5438.039116178846
 20
5419.537793812832
 30
0.0
 40
120.0
 41
0.0
 71
     5
 72
     1
  1
\A1;(1280)
 73
     1
 44
1.0
1001
ACAD
1000
MTEXTBEGIN
1070
    73
1070
     1
1070
    44
1040
1.0
1070
    74
1070
     0
1000
MTEXTEND
  0
POINT
  5
8567
330
84DF
100
AcDbEntity
  8
DEFPOINTS
 62
     0
100
AcDbPoint
 10
4798.039116178847
 20
4307.929658934045
 30
0.0
  0
POINT
  5
8568
330
84DF
100
AcDbEntity
  8
DEFPOINTS
 62
     0
100
AcDbPoint
 10
6078.039116178846
 20
5160.007557733631
 30
0.0
  0
POINT
  5
8569
330
84DF
100
AcDbEntity
  8
DEFPOINTS
 62
     0
100
AcDbPoint
 10
6078.039116178846
 20
5288.10922238426
 30
0.0
  0
ENDBLK
  5
84E1
330
84DF
100
AcDbEntity
  8
0
100
AcDbBlockEnd
  0
BLOCK
  5
84ED
330
84EC
100
AcDbEntity
  8
0
100
AcDbBlockBegin
  2
*D27
 70
     1
 10
0.0
 20
0.0
 30
0.0
  3
*D27
  1

  0
LINE
  5
856A
330
84EC
100
AcDbEntity
  8
3
 62
     0
370
    -2
100
AcDbLine
 10
6078.039116178846
 20
5180.007557733631
 30
0.0
 11
6078.039116178846
 21
5328.10922238426
 31
0.0
  0
LINE
  5
856B
330
84EC
100
AcDbEntity
  8
3
 62
     0
370
    -2
100
AcDbLine
 10
7098.039116178846
 20
3871.929658934045
 30
0.0
 11
7098.039116178846
 21
5328.10922238426
 31
0.0
  0
LINE
  5
856C
330
84EC
100
AcDbEntity
  8
3
 62
     0
370
    -2
100
AcDbLine
 10
6158.039116178847
 20
5288.10922238426
 30
0.0
 11
7018.039116178846
 21
5288.10922238426
 31
0.0
  0
INSERT
  5
856D
330
84EC
100
AcDbEntity
  8
3
 62
     0
370
    -2
100
AcDbBlockReference
  2
_OPEN
 10
6078.039116178846
 20
5288.10922238426
 30
0.0
 41
80.0
 42
80.0
 43
80.0
 50
180.0
  0
INSERT
  5
856E
330
84EC
100
AcDbEntity
  8
3
 62
     0
370
    -2
100
AcDbBlockReference
  2
_OPEN
 10
7098.039116178846
 20
5288.10922238426
 30
0.0
 41
80.0
 42
80.0
 43
80.0
  0
MTEXT
  5
856F
330
84EC
100
AcDbEntity
  8
3
 62
     0
100
AcDbMText
 10
6588.039116178847
 20
5419.537793812832
 30
0.0
 40
120.0
 41
0.0
 71
     5
 72
     1
  1
\A1;(1020)
 73
     1
 44
1.0
1001
ACAD
1000
MTEXTBEGIN
1070
    73
1070
     1
1070
    44
1040
1.0
1070
    74
1070
     0
1000
MTEXTEND
  0
POINT
  5
8570
330
84EC
100
AcDbEntity
  8
DEFPOINTS
 62
     0
100
AcDbPoint
 10
6078.039116178846
 20
5160.007557733631
 30
0.0
  0
POINT
  5
8571
330
84EC
100
AcDbEntity
  8
DEFPOINTS
 62
     0
100
AcDbPoint
 10
7098.039116178846
 20
3851.929658934045
 30
0.0
  0
POINT
  5
8572
330
84EC
100
AcDbEntity
  8
DEFPOINTS
 62
     0
100
AcDbPoint
 10
7098.039116178846
 20
5288.10922238426
 30
0.0
  0
ENDBLK
  5
84EE
330
84EC
100
AcDbEntity
  8
0
100
AcDbBlockEnd
  0
BLOCK
  5
84FE
330
84FD
100
AcDbEntity
  8
0
100
AcDbBlockBegin
  2
*D28
 70
     1
 10
0.0
 20
0.0
 30
0.0
  3
*D28
  1

  0
LINE
  5
8522
330
84FD
100
AcDbEntity
  8
3
 62
     0
370
    -2
100
AcDbLine
 10
6948.039116178846
 20
4552.929658934044
 30
0.0
 11
7379.30874109135
 21
4552.929658934044
 31
0.0
  0
LINE
  5
8523
330
84FD
100
AcDbEntity
  8
3
 62
     0
370
    -2
100
AcDbLine
 10
6948.039116178846
 20
3302.929658934044
 30
0.0
 11
7379.30874109135
 21
3302.929658934044
 31
0.0
  0
LINE
  5
8524
330
84FD
100
AcDbEntity
  8
3
 62
     0
370
    -2
100
AcDbLine
 10
7339.30874109135
 20
4472.929658934044
 30
0.0
 11
7339.30874109135
 21
3382.929658934044
 31
0.0
  0
INSERT
  5
8525
330
84FD
100
AcDbEntity
  8
3
 62
     0
370
    -2
100
AcDbBlockReference
  2
_OPEN
 10
7339.30874109135
 20
4552.929658934044
 30
0.0
 41
80.0
 42
80.0
 43
80.0
 50
90.0
  0
INSERT
  5
8526
330
84FD
100
AcDbEntity
  8
3
 62
     0
370
    -2
100
AcDbBlockReference
  2
_OPEN
 10
7339.30874109135
 20
3302.929658934044
 30
0.0
 41
80.0
 42
80.0
 43
80.0
 50
270.0
  0
MTEXT
  5
8527
330
84FD
100
AcDbEntity
  8
3
 62
     0
100
AcDbMText
 10
7239.308741091349
 20
3927.929658934046
 30
0.0
 40
120.0
 41
0.0
 71
     5
 72
     1
  1
\A1;\U+03C61250
 11
0.0000000000000001
 21
1.0
 31
0.0
 73
     1
 44
1.0
1001
ACAD
1000
MTEXTBEGIN
1070
    73
1070
     1
1070
    44
1040
1.0
1070
    74
1070
     0
1000
MTEXTEND
  0
POINT
  5
8528
330
84FD
100
AcDbEntity
  8
DEFPOINTS
 62
     0
100
AcDbPoint
 10
6928.039116178847
 20
4552.929658934044
 30
0.0
  0
POINT
  5
8529
330
84FD
100
AcDbEntity
  8
DEFPOINTS
 62
     0
100
AcDbPoint
 10
6928.039116178847
 20
3302.929658934044
 30
0.0
  0
POINT
  5
852A
330
84FD
100
AcDbEntity
  8
DEFPOINTS
 62
     0
100
AcDbPoint
 10
7339.30874109135
 20
3302.929658934044
 30
0.0
  0
ENDBLK
  5
84FF
330
84FD
100
AcDbEntity
  8
0
100
AcDbBlockEnd
  0
BLOCK
  5
850B
330
850A
100
AcDbEntity
  8
0
100
AcDbBlockBegin
  2
*D29
 70
     1
 10
0.0
 20
0.0
 30
0.0
  3
*D29
  1

  0
LINE
  5
850D
330
850A
100
AcDbEntity
  8
3
 62
     0
370
    -2
100
AcDbLine
 10
5228.039116178845
 20
4772.929658934045
 30
0.0
 11
5228.039116178845
 21
5040.00755773363
 31
0.0
  0
LINE
  5
850E
330
850A
100
AcDbEntity
  8
3
 62
     0
370
    -2
100
AcDbLine
 10
6928.039116178847
 20
4772.929658934045
 30
0.0
 11
6928.039116178847
 21
5040.00755773363
 31
0.0
  0
LINE
  5
850F
330
850A
100
AcDbEntity
  8
3
 62
     0
370
    -2
100
AcDbLine
 10
5308.039116178846
 20
5000.007557733631
 30
0.0
 11
6848.039116178846
 21
5000.007557733631
 31
0.0
  0
INSERT
  5
8510
330
850A
100
AcDbEntity
  8
3
 62
     0
370
    -2
100
AcDbBlockReference
  2
_OPEN
 10
5228.039116178845
 20
5000.007557733631
 30
0.0
 41
80.0
 42
80.0
 43
80.0
 50
180.0
  0
INSERT
  5
8511
330
850A
100
AcDbEntity
  8
3
 62
     0
370
    -2
100
AcDbBlockReference
  2
_OPEN
 10
6928.039116178847
 20
5000.007557733631
 30
0.0
 41
80.0
 42
80.0
 43
80.0
  0
MTEXT
  5
8512
330
850A
100
AcDbEntity
  8
3
 62
     0
100
AcDbMText
 10
6078.039116178846
 20
5100.007557733631
 30
0.0
 40
120.0
 41
0.0
 71
     5
 72
     1
  1
\A1;1700
 73
     1
 44
1.0
1001
ACAD
1000
MTEXTBEGIN
1070
    73
1070
     1
1070
    44
1040
1.0
1070
    74
1070
     0
1000
MTEXTEND
  0
POINT
  5
8513
330
850A
100
AcDbEntity
  8
DEFPOINTS
 62
     0
100
AcDbPoint
 10
5228.039116178845
 20
4752.929658934045
 30
0.0
  0
POINT
  5
8514
330
850A
100
AcDbEntity
  8
DEFPOINTS
 62
     0
100
AcDbPoint
 10
6928.039116178847
 20
4752.929658934045
 30
0.0
  0
POINT
  5
8515
330
850A
100
AcDbEntity
  8
DEFPOINTS
 62
     0
100
AcDbPoint
 10
6928.039116178847
 20
5000.007557733631
 30
0.0
  0
ENDBLK
  5
850C
330
850A
100
AcDbEntity
  8
0
100
AcDbBlockEnd
  0
BLOCK
  5
8575
330
8574
100
AcDbEntity
  8
0
100
AcDbBlockBegin
  2
*D30
 70
     1
 10
0.0
 20
0.0
 30
0.0
  3
*D30
  1

  0
LINE
  5
8577
330
8574
100
AcDbEntity
  8
3
 62
     0
370
    -2
100
AcDbLine
 10
1680.169444624878
 20
8705.437268273023
 30
0.0
 11
1211.153303389045
 21
8705.437268273023
 31
0.0
  0
LINE
  5
8578
330
8574
100
AcDbEntity
  8
3
 62
     0
370
    -2
100
AcDbLine
 10
1680.169444624878
 20
6585.437268273023
 30
0.0
 11
1211.153303389044
 21
6585.437268273023
 31
0.0
  0
LINE
  5
8579
330
8574
100
AcDbEntity
  8
3
 62
     0
370
    -2
100
AcDbLine
 10
1251.153303389044
 20
8625.437268273023
 30
0.0
 11
1251.153303389044
 21
6665.437268273023
 31
0.0
  0
INSERT
  5
857A
330
8574
100
AcDbEntity
  8
3
 62
     0
370
    -2
100
AcDbBlockReference
  2
_OPEN
 10
1251.153303389045
 20
8705.437268273023
 30
0.0
 41
80.0
 42
80.0
 43
80.0
 50
90.0
  0
INSERT
  5
857B
330
8574
100
AcDbEntity
  8
3
 62
     0
370
    -2
100
AcDbBlockReference
  2
_OPEN
 10
1251.153303389044
 20
6585.437268273023
 30
0.0
 41
80.0
 42
80.0
 43
80.0
 50
270.0
  0
MTEXT
  5
857C
330
8574
100
AcDbEntity
  8
3
 62
     0
100
AcDbMText
 10
1151.153303389043
 20
7645.437268273022
 30
0.0
 40
120.0
 41
0.0
 71
     5
 72
     1
  1
\A1;2120
 11
0.0000000000000001
 21
1.0
 31
0.0
 73
     1
 44
1.0
1001
ACAD
1000
MTEXTBEGIN
1070
    73
1070
     1
1070
    44
1040
1.0
1070
    74
1070
     0
1000
MTEXTEND
  0
POINT
  5
857D
330
8574
100
AcDbEntity
  8
DEFPOINTS
 62
     0
100
AcDbPoint
 10
1700.169444624878
 20
8705.437268273023
 30
0.0
  0
POINT
  5
857E
330
8574
100
AcDbEntity
  8
DEFPOINTS
 62
     0
100
AcDbPoint
 10
1700.169444624878
 20
6585.437268273023
 30
0.0
  0
POINT
  5
857F
330
8574
100
AcDbEntity
  8
DEFPOINTS
 62
     0
100
AcDbPoint
 10
1251.153303389044
 20
6585.437268273023
 30
0.0
  0
ENDBLK
  5
8576
330
8574
100
AcDbEntity
  8
0
100
AcDbBlockEnd
  0
BLOCK
  5
8582
330
8581
100
AcDbEntity
  8
0
100
AcDbBlockBegin
  2
*D31
 70
     1
 10
0.0
 20
0.0
 30
0.0
  3
*D31
  1

  0
LINE
  5
8584
330
8581
100
AcDbEntity
  8
3
 62
     0
370
    -2
100
AcDbLine
 10
1700.169444624878
 20
6565.437268273022
 30
0.0
 11
1700.169444624878
 21
6180.683390083371
 31
0.0
  0
LINE
  5
8585
330
8581
100
AcDbEntity
  8
3
 62
     0
370
    -2
100
AcDbLine
 10
4150.169444624879
 20
6565.437268273022
 30
0.0
 11
4150.169444624879
 21
6180.683390083371
 31
0.0
  0
LINE
  5
8586
330
8581
100
AcDbEntity
  8
3
 62
     0
370
    -2
100
AcDbLine
 10
1780.169444624878
 20
6220.683390083371
 30
0.0
 11
4070.169444624879
 21
6220.683390083371
 31
0.0
  0
INSERT
  5
8587
330
8581
100
AcDbEntity
  8
3
 62
     0
370
    -2
100
AcDbBlockReference
  2
_OPEN
 10
1700.169444624878
 20
6220.683390083371
 30
0.0
 41
80.0
 42
80.0
 43
80.0
 50
180.0
  0
INSERT
  5
8588
330
8581
100
AcDbEntity
  8
3
 62
     0
370
    -2
100
AcDbBlockReference
  2
_OPEN
 10
4150.169444624879
 20
6220.683390083371
 30
0.0
 41
80.0
 42
80.0
 43
80.0
  0
MTEXT
  5
8589
330
8581
100
AcDbEntity
  8
3
 62
     0
100
AcDbMText
 10
2925.169444624879
 20
6320.68339008337
 30
0.0
 40
120.0
 41
0.0
 71
     5
 72
     1
  1
\A1;2450
 73
     1
 44
1.0
1001
ACAD
1000
MTEXTBEGIN
1070
    73
1070
     1
1070
    44
1040
1.0
1070
    74
1070
     0
1000
MTEXTEND
  0
POINT
  5
858A
330
8581
100
AcDbEntity
  8
DEFPOINTS
 62
     0
100
AcDbPoint
 10
1700.169444624878
 20
6585.437268273023
 30
0.0
  0
POINT
  5
858B
330
8581
100
AcDbEntity
  8
DEFPOINTS
 62
     0
100
AcDbPoint
 10
4150.169444624879
 20
6585.437268273023
 30
0.0
  0
POINT
  5
858C
330
8581
100
AcDbEntity
  8
DEFPOINTS
 62
     0
100
AcDbPoint
 10
4150.169444624879
 20
6220.683390083371
 30
0.0
  0
ENDBLK
  5
8583
330
8581
100
AcDbEntity
  8
0
100
AcDbBlockEnd
  0
BLOCK
  5
858F
330
858E
100
AcDbEntity
  8
0
100
AcDbBlockBegin
  2
*D32
 70
     1
 10
0.0
 20
0.0
 30
0.0
  3
*D32
  1

  0
LINE
  5
8591
330
858E
100
AcDbEntity
  8
3
 62
     0
370
    -2
100
AcDbLine
 10
4170.169444624879
 20
6585.437268273023
 30
0.0
 11
4456.495845732457
 21
6585.437268273023
 31
0.0
  0
LINE
  5
8592
330
858E
100
AcDbEntity
  8
3
 62
     0
370
    -2
100
AcDbLine
 10
4170.169444624879
 20
7585.437268273023
 30
0.0
 11
4456.495845732457
 21
7585.437268273023
 31
0.0
  0
LINE
  5
8593
330
858E
100
AcDbEntity
  8
3
 62
     0
370
    -2
100
AcDbLine
 10
4416.495845732457
 20
6665.437268273023
 30
0.0
 11
4416.495845732457
 21
7505.437268273023
 31
0.0
  0
INSERT
  5
8594
330
858E
100
AcDbEntity
  8
3
 62
     0
370
    -2
100
AcDbBlockReference
  2
_OPEN
 10
4416.495845732457
 20
6585.437268273023
 30
0.0
 41
80.0
 42
80.0
 43
80.0
 50
270.0
  0
INSERT
  5
8595
330
858E
100
AcDbEntity
  8
3
 62
     0
370
    -2
100
AcDbBlockReference
  2
_OPEN
 10
4416.495845732457
 20
7585.437268273023
 30
0.0
 41
80.0
 42
80.0
 43
80.0
 50
90.0
  0
MTEXT
  5
8596
330
858E
100
AcDbEntity
  8
3
 62
     0
100
AcDbMText
 10
4316.495845732456
 20
7085.437268273024
 30
0.0
 40
120.0
 41
0.0
 71
     5
 72
     1
  1
\A1;1000
 11
0.0000000000000001
 21
1.0
 31
0.0
 73
     1
 44
1.0
1001
ACAD
1000
MTEXTBEGIN
1070
    73
1070
     1
1070
    44
1040
1.0
1070
    74
1070
     0
1000
MTEXTEND
  0
POINT
  5
8597
330
858E
100
AcDbEntity
  8
DEFPOINTS
 62
     0
100
AcDbPoint
 10
4150.169444624879
 20
6585.437268273023
 30
0.0
  0
POINT
  5
8598
330
858E
100
AcDbEntity
  8
DEFPOINTS
 62
     0
100
AcDbPoint
 10
4150.169444624879
 20
7585.437268273023
 30
0.0
  0
POINT
  5
8599
330
858E
100
AcDbEntity
  8
DEFPOINTS
 62
     0
100
AcDbPoint
 10
4416.495845732457
 20
7585.437268273023
 30
0.0
  0
ENDBLK
  5
8590
330
858E
100
AcDbEntity
  8
0
100
AcDbBlockEnd
  0
BLOCK
  5
859C
330
859B
100
AcDbEntity
  8
0
100
AcDbBlockBegin
  2
*D33
 70
     1
 10
0.0
 20
0.0
 30
0.0
  3
*D33
  1

  0
LINE
  5
859E
330
859B
100
AcDbEntity
  8
3
 62
     0
370
    -2
100
AcDbLine
 10
1700.169444624878
 20
8725.437268273024
 30
0.0
 11
1700.169444624878
 21
8950.073406778209
 31
0.0
  0
LINE
  5
859F
330
859B
100
AcDbEntity
  8
3
 62
     0
370
    -2
100
AcDbLine
 10
3200.169444624878
 20
8725.437268273024
 30
0.0
 11
3200.169444624878
 21
8950.073406778209
 31
0.0
  0
LINE
  5
85A0
330
859B
100
AcDbEntity
  8
3
 62
     0
370
    -2
100
AcDbLine
 10
1780.169444624878
 20
8910.073406778208
 30
0.0
 11
3120.169444624878
 21
8910.073406778208
 31
0.0
  0
INSERT
  5
85A1
330
859B
100
AcDbEntity
  8
3
 62
     0
370
    -2
100
AcDbBlockReference
  2
_OPEN
 10
1700.169444624878
 20
8910.073406778208
 30
0.0
 41
80.0
 42
80.0
 43
80.0
 50
180.0
  0
INSERT
  5
85A2
330
859B
100
AcDbEntity
  8
3
 62
     0
370
    -2
100
AcDbBlockReference
  2
_OPEN
 10
3200.169444624878
 20
8910.073406778208
 30
0.0
 41
80.0
 42
80.0
 43
80.0
  0
MTEXT
  5
85A3
330
859B
100
AcDbEntity
  8
3
 62
     0
100
AcDbMText
 10
2450.169444624878
 20
9010.073406778209
 30
0.0
 40
120.0
 41
0.0
 71
     5
 72
     1
  1
\A1;1500
 73
     1
 44
1.0
1001
ACAD
1000
MTEXTBEGIN
1070
    73
1070
     1
1070
    44
1040
1.0
1070
    74
1070
     0
1000
MTEXTEND
  0
POINT
  5
85A4
330
859B
100
AcDbEntity
  8
DEFPOINTS
 62
     0
100
AcDbPoint
 10
1700.169444624878
 20
8705.437268273023
 30
0.0
  0
POINT
  5
85A5
330
859B
100
AcDbEntity
  8
DEFPOINTS
 62
     0
100
AcDbPoint
 10
3200.169444624878
 20
8705.437268273023
 30
0.0
  0
POINT
  5
85A6
330
859B
100
AcDbEntity
  8
DEFPOINTS
 62
     0
100
AcDbPoint
 10
3200.169444624878
 20
8910.073406778208
 30
0.0
  0
ENDBLK
  5
859D
330
859B
100
AcDbEntity
  8
0
100
AcDbBlockEnd
  0
BLOCK
  5
85A9
330
85A8
100
AcDbEntity
  8
0
100
AcDbBlockBegin
  2
*D34
 70
     1
 10
0.0
 20
0.0
 30
0.0
  3
*D34
  1

  0
LINE
  5
85AB
330
85A8
100
AcDbEntity
  8
3
 62
     0
370
    -2
100
AcDbLine
 10
3200.169444624878
 20
8725.437268273024
 30
0.0
 11
3200.169444624878
 21
8950.073406778209
 31
0.0
  0
LINE
  5
85AC
330
85A8
100
AcDbEntity
  8
3
 62
     0
370
    -2
100
AcDbLine
 10
4150.169444624879
 20
7605.437268273023
 30
0.0
 11
4150.169444624879
 21
8950.073406778209
 31
0.0
  0
LINE
  5
85AD
330
85A8
100
AcDbEntity
  8
3
 62
     0
370
    -2
100
AcDbLine
 10
3280.169444624878
 20
8910.073406778208
 30
0.0
 11
4070.169444624879
 21
8910.073406778208
 31
0.0
  0
INSERT
  5
85AE
330
85A8
100
AcDbEntity
  8
3
 62
     0
370
    -2
100
AcDbBlockReference
  2
_OPEN
 10
3200.169444624878
 20
8910.073406778208
 30
0.0
 41
80.0
 42
80.0
 43
80.0
 50
180.0
  0
INSERT
  5
85AF
330
85A8
100
AcDbEntity
  8
3
 62
     0
370
    -2
100
AcDbBlockReference
  2
_OPEN
 10
4150.169444624879
 20
8910.073406778208
 30
0.0
 41
80.0
 42
80.0
 43
80.0
  0
MTEXT
  5
85B0
330
85A8
100
AcDbEntity
  8
3
 62
     0
100
AcDbMText
 10
3675.169444624879
 20
9010.073406778209
 30
0.0
 40
120.0
 41
0.0
 71
     5
 72
     1
  1
\A1;950
 73
     1
 44
1.0
1001
ACAD
1000
MTEXTBEGIN
1070
    73
1070
     1
1070
    44
1040
1.0
1070
    74
1070
     0
1000
MTEXTEND
  0
POINT
  5
85B1
330
85A8
100
AcDbEntity
  8
DEFPOINTS
 62
     0
100
AcDbPoint
 10
3200.169444624878
 20
8705.437268273023
 30
0.0
  0
POINT
  5
85B2
330
85A8
100
AcDbEntity
  8
DEFPOINTS
 62
     0
100
AcDbPoint
 10
4150.169444624879
 20
7585.437268273023
 30
0.0
  0
POINT
  5
85B3
330
85A8
100
AcDbEntity
  8
DEFPOINTS
 62
     0
100
AcDbPoint
 10
4150.169444624879
 20
8910.073406778208
 30
0.0
  0
ENDBLK
  5
85AA
330
85A8
100
AcDbEntity
  8
0
100
AcDbBlockEnd
  0
BLOCK
  5
85B6
330
85B5
100
AcDbEntity
  8
0
100
AcDbBlockBegin
  2
*D35
 70
     1
 10
0.0
 20
0.0
 30
0.0
  3
*D35
  1

  0
LINE
  5
85C1
330
85B5
100
AcDbEntity
  8
3
 62
     0
370
    -2
100
AcDbLine
 10
1454.342323903158
 20
7787.437268273027
 30
0.0
 11
800.1988669904532
 21
7787.437268273027
 31
0.0
  0
LINE
  5
85C2
330
85B5
100
AcDbEntity
  8
3
 62
     0
370
    -2
100
AcDbLine
 10
2050.169444624878
 20
6507.437268273022
 30
0.0
 11
800.1988669904532
 21
6507.437268273024
 31
0.0
  0
LINE
  5
85C3
330
85B5
100
AcDbEntity
  8
3
 62
     0
370
    -2
100
AcDbLine
 10
840.1988669904532
 20
7707.437268273027
 30
0.0
 11
840.1988669904531
 21
6587.437268273024
 31
0.0
  0
INSERT
  5
85C4
330
85B5
100
AcDbEntity
  8
3
 62
     0
370
    -2
100
AcDbBlockReference
  2
_OPEN
 10
840.1988669904532
 20
7787.437268273027
 30
0.0
 41
80.0
 42
80.0
 43
80.0
 50
90.0
  0
INSERT
  5
85C5
330
85B5
100
AcDbEntity
  8
3
 62
     0
370
    -2
100
AcDbBlockReference
  2
_OPEN
 10
840.1988669904531
 20
6507.437268273024
 30
0.0
 41
80.0
 42
80.0
 43
80.0
 50
270.0
  0
MTEXT
  5
85C6
330
85B5
100
AcDbEntity
  8
3
 62
     0
100
AcDbMText
 10
740.198866990452
 20
7147.437268273025
 30
0.0
 40
120.0
 41
0.0
 71
     5
 72
     1
  1
\A1;1280
 11
0.0000000000000001
 21
1.0
 31
0.0
 73
     1
 44
1.0
1001
ACAD
1000
MTEXTBEGIN
1070
    73
1070
     1
1070
    44
1040
1.0
1070
    74
1070
     0
1000
MTEXTEND
  0
POINT
  5
85C7
330
85B5
100
AcDbEntity
  8
DEFPOINTS
 62
     0
100
AcDbPoint
 10
1474.342323903158
 20
7787.437268273027
 30
0.0
  0
POINT
  5
85C8
330
85B5
100
AcDbEntity
  8
DEFPOINTS
 62
     0
100
AcDbPoint
 10
2070.169444624878
 20
6507.437268273022
 30
0.0
  0
POINT
  5
85C9
330
85B5
100
AcDbEntity
  8
DEFPOINTS
 62
     0
100
AcDbPoint
 10
840.1988669904531
 20
6507.437268273024
 30
0.0
  0
ENDBLK
  5
85B7
330
85B5
100
AcDbEntity
  8
0
100
AcDbBlockEnd
  0
BLOCK
  5
85CC
330
85CB
100
AcDbEntity
  8
0
100
AcDbBlockBegin
  2
*D36
 70
     1
 10
0.0
 20
0.0
 30
0.0
  3
*D36
  1

  0
LINE
  5
85CE
330
85CB
100
AcDbEntity
  8
3
 62
     0
370
    -2
100
AcDbLine
 10
1680.169444624878
 20
2817.929658934044
 30
0.0
 11
1245.934760259599
 21
2817.929658934044
 31
0.0
  0
LINE
  5
85CF
330
85CB
100
AcDbEntity
  8
3
 62
     0
370
    -2
100
AcDbLine
 10
1526.732906376026
 20
3927.929658934044
 30
0.0
 11
1245.934760259599
 21
3927.929658934044
 31
0.0
  0
LINE
  5
85D0
330
85CB
100
AcDbEntity
  8
3
 62
     0
370
    -2
100
AcDbLine
 10
1285.934760259599
 20
2897.929658934044
 30
0.0
 11
1285.934760259599
 21
3847.929658934044
 31
0.0
  0
INSERT
  5
85D1
330
85CB
100
AcDbEntity
  8
3
 62
     0
370
    -2
100
AcDbBlockReference
  2
_OPEN
 10
1285.934760259599
 20
2817.929658934044
 30
0.0
 41
80.0
 42
80.0
 43
80.0
 50
270.0
  0
INSERT
  5
85D2
330
85CB
100
AcDbEntity
  8
3
 62
     0
370
    -2
100
AcDbBlockReference
  2
_OPEN
 10
1285.934760259599
 20
3927.929658934044
 30
0.0
 41
80.0
 42
80.0
 43
80.0
 50
90.0
  0
MTEXT
  5
85D3
330
85CB
100
AcDbEntity
  8
3
 62
     0
100
AcDbMText
 10
1185.934760259598
 20
3372.929658934045
 30
0.0
 40
120.0
 41
0.0
 71
     5
 72
     1
  1
\A1;1110
 11
0.0000000000000001
 21
1.0
 31
0.0
 73
     1
 44
1.0
1001
ACAD
1000
MTEXTBEGIN
1070
    73
1070
     1
1070
    44
1040
1.0
1070
    74
1070
     0
1000
MTEXTEND
  0
POINT
  5
85D4
330
85CB
100
AcDbEntity
  8
DEFPOINTS
 62
     0
100
AcDbPoint
 10
1700.169444624878
 20
2817.929658934044
 30
0.0
  0
POINT
  5
85D5
330
85CB
100
AcDbEntity
  8
DEFPOINTS
 62
     0
100
AcDbPoint
 10
1546.732906376026
 20
3927.929658934044
 30
0.0
  0
POINT
  5
85D6
330
85CB
100
AcDbEntity
  8
DEFPOINTS
 62
     0
100
AcDbPoint
 10
1285.934760259599
 20
3927.929658934044
 30
0.0
  0
ENDBLK
  5
85CD
330
85CB
100
AcDbEntity
  8
0
100
AcDbBlockEnd
  0
BLOCK
  5
85D9
330
85D8
100
AcDbEntity
  8
0
100
AcDbBlockBegin
  2
*D37
 70
     1
 10
0.0
 20
0.0
 30
0.0
  3
*D37
  1

  0
LINE
  5
85DB
330
85D8
100
AcDbEntity
  8
3
 62
     0
370
    -2
100
AcDbLine
 10
1526.732906376026
 20
3927.929658934044
 30
0.0
 11
1245.934760259599
 21
3927.929658934044
 31
0.0
  0
LINE
  5
85DC
330
85D8
100
AcDbEntity
  8
3
 62
     0
370
    -2
100
AcDbLine
 10
2431.169444624878
 20
4752.929658934045
 30
0.0
 11
1245.934760259599
 21
4752.929658934045
 31
0.0
  0
LINE
  5
85DD
330
85D8
100
AcDbEntity
  8
3
 62
     0
370
    -2
100
AcDbLine
 10
1285.934760259599
 20
4007.929658934044
 30
0.0
 11
1285.934760259599
 21
4672.929658934045
 31
0.0
  0
INSERT
  5
85DE
330
85D8
100
AcDbEntity
  8
3
 62
     0
370
    -2
100
AcDbBlockReference
  2
_OPEN
 10
1285.934760259599
 20
3927.929658934044
 30
0.0
 41
80.0
 42
80.0
 43
80.0
 50
270.0
  0
INSERT
  5
85DF
330
85D8
100
AcDbEntity
  8
3
 62
     0
370
    -2
100
AcDbBlockReference
  2
_OPEN
 10
1285.934760259599
 20
4752.929658934045
 30
0.0
 41
80.0
 42
80.0
 43
80.0
 50
90.0
  0
MTEXT
  5
85E0
330
85D8
100
AcDbEntity
  8
3
 62
     0
100
AcDbMText
 10
1185.934760259598
 20
4340.429658934044
 30
0.0
 40
120.0
 41
0.0
 71
     5
 72
     1
  1
\A1;825
 11
0.0000000000000001
 21
1.0
 31
0.0
 73
     1
 44
1.0
1001
ACAD
1000
MTEXTBEGIN
1070
    73
1070
     1
1070
    44
1040
1.0
1070
    74
1070
     0
1000
MTEXTEND
  0
POINT
  5
85E1
330
85D8
100
AcDbEntity
  8
DEFPOINTS
 62
     0
100
AcDbPoint
 10
1546.732906376026
 20
3927.929658934044
 30
0.0
  0
POINT
  5
85E2
330
85D8
100
AcDbEntity
  8
DEFPOINTS
 62
     0
100
AcDbPoint
 10
2451.169444624878
 20
4752.929658934045
 30
0.0
  0
POINT
  5
85E3
330
85D8
100
AcDbEntity
  8
DEFPOINTS
 62
     0
100
AcDbPoint
 10
1285.934760259599
 20
4752.929658934045
 30
0.0
  0
ENDBLK
  5
85DA
330
85D8
100
AcDbEntity
  8
0
100
AcDbBlockEnd
  0
BLOCK
  5
85E6
330
85E5
100
AcDbEntity
  8
0
100
AcDbBlockBegin
  2
*D38
 70
     1
 10
0.0
 20
0.0
 30
0.0
  3
*D38
  1

  0
LINE
  5
85E8
330
85E5
100
AcDbEntity
  8
3
 62
     0
370
    -2
100
AcDbLine
 10
1680.169444624878
 20
2817.929658934044
 30
0.0
 11
995.0709536129934
 21
2817.929658934045
 31
0.0
  0
LINE
  5
85E9
330
85E5
100
AcDbEntity
  8
3
 62
     0
370
    -2
100
AcDbLine
 10
2431.169444624878
 20
4752.929658934045
 30
0.0
 11
995.0709536129938
 21
4752.929658934045
 31
0.0
  0
LINE
  5
85EA
330
85E5
100
AcDbEntity
  8
3
 62
     0
370
    -2
100
AcDbLine
 10
1035.070953612993
 20
2897.929658934044
 30
0.0
 11
1035.070953612994
 21
4672.929658934045
 31
0.0
  0
INSERT
  5
85EB
330
85E5
100
AcDbEntity
  8
3
 62
     0
370
    -2
100
AcDbBlockReference
  2
_OPEN
 10
1035.070953612993
 20
2817.929658934044
 30
0.0
 41
80.0
 42
80.0
 43
80.0
 50
270.0
  0
INSERT
  5
85EC
330
85E5
100
AcDbEntity
  8
3
 62
     0
370
    -2
100
AcDbBlockReference
  2
_OPEN
 10
1035.070953612994
 20
4752.929658934045
 30
0.0
 41
80.0
 42
80.0
 43
80.0
 50
90.0
  0
MTEXT
  5
85ED
330
85E5
100
AcDbEntity
  8
3
 62
     0
100
AcDbMText
 10
935.0709536129929
 20
3785.429658934045
 30
0.0
 40
120.0
 41
0.0
 71
     5
 72
     1
  1
\A1;1935
 11
0.0000000000000001
 21
1.0
 31
0.0
 73
     1
 44
1.0
1001
ACAD
1000
MTEXTBEGIN
1070
    73
1070
     1
1070
    44
1040
1.0
1070
    74
1070
     0
1000
MTEXTEND
  0
POINT
  5
85EE
330
85E5
100
AcDbEntity
  8
DEFPOINTS
 62
     0
100
AcDbPoint
 10
1700.169444624878
 20
2817.929658934044
 30
0.0
  0
POINT
  5
85EF
330
85E5
100
AcDbEntity
  8
DEFPOINTS
 62
     0
100
AcDbPoint
 10
2451.169444624878
 20
4752.929658934045
 30
0.0
  0
POINT
  5
85F0
330
85E5
100
AcDbEntity
  8
DEFPOINTS
 62
     0
100
AcDbPoint
 10
1035.070953612994
 20
4752.929658934045
 30
0.0
  0
ENDBLK
  5
85E7
330
85E5
100
AcDbEntity
  8
0
100
AcDbBlockEnd
  0
BLOCK
  5
85F3
330
85F2
100
AcDbEntity
  8
0
100
AcDbBlockBegin
  2
*D39
 70
     1
 10
0.0
 20
0.0
 30
0.0
  3
*D39
  1

  0
LINE
  5
85F5
330
85F2
100
AcDbEntity
  8
3
 62
     0
370
    -2
100
AcDbLine
 10
2504.169444624878
 20
4772.929658934045
 30
0.0
 11
2504.169444624878
 21
5045.940691624003
 31
0.0
  0
LINE
  5
85F6
330
85F2
100
AcDbEntity
  8
3
 62
     0
370
    -2
100
AcDbLine
 10
3784.169444624879
 20
4772.929658934045
 30
0.0
 11
3784.169444624879
 21
5045.940691624003
 31
0.0
  0
LINE
  5
85F7
330
85F2
100
AcDbEntity
  8
3
 62
     0
370
    -2
100
AcDbLine
 10
2584.169444624878
 20
5005.940691624002
 30
0.0
 11
3704.16944462488
 21
5005.940691624002
 31
0.0
  0
INSERT
  5
85F8
330
85F2
100
AcDbEntity
  8
3
 62
     0
370
    -2
100
AcDbBlockReference
  2
_OPEN
 10
2504.169444624878
 20
5005.940691624002
 30
0.0
 41
80.0
 42
80.0
 43
80.0
 50
180.0
  0
INSERT
  5
85F9
330
85F2
100
AcDbEntity
  8
3
 62
     0
370
    -2
100
AcDbBlockReference
  2
_OPEN
 10
3784.169444624879
 20
5005.940691624002
 30
0.0
 41
80.0
 42
80.0
 43
80.0
  0
MTEXT
  5
85FA
330
85F2
100
AcDbEntity
  8
3
 62
     0
100
AcDbMText
 10
3144.169444624879
 20
5105.940691624002
 30
0.0
 40
120.0
 41
0.0
 71
     5
 72
     1
  1
\A1;1280
 73
     1
 44
1.0
1001
ACAD
1000
MTEXTBEGIN
1070
    73
1070
     1
1070
    44
1040
1.0
1070
    74
1070
     0
1000
MTEXTEND
  0
POINT
  5
85FB
330
85F2
100
AcDbEntity
  8
DEFPOINTS
 62
     0
100
AcDbPoint
 10
2504.169444624878
 20
4752.929658934045
 30
0.0
  0
POINT
  5
85FC
330
85F2
100
AcDbEntity
  8
DEFPOINTS
 62
     0
100
AcDbPoint
 10
3784.169444624879
 20
4752.929658934045
 30
0.0
  0
POINT
  5
85FD
330
85F2
100
AcDbEntity
  8
DEFPOINTS
 62
     0
100
AcDbPoint
 10
3784.169444624879
 20
5005.940691624002
 30
0.0
  0
ENDBLK
  5
85F4
330
85F2
100
AcDbEntity
  8
0
100
AcDbBlockEnd
  0
BLOCK
  5
8600
330
85FF
100
AcDbEntity
  8
0
100
AcDbBlockBegin
  2
*D40
 70
     1
 10
0.0
 20
0.0
 30
0.0
  3
*D40
  1

  0
LINE
  5
8625
330
85FF
100
AcDbEntity
  8
3
 62
     0
370
    -2
100
AcDbLine
 10
3784.169444624879
 20
4772.929658934045
 30
0.0
 11
3784.169444624879
 21
5292.836867413865
 31
0.0
  0
LINE
  5
8626
330
85FF
100
AcDbEntity
  8
3
 62
     0
370
    -2
100
AcDbLine
 10
2450.169444624878
 20
4813.547459956273
 30
0.0
 11
2450.169444624878
 21
5292.836867413865
 31
0.0
  0
LINE
  5
8627
330
85FF
100
AcDbEntity
  8
3
 62
     0
370
    -2
100
AcDbLine
 10
3704.16944462488
 20
5252.836867413865
 30
0.0
 11
2530.169444624878
 21
5252.836867413865
 31
0.0
  0
INSERT
  5
8628
330
85FF
100
AcDbEntity
  8
3
 62
     0
370
    -2
100
AcDbBlockReference
  2
_OPEN
 10
3784.169444624879
 20
5252.836867413865
 30
0.0
 41
80.0
 42
80.0
 43
80.0
  0
INSERT
  5
8629
330
85FF
100
AcDbEntity
  8
3
 62
     0
370
    -2
100
AcDbBlockReference
  2
_OPEN
 10
2450.169444624878
 20
5252.836867413865
 30
0.0
 41
80.0
 42
80.0
 43
80.0
 50
180.0
  0
MTEXT
  5
862A
330
85FF
100
AcDbEntity
  8
3
 62
     0
100
AcDbMText
 10
3117.169444624879
 20
5352.836867413865
 30
0.0
 40
120.0
 41
0.0
 71
     5
 72
     1
  1
\A1;1334
 73
     1
 44
1.0
1001
ACAD
1000
MTEXTBEGIN
1070
    73
1070
     1
1070
    44
1040
1.0
1070
    74
1070
     0
1000
MTEXTEND
  0
POINT
  5
862B
330
85FF
100
AcDbEntity
  8
DEFPOINTS
 62
     0
100
AcDbPoint
 10
3784.169444624879
 20
4752.929658934045
 30
0.0
  0
POINT
  5
862C
330
85FF
100
AcDbEntity
  8
DEFPOINTS
 62
     0
100
AcDbPoint
 10
2450.169444624878
 20
4793.547459956273
 30
0.0
  0
POINT
  5
862D
330
85FF
100
AcDbEntity
  8
DEFPOINTS
 62
     0
100
AcDbPoint
 10
2450.169444624878
 20
5252.836867413865
 30
0.0
  0
ENDBLK
  5
8601
330
85FF
100
AcDbEntity
  8
0
100
AcDbBlockEnd
  0
BLOCK
  5
860D
330
860C
100
AcDbEntity
  8
0
100
AcDbBlockBegin
  2
*D41
 70
     1
 10
0.0
 20
0.0
 30
0.0
  3
*D41
  1

  0
LINE
  5
862E
330
860C
100
AcDbEntity
  8
3
 62
     0
370
    -2
100
AcDbLine
 10
2450.169444624878
 20
4813.547459956273
 30
0.0
 11
2450.169444624878
 21
5292.836867413865
 31
0.0
  0
LINE
  5
862F
330
860C
100
AcDbEntity
  8
3
 62
     0
370
    -2
100
AcDbLine
 10
1553.169444624878
 20
3856.929658934045
 30
0.0
 11
1553.169444624878
 21
5292.836867413865
 31
0.0
  0
LINE
  5
8630
330
860C
100
AcDbEntity
  8
3
 62
     0
370
    -2
100
AcDbLine
 10
2370.169444624878
 20
5252.836867413865
 30
0.0
 11
1633.169444624878
 21
5252.836867413865
 31
0.0
  0
INSERT
  5
8631
330
860C
100
AcDbEntity
  8
3
 62
     0
370
    -2
100
AcDbBlockReference
  2
_OPEN
 10
2450.169444624878
 20
5252.836867413865
 30
0.0
 41
80.0
 42
80.0
 43
80.0
  0
INSERT
  5
8632
330
860C
100
AcDbEntity
  8
3
 62
     0
370
    -2
100
AcDbBlockReference
  2
_OPEN
 10
1553.169444624878
 20
5252.836867413865
 30
0.0
 41
80.0
 42
80.0
 43
80.0
 50
180.0
  0
MTEXT
  5
8633
330
860C
100
AcDbEntity
  8
3
 62
     0
100
AcDbMText
 10
2001.669444624878
 20
5352.836867413865
 30
0.0
 40
120.0
 41
0.0
 71
     5
 72
     1
  1
\A1;897
 73
     1
 44
1.0
1001
ACAD
1000
MTEXTBEGIN
1070
    73
1070
     1
1070
    44
1040
1.0
1070
    74
1070
     0
1000
MTEXTEND
  0
POINT
  5
8634
330
860C
100
AcDbEntity
  8
DEFPOINTS
 62
     0
100
AcDbPoint
 10
2450.169444624878
 20
4793.547459956273
 30
0.0
  0
POINT
  5
8635
330
860C
100
AcDbEntity
  8
DEFPOINTS
 62
     0
100
AcDbPoint
 10
1553.169444624878
 20
3836.929658934045
 30
0.0
  0
POINT
  5
8636
330
860C
100
AcDbEntity
  8
DEFPOINTS
 62
     0
100
AcDbPoint
 10
1553.169444624878
 20
5252.836867413865
 30
0.0
  0
ENDBLK
  5
860E
330
860C
100
AcDbEntity
  8
0
100
AcDbBlockEnd
  0
BLOCK
  5
861A
330
8619
100
AcDbEntity
  8
0
100
AcDbBlockBegin
  2
*D42
 70
     1
 10
0.0
 20
0.0
 30
0.0
  3
*D42
  1

  0
LINE
  5
861C
330
8619
100
AcDbEntity
  8
3
 62
     0
370
    -2
100
AcDbLine
 10
1553.169444624878
 20
3856.929658934045
 30
0.0
 11
1553.169444624878
 21
5534.836675797562
 31
0.0
  0
LINE
  5
861D
330
8619
100
AcDbEntity
  8
3
 62
     0
370
    -2
100
AcDbLine
 10
4150.169444624879
 20
2962.929658934044
 30
0.0
 11
4150.169444624879
 21
5534.836675797562
 31
0.0
  0
LINE
  5
861E
330
8619
100
AcDbEntity
  8
3
 62
     0
370
    -2
100
AcDbLine
 10
1633.169444624878
 20
5494.836675797562
 30
0.0
 11
4070.169444624879
 21
5494.836675797562
 31
0.0
  0
INSERT
  5
861F
330
8619
100
AcDbEntity
  8
3
 62
     0
370
    -2
100
AcDbBlockReference
  2
_OPEN
 10
1553.169444624878
 20
5494.836675797562
 30
0.0
 41
80.0
 42
80.0
 43
80.0
 50
180.0
  0
INSERT
  5
8620
330
8619
100
AcDbEntity
  8
3
 62
     0
370
    -2
100
AcDbBlockReference
  2
_OPEN
 10
4150.169444624879
 20
5494.836675797562
 30
0.0
 41
80.0
 42
80.0
 43
80.0
  0
MTEXT
  5
8621
330
8619
100
AcDbEntity
  8
3
 62
     0
100
AcDbMText
 10
2851.669444624878
 20
5594.836675797562
 30
0.0
 40
120.0
 41
0.0
 71
     5
 72
     1
  1
\A1;2597
 73
     1
 44
1.0
1001
ACAD
1000
MTEXTBEGIN
1070
    73
1070
     1
1070
    44
1040
1.0
1070
    74
1070
     0
1000
MTEXTEND
  0
POINT
  5
8622
330
8619
100
AcDbEntity
  8
DEFPOINTS
 62
     0
100
AcDbPoint
 10
1553.169444624878
 20
3836.929658934045
 30
0.0
  0
POINT
  5
8623
330
8619
100
AcDbEntity
  8
DEFPOINTS
 62
     0
100
AcDbPoint
 10
4150.169444624879
 20
2942.929658934044
 30
0.0
  0
POINT
  5
8624
330
8619
100
AcDbEntity
  8
DEFPOINTS
 62
     0
100
AcDbPoint
 10
4150.169444624879
 20
5494.836675797562
 30
0.0
  0
ENDBLK
  5
861B
330
8619
100
AcDbEntity
  8
0
100
AcDbBlockEnd
  0
ENDSEC
  0
SECTION
  2
ENTITIES
  0
INSERT
  5
7C21
330
8444
100
AcDbEntity
  8
1
100
AcDbBlockReference
  2
YA_N
 10
6.0
 20
5.0
 30
0.0
  0
LINE
  5
7C22
330
8444
100
AcDbEntity
  8
2
100
AcDbLine
 10
2450.169444624878
 20
4793.547459956273
 30
0.0
 11
2450.169444624878
 21
2817.929658934044
 31
0.0
  0
LINE
  5
7C23
330
8444
100
AcDbEntity
  8
1
100
AcDbLine
 10
4876.039116178847
 20
2817.929658934044
 30
0.0
 11
6996.039116178846
 21
2817.929658934044
 31
0.0
1001
ACAD
1000
ASC_BOUNDS
1002
{
1070
    19
1005
0
1005
0
1002
}
  0
LINE
  5
7C24
330
8444
100
AcDbEntity
  8
1
100
AcDbLine
 10
4876.039116178847
 20
2942.929658934044
 30
0.0
 11
6996.039116178848
 21
2942.929658934044
 31
0.0
  0
LINE
  5
7C25
330
8444
100
AcDbEntity
  8
1
100
AcDbLine
 10
6928.039116178847
 20
4752.929658934045
 30
0.0
 11
6928.039116178847
 21
3927.929658934044
 31
0.0
  0
LINE
  5
7C26
330
8444
100
AcDbEntity
  8
1
100
AcDbLine
 10
5228.039116178845
 20
4752.929658934045
 30
0.0
 11
5228.039116178845
 21
3927.929658934044
 31
0.0
  0
LINE
  5
7C27
330
8444
100
AcDbEntity
  8
2
100
AcDbLine
 10
1546.732906376026
 20
3927.929658934044
 30
0.0
 11
3873.047819172239
 21
3927.929658934044
 31
0.0
  0
LINE
  5
7C28
330
8444
100
AcDbEntity
  8
2
100
AcDbLine
 10
4862.739116178847
 20
3927.929658934044
 30
0.0
 11
7111.549602418083
 21
3927.929658934044
 31
0.0
  0
LINE
  5
7C29
330
8444
100
AcDbEntity
  8
2
100
AcDbLine
 10
4806.53638958247
 20
3202.929658934044
 30
0.0
 11
5846.503247508856
 21
3202.929658934044
 31
0.0
  0
LINE
  5
7C2A
330
8444
100
AcDbEntity
  8
1
100
AcDbLine
 10
4883.039116178848
 20
3308.929658934044
 30
0.0
 11
4960.939116178846
 21
3308.929658934044
 31
0.0
  0
LINE
  5
7C2B
330
8444
100
AcDbEntity
  8
1
100
AcDbLine
 10
4883.039116178848
 20
3096.929658934044
 30
0.0
 11
4960.939116178847
 21
3096.929658934044
 31
0.0
  0
LINE
  5
7C2C
330
8444
100
AcDbEntity
  8
1
100
AcDbLine
 10
4981.039116178846
 20
3997.929658934045
 30
0.0
 11
4981.039116178846
 21
3857.929658934045
 31
0.0
  0
LINE
  5
7C2D
330
8444
100
AcDbEntity
  8
1
100
AcDbLine
 10
4960.939116178847
 20
4181.929658934044
 30
0.0
 11
4960.939116178847
 21
3997.929658934045
 31
0.0
  0
LINE
  5
7C2E
330
8444
100
AcDbEntity
  8
1
100
AcDbLine
 10
4960.939116178847
 20
3997.929658934045
 30
0.0
 11
4981.039116178846
 21
3997.929658934045
 31
0.0
  0
LINE
  5
7C2F
330
8444
100
AcDbEntity
  8
1
100
AcDbLine
 10
4960.939116178846
 20
3857.929658934045
 30
0.0
 11
4981.039116178846
 21
3857.929658934045
 31
0.0
  0
LINE
  5
7C30
330
8444
100
AcDbEntity
  8
1
100
AcDbLine
 10
4960.939116178847
 20
3857.929658934045
 30
0.0
 11
4960.939116178847
 21
3262.929658934044
 31
0.0
  0
LINE
  5
7C31
330
8444
100
AcDbEntity
  8
1
100
AcDbLine
 10
4883.039116178848
 20
4181.929658934044
 30
0.0
 11
4883.039116178848
 21
3096.929658934044
 31
0.0
  0
LINE
  5
7C32
330
8444
100
AcDbEntity
  8
1
100
AcDbLine
 10
4976.039116178847
 20
3262.929658934044
 30
0.0
 11
4976.039116178847
 21
3142.929658934044
 31
0.0
  0
LINE
  5
7C33
330
8444
100
AcDbEntity
  8
1
100
AcDbLine
 10
4960.939116178847
 20
3262.929658934044
 30
0.0
 11
4976.039116178847
 21
3262.929658934044
 31
0.0
  0
LINE
  5
7C34
330
8444
100
AcDbEntity
  8
1
100
AcDbLine
 10
4960.939116178847
 20
3142.929658934044
 30
0.0
 11
4976.039116178847
 21
3142.929658934044
 31
0.0
  0
LINE
  5
7C35
330
8444
100
AcDbEntity
  8
1
100
AcDbLine
 10
4960.939116178847
 20
3142.929658934044
 30
0.0
 11
4960.939116178847
 21
3096.929658934044
 31
0.0
  0
LINE
  5
7C36
330
8444
100
AcDbEntity
  8
1
100
AcDbLine
 10
4798.039116178847
 20
2982.929658934045
 30
0.0
 11
5043.039116178849
 21
2982.929658934045
 31
0.0
  0
LINE
  5
7C37
330
8444
100
AcDbEntity
  8
1
100
AcDbLine
 10
4798.039116178847
 20
4307.929658934045
 30
0.0
 11
4798.039116178847
 21
2982.929658934045
 31
0.0
  0
LINE
  5
7C38
330
8444
100
AcDbEntity
  8
1
100
AcDbLine
 10
5043.039116178846
 20
4307.929658934045
 30
0.0
 11
5043.039116178849
 21
4287.929658934045
 31
0.0
  0
LINE
  5
7C39
330
8444
100
AcDbEntity
  8
2
100
AcDbLine
 10
2450.169444624878
 20
8805.121610998787
 30
0.0
 11
2450.169444624878
 21
6424.943933730482
 31
0.0
  0
LINE
  5
7C3A
330
8444
100
AcDbEntity
  8
2
100
AcDbLine
 10
3870.169444624878
 20
7460.254487396347
 30
0.0
 11
3870.169444624878
 21
6411.824955162199
 31
0.0
  0
LINE
  5
7C3B
330
8444
100
AcDbEntity
  8
2
100
AcDbLine
 10
6078.039116178846
 20
4963.074884636641
 30
0.0
 11
6078.039116178845
 21
2817.929658934044
 31
0.0
  0
INSERT
  5
7C3C
330
8444
100
AcDbEntity
  8
1
100
AcDbBlockReference
  2
YA_N
 10
-1757.227407310314
 20
-1218.78641745778
 30
0.0
 41
30.0
 42
30.0
 43
30.0
  0
INSERT
  5
7C3D
330
8444
100
AcDbEntity
  8
1
100
AcDbBlockReference
  2
YA_N
 10
-755.2436758818473
 20
-538.554984833856
 30
0.0
 41
30.0
 42
30.0
 43
30.0
  0
LINE
  5
7C41
330
8444
100
AcDbEntity
  8
1
100
AcDbLine
 10
6928.039116178847
 20
3928.929658934045
 30
0.0
 11
6928.039116178847
 21
2942.929658934044
 31
0.0
  0
LINE
  5
7C42
330
8444
100
AcDbEntity
  8
1
100
AcDbLine
 10
5228.039116178845
 20
3928.929658934045
 30
0.0
 11
5228.039116178845
 21
3412.929658934046
 31
0.0
  0
LINE
  5
7C43
330
8444
100
AcDbEntity
  8
1
100
AcDbLine
 10
1700.169444624878
 20
8705.437268273023
 30
0.0
 11
3200.169444624878
 21
8705.437268273023
 31
0.0
  0
LINE
  5
7C44
330
8444
100
AcDbEntity
  8
1
100
AcDbLine
 10
1700.169444624878
 20
6585.437268273023
 30
0.0
 11
4150.169444624879
 21
6585.437268273023
 31
0.0
  0
LINE
  5
7C45
330
8444
100
AcDbEntity
  8
1
100
AcDbLine
 10
1700.169444624878
 20
8705.437268273023
 30
0.0
 11
1700.169444624878
 21
8637.437268273025
 31
0.0
  0
LINE
  5
7C46
330
8444
100
AcDbEntity
  8
1
100
AcDbLine
 10
4150.169444624879
 20
7585.437268273023
 30
0.0
 11
4150.169444624879
 21
6585.437268273023
 31
0.0
  0
LINE
  5
7C47
330
8444
100
AcDbEntity
  8
1
100
AcDbLine
 10
3200.169444624878
 20
8705.437268273023
 30
0.0
 11
3200.169444624878
 21
8637.437268273025
 31
0.0
  0
LINE
  5
7C48
330
8444
100
AcDbEntity
  8
1
100
AcDbLine
 10
3784.169444624879
 20
7585.437268273023
 30
0.0
 11
4150.169444624879
 21
7585.437268273023
 31
0.0
  0
LINE
  5
7C4A
330
8444
100
AcDbEntity
  8
1
100
AcDbLine
 10
5070.539116178847
 20
3851.929658934045
 30
0.0
 11
5070.539116178847
 21
3721.929658934044
 31
0.0
  0
LINE
  5
7C4B
330
8444
100
AcDbEntity
  8
1
100
AcDbLine
 10
5210.539116178846
 20
3861.929658934045
 30
0.0
 11
5210.539116178846
 21
3711.929658934045
 31
0.0
  0
LINE
  5
7C4C
330
8444
100
AcDbEntity
  8
1
100
AcDbLine
 10
5080.539116178846
 20
3861.929658934045
 30
0.0
 11
5150.739116178848
 21
3861.929658934045
 31
0.0
  0
LINE
  5
7C4D
330
8444
100
AcDbEntity
  8
1
100
AcDbLine
 10
5080.539116178846
 20
3711.929658934045
 30
0.0
 11
5150.739116178848
 21
3711.929658934045
 31
0.0
  0
ARC
  5
7C4E
330
8444
100
AcDbEntity
  8
1
100
AcDbCircle
 10
5080.539116178846
 20
3851.929658934045
 30
0.0
 40
10.0
100
AcDbArc
 50
90.0
 51
180.0
  0
ARC
  5
7C4F
330
8444
100
AcDbEntity
  8
1
100
AcDbCircle
 10
5080.539116178846
 20
3721.929658934044
 30
0.0
 40
10.0
100
AcDbArc
 50
180.0
 51
270.0
  0
LINE
  5
7C50
330
8444
100
AcDbEntity
  8
1
100
AcDbLine
 10
5150.739116178847
 20
3711.929658934045
 30
0.0
 11
5210.539116178846
 21
3711.929658934045
 31
0.0
  0
LINE
  5
7C51
330
8444
100
AcDbEntity
  8
1
100
AcDbLine
 10
5150.739116178847
 20
3861.929658934045
 30
0.0
 11
5210.539116178846
 21
3861.929658934045
 31
0.0
  0
LINE
  5
7C52
330
8444
100
AcDbEntity
  8
1
100
AcDbLine
 10
7098.039116178846
 20
3851.929658934045
 30
0.0
 11
7098.039116178846
 21
3721.929658934044
 31
0.0
  0
LINE
  5
7C53
330
8444
100
AcDbEntity
  8
1
100
AcDbLine
 10
6945.539116178847
 20
3861.929658934045
 30
0.0
 11
6945.539116178847
 21
3711.929658934045
 31
0.0
  0
LINE
  5
7C54
330
8444
100
AcDbEntity
  8
1
100
AcDbLine
 10
7088.039116178847
 20
3711.929658934045
 30
0.0
 11
7005.339116178845
 21
3711.929658934045
 31
0.0
  0
ARC
  5
7C55
330
8444
100
AcDbEntity
  8
1
100
AcDbCircle
 10
7088.039116178847
 20
3721.929658934044
 30
0.0
 40
10.0
100
AcDbArc
 50
270.0
 51
0.0
  0
LINE
  5
7C56
330
8444
100
AcDbEntity
  8
1
100
AcDbLine
 10
7005.339116178845
 20
3711.929658934045
 30
0.0
 11
6945.539116178847
 21
3711.929658934045
 31
0.0
  0
LINE
  5
7C57
330
8444
100
AcDbEntity
  8
1
100
AcDbLine
 10
7088.039116178847
 20
3861.929658934045
 30
0.0
 11
7005.339116178845
 21
3861.929658934045
 31
0.0
  0
ARC
  5
7C58
330
8444
100
AcDbEntity
  8
1
100
AcDbCircle
 10
7088.039116178847
 20
3851.929658934045
 30
0.0
 40
10.0
100
AcDbArc
 50
0.0
 51
90.0
  0
LINE
  5
7C59
330
8444
100
AcDbEntity
  8
1
100
AcDbLine
 10
7005.339116178845
 20
3861.929658934045
 30
0.0
 11
6945.539116178847
 21
3861.929658934045
 31
0.0
  0
LINE
  5
7C5E
330
8444
100
AcDbEntity
  8
1
100
AcDbLine
 10
4883.039116178848
 20
4181.929658934044
 30
0.0
 11
4960.939116178846
 21
4181.929658934044
 31
0.0
  0
LINE
  5
7C5F
330
8444
100
AcDbEntity
  8
1
100
AcDbLine
 10
4883.039116178848
 20
3673.929658934044
 30
0.0
 11
4960.939116178846
 21
3673.929658934044
 31
0.0
  0
LINE
  5
7C60
330
8444
100
AcDbEntity
  8
1
100
AcDbLine
 10
4798.039116178847
 20
4307.929658934045
 30
0.0
 11
5043.039116178846
 21
4307.929658934045
 31
0.0
  0
LINE
  5
7C61
330
8444
100
AcDbEntity
  8
1
100
AcDbLine
 10
5043.039116178849
 20
3002.929658934045
 30
0.0
 11
5043.039116178849
 21
2982.929658934045
 31
0.0
  0
INSERT
  5
7C62
330
8444
100
AcDbEntity
  8
1
100
AcDbBlockReference
  2
YA_N
 10
4767.943419715615
 20
-1494.695868425496
 30
0.0
  0
LINE
  5
7C63
330
8444
100
AcDbEntity
  8
1
100
AcDbLine
 10
6996.039116178846
 20
2942.929658934044
 30
0.0
 11
6996.039116178846
 21
2817.929658934044
 31
0.0
  0
LINE
  5
7C65
330
8444
100
AcDbEntity
  8
1
100
AcDbLine
 10
4876.039116178847
 20
2942.929658934044
 30
0.0
 11
4876.039116178847
 21
2817.929658934044
 31
0.0
  0
LINE
  5
7C69
330
8444
100
AcDbEntity
  8
1
100
AcDbLine
 10
4981.039116178846
 20
3965.429658934045
 30
0.0
 11
5228.039116178845
 21
3965.429658934045
 31
0.0
  0
LINE
  5
7C6A
330
8444
100
AcDbEntity
  8
1
100
AcDbLine
 10
4981.039116178846
 20
3890.429658934044
 30
0.0
 11
5228.039116178845
 21
3890.429658934044
 31
0.0
  0
LINE
  5
7C6B
330
8444
100
AcDbEntity
  8
1
100
AcDbLine
 10
5071.989116178848
 20
3002.929658934045
 30
0.0
 11
5071.989116178848
 21
3202.929658934045
 31
0.0
  0
LINE
  5
7C6C
330
8444
100
AcDbEntity
  8
1
100
AcDbLine
 10
5071.989116178849
 20
3002.929658934045
 30
0.0
 11
5721.489116178847
 21
3002.929658934048
 31
0.0
  0
LINE
  5
7C6D
330
8444
100
AcDbEntity
  8
1
100
AcDbLine
 10
5721.489116178847
 20
3412.929658934049
 30
0.0
 11
5071.989116178848
 21
3412.929658934045
 31
0.0
  0
LINE
  5
7C6E
330
8444
100
AcDbEntity
  8
1
100
AcDbLine
 10
5061.989116178847
 20
3172.929658934045
 30
0.0
 11
4976.039116178847
 21
3172.929658934044
 31
0.0
  0
LINE
  5
7C6F
330
8444
100
AcDbEntity
  8
1
100
AcDbLine
 10
5061.989116178847
 20
3232.929658934045
 30
0.0
 11
4976.039116178847
 21
3232.929658934045
 31
0.0
  0
LINE
  5
7C70
330
8444
100
AcDbEntity
  8
1
100
AcDbLine
 10
5071.989116178848
 20
3412.929658934045
 30
0.0
 11
5071.989116178848
 21
3202.929658934045
 31
0.0
  0
LINE
  5
7C71
330
8444
100
AcDbEntity
  8
1
100
AcDbLine
 10
5061.989116178847
 20
3170.429658934045
 30
0.0
 11
5061.989116178847
 21
3235.429658934044
 31
0.0
  0
LINE
  5
7C72
330
8444
100
AcDbEntity
  8
1
100
AcDbLine
 10
5061.989116178847
 20
3170.429658934045
 30
0.0
 11
5071.989116178848
 21
3170.429658934045
 31
0.0
  0
LINE
  5
7C73
330
8444
100
AcDbEntity
  8
1
100
AcDbLine
 10
5061.989116178847
 20
3235.429658934044
 30
0.0
 11
5071.989116178848
 21
3235.429658934044
 31
0.0
  0
LINE
  5
7C74
330
8444
100
AcDbEntity
  8
2
100
AcDbLine
 10
1474.342323903158
 20
7787.437268273027
 30
0.0
 11
3943.598483867205
 21
7787.437268273023
 31
0.0
  0
LINE
  5
7C75
330
8444
100
AcDbEntity
  8
1
100
AcDbLine
 10
2070.169444624878
 20
6507.437268273024
 30
0.0
 11
4090.169444624878
 21
6507.437268273024
 31
0.0
  0
LINE
  5
7C76
330
8444
100
AcDbEntity
  8
1
100
AcDbLine
 10
2196.169444624878
 20
6592.437268273027
 30
0.0
 11
2704.169444624878
 21
6592.437268273027
 31
0.0
  0
LINE
  5
7C77
330
8444
100
AcDbEntity
  8
1
100
AcDbLine
 10
2520.169444624878
 20
6670.337268273025
 30
0.0
 11
2704.169444624878
 21
6670.337268273025
 31
0.0
  0
LINE
  5
7C78
330
8444
100
AcDbEntity
  8
1
100
AcDbLine
 10
3900.169444624879
 20
6771.387268273024
 30
0.0
 11
3900.169444624879
 21
6685.437268273024
 31
0.0
  0
LINE
  5
7C79
330
8444
100
AcDbEntity
  8
1
100
AcDbLine
 10
3840.169444624878
 20
6771.387268273024
 30
0.0
 11
3840.169444624878
 21
6685.437268273024
 31
0.0
  0
LINE
  5
7C7A
330
8444
100
AcDbEntity
  8
1
100
AcDbLine
 10
4090.169444624878
 20
6507.437268273024
 30
0.0
 11
4090.169444624878
 21
6752.437268273023
 31
0.0
  0
LINE
  5
7C7B
330
8444
100
AcDbEntity
  8
1
100
AcDbLine
 10
3250.169444624878
 20
6585.437268273024
 30
0.0
 11
3375.169444624878
 21
6585.437268273024
 31
0.0
  0
LINE
  5
7C7C
330
8444
100
AcDbEntity
  8
1
100
AcDbLine
 10
3394.169444624878
 20
6585.437268273023
 30
0.0
 11
3459.169444624878
 21
6585.437268273024
 31
0.0
  0
LINE
  5
7C7D
330
8444
100
AcDbEntity
  8
1
100
AcDbLine
 10
3810.169444624878
 20
6685.437268273024
 30
0.0
 11
3930.169444624878
 21
6685.437268273024
 31
0.0
  0
LINE
  5
7C7E
330
8444
100
AcDbEntity
  8
1
100
AcDbLine
 10
3930.169444624878
 20
6670.337268273025
 30
0.0
 11
3976.169444624878
 21
6670.337268273025
 31
0.0
  0
LINE
  5
7C7F
330
8444
100
AcDbEntity
  8
1
100
AcDbLine
 10
3976.169444624878
 20
6592.437268273027
 30
0.0
 11
3976.169444624878
 21
6670.337268273025
 31
0.0
  0
LINE
  5
7C80
330
8444
100
AcDbEntity
  8
1
100
AcDbLine
 10
3930.169444624878
 20
6670.337268273025
 30
0.0
 11
3930.169444624878
 21
6685.437268273024
 31
0.0
  0
LINE
  5
7C81
330
8444
100
AcDbEntity
  8
1
100
AcDbLine
 10
3764.169444624878
 20
6592.437268273027
 30
0.0
 11
3764.169444624878
 21
6670.337268273022
 31
0.0
  0
LINE
  5
7C82
330
8444
100
AcDbEntity
  8
1
100
AcDbLine
 10
3810.169444624878
 20
6670.337268273025
 30
0.0
 11
3810.169444624878
 21
6685.437268273024
 31
0.0
  0
LINE
  5
7C83
330
8444
100
AcDbEntity
  8
1
100
AcDbLine
 10
2704.169444624878
 20
6592.437268273027
 30
0.0
 11
2704.169444624878
 21
6670.337268273022
 31
0.0
  0
LINE
  5
7C84
330
8444
100
AcDbEntity
  8
1
100
AcDbLine
 10
3660.169444624878
 20
6781.387268273025
 30
0.0
 11
3870.169444624878
 21
6781.387268273025
 31
0.0
  0
LINE
  5
7C85
330
8444
100
AcDbEntity
  8
1
100
AcDbLine
 10
3902.669444624878
 20
6771.387268273024
 30
0.0
 11
3837.669444624879
 21
6771.387268273024
 31
0.0
  0
LINE
  5
7C86
330
8444
100
AcDbEntity
  8
1
100
AcDbLine
 10
4070.169444624879
 20
6781.387268273026
 30
0.0
 11
4070.169444624871
 21
7430.887268273027
 31
0.0
  0
LINE
  5
7C87
330
8444
100
AcDbEntity
  8
1
100
AcDbLine
 10
4070.169444624879
 20
6781.387268273025
 30
0.0
 11
3870.169444624878
 21
6781.387268273025
 31
0.0
  0
LINE
  5
7C88
330
8444
100
AcDbEntity
  8
1
100
AcDbLine
 10
3902.669444624878
 20
6771.387268273024
 30
0.0
 11
3902.669444624878
 21
6781.387268273025
 31
0.0
  0
LINE
  5
7C89
330
8444
100
AcDbEntity
  8
1
100
AcDbLine
 10
4070.169444624876
 20
6956.887268273026
 30
0.0
 11
4069.169444624876
 21
6956.887268273026
 31
0.0
  0
LINE
  5
7C8A
330
8444
100
AcDbEntity
  8
1
100
AcDbLine
 10
3660.169444624877
 20
6937.437268273022
 30
0.0
 11
3660.169444624878
 21
6781.387268273023
 31
0.0
  0
LINE
  5
7C8B
330
8444
100
AcDbEntity
  8
1
100
AcDbLine
 10
3837.669444624879
 20
6771.387268273024
 30
0.0
 11
3837.669444624879
 21
6781.387268273025
 31
0.0
  0
LINE
  5
7C8C
330
8444
100
AcDbEntity
  8
1
100
AcDbLine
 10
2487.669444624878
 20
6690.437268273024
 30
0.0
 11
2487.669444624878
 21
6937.437268273022
 31
0.0
  0
LINE
  5
7C8D
330
8444
100
AcDbEntity
  8
1
100
AcDbLine
 10
2412.669444624878
 20
6690.437268273024
 30
0.0
 11
2412.669444624878
 21
6937.437268273024
 31
0.0
  0
LINE
  5
7C8E
330
8444
100
AcDbEntity
  8
1
100
AcDbLine
 10
2070.169444624878
 20
6507.437268273022
 30
0.0
 11
2070.169444624878
 21
6752.437268273023
 31
0.0
  0
LINE
  5
7C8F
330
8444
100
AcDbEntity
  8
1
100
AcDbLine
 10
2380.169444624878
 20
6690.437268273024
 30
0.0
 11
2520.169444624878
 21
6690.437268273024
 31
0.0
  0
LINE
  5
7C90
330
8444
100
AcDbEntity
  8
1
100
AcDbLine
 10
2520.169444624878
 20
6670.337268273022
 30
0.0
 11
2520.169444624878
 21
6690.437268273024
 31
0.0
  0
LINE
  5
7C91
330
8444
100
AcDbEntity
  8
1
100
AcDbLine
 10
2196.169444624878
 20
6670.337268273025
 30
0.0
 11
2380.169444624878
 21
6670.337268273025
 31
0.0
  0
LINE
  5
7C92
330
8444
100
AcDbEntity
  8
1
100
AcDbLine
 10
2380.169444624878
 20
6670.337268273025
 30
0.0
 11
2380.169444624878
 21
6690.437268273024
 31
0.0
  0
LINE
  5
7C93
330
8444
100
AcDbEntity
  8
1
100
AcDbLine
 10
2196.169444624878
 20
6592.437268273027
 30
0.0
 11
2196.169444624878
 21
6670.337268273022
 31
0.0
  0
LINE
  5
7C94
330
8444
100
AcDbEntity
  8
1
100
AcDbLine
 10
2070.169444624878
 20
6752.437268273023
 30
0.0
 11
4090.169444624878
 21
6752.437268273117
 31
0.0
  0
LINE
  5
7C95
330
8444
100
AcDbEntity
  8
1
100
AcDbLine
 10
4070.169444624876
 20
7430.887268273027
 30
0.0
 11
3784.169444624879
 21
7430.887268273024
 31
0.0
  0
LINE
  5
7C96
330
8444
100
AcDbEntity
  8
1
100
AcDbLine
 10
1553.169444624878
 20
8637.437268273025
 30
0.0
 11
3784.169444624879
 21
8637.437268273025
 31
0.0
  0
LINE
  5
7C97
330
8444
100
AcDbEntity
  8
1
100
AcDbLine
 10
1553.169444624878
 20
6937.437268273022
 30
0.0
 11
3784.169444624879
 21
6937.437268273024
 31
0.0
  0
LINE
  5
7C98
330
8444
100
AcDbEntity
  8
1
100
AcDbLine
 10
1700.169444624878
 20
6937.437268273022
 30
0.0
 11
1700.169444624878
 21
6585.437268273023
 31
0.0
  0
LINE
  5
7C99
330
8444
100
AcDbEntity
  8
1
100
AcDbLine
 10
3764.169444624878
 20
6670.337268273025
 30
0.0
 11
3810.169444624878
 21
6670.337268273025
 31
0.0
  0
LINE
  5
7C9A
330
8444
100
AcDbEntity
  8
1
100
AcDbLine
 10
3764.169444624878
 20
6592.437268273027
 30
0.0
 11
3976.169444624878
 21
6592.437268273027
 31
0.0
  0
INSERT
  5
7CA0
330
8444
100
AcDbEntity
  8
1
100
AcDbBlockReference
  2
YA_N
 10
10738.86349375248
 20
1135.274830878665
 30
0.0
  0
ARC
  5
7CA2
330
8444
100
AcDbEntity
  8
1
100
AcDbCircle
 10
2541.169444624878
 20
4018.929658934045
 30
0.0
 40
1170.0
100
AcDbArc
 50
293.1238475675229
 51
355.539156302126
  0
ARC
  5
7CA3
330
8444
100
AcDbEntity
  8
1
100
AcDbCircle
 10
2541.169444624878
 20
3836.929658934045
 30
0.0
 40
988.0
100
AcDbArc
 50
174.7152670454654
 51
244.8042051557864
  0
ARC
  5
7CA4
330
8444
100
AcDbEntity
  8
1
100
AcDbCircle
 10
2373.169444624878
 20
3850.929658934045
 30
0.0
 40
820.0
100
AcDbArc
 50
87.24248524420788
 51
174.6118481956725
  0
LINE
  5
7CA5
330
8444
100
AcDbEntity
  8
1
100
AcDbLine
 10
3707.625187462986
 20
3927.929658934044
 30
0.0
 11
3784.169444624879
 21
4752.929658934045
 31
0.0
  0
LINE
  5
7CA6
330
8444
100
AcDbEntity
  8
1
100
AcDbLine
 10
1700.169444624878
 20
2817.929658934044
 30
0.0
 11
4150.169444624879
 21
2817.929658934044
 31
0.0
1001
ACAD
1000
ASC_BOUNDS
1002
{
1070
    19
1002
}
  0
LINE
  5
7CA7
330
8444
100
AcDbEntity
  8
1
100
AcDbLine
 10
1700.169444624878
 20
2942.929658934044
 30
0.0
 11
4150.169444624879
 21
2942.929658934044
 31
0.0
  0
LINE
  5
7CA8
330
8444
100
AcDbEntity
  8
1
100
AcDbLine
 10
1700.169444624878
 20
2942.929658934044
 30
0.0
 11
1700.169444624878
 21
2817.929658934044
 31
0.0
  0
LINE
  5
7CA9
330
8444
100
AcDbEntity
  8
1
100
AcDbLine
 10
4150.169444624879
 20
2942.929658934044
 30
0.0
 11
4150.169444624879
 21
2817.929658934044
 31
0.0
  0
LINE
  5
7CAA
330
8444
100
AcDbEntity
  8
2
100
AcDbLine
 10
3870.169444624878
 20
3493.784175539754
 30
0.0
 11
3870.169444624878
 21
2817.929658934044
 31
0.0
  0
LINE
  5
7CAB
330
8444
100
AcDbEntity
  8
2
100
AcDbLine
 10
3589.855227866727
 20
3202.929658934044
 30
0.0
 11
4277.333922919592
 21
3202.929658934044
 31
0.0
  0
LINE
  5
7CAC
330
8444
100
AcDbEntity
  8
1
100
AcDbLine
 10
2504.169444624878
 20
4752.929658934045
 30
0.0
 11
2504.169444624877
 21
4668.964745822647
 31
0.0
  0
LINE
  5
7CAD
330
8444
100
AcDbEntity
  8
1
100
AcDbLine
 10
3779.530398736279
 20
4702.929658934045
 30
0.0
 11
2504.169444624878
 21
4702.929658934045
 31
0.0
  0
LINE
  5
7CAE
330
8444
100
AcDbEntity
  8
1
100
AcDbLine
 10
3837.169444624878
 20
4752.929658934045
 30
0.0
 11
2451.169444624878
 21
4752.929658934045
 31
0.0
  0
POINT
  5
7CAF
330
8444
100
AcDbEntity
  8
1
100
AcDbPoint
 10
3524.969729235531
 20
3927.929658934044
 30
0.0
  0
INSERT
  5
7CB0
330
8444
100
AcDbEntity
  8
1
100
AcDbBlockReference
  2
YA_N
 10
8975.636086442174
 20
-88.51158657911581
 30
0.0
 41
30.0
 42
30.0
 43
30.0
  0
ARC
  5
7CB6
330
8444
100
AcDbEntity
  8
1
100
AcDbCircle
 10
3870.169444624878
 20
3202.929658934044
 30
0.0
 40
203.5
100
AcDbArc
 50
285.60376
 51
254.396301
  0
LINE
  5
7CB7
330
8444
100
AcDbEntity
  8
1
100
AcDbLine
 10
3924.90748162488
 20
3006.929658934045
 30
0.0
 11
3815.431407624877
 21
3006.929658934045
 31
0.0
  0
ARC
  5
7CB8
330
8444
100
AcDbEntity
  8
1
100
AcDbCircle
 10
3684.169444624878
 20
3019.929658934044
 30
0.0
 40
3.0
100
AcDbArc
 50
90.0
 51
180.0
  0
ARC
  5
7CB9
330
8444
100
AcDbEntity
  8
1
100
AcDbCircle
 10
3686.169444624879
 20
3077.256319934045
 30
0.0
 40
5.000066999999999
100
AcDbArc
 50
124.943665
 51
180.0
  0
LINE
  5
7CBA
330
8444
100
AcDbEntity
  8
1
100
AcDbLine
 10
3681.169444624878
 20
3077.256319934045
 30
0.0
 11
3681.169444624878
 21
3002.929658934045
 31
0.0
  0
LINE
  5
7CBE
330
8444
100
AcDbEntity
  8
1
100
AcDbLine
 10
3766.066874624877
 20
3028.072847934045
 30
0.0
 11
3760.66944462488
 21
3007.929658934044
 31
0.0
  0
LINE
  5
7CBF
330
8444
100
AcDbEntity
  8
1
100
AcDbLine
 10
3760.66944462488
 20
3019.929658934044
 30
0.0
 11
3760.66944462488
 21
3002.929658934045
 31
0.0
  0
LINE
  5
7CC0
330
8444
100
AcDbEntity
  8
1
100
AcDbLine
 10
3757.669444624879
 20
3022.929658934045
 30
0.0
 11
3684.169444624878
 21
3022.929658934045
 31
0.0
  0
ARC
  5
7CC1
330
8444
100
AcDbEntity
  8
1
100
AcDbCircle
 10
3757.669444624879
 20
3019.929658934044
 30
0.0
 40
3.0
100
AcDbArc
 50
0.0
 51
90.0
  0
LINE
  5
7CC2
330
8444
100
AcDbEntity
  8
1
100
AcDbLine
 10
3683.305674624879
 20
3081.354951934045
 30
0.0
 11
3699.24354062488
 21
3092.491426934044
 31
0.0
  0
LINE
  5
7CC3
330
8444
100
AcDbEntity
  8
1
100
AcDbLine
 10
4059.169444624878
 20
3077.256319934045
 30
0.0
 11
4059.169444624878
 21
3002.929658934045
 31
0.0
  0
LINE
  5
7CC7
330
8444
100
AcDbEntity
  8
1
100
AcDbLine
 10
3974.272227624879
 20
3028.072969934044
 30
0.0
 11
3979.669444624878
 21
3007.929658934044
 31
0.0
  0
LINE
  5
7CC8
330
8444
100
AcDbEntity
  8
1
100
AcDbLine
 10
3979.669444624878
 20
3019.929658934044
 30
0.0
 11
3979.669444624878
 21
3002.929658934045
 31
0.0
  0
LINE
  5
7CC9
330
8444
100
AcDbEntity
  8
1
100
AcDbLine
 10
3982.669444624878
 20
3022.929658934045
 30
0.0
 11
4056.169444624877
 21
3022.929658934045
 31
0.0
  0
ARC
  5
7CCA
330
8444
100
AcDbEntity
  8
1
100
AcDbCircle
 10
3982.669444624878
 20
3019.929658934044
 30
0.0
 40
3.0
100
AcDbArc
 50
90.0
 51
180.0
  0
ARC
  5
7CCB
330
8444
100
AcDbEntity
  8
1
100
AcDbCircle
 10
4056.169444624877
 20
3019.929658934044
 30
0.0
 40
3.0
100
AcDbArc
 50
0.0
 51
90.0
  0
LINE
  5
7CCC
330
8444
100
AcDbEntity
  8
1
100
AcDbLine
 10
4057.033335624876
 20
3081.354951934045
 30
0.0
 11
4041.095469624877
 21
3092.491426934044
 31
0.0
  0
ARC
  5
7CCD
330
8444
100
AcDbEntity
  8
1
100
AcDbCircle
 10
4054.169444624878
 20
3077.256319934045
 30
0.0
 40
5.0
100
AcDbArc
 50
0.0
 51
55.05633899999998
  0
LINE
  5
7CCE
330
8444
100
AcDbEntity
  8
1
100
AcDbLine
 10
3626.74641958227
 20
3002.929658934045
 30
0.0
 11
3800.169444624879
 21
3002.929658934045
 31
0.0
  0
LINE
  5
7CCF
330
8444
100
AcDbEntity
  8
1
100
AcDbLine
 10
3610.169444624878
 20
2942.929658934044
 30
0.0
 11
3626.74641958227
 21
3002.929658934045
 31
0.0
  0
LINE
  5
7CD0
330
8444
100
AcDbEntity
  8
1
100
AcDbLine
 10
4130.169444624879
 20
2942.929658934044
 30
0.0
 11
4113.98848807976
 21
3002.929658934045
 31
0.0
  0
LINE
  5
7CD1
330
8444
100
AcDbEntity
  8
1
100
AcDbLine
 10
3800.169444624879
 20
2992.929658934045
 30
0.0
 11
3940.169444624878
 21
2992.929658934045
 31
0.0
  0
LINE
  5
7CD3
330
8444
100
AcDbEntity
  8
1
100
AcDbLine
 10
3940.169444624878
 20
3002.929658934045
 30
0.0
 11
3940.169444624878
 21
2992.929658934045
 31
0.0
  0
LINE
  5
7CD4
330
8444
100
AcDbEntity
  8
1
100
AcDbLine
 10
3800.169444624879
 20
3002.929658934045
 30
0.0
 11
3800.169444624879
 21
2992.929658934045
 31
0.0
  0
LINE
  5
7CD7
330
8444
100
AcDbEntity
  8
1
100
AcDbLine
 10
3940.169444624878
 20
3002.929658934045
 30
0.0
 11
4113.98848807976
 21
3002.929658934045
 31
0.0
  0
INSERT
  5
7CDA
330
8444
100
AcDbEntity
  8
1
100
AcDbBlockReference
  2
YA_N
 10
9977.619817870641
 20
591.719846044809
 30
0.0
 41
30.0
 42
30.0
 43
30.0
  0
CIRCLE
  5
7CE0
330
8444
100
AcDbEntity
  8
1
100
AcDbCircle
 10
3870.169444624878
 20
3202.929658934044
 30
0.0
 40
107.0
  0
POINT
  5
7CE2
330
8444
100
AcDbEntity
  8
1
100
AcDbPoint
 10
1700.169444624878
 20
2817.929658934044
 30
0.0
  0
ARC
  5
7CE5
330
8444
100
AcDbEntity
  8
1
100
AcDbCircle
 10
2450.169444624878
 20
3927.929658934044
 30
0.0
 40
625.0
100
AcDbArc
 50
0.0
 51
180.0
  0
ARC
  5
7CE6
330
8444
100
AcDbEntity
  8
1
100
AcDbCircle
 10
2450.169444624878
 20
3927.929658934044
 30
0.0
 40
675.0
100
AcDbArc
 50
0.0
 51
180.0
  0
ARC
  5
7CE7
330
8444
100
AcDbEntity
  8
1
100
AcDbCircle
 10
2450.169444624878
 20
3927.929658934044
 30
0.0
 40
625.0
100
AcDbArc
 50
180.0
 51
0.0
  0
ARC
  5
7CE8
330
8444
100
AcDbEntity
  8
1
100
AcDbCircle
 10
2450.169444624878
 20
3927.929658934044
 30
0.0
 40
675.0
100
AcDbArc
 50
180.0
 51
0.0
  0
CIRCLE
  5
7CEB
330
8444
100
AcDbEntity
  8
1
100
AcDbCircle
 10
2450.169444624878
 20
3927.929658934044
 30
0.0
 40
254.0
  0
POINT
  5
7CEF
330
8444
100
AcDbEntity
  8
1
100
AcDbPoint
 10
1700.169444624878
 20
2817.929658934044
 30
0.0
  0
ARC
  5
7CF0
330
8444
100
AcDbEntity
  8
1
100
AcDbCircle
 10
2450.169444624878
 20
3927.929658934044
 30
0.0
 40
743.0
100
AcDbArc
 50
85.83216367783837
 51
92.89690804102592
  0
INSERT
  5
7CF1
330
8444
100
AcDbEntity
  8
1
100
AcDbBlockReference
  2
YA_N
 10
15500.8069134681
 20
-364.421037546832
 30
0.0
  0
ARC
  5
7CF3
330
8444
100
AcDbEntity
  8
1
100
AcDbCircle
 10
2450.169444624878
 20
3927.929658934044
 30
0.0
 40
380.0
100
AcDbArc
 50
57.19331344564078
 51
248.7123021170166
  0
ARC
  5
7CF4
330
8444
100
AcDbEntity
  8
1
100
AcDbCircle
 10
3870.169444624878
 20
3202.929658934044
 30
0.0
 40
220.0
100
AcDbArc
 50
248.7123021170166
 51
57.19331344564078
  0
LINE
  5
7CF5
330
8444
100
AcDbEntity
  8
1
100
AcDbLine
 10
2656.055839660199
 20
4247.320943003225
 30
0.0
 11
3989.366831224275
 21
3387.840402342517
 31
0.0
  0
LINE
  5
7CF6
330
8444
100
AcDbEntity
  8
1
100
AcDbLine
 10
2586.034807912739
 20
4142.53768082199
 30
0.0
 11
3927.404066167403
 21
3293.335400438023
 31
0.0
  0
LINE
  5
7CF7
330
8444
100
AcDbEntity
  8
1
100
AcDbLine
 10
2356.018824504375
 20
3692.023616766989
 30
0.0
 11
3830.507569219784
 21
3103.551916761309
 31
0.0
  0
LINE
  5
7CF8
330
8444
100
AcDbEntity
  8
1
100
AcDbLine
 10
2312.209997593609
 20
3573.857362679698
 30
0.0
 11
3790.298185817301
 21
2997.940434786791
 31
0.0
  0
POINT
  5
7CFE
330
8444
100
AcDbEntity
  8
1
100
AcDbPoint
 10
1700.169444624878
 20
2817.929658934044
 30
0.0
  0
LINE
  5
7D01
330
8444
100
AcDbEntity
  8
1
100
AcDbLine
 10
5175.039116178846
 20
4752.929658934045
 30
0.0
 11
6981.039116178847
 21
4752.929658934045
 31
0.0
  0
LINE
  5
7D02
330
8444
100
AcDbEntity
  8
1
100
AcDbLine
 10
5228.039116178845
 20
4702.929658934045
 30
0.0
 11
6928.039116178847
 21
4702.929658934045
 31
0.0
  0
LINE
  5
7D03
330
8444
100
AcDbEntity
  8
1
100
AcDbLine
 10
1553.169444624878
 20
8637.437268273025
 30
0.0
 11
1553.169444624878
 21
6937.437268273021
 31
0.0
  0
LINE
  5
7D04
330
8444
100
AcDbEntity
  8
1
100
AcDbLine
 10
3784.169444624879
 20
8637.437268273025
 30
0.0
 11
3784.169444624879
 21
6937.437268273022
 31
0.0
  0
LINE
  5
7D05
330
8444
100
AcDbEntity
  8
1
100
AcDbLine
 10
2504.169444624878
 20
8637.437268273025
 30
0.0
 11
2504.169444624878
 21
6937.437268273022
 31
0.0
  0
LINE
  5
7D06
330
8444
100
AcDbEntity
  8
1
100
AcDbLine
 10
2504.169444624878
 20
8637.437268273025
 30
0.0
 11
3784.169444624879
 21
6937.437268273024
 31
0.0
  0
LINE
  5
7D07
330
8444
100
AcDbEntity
  8
1
100
AcDbLine
 10
3784.169444624878
 20
8637.437268273025
 30
0.0
 11
2504.169444624878
 21
6937.437268273022
 31
0.0
  0
LINE
  5
7D0A
330
8444
100
AcDbEntity
  8
1
100
AcDbLine
 10
5721.489116178847
 20
3002.929658934048
 30
0.0
 11
5721.489116178847
 21
3412.929658934049
 31
0.0
  0
LINE
  5
7D0B
330
8444
100
AcDbEntity
  8
1
100
AcDbLine
 10
5228.039116178845
 20
3002.929658934046
 30
0.0
 11
5228.039116178845
 21
2942.929658934044
 31
0.0
  0
LINE
  5
7D0C
330
8444
100
AcDbEntity
  8
1
100
AcDbLine
 10
5636.18896220007
 20
3002.929658934048
 30
0.0
 11
5636.18896220007
 21
2942.929658934044
 31
0.0
  0
LINE
  5
80A3
330
8444
100
AcDbEntity
  8
4
100
AcDbLine
 10
7400.0
 20
2000.0
 30
0.0
 11
7400.0
 21
1200.0
 31
0.0
  0
LINE
  5
80A4
330
8444
100
AcDbEntity
  8
4
100
AcDbLine
 10
4600.0
 20
2000.0
 30
0.0
 11
4600.0
 21
1200.0
 31
0.0
  0
LINE
  5
80A5
330
8444
100
AcDbEntity
  8
4
100
AcDbLine
 10
2600.0
 20
2000.0
 30
0.0
 11
2600.0
 21
1200.0
 31
0.0
  0
LINE
  5
80A8
330
8444
100
AcDbEntity
  8
4
100
AcDbLine
 10
2600.0
 20
1200.0
 30
0.0
 11
7400.0
 21
1200.0
 31
0.0
  0
LINE
  5
80A9
330
8444
100
AcDbEntity
  8
4
100
AcDbLine
 10
2600.0
 20
1600.0
 30
0.0
 11
7400.0
 21
1600.0
 31
0.0
  0
TEXT
  5
80AA
330
8444
100
AcDbEntity
  8
4
100
AcDbText
 10
2754.008323387607
 20
1726.172103466451
 30
0.0
 40
200.0
  1
機器名称
100
AcDbText
  0
TEXT
  5
80AB
330
8444
100
AcDbEntity
  8
4
100
AcDbText
 10
2745.03242409919
 20
1286.580626928043
 30
0.0
 40
200.0
  1
機器型番
100
AcDbText
  0
TEXT
  5
80AC
330
8444
100
AcDbEntity
  8
4
100
AcDbText
 10
4710.714981950659
 20
1690.287075830274
 30
0.0
 40
200.0
  1
ミツヤ多翼送風機
100
AcDbText
  0
TEXT
  5
80AD
330
8444
100
AcDbEntity
  8
4
100
AcDbText
 10
4746.617982341923
 20
1268.638337119773
 30
0.0
 40
200.0
  1
MF#8-5
100
AcDbText
  0
TEXT
  5
80AF
330
8444
100
AcDbEntity
  8
4
100
AcDbText
 10
3284.299786541094
 20
9533.715365330063
 30
0.0
 40
215.9999999999999
  1
床置ベット
100
AcDbText
  0
TEXT
  5
80B0
330
8444
100
AcDbEntity
  8
4
100
AcDbText
 10
1264.670373317785
 20
10135.52390479719
 30
0.0
 40
288.0
  1
遠心式両吸込両持多翼ファン
100
AcDbText
  0
LINE
  5
80B1
330
8444
100
AcDbEntity
  8
4
100
AcDbLine
 10
1000.0
 20
9877.635017059219
 30
0.0
 11
7400.0
 21
9877.635017059219
 31
0.0
  0
LINE
  5
80B2
330
8444
100
AcDbEntity
  8
4
100
AcDbLine
 10
1000.0
 20
10677.63501705921
 30
0.0
 11
7400.0
 21
10677.63501705921
 31
0.0
  0
LINE
  5
80B3
330
8444
100
AcDbEntity
  8
4
100
AcDbLine
 10
2600.0
 20
2000.0
 30
0.0
 11
7400.0
 21
2000.0
 31
0.0
  0
LINE
  5
80B4
330
8444
100
AcDbEntity
  8
4
100
AcDbLine
 10
1000.0
 20
10677.63501705921
 30
0.0
 11
1000.0
 21
9877.635017059219
 31
0.0
  0
TEXT
  5
80B5
330
8444
100
AcDbEntity
  8
4
100
AcDbText
 10
1540.864457570284
 20
9529.277910185374
 30
0.0
 40
215.9999999999999
  1
左回転上向
100
AcDbText
  0
TEXT
  5
80B6
330
8444
100
AcDbEntity
  8
4
100
AcDbText
 10
5875.878236997159
 20
10824.24432598123
 30
0.0
 40
224.0
  1
No.
100
AcDbText
  0
TEXT
  5
80B7
330
8444
100
AcDbEntity
  8
4
100
AcDbText
 10
5245.184250400053
 20
9533.715365330063
 30
0.0
 40
215.9999999999999
  1
縮尺：1/40
100
AcDbText
  0
LINE
  5
80B8
330
8444
100
AcDbEntity
  8
4
100
AcDbLine
 10
7400.0
 20
10677.63501705921
 30
0.0
 11
7400.0
 21
9877.635017059219
 31
0.0
  0
LINE
  5
80B9
330
8444
100
AcDbEntity
  8
4
100
AcDbLine
 10
8400.0
 20
11800.0
 30
0.0
 11
8400.0
 21
11800.0
 31
0.0
  0
LINE
  5
80BA
330
8444
100
AcDbEntity
  8
4
100
AcDbLine
 10
5762.469689439458
 20
10725.0543325016
 30
0.0
 11
5762.469689439458
 21
11146.609046199
 31
0.0
  0
LINE
  5
80BB
330
8444
100
AcDbEntity
  8
4
100
AcDbLine
 10
5762.469689439458
 20
11146.609046199
 30
0.0
 11
7400.0
 21
11146.609046199
 31
0.0
  0
LINE
  5
80BC
330
8444
100
AcDbEntity
  8
4
100
AcDbLine
 10
7400.0
 20
11146.609046199
 30
0.0
 11
7400.0
 21
10725.0543325016
 31
0.0
  0
LINE
  5
80BD
330
8444
100
AcDbEntity
  8
4
100
AcDbLine
 10
7400.0
 20
10725.0543325016
 30
0.0
 11
5762.469689439458
 21
10725.0543325016
 31
0.0
  0
LINE
  5
80BE
330
8444
100
AcDbEntity
  8
4
100
AcDbLine
 10
0.0
 20
0.0
 30
0.0
 11
0.0
 21
11800.0
 31
0.0
  0
LINE
  5
80BF
330
8444
100
AcDbEntity
  8
4
100
AcDbLine
 10
0.0
 20
11800.0
 30
0.0
 11
8400.0
 21
11800.0
 31
0.0
  0
LINE
  5
80C0
330
8444
100
AcDbEntity
  8
4
100
AcDbLine
 10
8400.0
 20
11800.0
 30
0.0
 11
8400.0
 21
0.0
 31
0.0
  0
LINE
  5
80C1
330
8444
100
AcDbEntity
  8
4
100
AcDbLine
 10
8400.0
 20
0.0
 30
0.0
 11
0.0
 21
0.0
 31
0.0
  0
DIMENSION
  5
8229
330
8444
100
AcDbEntity
  8
3
100
AcDbDimension
  2
*D21
 10
2450.169444624878
 20
2560.93506935138
 30
0.0
 11
2075.169444624878
 21
2660.93506935138
 31
0.0
 71
     5
 42
-1.0
  3
Standard
100
AcDbAlignedDimension
 13
1700.169444624878
 23
2817.929658934044
 33
0.0
 14
2450.169444624878
 24
2817.929658934044
 34
0.0
100
AcDbRotatedDimension
1001
ACAD
1000
DSTYLE
1002
{
1070
   172
1070
     1
1070
    40
1040
40.0
1070
   271
1070
     0
1070
   143
1040
0.039
1002
}
  0
DIMENSION
  5
8236
330
8444
100
AcDbEntity
  8
3
100
AcDbDimension
  2
*D22
 10
4150.169444624879
 20
2560.93506935138
 30
0.0
 11
3300.169444624877
 21
2660.93506935138
 31
0.0
 71
     5
 42
-1.0
  3
Standard
100
AcDbAlignedDimension
 13
2450.169444624878
 23
2817.929658934044
 33
0.0
 14
4150.169444624879
 24
2817.929658934044
 34
0.0
100
AcDbRotatedDimension
1001
ACAD
1000
DSTYLE
1002
{
1070
   172
1070
     1
1070
    40
1040
40.0
1070
   271
1070
     0
1070
   143
1040
0.039
1002
}
  0
DIMENSION
  5
8243
330
8444
100
AcDbEntity
  8
3
100
AcDbDimension
  2
*D23
 10
6078.039116178845
 20
2560.93506935138
 30
0.0
 11
5477.039116178846
 21
2660.93506935138
 31
0.0
 71
     5
 42
-1.0
  3
Standard
100
AcDbAlignedDimension
 13
4876.039116178847
 23
2817.929658934044
 33
0.0
 14
6078.039116178845
 24
2817.929658934044
 34
0.0
100
AcDbRotatedDimension
1001
ACAD
1000
DSTYLE
1002
{
1070
   172
1070
     1
1070
    40
1040
40.0
1070
   271
1070
     0
1070
   143
1040
0.039
1002
}
  0
DIMENSION
  5
825D
330
8444
100
AcDbEntity
  8
3
100
AcDbDimension
  2
*D24
 10
6996.039116178846
 20
2560.93506935138
 30
0.0
 11
6537.039116178845
 21
2660.93506935138
 31
0.0
 71
     5
 42
-1.0
  3
Standard
100
AcDbAlignedDimension
 13
6078.039116178845
 23
2817.929658934044
 33
0.0
 14
6996.039116178846
 24
2817.929658934044
 34
0.0
100
AcDbRotatedDimension
1001
ACAD
1000
DSTYLE
1002
{
1070
   172
1070
     1
1070
    40
1040
40.0
1070
   271
1070
     0
1070
   143
1040
0.039
1002
}
  0
DIMENSION
  5
826A
330
8444
100
AcDbEntity
  8
3
100
AcDbDimension
  2
*D25
 10
1035.070953612994
 20
4752.929658934045
 30
0.0
 11
935.0709536129944
 21
3785.429658934045
 31
0.0
 71
     5
 42
-1.0
  3
Standard
100
AcDbAlignedDimension
 13
1700.169444624878
 23
2817.929658934044
 33
0.0
 14
2451.169444624878
 24
4752.929658934045
 34
0.0
 50
90.0
100
AcDbRotatedDimension
1001
ACAD
1000
DSTYLE
1002
{
1070
   172
1070
     1
1070
    40
1040
40.0
1070
   271
1070
     0
1070
   143
1040
0.039
1002
}
  0
DIMENSION
  5
84DE
330
8444
100
AcDbEntity
  8
3
100
AcDbDimension
  2
*D26
 10
6078.039116178846
 20
5288.10922238426
 30
0.0
 11
5438.039116178846
 21
5419.537793812832
 31
0.0
 70
    32
  1
(<>)
 71
     5
 42
1280.0
  3
IGA
100
AcDbAlignedDimension
 13
4798.039116178847
 23
4307.929658934045
 33
0.0
 14
6078.039116178846
 24
5160.007557733631
 34
0.0
100
AcDbRotatedDimension
1001
ACAD
1000
DSTYLE
1002
{
1070
    40
1040
40.0
1070
   143
1040
0.039
1070
   172
1070
     1
1070
   271
1070
     4
1070
   272
1070
     4
1070
   279
1070
     0
1070
   284
1070
     0
1070
   285
1070
     0
1070
   286
1070
     0
1070
   341
1005
845B
1070
   343
1005
845B
1070
   344
1005
845B
1002
}
  0
DIMENSION
  5
84EB
330
8444
100
AcDbEntity
  8
3
100
AcDbDimension
  2
*D27
 10
7098.039116178846
 20
5288.10922238426
 30
0.0
 11
6588.039116178847
 21
5419.537793812832
 31
0.0
 70
    32
  1
(<>)
 71
     5
 42
1020.0
  3
IGA
100
AcDbAlignedDimension
 13
6078.039116178846
 23
5160.007557733631
 33
0.0
 14
7098.039116178846
 24
3851.929658934045
 34
0.0
100
AcDbRotatedDimension
1001
ACAD
1000
DSTYLE
1002
{
1070
    40
1040
40.0
1070
   143
1040
0.039
1070
   172
1070
     1
1070
   271
1070
     4
1070
   272
1070
     4
1070
   279
1070
     1
1070
   284
1070
     0
1070
   285
1070
     0
1070
   286
1070
     0
1070
   341
1005
845B
1070
   343
1005
845B
1070
   344
1005
845B
1002
}
  0
DIMENSION
  5
84FC
330
8444
100
AcDbEntity
  8
3
100
AcDbDimension
  2
*D28
 10
7339.30874109135
 20
3302.929658934044
 30
0.0
 11
7239.308741091349
 21
3927.929658934046
 31
0.0
 70
    32
  1
\U+03C6<>
 71
     5
 42
1250.000000000001
  3
IGA
100
AcDbAlignedDimension
 13
6928.039116178847
 23
4552.929658934044
 33
0.0
 14
6928.039116178847
 24
3302.929658934044
 34
0.0
 50
90.0
100
AcDbRotatedDimension
1001
ACAD
1000
DSTYLE
1002
{
1070
    40
1040
40.0
1070
   143
1040
0.039
1070
   172
1070
     1
1070
   271
1070
     4
1070
   272
1070
     4
1070
   279
1070
     0
1070
   284
1070
     0
1070
   285
1070
     0
1070
   286
1070
     0
1070
   341
1005
845B
1070
   343
1005
845B
1070
   344
1005
845B
1002
}
  0
DIMENSION
  5
8509
330
8444
100
AcDbEntity
  8
3
100
AcDbDimension
  2
*D29
 10
6928.039116178847
 20
5000.007557733631
 30
0.0
 11
6078.039116178846
 21
5100.007557733631
 31
0.0
 70
    32
 71
     5
 42
1700.000000000001
  3
IGA
100
AcDbAlignedDimension
 13
5228.039116178845
 23
4752.929658934045
 33
0.0
 14
6928.039116178847
 24
4752.929658934045
 34
0.0
100
AcDbRotatedDimension
1001
ACAD
1000
DSTYLE
1002
{
1070
    40
1040
40.0
1070
   143
1040
0.039
1070
   172
1070
     1
1070
   271
1070
     4
1070
   272
1070
     4
1070
   279
1070
     0
1070
   284
1070
     0
1070
   285
1070
     0
1070
   286
1070
     0
1070
   341
1005
845B
1070
   343
1005
845B
1070
   344
1005
845B
1002
}
  0
DIMENSION
  5
8573
330
8444
100
AcDbEntity
  8
3
100
AcDbDimension
  2
*D30
 10
1251.153303389044
 20
6585.437268273023
 30
0.0
 11
1151.153303389043
 21
7645.437268273022
 31
0.0
 70
    32
 71
     5
 42
2120.0
  3
IGA
100
AcDbAlignedDimension
 13
1700.169444624878
 23
8705.437268273023
 33
0.0
 14
1700.169444624878
 24
6585.437268273023
 34
0.0
 50
90.0
100
AcDbRotatedDimension
1001
ACAD
1000
DSTYLE
1002
{
1070
    40
1040
40.0
1070
   143
1040
0.039
1070
   172
1070
     1
1070
   271
1070
     4
1070
   272
1070
     4
1070
   279
1070
     0
1070
   284
1070
     0
1070
   285
1070
     0
1070
   286
1070
     0
1070
   341
1005
845B
1070
   343
1005
845B
1070
   344
1005
845B
1002
}
  0
DIMENSION
  5
8580
330
8444
100
AcDbEntity
  8
3
100
AcDbDimension
  2
*D31
 10
4150.169444624879
 20
6220.683390083371
 30
0.0
 11
2925.169444624879
 21
6320.68339008337
 31
0.0
 70
    32
 71
     5
 42
2450.000000000001
  3
IGA
100
AcDbAlignedDimension
 13
1700.169444624878
 23
6585.437268273023
 33
0.0
 14
4150.169444624879
 24
6585.437268273023
 34
0.0
100
AcDbRotatedDimension
1001
ACAD
1000
DSTYLE
1002
{
1070
    40
1040
40.0
1070
   143
1040
0.039
1070
   172
1070
     1
1070
   271
1070
     4
1070
   272
1070
     4
1070
   279
1070
     0
1070
   284
1070
     0
1070
   285
1070
     0
1070
   286
1070
     0
1070
   341
1005
845B
1070
   343
1005
845B
1070
   344
1005
845B
1002
}
  0
DIMENSION
  5
858D
330
8444
100
AcDbEntity
  8
3
100
AcDbDimension
  2
*D32
 10
4416.495845732457
 20
7585.437268273023
 30
0.0
 11
4316.495845732456
 21
7085.437268273024
 31
0.0
 70
    32
 71
     5
 42
1000.0
  3
IGA
100
AcDbAlignedDimension
 13
4150.169444624879
 23
6585.437268273023
 33
0.0
 14
4150.169444624879
 24
7585.437268273023
 34
0.0
 50
90.0
100
AcDbRotatedDimension
1001
ACAD
1000
DSTYLE
1002
{
1070
    40
1040
40.0
1070
   143
1040
0.039
1070
   172
1070
     1
1070
   271
1070
     4
1070
   272
1070
     4
1070
   279
1070
     0
1070
   284
1070
     0
1070
   285
1070
     0
1070
   286
1070
     0
1070
   341
1005
845B
1070
   343
1005
845B
1070
   344
1005
845B
1002
}
  0
DIMENSION
  5
859A
330
8444
100
AcDbEntity
  8
3
100
AcDbDimension
  2
*D33
 10
3200.169444624878
 20
8910.073406778208
 30
0.0
 11
2450.169444624878
 21
9010.073406778209
 31
0.0
 70
    32
 71
     5
 42
1500.0
  3
IGA
100
AcDbAlignedDimension
 13
1700.169444624878
 23
8705.437268273023
 33
0.0
 14
3200.169444624878
 24
8705.437268273023
 34
0.0
100
AcDbRotatedDimension
1001
ACAD
1000
DSTYLE
1002
{
1070
    40
1040
40.0
1070
   143
1040
0.039
1070
   172
1070
     1
1070
   271
1070
     4
1070
   272
1070
     4
1070
   279
1070
     0
1070
   284
1070
     0
1070
   285
1070
     0
1070
   286
1070
     0
1070
   341
1005
845B
1070
   343
1005
845B
1070
   344
1005
845B
1002
}
  0
DIMENSION
  5
85A7
330
8444
100
AcDbEntity
  8
3
100
AcDbDimension
  2
*D34
 10
4150.169444624879
 20
8910.073406778208
 30
0.0
 11
3675.169444624879
 21
9010.073406778209
 31
0.0
 70
    32
 71
     5
 42
950.0000000000014
  3
IGA
100
AcDbAlignedDimension
 13
3200.169444624878
 23
8705.437268273023
 33
0.0
 14
4150.169444624879
 24
7585.437268273023
 34
0.0
100
AcDbRotatedDimension
1001
ACAD
1000
DSTYLE
1002
{
1070
    40
1040
40.0
1070
   143
1040
0.039
1070
   172
1070
     1
1070
   271
1070
     4
1070
   272
1070
     4
1070
   279
1070
     1
1070
   284
1070
     0
1070
   285
1070
     0
1070
   286
1070
     0
1070
   341
1005
845B
1070
   343
1005
845B
1070
   344
1005
845B
1002
}
  0
DIMENSION
  5
85CA
330
8444
100
AcDbEntity
  8
3
100
AcDbDimension
  2
*D36
 10
1285.934760259599
 20
3927.929658934044
 30
0.0
 11
1185.934760259598
 21
3372.929658934045
 31
0.0
 70
    32
 71
     5
 42
1110.0
  3
IGA
100
AcDbAlignedDimension
 13
1700.169444624878
 23
2817.929658934044
 33
0.0
 14
1546.732906376026
 24
3927.929658934044
 34
0.0
 50
90.0
100
AcDbRotatedDimension
1001
ACAD
1000
DSTYLE
1002
{
1070
    40
1040
40.0
1070
   143
1040
0.039
1070
   172
1070
     1
1070
   271
1070
     4
1070
   272
1070
     4
1070
   279
1070
     0
1070
   284
1070
     0
1070
   285
1070
     0
1070
   286
1070
     0
1070
   341
1005
845B
1070
   343
1005
845B
1070
   344
1005
845B
1002
}
  0
DIMENSION
  5
85D7
330
8444
100
AcDbEntity
  8
3
100
AcDbDimension
  2
*D37
 10
1285.934760259599
 20
4752.929658934045
 30
0.0
 11
1185.934760259598
 21
4340.429658934044
 31
0.0
 70
    32
 71
     5
 42
825.0000000000008
  3
IGA
100
AcDbAlignedDimension
 13
1546.732906376026
 23
3927.929658934044
 33
0.0
 14
2451.169444624878
 24
4752.929658934045
 34
0.0
 50
90.0
100
AcDbRotatedDimension
1001
ACAD
1000
DSTYLE
1002
{
1070
    40
1040
40.0
1070
   143
1040
0.039
1070
   172
1070
     1
1070
   271
1070
     4
1070
   272
1070
     4
1070
   279
1070
     1
1070
   284
1070
     0
1070
   285
1070
     0
1070
   286
1070
     0
1070
   341
1005
845B
1070
   343
1005
845B
1070
   344
1005
845B
1002
}
  0
DIMENSION
  5
85F1
330
8444
100
AcDbEntity
  8
3
100
AcDbDimension
  2
*D39
 10
3784.169444624879
 20
5005.940691624002
 30
0.0
 11
3144.169444624879
 21
5105.940691624002
 31
0.0
 70
    32
 71
     5
 42
1280.000000000001
  3
IGA
100
AcDbAlignedDimension
 13
2504.169444624878
 23
4752.929658934045
 33
0.0
 14
3784.169444624879
 24
4752.929658934045
 34
0.0
100
AcDbRotatedDimension
1001
ACAD
1000
DSTYLE
1002
{
1070
    40
1040
40.0
1070
   143
1040
0.039
1070
   172
1070
     1
1070
   271
1070
     4
1070
   272
1070
     4
1070
   279
1070
     0
1070
   284
1070
     0
1070
   285
1070
     0
1070
   286
1070
     0
1070
   341
1005
845B
1070
   343
1005
845B
1070
   344
1005
845B
1002
}
  0
DIMENSION
  5
85FE
330
8444
100
AcDbEntity
  8
3
100
AcDbDimension
  2
*D40
 10
2450.169444624878
 20
5252.836867413865
 30
0.0
 11
3117.169444624879
 21
5352.836867413865
 31
0.0
 70
    32
 71
     5
 42
1334.000000000001
  3
IGA
100
AcDbAlignedDimension
 13
3784.169444624879
 23
4752.929658934045
 33
0.0
 14
2450.169444624878
 24
4793.547459956273
 34
0.0
100
AcDbRotatedDimension
1001
ACAD
1000
DSTYLE
1002
{
1070
    40
1040
40.0
1070
   143
1040
0.039
1070
   172
1070
     1
1070
   271
1070
     4
1070
   272
1070
     4
1070
   279
1070
     0
1070
   284
1070
     0
1070
   285
1070
     0
1070
   286
1070
     0
1070
   341
1005
845B
1070
   343
1005
845B
1070
   344
1005
845B
1002
}
  0
DIMENSION
  5
860B
330
8444
100
AcDbEntity
  8
3
100
AcDbDimension
  2
*D41
 10
1553.169444624878
 20
5252.836867413865
 30
0.0
 11
2001.669444624878
 21
5352.836867413865
 31
0.0
 70
    32
 71
     5
 42
897.0
  3
IGA
100
AcDbAlignedDimension
 13
2450.169444624878
 23
4793.547459956273
 33
0.0
 14
1553.169444624878
 24
3836.929658934045
 34
0.0
100
AcDbRotatedDimension
1001
ACAD
1000
DSTYLE
1002
{
1070
    40
1040
40.0
1070
   143
1040
0.039
1070
   172
1070
     1
1070
   271
1070
     4
1070
   272
1070
     4
1070
   279
1070
     1
1070
   284
1070
     0
1070
   285
1070
     0
1070
   286
1070
     0
1070
   341
1005
845B
1070
   343
1005
845B
1070
   344
1005
845B
1002
}
  0
DIMENSION
  5
8618
330
8444
100
AcDbEntity
  8
3
100
AcDbDimension
  2
*D42
 10
4150.169444624879
 20
5494.836675797562
 30
0.0
 11
2851.669444624878
 21
5594.836675797562
 31
0.0
 70
    32
 71
     5
 42
2597.000000000001
  3
IGA
100
AcDbAlignedDimension
 13
1553.169444624878
 23
3836.929658934045
 33
0.0
 14
4150.169444624879
 24
2942.929658934044
 34
0.0
100
AcDbRotatedDimension
1001
ACAD
1000
DSTYLE
1002
{
1070
    40
1040
40.0
1070
   143
1040
0.039
1070
   172
1070
     1
1070
   271
1070
     4
1070
   272
1070
     4
1070
   279
1070
     0
1070
   284
1070
     0
1070
   285
1070
     0
1070
   286
1070
     0
1070
   341
1005
845B
1070
   343
1005
845B
1070
   344
1005
845B
1002
}
  0
ENDSEC
  0
SECTION
  2
OBJECTS
  0
DICTIONARY
  5
83E1
330
0
100
AcDbDictionary
281
     1
  3
ACAD_CIP_PREVIOUS_PRODUCT_INFO
350
8487
  3
ACAD_COLOR
350
8437
  3
ACAD_DETAILVIEWSTYLE
350
843E
  3
ACAD_GROUP
350
83E2
  3
ACAD_LAYOUT
350
8436
  3
ACAD_MATERIAL
350
83E5
  3
ACAD_MLEADERSTYLE
350
843A
  3
ACAD_MLINESTYLE
350
8433
  3
ACAD_PLOTSETTINGS
350
8435
  3
ACAD_PLOTSTYLENAME
350
83E3
  3
ACAD_SCALELIST
350
8417
  3
ACAD_SECTIONVIEWSTYLE
350
843C
  3
ACAD_TABLESTYLE
350
8438
  3
ACAD_VISUALSTYLE
350
83FE
  3
ACDB_RECOMPOSE_DATA
350
8639
  3
AcDbVariableDictionary
350
8492
  3
DWGPROPS
350
863A
  0
DICTIONARY
  5
8488
330
8429
100
AcDbDictionary
280
     1
281
     1
  3
ADSK_XREC_LAYER_RECONCILED
360
8489
  0
DICTIONARY
  5
848A
330
8448
100
AcDbDictionary
280
     1
281
     1
  3
ADSK_XREC_LAYER_RECONCILED
360
848B
  0
DICTIONARY
  5
848C
330
844B
100
AcDbDictionary
280
     1
281
     1
  3
ADSK_XREC_LAYER_RECONCILED
360
848D
  0
DICTIONARY
  5
848E
330
844C
100
AcDbDictionary
280
     1
281
     1
  3
ADSK_XREC_LAYER_RECONCILED
360
848F
  0
DICTIONARY
  5
8490
330
844D
100
AcDbDictionary
280
     1
281
     1
  3
ADSK_XREC_LAYER_RECONCILED
360
8491
  0
DICTIONARY
  5
84F9
330
8444
100
AcDbDictionary
280
     1
281
     1
  3
ACAD_SORTENTS
360
84FA
  0
XRECORD
  5
8487
102
{ACAD_REACTORS
330
83E1
102
}
330
83E1
100
AcDbXrecord
280
     1
300
ACDLT
300
2015
300
INVLTS_F_S
  0
DICTIONARY
  5
8437
102
{ACAD_REACTORS
330
83E1
102
}
330
83E1
100
AcDbDictionary
281
     1
  0
DICTIONARY
  5
843E
102
{ACAD_REACTORS
330
83E1
102
}
330
83E1
100
AcDbDictionary
281
     1
  3
Imperial24
350
843F
  0
DICTIONARY
  5
83E2
102
{ACAD_REACTORS
330
83E1
102
}
330
83E1
100
AcDbDictionary
281
     1
  0
DICTIONARY
  5
8436
102
{ACAD_REACTORS
330
83E1
102
}
330
83E1
100
AcDbDictionary
281
     1
  3
Model
350
8447
  3
レイアウト1
350
8443
  0
DICTIONARY
  5
83E5
102
{ACAD_REACTORS
330
83E1
102
}
330
83E1
100
AcDbDictionary
281
     1
  3
ByBlock
350
83EE
  3
ByLayer
350
83E6
  3
Global
350
83F6
  0
DICTIONARY
  5
843A
102
{ACAD_REACTORS
330
83E1
102
}
330
83E1
100
AcDbDictionary
281
     1
  3
Standard
350
843B
  0
DICTIONARY
  5
8433
102
{ACAD_REACTORS
330
83E1
102
}
330
83E1
100
AcDbDictionary
281
     1
  3
Standard
350
8434
  0
DICTIONARY
  5
8435
102
{ACAD_REACTORS
330
83E1
102
}
330
83E1
100
AcDbDictionary
281
     1
  0
ACDBDICTIONARYWDFLT
  5
83E3
102
{ACAD_REACTORS
330
83E1
102
}
330
83E1
100
AcDbDictionary
281
     1
  3
Normal
350
83E4
100
AcDbDictionaryWithDefault
340
83E4
  0
DICTIONARY
  5
8417
102
{ACAD_REACTORS
330
83E1
102
}
330
83E1
100
AcDbDictionary
281
     1
  3
A0
350
8418
  3
A1
350
8419
  3
A2
350
841A
  3
A3
350
841B
  3
A4
350
841C
  3
A5
350
841D
  3
A6
350
841E
  3
A7
350
841F
  3
A8
350
8420
  3
A9
350
8421
  3
B0
350
8422
  3
B1
350
8423
  3
B2
350
8424
  3
B3
350
8425
  3
B4
350
8426
  3
B5
350
8427
  3
B6
350
8428
  0
DICTIONARY
  5
843C
102
{ACAD_REACTORS
330
83E1
102
}
330
83E1
100
AcDbDictionary
281
     1
  3
Imperial24
350
843D
  0
DICTIONARY
  5
8438
102
{ACAD_REACTORS
330
83E1
102
}
330
83E1
100
AcDbDictionary
281
     1
  3
Standard
350
8439
  0
DICTIONARY
  5
83FE
102
{ACAD_REACTORS
330
83E1
102
}
330
83E1
100
AcDbDictionary
281
     1
  3
2dWireframe
350
8404
  3
Basic
350
8403
  3
Brighten
350
840A
  3
ColorChange
350
840E
  3
Conceptual
350
8407
  3
Dim
350
8409
  3
EdgeColorOff
350
8416
  3
Facepattern
350
840D
  3
Flat
350
83FF
  3
FlatWithEdges
350
8400
  3
Gouraud
350
8401
  3
GouraudWithEdges
350
8402
  3
Hidden
350
8406
  3
JitterOff
350
8414
  3
Linepattern
350
840C
  3
OverhangOff
350
8415
  3
Realistic
350
8408
  3
Shaded
350
8413
  3
Shaded with edges
350
8412
  3
Shades of Gray
350
840F
  3
Sketchy
350
8410
  3
Thicken
350
840B
  3
Wireframe
350
8405
  3
X-Ray
350
8411
  0
XRECORD
  5
8639
102
{ACAD_REACTORS
330
83E1
102
}
330
83E1
100
AcDbXrecord
280
     1
 90
        1
330
8439
  0
DICTIONARY
  5
8492
102
{ACAD_REACTORS
330
83E1
102
}
330
83E1
100
AcDbDictionary
281
     1
  3
CANNOSCALE
350
8497
  3
CMLEADERSTYLE
350
8494
  3
CTABLESTYLE
350
8493
  3
CVIEWDETAILSTYLE
350
8495
  3
CVIEWSECTIONSTYLE
350
8496
  3
DIMASSOC
350
849A
  3
INDEXCTL
350
8499
  3
SORTENTS
350
8498
  3
XCLIPFRAME
350
849B
  0
XRECORD
  5
863A
102
{ACAD_REACTORS
330
83E1
102
}
330
83E1
100
AcDbXrecord
280
     1
  1
DWGPROPS COOKIE
  2

  3

  4

  6

  7

  8
yasukiyo.ogawa
  9

300
=
301
=
302
=
303
=
304
=
305
=
306
=
307
=
308
=
309
=
 40
0.0172956481481482
 41
2451898.497236459
 42
2460280.701102986
  1

 90
        0
  0
XRECORD
  5
8489
102
{ACAD_REACTORS
330
8488
102
}
330
8488
100
AcDbXrecord
280
     1
290
     1
  0
XRECORD
  5
848B
102
{ACAD_REACTORS
330
848A
102
}
330
848A
100
AcDbXrecord
280
     1
290
     1
  0
XRECORD
  5
848D
102
{ACAD_REACTORS
330
848C
102
}
330
848C
100
AcDbXrecord
280
     1
290
     1
  0
XRECORD
  5
848F
102
{ACAD_REACTORS
330
848E
102
}
330
848E
100
AcDbXrecord
280
     1
290
     1
  0
XRECORD
  5
8491
102
{ACAD_REACTORS
330
8490
102
}
330
8490
100
AcDbXrecord
280
     1
290
     1
  0
SORTENTSTABLE
  5
84FA
102
{ACAD_REACTORS
330
84F9
102
}
330
84F9
100
AcDbSortentsTable
330
8444
331
7D0A
  5
7D0C
331
7CE8
  5
7CEF
331
80AB
  5
80AD
331
7C4A
  5
7C4C
331
7C39
  5
7C3B
331
80BC
  5
80BE
331
7CA4
  5
7CA6
331
7CD7
  5
7CDD
331
7C8E
  5
7C90
331
7C7D
  5
7C7F
331
7C6C
  5
7C6E
331
7C28
  5
7C28
331
7D0B
  5
7D0D
331
80AC
  5
80AF
331
7C4B
  5
7C4D
331
7C3A
  5
7C3C
331
7C29
  5
7C2B
331
80BD
  5
80BF
331
7CA5
  5
7CA7
331
7CB6
  5
7CB8
331
7CC7
  5
7CC9
331
7C7E
  5
7C80
331
7C8F
  5
7C91
331
7C6D
  5
7C6F
331
7CC8
  5
7CCA
331
8236
  5
825D
331
7D0C
  5
80A3
331
7C90
  5
7C92
331
80AD
  5
80B0
331
7C4C
  5
7C4E
331
7C3B
  5
7C3D
331
7C2A
  5
7C2C
331
80BE
  5
80C0
331
7CA6
  5
7CA8
331
7CB7
  5
7CB9
331
7C7F
  5
7C81
331
7C6E
  5
7C70
331
7CB8
  5
7CBA
331
7CC9
  5
7CCB
331
7C80
  5
7C82
331
7CEB
  5
7CF0
331
7CDA
  5
7CDE
331
7C91
  5
7C93
331
80BF
  5
80C1
331
7CA7
  5
7CA9
331
7C5E
  5
7C60
331
7C4D
  5
7C4F
331
7C3C
  5
7C41
331
7C2B
  5
7C2D
331
7C6F
  5
7C71
331
80C0
  5
8229
331
7CA8
  5
7CAA
331
7CB9
  5
7CBE
331
7C70
  5
7C72
331
7CCA
  5
7CCC
331
7C81
  5
7C83
331
80AF
  5
80B1
331
7C4E
  5
7C50
331
7C3D
  5
7C42
331
7C2C
  5
7C2E
331
7C5F
  5
7C61
331
7C92
  5
7C94
331
80B0
  5
80B2
331
7C98
  5
7C9A
331
80C1
  5
8236
331
7CA9
  5
7CAB
331
7C60
  5
7C62
331
7CBA
  5
7CBF
331
7C71
  5
7C73
331
7CCB
  5
7CCD
331
7CFE
  5
7D02
331
7C93
  5
7C95
331
7C4F
  5
7C51
331
7C2D
  5
7C2F
331
7C82
  5
7C84
331
80B1
  5
80B3
331
7C99
  5
7C9B
331
7C50
  5
7C52
331
7CAA
  5
7CAC
331
7C61
  5
7C63
331
7CCC
  5
7CCE
331
7C83
  5
7C85
331
7C72
  5
7C74
331
7C2E
  5
7C30
331
7C94
  5
7C96
331
80B2
  5
80B4
331
7C9A
  5
7C9C
331
7C51
  5
7C53
331
7CAB
  5
7CAD
331
7C62
  5
7C65
331
7CCD
  5
7CCF
331
7C84
  5
7C86
331
7C73
  5
7C75
331
84EB
  5
84FB
331
7CEF
  5
7CF1
331
7C2F
  5
7C31
331
7C95
  5
7C97
331
80B3
  5
80B5
331
7C52
  5
7C54
331
7C41
  5
7C43
331
7C30
  5
7C32
331
7CAC
  5
7CAE
331
7C63
  5
7C69
331
7CCE
  5
7CD0
331
7C85
  5
7C87
331
7D01
  5
7D03
331
7CF0
  5
7CF3
331
7C96
  5
7C98
331
7C74
  5
7C76
331
80A3
  5
80A5
331
7C42
  5
7C44
331
7C31
  5
7C33
331
80B4
  5
80B6
331
7C53
  5
7C55
331
7CBE
  5
7CC0
331
7C75
  5
7C77
331
7CCF
  5
7CD1
331
7C86
  5
7C88
331
7D02
  5
7D04
331
7CF1
  5
7CF4
331
7CE0
  5
7CE5
331
7C97
  5
7C99
331
7CAD
  5
7CAF
331
80A4
  5
80A8
331
7C43
  5
7C45
331
7C32
  5
7C34
331
80B5
  5
80B7
331
7C54
  5
7C56
331
7CAE
  5
7CB0
331
7CBF
  5
7CC1
331
7C76
  5
7C78
331
7D03
  5
7D05
331
7CD0
  5
7CD3
331
7C87
  5
7C89
331
7C65
  5
7C6A
331
7C21
  5
7C21
331
80A5
  5
80A9
331
7C44
  5
7C46
331
7C33
  5
7C35
331
80B6
  5
80B8
331
7C55
  5
7C57
331
7CC0
  5
7CC2
331
7C77
  5
7C79
331
84DE
  5
84F8
331
7D04
  5
7D06
331
7CF3
  5
7CF5
331
7CE2
  5
7CE6
331
7CD1
  5
7CD4
331
7C88
  5
7C8A
331
7CAF
  5
7CB6
331
7C22
  5
7C22
331
826A
  5
84EB
331
80B7
  5
80B9
331
7C56
  5
7C58
331
7C45
  5
7C47
331
7C34
  5
7C36
331
7CB0
  5
7CB7
331
7CC1
  5
7CC3
331
7D05
  5
7D07
331
7CF4
  5
7CF6
331
7C89
  5
7C8B
331
7C78
  5
7C7A
331
7C23
  5
7C23
331
80B8
  5
80BA
331
7CA0
  5
7CA3
331
7C57
  5
7C59
331
7C46
  5
7C48
331
7C35
  5
7C37
331
7CC2
  5
7CC7
331
7C79
  5
7C7B
331
7D06
  5
7D09
331
7CF5
  5
7CF7
331
7CD3
  5
7CD7
331
7C8A
  5
7C8C
331
7C24
  5
7C24
331
80A8
  5
80AA
331
7C47
  5
7C49
331
7C36
  5
7C38
331
80B9
  5
80BB
331
7C58
  5
7C5B
331
7CC3
  5
7CC8
331
7C7A
  5
7C7C
331
7D07
  5
7D0A
331
7CF6
  5
7CF8
331
7CE5
  5
7CE7
331
7CD4
  5
7CDA
331
7C8B
  5
7C8D
331
7C69
  5
7C6B
331
7C25
  5
7C25
331
8243
  5
826A
331
8229
  5
8243
331
80A9
  5
80AB
331
7C48
  5
7C4A
331
7C37
  5
7C39
331
80BA
  5
80BC
331
7CA2
  5
7CA4
331
7C59
  5
7C5C
331
7CF7
  5
7CF9
331
7CE6
  5
7CE8
331
7C8C
  5
7C8E
331
7C7B
  5
7C7D
331
7C6A
  5
7C6C
331
7C26
  5
7C26
331
825D
  5
84DE
331
7CF8
  5
7CFA
331
80AA
  5
80AC
331
7C38
  5
7C3A
331
80BB
  5
80BD
331
7CA3
  5
7CA5
331
7CE7
  5
7CEB
331
7C8D
  5
7C8F
331
7C7C
  5
7C7E
331
7C6B
  5
7C6D
331
7C27
  5
7C27
  0
ACDBDETAILVIEWSTYLE
  5
843F
102
{ACAD_XDICTIONARY
360
8672
102
}
102
{ACAD_REACTORS
330
843E
102
}
330
843E
100
AcDbModelDocViewStyle
 70
     0
  3
Imperial24
290
     0
100
AcDbDetailViewStyle
 70
     0
 71
     0
 90
        3
 71
     1
340
842A
 40
0.24
340
0
 40
0.24
300

 40
0.36
280
     3
 71
     2
340
8431
 90
       25
 71
     3
340
842A
 40
0.24
 90
        1
 40
0.75
 90
        1
300
%<\AcVar ViewType \f "%tc1">% %<\AcVar ViewDetailId>%\PSCALE %<\AcVar ViewScale \f "%sn">%
 71
     4
340
8431
 90
       25
340
8431
 90
       25
280
     0
  0
LAYOUT
  5
8447
102
{ACAD_XDICTIONARY
360
8676
102
}
102
{ACAD_REACTORS
330
8436
102
}
330
8436
100
AcDbPlotSettings
  1

  2
RICOH imagio MP W3600 RPCS
  4

  6

 40
0.0
 41
0.0
 42
0.0
 43
0.0
 44
0.0
 45
0.0
 46
0.0
 47
0.0
 48
0.0
 49
0.0
140
0.0
141
0.0
142
1.0
143
1.0
 70
  1712
 72
     0
 73
     0
 74
     0
  7

 75
     0
147
1.0
148
0.0
149
0.0
100
AcDbLayout
  1
Model
 70
     1
 71
     0
 10
0.0
 20
0.0
 11
12.0
 21
9.0
 12
0.0
 22
0.0
 32
0.0
 14
0.0
 24
0.0
 34
0.0
 15
0.0
 25
0.0
 35
0.0
146
0.0
 13
0.0
 23
0.0
 33
0.0
 16
1.0
 26
0.0
 36
0.0
 17
0.0
 27
1.0
 37
0.0
 76
     0
330
8444
331
8449
  0
LAYOUT
  5
8443
102
{ACAD_XDICTIONARY
360
8674
102
}
102
{ACAD_REACTORS
330
8436
102
}
330
8436
100
AcDbPlotSettings
  1

  2
RICOH imagio MP W3600 RPCS
  4

  6

 40
0.0
 41
0.0
 42
0.0
 43
0.0
 44
0.0
 45
0.0
 46
0.0
 47
0.0
 48
0.0
 49
0.0
140
0.0
141
0.0
142
1.0
143
1.0
 70
   688
 72
     0
 73
     0
 74
     5
  7

 75
    16
147
1.0
148
0.0
149
0.0
100
AcDbLayout
  1
レイアウト1
 70
     1
 71
     1
 10
0.0
 20
0.0
 11
12.0
 21
9.0
 12
0.0
 22
0.0
 32
0.0
 14
1.000000000000000E+20
 24
1.000000000000000E+20
 34
1.000000000000000E+20
 15
-1.000000000000000E+20
 25
-1.000000000000000E+20
 35
-1.000000000000000E+20
146
0.0
 13
0.0
 23
0.0
 33
0.0
 16
1.0
 26
0.0
 36
0.0
 17
0.0
 27
1.0
 37
0.0
 76
     0
330
8440
  0
MATERIAL
  5
83EE
102
{ACAD_XDICTIONARY
360
83EF
102
}
102
{ACAD_REACTORS
330
83E5
102
}
330
83E5
100
AcDbMaterial
  1
ByBlock
 72
     0
 43
0.0208333333333333
 43
0.0
 43
0.0
 43
0.0
 43
0.0
 43
0.0208333333333333
 43
0.0
 43
0.0
 43
0.0
 43
0.0
 43
1.0
 43
0.0
 43
0.0
 43
0.0
 43
0.0
 43
1.0
 77
     0
 47
0.0208333333333333
 47
0.0
 47
0.0
 47
0.0
 47
0.0
 47
0.0208333333333333
 47
0.0
 47
0.0
 47
0.0
 47
0.0
 47
1.0
 47
0.0
 47
0.0
 47
0.0
 47
0.0
 47
1.0
171
     0
 49
0.0208333333333333
 49
0.0
 49
0.0
 49
0.0
 49
0.0
 49
0.0208333333333333
 49
0.0
 49
0.0
 49
0.0
 49
0.0
 49
1.0
 49
0.0
 49
0.0
 49
0.0
 49
0.0
 49
1.0
175
     0
142
0.0208333333333333
142
0.0
142
0.0
142
0.0
142
0.0
142
0.0208333333333333
142
0.0
142
0.0
142
0.0
142
0.0
142
1.0
142
0.0
142
0.0
142
0.0
142
0.0
142
1.0
179
     0
144
0.0208333333333333
144
0.0
144
0.0
144
0.0
144
0.0
144
0.0208333333333333
144
0.0
144
0.0
144
0.0
144
0.0
144
1.0
144
0.0
144
0.0
144
0.0
144
0.0
144
1.0
147
0.0208333333333333
147
0.0
147
0.0
147
0.0
147
0.0
147
0.0208333333333333
147
0.0
147
0.0
147
0.0
147
0.0
147
1.0
147
0.0
147
0.0
147
0.0
147
0.0
147
1.0
  0
MATERIAL
  5
83E6
102
{ACAD_XDICTIONARY
360
83E7
102
}
102
{ACAD_REACTORS
330
83E5
102
}
330
83E5
100
AcDbMaterial
  1
ByLayer
 72
     0
 43
0.0208333333333333
 43
0.0
 43
0.0
 43
0.0
 43
0.0
 43
0.0208333333333333
 43
0.0
 43
0.0
 43
0.0
 43
0.0
 43
1.0
 43
0.0
 43
0.0
 43
0.0
 43
0.0
 43
1.0
 77
     0
 47
0.0208333333333333
 47
0.0
 47
0.0
 47
0.0
 47
0.0
 47
0.0208333333333333
 47
0.0
 47
0.0
 47
0.0
 47
0.0
 47
1.0
 47
0.0
 47
0.0
 47
0.0
 47
0.0
 47
1.0
171
     0
 49
0.0208333333333333
 49
0.0
 49
0.0
 49
0.0
 49
0.0
 49
0.0208333333333333
 49
0.0
 49
0.0
 49
0.0
 49
0.0
 49
1.0
 49
0.0
 49
0.0
 49
0.0
 49
0.0
 49
1.0
175
     0
142
0.0208333333333333
142
0.0
142
0.0
142
0.0
142
0.0
142
0.0208333333333333
142
0.0
142
0.0
142
0.0
142
0.0
142
1.0
142
0.0
142
0.0
142
0.0
142
0.0
142
1.0
179
     0
144
0.0208333333333333
144
0.0
144
0.0
144
0.0
144
0.0
144
0.0208333333333333
144
0.0
144
0.0
144
0.0
144
0.0
144
1.0
144
0.0
144
0.0
144
0.0
144
0.0
144
1.0
147
0.0208333333333333
147
0.0
147
0.0
147
0.0
147
0.0
147
0.0208333333333333
147
0.0
147
0.0
147
0.0
147
0.0
147
1.0
147
0.0
147
0.0
147
0.0
147
0.0
147
1.0
  0
MATERIAL
  5
83F6
102
{ACAD_XDICTIONARY
360
83F7
102
}
102
{ACAD_REACTORS
330
83E5
102
}
330
83E5
100
AcDbMaterial
  1
Global
 72
     0
 43
0.0208333333333333
 43
0.0
 43
0.0
 43
0.0
 43
0.0
 43
0.0208333333333333
 43
0.0
 43
0.0
 43
0.0
 43
0.0
 43
1.0
 43
0.0
 43
0.0
 43
0.0
 43
0.0
 43
1.0
 77
     0
 47
0.0208333333333333
 47
0.0
 47
0.0
 47
0.0
 47
0.0
 47
0.0208333333333333
 47
0.0
 47
0.0
 47
0.0
 47
0.0
 47
1.0
 47
0.0
 47
0.0
 47
0.0
 47
0.0
 47
1.0
171
     0
 49
0.0208333333333333
 49
0.0
 49
0.0
 49
0.0
 49
0.0
 49
0.0208333333333333
 49
0.0
 49
0.0
 49
0.0
 49
0.0
 49
1.0
 49
0.0
 49
0.0
 49
0.0
 49
0.0
 49
1.0
175
     0
142
0.0208333333333333
142
0.0
142
0.0
142
0.0
142
0.0
142
0.0208333333333333
142
0.0
142
0.0
142
0.0
142
0.0
142
1.0
142
0.0
142
0.0
142
0.0
142
0.0
142
1.0
179
     0
144
0.0208333333333333
144
0.0
144
0.0
144
0.0
144
0.0
144
0.0208333333333333
144
0.0
144
0.0
144
0.0
144
0.0
144
1.0
144
0.0
144
0.0
144
0.0
144
0.0
144
1.0
147
0.0208333333333333
147
0.0
147
0.0
147
0.0
147
0.0
147
0.0208333333333333
147
0.0
147
0.0
147
0.0
147
0.0
147
1.0
147
0.0
147
0.0
147
0.0
147
0.0
147
1.0
  0
MLEADERSTYLE
  5
843B
102
{ACAD_REACTORS
330
843A
102
}
330
843A
100
AcDbMLeaderStyle
170
     2
171
     1
172
     0
 90
        2
 40
0.0
 41
0.0
173
     1
 91
-1056964608
340
842F
 92
       -2
290
     1
 42
0.09
291
     1
 43
0.36
  3
Standard
 44
0.18
300

342
842A
174
     1
178
     6
175
     1
176
     0
 93
-1056964608
 45
0.18
292
     0
297
     0
 46
0.18
 94
-1056964608
 47
1.0
 49
1.0
140
1.0
293
     1
141
0.0
294
     1
177
     0
142
1.0
295
     0
296
     0
143
0.125
1001
ACAD_MLEADERVER
1070
     2
  0
MLINESTYLE
  5
8434
102
{ACAD_REACTORS
330
8433
102
}
330
8433
100
AcDbMlineStyle
  2
STANDARD
 70
     0
  3

 62
   256
 51
90.0
 52
90.0
 71
     2
 49
0.5
 62
   256
  6
BYLAYER
 49
-0.5
 62
   256
  6
BYLAYER
  0
ACDBPLACEHOLDER
  5
83E4
102
{ACAD_REACTORS
330
83E3
102
}
330
83E3
  0
SCALE
  5
8418
102
{ACAD_REACTORS
330
8417
102
}
330
8417
100
AcDbScale
 70
     0
300
1:1
140
1.0
141
1.0
290
     1
  0
SCALE
  5
8419
102
{ACAD_REACTORS
330
8417
102
}
330
8417
100
AcDbScale
 70
     0
300
1/128" = 1'-0"
140
0.0078125
141
12.0
290
     0
  0
SCALE
  5
841A
102
{ACAD_REACTORS
330
8417
102
}
330
8417
100
AcDbScale
 70
     0
300
1/64" = 1'-0"
140
0.015625
141
12.0
290
     0
  0
SCALE
  5
841B
102
{ACAD_REACTORS
330
8417
102
}
330
8417
100
AcDbScale
 70
     0
300
1/32" = 1'-0"
140
0.03125
141
12.0
290
     0
  0
SCALE
  5
841C
102
{ACAD_REACTORS
330
8417
102
}
330
8417
100
AcDbScale
 70
     0
300
1/16" = 1'-0"
140
0.0625
141
12.0
290
     0
  0
SCALE
  5
841D
102
{ACAD_REACTORS
330
8417
102
}
330
8417
100
AcDbScale
 70
     0
300
3/32" = 1'-0"
140
0.09375
141
12.0
290
     0
  0
SCALE
  5
841E
102
{ACAD_REACTORS
330
8417
102
}
330
8417
100
AcDbScale
 70
     0
300
1/8" = 1'-0"
140
0.125
141
12.0
290
     0
  0
SCALE
  5
841F
102
{ACAD_REACTORS
330
8417
102
}
330
8417
100
AcDbScale
 70
     0
300
3/16" = 1'-0"
140
0.1875
141
12.0
290
     0
  0
SCALE
  5
8420
102
{ACAD_REACTORS
330
8417
102
}
330
8417
100
AcDbScale
 70
     0
300
1/4" = 1'-0"
140
0.25
141
12.0
290
     0
  0
SCALE
  5
8421
102
{ACAD_REACTORS
330
8417
102
}
330
8417
100
AcDbScale
 70
     0
300
3/8" = 1'-0"
140
0.375
141
12.0
290
     0
  0
SCALE
  5
8422
102
{ACAD_REACTORS
330
8417
102
}
330
8417
100
AcDbScale
 70
     0
300
1/2" = 1'-0"
140
0.5
141
12.0
290
     0
  0
SCALE
  5
8423
102
{ACAD_REACTORS
330
8417
102
}
330
8417
100
AcDbScale
 70
     0
300
3/4" = 1'-0"
140
0.75
141
12.0
290
     0
  0
SCALE
  5
8424
102
{ACAD_REACTORS
330
8417
102
}
330
8417
100
AcDbScale
 70
     0
300
1" = 1'-0"
140
1.0
141
12.0
290
     0
  0
SCALE
  5
8425
102
{ACAD_REACTORS
330
8417
102
}
330
8417
100
AcDbScale
 70
     0
300
1-1/2" = 1'-0"
140
1.5
141
12.0
290
     0
  0
SCALE
  5
8426
102
{ACAD_REACTORS
330
8417
102
}
330
8417
100
AcDbScale
 70
     0
300
3" = 1'-0"
140
3.0
141
12.0
290
     0
  0
SCALE
  5
8427
102
{ACAD_REACTORS
330
8417
102
}
330
8417
100
AcDbScale
 70
     0
300
6" = 1'-0"
140
6.0
141
12.0
290
     0
  0
SCALE
  5
8428
102
{ACAD_REACTORS
330
8417
102
}
330
8417
100
AcDbScale
 70
     0
300
1'-0" = 1'-0"
140
12.0
141
12.0
290
     0
  0
ACDBSECTIONVIEWSTYLE
  5
843D
102
{ACAD_XDICTIONARY
360
8670
102
}
102
{ACAD_REACTORS
330
843C
102
}
330
843C
100
AcDbModelDocViewStyle
 70
     0
  3
Imperial24
290
     0
100
AcDbSectionViewStyle
 70
     0
 71
     0
 90
       78
 71
     1
340
842A
 40
0.24
340
0
340
0
 40
0.24
300
I, O, Q, S, X, Z
 40
0.48
 90
        3
 40
0.18
 90
        1
 71
     2
340
8431
 90
       25
340
8431
 90
       50
 40
0.24
 40
0.0
 40
0.24
 71
     3
340
842A
 40
0.24
 90
        1
 40
0.75
 90
        1
300
%<\AcVar ViewType \f "%tc1">% %<\AcVar ViewSectionStartId>%-%<\AcVar ViewSectionEndId>%\PSCALE %<\AcVar ViewScale \f "%sn">%
 71
     4
300
ANSI31
 40
1.0
 90
        0
290
     0
290
     0
 90
        6
 40
0.0
 40
1.570796326794896
 40
0.2617993877991494
 40
1.308996938995747
 40
-0.2617993877991494
 40
1.832595714594046
  0
TABLESTYLE
  5
8439
102
{ACAD_XDICTIONARY
360
8637
102
}
102
{ACAD_REACTORS
330
8438
102
}
330
8438
100
AcDbTableStyle
  3
Standard
 70
     0
 71
     0
 40
0.06
 41
0.06
280
     0
281
     0
  7
STANDARD
140
0.18
170
     2
 62
     0
 63
     7
283
     0
274
    -2
284
     1
 64
     0
275
    -2
285
     1
 65
     0
276
    -2
286
     1
 66
     0
277
    -2
287
     1
 67
     0
278
    -2
288
     1
 68
     0
279
    -2
289
     1
 69
     0
  7
STANDARD
140
0.25
170
     5
 62
     0
 63
     7
283
     0
274
    -2
284
     1
 64
     0
275
    -2
285
     1
 65
     0
276
    -2
286
     1
 66
     0
277
    -2
287
     1
 67
     0
278
    -2
288
     1
 68
     0
279
    -2
289
     1
 69
     0
  7
STANDARD
140
0.18
170
     5
 62
     0
 63
     7
283
     0
274
    -2
284
     1
 64
     0
275
    -2
285
     1
 65
     0
276
    -2
286
     1
 66
     0
277
    -2
287
     1
 67
     0
278
    -2
288
     1
 68
     0
279
    -2
289
     1
 69
     0
  0
VISUALSTYLE
  5
8404
102
{ACAD_XDICTIONARY
360
8648
102
}
102
{ACAD_REACTORS
330
83FE
102
}
330
83FE
100
AcDbVisualStyle
  2
2dWireframe
 70
     4
 71
     0
 72
     2
 73
     0
 90
        0
 40
-0.6
 41
-30.0
 62
     5
 63
     7
 74
     1
 91
        4
 64
     7
 65
   257
 75
     1
175
     1
 42
1.0
 92
        0
 66
   257
 43
1.0
 76
     1
 77
     6
 78
     2
 67
     7
 79
     5
170
     0
171
     0
290
     0
174
     0
 93
        1
 44
0.0
173
     0
291
     0
 45
0.0
1001
ACAD
1000
AcDbSavedByObjectVersion
1070
     0
  0
VISUALSTYLE
  5
8403
102
{ACAD_XDICTIONARY
360
8646
102
}
102
{ACAD_REACTORS
330
83FE
102
}
330
83FE
100
AcDbVisualStyle
  2
Basic
 70
     7
 71
     1
 72
     0
 73
     1
 90
        0
 40
-0.6
 41
-30.0
 62
     5
 63
     7
 74
     0
 91
        4
 64
     7
 65
   257
 75
     1
175
     1
 42
1.0
 92
        8
 66
     7
 43
1.0
 76
     1
 77
     6
 78
     2
 67
     7
 79
     5
170
     0
171
     0
290
     0
174
     0
 93
        1
 44
0.0
173
     0
291
     1
 45
0.0
1001
ACAD
1000
AcDbSavedByObjectVersion
1070
     0
  0
VISUALSTYLE
  5
840A
102
{ACAD_XDICTIONARY
360
8654
102
}
102
{ACAD_REACTORS
330
83FE
102
}
330
83FE
100
AcDbVisualStyle
  2
Brighten
 70
    12
 71
     2
 72
     2
 73
     0
 90
        0
 40
-0.6
 41
-30.0
 62
     5
 63
     7
 74
     1
 91
        4
 64
     7
 65
   257
 75
     1
175
     1
 42
1.0
 92
        8
 66
     7
 43
1.0
 76
     1
 77
     6
 78
     2
 67
     7
 79
     5
170
     0
171
     0
290
     0
174
     0
 93
        1
 44
50.0
173
     0
291
     1
 45
0.0
1001
ACAD
1000
AcDbSavedByObjectVersion
1070
     0
  0
VISUALSTYLE
  5
840E
102
{ACAD_XDICTIONARY
360
865C
102
}
102
{ACAD_REACTORS
330
83FE
102
}
330
83FE
100
AcDbVisualStyle
  2
ColorChange
 70
    16
 71
     2
 72
     2
 73
     3
 90
        0
 40
-0.6
 41
-30.0
 62
     5
 63
     8
 74
     1
 91
        4
 64
     7
 65
   257
 75
     1
175
     1
 42
1.0
 92
        8
 66
     8
 43
1.0
 76
     1
 77
     6
 78
     2
 67
     7
 79
     5
170
     0
171
     0
290
     0
174
     0
 93
        1
 44
0.0
173
     0
291
     1
 45
0.0
1001
ACAD
1000
AcDbSavedByObjectVersion
1070
     0
  0
VISUALSTYLE
  5
8407
102
{ACAD_XDICTIONARY
360
864E
102
}
102
{ACAD_REACTORS
330
83FE
102
}
330
83FE
100
AcDbVisualStyle
  2
Conceptual
 70
     9
 71
     3
 72
     2
 73
     0
 90
        0
 40
-0.6
 41
-30.0
 62
     5
 63
     7
 74
     2
 91
        2
 64
     7
 65
   257
 75
     1
175
     1
 42
179.0
 92
        8
 66
     7
 43
1.0
 76
     1
 77
     6
 78
     2
 67
     7
 79
     3
170
     0
171
     0
290
     0
174
     0
 93
        1
 44
0.0
173
     0
291
     0
 45
0.0
1001
ACAD
1000
AcDbSavedByObjectVersion
1070
     0
  0
VISUALSTYLE
  5
8409
102
{ACAD_XDICTIONARY
360
8652
102
}
102
{ACAD_REACTORS
330
83FE
102
}
330
83FE
100
AcDbVisualStyle
  2
Dim
 70
    11
 71
     2
 72
     2
 73
     0
 90
        0
 40
-0.6
 41
-30.0
 62
     5
 63
     7
 74
     1
 91
        4
 64
     7
 65
   257
 75
     1
175
     1
 42
1.0
 92
        8
 66
     7
 43
1.0
 76
     1
 77
     6
 78
     2
 67
     7
 79
     5
170
     0
171
     0
290
     0
174
     0
 93
        1
 44
-50.0
173
     0
291
     1
 45
0.0
1001
ACAD
1000
AcDbSavedByObjectVersion
1070
     0
  0
VISUALSTYLE
  5
8416
102
{ACAD_XDICTIONARY
360
866C
102
}
102
{ACAD_REACTORS
330
83FE
102
}
330
83FE
100
AcDbVisualStyle
  2
EdgeColorOff
 70
    22
 71
     2
 72
     2
 73
     0
 90
        0
 40
-0.6
 41
-30.0
 62
     5
 63
     7
 74
     1
 91
        4
 64
     7
 65
   257
 75
     1
175
     1
 42
1.0
 92
        8
 66
     7
 43
1.0
 76
     1
 77
     6
 78
     2
 67
     7
 79
     5
170
     0
171
     0
290
     0
174
     0
 93
        1
 44
0.0
173
     0
291
     1
 45
0.0
1001
ACAD
1000
AcDbSavedByObjectVersion
1070
     0
  0
VISUALSTYLE
  5
840D
102
{ACAD_XDICTIONARY
360
865A
102
}
102
{ACAD_REACTORS
330
83FE
102
}
330
83FE
100
AcDbVisualStyle
  2
Facepattern
 70
    15
 71
     2
 72
     2
 73
     0
 90
        0
 40
-0.6
 41
-30.0
 62
     5
 63
     7
 74
     1
 91
        4
 64
     7
 65
   257
 75
     1
175
     1
 42
1.0
 92
        8
 66
     7
 43
1.0
 76
     1
 77
     6
 78
     2
 67
     7
 79
     5
170
     0
171
     0
290
     0
174
     0
 93
        1
 44
0.0
173
     0
291
     1
 45
0.0
1001
ACAD
1000
AcDbSavedByObjectVersion
1070
     0
  0
VISUALSTYLE
  5
83FF
102
{ACAD_XDICTIONARY
360
863E
102
}
102
{ACAD_REACTORS
330
83FE
102
}
330
83FE
100
AcDbVisualStyle
  2
Flat
 70
     0
 71
     2
 72
     1
 73
     1
 90
        2
 40
-0.6
 41
30.0
 62
     5
 63
     7
 74
     0
 91
        0
 64
     7
 65
   257
 75
     1
175
     1
 42
1.0
 92
        8
 66
     7
 43
1.0
 76
     1
 77
     6
 78
     2
 67
     7
 79
     5
170
     0
171
     0
290
     0
174
     0
 93
       13
 44
0.0
173
     0
291
     1
 45
0.0
1001
ACAD
1000
AcDbSavedByObjectVersion
1070
     0
  0
VISUALSTYLE
  5
8400
102
{ACAD_XDICTIONARY
360
8640
102
}
102
{ACAD_REACTORS
330
83FE
102
}
330
83FE
100
AcDbVisualStyle
  2
FlatWithEdges
 70
     1
 71
     2
 72
     1
 73
     1
 90
        2
 40
-0.6
 41
30.0
 62
     5
 63
     7
 74
     1
 91
        0
 64
     7
 65
   257
 75
     1
175
     1
 42
1.0
 92
        0
 66
   257
 43
1.0
 76
     1
 77
     6
 78
     2
 67
     7
 79
     5
170
     0
171
     0
290
     0
174
     0
 93
       13
 44
0.0
173
     0
291
     1
 45
0.0
1001
ACAD
1000
AcDbSavedByObjectVersion
1070
     0
  0
VISUALSTYLE
  5
8401
102
{ACAD_XDICTIONARY
360
8642
102
}
102
{ACAD_REACTORS
330
83FE
102
}
330
83FE
100
AcDbVisualStyle
  2
Gouraud
 70
     2
 71
     2
 72
     2
 73
     1
 90
        2
 40
-0.6
 41
30.0
 62
     5
 63
     7
 74
     0
 91
        0
 64
     7
 65
   257
 75
     1
175
     1
 42
1.0
 92
        0
 66
     7
 43
1.0
 76
     1
 77
     6
 78
     2
 67
     7
 79
     5
170
     0
171
     0
290
     0
174
     0
 93
       13
 44
0.0
173
     0
291
     1
 45
0.0
1001
ACAD
1000
AcDbSavedByObjectVersion
1070
     0
  0
VISUALSTYLE
  5
8402
102
{ACAD_XDICTIONARY
360
8644
102
}
102
{ACAD_REACTORS
330
83FE
102
}
330
83FE
100
AcDbVisualStyle
  2
GouraudWithEdges
 70
     3
 71
     2
 72
     2
 73
     1
 90
        2
 40
-0.6
 41
30.0
 62
     5
 63
     7
 74
     1
 91
        0
 64
     7
 65
   257
 75
     1
175
     1
 42
1.0
 92
        0
 66
   257
 43
1.0
 76
     1
 77
     6
 78
     2
 67
     7
 79
     5
170
     0
171
     0
290
     0
174
     0
 93
       13
 44
0.0
173
     0
291
     1
 45
0.0
1001
ACAD
1000
AcDbSavedByObjectVersion
1070
     0
  0
VISUALSTYLE
  5
8406
102
{ACAD_XDICTIONARY
360
864C
102
}
102
{ACAD_REACTORS
330
83FE
102
}
330
83FE
100
AcDbVisualStyle
  2
Hidden
 70
     6
 71
     1
 72
     2
 73
     2
 90
        0
 40
-0.6
 41
-30.0
 62
     5
 63
     7
 74
     2
 91
        2
 64
     7
 65
   257
 75
     2
175
     1
 42
40.0
 92
        0
 66
   257
 43
1.0
 76
     1
 77
     6
 78
     2
 67
     7
 79
     3
170
     0
171
     0
290
     0
174
     0
 93
        1
 44
0.0
173
     0
291
     0
 45
0.0
1001
ACAD
1000
AcDbSavedByObjectVersion
1070
     0
  0
VISUALSTYLE
  5
8414
102
{ACAD_XDICTIONARY
360
8668
102
}
102
{ACAD_REACTORS
330
83FE
102
}
330
83FE
100
AcDbVisualStyle
  2
JitterOff
 70
    20
 71
     2
 72
     2
 73
     0
 90
        0
 40
-0.6
 41
-30.0
 62
     5
 63
     7
 74
     1
 91
        4
 64
     7
 65
   257
 75
     1
175
     1
 42
1.0
 92
       10
 66
     7
 43
1.0
 76
     1
 77
     6
 78
     2
 67
     7
 79
     5
170
     0
171
     0
290
     0
174
     0
 93
        1
 44
0.0
173
     0
291
     1
 45
0.0
1001
ACAD
1000
AcDbSavedByObjectVersion
1070
     0
  0
VISUALSTYLE
  5
840C
102
{ACAD_XDICTIONARY
360
8658
102
}
102
{ACAD_REACTORS
330
83FE
102
}
330
83FE
100
AcDbVisualStyle
  2
Linepattern
 70
    14
 71
     2
 72
     2
 73
     0
 90
        0
 40
-0.6
 41
-30.0
 62
     5
 63
     7
 74
     1
 91
        4
 64
     7
 65
   257
 75
     7
175
     7
 42
1.0
 92
        8
 66
     7
 43
1.0
 76
     1
 77
     6
 78
     2
 67
     7
 79
     5
170
     0
171
     0
290
     0
174
     0
 93
        1
 44
0.0
173
     0
291
     1
 45
0.0
1001
ACAD
1000
AcDbSavedByObjectVersion
1070
     0
  0
VISUALSTYLE
  5
8415
102
{ACAD_XDICTIONARY
360
866A
102
}
102
{ACAD_REACTORS
330
83FE
102
}
330
83FE
100
AcDbVisualStyle
  2
OverhangOff
 70
    21
 71
     2
 72
     2
 73
     0
 90
        0
 40
-0.6
 41
-30.0
 62
     5
 63
     7
 74
     1
 91
        4
 64
     7
 65
   257
 75
     1
175
     1
 42
1.0
 92
        9
 66
     7
 43
1.0
 76
     1
 77
     6
 78
     2
 67
     7
 79
     5
170
     0
171
     0
290
     0
174
     0
 93
        1
 44
0.0
173
     0
291
     1
 45
0.0
1001
ACAD
1000
AcDbSavedByObjectVersion
1070
     0
  0
VISUALSTYLE
  5
8408
102
{ACAD_XDICTIONARY
360
8650
102
}
102
{ACAD_REACTORS
330
83FE
102
}
330
83FE
100
AcDbVisualStyle
  2
Realistic
 70
     8
 71
     2
 72
     3
 73
     0
 90
        2
 40
-0.6
 41
30.0
 62
     5
 63
     7
 74
     0
 91
        0
 64
     7
 65
   257
 75
     1
175
     1
 42
1.0
 92
        8
 66
   257
 43
1.0
 76
     1
 77
     6
 78
     2
 67
     7
 79
     3
170
     0
171
     0
290
     0
174
     0
 93
       13
 44
0.0
173
     0
291
     0
 45
0.0
1001
ACAD
1000
AcDbSavedByObjectVersion
1070
     0
  0
VISUALSTYLE
  5
8413
102
{ACAD_XDICTIONARY
360
8666
102
}
102
{ACAD_REACTORS
330
83FE
102
}
330
83FE
100
AcDbVisualStyle
  2
Shaded
 70
    27
 71
     2
 72
     2
 73
     1
 90
        2
 40
-0.6
 41
30.0
 62
     5
 63
     7
 74
     0
 91
        4
 64
     7
 65
   257
 75
     1
175
     1
 42
1.0
 92
        8
 66
   257
 43
1.0
 76
     1
 77
     6
 78
     2
 67
     8
 79
     3
170
     0
171
     0
290
     0
174
     0
 93
        5
 44
0.0
173
     0
291
     0
 45
0.0
1001
ACAD
1000
AcDbSavedByObjectVersion
1070
     0
  0
VISUALSTYLE
  5
8412
102
{ACAD_XDICTIONARY
360
8664
102
}
102
{ACAD_REACTORS
330
83FE
102
}
330
83FE
100
AcDbVisualStyle
  2
Shaded with edges
 70
    26
 71
     2
 72
     2
 73
     1
 90
        2
 40
-0.6
 41
30.0
 62
     5
 63
     7
 74
     1
 91
       10
 64
     7
 65
   257
 75
     2
175
     1
 42
1.0
 92
        8
 66
   257
 43
1.0
 76
     1
 77
     6
 78
     2
 67
     7
 79
     3
170
     0
171
     0
290
     0
174
     0
 93
        5
 44
0.0
173
     0
291
     0
 45
0.0
1001
ACAD
1000
AcDbSavedByObjectVersion
1070
     0
  0
VISUALSTYLE
  5
840F
102
{ACAD_XDICTIONARY
360
865E
102
}
102
{ACAD_REACTORS
330
83FE
102
}
330
83FE
100
AcDbVisualStyle
  2
Shades of Gray
 70
    23
 71
     2
 72
     2
 73
     3
 90
        0
 40
-0.6
 41
-30.0
 62
     5
 63
     7
 74
     2
 91
        2
 64
     7
 65
     7
 75
     1
175
     1
 42
40.0
 92
        8
 66
     7
 43
1.0
 76
     1
 77
     6
 78
     2
 67
     7
 79
     3
170
     0
171
     0
290
     0
174
     0
 93
        1
 44
0.0
173
     0
291
     0
 45
0.0
1001
ACAD
1000
AcDbSavedByObjectVersion
1070
     0
  0
VISUALSTYLE
  5
8410
102
{ACAD_XDICTIONARY
360
8660
102
}
102
{ACAD_REACTORS
330
83FE
102
}
330
83FE
100
AcDbVisualStyle
  2
Sketchy
 70
    24
 71
     1
 72
     2
 73
     2
 90
        0
 40
-0.6
 41
-30.0
 62
     5
 63
     7
 74
     2
 91
        2
 64
     7
 65
     7
 75
     1
175
     1
 42
40.0
 92
       11
 66
     7
 43
1.0
 76
     1
 77
     6
 78
     2
 67
     7
 79
     6
170
     0
171
     0
290
     0
174
     0
 93
        1
 44
0.0
173
     0
291
     0
 45
0.0
1001
ACAD
1000
AcDbSavedByObjectVersion
1070
     0
  0
VISUALSTYLE
  5
840B
102
{ACAD_XDICTIONARY
360
8656
102
}
102
{ACAD_REACTORS
330
83FE
102
}
330
83FE
100
AcDbVisualStyle
  2
Thicken
 70
    13
 71
     2
 72
     2
 73
     0
 90
        0
 40
-0.6
 41
-30.0
 62
     5
 63
     7
 74
     1
 91
        4
 64
     7
 65
   257
 75
     1
175
     1
 42
1.0
 92
       12
 66
     7
 43
1.0
 76
     1
 77
     6
 78
     2
 67
     7
 79
     5
170
     0
171
     0
290
     0
174
     0
 93
        1
 44
0.0
173
     0
291
     1
 45
0.0
1001
ACAD
1000
AcDbSavedByObjectVersion
1070
     0
  0
VISUALSTYLE
  5
8405
102
{ACAD_XDICTIONARY
360
864A
102
}
102
{ACAD_REACTORS
330
83FE
102
}
330
83FE
100
AcDbVisualStyle
  2
Wireframe
 70
     5
 71
     0
 72
     2
 73
     0
 90
        0
 40
-0.6
 41
-30.0
 62
     5
 63
     7
 74
     1
 91
        4
 64
     7
 65
   257
 75
     1
175
     1
 42
1.0
 92
        0
 66
   257
 43
1.0
 76
     1
 77
     6
 78
     2
 67
     7
 79
     3
170
     0
171
     0
290
     0
174
     0
 93
        1
 44
0.0
173
     0
291
     0
 45
0.0
1001
ACAD
1000
AcDbSavedByObjectVersion
1070
     0
  0
VISUALSTYLE
  5
8411
102
{ACAD_XDICTIONARY
360
8662
102
}
102
{ACAD_REACTORS
330
83FE
102
}
330
83FE
100
AcDbVisualStyle
  2
X-Ray
 70
    25
 71
     2
 72
     2
 73
     1
 90
        1
 40
0.5
 41
-30.0
 62
     5
 63
     7
 74
     1
 91
        0
 64
     7
 65
   257
 75
     1
175
     1
 42
1.0
 92
        8
 66
     7
 43
1.0
 76
     1
 77
     6
 78
     2
 67
     7
 79
     3
170
     0
171
     0
290
     0
174
     0
 93
       13
 44
0.0
173
     0
291
     0
 45
0.0
1001
ACAD
1000
AcDbSavedByObjectVersion
1070
     0
  0
DICTIONARYVAR
  5
8497
102
{ACAD_REACTORS
330
8492
102
}
330
8492
100
DictionaryVariables
280
     0
  1
1:1
  0
DICTIONARYVAR
  5
8494
102
{ACAD_REACTORS
330
8492
102
}
330
8492
100
DictionaryVariables
280
     0
  1
STANDARD
  0
DICTIONARYVAR
  5
8493
102
{ACAD_REACTORS
330
8492
102
}
330
8492
100
DictionaryVariables
280
     0
  1
STANDARD
  0
DICTIONARYVAR
  5
8495
102
{ACAD_REACTORS
330
8492
102
}
330
8492
100
DictionaryVariables
280
     0
  1
Imperial24
  0
DICTIONARYVAR
  5
8496
102
{ACAD_REACTORS
330
8492
102
}
330
8492
100
DictionaryVariables
280
     0
  1
Imperial24
  0
DICTIONARYVAR
  5
849A
102
{ACAD_REACTORS
330
8492
102
}
330
8492
100
DictionaryVariables
280
     0
  1
1
  0
DICTIONARYVAR
  5
8499
102
{ACAD_REACTORS
330
8492
102
}
330
8492
100
DictionaryVariables
280
     0
  1
0
  0
DICTIONARYVAR
  5
8498
102
{ACAD_REACTORS
330
8492
102
}
330
8492
100
DictionaryVariables
280
     0
  1
127
  0
DICTIONARYVAR
  5
849B
102
{ACAD_REACTORS
330
8492
102
}
330
8492
100
DictionaryVariables
280
     0
  1
2
  0
DICTIONARY
  5
8672
330
843F
100
AcDbDictionary
280
     1
281
     1
  3
ACAD_XREC_ROUNDTRIP
360
8673
  0
DICTIONARY
  5
8676
330
8447
100
AcDbDictionary
280
     1
281
     1
  3
ACAD_XREC_ROUNDTRIP
360
8677
  0
DICTIONARY
  5
8674
330
8443
100
AcDbDictionary
280
     1
281
     1
  3
ACAD_XREC_ROUNDTRIP
360
8675
  0
DICTIONARY
  5
83EF
330
83EE
100
AcDbDictionary
280
     1
281
     1
  3
ACAD_XREC_ROUNDTRIP
360
863C
  3
BUMPTILE
360
83F1
  3
DIFFUSETILE
360
83F0
  3
OPACITYTILE
360
83F4
  3
REFLECTIONTILE
360
83F3
  3
REFRACTIONTILE
360
83F5
  3
SPECULARTILE
360
83F2
  0
DICTIONARY
  5
83E7
330
83E6
100
AcDbDictionary
280
     1
281
     1
  3
ACAD_XREC_ROUNDTRIP
360
863B
  3
BUMPTILE
360
83E9
  3
DIFFUSETILE
360
83E8
  3
OPACITYTILE
360
83EC
  3
REFLECTIONTILE
360
83EB
  3
REFRACTIONTILE
360
83ED
  3
SPECULARTILE
360
83EA
  0
DICTIONARY
  5
83F7
330
83F6
100
AcDbDictionary
280
     1
281
     1
  3
ACAD_XREC_ROUNDTRIP
360
863D
  3
BUMPTILE
360
83F9
  3
DIFFUSETILE
360
83F8
  3
OPACITYTILE
360
83FC
  3
REFLECTIONTILE
360
83FB
  3
REFRACTIONTILE
360
83FD
  3
SPECULARTILE
360
83FA
  0
DICTIONARY
  5
8670
330
843D
100
AcDbDictionary
280
     1
281
     1
  3
ACAD_XREC_ROUNDTRIP
360
8671
  0
DICTIONARY
  5
8637
330
8439
100
AcDbDictionary
280
     1
281
     1
  3
ACAD_ROUNDTRIP_2008_TABLESTYLE_CELLSTYLEMAP
360
8638
  3
ACAD_XREC_ROUNDTRIP
360
866E
  0
DICTIONARY
  5
8648
330
8404
100
AcDbDictionary
280
     1
281
     1
  3
ACAD_XREC_ROUNDTRIP
360
8649
  0
DICTIONARY
  5
8646
330
8403
100
AcDbDictionary
280
     1
281
     1
  3
ACAD_XREC_ROUNDTRIP
360
8647
  0
DICTIONARY
  5
8654
330
840A
100
AcDbDictionary
280
     1
281
     1
  3
ACAD_XREC_ROUNDTRIP
360
8655
  0
DICTIONARY
  5
865C
330
840E
100
AcDbDictionary
280
     1
281
     1
  3
ACAD_XREC_ROUNDTRIP
360
865D
  0
DICTIONARY
  5
864E
330
8407
100
AcDbDictionary
280
     1
281
     1
  3
ACAD_XREC_ROUNDTRIP
360
864F
  0
DICTIONARY
  5
8652
330
8409
100
AcDbDictionary
280
     1
281
     1
  3
ACAD_XREC_ROUNDTRIP
360
8653
  0
DICTIONARY
  5
866C
330
8416
100
AcDbDictionary
280
     1
281
     1
  3
ACAD_XREC_ROUNDTRIP
360
866D
  0
DICTIONARY
  5
865A
330
840D
100
AcDbDictionary
280
     1
281
     1
  3
ACAD_XREC_ROUNDTRIP
360
865B
  0
DICTIONARY
  5
863E
330
83FF
100
AcDbDictionary
280
     1
281
     1
  3
ACAD_XREC_ROUNDTRIP
360
863F
  0
DICTIONARY
  5
8640
330
8400
100
AcDbDictionary
280
     1
281
     1
  3
ACAD_XREC_ROUNDTRIP
360
8641
  0
DICTIONARY
  5
8642
330
8401
100
AcDbDictionary
280
     1
281
     1
  3
ACAD_XREC_ROUNDTRIP
360
8643
  0
DICTIONARY
  5
8644
330
8402
100
AcDbDictionary
280
     1
281
     1
  3
ACAD_XREC_ROUNDTRIP
360
8645
  0
DICTIONARY
  5
864C
330
8406
100
AcDbDictionary
280
     1
281
     1
  3
ACAD_XREC_ROUNDTRIP
360
864D
  0
DICTIONARY
  5
8668
330
8414
100
AcDbDictionary
280
     1
281
     1
  3
ACAD_XREC_ROUNDTRIP
360
8669
  0
DICTIONARY
  5
8658
330
840C
100
AcDbDictionary
280
     1
281
     1
  3
ACAD_XREC_ROUNDTRIP
360
8659
  0
DICTIONARY
  5
866A
330
8415
100
AcDbDictionary
280
     1
281
     1
  3
ACAD_XREC_ROUNDTRIP
360
866B
  0
DICTIONARY
  5
8650
330
8408
100
AcDbDictionary
280
     1
281
     1
  3
ACAD_XREC_ROUNDTRIP
360
8651
  0
DICTIONARY
  5
8666
330
8413
100
AcDbDictionary
280
     1
281
     1
  3
ACAD_XREC_ROUNDTRIP
360
8667
  0
DICTIONARY
  5
8664
330
8412
100
AcDbDictionary
280
     1
281
     1
  3
ACAD_XREC_ROUNDTRIP
360
8665
  0
DICTIONARY
  5
865E
330
840F
100
AcDbDictionary
280
     1
281
     1
  3
ACAD_XREC_ROUNDTRIP
360
865F
  0
DICTIONARY
  5
8660
330
8410
100
AcDbDictionary
280
     1
281
     1
  3
ACAD_XREC_ROUNDTRIP
360
8661
  0
DICTIONARY
  5
8656
330
840B
100
AcDbDictionary
280
     1
281
     1
  3
ACAD_XREC_ROUNDTRIP
360
8657
  0
DICTIONARY
  5
864A
330
8405
100
AcDbDictionary
280
     1
281
     1
  3
ACAD_XREC_ROUNDTRIP
360
864B
  0
DICTIONARY
  5
8662
330
8411
100
AcDbDictionary
280
     1
281
     1
  3
ACAD_XREC_ROUNDTRIP
360
8663
  0
XRECORD
  5
8673
102
{ACAD_REACTORS
330
8672
102
}
330
8672
100
AcDbXrecord
280
     1
102
DISPLAYNAME
  1
Imperial24
102
FLAGS
 90
        0
  0
XRECORD
  5
8677
102
{ACAD_REACTORS
330
8676
102
}
330
8676
100
AcDbXrecord
280
     1
102
SHADEPLOT
 70
     0
102
SHADEPLOTRESLEVEL
 70
     2
102
SHADEPLOTCUSTOMDPI
 70
   300
  0
XRECORD
  5
8675
102
{ACAD_REACTORS
330
8674
102
}
330
8674
100
AcDbXrecord
280
     1
102
SHADEPLOT
 70
     0
102
SHADEPLOTRESLEVEL
 70
     2
102
SHADEPLOTCUSTOMDPI
 70
   300
  0
XRECORD
  5
863C
102
{ACAD_REACTORS
330
83EF
102
}
330
83EF
100
AcDbXrecord
280
     1
102
MATERIAL
148
0.0
149
0.0
149
0.0
 93
        0
 94
      127
282
     0
 72
     0
 77
     0
171
     0
175
     0
179
     0
273
     0
  0
XRECORD
  5
83F1
102
{ACAD_REACTORS
330
83EF
102
}
330
83EF
100
AcDbXrecord
280
     1
270
     1
271
     1
  0
XRECORD
  5
83F0
102
{ACAD_REACTORS
330
83EF
102
}
330
83EF
100
AcDbXrecord
280
     1
270
     1
271
     1
  0
XRECORD
  5
83F4
102
{ACAD_REACTORS
330
83EF
102
}
330
83EF
100
AcDbXrecord
280
     1
270
     1
271
     1
  0
XRECORD
  5
83F3
102
{ACAD_REACTORS
330
83EF
102
}
330
83EF
100
AcDbXrecord
280
     1
270
     1
271
     1
  0
XRECORD
  5
83F5
102
{ACAD_REACTORS
330
83EF
102
}
330
83EF
100
AcDbXrecord
280
     1
270
     1
271
     1
  0
XRECORD
  5
83F2
102
{ACAD_REACTORS
330
83EF
102
}
330
83EF
100
AcDbXrecord
280
     1
270
     1
271
     1
  0
XRECORD
  5
863B
102
{ACAD_REACTORS
330
83E7
102
}
330
83E7
100
AcDbXrecord
280
     1
102
MATERIAL
148
0.0
149
0.0
149
0.0
 93
        0
 94
      127
282
     0
 72
     0
 77
     0
171
     0
175
     0
179
     0
273
     0
  0
XRECORD
  5
83E9
102
{ACAD_REACTORS
330
83E7
102
}
330
83E7
100
AcDbXrecord
280
     1
270
     1
271
     1
  0
XRECORD
  5
83E8
102
{ACAD_REACTORS
330
83E7
102
}
330
83E7
100
AcDbXrecord
280
     1
270
     1
271
     1
  0
XRECORD
  5
83EC
102
{ACAD_REACTORS
330
83E7
102
}
330
83E7
100
AcDbXrecord
280
     1
270
     1
271
     1
  0
XRECORD
  5
83EB
102
{ACAD_REACTORS
330
83E7
102
}
330
83E7
100
AcDbXrecord
280
     1
270
     1
271
     1
  0
XRECORD
  5
83ED
102
{ACAD_REACTORS
330
83E7
102
}
330
83E7
100
AcDbXrecord
280
     1
270
     1
271
     1
  0
XRECORD
  5
83EA
102
{ACAD_REACTORS
330
83E7
102
}
330
83E7
100
AcDbXrecord
280
     1
270
     1
271
     1
  0
XRECORD
  5
863D
102
{ACAD_REACTORS
330
83F7
102
}
330
83F7
100
AcDbXrecord
280
     1
102
MATERIAL
148
0.0
149
0.0
149
0.0
 93
        0
 94
      127
282
     0
 72
     0
 77
     0
171
     0
175
     0
179
     0
273
     0
  0
XRECORD
  5
83F9
102
{ACAD_REACTORS
330
83F7
102
}
330
83F7
100
AcDbXrecord
280
     1
270
     1
271
     1
  0
XRECORD
  5
83F8
102
{ACAD_REACTORS
330
83F7
102
}
330
83F7
100
AcDbXrecord
280
     1
270
     1
271
     1
  0
XRECORD
  5
83FC
102
{ACAD_REACTORS
330
83F7
102
}
330
83F7
100
AcDbXrecord
280
     1
270
     1
271
     1
  0
XRECORD
  5
83FB
102
{ACAD_REACTORS
330
83F7
102
}
330
83F7
100
AcDbXrecord
280
     1
270
     1
271
     1
  0
XRECORD
  5
83FD
102
{ACAD_REACTORS
330
83F7
102
}
330
83F7
100
AcDbXrecord
280
     1
270
     1
271
     1
  0
XRECORD
  5
83FA
102
{ACAD_REACTORS
330
83F7
102
}
330
83F7
100
AcDbXrecord
280
     1
270
     1
271
     1
  0
XRECORD
  5
8671
102
{ACAD_REACTORS
330
8670
102
}
330
8670
100
AcDbXrecord
280
     1
102
DISPLAYNAME
  1
Imperial24
102
FLAGS
 90
        0
  0
CELLSTYLEMAP
  5
8638
102
{ACAD_REACTORS
330
8637
102
}
330
8637
100
AcDbCellStyleMap
 90
        3
300
CELLSTYLE
  1
TABLEFORMAT_BEGIN
 90
        5
170
     1
 91
        0
 92
    32768
 62
   257
 93
        1
300
CONTENTFORMAT
  1
CONTENTFORMAT_BEGIN
 90
        0
 91
        0
 92
      512
 93
        0
300

 40
0.0
140
1.0
 94
        5
 62
     0
340
842A
144
0.25
309
CONTENTFORMAT_END
171
     0
 94
        0
309
TABLEFORMAT_END
  1
CELLSTYLE_BEGIN
 90
        1
 91
        1
300
_TITLE
309
CELLSTYLE_END
300
CELLSTYLE
  1
TABLEFORMAT_BEGIN
 90
        5
170
     1
 91
        0
 92
        0
 62
   257
 93
        1
300
CONTENTFORMAT
  1
CONTENTFORMAT_BEGIN
 90
        0
 91
        0
 92
      512
 93
        0
300

 40
0.0
140
1.0
 94
        5
 62
     0
340
842A
144
0.18
309
CONTENTFORMAT_END
171
     0
 94
        0
309
TABLEFORMAT_END
  1
CELLSTYLE_BEGIN
 90
        2
 91
        1
300
_HEADER
309
CELLSTYLE_END
300
CELLSTYLE
  1
TABLEFORMAT_BEGIN
 90
        5
170
     1
 91
        0
 92
        0
 62
   257
 93
        1
300
CONTENTFORMAT
  1
CONTENTFORMAT_BEGIN
 90
        0
 91
        0
 92
      512
 93
        0
300

 40
0.0
140
1.0
 94
        2
 62
     0
340
842A
144
0.18
309
CONTENTFORMAT_END
171
     0
 94
        0
309
TABLEFORMAT_END
  1
CELLSTYLE_BEGIN
 90
        3
 91
        2
300
_DATA
309
CELLSTYLE_END
  0
XRECORD
  5
866E
102
{ACAD_REACTORS
330
8637
102
}
330
8637
100
AcDbXrecord
280
     1
102
ACAD_ROUNDTRIP_PRE2007_TABLESTYLE
 90
      512
 91
        0
  1

 92
      512
 93
        0
  2

 94
      512
 95
        0
  3

  0
XRECORD
  5
8649
102
{ACAD_REACTORS
330
8648
102
}
330
8648
100
AcDbXrecord
280
     1
102
RTVSPost2010Prop28
280
     1
102
RTVSPost2010PropOp28
 70
     1
102
RTVSPost2010Prop29
280
     1
102
RTVSPost2010PropOp29
 70
     1
102
RTVSPost2010Prop30
280
     0
102
RTVSPost2010PropOp30
 70
     1
102
RTVSPost2010Prop31
280
     0
102
RTVSPost2010PropOp31
 70
     1
102
RTVSPost2010Prop32
280
     0
102
RTVSPost2010PropOp32
 70
     1
102
RTVSPost2010Prop33
280
     0
102
RTVSPost2010PropOp33
 70
     1
102
RTVSPost2010Prop34
280
     0
102
RTVSPost2010PropOp34
 70
     1
102
RTVSPost2010Prop35
280
     0
102
RTVSPost2010PropOp35
 70
     1
102
RTVSPost2010Prop36
280
     0
102
RTVSPost2010PropOp36
 70
     1
102
RTVSPost2010Prop37
 90
       50
102
RTVSPost2010PropOp37
 70
     1
102
RTVSPost2010Prop38
140
0.0
102
RTVSPost2010PropOp38
 70
     1
102
RTVSPost2010Prop39
140
1.0
102
RTVSPost2010PropOp39
 70
     1
102
RTVSPost2010Prop40
 90
        0
102
RTVSPost2010PropOp40
 70
     1
102
RTVSPost2010Prop41ColorIndex
 90
       18
102
RTVSPost2010Prop41ColorRGB
 90
        0
102
RTVSPost2010PropOp41
 70
     1
102
RTVSPost2010Prop42
 90
       50
102
RTVSPost2010PropOp42
 70
     1
102
RTVSPost2010Prop43
 90
        3
102
RTVSPost2010PropOp43
 70
     1
102
RTVSPost2010Prop44ColorIndex
 90
        5
102
RTVSPost2010Prop44ColorRGB
 90
      255
102
RTVSPost2010PropOp44
 70
     1
102
RTVSPost2010Prop45
280
     0
102
RTVSPost2010PropOp45
 70
     1
102
RTVSPost2010Prop46
 90
       50
102
RTVSPost2010PropOp46
 70
     1
102
RTVSPost2010Prop47
 90
       50
102
RTVSPost2010PropOp47
 70
     1
102
RTVSPost2010Prop48
 90
       50
102
RTVSPost2010PropOp48
 70
     1
102
RTVSPost2010Prop49
280
     0
102
RTVSPost2010PropOp49
 70
     1
102
RTVSPost2010Prop50
 90
       50
102
RTVSPost2010PropOp50
 70
     1
102
RTVSPost2010Prop51ColorIndex
 90
      256
102
RTVSPost2010Prop51ColorRGB
 90
-16777216
102
RTVSPost2010PropOp51
 70
     0
102
RTVSPost2010Prop52
140
1.0
102
RTVSPost2010PropOp52
 70
     0
102
RTVSPost2010Prop53
 90
        2
102
RTVSPost2010PropOp53
 70
     1
102
RTVSPost2010Prop54
  1
strokes_ogs.tif
102
RTVSPost2010PropOp54
 70
     1
102
RTVSPost2010Prop55
280
     0
102
RTVSPost2010PropOp55
 70
     1
102
RTVSPost2010Prop56
140
1.0
102
RTVSPost2010PropOp56
 70
     1
102
RTVSPost2010Prop57
140
1.0
102
RTVSPost2010PropOp57
 70
     1
102
RTVSPropertyOp0
 70
     1
102
RTVSPropertyOp1
 70
     1
102
RTVSPropertyOp2
 70
     1
102
RTVSPropertyOp3
 70
     1
102
RTVSPropertyOp4
 70
     1
102
RTVSPropertyOp5
 70
     1
102
RTVSPropertyOp6
 70
     1
102
RTVSPropertyOp7
 70
     1
102
RTVSPropertyOp8
 70
     1
102
RTVSPropertyOp9
 70
     1
102
RTVSPropertyOp10
 70
     1
102
RTVSPropertyOp11
 70
     1
102
RTVSPropertyOp12
 70
     1
102
RTVSPropertyOp13
 70
     1
102
RTVSPropertyOp14
 70
     1
102
RTVSPropertyOp15
 70
     1
102
RTVSPropertyOp16
 70
     1
102
RTVSPropertyOp17
 70
     1
102
RTVSPropertyOp18
 70
     1
102
RTVSPropertyOp19
 70
     1
102
RTVSPropertyOp20
 70
     1
102
RTVSPropertyOp21
 70
     1
102
RTVSPropertyOp22
 70
     1
102
RTVSPropertyOp23
 70
     1
102
RTVSPropertyOp24
 70
     1
102
RTVSPropertyOp25
 70
     1
102
RTVSPropertyOp26
 70
     1
102
RTVSPropertyOp27
 70
     1
102
RTVSPropertyOp28
 70
     1
102
RTVSPropertyOp29
 70
     1
102
RTVSPropertyOp30
 70
     1
102
RTVSPropertyOp31
 70
     1
102
RTVSPropertyOp32
 70
     1
102
RTVSPropertyOp33
 70
     1
102
RTVSPropertyOp34
 70
     1
102
RTVSPropertyOp35
 70
     1
102
RTVSPropertyOp36
 70
     1
102
RTVSPropertyOp37
 70
     1
102
RTVSPropertyOp38
 70
     1
102
RTVSPropertyOp39
 70
     1
102
RTVSPropertyOp40
 70
     1
102
RTVSPropertyOp41
 70
     1
102
RTVSPropertyOp42
 70
     1
102
RTVSPropertyOp43
 70
     1
102
RTVSPropertyOp44
 70
     1
102
RTVSPropertyOp45
 70
     1
102
RTVSPropertyOp46
 70
     1
102
RTVSPropertyOp47
 70
     1
102
RTVSPropertyOp48
 70
     1
102
RTVSPropertyOp49
 70
     1
102
RTVSPropertyOp50
 70
     1
102
RTVSPropertyOp51
 70
     0
102
RTVSPropertyOp52
 70
     0
102
RTVSPropertyOp53
 70
     1
102
RTVSPropertyOp54
 70
     1
102
RTVSPropertyOp55
 70
     1
102
RTVSPropertyOp56
 70
     1
102
RTVSPropertyOp57
 70
     1
102
RTVSPropertyOp58
 70
     1
102
RTVSPropertyOp59
 70
     1
102
RTVSPropertyOp60
 70
     1
102
RTVSPropertyOp61
 70
     1
102
RTVSPropertyOp62
 70
     1
  0
XRECORD
  5
8647
102
{ACAD_REACTORS
330
8646
102
}
330
8646
100
AcDbXrecord
280
     1
102
RTVSPost2010Prop28
280
     0
102
RTVSPost2010PropOp28
 70
     1
102
RTVSPost2010Prop29
280
     1
102
RTVSPost2010PropOp29
 70
     1
102
RTVSPost2010Prop30
280
     1
102
RTVSPost2010PropOp30
 70
     1
102
RTVSPost2010Prop31
280
     0
102
RTVSPost2010PropOp31
 70
     1
102
RTVSPost2010Prop32
280
     0
102
RTVSPost2010PropOp32
 70
     1
102
RTVSPost2010Prop33
280
     0
102
RTVSPost2010PropOp33
 70
     1
102
RTVSPost2010Prop34
280
     0
102
RTVSPost2010PropOp34
 70
     1
102
RTVSPost2010Prop35
280
     0
102
RTVSPost2010PropOp35
 70
     1
102
RTVSPost2010Prop36
280
     0
102
RTVSPost2010PropOp36
 70
     1
102
RTVSPost2010Prop37
 90
       50
102
RTVSPost2010PropOp37
 70
     1
102
RTVSPost2010Prop38
140
0.0
102
RTVSPost2010PropOp38
 70
     1
102
RTVSPost2010Prop39
140
1.0
102
RTVSPost2010PropOp39
 70
     1
102
RTVSPost2010Prop40
 90
        0
102
RTVSPost2010PropOp40
 70
     1
102
RTVSPost2010Prop41ColorIndex
 90
       18
102
RTVSPost2010Prop41ColorRGB
 90
        0
102
RTVSPost2010PropOp41
 70
     1
102
RTVSPost2010Prop42
 90
       50
102
RTVSPost2010PropOp42
 70
     1
102
RTVSPost2010Prop43
 90
        3
102
RTVSPost2010PropOp43
 70
     1
102
RTVSPost2010Prop44ColorIndex
 90
        5
102
RTVSPost2010Prop44ColorRGB
 90
      255
102
RTVSPost2010PropOp44
 70
     1
102
RTVSPost2010Prop45
280
     0
102
RTVSPost2010PropOp45
 70
     1
102
RTVSPost2010Prop46
 90
       50
102
RTVSPost2010PropOp46
 70
     1
102
RTVSPost2010Prop47
 90
       50
102
RTVSPost2010PropOp47
 70
     1
102
RTVSPost2010Prop48
 90
       50
102
RTVSPost2010PropOp48
 70
     1
102
RTVSPost2010Prop49
280
     0
102
RTVSPost2010PropOp49
 70
     1
102
RTVSPost2010Prop50
 90
       50
102
RTVSPost2010PropOp50
 70
     1
102
RTVSPost2010Prop51ColorIndex
 90
      256
102
RTVSPost2010Prop51ColorRGB
 90
-16777216
102
RTVSPost2010PropOp51
 70
     0
102
RTVSPost2010Prop52
140
1.0
102
RTVSPost2010PropOp52
 70
     0
102
RTVSPost2010Prop53
 90
        2
102
RTVSPost2010PropOp53
 70
     1
102
RTVSPost2010Prop54
  1
strokes_ogs.tif
102
RTVSPost2010PropOp54
 70
     1
102
RTVSPost2010Prop55
280
     0
102
RTVSPost2010PropOp55
 70
     1
102
RTVSPost2010Prop56
140
1.0
102
RTVSPost2010PropOp56
 70
     1
102
RTVSPost2010Prop57
140
1.0
102
RTVSPost2010PropOp57
 70
     1
102
RTVSPropertyOp0
 70
     1
102
RTVSPropertyOp1
 70
     1
102
RTVSPropertyOp2
 70
     1
102
RTVSPropertyOp3
 70
     1
102
RTVSPropertyOp4
 70
     1
102
RTVSPropertyOp5
 70
     1
102
RTVSPropertyOp6
 70
     1
102
RTVSPropertyOp7
 70
     1
102
RTVSPropertyOp8
 70
     1
102
RTVSPropertyOp9
 70
     1
102
RTVSPropertyOp10
 70
     1
102
RTVSPropertyOp11
 70
     1
102
RTVSPropertyOp12
 70
     1
102
RTVSPropertyOp13
 70
     1
102
RTVSPropertyOp14
 70
     1
102
RTVSPropertyOp15
 70
     1
102
RTVSPropertyOp16
 70
     1
102
RTVSPropertyOp17
 70
     1
102
RTVSPropertyOp18
 70
     1
102
RTVSPropertyOp19
 70
     1
102
RTVSPropertyOp20
 70
     1
102
RTVSPropertyOp21
 70
     1
102
RTVSPropertyOp22
 70
     1
102
RTVSPropertyOp23
 70
     1
102
RTVSPropertyOp24
 70
     1
102
RTVSPropertyOp25
 70
     1
102
RTVSPropertyOp26
 70
     1
102
RTVSPropertyOp27
 70
     1
102
RTVSPropertyOp28
 70
     1
102
RTVSPropertyOp29
 70
     1
102
RTVSPropertyOp30
 70
     1
102
RTVSPropertyOp31
 70
     1
102
RTVSPropertyOp32
 70
     1
102
RTVSPropertyOp33
 70
     1
102
RTVSPropertyOp34
 70
     1
102
RTVSPropertyOp35
 70
     1
102
RTVSPropertyOp36
 70
     1
102
RTVSPropertyOp37
 70
     1
102
RTVSPropertyOp38
 70
     1
102
RTVSPropertyOp39
 70
     1
102
RTVSPropertyOp40
 70
     1
102
RTVSPropertyOp41
 70
     1
102
RTVSPropertyOp42
 70
     1
102
RTVSPropertyOp43
 70
     1
102
RTVSPropertyOp44
 70
     1
102
RTVSPropertyOp45
 70
     1
102
RTVSPropertyOp46
 70
     1
102
RTVSPropertyOp47
 70
     1
102
RTVSPropertyOp48
 70
     1
102
RTVSPropertyOp49
 70
     1
102
RTVSPropertyOp50
 70
     1
102
RTVSPropertyOp51
 70
     0
102
RTVSPropertyOp52
 70
     0
102
RTVSPropertyOp53
 70
     1
102
RTVSPropertyOp54
 70
     1
102
RTVSPropertyOp55
 70
     1
102
RTVSPropertyOp56
 70
     1
102
RTVSPropertyOp57
 70
     1
102
RTVSPropertyOp58
 70
     1
102
RTVSPropertyOp59
 70
     1
102
RTVSPropertyOp60
 70
     1
102
RTVSPropertyOp61
 70
     1
102
RTVSPropertyOp62
 70
     1
  0
XRECORD
  5
8655
102
{ACAD_REACTORS
330
8654
102
}
330
8654
100
AcDbXrecord
280
     1
102
RTVSPost2010Prop28
280
     0
102
RTVSPost2010PropOp28
 70
     1
102
RTVSPost2010Prop29
280
     1
102
RTVSPost2010PropOp29
 70
     1
102
RTVSPost2010Prop30
280
     1
102
RTVSPost2010PropOp30
 70
     1
102
RTVSPost2010Prop31
280
     0
102
RTVSPost2010PropOp31
 70
     1
102
RTVSPost2010Prop32
280
     0
102
RTVSPost2010PropOp32
 70
     1
102
RTVSPost2010Prop33
280
     0
102
RTVSPost2010PropOp33
 70
     1
102
RTVSPost2010Prop34
280
     0
102
RTVSPost2010PropOp34
 70
     1
102
RTVSPost2010Prop35
280
     0
102
RTVSPost2010PropOp35
 70
     1
102
RTVSPost2010Prop36
280
     0
102
RTVSPost2010PropOp36
 70
     1
102
RTVSPost2010Prop37
 90
       50
102
RTVSPost2010PropOp37
 70
     1
102
RTVSPost2010Prop38
140
0.0
102
RTVSPost2010PropOp38
 70
     1
102
RTVSPost2010Prop39
140
1.0
102
RTVSPost2010PropOp39
 70
     1
102
RTVSPost2010Prop40
 90
        0
102
RTVSPost2010PropOp40
 70
     1
102
RTVSPost2010Prop41ColorIndex
 90
       18
102
RTVSPost2010Prop41ColorRGB
 90
        0
102
RTVSPost2010PropOp41
 70
     1
102
RTVSPost2010Prop42
 90
       50
102
RTVSPost2010PropOp42
 70
     1
102
RTVSPost2010Prop43
 90
        3
102
RTVSPost2010PropOp43
 70
     1
102
RTVSPost2010Prop44ColorIndex
 90
        5
102
RTVSPost2010Prop44ColorRGB
 90
      255
102
RTVSPost2010PropOp44
 70
     1
102
RTVSPost2010Prop45
280
     0
102
RTVSPost2010PropOp45
 70
     1
102
RTVSPost2010Prop46
 90
       50
102
RTVSPost2010PropOp46
 70
     1
102
RTVSPost2010Prop47
 90
       50
102
RTVSPost2010PropOp47
 70
     1
102
RTVSPost2010Prop48
 90
       50
102
RTVSPost2010PropOp48
 70
     1
102
RTVSPost2010Prop49
280
     0
102
RTVSPost2010PropOp49
 70
     1
102
RTVSPost2010Prop50
 90
       50
102
RTVSPost2010PropOp50
 70
     1
102
RTVSPost2010Prop51ColorIndex
 90
      256
102
RTVSPost2010Prop51ColorRGB
 90
-16777216
102
RTVSPost2010PropOp51
 70
     0
102
RTVSPost2010Prop52
140
1.0
102
RTVSPost2010PropOp52
 70
     0
102
RTVSPost2010Prop53
 90
        2
102
RTVSPost2010PropOp53
 70
     1
102
RTVSPost2010Prop54
  1
strokes_ogs.tif
102
RTVSPost2010PropOp54
 70
     1
102
RTVSPost2010Prop55
280
     0
102
RTVSPost2010PropOp55
 70
     1
102
RTVSPost2010Prop56
140
1.0
102
RTVSPost2010PropOp56
 70
     1
102
RTVSPost2010Prop57
140
1.0
102
RTVSPost2010PropOp57
 70
     1
102
RTVSPropertyOp0
 70
     1
102
RTVSPropertyOp1
 70
     1
102
RTVSPropertyOp2
 70
     1
102
RTVSPropertyOp3
 70
     1
102
RTVSPropertyOp4
 70
     1
102
RTVSPropertyOp5
 70
     1
102
RTVSPropertyOp6
 70
     1
102
RTVSPropertyOp7
 70
     1
102
RTVSPropertyOp8
 70
     1
102
RTVSPropertyOp9
 70
     1
102
RTVSPropertyOp10
 70
     1
102
RTVSPropertyOp11
 70
     1
102
RTVSPropertyOp12
 70
     1
102
RTVSPropertyOp13
 70
     1
102
RTVSPropertyOp14
 70
     1
102
RTVSPropertyOp15
 70
     1
102
RTVSPropertyOp16
 70
     1
102
RTVSPropertyOp17
 70
     1
102
RTVSPropertyOp18
 70
     1
102
RTVSPropertyOp19
 70
     1
102
RTVSPropertyOp20
 70
     1
102
RTVSPropertyOp21
 70
     1
102
RTVSPropertyOp22
 70
     1
102
RTVSPropertyOp23
 70
     1
102
RTVSPropertyOp24
 70
     1
102
RTVSPropertyOp25
 70
     1
102
RTVSPropertyOp26
 70
     1
102
RTVSPropertyOp27
 70
     1
102
RTVSPropertyOp28
 70
     1
102
RTVSPropertyOp29
 70
     1
102
RTVSPropertyOp30
 70
     1
102
RTVSPropertyOp31
 70
     1
102
RTVSPropertyOp32
 70
     1
102
RTVSPropertyOp33
 70
     1
102
RTVSPropertyOp34
 70
     1
102
RTVSPropertyOp35
 70
     1
102
RTVSPropertyOp36
 70
     1
102
RTVSPropertyOp37
 70
     1
102
RTVSPropertyOp38
 70
     1
102
RTVSPropertyOp39
 70
     1
102
RTVSPropertyOp40
 70
     1
102
RTVSPropertyOp41
 70
     1
102
RTVSPropertyOp42
 70
     1
102
RTVSPropertyOp43
 70
     1
102
RTVSPropertyOp44
 70
     1
102
RTVSPropertyOp45
 70
     1
102
RTVSPropertyOp46
 70
     1
102
RTVSPropertyOp47
 70
     1
102
RTVSPropertyOp48
 70
     1
102
RTVSPropertyOp49
 70
     1
102
RTVSPropertyOp50
 70
     1
102
RTVSPropertyOp51
 70
     0
102
RTVSPropertyOp52
 70
     0
102
RTVSPropertyOp53
 70
     1
102
RTVSPropertyOp54
 70
     1
102
RTVSPropertyOp55
 70
     1
102
RTVSPropertyOp56
 70
     1
102
RTVSPropertyOp57
 70
     1
102
RTVSPropertyOp58
 70
     1
102
RTVSPropertyOp59
 70
     1
102
RTVSPropertyOp60
 70
     1
102
RTVSPropertyOp61
 70
     1
102
RTVSPropertyOp62
 70
     1
  0
XRECORD
  5
865D
102
{ACAD_REACTORS
330
865C
102
}
330
865C
100
AcDbXrecord
280
     1
102
RTVSPost2010Prop28
280
     0
102
RTVSPost2010PropOp28
 70
     1
102
RTVSPost2010Prop29
280
     1
102
RTVSPost2010PropOp29
 70
     1
102
RTVSPost2010Prop30
280
     1
102
RTVSPost2010PropOp30
 70
     1
102
RTVSPost2010Prop31
280
     0
102
RTVSPost2010PropOp31
 70
     1
102
RTVSPost2010Prop32
280
     0
102
RTVSPost2010PropOp32
 70
     1
102
RTVSPost2010Prop33
280
     0
102
RTVSPost2010PropOp33
 70
     1
102
RTVSPost2010Prop34
280
     0
102
RTVSPost2010PropOp34
 70
     1
102
RTVSPost2010Prop35
280
     0
102
RTVSPost2010PropOp35
 70
     1
102
RTVSPost2010Prop36
280
     0
102
RTVSPost2010PropOp36
 70
     1
102
RTVSPost2010Prop37
 90
       50
102
RTVSPost2010PropOp37
 70
     1
102
RTVSPost2010Prop38
140
0.0
102
RTVSPost2010PropOp38
 70
     1
102
RTVSPost2010Prop39
140
1.0
102
RTVSPost2010PropOp39
 70
     1
102
RTVSPost2010Prop40
 90
        0
102
RTVSPost2010PropOp40
 70
     1
102
RTVSPost2010Prop41ColorIndex
 90
       18
102
RTVSPost2010Prop41ColorRGB
 90
        0
102
RTVSPost2010PropOp41
 70
     1
102
RTVSPost2010Prop42
 90
       50
102
RTVSPost2010PropOp42
 70
     1
102
RTVSPost2010Prop43
 90
        3
102
RTVSPost2010PropOp43
 70
     1
102
RTVSPost2010Prop44ColorIndex
 90
        5
102
RTVSPost2010Prop44ColorRGB
 90
      255
102
RTVSPost2010PropOp44
 70
     1
102
RTVSPost2010Prop45
280
     0
102
RTVSPost2010PropOp45
 70
     1
102
RTVSPost2010Prop46
 90
       50
102
RTVSPost2010PropOp46
 70
     1
102
RTVSPost2010Prop47
 90
       50
102
RTVSPost2010PropOp47
 70
     1
102
RTVSPost2010Prop48
 90
       50
102
RTVSPost2010PropOp48
 70
     1
102
RTVSPost2010Prop49
280
     0
102
RTVSPost2010PropOp49
 70
     1
102
RTVSPost2010Prop50
 90
       50
102
RTVSPost2010PropOp50
 70
     1
102
RTVSPost2010Prop51ColorIndex
 90
      256
102
RTVSPost2010Prop51ColorRGB
 90
-16777216
102
RTVSPost2010PropOp51
 70
     0
102
RTVSPost2010Prop52
140
1.0
102
RTVSPost2010PropOp52
 70
     0
102
RTVSPost2010Prop53
 90
        2
102
RTVSPost2010PropOp53
 70
     1
102
RTVSPost2010Prop54
  1
strokes_ogs.tif
102
RTVSPost2010PropOp54
 70
     1
102
RTVSPost2010Prop55
280
     0
102
RTVSPost2010PropOp55
 70
     1
102
RTVSPost2010Prop56
140
1.0
102
RTVSPost2010PropOp56
 70
     1
102
RTVSPost2010Prop57
140
1.0
102
RTVSPost2010PropOp57
 70
     1
102
RTVSPropertyOp0
 70
     1
102
RTVSPropertyOp1
 70
     1
102
RTVSPropertyOp2
 70
     1
102
RTVSPropertyOp3
 70
     1
102
RTVSPropertyOp4
 70
     1
102
RTVSPropertyOp5
 70
     1
102
RTVSPropertyOp6
 70
     1
102
RTVSPropertyOp7
 70
     1
102
RTVSPropertyOp8
 70
     1
102
RTVSPropertyOp9
 70
     1
102
RTVSPropertyOp10
 70
     1
102
RTVSPropertyOp11
 70
     1
102
RTVSPropertyOp12
 70
     1
102
RTVSPropertyOp13
 70
     1
102
RTVSPropertyOp14
 70
     1
102
RTVSPropertyOp15
 70
     1
102
RTVSPropertyOp16
 70
     1
102
RTVSPropertyOp17
 70
     1
102
RTVSPropertyOp18
 70
     1
102
RTVSPropertyOp19
 70
     1
102
RTVSPropertyOp20
 70
     1
102
RTVSPropertyOp21
 70
     1
102
RTVSPropertyOp22
 70
     1
102
RTVSPropertyOp23
 70
     1
102
RTVSPropertyOp24
 70
     1
102
RTVSPropertyOp25
 70
     1
102
RTVSPropertyOp26
 70
     1
102
RTVSPropertyOp27
 70
     1
102
RTVSPropertyOp28
 70
     1
102
RTVSPropertyOp29
 70
     1
102
RTVSPropertyOp30
 70
     1
102
RTVSPropertyOp31
 70
     1
102
RTVSPropertyOp32
 70
     1
102
RTVSPropertyOp33
 70
     1
102
RTVSPropertyOp34
 70
     1
102
RTVSPropertyOp35
 70
     1
102
RTVSPropertyOp36
 70
     1
102
RTVSPropertyOp37
 70
     1
102
RTVSPropertyOp38
 70
     1
102
RTVSPropertyOp39
 70
     1
102
RTVSPropertyOp40
 70
     1
102
RTVSPropertyOp41
 70
     1
102
RTVSPropertyOp42
 70
     1
102
RTVSPropertyOp43
 70
     1
102
RTVSPropertyOp44
 70
     1
102
RTVSPropertyOp45
 70
     1
102
RTVSPropertyOp46
 70
     1
102
RTVSPropertyOp47
 70
     1
102
RTVSPropertyOp48
 70
     1
102
RTVSPropertyOp49
 70
     1
102
RTVSPropertyOp50
 70
     1
102
RTVSPropertyOp51
 70
     0
102
RTVSPropertyOp52
 70
     0
102
RTVSPropertyOp53
 70
     1
102
RTVSPropertyOp54
 70
     1
102
RTVSPropertyOp55
 70
     1
102
RTVSPropertyOp56
 70
     1
102
RTVSPropertyOp57
 70
     1
102
RTVSPropertyOp58
 70
     1
102
RTVSPropertyOp59
 70
     1
102
RTVSPropertyOp60
 70
     1
102
RTVSPropertyOp61
 70
     1
102
RTVSPropertyOp62
 70
     1
  0
XRECORD
  5
864F
102
{ACAD_REACTORS
330
864E
102
}
330
864E
100
AcDbXrecord
280
     1
102
RTVSPost2010Prop28
280
     0
102
RTVSPost2010PropOp28
 70
     1
102
RTVSPost2010Prop29
280
     1
102
RTVSPost2010PropOp29
 70
     1
102
RTVSPost2010Prop30
280
     1
102
RTVSPost2010PropOp30
 70
     1
102
RTVSPost2010Prop31
280
     0
102
RTVSPost2010PropOp31
 70
     1
102
RTVSPost2010Prop32
280
     0
102
RTVSPost2010PropOp32
 70
     1
102
RTVSPost2010Prop33
280
     0
102
RTVSPost2010PropOp33
 70
     1
102
RTVSPost2010Prop34
280
     0
102
RTVSPost2010PropOp34
 70
     1
102
RTVSPost2010Prop35
280
     0
102
RTVSPost2010PropOp35
 70
     1
102
RTVSPost2010Prop36
280
     0
102
RTVSPost2010PropOp36
 70
     1
102
RTVSPost2010Prop37
 90
       50
102
RTVSPost2010PropOp37
 70
     1
102
RTVSPost2010Prop38
140
0.0
102
RTVSPost2010PropOp38
 70
     1
102
RTVSPost2010Prop39
140
1.0
102
RTVSPost2010PropOp39
 70
     1
102
RTVSPost2010Prop40
 90
        0
102
RTVSPost2010PropOp40
 70
     1
102
RTVSPost2010Prop41ColorIndex
 90
       18
102
RTVSPost2010Prop41ColorRGB
 90
        0
102
RTVSPost2010PropOp41
 70
     1
102
RTVSPost2010Prop42
 90
       50
102
RTVSPost2010PropOp42
 70
     1
102
RTVSPost2010Prop43
 90
        3
102
RTVSPost2010PropOp43
 70
     1
102
RTVSPost2010Prop44ColorIndex
 90
        5
102
RTVSPost2010Prop44ColorRGB
 90
      255
102
RTVSPost2010PropOp44
 70
     1
102
RTVSPost2010Prop45
280
     0
102
RTVSPost2010PropOp45
 70
     1
102
RTVSPost2010Prop46
 90
       50
102
RTVSPost2010PropOp46
 70
     1
102
RTVSPost2010Prop47
 90
       50
102
RTVSPost2010PropOp47
 70
     1
102
RTVSPost2010Prop48
 90
       50
102
RTVSPost2010PropOp48
 70
     1
102
RTVSPost2010Prop49
280
     0
102
RTVSPost2010PropOp49
 70
     1
102
RTVSPost2010Prop50
 90
       50
102
RTVSPost2010PropOp50
 70
     1
102
RTVSPost2010Prop51ColorIndex
 90
      256
102
RTVSPost2010Prop51ColorRGB
 90
-16777216
102
RTVSPost2010PropOp51
 70
     0
102
RTVSPost2010Prop52
140
1.0
102
RTVSPost2010PropOp52
 70
     0
102
RTVSPost2010Prop53
 90
        2
102
RTVSPost2010PropOp53
 70
     1
102
RTVSPost2010Prop54
  1
strokes_ogs.tif
102
RTVSPost2010PropOp54
 70
     1
102
RTVSPost2010Prop55
280
     0
102
RTVSPost2010PropOp55
 70
     1
102
RTVSPost2010Prop56
140
1.0
102
RTVSPost2010PropOp56
 70
     1
102
RTVSPost2010Prop57
140
1.0
102
RTVSPost2010PropOp57
 70
     1
102
RTVSPropertyOp0
 70
     1
102
RTVSPropertyOp1
 70
     1
102
RTVSPropertyOp2
 70
     1
102
RTVSPropertyOp3
 70
     1
102
RTVSPropertyOp4
 70
     1
102
RTVSPropertyOp5
 70
     1
102
RTVSPropertyOp6
 70
     1
102
RTVSPropertyOp7
 70
     1
102
RTVSPropertyOp8
 70
     1
102
RTVSPropertyOp9
 70
     1
102
RTVSPropertyOp10
 70
     1
102
RTVSPropertyOp11
 70
     1
102
RTVSPropertyOp12
 70
     1
102
RTVSPropertyOp13
 70
     1
102
RTVSPropertyOp14
 70
     1
102
RTVSPropertyOp15
 70
     1
102
RTVSPropertyOp16
 70
     1
102
RTVSPropertyOp17
 70
     1
102
RTVSPropertyOp18
 70
     1
102
RTVSPropertyOp19
 70
     1
102
RTVSPropertyOp20
 70
     1
102
RTVSPropertyOp21
 70
     1
102
RTVSPropertyOp22
 70
     1
102
RTVSPropertyOp23
 70
     1
102
RTVSPropertyOp24
 70
     1
102
RTVSPropertyOp25
 70
     1
102
RTVSPropertyOp26
 70
     1
102
RTVSPropertyOp27
 70
     1
102
RTVSPropertyOp28
 70
     1
102
RTVSPropertyOp29
 70
     1
102
RTVSPropertyOp30
 70
     1
102
RTVSPropertyOp31
 70
     1
102
RTVSPropertyOp32
 70
     1
102
RTVSPropertyOp33
 70
     1
102
RTVSPropertyOp34
 70
     1
102
RTVSPropertyOp35
 70
     1
102
RTVSPropertyOp36
 70
     1
102
RTVSPropertyOp37
 70
     1
102
RTVSPropertyOp38
 70
     1
102
RTVSPropertyOp39
 70
     1
102
RTVSPropertyOp40
 70
     1
102
RTVSPropertyOp41
 70
     1
102
RTVSPropertyOp42
 70
     1
102
RTVSPropertyOp43
 70
     1
102
RTVSPropertyOp44
 70
     1
102
RTVSPropertyOp45
 70
     1
102
RTVSPropertyOp46
 70
     1
102
RTVSPropertyOp47
 70
     1
102
RTVSPropertyOp48
 70
     1
102
RTVSPropertyOp49
 70
     1
102
RTVSPropertyOp50
 70
     1
102
RTVSPropertyOp51
 70
     0
102
RTVSPropertyOp52
 70
     0
102
RTVSPropertyOp53
 70
     1
102
RTVSPropertyOp54
 70
     1
102
RTVSPropertyOp55
 70
     1
102
RTVSPropertyOp56
 70
     1
102
RTVSPropertyOp57
 70
     1
102
RTVSPropertyOp58
 70
     1
102
RTVSPropertyOp59
 70
     1
102
RTVSPropertyOp60
 70
     1
102
RTVSPropertyOp61
 70
     1
102
RTVSPropertyOp62
 70
     1
  0
XRECORD
  5
8653
102
{ACAD_REACTORS
330
8652
102
}
330
8652
100
AcDbXrecord
280
     1
102
RTVSPost2010Prop28
280
     0
102
RTVSPost2010PropOp28
 70
     1
102
RTVSPost2010Prop29
280
     1
102
RTVSPost2010PropOp29
 70
     1
102
RTVSPost2010Prop30
280
     1
102
RTVSPost2010PropOp30
 70
     1
102
RTVSPost2010Prop31
280
     0
102
RTVSPost2010PropOp31
 70
     1
102
RTVSPost2010Prop32
280
     0
102
RTVSPost2010PropOp32
 70
     1
102
RTVSPost2010Prop33
280
     0
102
RTVSPost2010PropOp33
 70
     1
102
RTVSPost2010Prop34
280
     0
102
RTVSPost2010PropOp34
 70
     1
102
RTVSPost2010Prop35
280
     0
102
RTVSPost2010PropOp35
 70
     1
102
RTVSPost2010Prop36
280
     0
102
RTVSPost2010PropOp36
 70
     1
102
RTVSPost2010Prop37
 90
       50
102
RTVSPost2010PropOp37
 70
     1
102
RTVSPost2010Prop38
140
0.0
102
RTVSPost2010PropOp38
 70
     1
102
RTVSPost2010Prop39
140
1.0
102
RTVSPost2010PropOp39
 70
     1
102
RTVSPost2010Prop40
 90
        0
102
RTVSPost2010PropOp40
 70
     1
102
RTVSPost2010Prop41ColorIndex
 90
       18
102
RTVSPost2010Prop41ColorRGB
 90
        0
102
RTVSPost2010PropOp41
 70
     1
102
RTVSPost2010Prop42
 90
       50
102
RTVSPost2010PropOp42
 70
     1
102
RTVSPost2010Prop43
 90
        3
102
RTVSPost2010PropOp43
 70
     1
102
RTVSPost2010Prop44ColorIndex
 90
        5
102
RTVSPost2010Prop44ColorRGB
 90
      255
102
RTVSPost2010PropOp44
 70
     1
102
RTVSPost2010Prop45
280
     0
102
RTVSPost2010PropOp45
 70
     1
102
RTVSPost2010Prop46
 90
       50
102
RTVSPost2010PropOp46
 70
     1
102
RTVSPost2010Prop47
 90
       50
102
RTVSPost2010PropOp47
 70
     1
102
RTVSPost2010Prop48
 90
       50
102
RTVSPost2010PropOp48
 70
     1
102
RTVSPost2010Prop49
280
     0
102
RTVSPost2010PropOp49
 70
     1
102
RTVSPost2010Prop50
 90
       50
102
RTVSPost2010PropOp50
 70
     1
102
RTVSPost2010Prop51ColorIndex
 90
      256
102
RTVSPost2010Prop51ColorRGB
 90
-16777216
102
RTVSPost2010PropOp51
 70
     0
102
RTVSPost2010Prop52
140
1.0
102
RTVSPost2010PropOp52
 70
     0
102
RTVSPost2010Prop53
 90
        2
102
RTVSPost2010PropOp53
 70
     1
102
RTVSPost2010Prop54
  1
strokes_ogs.tif
102
RTVSPost2010PropOp54
 70
     1
102
RTVSPost2010Prop55
280
     0
102
RTVSPost2010PropOp55
 70
     1
102
RTVSPost2010Prop56
140
1.0
102
RTVSPost2010PropOp56
 70
     1
102
RTVSPost2010Prop57
140
1.0
102
RTVSPost2010PropOp57
 70
     1
102
RTVSPropertyOp0
 70
     1
102
RTVSPropertyOp1
 70
     1
102
RTVSPropertyOp2
 70
     1
102
RTVSPropertyOp3
 70
     1
102
RTVSPropertyOp4
 70
     1
102
RTVSPropertyOp5
 70
     1
102
RTVSPropertyOp6
 70
     1
102
RTVSPropertyOp7
 70
     1
102
RTVSPropertyOp8
 70
     1
102
RTVSPropertyOp9
 70
     1
102
RTVSPropertyOp10
 70
     1
102
RTVSPropertyOp11
 70
     1
102
RTVSPropertyOp12
 70
     1
102
RTVSPropertyOp13
 70
     1
102
RTVSPropertyOp14
 70
     1
102
RTVSPropertyOp15
 70
     1
102
RTVSPropertyOp16
 70
     1
102
RTVSPropertyOp17
 70
     1
102
RTVSPropertyOp18
 70
     1
102
RTVSPropertyOp19
 70
     1
102
RTVSPropertyOp20
 70
     1
102
RTVSPropertyOp21
 70
     1
102
RTVSPropertyOp22
 70
     1
102
RTVSPropertyOp23
 70
     1
102
RTVSPropertyOp24
 70
     1
102
RTVSPropertyOp25
 70
     1
102
RTVSPropertyOp26
 70
     1
102
RTVSPropertyOp27
 70
     1
102
RTVSPropertyOp28
 70
     1
102
RTVSPropertyOp29
 70
     1
102
RTVSPropertyOp30
 70
     1
102
RTVSPropertyOp31
 70
     1
102
RTVSPropertyOp32
 70
     1
102
RTVSPropertyOp33
 70
     1
102
RTVSPropertyOp34
 70
     1
102
RTVSPropertyOp35
 70
     1
102
RTVSPropertyOp36
 70
     1
102
RTVSPropertyOp37
 70
     1
102
RTVSPropertyOp38
 70
     1
102
RTVSPropertyOp39
 70
     1
102
RTVSPropertyOp40
 70
     1
102
RTVSPropertyOp41
 70
     1
102
RTVSPropertyOp42
 70
     1
102
RTVSPropertyOp43
 70
     1
102
RTVSPropertyOp44
 70
     1
102
RTVSPropertyOp45
 70
     1
102
RTVSPropertyOp46
 70
     1
102
RTVSPropertyOp47
 70
     1
102
RTVSPropertyOp48
 70
     1
102
RTVSPropertyOp49
 70
     1
102
RTVSPropertyOp50
 70
     1
102
RTVSPropertyOp51
 70
     0
102
RTVSPropertyOp52
 70
     0
102
RTVSPropertyOp53
 70
     1
102
RTVSPropertyOp54
 70
     1
102
RTVSPropertyOp55
 70
     1
102
RTVSPropertyOp56
 70
     1
102
RTVSPropertyOp57
 70
     1
102
RTVSPropertyOp58
 70
     1
102
RTVSPropertyOp59
 70
     1
102
RTVSPropertyOp60
 70
     1
102
RTVSPropertyOp61
 70
     1
102
RTVSPropertyOp62
 70
     1
  0
XRECORD
  5
866D
102
{ACAD_REACTORS
330
866C
102
}
330
866C
100
AcDbXrecord
280
     1
102
RTVSPost2010Prop28
280
     0
102
RTVSPost2010PropOp28
 70
     1
102
RTVSPost2010Prop29
280
     1
102
RTVSPost2010PropOp29
 70
     1
102
RTVSPost2010Prop30
280
     1
102
RTVSPost2010PropOp30
 70
     1
102
RTVSPost2010Prop31
280
     0
102
RTVSPost2010PropOp31
 70
     1
102
RTVSPost2010Prop32
280
     0
102
RTVSPost2010PropOp32
 70
     1
102
RTVSPost2010Prop33
280
     0
102
RTVSPost2010PropOp33
 70
     1
102
RTVSPost2010Prop34
280
     0
102
RTVSPost2010PropOp34
 70
     1
102
RTVSPost2010Prop35
280
     0
102
RTVSPost2010PropOp35
 70
     1
102
RTVSPost2010Prop36
280
     0
102
RTVSPost2010PropOp36
 70
     1
102
RTVSPost2010Prop37
 90
       50
102
RTVSPost2010PropOp37
 70
     0
102
RTVSPost2010Prop38
140
0.0
102
RTVSPost2010PropOp38
 70
     0
102
RTVSPost2010Prop39
140
1.0
102
RTVSPost2010PropOp39
 70
     0
102
RTVSPost2010Prop40
 90
        0
102
RTVSPost2010PropOp40
 70
     0
102
RTVSPost2010Prop41ColorIndex
 90
       18
102
RTVSPost2010Prop41ColorRGB
 90
        0
102
RTVSPost2010PropOp41
 70
     0
102
RTVSPost2010Prop42
 90
       50
102
RTVSPost2010PropOp42
 70
     0
102
RTVSPost2010Prop43
 90
        3
102
RTVSPost2010PropOp43
 70
     0
102
RTVSPost2010Prop44ColorIndex
 90
        5
102
RTVSPost2010Prop44ColorRGB
 90
      255
102
RTVSPost2010PropOp44
 70
     0
102
RTVSPost2010Prop45
280
     0
102
RTVSPost2010PropOp45
 70
     1
102
RTVSPost2010Prop46
 90
       50
102
RTVSPost2010PropOp46
 70
     0
102
RTVSPost2010Prop47
 90
       50
102
RTVSPost2010PropOp47
 70
     0
102
RTVSPost2010Prop48
 90
       50
102
RTVSPost2010PropOp48
 70
     0
102
RTVSPost2010Prop49
280
     0
102
RTVSPost2010PropOp49
 70
     1
102
RTVSPost2010Prop50
 90
       50
102
RTVSPost2010PropOp50
 70
     0
102
RTVSPost2010Prop51ColorIndex
 90
      256
102
RTVSPost2010Prop51ColorRGB
 90
-16777216
102
RTVSPost2010PropOp51
 70
     0
102
RTVSPost2010Prop52
140
1.0
102
RTVSPost2010PropOp52
 70
     0
102
RTVSPost2010Prop53
 90
        2
102
RTVSPost2010PropOp53
 70
     0
102
RTVSPost2010Prop54
  1
strokes_ogs.tif
102
RTVSPost2010PropOp54
 70
     0
102
RTVSPost2010Prop55
280
     0
102
RTVSPost2010PropOp55
 70
     1
102
RTVSPost2010Prop56
140
1.0
102
RTVSPost2010PropOp56
 70
     0
102
RTVSPost2010Prop57
140
1.0
102
RTVSPost2010PropOp57
 70
     0
102
RTVSPropertyOp0
 70
     0
102
RTVSPropertyOp1
 70
     0
102
RTVSPropertyOp2
 70
     0
102
RTVSPropertyOp3
 70
     0
102
RTVSPropertyOp4
 70
     0
102
RTVSPropertyOp5
 70
     0
102
RTVSPropertyOp6
 70
     0
102
RTVSPropertyOp7
 70
     0
102
RTVSPropertyOp8
 70
     0
102
RTVSPropertyOp9
 70
     0
102
RTVSPropertyOp10
 70
     0
102
RTVSPropertyOp11
 70
     0
102
RTVSPropertyOp12
 70
     0
102
RTVSPropertyOp13
 70
     0
102
RTVSPropertyOp14
 70
     2
102
RTVSPropertyOp15
 70
     0
102
RTVSPropertyOp16
 70
     0
102
RTVSPropertyOp17
 70
     0
102
RTVSPropertyOp18
 70
     0
102
RTVSPropertyOp19
 70
     0
102
RTVSPropertyOp20
 70
     0
102
RTVSPropertyOp21
 70
     0
102
RTVSPropertyOp22
 70
     0
102
RTVSPropertyOp23
 70
     0
102
RTVSPropertyOp24
 70
     0
102
RTVSPropertyOp25
 70
     0
102
RTVSPropertyOp26
 70
     0
102
RTVSPropertyOp27
 70
     0
102
RTVSPropertyOp28
 70
     1
102
RTVSPropertyOp29
 70
     1
102
RTVSPropertyOp30
 70
     1
102
RTVSPropertyOp31
 70
     1
102
RTVSPropertyOp32
 70
     1
102
RTVSPropertyOp33
 70
     1
102
RTVSPropertyOp34
 70
     1
102
RTVSPropertyOp35
 70
     1
102
RTVSPropertyOp36
 70
     1
102
RTVSPropertyOp37
 70
     0
102
RTVSPropertyOp38
 70
     0
102
RTVSPropertyOp39
 70
     0
102
RTVSPropertyOp40
 70
     0
102
RTVSPropertyOp41
 70
     0
102
RTVSPropertyOp42
 70
     0
102
RTVSPropertyOp43
 70
     0
102
RTVSPropertyOp44
 70
     0
102
RTVSPropertyOp45
 70
     1
102
RTVSPropertyOp46
 70
     0
102
RTVSPropertyOp47
 70
     0
102
RTVSPropertyOp48
 70
     0
102
RTVSPropertyOp49
 70
     1
102
RTVSPropertyOp50
 70
     0
102
RTVSPropertyOp51
 70
     0
102
RTVSPropertyOp52
 70
     0
102
RTVSPropertyOp53
 70
     0
102
RTVSPropertyOp54
 70
     0
102
RTVSPropertyOp55
 70
     1
102
RTVSPropertyOp56
 70
     0
102
RTVSPropertyOp57
 70
     0
102
RTVSPropertyOp58
 70
     0
102
RTVSPropertyOp59
 70
     0
102
RTVSPropertyOp60
 70
     0
102
RTVSPropertyOp61
 70
     0
102
RTVSPropertyOp62
 70
     0
  0
XRECORD
  5
865B
102
{ACAD_REACTORS
330
865A
102
}
330
865A
100
AcDbXrecord
280
     1
102
RTVSPost2010Prop28
280
     0
102
RTVSPost2010PropOp28
 70
     1
102
RTVSPost2010Prop29
280
     1
102
RTVSPost2010PropOp29
 70
     1
102
RTVSPost2010Prop30
280
     1
102
RTVSPost2010PropOp30
 70
     1
102
RTVSPost2010Prop31
280
     0
102
RTVSPost2010PropOp31
 70
     1
102
RTVSPost2010Prop32
280
     0
102
RTVSPost2010PropOp32
 70
     1
102
RTVSPost2010Prop33
280
     0
102
RTVSPost2010PropOp33
 70
     1
102
RTVSPost2010Prop34
280
     0
102
RTVSPost2010PropOp34
 70
     1
102
RTVSPost2010Prop35
280
     0
102
RTVSPost2010PropOp35
 70
     1
102
RTVSPost2010Prop36
280
     0
102
RTVSPost2010PropOp36
 70
     1
102
RTVSPost2010Prop37
 90
       50
102
RTVSPost2010PropOp37
 70
     1
102
RTVSPost2010Prop38
140
0.0
102
RTVSPost2010PropOp38
 70
     1
102
RTVSPost2010Prop39
140
1.0
102
RTVSPost2010PropOp39
 70
     1
102
RTVSPost2010Prop40
 90
        0
102
RTVSPost2010PropOp40
 70
     1
102
RTVSPost2010Prop41ColorIndex
 90
       18
102
RTVSPost2010Prop41ColorRGB
 90
        0
102
RTVSPost2010PropOp41
 70
     1
102
RTVSPost2010Prop42
 90
       50
102
RTVSPost2010PropOp42
 70
     1
102
RTVSPost2010Prop43
 90
        3
102
RTVSPost2010PropOp43
 70
     1
102
RTVSPost2010Prop44ColorIndex
 90
        5
102
RTVSPost2010Prop44ColorRGB
 90
      255
102
RTVSPost2010PropOp44
 70
     1
102
RTVSPost2010Prop45
280
     0
102
RTVSPost2010PropOp45
 70
     1
102
RTVSPost2010Prop46
 90
       50
102
RTVSPost2010PropOp46
 70
     1
102
RTVSPost2010Prop47
 90
       50
102
RTVSPost2010PropOp47
 70
     1
102
RTVSPost2010Prop48
 90
       50
102
RTVSPost2010PropOp48
 70
     1
102
RTVSPost2010Prop49
280
     0
102
RTVSPost2010PropOp49
 70
     1
102
RTVSPost2010Prop50
 90
       50
102
RTVSPost2010PropOp50
 70
     1
102
RTVSPost2010Prop51ColorIndex
 90
      256
102
RTVSPost2010Prop51ColorRGB
 90
-16777216
102
RTVSPost2010PropOp51
 70
     0
102
RTVSPost2010Prop52
140
1.0
102
RTVSPost2010PropOp52
 70
     0
102
RTVSPost2010Prop53
 90
        2
102
RTVSPost2010PropOp53
 70
     1
102
RTVSPost2010Prop54
  1
strokes_ogs.tif
102
RTVSPost2010PropOp54
 70
     1
102
RTVSPost2010Prop55
280
     0
102
RTVSPost2010PropOp55
 70
     1
102
RTVSPost2010Prop56
140
1.0
102
RTVSPost2010PropOp56
 70
     1
102
RTVSPost2010Prop57
140
1.0
102
RTVSPost2010PropOp57
 70
     1
102
RTVSPropertyOp0
 70
     1
102
RTVSPropertyOp1
 70
     1
102
RTVSPropertyOp2
 70
     1
102
RTVSPropertyOp3
 70
     1
102
RTVSPropertyOp4
 70
     1
102
RTVSPropertyOp5
 70
     1
102
RTVSPropertyOp6
 70
     1
102
RTVSPropertyOp7
 70
     1
102
RTVSPropertyOp8
 70
     1
102
RTVSPropertyOp9
 70
     1
102
RTVSPropertyOp10
 70
     1
102
RTVSPropertyOp11
 70
     1
102
RTVSPropertyOp12
 70
     1
102
RTVSPropertyOp13
 70
     1
102
RTVSPropertyOp14
 70
     1
102
RTVSPropertyOp15
 70
     1
102
RTVSPropertyOp16
 70
     1
102
RTVSPropertyOp17
 70
     1
102
RTVSPropertyOp18
 70
     1
102
RTVSPropertyOp19
 70
     1
102
RTVSPropertyOp20
 70
     1
102
RTVSPropertyOp21
 70
     1
102
RTVSPropertyOp22
 70
     1
102
RTVSPropertyOp23
 70
     1
102
RTVSPropertyOp24
 70
     1
102
RTVSPropertyOp25
 70
     1
102
RTVSPropertyOp26
 70
     1
102
RTVSPropertyOp27
 70
     1
102
RTVSPropertyOp28
 70
     1
102
RTVSPropertyOp29
 70
     1
102
RTVSPropertyOp30
 70
     1
102
RTVSPropertyOp31
 70
     1
102
RTVSPropertyOp32
 70
     1
102
RTVSPropertyOp33
 70
     1
102
RTVSPropertyOp34
 70
     1
102
RTVSPropertyOp35
 70
     1
102
RTVSPropertyOp36
 70
     1
102
RTVSPropertyOp37
 70
     1
102
RTVSPropertyOp38
 70
     1
102
RTVSPropertyOp39
 70
     1
102
RTVSPropertyOp40
 70
     1
102
RTVSPropertyOp41
 70
     1
102
RTVSPropertyOp42
 70
     1
102
RTVSPropertyOp43
 70
     1
102
RTVSPropertyOp44
 70
     1
102
RTVSPropertyOp45
 70
     1
102
RTVSPropertyOp46
 70
     1
102
RTVSPropertyOp47
 70
     1
102
RTVSPropertyOp48
 70
     1
102
RTVSPropertyOp49
 70
     1
102
RTVSPropertyOp50
 70
     1
102
RTVSPropertyOp51
 70
     0
102
RTVSPropertyOp52
 70
     0
102
RTVSPropertyOp53
 70
     1
102
RTVSPropertyOp54
 70
     1
102
RTVSPropertyOp55
 70
     1
102
RTVSPropertyOp56
 70
     1
102
RTVSPropertyOp57
 70
     1
102
RTVSPropertyOp58
 70
     1
102
RTVSPropertyOp59
 70
     1
102
RTVSPropertyOp60
 70
     1
102
RTVSPropertyOp61
 70
     1
102
RTVSPropertyOp62
 70
     1
  0
XRECORD
  5
863F
102
{ACAD_REACTORS
330
863E
102
}
330
863E
100
AcDbXrecord
280
     1
102
RTVSPost2010Prop28
280
     0
102
RTVSPost2010PropOp28
 70
     1
102
RTVSPost2010Prop29
280
     1
102
RTVSPost2010PropOp29
 70
     1
102
RTVSPost2010Prop30
280
     1
102
RTVSPost2010PropOp30
 70
     1
102
RTVSPost2010Prop31
280
     0
102
RTVSPost2010PropOp31
 70
     1
102
RTVSPost2010Prop32
280
     0
102
RTVSPost2010PropOp32
 70
     1
102
RTVSPost2010Prop33
280
     0
102
RTVSPost2010PropOp33
 70
     1
102
RTVSPost2010Prop34
280
     0
102
RTVSPost2010PropOp34
 70
     1
102
RTVSPost2010Prop35
280
     0
102
RTVSPost2010PropOp35
 70
     1
102
RTVSPost2010Prop36
280
     0
102
RTVSPost2010PropOp36
 70
     1
102
RTVSPost2010Prop37
 90
       50
102
RTVSPost2010PropOp37
 70
     1
102
RTVSPost2010Prop38
140
0.0
102
RTVSPost2010PropOp38
 70
     1
102
RTVSPost2010Prop39
140
1.0
102
RTVSPost2010PropOp39
 70
     1
102
RTVSPost2010Prop40
 90
        0
102
RTVSPost2010PropOp40
 70
     1
102
RTVSPost2010Prop41ColorIndex
 90
       18
102
RTVSPost2010Prop41ColorRGB
 90
        0
102
RTVSPost2010PropOp41
 70
     1
102
RTVSPost2010Prop42
 90
       50
102
RTVSPost2010PropOp42
 70
     1
102
RTVSPost2010Prop43
 90
        3
102
RTVSPost2010PropOp43
 70
     1
102
RTVSPost2010Prop44ColorIndex
 90
        5
102
RTVSPost2010Prop44ColorRGB
 90
      255
102
RTVSPost2010PropOp44
 70
     1
102
RTVSPost2010Prop45
280
     0
102
RTVSPost2010PropOp45
 70
     1
102
RTVSPost2010Prop46
 90
       50
102
RTVSPost2010PropOp46
 70
     1
102
RTVSPost2010Prop47
 90
       50
102
RTVSPost2010PropOp47
 70
     1
102
RTVSPost2010Prop48
 90
       50
102
RTVSPost2010PropOp48
 70
     1
102
RTVSPost2010Prop49
280
     0
102
RTVSPost2010PropOp49
 70
     1
102
RTVSPost2010Prop50
 90
       50
102
RTVSPost2010PropOp50
 70
     1
102
RTVSPost2010Prop51ColorIndex
 90
      256
102
RTVSPost2010Prop51ColorRGB
 90
-16777216
102
RTVSPost2010PropOp51
 70
     0
102
RTVSPost2010Prop52
140
1.0
102
RTVSPost2010PropOp52
 70
     0
102
RTVSPost2010Prop53
 90
        2
102
RTVSPost2010PropOp53
 70
     1
102
RTVSPost2010Prop54
  1
strokes_ogs.tif
102
RTVSPost2010PropOp54
 70
     1
102
RTVSPost2010Prop55
280
     0
102
RTVSPost2010PropOp55
 70
     1
102
RTVSPost2010Prop56
140
1.0
102
RTVSPost2010PropOp56
 70
     1
102
RTVSPost2010Prop57
140
1.0
102
RTVSPost2010PropOp57
 70
     1
102
RTVSPropertyOp0
 70
     1
102
RTVSPropertyOp1
 70
     1
102
RTVSPropertyOp2
 70
     1
102
RTVSPropertyOp3
 70
     1
102
RTVSPropertyOp4
 70
     1
102
RTVSPropertyOp5
 70
     1
102
RTVSPropertyOp6
 70
     1
102
RTVSPropertyOp7
 70
     1
102
RTVSPropertyOp8
 70
     1
102
RTVSPropertyOp9
 70
     1
102
RTVSPropertyOp10
 70
     1
102
RTVSPropertyOp11
 70
     1
102
RTVSPropertyOp12
 70
     1
102
RTVSPropertyOp13
 70
     1
102
RTVSPropertyOp14
 70
     1
102
RTVSPropertyOp15
 70
     1
102
RTVSPropertyOp16
 70
     1
102
RTVSPropertyOp17
 70
     1
102
RTVSPropertyOp18
 70
     1
102
RTVSPropertyOp19
 70
     1
102
RTVSPropertyOp20
 70
     1
102
RTVSPropertyOp21
 70
     1
102
RTVSPropertyOp22
 70
     1
102
RTVSPropertyOp23
 70
     1
102
RTVSPropertyOp24
 70
     1
102
RTVSPropertyOp25
 70
     1
102
RTVSPropertyOp26
 70
     1
102
RTVSPropertyOp27
 70
     1
102
RTVSPropertyOp28
 70
     1
102
RTVSPropertyOp29
 70
     1
102
RTVSPropertyOp30
 70
     1
102
RTVSPropertyOp31
 70
     1
102
RTVSPropertyOp32
 70
     1
102
RTVSPropertyOp33
 70
     1
102
RTVSPropertyOp34
 70
     1
102
RTVSPropertyOp35
 70
     1
102
RTVSPropertyOp36
 70
     1
102
RTVSPropertyOp37
 70
     1
102
RTVSPropertyOp38
 70
     1
102
RTVSPropertyOp39
 70
     1
102
RTVSPropertyOp40
 70
     1
102
RTVSPropertyOp41
 70
     1
102
RTVSPropertyOp42
 70
     1
102
RTVSPropertyOp43
 70
     1
102
RTVSPropertyOp44
 70
     1
102
RTVSPropertyOp45
 70
     1
102
RTVSPropertyOp46
 70
     1
102
RTVSPropertyOp47
 70
     1
102
RTVSPropertyOp48
 70
     1
102
RTVSPropertyOp49
 70
     1
102
RTVSPropertyOp50
 70
     1
102
RTVSPropertyOp51
 70
     0
102
RTVSPropertyOp52
 70
     0
102
RTVSPropertyOp53
 70
     1
102
RTVSPropertyOp54
 70
     1
102
RTVSPropertyOp55
 70
     1
102
RTVSPropertyOp56
 70
     1
102
RTVSPropertyOp57
 70
     1
102
RTVSPropertyOp58
 70
     1
102
RTVSPropertyOp59
 70
     1
102
RTVSPropertyOp60
 70
     1
102
RTVSPropertyOp61
 70
     1
102
RTVSPropertyOp62
 70
     1
  0
XRECORD
  5
8641
102
{ACAD_REACTORS
330
8640
102
}
330
8640
100
AcDbXrecord
280
     1
102
RTVSPost2010Prop28
280
     0
102
RTVSPost2010PropOp28
 70
     1
102
RTVSPost2010Prop29
280
     1
102
RTVSPost2010PropOp29
 70
     1
102
RTVSPost2010Prop30
280
     1
102
RTVSPost2010PropOp30
 70
     1
102
RTVSPost2010Prop31
280
     0
102
RTVSPost2010PropOp31
 70
     1
102
RTVSPost2010Prop32
280
     0
102
RTVSPost2010PropOp32
 70
     1
102
RTVSPost2010Prop33
280
     0
102
RTVSPost2010PropOp33
 70
     1
102
RTVSPost2010Prop34
280
     0
102
RTVSPost2010PropOp34
 70
     1
102
RTVSPost2010Prop35
280
     0
102
RTVSPost2010PropOp35
 70
     1
102
RTVSPost2010Prop36
280
     0
102
RTVSPost2010PropOp36
 70
     1
102
RTVSPost2010Prop37
 90
       50
102
RTVSPost2010PropOp37
 70
     1
102
RTVSPost2010Prop38
140
0.0
102
RTVSPost2010PropOp38
 70
     1
102
RTVSPost2010Prop39
140
1.0
102
RTVSPost2010PropOp39
 70
     1
102
RTVSPost2010Prop40
 90
        0
102
RTVSPost2010PropOp40
 70
     1
102
RTVSPost2010Prop41ColorIndex
 90
       18
102
RTVSPost2010Prop41ColorRGB
 90
        0
102
RTVSPost2010PropOp41
 70
     1
102
RTVSPost2010Prop42
 90
       50
102
RTVSPost2010PropOp42
 70
     1
102
RTVSPost2010Prop43
 90
        3
102
RTVSPost2010PropOp43
 70
     1
102
RTVSPost2010Prop44ColorIndex
 90
        5
102
RTVSPost2010Prop44ColorRGB
 90
      255
102
RTVSPost2010PropOp44
 70
     1
102
RTVSPost2010Prop45
280
     0
102
RTVSPost2010PropOp45
 70
     1
102
RTVSPost2010Prop46
 90
       50
102
RTVSPost2010PropOp46
 70
     1
102
RTVSPost2010Prop47
 90
       50
102
RTVSPost2010PropOp47
 70
     1
102
RTVSPost2010Prop48
 90
       50
102
RTVSPost2010PropOp48
 70
     1
102
RTVSPost2010Prop49
280
     0
102
RTVSPost2010PropOp49
 70
     1
102
RTVSPost2010Prop50
 90
       50
102
RTVSPost2010PropOp50
 70
     1
102
RTVSPost2010Prop51ColorIndex
 90
      256
102
RTVSPost2010Prop51ColorRGB
 90
-16777216
102
RTVSPost2010PropOp51
 70
     0
102
RTVSPost2010Prop52
140
1.0
102
RTVSPost2010PropOp52
 70
     0
102
RTVSPost2010Prop53
 90
        2
102
RTVSPost2010PropOp53
 70
     1
102
RTVSPost2010Prop54
  1
strokes_ogs.tif
102
RTVSPost2010PropOp54
 70
     1
102
RTVSPost2010Prop55
280
     0
102
RTVSPost2010PropOp55
 70
     1
102
RTVSPost2010Prop56
140
1.0
102
RTVSPost2010PropOp56
 70
     1
102
RTVSPost2010Prop57
140
1.0
102
RTVSPost2010PropOp57
 70
     1
102
RTVSPropertyOp0
 70
     1
102
RTVSPropertyOp1
 70
     1
102
RTVSPropertyOp2
 70
     1
102
RTVSPropertyOp3
 70
     1
102
RTVSPropertyOp4
 70
     1
102
RTVSPropertyOp5
 70
     1
102
RTVSPropertyOp6
 70
     1
102
RTVSPropertyOp7
 70
     1
102
RTVSPropertyOp8
 70
     1
102
RTVSPropertyOp9
 70
     1
102
RTVSPropertyOp10
 70
     1
102
RTVSPropertyOp11
 70
     1
102
RTVSPropertyOp12
 70
     1
102
RTVSPropertyOp13
 70
     1
102
RTVSPropertyOp14
 70
     1
102
RTVSPropertyOp15
 70
     1
102
RTVSPropertyOp16
 70
     1
102
RTVSPropertyOp17
 70
     1
102
RTVSPropertyOp18
 70
     1
102
RTVSPropertyOp19
 70
     1
102
RTVSPropertyOp20
 70
     1
102
RTVSPropertyOp21
 70
     1
102
RTVSPropertyOp22
 70
     1
102
RTVSPropertyOp23
 70
     1
102
RTVSPropertyOp24
 70
     1
102
RTVSPropertyOp25
 70
     1
102
RTVSPropertyOp26
 70
     1
102
RTVSPropertyOp27
 70
     1
102
RTVSPropertyOp28
 70
     1
102
RTVSPropertyOp29
 70
     1
102
RTVSPropertyOp30
 70
     1
102
RTVSPropertyOp31
 70
     1
102
RTVSPropertyOp32
 70
     1
102
RTVSPropertyOp33
 70
     1
102
RTVSPropertyOp34
 70
     1
102
RTVSPropertyOp35
 70
     1
102
RTVSPropertyOp36
 70
     1
102
RTVSPropertyOp37
 70
     1
102
RTVSPropertyOp38
 70
     1
102
RTVSPropertyOp39
 70
     1
102
RTVSPropertyOp40
 70
     1
102
RTVSPropertyOp41
 70
     1
102
RTVSPropertyOp42
 70
     1
102
RTVSPropertyOp43
 70
     1
102
RTVSPropertyOp44
 70
     1
102
RTVSPropertyOp45
 70
     1
102
RTVSPropertyOp46
 70
     1
102
RTVSPropertyOp47
 70
     1
102
RTVSPropertyOp48
 70
     1
102
RTVSPropertyOp49
 70
     1
102
RTVSPropertyOp50
 70
     1
102
RTVSPropertyOp51
 70
     0
102
RTVSPropertyOp52
 70
     0
102
RTVSPropertyOp53
 70
     1
102
RTVSPropertyOp54
 70
     1
102
RTVSPropertyOp55
 70
     1
102
RTVSPropertyOp56
 70
     1
102
RTVSPropertyOp57
 70
     1
102
RTVSPropertyOp58
 70
     1
102
RTVSPropertyOp59
 70
     1
102
RTVSPropertyOp60
 70
     1
102
RTVSPropertyOp61
 70
     1
102
RTVSPropertyOp62
 70
     1
  0
XRECORD
  5
8643
102
{ACAD_REACTORS
330
8642
102
}
330
8642
100
AcDbXrecord
280
     1
102
RTVSPost2010Prop28
280
     0
102
RTVSPost2010PropOp28
 70
     1
102
RTVSPost2010Prop29
280
     1
102
RTVSPost2010PropOp29
 70
     1
102
RTVSPost2010Prop30
280
     1
102
RTVSPost2010PropOp30
 70
     1
102
RTVSPost2010Prop31
280
     0
102
RTVSPost2010PropOp31
 70
     1
102
RTVSPost2010Prop32
280
     0
102
RTVSPost2010PropOp32
 70
     1
102
RTVSPost2010Prop33
280
     0
102
RTVSPost2010PropOp33
 70
     1
102
RTVSPost2010Prop34
280
     0
102
RTVSPost2010PropOp34
 70
     1
102
RTVSPost2010Prop35
280
     0
102
RTVSPost2010PropOp35
 70
     1
102
RTVSPost2010Prop36
280
     0
102
RTVSPost2010PropOp36
 70
     1
102
RTVSPost2010Prop37
 90
       50
102
RTVSPost2010PropOp37
 70
     1
102
RTVSPost2010Prop38
140
0.0
102
RTVSPost2010PropOp38
 70
     1
102
RTVSPost2010Prop39
140
1.0
102
RTVSPost2010PropOp39
 70
     1
102
RTVSPost2010Prop40
 90
        0
102
RTVSPost2010PropOp40
 70
     1
102
RTVSPost2010Prop41ColorIndex
 90
       18
102
RTVSPost2010Prop41ColorRGB
 90
        0
102
RTVSPost2010PropOp41
 70
     1
102
RTVSPost2010Prop42
 90
       50
102
RTVSPost2010PropOp42
 70
     1
102
RTVSPost2010Prop43
 90
        3
102
RTVSPost2010PropOp43
 70
     1
102
RTVSPost2010Prop44ColorIndex
 90
        5
102
RTVSPost2010Prop44ColorRGB
 90
      255
102
RTVSPost2010PropOp44
 70
     1
102
RTVSPost2010Prop45
280
     0
102
RTVSPost2010PropOp45
 70
     1
102
RTVSPost2010Prop46
 90
       50
102
RTVSPost2010PropOp46
 70
     1
102
RTVSPost2010Prop47
 90
       50
102
RTVSPost2010PropOp47
 70
     1
102
RTVSPost2010Prop48
 90
       50
102
RTVSPost2010PropOp48
 70
     1
102
RTVSPost2010Prop49
280
     0
102
RTVSPost2010PropOp49
 70
     1
102
RTVSPost2010Prop50
 90
       50
102
RTVSPost2010PropOp50
 70
     1
102
RTVSPost2010Prop51ColorIndex
 90
      256
102
RTVSPost2010Prop51ColorRGB
 90
-16777216
102
RTVSPost2010PropOp51
 70
     0
102
RTVSPost2010Prop52
140
1.0
102
RTVSPost2010PropOp52
 70
     0
102
RTVSPost2010Prop53
 90
        2
102
RTVSPost2010PropOp53
 70
     1
102
RTVSPost2010Prop54
  1
strokes_ogs.tif
102
RTVSPost2010PropOp54
 70
     1
102
RTVSPost2010Prop55
280
     0
102
RTVSPost2010PropOp55
 70
     1
102
RTVSPost2010Prop56
140
1.0
102
RTVSPost2010PropOp56
 70
     1
102
RTVSPost2010Prop57
140
1.0
102
RTVSPost2010PropOp57
 70
     1
102
RTVSPropertyOp0
 70
     1
102
RTVSPropertyOp1
 70
     1
102
RTVSPropertyOp2
 70
     1
102
RTVSPropertyOp3
 70
     1
102
RTVSPropertyOp4
 70
     1
102
RTVSPropertyOp5
 70
     1
102
RTVSPropertyOp6
 70
     1
102
RTVSPropertyOp7
 70
     1
102
RTVSPropertyOp8
 70
     1
102
RTVSPropertyOp9
 70
     1
102
RTVSPropertyOp10
 70
     1
102
RTVSPropertyOp11
 70
     1
102
RTVSPropertyOp12
 70
     1
102
RTVSPropertyOp13
 70
     1
102
RTVSPropertyOp14
 70
     1
102
RTVSPropertyOp15
 70
     1
102
RTVSPropertyOp16
 70
     1
102
RTVSPropertyOp17
 70
     1
102
RTVSPropertyOp18
 70
     1
102
RTVSPropertyOp19
 70
     1
102
RTVSPropertyOp20
 70
     1
102
RTVSPropertyOp21
 70
     1
102
RTVSPropertyOp22
 70
     1
102
RTVSPropertyOp23
 70
     1
102
RTVSPropertyOp24
 70
     1
102
RTVSPropertyOp25
 70
     1
102
RTVSPropertyOp26
 70
     1
102
RTVSPropertyOp27
 70
     1
102
RTVSPropertyOp28
 70
     1
102
RTVSPropertyOp29
 70
     1
102
RTVSPropertyOp30
 70
     1
102
RTVSPropertyOp31
 70
     1
102
RTVSPropertyOp32
 70
     1
102
RTVSPropertyOp33
 70
     1
102
RTVSPropertyOp34
 70
     1
102
RTVSPropertyOp35
 70
     1
102
RTVSPropertyOp36
 70
     1
102
RTVSPropertyOp37
 70
     1
102
RTVSPropertyOp38
 70
     1
102
RTVSPropertyOp39
 70
     1
102
RTVSPropertyOp40
 70
     1
102
RTVSPropertyOp41
 70
     1
102
RTVSPropertyOp42
 70
     1
102
RTVSPropertyOp43
 70
     1
102
RTVSPropertyOp44
 70
     1
102
RTVSPropertyOp45
 70
     1
102
RTVSPropertyOp46
 70
     1
102
RTVSPropertyOp47
 70
     1
102
RTVSPropertyOp48
 70
     1
102
RTVSPropertyOp49
 70
     1
102
RTVSPropertyOp50
 70
     1
102
RTVSPropertyOp51
 70
     0
102
RTVSPropertyOp52
 70
     0
102
RTVSPropertyOp53
 70
     1
102
RTVSPropertyOp54
 70
     1
102
RTVSPropertyOp55
 70
     1
102
RTVSPropertyOp56
 70
     1
102
RTVSPropertyOp57
 70
     1
102
RTVSPropertyOp58
 70
     1
102
RTVSPropertyOp59
 70
     1
102
RTVSPropertyOp60
 70
     1
102
RTVSPropertyOp61
 70
     1
102
RTVSPropertyOp62
 70
     1
  0
XRECORD
  5
8645
102
{ACAD_REACTORS
330
8644
102
}
330
8644
100
AcDbXrecord
280
     1
102
RTVSPost2010Prop28
280
     0
102
RTVSPost2010PropOp28
 70
     1
102
RTVSPost2010Prop29
280
     1
102
RTVSPost2010PropOp29
 70
     1
102
RTVSPost2010Prop30
280
     1
102
RTVSPost2010PropOp30
 70
     1
102
RTVSPost2010Prop31
280
     0
102
RTVSPost2010PropOp31
 70
     1
102
RTVSPost2010Prop32
280
     0
102
RTVSPost2010PropOp32
 70
     1
102
RTVSPost2010Prop33
280
     0
102
RTVSPost2010PropOp33
 70
     1
102
RTVSPost2010Prop34
280
     0
102
RTVSPost2010PropOp34
 70
     1
102
RTVSPost2010Prop35
280
     0
102
RTVSPost2010PropOp35
 70
     1
102
RTVSPost2010Prop36
280
     0
102
RTVSPost2010PropOp36
 70
     1
102
RTVSPost2010Prop37
 90
       50
102
RTVSPost2010PropOp37
 70
     1
102
RTVSPost2010Prop38
140
0.0
102
RTVSPost2010PropOp38
 70
     1
102
RTVSPost2010Prop39
140
1.0
102
RTVSPost2010PropOp39
 70
     1
102
RTVSPost2010Prop40
 90
        0
102
RTVSPost2010PropOp40
 70
     1
102
RTVSPost2010Prop41ColorIndex
 90
       18
102
RTVSPost2010Prop41ColorRGB
 90
        0
102
RTVSPost2010PropOp41
 70
     1
102
RTVSPost2010Prop42
 90
       50
102
RTVSPost2010PropOp42
 70
     1
102
RTVSPost2010Prop43
 90
        3
102
RTVSPost2010PropOp43
 70
     1
102
RTVSPost2010Prop44ColorIndex
 90
        5
102
RTVSPost2010Prop44ColorRGB
 90
      255
102
RTVSPost2010PropOp44
 70
     1
102
RTVSPost2010Prop45
280
     0
102
RTVSPost2010PropOp45
 70
     1
102
RTVSPost2010Prop46
 90
       50
102
RTVSPost2010PropOp46
 70
     1
102
RTVSPost2010Prop47
 90
       50
102
RTVSPost2010PropOp47
 70
     1
102
RTVSPost2010Prop48
 90
       50
102
RTVSPost2010PropOp48
 70
     1
102
RTVSPost2010Prop49
280
     0
102
RTVSPost2010PropOp49
 70
     1
102
RTVSPost2010Prop50
 90
       50
102
RTVSPost2010PropOp50
 70
     1
102
RTVSPost2010Prop51ColorIndex
 90
      256
102
RTVSPost2010Prop51ColorRGB
 90
-16777216
102
RTVSPost2010PropOp51
 70
     0
102
RTVSPost2010Prop52
140
1.0
102
RTVSPost2010PropOp52
 70
     0
102
RTVSPost2010Prop53
 90
        2
102
RTVSPost2010PropOp53
 70
     1
102
RTVSPost2010Prop54
  1
strokes_ogs.tif
102
RTVSPost2010PropOp54
 70
     1
102
RTVSPost2010Prop55
280
     0
102
RTVSPost2010PropOp55
 70
     1
102
RTVSPost2010Prop56
140
1.0
102
RTVSPost2010PropOp56
 70
     1
102
RTVSPost2010Prop57
140
1.0
102
RTVSPost2010PropOp57
 70
     1
102
RTVSPropertyOp0
 70
     1
102
RTVSPropertyOp1
 70
     1
102
RTVSPropertyOp2
 70
     1
102
RTVSPropertyOp3
 70
     1
102
RTVSPropertyOp4
 70
     1
102
RTVSPropertyOp5
 70
     1
102
RTVSPropertyOp6
 70
     1
102
RTVSPropertyOp7
 70
     1
102
RTVSPropertyOp8
 70
     1
102
RTVSPropertyOp9
 70
     1
102
RTVSPropertyOp10
 70
     1
102
RTVSPropertyOp11
 70
     1
102
RTVSPropertyOp12
 70
     1
102
RTVSPropertyOp13
 70
     1
102
RTVSPropertyOp14
 70
     1
102
RTVSPropertyOp15
 70
     1
102
RTVSPropertyOp16
 70
     1
102
RTVSPropertyOp17
 70
     1
102
RTVSPropertyOp18
 70
     1
102
RTVSPropertyOp19
 70
     1
102
RTVSPropertyOp20
 70
     1
102
RTVSPropertyOp21
 70
     1
102
RTVSPropertyOp22
 70
     1
102
RTVSPropertyOp23
 70
     1
102
RTVSPropertyOp24
 70
     1
102
RTVSPropertyOp25
 70
     1
102
RTVSPropertyOp26
 70
     1
102
RTVSPropertyOp27
 70
     1
102
RTVSPropertyOp28
 70
     1
102
RTVSPropertyOp29
 70
     1
102
RTVSPropertyOp30
 70
     1
102
RTVSPropertyOp31
 70
     1
102
RTVSPropertyOp32
 70
     1
102
RTVSPropertyOp33
 70
     1
102
RTVSPropertyOp34
 70
     1
102
RTVSPropertyOp35
 70
     1
102
RTVSPropertyOp36
 70
     1
102
RTVSPropertyOp37
 70
     1
102
RTVSPropertyOp38
 70
     1
102
RTVSPropertyOp39
 70
     1
102
RTVSPropertyOp40
 70
     1
102
RTVSPropertyOp41
 70
     1
102
RTVSPropertyOp42
 70
     1
102
RTVSPropertyOp43
 70
     1
102
RTVSPropertyOp44
 70
     1
102
RTVSPropertyOp45
 70
     1
102
RTVSPropertyOp46
 70
     1
102
RTVSPropertyOp47
 70
     1
102
RTVSPropertyOp48
 70
     1
102
RTVSPropertyOp49
 70
     1
102
RTVSPropertyOp50
 70
     1
102
RTVSPropertyOp51
 70
     0
102
RTVSPropertyOp52
 70
     0
102
RTVSPropertyOp53
 70
     1
102
RTVSPropertyOp54
 70
     1
102
RTVSPropertyOp55
 70
     1
102
RTVSPropertyOp56
 70
     1
102
RTVSPropertyOp57
 70
     1
102
RTVSPropertyOp58
 70
     1
102
RTVSPropertyOp59
 70
     1
102
RTVSPropertyOp60
 70
     1
102
RTVSPropertyOp61
 70
     1
102
RTVSPropertyOp62
 70
     1
  0
XRECORD
  5
864D
102
{ACAD_REACTORS
330
864C
102
}
330
864C
100
AcDbXrecord
280
     1
102
RTVSPost2010Prop28
280
     0
102
RTVSPost2010PropOp28
 70
     1
102
RTVSPost2010Prop29
280
     1
102
RTVSPost2010PropOp29
 70
     1
102
RTVSPost2010Prop30
280
     1
102
RTVSPost2010PropOp30
 70
     1
102
RTVSPost2010Prop31
280
     0
102
RTVSPost2010PropOp31
 70
     1
102
RTVSPost2010Prop32
280
     0
102
RTVSPost2010PropOp32
 70
     1
102
RTVSPost2010Prop33
280
     0
102
RTVSPost2010PropOp33
 70
     1
102
RTVSPost2010Prop34
280
     0
102
RTVSPost2010PropOp34
 70
     1
102
RTVSPost2010Prop35
280
     0
102
RTVSPost2010PropOp35
 70
     1
102
RTVSPost2010Prop36
280
     0
102
RTVSPost2010PropOp36
 70
     1
102
RTVSPost2010Prop37
 90
       50
102
RTVSPost2010PropOp37
 70
     1
102
RTVSPost2010Prop38
140
0.0
102
RTVSPost2010PropOp38
 70
     1
102
RTVSPost2010Prop39
140
1.0
102
RTVSPost2010PropOp39
 70
     1
102
RTVSPost2010Prop40
 90
        0
102
RTVSPost2010PropOp40
 70
     1
102
RTVSPost2010Prop41ColorIndex
 90
       18
102
RTVSPost2010Prop41ColorRGB
 90
        0
102
RTVSPost2010PropOp41
 70
     1
102
RTVSPost2010Prop42
 90
       50
102
RTVSPost2010PropOp42
 70
     1
102
RTVSPost2010Prop43
 90
        3
102
RTVSPost2010PropOp43
 70
     1
102
RTVSPost2010Prop44ColorIndex
 90
        5
102
RTVSPost2010Prop44ColorRGB
 90
      255
102
RTVSPost2010PropOp44
 70
     1
102
RTVSPost2010Prop45
280
     0
102
RTVSPost2010PropOp45
 70
     1
102
RTVSPost2010Prop46
 90
       50
102
RTVSPost2010PropOp46
 70
     1
102
RTVSPost2010Prop47
 90
       50
102
RTVSPost2010PropOp47
 70
     1
102
RTVSPost2010Prop48
 90
       50
102
RTVSPost2010PropOp48
 70
     1
102
RTVSPost2010Prop49
280
     0
102
RTVSPost2010PropOp49
 70
     1
102
RTVSPost2010Prop50
 90
       50
102
RTVSPost2010PropOp50
 70
     1
102
RTVSPost2010Prop51ColorIndex
 90
      256
102
RTVSPost2010Prop51ColorRGB
 90
-16777216
102
RTVSPost2010PropOp51
 70
     0
102
RTVSPost2010Prop52
140
1.0
102
RTVSPost2010PropOp52
 70
     0
102
RTVSPost2010Prop53
 90
        2
102
RTVSPost2010PropOp53
 70
     1
102
RTVSPost2010Prop54
  1
strokes_ogs.tif
102
RTVSPost2010PropOp54
 70
     1
102
RTVSPost2010Prop55
280
     0
102
RTVSPost2010PropOp55
 70
     1
102
RTVSPost2010Prop56
140
1.0
102
RTVSPost2010PropOp56
 70
     1
102
RTVSPost2010Prop57
140
1.0
102
RTVSPost2010PropOp57
 70
     1
102
RTVSPropertyOp0
 70
     1
102
RTVSPropertyOp1
 70
     1
102
RTVSPropertyOp2
 70
     1
102
RTVSPropertyOp3
 70
     1
102
RTVSPropertyOp4
 70
     1
102
RTVSPropertyOp5
 70
     1
102
RTVSPropertyOp6
 70
     1
102
RTVSPropertyOp7
 70
     1
102
RTVSPropertyOp8
 70
     1
102
RTVSPropertyOp9
 70
     1
102
RTVSPropertyOp10
 70
     1
102
RTVSPropertyOp11
 70
     1
102
RTVSPropertyOp12
 70
     1
102
RTVSPropertyOp13
 70
     1
102
RTVSPropertyOp14
 70
     1
102
RTVSPropertyOp15
 70
     1
102
RTVSPropertyOp16
 70
     1
102
RTVSPropertyOp17
 70
     1
102
RTVSPropertyOp18
 70
     1
102
RTVSPropertyOp19
 70
     1
102
RTVSPropertyOp20
 70
     1
102
RTVSPropertyOp21
 70
     1
102
RTVSPropertyOp22
 70
     1
102
RTVSPropertyOp23
 70
     1
102
RTVSPropertyOp24
 70
     1
102
RTVSPropertyOp25
 70
     1
102
RTVSPropertyOp26
 70
     1
102
RTVSPropertyOp27
 70
     1
102
RTVSPropertyOp28
 70
     1
102
RTVSPropertyOp29
 70
     1
102
RTVSPropertyOp30
 70
     1
102
RTVSPropertyOp31
 70
     1
102
RTVSPropertyOp32
 70
     1
102
RTVSPropertyOp33
 70
     1
102
RTVSPropertyOp34
 70
     1
102
RTVSPropertyOp35
 70
     1
102
RTVSPropertyOp36
 70
     1
102
RTVSPropertyOp37
 70
     1
102
RTVSPropertyOp38
 70
     1
102
RTVSPropertyOp39
 70
     1
102
RTVSPropertyOp40
 70
     1
102
RTVSPropertyOp41
 70
     1
102
RTVSPropertyOp42
 70
     1
102
RTVSPropertyOp43
 70
     1
102
RTVSPropertyOp44
 70
     1
102
RTVSPropertyOp45
 70
     1
102
RTVSPropertyOp46
 70
     1
102
RTVSPropertyOp47
 70
     1
102
RTVSPropertyOp48
 70
     1
102
RTVSPropertyOp49
 70
     1
102
RTVSPropertyOp50
 70
     1
102
RTVSPropertyOp51
 70
     0
102
RTVSPropertyOp52
 70
     0
102
RTVSPropertyOp53
 70
     1
102
RTVSPropertyOp54
 70
     1
102
RTVSPropertyOp55
 70
     1
102
RTVSPropertyOp56
 70
     1
102
RTVSPropertyOp57
 70
     1
102
RTVSPropertyOp58
 70
     1
102
RTVSPropertyOp59
 70
     1
102
RTVSPropertyOp60
 70
     1
102
RTVSPropertyOp61
 70
     1
102
RTVSPropertyOp62
 70
     1
  0
XRECORD
  5
8669
102
{ACAD_REACTORS
330
8668
102
}
330
8668
100
AcDbXrecord
280
     1
102
RTVSPost2010Prop28
280
     0
102
RTVSPost2010PropOp28
 70
     1
102
RTVSPost2010Prop29
280
     1
102
RTVSPost2010PropOp29
 70
     1
102
RTVSPost2010Prop30
280
     1
102
RTVSPost2010PropOp30
 70
     1
102
RTVSPost2010Prop31
280
     0
102
RTVSPost2010PropOp31
 70
     1
102
RTVSPost2010Prop32
280
     0
102
RTVSPost2010PropOp32
 70
     1
102
RTVSPost2010Prop33
280
     0
102
RTVSPost2010PropOp33
 70
     1
102
RTVSPost2010Prop34
280
     0
102
RTVSPost2010PropOp34
 70
     1
102
RTVSPost2010Prop35
280
     0
102
RTVSPost2010PropOp35
 70
     1
102
RTVSPost2010Prop36
280
     0
102
RTVSPost2010PropOp36
 70
     1
102
RTVSPost2010Prop37
 90
       50
102
RTVSPost2010PropOp37
 70
     0
102
RTVSPost2010Prop38
140
0.0
102
RTVSPost2010PropOp38
 70
     0
102
RTVSPost2010Prop39
140
1.0
102
RTVSPost2010PropOp39
 70
     0
102
RTVSPost2010Prop40
 90
        0
102
RTVSPost2010PropOp40
 70
     0
102
RTVSPost2010Prop41ColorIndex
 90
       18
102
RTVSPost2010Prop41ColorRGB
 90
        0
102
RTVSPost2010PropOp41
 70
     0
102
RTVSPost2010Prop42
 90
       50
102
RTVSPost2010PropOp42
 70
     0
102
RTVSPost2010Prop43
 90
        3
102
RTVSPost2010PropOp43
 70
     0
102
RTVSPost2010Prop44ColorIndex
 90
        5
102
RTVSPost2010Prop44ColorRGB
 90
      255
102
RTVSPost2010PropOp44
 70
     0
102
RTVSPost2010Prop45
280
     0
102
RTVSPost2010PropOp45
 70
     1
102
RTVSPost2010Prop46
 90
       50
102
RTVSPost2010PropOp46
 70
     0
102
RTVSPost2010Prop47
 90
       50
102
RTVSPost2010PropOp47
 70
     0
102
RTVSPost2010Prop48
 90
       50
102
RTVSPost2010PropOp48
 70
     0
102
RTVSPost2010Prop49
280
     0
102
RTVSPost2010PropOp49
 70
     1
102
RTVSPost2010Prop50
 90
       50
102
RTVSPost2010PropOp50
 70
     0
102
RTVSPost2010Prop51ColorIndex
 90
      256
102
RTVSPost2010Prop51ColorRGB
 90
-16777216
102
RTVSPost2010PropOp51
 70
     0
102
RTVSPost2010Prop52
140
1.0
102
RTVSPost2010PropOp52
 70
     0
102
RTVSPost2010Prop53
 90
        2
102
RTVSPost2010PropOp53
 70
     0
102
RTVSPost2010Prop54
  1
strokes_ogs.tif
102
RTVSPost2010PropOp54
 70
     0
102
RTVSPost2010Prop55
280
     0
102
RTVSPost2010PropOp55
 70
     1
102
RTVSPost2010Prop56
140
1.0
102
RTVSPost2010PropOp56
 70
     0
102
RTVSPost2010Prop57
140
1.0
102
RTVSPost2010PropOp57
 70
     0
102
RTVSPropertyOp0
 70
     0
102
RTVSPropertyOp1
 70
     0
102
RTVSPropertyOp2
 70
     0
102
RTVSPropertyOp3
 70
     0
102
RTVSPropertyOp4
 70
     0
102
RTVSPropertyOp5
 70
     0
102
RTVSPropertyOp6
 70
     0
102
RTVSPropertyOp7
 70
     0
102
RTVSPropertyOp8
 70
     0
102
RTVSPropertyOp9
 70
     0
102
RTVSPropertyOp10
 70
     0
102
RTVSPropertyOp11
 70
     0
102
RTVSPropertyOp12
 70
     0
102
RTVSPropertyOp13
 70
     0
102
RTVSPropertyOp14
 70
     2
102
RTVSPropertyOp15
 70
     0
102
RTVSPropertyOp16
 70
     0
102
RTVSPropertyOp17
 70
     0
102
RTVSPropertyOp18
 70
     0
102
RTVSPropertyOp19
 70
     0
102
RTVSPropertyOp20
 70
     0
102
RTVSPropertyOp21
 70
     0
102
RTVSPropertyOp22
 70
     0
102
RTVSPropertyOp23
 70
     0
102
RTVSPropertyOp24
 70
     0
102
RTVSPropertyOp25
 70
     0
102
RTVSPropertyOp26
 70
     0
102
RTVSPropertyOp27
 70
     0
102
RTVSPropertyOp28
 70
     1
102
RTVSPropertyOp29
 70
     1
102
RTVSPropertyOp30
 70
     1
102
RTVSPropertyOp31
 70
     1
102
RTVSPropertyOp32
 70
     1
102
RTVSPropertyOp33
 70
     1
102
RTVSPropertyOp34
 70
     1
102
RTVSPropertyOp35
 70
     1
102
RTVSPropertyOp36
 70
     1
102
RTVSPropertyOp37
 70
     0
102
RTVSPropertyOp38
 70
     0
102
RTVSPropertyOp39
 70
     0
102
RTVSPropertyOp40
 70
     0
102
RTVSPropertyOp41
 70
     0
102
RTVSPropertyOp42
 70
     0
102
RTVSPropertyOp43
 70
     0
102
RTVSPropertyOp44
 70
     0
102
RTVSPropertyOp45
 70
     1
102
RTVSPropertyOp46
 70
     0
102
RTVSPropertyOp47
 70
     0
102
RTVSPropertyOp48
 70
     0
102
RTVSPropertyOp49
 70
     1
102
RTVSPropertyOp50
 70
     0
102
RTVSPropertyOp51
 70
     0
102
RTVSPropertyOp52
 70
     0
102
RTVSPropertyOp53
 70
     0
102
RTVSPropertyOp54
 70
     0
102
RTVSPropertyOp55
 70
     1
102
RTVSPropertyOp56
 70
     0
102
RTVSPropertyOp57
 70
     0
102
RTVSPropertyOp58
 70
     0
102
RTVSPropertyOp59
 70
     0
102
RTVSPropertyOp60
 70
     0
102
RTVSPropertyOp61
 70
     0
102
RTVSPropertyOp62
 70
     0
  0
XRECORD
  5
8659
102
{ACAD_REACTORS
330
8658
102
}
330
8658
100
AcDbXrecord
280
     1
102
RTVSPost2010Prop28
280
     0
102
RTVSPost2010PropOp28
 70
     1
102
RTVSPost2010Prop29
280
     1
102
RTVSPost2010PropOp29
 70
     1
102
RTVSPost2010Prop30
280
     1
102
RTVSPost2010PropOp30
 70
     1
102
RTVSPost2010Prop31
280
     0
102
RTVSPost2010PropOp31
 70
     1
102
RTVSPost2010Prop32
280
     0
102
RTVSPost2010PropOp32
 70
     1
102
RTVSPost2010Prop33
280
     0
102
RTVSPost2010PropOp33
 70
     1
102
RTVSPost2010Prop34
280
     0
102
RTVSPost2010PropOp34
 70
     1
102
RTVSPost2010Prop35
280
     0
102
RTVSPost2010PropOp35
 70
     1
102
RTVSPost2010Prop36
280
     0
102
RTVSPost2010PropOp36
 70
     1
102
RTVSPost2010Prop37
 90
       50
102
RTVSPost2010PropOp37
 70
     1
102
RTVSPost2010Prop38
140
0.0
102
RTVSPost2010PropOp38
 70
     1
102
RTVSPost2010Prop39
140
1.0
102
RTVSPost2010PropOp39
 70
     1
102
RTVSPost2010Prop40
 90
        0
102
RTVSPost2010PropOp40
 70
     1
102
RTVSPost2010Prop41ColorIndex
 90
       18
102
RTVSPost2010Prop41ColorRGB
 90
        0
102
RTVSPost2010PropOp41
 70
     1
102
RTVSPost2010Prop42
 90
       50
102
RTVSPost2010PropOp42
 70
     1
102
RTVSPost2010Prop43
 90
        3
102
RTVSPost2010PropOp43
 70
     1
102
RTVSPost2010Prop44ColorIndex
 90
        5
102
RTVSPost2010Prop44ColorRGB
 90
      255
102
RTVSPost2010PropOp44
 70
     1
102
RTVSPost2010Prop45
280
     0
102
RTVSPost2010PropOp45
 70
     1
102
RTVSPost2010Prop46
 90
       50
102
RTVSPost2010PropOp46
 70
     1
102
RTVSPost2010Prop47
 90
       50
102
RTVSPost2010PropOp47
 70
     1
102
RTVSPost2010Prop48
 90
       50
102
RTVSPost2010PropOp48
 70
     1
102
RTVSPost2010Prop49
280
     0
102
RTVSPost2010PropOp49
 70
     1
102
RTVSPost2010Prop50
 90
       50
102
RTVSPost2010PropOp50
 70
     1
102
RTVSPost2010Prop51ColorIndex
 90
      256
102
RTVSPost2010Prop51ColorRGB
 90
-16777216
102
RTVSPost2010PropOp51
 70
     0
102
RTVSPost2010Prop52
140
1.0
102
RTVSPost2010PropOp52
 70
     0
102
RTVSPost2010Prop53
 90
        2
102
RTVSPost2010PropOp53
 70
     1
102
RTVSPost2010Prop54
  1
strokes_ogs.tif
102
RTVSPost2010PropOp54
 70
     1
102
RTVSPost2010Prop55
280
     0
102
RTVSPost2010PropOp55
 70
     1
102
RTVSPost2010Prop56
140
1.0
102
RTVSPost2010PropOp56
 70
     1
102
RTVSPost2010Prop57
140
1.0
102
RTVSPost2010PropOp57
 70
     1
102
RTVSPropertyOp0
 70
     1
102
RTVSPropertyOp1
 70
     1
102
RTVSPropertyOp2
 70
     1
102
RTVSPropertyOp3
 70
     1
102
RTVSPropertyOp4
 70
     1
102
RTVSPropertyOp5
 70
     1
102
RTVSPropertyOp6
 70
     1
102
RTVSPropertyOp7
 70
     1
102
RTVSPropertyOp8
 70
     1
102
RTVSPropertyOp9
 70
     1
102
RTVSPropertyOp10
 70
     1
102
RTVSPropertyOp11
 70
     1
102
RTVSPropertyOp12
 70
     1
102
RTVSPropertyOp13
 70
     1
102
RTVSPropertyOp14
 70
     1
102
RTVSPropertyOp15
 70
     1
102
RTVSPropertyOp16
 70
     1
102
RTVSPropertyOp17
 70
     1
102
RTVSPropertyOp18
 70
     1
102
RTVSPropertyOp19
 70
     1
102
RTVSPropertyOp20
 70
     1
102
RTVSPropertyOp21
 70
     1
102
RTVSPropertyOp22
 70
     1
102
RTVSPropertyOp23
 70
     1
102
RTVSPropertyOp24
 70
     1
102
RTVSPropertyOp25
 70
     1
102
RTVSPropertyOp26
 70
     1
102
RTVSPropertyOp27
 70
     1
102
RTVSPropertyOp28
 70
     1
102
RTVSPropertyOp29
 70
     1
102
RTVSPropertyOp30
 70
     1
102
RTVSPropertyOp31
 70
     1
102
RTVSPropertyOp32
 70
     1
102
RTVSPropertyOp33
 70
     1
102
RTVSPropertyOp34
 70
     1
102
RTVSPropertyOp35
 70
     1
102
RTVSPropertyOp36
 70
     1
102
RTVSPropertyOp37
 70
     1
102
RTVSPropertyOp38
 70
     1
102
RTVSPropertyOp39
 70
     1
102
RTVSPropertyOp40
 70
     1
102
RTVSPropertyOp41
 70
     1
102
RTVSPropertyOp42
 70
     1
102
RTVSPropertyOp43
 70
     1
102
RTVSPropertyOp44
 70
     1
102
RTVSPropertyOp45
 70
     1
102
RTVSPropertyOp46
 70
     1
102
RTVSPropertyOp47
 70
     1
102
RTVSPropertyOp48
 70
     1
102
RTVSPropertyOp49
 70
     1
102
RTVSPropertyOp50
 70
     1
102
RTVSPropertyOp51
 70
     0
102
RTVSPropertyOp52
 70
     0
102
RTVSPropertyOp53
 70
     1
102
RTVSPropertyOp54
 70
     1
102
RTVSPropertyOp55
 70
     1
102
RTVSPropertyOp56
 70
     1
102
RTVSPropertyOp57
 70
     1
102
RTVSPropertyOp58
 70
     1
102
RTVSPropertyOp59
 70
     1
102
RTVSPropertyOp60
 70
     1
102
RTVSPropertyOp61
 70
     1
102
RTVSPropertyOp62
 70
     1
  0
XRECORD
  5
866B
102
{ACAD_REACTORS
330
866A
102
}
330
866A
100
AcDbXrecord
280
     1
102
RTVSPost2010Prop28
280
     0
102
RTVSPost2010PropOp28
 70
     1
102
RTVSPost2010Prop29
280
     1
102
RTVSPost2010PropOp29
 70
     1
102
RTVSPost2010Prop30
280
     1
102
RTVSPost2010PropOp30
 70
     1
102
RTVSPost2010Prop31
280
     0
102
RTVSPost2010PropOp31
 70
     1
102
RTVSPost2010Prop32
280
     0
102
RTVSPost2010PropOp32
 70
     1
102
RTVSPost2010Prop33
280
     0
102
RTVSPost2010PropOp33
 70
     1
102
RTVSPost2010Prop34
280
     0
102
RTVSPost2010PropOp34
 70
     1
102
RTVSPost2010Prop35
280
     0
102
RTVSPost2010PropOp35
 70
     1
102
RTVSPost2010Prop36
280
     0
102
RTVSPost2010PropOp36
 70
     1
102
RTVSPost2010Prop37
 90
       50
102
RTVSPost2010PropOp37
 70
     0
102
RTVSPost2010Prop38
140
0.0
102
RTVSPost2010PropOp38
 70
     0
102
RTVSPost2010Prop39
140
1.0
102
RTVSPost2010PropOp39
 70
     0
102
RTVSPost2010Prop40
 90
        0
102
RTVSPost2010PropOp40
 70
     0
102
RTVSPost2010Prop41ColorIndex
 90
       18
102
RTVSPost2010Prop41ColorRGB
 90
        0
102
RTVSPost2010PropOp41
 70
     0
102
RTVSPost2010Prop42
 90
       50
102
RTVSPost2010PropOp42
 70
     0
102
RTVSPost2010Prop43
 90
        3
102
RTVSPost2010PropOp43
 70
     0
102
RTVSPost2010Prop44ColorIndex
 90
        5
102
RTVSPost2010Prop44ColorRGB
 90
      255
102
RTVSPost2010PropOp44
 70
     0
102
RTVSPost2010Prop45
280
     0
102
RTVSPost2010PropOp45
 70
     1
102
RTVSPost2010Prop46
 90
       50
102
RTVSPost2010PropOp46
 70
     0
102
RTVSPost2010Prop47
 90
       50
102
RTVSPost2010PropOp47
 70
     0
102
RTVSPost2010Prop48
 90
       50
102
RTVSPost2010PropOp48
 70
     0
102
RTVSPost2010Prop49
280
     0
102
RTVSPost2010PropOp49
 70
     1
102
RTVSPost2010Prop50
 90
       50
102
RTVSPost2010PropOp50
 70
     0
102
RTVSPost2010Prop51ColorIndex
 90
      256
102
RTVSPost2010Prop51ColorRGB
 90
-16777216
102
RTVSPost2010PropOp51
 70
     0
102
RTVSPost2010Prop52
140
1.0
102
RTVSPost2010PropOp52
 70
     0
102
RTVSPost2010Prop53
 90
        2
102
RTVSPost2010PropOp53
 70
     0
102
RTVSPost2010Prop54
  1
strokes_ogs.tif
102
RTVSPost2010PropOp54
 70
     0
102
RTVSPost2010Prop55
280
     0
102
RTVSPost2010PropOp55
 70
     1
102
RTVSPost2010Prop56
140
1.0
102
RTVSPost2010PropOp56
 70
     0
102
RTVSPost2010Prop57
140
1.0
102
RTVSPost2010PropOp57
 70
     0
102
RTVSPropertyOp0
 70
     0
102
RTVSPropertyOp1
 70
     0
102
RTVSPropertyOp2
 70
     0
102
RTVSPropertyOp3
 70
     0
102
RTVSPropertyOp4
 70
     0
102
RTVSPropertyOp5
 70
     0
102
RTVSPropertyOp6
 70
     0
102
RTVSPropertyOp7
 70
     0
102
RTVSPropertyOp8
 70
     0
102
RTVSPropertyOp9
 70
     0
102
RTVSPropertyOp10
 70
     0
102
RTVSPropertyOp11
 70
     0
102
RTVSPropertyOp12
 70
     0
102
RTVSPropertyOp13
 70
     0
102
RTVSPropertyOp14
 70
     2
102
RTVSPropertyOp15
 70
     0
102
RTVSPropertyOp16
 70
     0
102
RTVSPropertyOp17
 70
     0
102
RTVSPropertyOp18
 70
     0
102
RTVSPropertyOp19
 70
     0
102
RTVSPropertyOp20
 70
     0
102
RTVSPropertyOp21
 70
     0
102
RTVSPropertyOp22
 70
     0
102
RTVSPropertyOp23
 70
     0
102
RTVSPropertyOp24
 70
     0
102
RTVSPropertyOp25
 70
     0
102
RTVSPropertyOp26
 70
     0
102
RTVSPropertyOp27
 70
     0
102
RTVSPropertyOp28
 70
     1
102
RTVSPropertyOp29
 70
     1
102
RTVSPropertyOp30
 70
     1
102
RTVSPropertyOp31
 70
     1
102
RTVSPropertyOp32
 70
     1
102
RTVSPropertyOp33
 70
     1
102
RTVSPropertyOp34
 70
     1
102
RTVSPropertyOp35
 70
     1
102
RTVSPropertyOp36
 70
     1
102
RTVSPropertyOp37
 70
     0
102
RTVSPropertyOp38
 70
     0
102
RTVSPropertyOp39
 70
     0
102
RTVSPropertyOp40
 70
     0
102
RTVSPropertyOp41
 70
     0
102
RTVSPropertyOp42
 70
     0
102
RTVSPropertyOp43
 70
     0
102
RTVSPropertyOp44
 70
     0
102
RTVSPropertyOp45
 70
     1
102
RTVSPropertyOp46
 70
     0
102
RTVSPropertyOp47
 70
     0
102
RTVSPropertyOp48
 70
     0
102
RTVSPropertyOp49
 70
     1
102
RTVSPropertyOp50
 70
     0
102
RTVSPropertyOp51
 70
     0
102
RTVSPropertyOp52
 70
     0
102
RTVSPropertyOp53
 70
     0
102
RTVSPropertyOp54
 70
     0
102
RTVSPropertyOp55
 70
     1
102
RTVSPropertyOp56
 70
     0
102
RTVSPropertyOp57
 70
     0
102
RTVSPropertyOp58
 70
     0
102
RTVSPropertyOp59
 70
     0
102
RTVSPropertyOp60
 70
     0
102
RTVSPropertyOp61
 70
     0
102
RTVSPropertyOp62
 70
     0
  0
XRECORD
  5
8651
102
{ACAD_REACTORS
330
8650
102
}
330
8650
100
AcDbXrecord
280
     1
102
RTVSPost2010Prop28
280
     0
102
RTVSPost2010PropOp28
 70
     1
102
RTVSPost2010Prop29
280
     1
102
RTVSPost2010PropOp29
 70
     1
102
RTVSPost2010Prop30
280
     1
102
RTVSPost2010PropOp30
 70
     1
102
RTVSPost2010Prop31
280
     0
102
RTVSPost2010PropOp31
 70
     1
102
RTVSPost2010Prop32
280
     0
102
RTVSPost2010PropOp32
 70
     1
102
RTVSPost2010Prop33
280
     0
102
RTVSPost2010PropOp33
 70
     1
102
RTVSPost2010Prop34
280
     0
102
RTVSPost2010PropOp34
 70
     1
102
RTVSPost2010Prop35
280
     0
102
RTVSPost2010PropOp35
 70
     1
102
RTVSPost2010Prop36
280
     0
102
RTVSPost2010PropOp36
 70
     1
102
RTVSPost2010Prop37
 90
       50
102
RTVSPost2010PropOp37
 70
     1
102
RTVSPost2010Prop38
140
0.0
102
RTVSPost2010PropOp38
 70
     1
102
RTVSPost2010Prop39
140
1.0
102
RTVSPost2010PropOp39
 70
     1
102
RTVSPost2010Prop40
 90
        0
102
RTVSPost2010PropOp40
 70
     1
102
RTVSPost2010Prop41ColorIndex
 90
       18
102
RTVSPost2010Prop41ColorRGB
 90
        0
102
RTVSPost2010PropOp41
 70
     1
102
RTVSPost2010Prop42
 90
       50
102
RTVSPost2010PropOp42
 70
     1
102
RTVSPost2010Prop43
 90
        3
102
RTVSPost2010PropOp43
 70
     1
102
RTVSPost2010Prop44ColorIndex
 90
        5
102
RTVSPost2010Prop44ColorRGB
 90
      255
102
RTVSPost2010PropOp44
 70
     1
102
RTVSPost2010Prop45
280
     0
102
RTVSPost2010PropOp45
 70
     1
102
RTVSPost2010Prop46
 90
       50
102
RTVSPost2010PropOp46
 70
     1
102
RTVSPost2010Prop47
 90
       50
102
RTVSPost2010PropOp47
 70
     1
102
RTVSPost2010Prop48
 90
       50
102
RTVSPost2010PropOp48
 70
     1
102
RTVSPost2010Prop49
280
     0
102
RTVSPost2010PropOp49
 70
     1
102
RTVSPost2010Prop50
 90
       50
102
RTVSPost2010PropOp50
 70
     1
102
RTVSPost2010Prop51ColorIndex
 90
      256
102
RTVSPost2010Prop51ColorRGB
 90
-16777216
102
RTVSPost2010PropOp51
 70
     0
102
RTVSPost2010Prop52
140
1.0
102
RTVSPost2010PropOp52
 70
     0
102
RTVSPost2010Prop53
 90
        2
102
RTVSPost2010PropOp53
 70
     1
102
RTVSPost2010Prop54
  1
strokes_ogs.tif
102
RTVSPost2010PropOp54
 70
     1
102
RTVSPost2010Prop55
280
     0
102
RTVSPost2010PropOp55
 70
     1
102
RTVSPost2010Prop56
140
1.0
102
RTVSPost2010PropOp56
 70
     1
102
RTVSPost2010Prop57
140
1.0
102
RTVSPost2010PropOp57
 70
     1
102
RTVSPropertyOp0
 70
     1
102
RTVSPropertyOp1
 70
     1
102
RTVSPropertyOp2
 70
     1
102
RTVSPropertyOp3
 70
     1
102
RTVSPropertyOp4
 70
     1
102
RTVSPropertyOp5
 70
     1
102
RTVSPropertyOp6
 70
     1
102
RTVSPropertyOp7
 70
     1
102
RTVSPropertyOp8
 70
     1
102
RTVSPropertyOp9
 70
     1
102
RTVSPropertyOp10
 70
     1
102
RTVSPropertyOp11
 70
     1
102
RTVSPropertyOp12
 70
     1
102
RTVSPropertyOp13
 70
     1
102
RTVSPropertyOp14
 70
     1
102
RTVSPropertyOp15
 70
     1
102
RTVSPropertyOp16
 70
     1
102
RTVSPropertyOp17
 70
     1
102
RTVSPropertyOp18
 70
     1
102
RTVSPropertyOp19
 70
     1
102
RTVSPropertyOp20
 70
     1
102
RTVSPropertyOp21
 70
     1
102
RTVSPropertyOp22
 70
     1
102
RTVSPropertyOp23
 70
     1
102
RTVSPropertyOp24
 70
     1
102
RTVSPropertyOp25
 70
     1
102
RTVSPropertyOp26
 70
     1
102
RTVSPropertyOp27
 70
     1
102
RTVSPropertyOp28
 70
     1
102
RTVSPropertyOp29
 70
     1
102
RTVSPropertyOp30
 70
     1
102
RTVSPropertyOp31
 70
     1
102
RTVSPropertyOp32
 70
     1
102
RTVSPropertyOp33
 70
     1
102
RTVSPropertyOp34
 70
     1
102
RTVSPropertyOp35
 70
     1
102
RTVSPropertyOp36
 70
     1
102
RTVSPropertyOp37
 70
     1
102
RTVSPropertyOp38
 70
     1
102
RTVSPropertyOp39
 70
     1
102
RTVSPropertyOp40
 70
     1
102
RTVSPropertyOp41
 70
     1
102
RTVSPropertyOp42
 70
     1
102
RTVSPropertyOp43
 70
     1
102
RTVSPropertyOp44
 70
     1
102
RTVSPropertyOp45
 70
     1
102
RTVSPropertyOp46
 70
     1
102
RTVSPropertyOp47
 70
     1
102
RTVSPropertyOp48
 70
     1
102
RTVSPropertyOp49
 70
     1
102
RTVSPropertyOp50
 70
     1
102
RTVSPropertyOp51
 70
     0
102
RTVSPropertyOp52
 70
     0
102
RTVSPropertyOp53
 70
     1
102
RTVSPropertyOp54
 70
     1
102
RTVSPropertyOp55
 70
     1
102
RTVSPropertyOp56
 70
     1
102
RTVSPropertyOp57
 70
     1
102
RTVSPropertyOp58
 70
     1
102
RTVSPropertyOp59
 70
     1
102
RTVSPropertyOp60
 70
     1
102
RTVSPropertyOp61
 70
     1
102
RTVSPropertyOp62
 70
     1
  0
XRECORD
  5
8667
102
{ACAD_REACTORS
330
8666
102
}
330
8666
100
AcDbXrecord
280
     1
102
RTVSPost2010Prop28
280
     0
102
RTVSPost2010PropOp28
 70
     1
102
RTVSPost2010Prop29
280
     1
102
RTVSPost2010PropOp29
 70
     1
102
RTVSPost2010Prop30
280
     1
102
RTVSPost2010PropOp30
 70
     1
102
RTVSPost2010Prop31
280
     0
102
RTVSPost2010PropOp31
 70
     1
102
RTVSPost2010Prop32
280
     0
102
RTVSPost2010PropOp32
 70
     1
102
RTVSPost2010Prop33
280
     0
102
RTVSPost2010PropOp33
 70
     1
102
RTVSPost2010Prop34
280
     0
102
RTVSPost2010PropOp34
 70
     1
102
RTVSPost2010Prop35
280
     0
102
RTVSPost2010PropOp35
 70
     1
102
RTVSPost2010Prop36
280
     0
102
RTVSPost2010PropOp36
 70
     1
102
RTVSPost2010Prop37
 90
       50
102
RTVSPost2010PropOp37
 70
     1
102
RTVSPost2010Prop38
140
0.0
102
RTVSPost2010PropOp38
 70
     1
102
RTVSPost2010Prop39
140
1.0
102
RTVSPost2010PropOp39
 70
     1
102
RTVSPost2010Prop40
 90
        0
102
RTVSPost2010PropOp40
 70
     1
102
RTVSPost2010Prop41ColorIndex
 90
       18
102
RTVSPost2010Prop41ColorRGB
 90
        0
102
RTVSPost2010PropOp41
 70
     1
102
RTVSPost2010Prop42
 90
       50
102
RTVSPost2010PropOp42
 70
     1
102
RTVSPost2010Prop43
 90
        3
102
RTVSPost2010PropOp43
 70
     1
102
RTVSPost2010Prop44ColorIndex
 90
        5
102
RTVSPost2010Prop44ColorRGB
 90
      255
102
RTVSPost2010PropOp44
 70
     1
102
RTVSPost2010Prop45
280
     0
102
RTVSPost2010PropOp45
 70
     1
102
RTVSPost2010Prop46
 90
       50
102
RTVSPost2010PropOp46
 70
     1
102
RTVSPost2010Prop47
 90
       50
102
RTVSPost2010PropOp47
 70
     1
102
RTVSPost2010Prop48
 90
       50
102
RTVSPost2010PropOp48
 70
     1
102
RTVSPost2010Prop49
280
     0
102
RTVSPost2010PropOp49
 70
     1
102
RTVSPost2010Prop50
 90
       50
102
RTVSPost2010PropOp50
 70
     1
102
RTVSPost2010Prop51ColorIndex
 90
      256
102
RTVSPost2010Prop51ColorRGB
 90
-16777216
102
RTVSPost2010PropOp51
 70
     0
102
RTVSPost2010Prop52
140
1.0
102
RTVSPost2010PropOp52
 70
     0
102
RTVSPost2010Prop53
 90
        2
102
RTVSPost2010PropOp53
 70
     1
102
RTVSPost2010Prop54
  1
strokes_ogs.tif
102
RTVSPost2010PropOp54
 70
     1
102
RTVSPost2010Prop55
280
     0
102
RTVSPost2010PropOp55
 70
     1
102
RTVSPost2010Prop56
140
1.0
102
RTVSPost2010PropOp56
 70
     1
102
RTVSPost2010Prop57
140
1.0
102
RTVSPost2010PropOp57
 70
     1
102
RTVSPropertyOp0
 70
     1
102
RTVSPropertyOp1
 70
     1
102
RTVSPropertyOp2
 70
     1
102
RTVSPropertyOp3
 70
     1
102
RTVSPropertyOp4
 70
     1
102
RTVSPropertyOp5
 70
     1
102
RTVSPropertyOp6
 70
     1
102
RTVSPropertyOp7
 70
     1
102
RTVSPropertyOp8
 70
     1
102
RTVSPropertyOp9
 70
     1
102
RTVSPropertyOp10
 70
     1
102
RTVSPropertyOp11
 70
     1
102
RTVSPropertyOp12
 70
     1
102
RTVSPropertyOp13
 70
     1
102
RTVSPropertyOp14
 70
     1
102
RTVSPropertyOp15
 70
     1
102
RTVSPropertyOp16
 70
     1
102
RTVSPropertyOp17
 70
     1
102
RTVSPropertyOp18
 70
     1
102
RTVSPropertyOp19
 70
     1
102
RTVSPropertyOp20
 70
     1
102
RTVSPropertyOp21
 70
     1
102
RTVSPropertyOp22
 70
     1
102
RTVSPropertyOp23
 70
     1
102
RTVSPropertyOp24
 70
     1
102
RTVSPropertyOp25
 70
     1
102
RTVSPropertyOp26
 70
     1
102
RTVSPropertyOp27
 70
     1
102
RTVSPropertyOp28
 70
     1
102
RTVSPropertyOp29
 70
     1
102
RTVSPropertyOp30
 70
     1
102
RTVSPropertyOp31
 70
     1
102
RTVSPropertyOp32
 70
     1
102
RTVSPropertyOp33
 70
     1
102
RTVSPropertyOp34
 70
     1
102
RTVSPropertyOp35
 70
     1
102
RTVSPropertyOp36
 70
     1
102
RTVSPropertyOp37
 70
     1
102
RTVSPropertyOp38
 70
     1
102
RTVSPropertyOp39
 70
     1
102
RTVSPropertyOp40
 70
     1
102
RTVSPropertyOp41
 70
     1
102
RTVSPropertyOp42
 70
     1
102
RTVSPropertyOp43
 70
     1
102
RTVSPropertyOp44
 70
     1
102
RTVSPropertyOp45
 70
     1
102
RTVSPropertyOp46
 70
     1
102
RTVSPropertyOp47
 70
     1
102
RTVSPropertyOp48
 70
     1
102
RTVSPropertyOp49
 70
     1
102
RTVSPropertyOp50
 70
     1
102
RTVSPropertyOp51
 70
     0
102
RTVSPropertyOp52
 70
     0
102
RTVSPropertyOp53
 70
     1
102
RTVSPropertyOp54
 70
     1
102
RTVSPropertyOp55
 70
     1
102
RTVSPropertyOp56
 70
     1
102
RTVSPropertyOp57
 70
     1
102
RTVSPropertyOp58
 70
     1
102
RTVSPropertyOp59
 70
     1
102
RTVSPropertyOp60
 70
     1
102
RTVSPropertyOp61
 70
     1
102
RTVSPropertyOp62
 70
     1
  0
XRECORD
  5
8665
102
{ACAD_REACTORS
330
8664
102
}
330
8664
100
AcDbXrecord
280
     1
102
RTVSPost2010Prop28
280
     0
102
RTVSPost2010PropOp28
 70
     1
102
RTVSPost2010Prop29
280
     1
102
RTVSPost2010PropOp29
 70
     1
102
RTVSPost2010Prop30
280
     1
102
RTVSPost2010PropOp30
 70
     1
102
RTVSPost2010Prop31
280
     0
102
RTVSPost2010PropOp31
 70
     1
102
RTVSPost2010Prop32
280
     0
102
RTVSPost2010PropOp32
 70
     1
102
RTVSPost2010Prop33
280
     0
102
RTVSPost2010PropOp33
 70
     1
102
RTVSPost2010Prop34
280
     0
102
RTVSPost2010PropOp34
 70
     1
102
RTVSPost2010Prop35
280
     0
102
RTVSPost2010PropOp35
 70
     1
102
RTVSPost2010Prop36
280
     0
102
RTVSPost2010PropOp36
 70
     1
102
RTVSPost2010Prop37
 90
       50
102
RTVSPost2010PropOp37
 70
     1
102
RTVSPost2010Prop38
140
0.0
102
RTVSPost2010PropOp38
 70
     1
102
RTVSPost2010Prop39
140
1.0
102
RTVSPost2010PropOp39
 70
     1
102
RTVSPost2010Prop40
 90
        0
102
RTVSPost2010PropOp40
 70
     1
102
RTVSPost2010Prop41ColorIndex
 90
       18
102
RTVSPost2010Prop41ColorRGB
 90
        0
102
RTVSPost2010PropOp41
 70
     1
102
RTVSPost2010Prop42
 90
       50
102
RTVSPost2010PropOp42
 70
     1
102
RTVSPost2010Prop43
 90
        3
102
RTVSPost2010PropOp43
 70
     1
102
RTVSPost2010Prop44ColorIndex
 90
        5
102
RTVSPost2010Prop44ColorRGB
 90
      255
102
RTVSPost2010PropOp44
 70
     1
102
RTVSPost2010Prop45
280
     0
102
RTVSPost2010PropOp45
 70
     1
102
RTVSPost2010Prop46
 90
       50
102
RTVSPost2010PropOp46
 70
     1
102
RTVSPost2010Prop47
 90
       50
102
RTVSPost2010PropOp47
 70
     1
102
RTVSPost2010Prop48
 90
       50
102
RTVSPost2010PropOp48
 70
     1
102
RTVSPost2010Prop49
280
     0
102
RTVSPost2010PropOp49
 70
     1
102
RTVSPost2010Prop50
 90
       50
102
RTVSPost2010PropOp50
 70
     1
102
RTVSPost2010Prop51ColorIndex
 90
      256
102
RTVSPost2010Prop51ColorRGB
 90
-16777216
102
RTVSPost2010PropOp51
 70
     0
102
RTVSPost2010Prop52
140
1.0
102
RTVSPost2010PropOp52
 70
     0
102
RTVSPost2010Prop53
 90
        2
102
RTVSPost2010PropOp53
 70
     1
102
RTVSPost2010Prop54
  1
strokes_ogs.tif
102
RTVSPost2010PropOp54
 70
     1
102
RTVSPost2010Prop55
280
     0
102
RTVSPost2010PropOp55
 70
     1
102
RTVSPost2010Prop56
140
1.0
102
RTVSPost2010PropOp56
 70
     1
102
RTVSPost2010Prop57
140
1.0
102
RTVSPost2010PropOp57
 70
     1
102
RTVSPropertyOp0
 70
     1
102
RTVSPropertyOp1
 70
     1
102
RTVSPropertyOp2
 70
     1
102
RTVSPropertyOp3
 70
     1
102
RTVSPropertyOp4
 70
     1
102
RTVSPropertyOp5
 70
     1
102
RTVSPropertyOp6
 70
     1
102
RTVSPropertyOp7
 70
     1
102
RTVSPropertyOp8
 70
     1
102
RTVSPropertyOp9
 70
     1
102
RTVSPropertyOp10
 70
     1
102
RTVSPropertyOp11
 70
     1
102
RTVSPropertyOp12
 70
     1
102
RTVSPropertyOp13
 70
     1
102
RTVSPropertyOp14
 70
     1
102
RTVSPropertyOp15
 70
     1
102
RTVSPropertyOp16
 70
     1
102
RTVSPropertyOp17
 70
     1
102
RTVSPropertyOp18
 70
     1
102
RTVSPropertyOp19
 70
     1
102
RTVSPropertyOp20
 70
     1
102
RTVSPropertyOp21
 70
     1
102
RTVSPropertyOp22
 70
     1
102
RTVSPropertyOp23
 70
     1
102
RTVSPropertyOp24
 70
     1
102
RTVSPropertyOp25
 70
     1
102
RTVSPropertyOp26
 70
     1
102
RTVSPropertyOp27
 70
     1
102
RTVSPropertyOp28
 70
     1
102
RTVSPropertyOp29
 70
     1
102
RTVSPropertyOp30
 70
     1
102
RTVSPropertyOp31
 70
     1
102
RTVSPropertyOp32
 70
     1
102
RTVSPropertyOp33
 70
     1
102
RTVSPropertyOp34
 70
     1
102
RTVSPropertyOp35
 70
     1
102
RTVSPropertyOp36
 70
     1
102
RTVSPropertyOp37
 70
     1
102
RTVSPropertyOp38
 70
     1
102
RTVSPropertyOp39
 70
     1
102
RTVSPropertyOp40
 70
     1
102
RTVSPropertyOp41
 70
     1
102
RTVSPropertyOp42
 70
     1
102
RTVSPropertyOp43
 70
     1
102
RTVSPropertyOp44
 70
     1
102
RTVSPropertyOp45
 70
     1
102
RTVSPropertyOp46
 70
     1
102
RTVSPropertyOp47
 70
     1
102
RTVSPropertyOp48
 70
     1
102
RTVSPropertyOp49
 70
     1
102
RTVSPropertyOp50
 70
     1
102
RTVSPropertyOp51
 70
     0
102
RTVSPropertyOp52
 70
     0
102
RTVSPropertyOp53
 70
     1
102
RTVSPropertyOp54
 70
     1
102
RTVSPropertyOp55
 70
     1
102
RTVSPropertyOp56
 70
     1
102
RTVSPropertyOp57
 70
     1
102
RTVSPropertyOp58
 70
     1
102
RTVSPropertyOp59
 70
     1
102
RTVSPropertyOp60
 70
     1
102
RTVSPropertyOp61
 70
     1
102
RTVSPropertyOp62
 70
     1
  0
XRECORD
  5
865F
102
{ACAD_REACTORS
330
865E
102
}
330
865E
100
AcDbXrecord
280
     1
102
RTVSPost2010Prop28
280
     0
102
RTVSPost2010PropOp28
 70
     1
102
RTVSPost2010Prop29
280
     1
102
RTVSPost2010PropOp29
 70
     1
102
RTVSPost2010Prop30
280
     1
102
RTVSPost2010PropOp30
 70
     1
102
RTVSPost2010Prop31
280
     0
102
RTVSPost2010PropOp31
 70
     1
102
RTVSPost2010Prop32
280
     0
102
RTVSPost2010PropOp32
 70
     1
102
RTVSPost2010Prop33
280
     0
102
RTVSPost2010PropOp33
 70
     1
102
RTVSPost2010Prop34
280
     0
102
RTVSPost2010PropOp34
 70
     1
102
RTVSPost2010Prop35
280
     0
102
RTVSPost2010PropOp35
 70
     1
102
RTVSPost2010Prop36
280
     0
102
RTVSPost2010PropOp36
 70
     1
102
RTVSPost2010Prop37
 90
       50
102
RTVSPost2010PropOp37
 70
     1
102
RTVSPost2010Prop38
140
0.0
102
RTVSPost2010PropOp38
 70
     1
102
RTVSPost2010Prop39
140
1.0
102
RTVSPost2010PropOp39
 70
     1
102
RTVSPost2010Prop40
 90
        0
102
RTVSPost2010PropOp40
 70
     1
102
RTVSPost2010Prop41ColorIndex
 90
       18
102
RTVSPost2010Prop41ColorRGB
 90
        0
102
RTVSPost2010PropOp41
 70
     1
102
RTVSPost2010Prop42
 90
       50
102
RTVSPost2010PropOp42
 70
     1
102
RTVSPost2010Prop43
 90
        3
102
RTVSPost2010PropOp43
 70
     1
102
RTVSPost2010Prop44ColorIndex
 90
        5
102
RTVSPost2010Prop44ColorRGB
 90
      255
102
RTVSPost2010PropOp44
 70
     1
102
RTVSPost2010Prop45
280
     0
102
RTVSPost2010PropOp45
 70
     1
102
RTVSPost2010Prop46
 90
       50
102
RTVSPost2010PropOp46
 70
     1
102
RTVSPost2010Prop47
 90
       50
102
RTVSPost2010PropOp47
 70
     1
102
RTVSPost2010Prop48
 90
       50
102
RTVSPost2010PropOp48
 70
     1
102
RTVSPost2010Prop49
280
     0
102
RTVSPost2010PropOp49
 70
     1
102
RTVSPost2010Prop50
 90
       50
102
RTVSPost2010PropOp50
 70
     1
102
RTVSPost2010Prop51ColorIndex
 90
      256
102
RTVSPost2010Prop51ColorRGB
 90
-16777216
102
RTVSPost2010PropOp51
 70
     0
102
RTVSPost2010Prop52
140
1.0
102
RTVSPost2010PropOp52
 70
     0
102
RTVSPost2010Prop53
 90
        2
102
RTVSPost2010PropOp53
 70
     1
102
RTVSPost2010Prop54
  1
strokes_ogs.tif
102
RTVSPost2010PropOp54
 70
     1
102
RTVSPost2010Prop55
280
     0
102
RTVSPost2010PropOp55
 70
     1
102
RTVSPost2010Prop56
140
1.0
102
RTVSPost2010PropOp56
 70
     1
102
RTVSPost2010Prop57
140
1.0
102
RTVSPost2010PropOp57
 70
     1
102
RTVSPropertyOp0
 70
     1
102
RTVSPropertyOp1
 70
     1
102
RTVSPropertyOp2
 70
     1
102
RTVSPropertyOp3
 70
     1
102
RTVSPropertyOp4
 70
     1
102
RTVSPropertyOp5
 70
     1
102
RTVSPropertyOp6
 70
     1
102
RTVSPropertyOp7
 70
     1
102
RTVSPropertyOp8
 70
     1
102
RTVSPropertyOp9
 70
     1
102
RTVSPropertyOp10
 70
     1
102
RTVSPropertyOp11
 70
     1
102
RTVSPropertyOp12
 70
     1
102
RTVSPropertyOp13
 70
     1
102
RTVSPropertyOp14
 70
     1
102
RTVSPropertyOp15
 70
     1
102
RTVSPropertyOp16
 70
     1
102
RTVSPropertyOp17
 70
     1
102
RTVSPropertyOp18
 70
     1
102
RTVSPropertyOp19
 70
     1
102
RTVSPropertyOp20
 70
     1
102
RTVSPropertyOp21
 70
     1
102
RTVSPropertyOp22
 70
     1
102
RTVSPropertyOp23
 70
     1
102
RTVSPropertyOp24
 70
     1
102
RTVSPropertyOp25
 70
     1
102
RTVSPropertyOp26
 70
     1
102
RTVSPropertyOp27
 70
     1
102
RTVSPropertyOp28
 70
     1
102
RTVSPropertyOp29
 70
     1
102
RTVSPropertyOp30
 70
     1
102
RTVSPropertyOp31
 70
     1
102
RTVSPropertyOp32
 70
     1
102
RTVSPropertyOp33
 70
     1
102
RTVSPropertyOp34
 70
     1
102
RTVSPropertyOp35
 70
     1
102
RTVSPropertyOp36
 70
     1
102
RTVSPropertyOp37
 70
     1
102
RTVSPropertyOp38
 70
     1
102
RTVSPropertyOp39
 70
     1
102
RTVSPropertyOp40
 70
     1
102
RTVSPropertyOp41
 70
     1
102
RTVSPropertyOp42
 70
     1
102
RTVSPropertyOp43
 70
     1
102
RTVSPropertyOp44
 70
     1
102
RTVSPropertyOp45
 70
     1
102
RTVSPropertyOp46
 70
     1
102
RTVSPropertyOp47
 70
     1
102
RTVSPropertyOp48
 70
     1
102
RTVSPropertyOp49
 70
     1
102
RTVSPropertyOp50
 70
     1
102
RTVSPropertyOp51
 70
     0
102
RTVSPropertyOp52
 70
     0
102
RTVSPropertyOp53
 70
     1
102
RTVSPropertyOp54
 70
     1
102
RTVSPropertyOp55
 70
     1
102
RTVSPropertyOp56
 70
     1
102
RTVSPropertyOp57
 70
     1
102
RTVSPropertyOp58
 70
     1
102
RTVSPropertyOp59
 70
     1
102
RTVSPropertyOp60
 70
     1
102
RTVSPropertyOp61
 70
     1
102
RTVSPropertyOp62
 70
     1
  0
XRECORD
  5
8661
102
{ACAD_REACTORS
330
8660
102
}
330
8660
100
AcDbXrecord
280
     1
102
RTVSPost2010Prop28
280
     0
102
RTVSPost2010PropOp28
 70
     1
102
RTVSPost2010Prop29
280
     1
102
RTVSPost2010PropOp29
 70
     1
102
RTVSPost2010Prop30
280
     1
102
RTVSPost2010PropOp30
 70
     1
102
RTVSPost2010Prop31
280
     0
102
RTVSPost2010PropOp31
 70
     1
102
RTVSPost2010Prop32
280
     0
102
RTVSPost2010PropOp32
 70
     1
102
RTVSPost2010Prop33
280
     0
102
RTVSPost2010PropOp33
 70
     1
102
RTVSPost2010Prop34
280
     0
102
RTVSPost2010PropOp34
 70
     1
102
RTVSPost2010Prop35
280
     0
102
RTVSPost2010PropOp35
 70
     1
102
RTVSPost2010Prop36
280
     0
102
RTVSPost2010PropOp36
 70
     1
102
RTVSPost2010Prop37
 90
       50
102
RTVSPost2010PropOp37
 70
     1
102
RTVSPost2010Prop38
140
0.0
102
RTVSPost2010PropOp38
 70
     1
102
RTVSPost2010Prop39
140
1.0
102
RTVSPost2010PropOp39
 70
     1
102
RTVSPost2010Prop40
 90
        0
102
RTVSPost2010PropOp40
 70
     1
102
RTVSPost2010Prop41ColorIndex
 90
       18
102
RTVSPost2010Prop41ColorRGB
 90
        0
102
RTVSPost2010PropOp41
 70
     1
102
RTVSPost2010Prop42
 90
       50
102
RTVSPost2010PropOp42
 70
     1
102
RTVSPost2010Prop43
 90
        3
102
RTVSPost2010PropOp43
 70
     1
102
RTVSPost2010Prop44ColorIndex
 90
        5
102
RTVSPost2010Prop44ColorRGB
 90
      255
102
RTVSPost2010PropOp44
 70
     1
102
RTVSPost2010Prop45
280
     0
102
RTVSPost2010PropOp45
 70
     1
102
RTVSPost2010Prop46
 90
       50
102
RTVSPost2010PropOp46
 70
     1
102
RTVSPost2010Prop47
 90
       50
102
RTVSPost2010PropOp47
 70
     1
102
RTVSPost2010Prop48
 90
       50
102
RTVSPost2010PropOp48
 70
     1
102
RTVSPost2010Prop49
280
     0
102
RTVSPost2010PropOp49
 70
     1
102
RTVSPost2010Prop50
 90
       50
102
RTVSPost2010PropOp50
 70
     1
102
RTVSPost2010Prop51ColorIndex
 90
      256
102
RTVSPost2010Prop51ColorRGB
 90
-16777216
102
RTVSPost2010PropOp51
 70
     0
102
RTVSPost2010Prop52
140
1.0
102
RTVSPost2010PropOp52
 70
     0
102
RTVSPost2010Prop53
 90
        2
102
RTVSPost2010PropOp53
 70
     1
102
RTVSPost2010Prop54
  1
strokes_ogs.tif
102
RTVSPost2010PropOp54
 70
     1
102
RTVSPost2010Prop55
280
     0
102
RTVSPost2010PropOp55
 70
     1
102
RTVSPost2010Prop56
140
1.0
102
RTVSPost2010PropOp56
 70
     1
102
RTVSPost2010Prop57
140
1.0
102
RTVSPost2010PropOp57
 70
     1
102
RTVSPropertyOp0
 70
     1
102
RTVSPropertyOp1
 70
     1
102
RTVSPropertyOp2
 70
     1
102
RTVSPropertyOp3
 70
     1
102
RTVSPropertyOp4
 70
     1
102
RTVSPropertyOp5
 70
     1
102
RTVSPropertyOp6
 70
     1
102
RTVSPropertyOp7
 70
     1
102
RTVSPropertyOp8
 70
     1
102
RTVSPropertyOp9
 70
     1
102
RTVSPropertyOp10
 70
     1
102
RTVSPropertyOp11
 70
     1
102
RTVSPropertyOp12
 70
     1
102
RTVSPropertyOp13
 70
     1
102
RTVSPropertyOp14
 70
     1
102
RTVSPropertyOp15
 70
     1
102
RTVSPropertyOp16
 70
     1
102
RTVSPropertyOp17
 70
     1
102
RTVSPropertyOp18
 70
     1
102
RTVSPropertyOp19
 70
     1
102
RTVSPropertyOp20
 70
     1
102
RTVSPropertyOp21
 70
     1
102
RTVSPropertyOp22
 70
     1
102
RTVSPropertyOp23
 70
     1
102
RTVSPropertyOp24
 70
     1
102
RTVSPropertyOp25
 70
     1
102
RTVSPropertyOp26
 70
     1
102
RTVSPropertyOp27
 70
     1
102
RTVSPropertyOp28
 70
     1
102
RTVSPropertyOp29
 70
     1
102
RTVSPropertyOp30
 70
     1
102
RTVSPropertyOp31
 70
     1
102
RTVSPropertyOp32
 70
     1
102
RTVSPropertyOp33
 70
     1
102
RTVSPropertyOp34
 70
     1
102
RTVSPropertyOp35
 70
     1
102
RTVSPropertyOp36
 70
     1
102
RTVSPropertyOp37
 70
     1
102
RTVSPropertyOp38
 70
     1
102
RTVSPropertyOp39
 70
     1
102
RTVSPropertyOp40
 70
     1
102
RTVSPropertyOp41
 70
     1
102
RTVSPropertyOp42
 70
     1
102
RTVSPropertyOp43
 70
     1
102
RTVSPropertyOp44
 70
     1
102
RTVSPropertyOp45
 70
     1
102
RTVSPropertyOp46
 70
     1
102
RTVSPropertyOp47
 70
     1
102
RTVSPropertyOp48
 70
     1
102
RTVSPropertyOp49
 70
     1
102
RTVSPropertyOp50
 70
     1
102
RTVSPropertyOp51
 70
     0
102
RTVSPropertyOp52
 70
     0
102
RTVSPropertyOp53
 70
     1
102
RTVSPropertyOp54
 70
     1
102
RTVSPropertyOp55
 70
     1
102
RTVSPropertyOp56
 70
     1
102
RTVSPropertyOp57
 70
     1
102
RTVSPropertyOp58
 70
     1
102
RTVSPropertyOp59
 70
     1
102
RTVSPropertyOp60
 70
     1
102
RTVSPropertyOp61
 70
     1
102
RTVSPropertyOp62
 70
     1
  0
XRECORD
  5
8657
102
{ACAD_REACTORS
330
8656
102
}
330
8656
100
AcDbXrecord
280
     1
102
RTVSPost2010Prop28
280
     0
102
RTVSPost2010PropOp28
 70
     1
102
RTVSPost2010Prop29
280
     1
102
RTVSPost2010PropOp29
 70
     1
102
RTVSPost2010Prop30
280
     1
102
RTVSPost2010PropOp30
 70
     1
102
RTVSPost2010Prop31
280
     0
102
RTVSPost2010PropOp31
 70
     1
102
RTVSPost2010Prop32
280
     0
102
RTVSPost2010PropOp32
 70
     1
102
RTVSPost2010Prop33
280
     0
102
RTVSPost2010PropOp33
 70
     1
102
RTVSPost2010Prop34
280
     0
102
RTVSPost2010PropOp34
 70
     1
102
RTVSPost2010Prop35
280
     0
102
RTVSPost2010PropOp35
 70
     1
102
RTVSPost2010Prop36
280
     0
102
RTVSPost2010PropOp36
 70
     1
102
RTVSPost2010Prop37
 90
       50
102
RTVSPost2010PropOp37
 70
     1
102
RTVSPost2010Prop38
140
0.0
102
RTVSPost2010PropOp38
 70
     1
102
RTVSPost2010Prop39
140
1.0
102
RTVSPost2010PropOp39
 70
     1
102
RTVSPost2010Prop40
 90
        0
102
RTVSPost2010PropOp40
 70
     1
102
RTVSPost2010Prop41ColorIndex
 90
       18
102
RTVSPost2010Prop41ColorRGB
 90
        0
102
RTVSPost2010PropOp41
 70
     1
102
RTVSPost2010Prop42
 90
       50
102
RTVSPost2010PropOp42
 70
     1
102
RTVSPost2010Prop43
 90
        3
102
RTVSPost2010PropOp43
 70
     1
102
RTVSPost2010Prop44ColorIndex
 90
        5
102
RTVSPost2010Prop44ColorRGB
 90
      255
102
RTVSPost2010PropOp44
 70
     1
102
RTVSPost2010Prop45
280
     0
102
RTVSPost2010PropOp45
 70
     1
102
RTVSPost2010Prop46
 90
       50
102
RTVSPost2010PropOp46
 70
     1
102
RTVSPost2010Prop47
 90
       50
102
RTVSPost2010PropOp47
 70
     1
102
RTVSPost2010Prop48
 90
       50
102
RTVSPost2010PropOp48
 70
     1
102
RTVSPost2010Prop49
280
     0
102
RTVSPost2010PropOp49
 70
     1
102
RTVSPost2010Prop50
 90
       50
102
RTVSPost2010PropOp50
 70
     1
102
RTVSPost2010Prop51ColorIndex
 90
      256
102
RTVSPost2010Prop51ColorRGB
 90
-16777216
102
RTVSPost2010PropOp51
 70
     0
102
RTVSPost2010Prop52
140
1.0
102
RTVSPost2010PropOp52
 70
     0
102
RTVSPost2010Prop53
 90
        2
102
RTVSPost2010PropOp53
 70
     1
102
RTVSPost2010Prop54
  1
strokes_ogs.tif
102
RTVSPost2010PropOp54
 70
     1
102
RTVSPost2010Prop55
280
     0
102
RTVSPost2010PropOp55
 70
     1
102
RTVSPost2010Prop56
140
1.0
102
RTVSPost2010PropOp56
 70
     1
102
RTVSPost2010Prop57
140
1.0
102
RTVSPost2010PropOp57
 70
     1
102
RTVSPropertyOp0
 70
     1
102
RTVSPropertyOp1
 70
     1
102
RTVSPropertyOp2
 70
     1
102
RTVSPropertyOp3
 70
     1
102
RTVSPropertyOp4
 70
     1
102
RTVSPropertyOp5
 70
     1
102
RTVSPropertyOp6
 70
     1
102
RTVSPropertyOp7
 70
     1
102
RTVSPropertyOp8
 70
     1
102
RTVSPropertyOp9
 70
     1
102
RTVSPropertyOp10
 70
     1
102
RTVSPropertyOp11
 70
     1
102
RTVSPropertyOp12
 70
     1
102
RTVSPropertyOp13
 70
     1
102
RTVSPropertyOp14
 70
     1
102
RTVSPropertyOp15
 70
     1
102
RTVSPropertyOp16
 70
     1
102
RTVSPropertyOp17
 70
     1
102
RTVSPropertyOp18
 70
     1
102
RTVSPropertyOp19
 70
     1
102
RTVSPropertyOp20
 70
     1
102
RTVSPropertyOp21
 70
     1
102
RTVSPropertyOp22
 70
     1
102
RTVSPropertyOp23
 70
     1
102
RTVSPropertyOp24
 70
     1
102
RTVSPropertyOp25
 70
     1
102
RTVSPropertyOp26
 70
     1
102
RTVSPropertyOp27
 70
     1
102
RTVSPropertyOp28
 70
     1
102
RTVSPropertyOp29
 70
     1
102
RTVSPropertyOp30
 70
     1
102
RTVSPropertyOp31
 70
     1
102
RTVSPropertyOp32
 70
     1
102
RTVSPropertyOp33
 70
     1
102
RTVSPropertyOp34
 70
     1
102
RTVSPropertyOp35
 70
     1
102
RTVSPropertyOp36
 70
     1
102
RTVSPropertyOp37
 70
     1
102
RTVSPropertyOp38
 70
     1
102
RTVSPropertyOp39
 70
     1
102
RTVSPropertyOp40
 70
     1
102
RTVSPropertyOp41
 70
     1
102
RTVSPropertyOp42
 70
     1
102
RTVSPropertyOp43
 70
     1
102
RTVSPropertyOp44
 70
     1
102
RTVSPropertyOp45
 70
     1
102
RTVSPropertyOp46
 70
     1
102
RTVSPropertyOp47
 70
     1
102
RTVSPropertyOp48
 70
     1
102
RTVSPropertyOp49
 70
     1
102
RTVSPropertyOp50
 70
     1
102
RTVSPropertyOp51
 70
     0
102
RTVSPropertyOp52
 70
     0
102
RTVSPropertyOp53
 70
     1
102
RTVSPropertyOp54
 70
     1
102
RTVSPropertyOp55
 70
     1
102
RTVSPropertyOp56
 70
     1
102
RTVSPropertyOp57
 70
     1
102
RTVSPropertyOp58
 70
     1
102
RTVSPropertyOp59
 70
     1
102
RTVSPropertyOp60
 70
     1
102
RTVSPropertyOp61
 70
     1
102
RTVSPropertyOp62
 70
     1
  0
XRECORD
  5
864B
102
{ACAD_REACTORS
330
864A
102
}
330
864A
100
AcDbXrecord
280
     1
102
RTVSPost2010Prop28
280
     0
102
RTVSPost2010PropOp28
 70
     1
102
RTVSPost2010Prop29
280
     1
102
RTVSPost2010PropOp29
 70
     1
102
RTVSPost2010Prop30
280
     1
102
RTVSPost2010PropOp30
 70
     1
102
RTVSPost2010Prop31
280
     0
102
RTVSPost2010PropOp31
 70
     1
102
RTVSPost2010Prop32
280
     0
102
RTVSPost2010PropOp32
 70
     1
102
RTVSPost2010Prop33
280
     0
102
RTVSPost2010PropOp33
 70
     1
102
RTVSPost2010Prop34
280
     0
102
RTVSPost2010PropOp34
 70
     1
102
RTVSPost2010Prop35
280
     0
102
RTVSPost2010PropOp35
 70
     1
102
RTVSPost2010Prop36
280
     0
102
RTVSPost2010PropOp36
 70
     1
102
RTVSPost2010Prop37
 90
       50
102
RTVSPost2010PropOp37
 70
     1
102
RTVSPost2010Prop38
140
0.0
102
RTVSPost2010PropOp38
 70
     1
102
RTVSPost2010Prop39
140
1.0
102
RTVSPost2010PropOp39
 70
     1
102
RTVSPost2010Prop40
 90
        0
102
RTVSPost2010PropOp40
 70
     1
102
RTVSPost2010Prop41ColorIndex
 90
       18
102
RTVSPost2010Prop41ColorRGB
 90
        0
102
RTVSPost2010PropOp41
 70
     1
102
RTVSPost2010Prop42
 90
       50
102
RTVSPost2010PropOp42
 70
     1
102
RTVSPost2010Prop43
 90
        3
102
RTVSPost2010PropOp43
 70
     1
102
RTVSPost2010Prop44ColorIndex
 90
        5
102
RTVSPost2010Prop44ColorRGB
 90
      255
102
RTVSPost2010PropOp44
 70
     1
102
RTVSPost2010Prop45
280
     0
102
RTVSPost2010PropOp45
 70
     1
102
RTVSPost2010Prop46
 90
       50
102
RTVSPost2010PropOp46
 70
     1
102
RTVSPost2010Prop47
 90
       50
102
RTVSPost2010PropOp47
 70
     1
102
RTVSPost2010Prop48
 90
       50
102
RTVSPost2010PropOp48
 70
     1
102
RTVSPost2010Prop49
280
     0
102
RTVSPost2010PropOp49
 70
     1
102
RTVSPost2010Prop50
 90
       50
102
RTVSPost2010PropOp50
 70
     1
102
RTVSPost2010Prop51ColorIndex
 90
      256
102
RTVSPost2010Prop51ColorRGB
 90
-16777216
102
RTVSPost2010PropOp51
 70
     0
102
RTVSPost2010Prop52
140
1.0
102
RTVSPost2010PropOp52
 70
     0
102
RTVSPost2010Prop53
 90
        2
102
RTVSPost2010PropOp53
 70
     1
102
RTVSPost2010Prop54
  1
strokes_ogs.tif
102
RTVSPost2010PropOp54
 70
     1
102
RTVSPost2010Prop55
280
     0
102
RTVSPost2010PropOp55
 70
     1
102
RTVSPost2010Prop56
140
1.0
102
RTVSPost2010PropOp56
 70
     1
102
RTVSPost2010Prop57
140
1.0
102
RTVSPost2010PropOp57
 70
     1
102
RTVSPropertyOp0
 70
     1
102
RTVSPropertyOp1
 70
     1
102
RTVSPropertyOp2
 70
     1
102
RTVSPropertyOp3
 70
     1
102
RTVSPropertyOp4
 70
     1
102
RTVSPropertyOp5
 70
     1
102
RTVSPropertyOp6
 70
     1
102
RTVSPropertyOp7
 70
     1
102
RTVSPropertyOp8
 70
     1
102
RTVSPropertyOp9
 70
     1
102
RTVSPropertyOp10
 70
     1
102
RTVSPropertyOp11
 70
     1
102
RTVSPropertyOp12
 70
     1
102
RTVSPropertyOp13
 70
     1
102
RTVSPropertyOp14
 70
     1
102
RTVSPropertyOp15
 70
     1
102
RTVSPropertyOp16
 70
     1
102
RTVSPropertyOp17
 70
     1
102
RTVSPropertyOp18
 70
     1
102
RTVSPropertyOp19
 70
     1
102
RTVSPropertyOp20
 70
     1
102
RTVSPropertyOp21
 70
     1
102
RTVSPropertyOp22
 70
     1
102
RTVSPropertyOp23
 70
     1
102
RTVSPropertyOp24
 70
     1
102
RTVSPropertyOp25
 70
     1
102
RTVSPropertyOp26
 70
     1
102
RTVSPropertyOp27
 70
     1
102
RTVSPropertyOp28
 70
     1
102
RTVSPropertyOp29
 70
     1
102
RTVSPropertyOp30
 70
     1
102
RTVSPropertyOp31
 70
     1
102
RTVSPropertyOp32
 70
     1
102
RTVSPropertyOp33
 70
     1
102
RTVSPropertyOp34
 70
     1
102
RTVSPropertyOp35
 70
     1
102
RTVSPropertyOp36
 70
     1
102
RTVSPropertyOp37
 70
     1
102
RTVSPropertyOp38
 70
     1
102
RTVSPropertyOp39
 70
     1
102
RTVSPropertyOp40
 70
     1
102
RTVSPropertyOp41
 70
     1
102
RTVSPropertyOp42
 70
     1
102
RTVSPropertyOp43
 70
     1
102
RTVSPropertyOp44
 70
     1
102
RTVSPropertyOp45
 70
     1
102
RTVSPropertyOp46
 70
     1
102
RTVSPropertyOp47
 70
     1
102
RTVSPropertyOp48
 70
     1
102
RTVSPropertyOp49
 70
     1
102
RTVSPropertyOp50
 70
     1
102
RTVSPropertyOp51
 70
     0
102
RTVSPropertyOp52
 70
     0
102
RTVSPropertyOp53
 70
     1
102
RTVSPropertyOp54
 70
     1
102
RTVSPropertyOp55
 70
     1
102
RTVSPropertyOp56
 70
     1
102
RTVSPropertyOp57
 70
     1
102
RTVSPropertyOp58
 70
     1
102
RTVSPropertyOp59
 70
     1
102
RTVSPropertyOp60
 70
     1
102
RTVSPropertyOp61
 70
     1
102
RTVSPropertyOp62
 70
     1
  0
XRECORD
  5
8663
102
{ACAD_REACTORS
330
8662
102
}
330
8662
100
AcDbXrecord
280
     1
102
RTVSPost2010Prop28
280
     0
102
RTVSPost2010PropOp28
 70
     1
102
RTVSPost2010Prop29
280
     1
102
RTVSPost2010PropOp29
 70
     1
102
RTVSPost2010Prop30
280
     1
102
RTVSPost2010PropOp30
 70
     1
102
RTVSPost2010Prop31
280
     0
102
RTVSPost2010PropOp31
 70
     1
102
RTVSPost2010Prop32
280
     0
102
RTVSPost2010PropOp32
 70
     1
102
RTVSPost2010Prop33
280
     0
102
RTVSPost2010PropOp33
 70
     1
102
RTVSPost2010Prop34
280
     0
102
RTVSPost2010PropOp34
 70
     1
102
RTVSPost2010Prop35
280
     0
102
RTVSPost2010PropOp35
 70
     1
102
RTVSPost2010Prop36
280
     0
102
RTVSPost2010PropOp36
 70
     1
102
RTVSPost2010Prop37
 90
       50
102
RTVSPost2010PropOp37
 70
     1
102
RTVSPost2010Prop38
140
0.0
102
RTVSPost2010PropOp38
 70
     1
102
RTVSPost2010Prop39
140
1.0
102
RTVSPost2010PropOp39
 70
     1
102
RTVSPost2010Prop40
 90
        0
102
RTVSPost2010PropOp40
 70
     1
102
RTVSPost2010Prop41ColorIndex
 90
       18
102
RTVSPost2010Prop41ColorRGB
 90
        0
102
RTVSPost2010PropOp41
 70
     1
102
RTVSPost2010Prop42
 90
       50
102
RTVSPost2010PropOp42
 70
     1
102
RTVSPost2010Prop43
 90
        3
102
RTVSPost2010PropOp43
 70
     1
102
RTVSPost2010Prop44ColorIndex
 90
        5
102
RTVSPost2010Prop44ColorRGB
 90
      255
102
RTVSPost2010PropOp44
 70
     1
102
RTVSPost2010Prop45
280
     0
102
RTVSPost2010PropOp45
 70
     1
102
RTVSPost2010Prop46
 90
       50
102
RTVSPost2010PropOp46
 70
     1
102
RTVSPost2010Prop47
 90
       50
102
RTVSPost2010PropOp47
 70
     1
102
RTVSPost2010Prop48
 90
       50
102
RTVSPost2010PropOp48
 70
     1
102
RTVSPost2010Prop49
280
     0
102
RTVSPost2010PropOp49
 70
     1
102
RTVSPost2010Prop50
 90
       50
102
RTVSPost2010PropOp50
 70
     1
102
RTVSPost2010Prop51ColorIndex
 90
      256
102
RTVSPost2010Prop51ColorRGB
 90
-16777216
102
RTVSPost2010PropOp51
 70
     0
102
RTVSPost2010Prop52
140
1.0
102
RTVSPost2010PropOp52
 70
     0
102
RTVSPost2010Prop53
 90
        2
102
RTVSPost2010PropOp53
 70
     1
102
RTVSPost2010Prop54
  1
strokes_ogs.tif
102
RTVSPost2010PropOp54
 70
     1
102
RTVSPost2010Prop55
280
     0
102
RTVSPost2010PropOp55
 70
     1
102
RTVSPost2010Prop56
140
1.0
102
RTVSPost2010PropOp56
 70
     1
102
RTVSPost2010Prop57
140
1.0
102
RTVSPost2010PropOp57
 70
     1
102
RTVSPropertyOp0
 70
     1
102
RTVSPropertyOp1
 70
     1
102
RTVSPropertyOp2
 70
     1
102
RTVSPropertyOp3
 70
     1
102
RTVSPropertyOp4
 70
     1
102
RTVSPropertyOp5
 70
     1
102
RTVSPropertyOp6
 70
     1
102
RTVSPropertyOp7
 70
     1
102
RTVSPropertyOp8
 70
     1
102
RTVSPropertyOp9
 70
     1
102
RTVSPropertyOp10
 70
     1
102
RTVSPropertyOp11
 70
     1
102
RTVSPropertyOp12
 70
     1
102
RTVSPropertyOp13
 70
     1
102
RTVSPropertyOp14
 70
     1
102
RTVSPropertyOp15
 70
     1
102
RTVSPropertyOp16
 70
     1
102
RTVSPropertyOp17
 70
     1
102
RTVSPropertyOp18
 70
     1
102
RTVSPropertyOp19
 70
     1
102
RTVSPropertyOp20
 70
     1
102
RTVSPropertyOp21
 70
     1
102
RTVSPropertyOp22
 70
     1
102
RTVSPropertyOp23
 70
     1
102
RTVSPropertyOp24
 70
     1
102
RTVSPropertyOp25
 70
     1
102
RTVSPropertyOp26
 70
     1
102
RTVSPropertyOp27
 70
     1
102
RTVSPropertyOp28
 70
     1
102
RTVSPropertyOp29
 70
     1
102
RTVSPropertyOp30
 70
     1
102
RTVSPropertyOp31
 70
     1
102
RTVSPropertyOp32
 70
     1
102
RTVSPropertyOp33
 70
     1
102
RTVSPropertyOp34
 70
     1
102
RTVSPropertyOp35
 70
     1
102
RTVSPropertyOp36
 70
     1
102
RTVSPropertyOp37
 70
     1
102
RTVSPropertyOp38
 70
     1
102
RTVSPropertyOp39
 70
     1
102
RTVSPropertyOp40
 70
     1
102
RTVSPropertyOp41
 70
     1
102
RTVSPropertyOp42
 70
     1
102
RTVSPropertyOp43
 70
     1
102
RTVSPropertyOp44
 70
     1
102
RTVSPropertyOp45
 70
     1
102
RTVSPropertyOp46
 70
     1
102
RTVSPropertyOp47
 70
     1
102
RTVSPropertyOp48
 70
     1
102
RTVSPropertyOp49
 70
     1
102
RTVSPropertyOp50
 70
     1
102
RTVSPropertyOp51
 70
     0
102
RTVSPropertyOp52
 70
     0
102
RTVSPropertyOp53
 70
     1
102
RTVSPropertyOp54
 70
     1
102
RTVSPropertyOp55
 70
     1
102
RTVSPropertyOp56
 70
     1
102
RTVSPropertyOp57
 70
     1
102
RTVSPropertyOp58
 70
     1
102
RTVSPropertyOp59
 70
     1
102
RTVSPropertyOp60
 70
     1
102
RTVSPropertyOp61
 70
     1
102
RTVSPropertyOp62
 70
     1
  0
ENDSEC
  0
EOF
