  0
SECTION
  2
HEADER
  9
$ACADVER
  1
AC1015
  9
$ACADMAINTVER
 70
    20
  9
$DWGCODEPAGE
  3
ANSI_932
  9
$INSBASE
 10
0.0
 20
0.0
 30
0.0
  9
$EXTMIN
 10
-0.2563280987742473
 20
-0.3600799482810544
 30
-0.0015258207003583
  9
$EXTMAX
 10
8400.256367214323
 20
11800.3601348963
 30
0.0000000349246037
  9
$LIMMIN
 10
0.0
 20
0.0
  9
$LIMMAX
 10
297.0
 20
210.0
  9
$ORTHOMODE
 70
     1
  9
$REGENMODE
 70
     1
  9
$FILLMODE
 70
     0
  9
$QTEXTMODE
 70
     0
  9
$MIRRTEXT
 70
     1
  9
$LTSCALE
 40
100.0
  9
$ATTMODE
 70
     1
  9
$TEXTSIZE
 40
180.0
  9
$TRACEWID
 40
0.05
  9
$TEXTSTYLE
  7
STANDARD
  9
$CLAYER
  8
3
  9
$CELTYPE
  6
ByLayer
  9
$CECOLOR
 62
   256
  9
$CELTSCALE
 40
1.0
  9
$DISPSILH
 70
     0
  9
$DIMSCALE
 40
40.0
  9
$DIMASZ
 40
2.0
  9
$DIMEXO
 40
0.5
  9
$DIMDLI
 40
10.0
  9
$DIMRND
 40
0.0
  9
$DIMDLE
 40
0.0
  9
$DIMEXE
 40
1.0
  9
$DIMTP
 40
1.0
  9
$DIMTM
 40
1.0
  9
$DIMTXT
 40
3.0
  9
$DIMCEN
 40
0.0
  9
$DIMTSZ
 40
0.0
  9
$DIMTOL
 70
     0
  9
$DIMLIM
 70
     0
  9
$DIMTIH
 70
     0
  9
$DIMTOH
 70
     0
  9
$DIMSE1
 70
     0
  9
$DIMSE2
 70
     0
  9
$DIMTAD
 70
     1
  9
$DIMZIN
 70
     8
  9
$DIMBLK
  1

  9
$DIMASO
 70
     1
  9
$DIMSHO
 70
     1
  9
$DIMPOST
  1

  9
$DIMAPOST
  1

  9
$DIMALT
 70
     0
  9
$DIMALTD
 70
     2
  9
$DIMALTF
 40
0.039
  9
$DIMLFAC
 40
1.0
  9
$DIMTOFL
 70
     1
  9
$DIMTVP
 40
0.0
  9
$DIMTIX
 70
     0
  9
$DIMSOXD
 70
     0
  9
$DIMSAH
 70
     1
  9
$DIMBLK1
  1
OPEN
  9
$DIMBLK2
  1
OPEN
  9
$DIMSTYLE
  2
IGA
  9
$DIMCLRD
 70
     0
  9
$DIMCLRE
 70
     0
  9
$DIMCLRT
 70
     0
  9
$DIMTFAC
 40
10.0
  9
$DIMGAP
 40
1.0
  9
$DIMJUST
 70
     0
  9
$DIMSD1
 70
     0
  9
$DIMSD2
 70
     0
  9
$DIMTOLJ
 70
     1
  9
$DIMTZIN
 70
     0
  9
$DIMALTZ
 70
     0
  9
$DIMALTTZ
 70
     0
  9
$DIMUPT
 70
     0
  9
$DIMDEC
 70
     4
  9
$DIMTDEC
 70
     4
  9
$DIMALTU
 70
     2
  9
$DIMALTTD
 70
     2
  9
$DIMTXSTY
  7
STANDARD
  9
$DIMAUNIT
 70
     0
  9
$DIMADEC
 70
     0
  9
$DIMALTRND
 40
0.0
  9
$DIMAZIN
 70
     0
  9
$DIMDSEP
 70
    46
  9
$DIMATFIT
 70
     3
  9
$DIMFRAC
 70
     0
  9
$DIMLDRBLK
  1
OPEN
  9
$DIMLUNIT
 70
     2
  9
$DIMLWD
 70
    -2
  9
$DIMLWE
 70
    -2
  9
$DIMTMOVE
 70
     0
  9
$LUNITS
 70
     2
  9
$LUPREC
 70
     3
  9
$SKETCHINC
 40
0.1
  9
$FILLETRAD
 40
50.0
  9
$AUNITS
 70
     0
  9
$AUPREC
 70
     0
  9
$MENU
  1
acad
  9
$ELEVATION
 40
0.0
  9
$PELEVATION
 40
0.0
  9
$THICKNESS
 40
0.0
  9
$LIMCHECK
 70
     0
  9
$CHAMFERA
 40
0.5
  9
$CHAMFERB
 40
0.5
  9
$CHAMFERC
 40
0.0
  9
$CHAMFERD
 40
0.0
  9
$SKPOLY
 70
     0
  9
$TDCREATE
 40
2451898.488112731
  9
$TDUCREATE
 40
2451898.113112731
  9
$TDUPDATE
 40
2460280.696101331
  9
$TDUUPDATE
 40
2460280.321101331
  9
$TDINDWG
 40
0.0749286111
  9
$TDUSRTIMER
 40
0.0749285880
  9
$USRTIMER
 70
     1
  9
$ANGBASE
 50
0.0
  9
$ANGDIR
 70
     0
  9
$PDMODE
 70
     0
  9
$PDSIZE
 40
0.0
  9
$PLINEWID
 40
0.0
  9
$SPLFRAME
 70
     0
  9
$SPLINETYPE
 70
     6
  9
$SPLINESEGS
 70
     8
  9
$HANDSEED
  5
86DA
  9
$SURFTAB1
 70
     6
  9
$SURFTAB2
 70
     6
  9
$SURFTYPE
 70
     6
  9
$SURFU
 70
     6
  9
$SURFV
 70
     6
  9
$UCSBASE
  2

  9
$UCSNAME
  2

  9
$UCSORG
 10
0.0
 20
0.0
 30
0.0
  9
$UCSXDIR
 10
1.0
 20
0.0
 30
0.0
  9
$UCSYDIR
 10
0.0
 20
1.0
 30
0.0
  9
$UCSORTHOREF
  2

  9
$UCSORTHOVIEW
 70
     0
  9
$UCSORGTOP
 10
0.0
 20
0.0
 30
0.0
  9
$UCSORGBOTTOM
 10
0.0
 20
0.0
 30
0.0
  9
$UCSORGLEFT
 10
0.0
 20
0.0
 30
0.0
  9
$UCSORGRIGHT
 10
0.0
 20
0.0
 30
0.0
  9
$UCSORGFRONT
 10
0.0
 20
0.0
 30
0.0
  9
$UCSORGBACK
 10
0.0
 20
0.0
 30
0.0
  9
$PUCSBASE
  2

  9
$PUCSNAME
  2

  9
$PUCSORG
 10
0.0
 20
0.0
 30
0.0
  9
$PUCSXDIR
 10
1.0
 20
0.0
 30
0.0
  9
$PUCSYDIR
 10
0.0
 20
1.0
 30
0.0
  9
$PUCSORTHOREF
  2

  9
$PUCSORTHOVIEW
 70
     0
  9
$PUCSORGTOP
 10
0.0
 20
0.0
 30
0.0
  9
$PUCSORGBOTTOM
 10
0.0
 20
0.0
 30
0.0
  9
$PUCSORGLEFT
 10
0.0
 20
0.0
 30
0.0
  9
$PUCSORGRIGHT
 10
0.0
 20
0.0
 30
0.0
  9
$PUCSORGFRONT
 10
0.0
 20
0.0
 30
0.0
  9
$PUCSORGBACK
 10
0.0
 20
0.0
 30
0.0
  9
$USERI1
 70
     0
  9
$USERI2
 70
     0
  9
$USERI3
 70
     0
  9
$USERI4
 70
     0
  9
$USERI5
 70
     0
  9
$USERR1
 40
0.0
  9
$USERR2
 40
0.0
  9
$USERR3
 40
0.0
  9
$USERR4
 40
0.0
  9
$USERR5
 40
0.0
  9
$WORLDVIEW
 70
     1
  9
$SHADEDGE
 70
     3
  9
$SHADEDIF
 70
    70
  9
$TILEMODE
 70
     1
  9
$MAXACTVP
 70
    16
  9
$PINSBASE
 10
0.0
 20
0.0
 30
0.0
  9
$PLIMCHECK
 70
     0
  9
$PEXTMIN
 10
1.000000000000000E+20
 20
1.000000000000000E+20
 30
1.000000000000000E+20
  9
$PEXTMAX
 10
-1.000000000000000E+20
 20
-1.000000000000000E+20
 30
-1.000000000000000E+20
  9
$PLIMMIN
 10
0.0
 20
0.0
  9
$PLIMMAX
 10
12.0
 20
9.0
  9
$UNITMODE
 70
     0
  9
$VISRETAIN
 70
     0
  9
$PLINEGEN
 70
     0
  9
$PSLTSCALE
 70
     1
  9
$TREEDEPTH
 70
  3020
  9
$CMLSTYLE
  2
Standard
  9
$CMLJUST
 70
     0
  9
$CMLSCALE
 40
1.0
  9
$PROXYGRAPHICS
 70
     1
  9
$MEASUREMENT
 70
     0
  9
$CELWEIGHT
370
    -1
  9
$ENDCAPS
280
     0
  9
$JOINSTYLE
280
     0
  9
$LWDISPLAY
290
     0
  9
$INSUNITS
 70
     0
  9
$HYPERLINKBASE
  1

  9
$STYLESHEET
  1

  9
$XEDIT
290
     1
  9
$CEPSNTYPE
380
     0
  9
$PSTYLEMODE
290
     1
  9
$FINGERPRINTGUID
  2
{C0BA0B73-B082-4E23-928B-31C81534B233}
  9
$VERSIONGUID
  2
{25E1474B-2BD2-49A9-A472-3DD6448B1560}
  9
$EXTNAMES
290
     1
  9
$PSVPSCALE
 40
0.0
  9
$OLESTARTUP
290
     0
  0
ENDSEC
  0
SECTION
  2
CLASSES
  0
CLASS
  1
ACDBDICTIONARYWDFLT
  2
AcDbDictionaryWithDefault
  3
ObjectDBX Classes
 90
        0
280
     0
281
     0
  0
CLASS
  1
MATERIAL
  2
AcDbMaterial
  3
ObjectDBX Classes
 90
     1153
280
     0
281
     0
  0
CLASS
  1
VISUALSTYLE
  2
AcDbVisualStyle
  3
ObjectDBX Classes
 90
     4095
280
     0
281
     0
  0
CLASS
  1
SCALE
  2
AcDbScale
  3
ObjectDBX Classes
 90
     1153
280
     0
281
     0
  0
CLASS
  1
TABLESTYLE
  2
AcDbTableStyle
  3
ObjectDBX Classes
 90
     4095
280
     0
281
     0
  0
CLASS
  1
MLEADERSTYLE
  2
AcDbMLeaderStyle
  3
ACDB_MLEADERSTYLE_CLASS
 90
     4095
280
     0
281
     0
  0
CLASS
  1
ACDBSECTIONVIEWSTYLE
  2
AcDbSectionViewStyle
  3
ObjectDBX Classes
 90
     1025
280
     0
281
     0
  0
CLASS
  1
ACDBDETAILVIEWSTYLE
  2
AcDbDetailViewStyle
  3
ObjectDBX Classes
 90
     1025
280
     0
281
     0
  0
CLASS
  1
DICTIONARYVAR
  2
AcDbDictionaryVar
  3
ObjectDBX Classes
 90
        0
280
     0
281
     0
  0
CLASS
  1
CELLSTYLEMAP
  2
AcDbCellStyleMap
  3
ObjectDBX Classes
 90
     1152
280
     0
281
     0
  0
CLASS
  1
SORTENTSTABLE
  2
AcDbSortentsTable
  3
ObjectDBX Classes
 90
        0
280
     0
281
     0
  0
CLASS
  1
ACDBPLACEHOLDER
  2
AcDbPlaceHolder
  3
ObjectDBX Classes
 90
        0
280
     0
281
     0
  0
CLASS
  1
LAYOUT
  2
AcDbLayout
  3
ObjectDBX Classes
 90
        0
280
     0
281
     0
  0
ENDSEC
  0
SECTION
  2
TABLES
  0
TABLE
  2
VPORT
  5
83AD
330
0
100
AcDbSymbolTable
 70
     1
  0
VPORT
  5
8419
330
83AD
100
AcDbSymbolTableRecord
100
AcDbViewportTableRecord
  2
*ACTIVE
 70
     0
 10
0.0
 20
0.0
 11
1.0
 21
1.0
 12
4200.000019557773
 22
5900.000027474012
 13
0.0
 23
0.0
 14
10.0
 24
10.0
 15
10.0
 25
10.0
 16
0.0
 26
0.0
 36
1.0
 17
0.0
 27
0.0
 37
0.0
 40
11876.28512550527
 41
2.050213675213675
 42
50.0
 43
0.0
 44
0.0
 50
0.0
 51
0.0
 71
     0
 72
   100
 73
     1
 74
     0
 75
     0
 76
     0
 77
     0
 78
     0
281
     0
 65
     1
110
0.0
120
0.0
130
0.0
111
1.0
121
0.0
131
0.0
112
0.0
122
1.0
132
0.0
 79
     0
146
0.0
1001
ACAD_NAV_VCDISPLAY
1070
     3
  0
ENDTAB
  0
TABLE
  2
LTYPE
  5
83AA
330
0
100
AcDbSymbolTable
 70
     3
  0
LTYPE
  5
83FF
330
83AA
100
AcDbSymbolTableRecord
100
AcDbLinetypeTableRecord
  2
ByBlock
 70
     0
  3

 72
    65
 73
     0
 40
0.0
  0
LTYPE
  5
8400
330
83AA
100
AcDbSymbolTableRecord
100
AcDbLinetypeTableRecord
  2
ByLayer
 70
     0
  3

 72
    65
 73
     0
 40
0.0
  0
LTYPE
  5
8401
330
83AA
100
AcDbSymbolTableRecord
100
AcDbLinetypeTableRecord
  2
CONTINUOUS
 70
     0
  3
Solid line
 72
    65
 73
     0
 40
0.0
  0
LTYPE
  5
841A
330
83AA
100
AcDbSymbolTableRecord
100
AcDbLinetypeTableRecord
  2
CENTER
 70
     0
  3
____ _ ____ _ ____ _ ____ _ ____ _ ____ _ ____ 
 72
    65
 73
     4
 40
2.0
 49
1.25
 74
     0
 49
-0.25
 74
     0
 49
0.25
 74
     0
 49
-0.25
 74
     0
  0
ENDTAB
  0
TABLE
  2
LAYER
  5
83A7
330
0
100
AcDbSymbolTable
 70
     6
  0
LAYER
  5
83F9
102
{ACAD_XDICTIONARY
360
8465
102
}
330
83A7
100
AcDbSymbolTableRecord
100
AcDbLayerTableRecord
  2
0
 70
     0
 62
     7
  6
CONTINUOUS
370
    -3
390
83B4
  0
LAYER
  5
8418
102
{ACAD_XDICTIONARY
360
8467
102
}
330
83A7
100
AcDbSymbolTableRecord
100
AcDbLayerTableRecord
  2
3
 70
     0
 62
     2
  6
CONTINUOUS
370
    -3
390
83B4
  0
LAYER
  5
841B
102
{ACAD_XDICTIONARY
360
8469
102
}
330
83A7
100
AcDbSymbolTableRecord
100
AcDbLayerTableRecord
  2
2
 70
     0
 62
     3
  6
CENTER
370
    -3
390
83B4
  0
LAYER
  5
841C
102
{ACAD_XDICTIONARY
360
846B
102
}
330
83A7
100
AcDbSymbolTableRecord
100
AcDbLayerTableRecord
  2
1
 70
     0
 62
     4
  6
CONTINUOUS
370
    -3
390
83B4
  0
LAYER
  5
841D
102
{ACAD_XDICTIONARY
360
846D
102
}
330
83A7
100
AcDbSymbolTableRecord
100
AcDbLayerTableRecord
  2
4
 70
     0
 62
     7
  6
CONTINUOUS
370
    -3
390
83B4
  0
LAYER
  5
841E
330
83A7
100
AcDbSymbolTableRecord
100
AcDbLayerTableRecord
  2
DEFPOINTS
 70
     0
 62
     7
  6
CONTINUOUS
290
     0
370
    -3
390
83B4
  0
ENDTAB
  0
TABLE
  2
STYLE
  5
83A8
330
0
100
AcDbSymbolTable
 70
     2
  0
STYLE
  5
83FA
330
83A8
100
AcDbSymbolTableRecord
100
AcDbTextStyleTableRecord
  2
STANDARD
 70
     0
 40
0.0
 41
1.0
 50
0.0
 71
     0
 42
180.0
  3
simplex.shx
  4
extfont.shx
  0
STYLE
  5
83FE
330
83A8
100
AcDbSymbolTableRecord
100
AcDbTextStyleTableRecord
  2
Annotative
 70
     0
 40
0.0
 41
1.0
 50
0.0
 71
     0
 42
0.2
  3
txt
  4

1001
AcadAnnotative
1000
AnnotativeData
1002
{
1070
     1
1070
     1
1002
}
  0
ENDTAB
  0
TABLE
  2
VIEW
  5
83AB
330
0
100
AcDbSymbolTable
 70
     0
  0
ENDTAB
  0
TABLE
  2
UCS
  5
83AC
330
0
100
AcDbSymbolTable
 70
     0
  0
ENDTAB
  0
TABLE
  2
APPID
  5
83AE
330
0
100
AcDbSymbolTable
 70
     6
  0
APPID
  5
83FB
330
83AE
100
AcDbSymbolTableRecord
100
AcDbRegAppTableRecord
  2
ACAD
 70
     0
  0
APPID
  5
8402
330
83AE
100
AcDbSymbolTableRecord
100
AcDbRegAppTableRecord
  2
AcadAnnotative
 70
     0
  0
APPID
  5
8479
330
83AE
100
AcDbSymbolTableRecord
100
AcDbRegAppTableRecord
  2
ACAD_NAV_VCDISPLAY
 70
     0
  0
APPID
  5
8522
330
83AE
100
AcDbSymbolTableRecord
100
AcDbRegAppTableRecord
  2
AcadAnnoMonitorAlertIconDisabled
 70
     0
  0
APPID
  5
8523
330
83AE
100
AcDbSymbolTableRecord
100
AcDbRegAppTableRecord
  2
ACAD_EXEMPT_FROM_CAD_STANDARDS
 70
     0
  0
APPID
  5
86D1
330
83AE
100
AcDbSymbolTableRecord
100
AcDbRegAppTableRecord
  2
ACAD_MLEADERVER
 70
     0
  0
ENDTAB
  0
TABLE
  2
DIMSTYLE
  5
83AF
330
0
100
AcDbSymbolTable
 70
     3
100
AcDbDimStyleTable
 71
     1
340
841F
  0
DIMSTYLE
105
83FC
102
{ACAD_REACTORS
330
8202
330
820F
330
821C
330
8229
330
8236
102
}
330
83AF
100
AcDbSymbolTableRecord
100
AcDbDimStyleTableRecord
  2
Standard
 70
     0
340
83FA
  0
DIMSTYLE
105
83FD
330
83AF
100
AcDbSymbolTableRecord
100
AcDbDimStyleTableRecord
  2
Annotative
 70
     0
340
83FA
1001
AcadAnnotative
1000
AnnotativeData
1002
{
1070
     1
1070
     1
1002
}
  0
DIMSTYLE
105
841F
102
{ACAD_REACTORS
330
84CB
330
84D8
330
84E5
330
8515
330
8588
330
8595
330
85A2
330
85AF
330
85BC
330
85C9
330
85D6
330
85E3
330
85F0
330
85FD
330
860A
102
}
330
83AF
100
AcDbSymbolTableRecord
100
AcDbDimStyleTableRecord
  2
IGA
 70
     0
 40
2.0
 41
2.0
 42
0.5
 43
10.0
 44
1.0
 47
1.0
 48
1.0
 73
     0
 74
     0
 77
     1
 78
     8
140
3.0
141
0.0
143
0.03937
146
10.0
147
1.0
173
     1
271
     3
272
     3
279
     2
284
     8
285
     8
286
     8
340
83FA
  0
ENDTAB
  0
TABLE
  2
BLOCK_RECORD
  5
83A6
330
0
100
AcDbSymbolTable
 70
    43
  0
BLOCK_RECORD
  5
8414
102
{ACAD_XDICTIONARY
360
8512
102
}
330
83A6
100
AcDbSymbolTableRecord
100
AcDbBlockTableRecord
  2
*Model_Space
340
8417
  0
BLOCK_RECORD
  5
8410
330
83A6
100
AcDbSymbolTableRecord
100
AcDbBlockTableRecord
  2
*Paper_Space
340
8413
  0
BLOCK_RECORD
  5
8423
330
83A6
100
AcDbSymbolTableRecord
100
AcDbBlockTableRecord
  2
$MODEL_SPACE
340
0
  0
BLOCK_RECORD
  5
8425
330
83A6
100
AcDbSymbolTableRecord
100
AcDbBlockTableRecord
  2
$PAPER_SPACE
340
0
  0
BLOCK_RECORD
  5
8427
330
83A6
100
AcDbSymbolTableRecord
100
AcDbBlockTableRecord
  2
YA_N
340
0
102
{BLKREFS
331
7C26
331
7C53
331
7C7A
331
7CD1
102
}
  0
BLOCK_RECORD
  5
8429
330
83A6
100
AcDbSymbolTableRecord
100
AcDbBlockTableRecord
  2
*D3
340
0
  0
BLOCK_RECORD
  5
842B
330
83A6
100
AcDbSymbolTableRecord
100
AcDbBlockTableRecord
  2
_OPEN
340
0
102
{BLKREFS
331
830F
331
8310
331
8318
331
8319
331
8321
331
8322
331
832A
331
832B
331
8333
331
8334
331
833C
331
833D
331
8345
331
8346
331
834E
331
834F
331
8357
331
8358
331
8360
331
8361
331
8369
331
836A
331
8372
331
8373
331
837B
331
837C
331
8384
331
8385
331
85F8
331
8604
331
8605
331
8611
331
8612
331
838D
331
838E
331
8590
331
859C
331
859D
331
85A9
331
85AA
331
85B6
331
85B7
331
85C3
331
85C4
331
85D0
331
85D1
331
85DD
331
85DE
331
85EA
331
85EB
331
85F7
331
8531
331
8532
331
855E
331
855F
331
8570
331
8571
331
8579
331
857A
331
858F
331
84EC
331
84ED
331
81FB
331
81FC
331
8208
331
8209
331
8215
331
8216
331
8222
331
8223
331
822F
331
8230
331
845F
331
8460
102
}
  0
BLOCK_RECORD
  5
842C
330
83A6
100
AcDbSymbolTableRecord
100
AcDbBlockTableRecord
  2
*D5
340
0
  0
BLOCK_RECORD
  5
842E
330
83A6
100
AcDbSymbolTableRecord
100
AcDbBlockTableRecord
  2
*D6
340
0
  0
BLOCK_RECORD
  5
8430
330
83A6
100
AcDbSymbolTableRecord
100
AcDbBlockTableRecord
  2
*D7
340
0
  0
BLOCK_RECORD
  5
8432
330
83A6
100
AcDbSymbolTableRecord
100
AcDbBlockTableRecord
  2
*D8
340
0
  0
BLOCK_RECORD
  5
8434
330
83A6
100
AcDbSymbolTableRecord
100
AcDbBlockTableRecord
  2
*D9
340
0
  0
BLOCK_RECORD
  5
8436
330
83A6
100
AcDbSymbolTableRecord
100
AcDbBlockTableRecord
  2
*D10
340
0
  0
BLOCK_RECORD
  5
8438
330
83A6
100
AcDbSymbolTableRecord
100
AcDbBlockTableRecord
  2
*D11
340
0
  0
BLOCK_RECORD
  5
843A
330
83A6
100
AcDbSymbolTableRecord
100
AcDbBlockTableRecord
  2
*D12
340
0
  0
BLOCK_RECORD
  5
843C
330
83A6
100
AcDbSymbolTableRecord
100
AcDbBlockTableRecord
  2
*D13
340
0
  0
BLOCK_RECORD
  5
843E
330
83A6
100
AcDbSymbolTableRecord
100
AcDbBlockTableRecord
  2
*D14
340
0
  0
BLOCK_RECORD
  5
8440
330
83A6
100
AcDbSymbolTableRecord
100
AcDbBlockTableRecord
  2
*D15
340
0
  0
BLOCK_RECORD
  5
8442
330
83A6
100
AcDbSymbolTableRecord
100
AcDbBlockTableRecord
  2
*D16
340
0
  0
BLOCK_RECORD
  5
8444
330
83A6
100
AcDbSymbolTableRecord
100
AcDbBlockTableRecord
  2
*D17
340
0
  0
BLOCK_RECORD
  5
8446
330
83A6
100
AcDbSymbolTableRecord
100
AcDbBlockTableRecord
  2
*D18
340
0
  0
BLOCK_RECORD
  5
8449
330
83A6
100
AcDbSymbolTableRecord
100
AcDbBlockTableRecord
  2
_DOT
340
0
  0
BLOCK_RECORD
  5
844B
330
83A6
100
AcDbSymbolTableRecord
100
AcDbBlockTableRecord
  2
_NONE
340
0
  0
BLOCK_RECORD
  5
844D
330
83A6
100
AcDbSymbolTableRecord
100
AcDbBlockTableRecord
  2
*D21
340
0
  0
BLOCK_RECORD
  5
844F
330
83A6
100
AcDbSymbolTableRecord
100
AcDbBlockTableRecord
  2
*D22
340
0
  0
BLOCK_RECORD
  5
8451
330
83A6
100
AcDbSymbolTableRecord
100
AcDbBlockTableRecord
  2
*D23
340
0
  0
BLOCK_RECORD
  5
8453
330
83A6
100
AcDbSymbolTableRecord
100
AcDbBlockTableRecord
  2
*D24
340
0
  0
BLOCK_RECORD
  5
8455
330
83A6
100
AcDbSymbolTableRecord
100
AcDbBlockTableRecord
  2
*D25
340
0
  0
BLOCK_RECORD
  5
8459
330
83A6
100
AcDbSymbolTableRecord
100
AcDbBlockTableRecord
  2
*D26
340
0
  0
BLOCK_RECORD
  5
84CC
330
83A6
100
AcDbSymbolTableRecord
100
AcDbBlockTableRecord
  2
*D27
340
0
  0
BLOCK_RECORD
  5
84D9
330
83A6
100
AcDbSymbolTableRecord
100
AcDbBlockTableRecord
  2
*D28
340
0
  0
BLOCK_RECORD
  5
84E6
330
83A6
100
AcDbSymbolTableRecord
100
AcDbBlockTableRecord
  2
*D29
340
0
  0
BLOCK_RECORD
  5
8505
330
83A6
100
AcDbSymbolTableRecord
100
AcDbBlockTableRecord
  2
*D30
340
0
  0
BLOCK_RECORD
  5
8516
330
83A6
100
AcDbSymbolTableRecord
100
AcDbBlockTableRecord
  2
*D31
340
0
  0
BLOCK_RECORD
  5
8589
330
83A6
100
AcDbSymbolTableRecord
100
AcDbBlockTableRecord
  2
*D32
340
0
  0
BLOCK_RECORD
  5
8596
330
83A6
100
AcDbSymbolTableRecord
100
AcDbBlockTableRecord
  2
*D33
340
0
  0
BLOCK_RECORD
  5
85A3
330
83A6
100
AcDbSymbolTableRecord
100
AcDbBlockTableRecord
  2
*D34
340
0
  0
BLOCK_RECORD
  5
85B0
330
83A6
100
AcDbSymbolTableRecord
100
AcDbBlockTableRecord
  2
*D35
340
0
  0
BLOCK_RECORD
  5
85BD
330
83A6
100
AcDbSymbolTableRecord
100
AcDbBlockTableRecord
  2
*D36
340
0
  0
BLOCK_RECORD
  5
85CA
330
83A6
100
AcDbSymbolTableRecord
100
AcDbBlockTableRecord
  2
*D37
340
0
  0
BLOCK_RECORD
  5
85D7
330
83A6
100
AcDbSymbolTableRecord
100
AcDbBlockTableRecord
  2
*D38
340
0
  0
BLOCK_RECORD
  5
85E4
330
83A6
100
AcDbSymbolTableRecord
100
AcDbBlockTableRecord
  2
*D39
340
0
  0
BLOCK_RECORD
  5
85F1
330
83A6
100
AcDbSymbolTableRecord
100
AcDbBlockTableRecord
  2
*D40
340
0
  0
BLOCK_RECORD
  5
85FE
330
83A6
100
AcDbSymbolTableRecord
100
AcDbBlockTableRecord
  2
*D41
340
0
  0
BLOCK_RECORD
  5
860B
330
83A6
100
AcDbSymbolTableRecord
100
AcDbBlockTableRecord
  2
*D42
340
0
  0
ENDTAB
  0
ENDSEC
  0
SECTION
  2
BLOCKS
  0
BLOCK
  5
8415
330
8414
100
AcDbEntity
  8
0
100
AcDbBlockBegin
  2
*Model_Space
 70
     0
 10
0.0
 20
0.0
 30
0.0
  3
*Model_Space
  1

  0
ENDBLK
  5
8416
330
8414
100
AcDbEntity
  8
0
100
AcDbBlockEnd
  0
BLOCK
  5
8411
330
8410
100
AcDbEntity
 67
     1
  8
0
100
AcDbBlockBegin
  2
*Paper_Space
 70
     0
 10
0.0
 20
0.0
 30
0.0
  3
*Paper_Space
  1

  0
ENDBLK
  5
8412
330
8410
100
AcDbEntity
 67
     1
  8
0
100
AcDbBlockEnd
  0
BLOCK
  5
8424
330
8423
100
AcDbEntity
  8
0
100
AcDbBlockBegin
  2
$MODEL_SPACE
 70
     0
 10
0.0
 20
0.0
 30
0.0
  3
$MODEL_SPACE
  1

  0
ENDBLK
  5
1B
330
8423
100
AcDbEntity
  8
0
100
AcDbBlockEnd
  0
BLOCK
  5
8426
330
8425
100
AcDbEntity
  8
0
100
AcDbBlockBegin
  2
$PAPER_SPACE
 70
     0
 10
0.0
 20
0.0
 30
0.0
  3
$PAPER_SPACE
  1

  0
ENDBLK
  5
18
330
8425
100
AcDbEntity
  8
0
100
AcDbBlockEnd
  0
BLOCK
  5
8428
330
8427
100
AcDbEntity
  8
0
100
AcDbBlockBegin
  2
YA_N
 70
     0
 10
0.0
 20
0.0
 30
0.0
  3
YA_N
  1

  0
ENDBLK
  5
79FE
330
8427
100
AcDbEntity
  8
0
100
AcDbBlockEnd
  0
BLOCK
  5
842A
330
8429
100
AcDbEntity
  8
0
100
AcDbBlockBegin
  2
*D3
 70
     1
 10
0.0
 20
0.0
 30
0.0
  3
*D3
  1

  0
LINE
  5
830C
330
8429
100
AcDbEntity
  8
3
 62
     0
100
AcDbLine
 10
1884.690038106199
 20
5134.395935314897
 30
0.0
 11
1611.679005416241
 21
5134.395935314897
 31
0.0
  0
LINE
  5
830D
330
8429
100
AcDbEntity
  8
3
 62
     0
100
AcDbLine
 10
1884.690038106199
 20
3854.395935314897
 30
0.0
 11
1611.679005416241
 21
3854.395935314897
 31
0.0
  0
LINE
  5
830E
330
8429
100
AcDbEntity
  8
3
 62
     0
100
AcDbLine
 10
1651.679005416241
 20
5054.395935314897
 30
0.0
 11
1651.679005416241
 21
3934.395935314896
 31
0.0
  0
INSERT
  5
830F
330
8429
100
AcDbEntity
  8
3
 62
     0
100
AcDbBlockReference
  2
_OPEN
 10
1651.679005416241
 20
5134.395935314897
 30
0.0
 41
80.0
 42
80.0
 43
80.0
 50
90.0
  0
INSERT
  5
8310
330
8429
100
AcDbEntity
  8
3
 62
     0
100
AcDbBlockReference
  2
_OPEN
 10
1651.679005416241
 20
3854.395935314897
 30
0.0
 41
80.0
 42
80.0
 43
80.0
 50
270.0
  0
TEXT
  5
8396
330
8429
100
AcDbEntity
  8
3
 62
     0
100
AcDbText
 10
1311.68
 20
4282.0
 30
0.0
 40
120.0
  1
1280
100
AcDbText
  0
POINT
  5
8312
330
8429
100
AcDbEntity
  8
DEFPOINTS
 62
     0
100
AcDbPoint
 10
1904.690038106198
 20
5134.395935314897
 30
0.0
  0
POINT
  5
8313
330
8429
100
AcDbEntity
  8
DEFPOINTS
 62
     0
100
AcDbPoint
 10
1904.690038106198
 20
3854.395935314897
 30
0.0
  0
POINT
  5
8314
330
8429
100
AcDbEntity
  8
DEFPOINTS
 62
     0
100
AcDbPoint
 10
1651.679005416241
 20
3854.395935314897
 30
0.0
  0
ENDBLK
  5
806A
330
8429
100
AcDbEntity
  8
0
100
AcDbBlockEnd
  0
BLOCK
  5
8448
330
842B
100
AcDbEntity
  8
0
100
AcDbBlockBegin
  2
_OPEN
 70
     0
 10
0.0
 20
0.0
 30
0.0
  3
_OPEN
  1

  0
LINE
  5
7F39
330
842B
100
AcDbEntity
  8
0
  6
ByBlock
 62
     0
100
AcDbLine
 10
-1.0
 20
0.1666666666666666
 30
0.0
 11
0.0
 21
0.0
 31
0.0
  0
LINE
  5
7F3A
330
842B
100
AcDbEntity
  8
0
  6
ByBlock
 62
     0
100
AcDbLine
 10
0.0
 20
0.0
 30
0.0
 11
-1.0
 21
-0.1666666666666666
 31
0.0
  0
LINE
  5
7F3B
330
842B
100
AcDbEntity
  8
0
  6
ByBlock
 62
     0
100
AcDbLine
 10
0.0
 20
0.0
 30
0.0
 11
-1.0
 21
0.0
 31
0.0
  0
ENDBLK
  5
7F3C
330
842B
100
AcDbEntity
  8
0
100
AcDbBlockEnd
  0
BLOCK
  5
842D
330
842C
100
AcDbEntity
  8
0
100
AcDbBlockBegin
  2
*D5
 70
     1
 10
0.0
 20
0.0
 30
0.0
  3
*D5
  1

  0
LINE
  5
8315
330
842C
100
AcDbEntity
  8
3
 62
     0
100
AcDbLine
 10
1884.690038106199
 20
5134.395935314897
 30
0.0
 11
1364.616162959712
 21
5134.395935314897
 31
0.0
  0
LINE
  5
8316
330
842C
100
AcDbEntity
  8
3
 62
     0
100
AcDbLine
 10
1806.253499857346
 20
3800.395935314897
 30
0.0
 11
1364.61616295971
 21
3800.395935314897
 31
0.0
  0
LINE
  5
8317
330
842C
100
AcDbEntity
  8
3
 62
     0
100
AcDbLine
 10
1404.616162959712
 20
5054.395935314897
 30
0.0
 11
1404.616162959712
 21
3880.395935314897
 31
0.0
  0
INSERT
  5
8318
330
842C
100
AcDbEntity
  8
3
 62
     0
100
AcDbBlockReference
  2
_OPEN
 10
1404.616162959712
 20
5134.395935314897
 30
0.0
 41
80.0
 42
80.0
 43
80.0
 50
90.0
  0
INSERT
  5
8319
330
842C
100
AcDbEntity
  8
3
 62
     0
100
AcDbBlockReference
  2
_OPEN
 10
1404.616162959712
 20
3800.395935314897
 30
0.0
 41
80.0
 42
80.0
 43
80.0
 50
270.0
  0
TEXT
  5
8397
330
842C
100
AcDbEntity
  8
3
 62
     0
100
AcDbText
 10
1064.62
 20
4255.0
 30
0.0
 40
120.0
  1
1334
100
AcDbText
  0
POINT
  5
831B
330
842C
100
AcDbEntity
  8
DEFPOINTS
 62
     0
100
AcDbPoint
 10
1904.690038106198
 20
5134.395935314897
 30
0.0
  0
POINT
  5
831C
330
842C
100
AcDbEntity
  8
DEFPOINTS
 62
     0
100
AcDbPoint
 10
1826.253499857346
 20
3800.395935314897
 30
0.0
  0
POINT
  5
831D
330
842C
100
AcDbEntity
  8
DEFPOINTS
 62
     0
100
AcDbPoint
 10
1404.616162959712
 20
3800.395935314897
 30
0.0
  0
ENDBLK
  5
805F
330
842C
100
AcDbEntity
  8
0
100
AcDbBlockEnd
  0
BLOCK
  5
842F
330
842E
100
AcDbEntity
  8
0
100
AcDbBlockBegin
  2
*D6
 70
     1
 10
0.0
 20
0.0
 30
0.0
  3
*D6
  1

  0
LINE
  5
831E
330
842E
100
AcDbEntity
  8
3
 62
     0
100
AcDbLine
 10
1904.690038106198
 20
5207.395935314896
 30
0.0
 11
1904.690038106198
 21
5476.91888063242
 31
0.0
  0
LINE
  5
831F
330
842E
100
AcDbEntity
  8
3
 62
     0
100
AcDbLine
 10
2729.690038106197
 20
5175.68165442021
 30
0.0
 11
2729.690038106197
 21
5476.91888063242
 31
0.0
  0
LINE
  5
8320
330
842E
100
AcDbEntity
  8
3
 62
     0
100
AcDbLine
 10
1984.690038106198
 20
5436.91888063242
 30
0.0
 11
2649.690038106197
 21
5436.91888063242
 31
0.0
  0
INSERT
  5
8321
330
842E
100
AcDbEntity
  8
3
 62
     0
100
AcDbBlockReference
  2
_OPEN
 10
1904.690038106198
 20
5436.91888063242
 30
0.0
 41
80.0
 42
80.0
 43
80.0
 50
180.0
  0
INSERT
  5
8322
330
842E
100
AcDbEntity
  8
3
 62
     0
100
AcDbBlockReference
  2
_OPEN
 10
2729.690038106197
 20
5436.91888063242
 30
0.0
 41
80.0
 42
80.0
 43
80.0
  0
TEXT
  5
8398
330
842E
100
AcDbEntity
  8
3
 62
     0
100
AcDbText
 10
2077.19
 20
5324.52
 30
0.0
 40
120.0
  1
825
100
AcDbText
  0
POINT
  5
8324
330
842E
100
AcDbEntity
  8
DEFPOINTS
 62
     0
100
AcDbPoint
 10
1904.690038106198
 20
5187.395935314897
 30
0.0
  0
POINT
  5
8325
330
842E
100
AcDbEntity
  8
DEFPOINTS
 62
     0
100
AcDbPoint
 10
2729.690038106197
 20
5155.681654420209
 30
0.0
  0
POINT
  5
8326
330
842E
100
AcDbEntity
  8
DEFPOINTS
 62
     0
100
AcDbPoint
 10
2729.690038106197
 20
5436.91888063242
 30
0.0
  0
ENDBLK
  5
8054
330
842E
100
AcDbEntity
  8
0
100
AcDbBlockEnd
  0
BLOCK
  5
8431
330
8430
100
AcDbEntity
  8
0
100
AcDbBlockBegin
  2
*D7
 70
     1
 10
0.0
 20
0.0
 30
0.0
  3
*D7
  1

  0
LINE
  5
8327
330
8430
100
AcDbEntity
  8
3
 62
     0
100
AcDbLine
 10
2729.690038106197
 20
5175.68165442021
 30
0.0
 11
2729.690038106197
 21
5476.91888063242
 31
0.0
  0
LINE
  5
8328
330
8430
100
AcDbEntity
  8
3
 62
     0
100
AcDbLine
 10
3804.49032271685
 20
3820.395935314897
 30
0.0
 11
3804.49032271685
 21
5476.91888063242
 31
0.0
  0
LINE
  5
8329
330
8430
100
AcDbEntity
  8
3
 62
     0
100
AcDbLine
 10
2809.690038106197
 20
5436.91888063242
 30
0.0
 11
3724.490322716849
 21
5436.91888063242
 31
0.0
  0
INSERT
  5
832A
330
8430
100
AcDbEntity
  8
3
 62
     0
100
AcDbBlockReference
  2
_OPEN
 10
2729.690038106197
 20
5436.91888063242
 30
0.0
 41
80.0
 42
80.0
 43
80.0
 50
180.0
  0
INSERT
  5
832B
330
8430
100
AcDbEntity
  8
3
 62
     0
100
AcDbBlockReference
  2
_OPEN
 10
3804.49032271685
 20
5436.91888063242
 30
0.0
 41
80.0
 42
80.0
 43
80.0
  0
TEXT
  5
8399
330
8430
100
AcDbEntity
  8
3
 62
     0
100
AcDbText
 10
3027.09
 20
5324.52
 30
0.0
 40
120.0
  1
1079
100
AcDbText
  0
POINT
  5
832D
330
8430
100
AcDbEntity
  8
DEFPOINTS
 62
     0
100
AcDbPoint
 10
2729.690038106197
 20
5155.681654420209
 30
0.0
  0
POINT
  5
832E
330
8430
100
AcDbEntity
  8
DEFPOINTS
 62
     0
100
AcDbPoint
 10
3804.49032271685
 20
3800.395935314897
 30
0.0
  0
POINT
  5
832F
330
8430
100
AcDbEntity
  8
DEFPOINTS
 62
     0
100
AcDbPoint
 10
3804.49032271685
 20
5436.91888063242
 30
0.0
  0
ENDBLK
  5
8049
330
8430
100
AcDbEntity
  8
0
100
AcDbBlockEnd
  0
BLOCK
  5
8433
330
8432
100
AcDbEntity
  8
0
100
AcDbBlockBegin
  2
*D8
 70
     1
 10
0.0
 20
0.0
 30
0.0
  3
*D8
  1

  0
LINE
  5
8330
330
8432
100
AcDbEntity
  8
3
 62
     0
100
AcDbLine
 10
5460.972951952932
 20
5207.395935314896
 30
0.0
 11
5460.972951952932
 21
5475.795721781462
 31
0.0
  0
LINE
  5
8331
330
8432
100
AcDbEntity
  8
3
 62
     0
100
AcDbLine
 10
7160.972951952932
 20
5207.395935314896
 30
0.0
 11
7160.972951952932
 21
5475.795721781462
 31
0.0
  0
LINE
  5
8332
330
8432
100
AcDbEntity
  8
3
 62
     0
100
AcDbLine
 10
5540.972951952932
 20
5435.795721781462
 30
0.0
 11
7080.972951952934
 21
5435.795721781462
 31
0.0
  0
INSERT
  5
8333
330
8432
100
AcDbEntity
  8
3
 62
     0
100
AcDbBlockReference
  2
_OPEN
 10
5460.972951952932
 20
5435.795721781462
 30
0.0
 41
80.0
 42
80.0
 43
80.0
 50
180.0
  0
INSERT
  5
8334
330
8432
100
AcDbEntity
  8
3
 62
     0
100
AcDbBlockReference
  2
_OPEN
 10
7160.972951952932
 20
5435.795721781462
 30
0.0
 41
80.0
 42
80.0
 43
80.0
  0
TEXT
  5
839A
330
8432
100
AcDbEntity
  8
3
 62
     0
100
AcDbText
 10
6070.97
 20
5323.399999999999
 30
0.0
 40
120.0
  1
1700
100
AcDbText
  0
POINT
  5
8336
330
8432
100
AcDbEntity
  8
DEFPOINTS
 62
     0
100
AcDbPoint
 10
5460.972951952932
 20
5187.395935314897
 30
0.0
  0
POINT
  5
8337
330
8432
100
AcDbEntity
  8
DEFPOINTS
 62
     0
100
AcDbPoint
 10
7160.972951952932
 20
5187.395935314897
 30
0.0
  0
POINT
  5
8338
330
8432
100
AcDbEntity
  8
DEFPOINTS
 62
     0
100
AcDbPoint
 10
7160.972951952932
 20
5435.795721781462
 30
0.0
  0
ENDBLK
  5
803E
330
8432
100
AcDbEntity
  8
0
100
AcDbBlockEnd
  0
BLOCK
  5
8435
330
8434
100
AcDbEntity
  8
0
100
AcDbBlockBegin
  2
*D9
 70
     1
 10
0.0
 20
0.0
 30
0.0
  3
*D9
  1

  0
LINE
  5
8339
330
8434
100
AcDbEntity
  8
3
 62
     0
100
AcDbLine
 10
5075.972951952933
 20
4100.395935314896
 30
0.0
 11
5075.972951952933
 21
5729.146613745551
 31
0.0
  0
LINE
  5
833A
330
8434
100
AcDbEntity
  8
3
 62
     0
100
AcDbLine
 10
6310.972951952932
 20
5644.422705656015
 30
0.0
 11
6310.972951952932
 21
5729.146613745551
 31
0.0
  0
LINE
  5
833B
330
8434
100
AcDbEntity
  8
3
 62
     0
100
AcDbLine
 10
5155.972951952932
 20
5689.146613745551
 30
0.0
 11
6230.972951952931
 21
5689.146613745551
 31
0.0
  0
INSERT
  5
833C
330
8434
100
AcDbEntity
  8
3
 62
     0
100
AcDbBlockReference
  2
_OPEN
 10
5075.972951952933
 20
5689.146613745551
 30
0.0
 41
80.0
 42
80.0
 43
80.0
 50
180.0
  0
INSERT
  5
833D
330
8434
100
AcDbEntity
  8
3
 62
     0
100
AcDbBlockReference
  2
_OPEN
 10
6310.972951952932
 20
5689.146613745551
 30
0.0
 41
80.0
 42
80.0
 43
80.0
  0
TEXT
  5
839B
330
8434
100
AcDbEntity
  8
3
 62
     0
100
AcDbText
 10
5453.47
 20
5676.75
 30
0.0
 40
120.0
  1
MAX
100
AcDbText
  0
TEXT
  5
839C
330
8434
100
AcDbEntity
  8
3
 62
     0
100
AcDbText
 10
5453.47
 20
5520.75
 30
0.0
 40
120.0
  1
1280
100
AcDbText
  0
POINT
  5
833F
330
8434
100
AcDbEntity
  8
DEFPOINTS
 62
     0
100
AcDbPoint
 10
5075.972951952933
 20
4080.395935314895
 30
0.0
  0
POINT
  5
8340
330
8434
100
AcDbEntity
  8
DEFPOINTS
 62
     0
100
AcDbPoint
 10
6310.972951952932
 20
5624.422705656016
 30
0.0
  0
POINT
  5
8341
330
8434
100
AcDbEntity
  8
DEFPOINTS
 62
     0
100
AcDbPoint
 10
6310.972951952932
 20
5689.146613745551
 30
0.0
  0
ENDBLK
  5
814F
330
8434
100
AcDbEntity
  8
0
100
AcDbBlockEnd
  0
BLOCK
  5
8437
330
8436
100
AcDbEntity
  8
0
100
AcDbBlockBegin
  2
*D10
 70
     1
 10
0.0
 20
0.0
 30
0.0
  3
*D10
  1

  0
LINE
  5
8342
330
8436
100
AcDbEntity
  8
3
 62
     0
100
AcDbLine
 10
6310.972951952932
 20
5644.422705656015
 30
0.0
 11
6310.972951952932
 21
5728.759026640364
 31
0.0
  0
LINE
  5
8343
330
8436
100
AcDbEntity
  8
3
 62
     0
100
AcDbLine
 10
7320.972951952931
 20
3715.733866417163
 30
0.0
 11
7320.972951952931
 21
5728.759026640364
 31
0.0
  0
LINE
  5
8344
330
8436
100
AcDbEntity
  8
3
 62
     0
100
AcDbLine
 10
6390.972951952932
 20
5688.759026640364
 30
0.0
 11
7240.972951952933
 21
5688.759026640364
 31
0.0
  0
INSERT
  5
8345
330
8436
100
AcDbEntity
  8
3
 62
     0
100
AcDbBlockReference
  2
_OPEN
 10
6310.972951952932
 20
5688.759026640364
 30
0.0
 41
80.0
 42
80.0
 43
80.0
 50
180.0
  0
INSERT
  5
8346
330
8436
100
AcDbEntity
  8
3
 62
     0
100
AcDbBlockReference
  2
_OPEN
 10
7320.972951952931
 20
5688.759026640364
 30
0.0
 41
80.0
 42
80.0
 43
80.0
  0
TEXT
  5
839D
330
8436
100
AcDbEntity
  8
3
 62
     0
100
AcDbText
 10
6575.970000000001
 20
5607.79
 30
0.0
 40
120.0
  1
(1020)
100
AcDbText
  0
POINT
  5
8348
330
8436
100
AcDbEntity
  8
DEFPOINTS
 62
     0
100
AcDbPoint
 10
6310.972951952932
 20
5624.422705656016
 30
0.0
  0
POINT
  5
8349
330
8436
100
AcDbEntity
  8
DEFPOINTS
 62
     0
100
AcDbPoint
 10
7320.972951952931
 20
3695.733866417163
 30
0.0
  0
POINT
  5
834A
330
8436
100
AcDbEntity
  8
DEFPOINTS
 62
     0
100
AcDbPoint
 10
7320.972951952931
 20
5688.759026640364
 30
0.0
  0
ENDBLK
  5
8144
330
8436
100
AcDbEntity
  8
0
100
AcDbBlockEnd
  0
BLOCK
  5
8439
330
8438
100
AcDbEntity
  8
0
100
AcDbBlockBegin
  2
*D11
 70
     1
 10
0.0
 20
0.0
 30
0.0
  3
*D11
  1

  0
LINE
  5
834B
330
8438
100
AcDbEntity
  8
3
 62
     0
100
AcDbLine
 10
7183.272951952933
 20
4425.395935314896
 30
0.0
 11
7612.242576865435
 21
4425.395935314896
 31
0.0
  0
LINE
  5
834C
330
8438
100
AcDbEntity
  8
3
 62
     0
100
AcDbLine
 10
7183.272951952933
 20
3175.395935314895
 30
0.0
 11
7612.242576865435
 21
3175.395935314895
 31
0.0
  0
LINE
  5
834D
330
8438
100
AcDbEntity
  8
3
 62
     0
100
AcDbLine
 10
7572.242576865434
 20
4345.395935314896
 30
0.0
 11
7572.242576865434
 21
3255.395935314895
 31
0.0
  0
INSERT
  5
834E
330
8438
100
AcDbEntity
  8
3
 62
     0
100
AcDbBlockReference
  2
_OPEN
 10
7572.242576865434
 20
4425.395935314896
 30
0.0
 41
80.0
 42
80.0
 43
80.0
 50
90.0
  0
INSERT
  5
834F
330
8438
100
AcDbEntity
  8
3
 62
     0
100
AcDbBlockReference
  2
_OPEN
 10
7572.242576865434
 20
3175.395935314895
 30
0.0
 41
80.0
 42
80.0
 43
80.0
 50
270.0
  0
TEXT
  5
839E
330
8438
100
AcDbEntity
  8
3
 62
     0
100
AcDbText
 10
7232.24
 20
3588.0
 30
0.0
 40
120.0
  1
\U+03C61250
100
AcDbText
  0
POINT
  5
8351
330
8438
100
AcDbEntity
  8
DEFPOINTS
 62
     0
100
AcDbPoint
 10
7163.272951952933
 20
4425.395935314896
 30
0.0
  0
POINT
  5
8352
330
8438
100
AcDbEntity
  8
DEFPOINTS
 62
     0
100
AcDbPoint
 10
7163.272951952933
 20
3175.395935314895
 30
0.0
  0
POINT
  5
8353
330
8438
100
AcDbEntity
  8
DEFPOINTS
 62
     0
100
AcDbPoint
 10
7572.242576865434
 20
3175.395935314895
 30
0.0
  0
ENDBLK
  5
801D
330
8438
100
AcDbEntity
  8
0
100
AcDbBlockEnd
  0
BLOCK
  5
843B
330
843A
100
AcDbEntity
  8
0
100
AcDbBlockBegin
  2
*D12
 70
     1
 10
0.0
 20
0.0
 30
0.0
  3
*D12
  1

  0
LINE
  5
8354
330
843A
100
AcDbEntity
  8
3
 62
     0
100
AcDbLine
 10
1806.253499857346
 20
3800.395935314897
 30
0.0
 11
1365.268771363862
 21
3800.395935314897
 31
0.0
  0
LINE
  5
8355
330
843A
100
AcDbEntity
  8
3
 62
     0
100
AcDbLine
 10
1959.690038106199
 20
2875.395935314896
 30
0.0
 11
1365.268771363862
 21
2875.395935314896
 31
0.0
  0
LINE
  5
8356
330
843A
100
AcDbEntity
  8
3
 62
     0
100
AcDbLine
 10
1405.268771363862
 20
3720.395935314896
 30
0.0
 11
1405.268771363862
 21
2955.395935314896
 31
0.0
  0
INSERT
  5
8357
330
843A
100
AcDbEntity
  8
3
 62
     0
100
AcDbBlockReference
  2
_OPEN
 10
1405.268771363862
 20
3800.395935314897
 30
0.0
 41
80.0
 42
80.0
 43
80.0
 50
90.0
  0
INSERT
  5
8358
330
843A
100
AcDbEntity
  8
3
 62
     0
100
AcDbBlockReference
  2
_OPEN
 10
1405.268771363862
 20
2875.395935314896
 30
0.0
 41
80.0
 42
80.0
 43
80.0
 50
270.0
  0
TEXT
  5
839F
330
843A
100
AcDbEntity
  8
3
 62
     0
100
AcDbText
 10
1065.27
 20
3125.5
 30
0.0
 40
120.0
  1
925
100
AcDbText
  0
POINT
  5
835A
330
843A
100
AcDbEntity
  8
DEFPOINTS
 62
     0
100
AcDbPoint
 10
1826.253499857346
 20
3800.395935314897
 30
0.0
  0
POINT
  5
835B
330
843A
100
AcDbEntity
  8
DEFPOINTS
 62
     0
100
AcDbPoint
 10
1979.690038106198
 20
2875.395935314896
 30
0.0
  0
POINT
  5
835C
330
843A
100
AcDbEntity
  8
DEFPOINTS
 62
     0
100
AcDbPoint
 10
1405.268771363862
 20
2875.395935314896
 30
0.0
  0
ENDBLK
  5
7FFC
330
843A
100
AcDbEntity
  8
0
100
AcDbBlockEnd
  0
BLOCK
  5
843D
330
843C
100
AcDbEntity
  8
0
100
AcDbBlockBegin
  2
*D13
 70
     1
 10
0.0
 20
0.0
 30
0.0
  3
*D13
  1

  0
LINE
  5
835D
330
843C
100
AcDbEntity
  8
3
 62
     0
100
AcDbLine
 10
1959.690038106199
 20
8644.822268021341
 30
0.0
 11
1490.673896870365
 21
8644.822268021341
 31
0.0
  0
LINE
  5
835E
330
843C
100
AcDbEntity
  8
3
 62
     0
100
AcDbLine
 10
1959.690038106199
 20
6524.822268021342
 30
0.0
 11
1490.673896870364
 21
6524.822268021342
 31
0.0
  0
LINE
  5
835F
330
843C
100
AcDbEntity
  8
3
 62
     0
100
AcDbLine
 10
1530.673896870365
 20
8564.822268021343
 30
0.0
 11
1530.673896870364
 21
6604.822268021341
 31
0.0
  0
INSERT
  5
8360
330
843C
100
AcDbEntity
  8
3
 62
     0
100
AcDbBlockReference
  2
_OPEN
 10
1530.673896870365
 20
8644.822268021341
 30
0.0
 41
80.0
 42
80.0
 43
80.0
 50
90.0
  0
INSERT
  5
8361
330
843C
100
AcDbEntity
  8
3
 62
     0
100
AcDbBlockReference
  2
_OPEN
 10
1530.673896870364
 20
6524.822268021342
 30
0.0
 41
80.0
 42
80.0
 43
80.0
 50
270.0
  0
TEXT
  5
83A0
330
843C
100
AcDbEntity
  8
3
 62
     0
100
AcDbText
 10
1190.67
 20
7372.419999999999
 30
0.0
 40
120.0
  1
2120
100
AcDbText
  0
POINT
  5
8363
330
843C
100
AcDbEntity
  8
DEFPOINTS
 62
     0
100
AcDbPoint
 10
1979.690038106198
 20
8644.822268021341
 30
0.0
  0
POINT
  5
8364
330
843C
100
AcDbEntity
  8
DEFPOINTS
 62
     0
100
AcDbPoint
 10
1979.690038106198
 20
6524.822268021342
 30
0.0
  0
POINT
  5
8365
330
843C
100
AcDbEntity
  8
DEFPOINTS
 62
     0
100
AcDbPoint
 10
1530.673896870364
 20
6524.822268021342
 30
0.0
  0
ENDBLK
  5
7FD0
330
843C
100
AcDbEntity
  8
0
100
AcDbBlockEnd
  0
BLOCK
  5
843F
330
843E
100
AcDbEntity
  8
0
100
AcDbBlockBegin
  2
*D14
 70
     1
 10
0.0
 20
0.0
 30
0.0
  3
*D14
  1

  0
LINE
  5
8366
330
843E
100
AcDbEntity
  8
3
 62
     0
100
AcDbLine
 10
1979.690038106198
 20
8664.822268021342
 30
0.0
 11
1979.690038106198
 21
8889.458406526527
 31
0.0
  0
LINE
  5
8367
330
843E
100
AcDbEntity
  8
3
 62
     0
100
AcDbLine
 10
3479.690038106197
 20
8664.822268021342
 30
0.0
 11
3479.690038106197
 21
8889.458406526527
 31
0.0
  0
LINE
  5
8368
330
843E
100
AcDbEntity
  8
3
 62
     0
100
AcDbLine
 10
2059.690038106197
 20
8849.458406526526
 30
0.0
 11
3399.690038106199
 21
8849.458406526526
 31
0.0
  0
INSERT
  5
8369
330
843E
100
AcDbEntity
  8
3
 62
     0
100
AcDbBlockReference
  2
_OPEN
 10
1979.690038106198
 20
8849.458406526526
 30
0.0
 41
80.0
 42
80.0
 43
80.0
 50
180.0
  0
INSERT
  5
836A
330
843E
100
AcDbEntity
  8
3
 62
     0
100
AcDbBlockReference
  2
_OPEN
 10
3479.690038106197
 20
8849.458406526526
 30
0.0
 41
80.0
 42
80.0
 43
80.0
  0
TEXT
  5
83A1
330
843E
100
AcDbEntity
  8
3
 62
     0
100
AcDbText
 10
2489.69
 20
8737.059999999999
 30
0.0
 40
120.0
  1
1500
100
AcDbText
  0
POINT
  5
836C
330
843E
100
AcDbEntity
  8
DEFPOINTS
 62
     0
100
AcDbPoint
 10
1979.690038106198
 20
8644.822268021341
 30
0.0
  0
POINT
  5
836D
330
843E
100
AcDbEntity
  8
DEFPOINTS
 62
     0
100
AcDbPoint
 10
3479.690038106197
 20
8644.822268021341
 30
0.0
  0
POINT
  5
836E
330
843E
100
AcDbEntity
  8
DEFPOINTS
 62
     0
100
AcDbPoint
 10
3479.690038106197
 20
8849.458406526526
 30
0.0
  0
ENDBLK
  5
7FC5
330
843E
100
AcDbEntity
  8
0
100
AcDbBlockEnd
  0
BLOCK
  5
8441
330
8440
100
AcDbEntity
  8
0
100
AcDbBlockBegin
  2
*D15
 70
     1
 10
0.0
 20
0.0
 30
0.0
  3
*D15
  1

  0
LINE
  5
836F
330
8440
100
AcDbEntity
  8
3
 62
     0
100
AcDbLine
 10
3479.690038106197
 20
8664.822268021342
 30
0.0
 11
3479.690038106197
 21
8889.458406526527
 31
0.0
  0
LINE
  5
8370
330
8440
100
AcDbEntity
  8
3
 62
     0
100
AcDbLine
 10
4429.690038106198
 20
7544.822268021341
 30
0.0
 11
4429.690038106198
 21
8889.458406526527
 31
0.0
  0
LINE
  5
8371
330
8440
100
AcDbEntity
  8
3
 62
     0
100
AcDbLine
 10
3559.690038106197
 20
8849.458406526526
 30
0.0
 11
4349.690038106198
 21
8849.458406526526
 31
0.0
  0
INSERT
  5
8372
330
8440
100
AcDbEntity
  8
3
 62
     0
100
AcDbBlockReference
  2
_OPEN
 10
3479.690038106197
 20
8849.458406526526
 30
0.0
 41
80.0
 42
80.0
 43
80.0
 50
180.0
  0
INSERT
  5
8373
330
8440
100
AcDbEntity
  8
3
 62
     0
100
AcDbBlockReference
  2
_OPEN
 10
4429.690038106198
 20
8849.458406526526
 30
0.0
 41
80.0
 42
80.0
 43
80.0
  0
TEXT
  5
83A2
330
8440
100
AcDbEntity
  8
3
 62
     0
100
AcDbText
 10
3714.69
 20
8737.059999999999
 30
0.0
 40
120.0
  1
950
100
AcDbText
  0
POINT
  5
8375
330
8440
100
AcDbEntity
  8
DEFPOINTS
 62
     0
100
AcDbPoint
 10
3479.690038106197
 20
8644.822268021341
 30
0.0
  0
POINT
  5
8376
330
8440
100
AcDbEntity
  8
DEFPOINTS
 62
     0
100
AcDbPoint
 10
4429.690038106198
 20
7524.822268021342
 30
0.0
  0
POINT
  5
8377
330
8440
100
AcDbEntity
  8
DEFPOINTS
 62
     0
100
AcDbPoint
 10
4429.690038106198
 20
8849.458406526526
 30
0.0
  0
ENDBLK
  5
7FBA
330
8440
100
AcDbEntity
  8
0
100
AcDbBlockEnd
  0
BLOCK
  5
8443
330
8442
100
AcDbEntity
  8
0
100
AcDbBlockBegin
  2
*D16
 70
     1
 10
0.0
 20
0.0
 30
0.0
  3
*D16
  1

  0
LINE
  5
8378
330
8442
100
AcDbEntity
  8
3
 62
     0
100
AcDbLine
 10
4449.690038106199
 20
7524.822268021342
 30
0.0
 11
4736.016439213776
 21
7524.822268021342
 31
0.0
  0
LINE
  5
8379
330
8442
100
AcDbEntity
  8
3
 62
     0
100
AcDbLine
 10
4449.690038106199
 20
6524.822268021342
 30
0.0
 11
4736.016439213776
 21
6524.822268021342
 31
0.0
  0
LINE
  5
837A
330
8442
100
AcDbEntity
  8
3
 62
     0
100
AcDbLine
 10
4696.016439213777
 20
7444.822268021342
 30
0.0
 11
4696.016439213777
 21
6604.822268021343
 31
0.0
  0
INSERT
  5
837B
330
8442
100
AcDbEntity
  8
3
 62
     0
100
AcDbBlockReference
  2
_OPEN
 10
4696.016439213777
 20
7524.822268021342
 30
0.0
 41
80.0
 42
80.0
 43
80.0
 50
90.0
  0
INSERT
  5
837C
330
8442
100
AcDbEntity
  8
3
 62
     0
100
AcDbBlockReference
  2
_OPEN
 10
4696.016439213777
 20
6524.822268021342
 30
0.0
 41
80.0
 42
80.0
 43
80.0
 50
270.0
  0
TEXT
  5
83A3
330
8442
100
AcDbEntity
  8
3
 62
     0
100
AcDbText
 10
4356.02
 20
6812.42
 30
0.0
 40
120.0
  1
1000
100
AcDbText
  0
POINT
  5
837E
330
8442
100
AcDbEntity
  8
DEFPOINTS
 62
     0
100
AcDbPoint
 10
4429.690038106198
 20
7524.822268021342
 30
0.0
  0
POINT
  5
837F
330
8442
100
AcDbEntity
  8
DEFPOINTS
 62
     0
100
AcDbPoint
 10
4429.690038106198
 20
6524.822268021342
 30
0.0
  0
POINT
  5
8380
330
8442
100
AcDbEntity
  8
DEFPOINTS
 62
     0
100
AcDbPoint
 10
4696.016439213777
 20
6524.822268021342
 30
0.0
  0
ENDBLK
  5
7FAF
330
8442
100
AcDbEntity
  8
0
100
AcDbBlockEnd
  0
BLOCK
  5
8445
330
8444
100
AcDbEntity
  8
0
100
AcDbBlockBegin
  2
*D17
 70
     1
 10
0.0
 20
0.0
 30
0.0
  3
*D17
  1

  0
LINE
  5
8381
330
8444
100
AcDbEntity
  8
3
 62
     0
100
AcDbLine
 10
4429.690038106198
 20
6504.822268021341
 30
0.0
 11
4429.690038106198
 21
6120.06838983169
 31
0.0
  0
LINE
  5
8382
330
8444
100
AcDbEntity
  8
3
 62
     0
100
AcDbLine
 10
1979.690038106198
 20
6504.822268021341
 30
0.0
 11
1979.690038106198
 21
6120.06838983169
 31
0.0
  0
LINE
  5
8383
330
8444
100
AcDbEntity
  8
3
 62
     0
100
AcDbLine
 10
4349.690038106198
 20
6160.068389831689
 30
0.0
 11
2059.690038106197
 21
6160.068389831689
 31
0.0
  0
INSERT
  5
8384
330
8444
100
AcDbEntity
  8
3
 62
     0
100
AcDbBlockReference
  2
_OPEN
 10
4429.690038106198
 20
6160.068389831689
 30
0.0
 41
80.0
 42
80.0
 43
80.0
  0
INSERT
  5
8385
330
8444
100
AcDbEntity
  8
3
 62
     0
100
AcDbBlockReference
  2
_OPEN
 10
1979.690038106198
 20
6160.068389831689
 30
0.0
 41
80.0
 42
80.0
 43
80.0
 50
180.0
  0
TEXT
  5
83A4
330
8444
100
AcDbEntity
  8
3
 62
     0
100
AcDbText
 10
2964.69
 20
6047.67
 30
0.0
 40
120.0
  1
2450
100
AcDbText
  0
POINT
  5
8387
330
8444
100
AcDbEntity
  8
DEFPOINTS
 62
     0
100
AcDbPoint
 10
4429.690038106198
 20
6524.822268021342
 30
0.0
  0
POINT
  5
8388
330
8444
100
AcDbEntity
  8
DEFPOINTS
 62
     0
100
AcDbPoint
 10
1979.690038106198
 20
6524.822268021342
 30
0.0
  0
POINT
  5
8389
330
8444
100
AcDbEntity
  8
DEFPOINTS
 62
     0
100
AcDbPoint
 10
1979.690038106198
 20
6160.068389831689
 30
0.0
  0
ENDBLK
  5
7FA4
330
8444
100
AcDbEntity
  8
0
100
AcDbBlockEnd
  0
BLOCK
  5
8447
330
8446
100
AcDbEntity
  8
0
100
AcDbBlockBegin
  2
*D18
 70
     1
 10
0.0
 20
0.0
 30
0.0
  3
*D18
  1

  0
LINE
  5
838A
330
8446
100
AcDbEntity
  8
3
 62
     0
100
AcDbLine
 10
1904.690038106198
 20
5207.395935314896
 30
0.0
 11
1904.690038106198
 21
5701.37209794053
 31
0.0
  0
LINE
  5
838B
330
8446
100
AcDbEntity
  8
3
 62
     0
100
AcDbLine
 10
4429.690038106198
 20
3020.395935314896
 30
0.0
 11
4429.690038106198
 21
5701.37209794053
 31
0.0
  0
LINE
  5
838C
330
8446
100
AcDbEntity
  8
3
 62
     0
100
AcDbLine
 10
1984.690038106198
 20
5661.37209794053
 30
0.0
 11
4349.690038106198
 21
5661.37209794053
 31
0.0
  0
INSERT
  5
838D
330
8446
100
AcDbEntity
  8
3
 62
     0
100
AcDbBlockReference
  2
_OPEN
 10
1904.690038106198
 20
5661.37209794053
 30
0.0
 41
80.0
 42
80.0
 43
80.0
 50
180.0
  0
INSERT
  5
838E
330
8446
100
AcDbEntity
  8
3
 62
     0
100
AcDbBlockReference
  2
_OPEN
 10
4429.690038106198
 20
5661.37209794053
 30
0.0
 41
80.0
 42
80.0
 43
80.0
  0
TEXT
  5
83A5
330
8446
100
AcDbEntity
  8
3
 62
     0
100
AcDbText
 10
2927.19
 20
5548.97
 30
0.0
 40
120.0
  1
2525
100
AcDbText
  0
POINT
  5
8390
330
8446
100
AcDbEntity
  8
DEFPOINTS
 62
     0
100
AcDbPoint
 10
1904.690038106198
 20
5187.395935314897
 30
0.0
  0
POINT
  5
8391
330
8446
100
AcDbEntity
  8
DEFPOINTS
 62
     0
100
AcDbPoint
 10
4429.690038106198
 20
3000.395935314896
 30
0.0
  0
POINT
  5
8392
330
8446
100
AcDbEntity
  8
DEFPOINTS
 62
     0
100
AcDbPoint
 10
4429.690038106198
 20
5661.37209794053
 30
0.0
  0
ENDBLK
  5
7F99
330
8446
100
AcDbEntity
  8
0
100
AcDbBlockEnd
  0
BLOCK
  5
844A
330
8449
100
AcDbEntity
  8
0
100
AcDbBlockBegin
  2
_DOT
 70
     0
 10
0.0
 20
0.0
 30
0.0
  3
_DOT
  1

  0
LINE
  5
80EA
330
8449
100
AcDbEntity
  8
0
  6
ByBlock
 62
     0
100
AcDbLine
 10
0.0
 20
0.0
 30
0.0
 11
-1.0
 21
-0.0000000000000284
 31
0.0
  0
LWPOLYLINE
  5
80EB
330
8449
100
AcDbEntity
  8
0
  6
ByBlock
 62
     0
100
AcDbPolyline
 90
        2
 70
     1
 43
0.1666666666666666
 10
-0.0833333333333286
 20
-0.0000000000000284
 42
1.0
 10
0.0833333333333286
 20
-0.0000000000000284
 42
1.0
  0
ENDBLK
  5
80CF
330
8449
100
AcDbEntity
  8
0
100
AcDbBlockEnd
  0
BLOCK
  5
844C
330
844B
100
AcDbEntity
  8
0
100
AcDbBlockBegin
  2
_NONE
 70
     0
 10
0.0
 20
0.0
 30
0.0
  3
_NONE
  1

  0
CIRCLE
  5
8193
330
844B
100
AcDbEntity
  8
0
  6
ByBlock
 62
     0
100
AcDbCircle
 10
0.0
 20
0.0
 30
0.0
 40
0.25
  0
ENDBLK
  5
8194
330
844B
100
AcDbEntity
  8
0
100
AcDbBlockEnd
  0
BLOCK
  5
844E
330
844D
100
AcDbEntity
  8
0
100
AcDbBlockBegin
  2
*D21
 70
     1
 10
0.0
 20
0.0
 30
0.0
  3
*D21
  1

  0
LINE
  5
81F8
330
844D
100
AcDbEntity
  8
0
  6
ByBlock
 62
     0
100
AcDbLine
 10
1979.690038106198
 20
2855.395935314897
 30
0.0
 11
1979.690038106198
 21
2591.294568144974
 31
0.0
  0
LINE
  5
81F9
330
844D
100
AcDbEntity
  8
0
  6
ByBlock
 62
     0
100
AcDbLine
 10
2729.690038106197
 20
2855.395935314897
 30
0.0
 11
2729.690038106197
 21
2591.294568144974
 31
0.0
  0
LINE
  5
81FA
330
844D
100
AcDbEntity
  8
0
  6
ByBlock
 62
     0
100
AcDbLine
 10
2059.690038106197
 20
2631.294568144975
 30
0.0
 11
2649.690038106197
 21
2631.294568144975
 31
0.0
  0
INSERT
  5
81FB
330
844D
100
AcDbEntity
  8
0
  6
ByBlock
 62
     0
100
AcDbBlockReference
  2
_OPEN
 10
1979.690038106198
 20
2631.294568144975
 30
0.0
 41
80.0
 42
80.0
 43
80.0
 50
180.0
  0
INSERT
  5
81FC
330
844D
100
AcDbEntity
  8
0
  6
ByBlock
 62
     0
100
AcDbBlockReference
  2
_OPEN
 10
2729.690038106197
 20
2631.294568144975
 30
0.0
 41
80.0
 42
80.0
 43
80.0
  0
TEXT
  5
81FD
330
844D
100
AcDbEntity
  8
3
 62
     0
100
AcDbText
 10
2200.404323820484
 20
2671.294568144974
 30
0.0
 40
120.0
  1
750
100
AcDbText
  0
POINT
  5
81FE
330
844D
100
AcDbEntity
  8
DEFPOINTS
  6
ByBlock
 62
     0
100
AcDbPoint
 10
1979.690038106198
 20
2875.395935314896
 30
0.0
  0
POINT
  5
81FF
330
844D
100
AcDbEntity
  8
DEFPOINTS
  6
ByBlock
 62
     0
100
AcDbPoint
 10
2729.690038106197
 20
2875.395935314897
 30
0.0
  0
POINT
  5
8200
330
844D
100
AcDbEntity
  8
DEFPOINTS
  6
ByBlock
 62
     0
100
AcDbPoint
 10
2729.690038106197
 20
2631.294568144975
 30
0.0
  0
ENDBLK
  5
8201
330
844D
100
AcDbEntity
  8
0
100
AcDbBlockEnd
  0
BLOCK
  5
8450
330
844F
100
AcDbEntity
  8
0
100
AcDbBlockBegin
  2
*D22
 70
     1
 10
0.0
 20
0.0
 30
0.0
  3
*D22
  1

  0
LINE
  5
8205
330
844F
100
AcDbEntity
  8
0
  6
ByBlock
 62
     0
100
AcDbLine
 10
2729.690038106197
 20
2855.395935314897
 30
0.0
 11
2729.690038106197
 21
2591.294568144974
 31
0.0
  0
LINE
  5
8206
330
844F
100
AcDbEntity
  8
0
  6
ByBlock
 62
     0
100
AcDbLine
 10
4429.690038106198
 20
2855.395935314897
 30
0.0
 11
4429.690038106198
 21
2591.294568144974
 31
0.0
  0
LINE
  5
8207
330
844F
100
AcDbEntity
  8
0
  6
ByBlock
 62
     0
100
AcDbLine
 10
2809.690038106197
 20
2631.294568144975
 30
0.0
 11
4349.690038106198
 21
2631.294568144975
 31
0.0
  0
INSERT
  5
8208
330
844F
100
AcDbEntity
  8
0
  6
ByBlock
 62
     0
100
AcDbBlockReference
  2
_OPEN
 10
2729.690038106197
 20
2631.294568144975
 30
0.0
 41
80.0
 42
80.0
 43
80.0
 50
180.0
  0
INSERT
  5
8209
330
844F
100
AcDbEntity
  8
0
  6
ByBlock
 62
     0
100
AcDbBlockReference
  2
_OPEN
 10
4429.690038106198
 20
2631.294568144975
 30
0.0
 41
80.0
 42
80.0
 43
80.0
  0
TEXT
  5
820A
330
844F
100
AcDbEntity
  8
3
 62
     0
100
AcDbText
 10
3379.690038106199
 20
2671.294568144974
 30
0.0
 40
120.0
  1
1700
100
AcDbText
  0
POINT
  5
820B
330
844F
100
AcDbEntity
  8
DEFPOINTS
  6
ByBlock
 62
     0
100
AcDbPoint
 10
2729.690038106197
 20
2875.395935314897
 30
0.0
  0
POINT
  5
820C
330
844F
100
AcDbEntity
  8
DEFPOINTS
  6
ByBlock
 62
     0
100
AcDbPoint
 10
4429.690038106198
 20
2875.395935314896
 30
0.0
  0
POINT
  5
820D
330
844F
100
AcDbEntity
  8
DEFPOINTS
  6
ByBlock
 62
     0
100
AcDbPoint
 10
4429.690038106198
 20
2631.294568144975
 30
0.0
  0
ENDBLK
  5
820E
330
844F
100
AcDbEntity
  8
0
100
AcDbBlockEnd
  0
BLOCK
  5
8452
330
8451
100
AcDbEntity
  8
0
100
AcDbBlockBegin
  2
*D23
 70
     1
 10
0.0
 20
0.0
 30
0.0
  3
*D23
  1

  0
LINE
  5
8212
330
8451
100
AcDbEntity
  8
0
  6
ByBlock
 62
     0
100
AcDbLine
 10
5108.972951952932
 20
2855.395935314897
 30
0.0
 11
5108.972951952932
 21
2591.294568144974
 31
0.0
  0
LINE
  5
8213
330
8451
100
AcDbEntity
  8
0
  6
ByBlock
 62
     0
100
AcDbLine
 10
6310.972951952931
 20
2855.395935314896
 30
0.0
 11
6310.972951952931
 21
2591.294568144974
 31
0.0
  0
LINE
  5
8214
330
8451
100
AcDbEntity
  8
0
  6
ByBlock
 62
     0
100
AcDbLine
 10
5188.972951952932
 20
2631.294568144975
 30
0.0
 11
6230.972951952931
 21
2631.294568144975
 31
0.0
  0
INSERT
  5
8215
330
8451
100
AcDbEntity
  8
0
  6
ByBlock
 62
     0
100
AcDbBlockReference
  2
_OPEN
 10
5108.972951952932
 20
2631.294568144975
 30
0.0
 41
80.0
 42
80.0
 43
80.0
 50
180.0
  0
INSERT
  5
8216
330
8451
100
AcDbEntity
  8
0
  6
ByBlock
 62
     0
100
AcDbBlockReference
  2
_OPEN
 10
6310.972951952931
 20
2631.294568144975
 30
0.0
 41
80.0
 42
80.0
 43
80.0
  0
TEXT
  5
8217
330
8451
100
AcDbEntity
  8
3
 62
     0
100
AcDbText
 10
5509.972951952931
 20
2671.294568144974
 30
0.0
 40
120.0
  1
1202
100
AcDbText
  0
POINT
  5
8218
330
8451
100
AcDbEntity
  8
DEFPOINTS
  6
ByBlock
 62
     0
100
AcDbPoint
 10
5108.972951952932
 20
2875.395935314896
 30
0.0
  0
POINT
  5
8219
330
8451
100
AcDbEntity
  8
DEFPOINTS
  6
ByBlock
 62
     0
100
AcDbPoint
 10
6310.972951952931
 20
2875.395935314896
 30
0.0
  0
POINT
  5
821A
330
8451
100
AcDbEntity
  8
DEFPOINTS
  6
ByBlock
 62
     0
100
AcDbPoint
 10
6310.972951952931
 20
2631.294568144975
 30
0.0
  0
ENDBLK
  5
821B
330
8451
100
AcDbEntity
  8
0
100
AcDbBlockEnd
  0
BLOCK
  5
8454
330
8453
100
AcDbEntity
  8
0
100
AcDbBlockBegin
  2
*D24
 70
     1
 10
0.0
 20
0.0
 30
0.0
  3
*D24
  1

  0
LINE
  5
821F
330
8453
100
AcDbEntity
  8
0
  6
ByBlock
 62
     0
100
AcDbLine
 10
6310.972951952931
 20
2855.395935314896
 30
0.0
 11
6310.972951952931
 21
2591.294568144974
 31
0.0
  0
LINE
  5
8220
330
8453
100
AcDbEntity
  8
0
  6
ByBlock
 62
     0
100
AcDbLine
 10
7228.972951952934
 20
2855.395935314897
 30
0.0
 11
7228.972951952934
 21
2591.294568144974
 31
0.0
  0
LINE
  5
8221
330
8453
100
AcDbEntity
  8
0
  6
ByBlock
 62
     0
100
AcDbLine
 10
6390.972951952932
 20
2631.294568144975
 30
0.0
 11
7148.972951952931
 21
2631.294568144975
 31
0.0
  0
INSERT
  5
8222
330
8453
100
AcDbEntity
  8
0
  6
ByBlock
 62
     0
100
AcDbBlockReference
  2
_OPEN
 10
6310.972951952931
 20
2631.294568144975
 30
0.0
 41
80.0
 42
80.0
 43
80.0
 50
180.0
  0
INSERT
  5
8223
330
8453
100
AcDbEntity
  8
0
  6
ByBlock
 62
     0
100
AcDbBlockReference
  2
_OPEN
 10
7228.972951952934
 20
2631.294568144975
 30
0.0
 41
80.0
 42
80.0
 43
80.0
  0
TEXT
  5
8224
330
8453
100
AcDbEntity
  8
3
 62
     0
100
AcDbText
 10
6627.115809095788
 20
2671.294568144974
 30
0.0
 40
120.0
  1
918
100
AcDbText
  0
POINT
  5
8225
330
8453
100
AcDbEntity
  8
DEFPOINTS
  6
ByBlock
 62
     0
100
AcDbPoint
 10
6310.972951952931
 20
2875.395935314896
 30
0.0
  0
POINT
  5
8226
330
8453
100
AcDbEntity
  8
DEFPOINTS
  6
ByBlock
 62
     0
100
AcDbPoint
 10
7228.972951952934
 20
2875.395935314896
 30
0.0
  0
POINT
  5
8227
330
8453
100
AcDbEntity
  8
DEFPOINTS
  6
ByBlock
 62
     0
100
AcDbPoint
 10
7228.972951952934
 20
2631.294568144975
 30
0.0
  0
ENDBLK
  5
8228
330
8453
100
AcDbEntity
  8
0
100
AcDbBlockEnd
  0
BLOCK
  5
8456
330
8455
100
AcDbEntity
  8
0
100
AcDbBlockBegin
  2
*D25
 70
     1
 10
0.0
 20
0.0
 30
0.0
  3
*D25
  1

  0
LINE
  5
822C
330
8455
100
AcDbEntity
  8
0
  6
ByBlock
 62
     0
100
AcDbLine
 10
1959.690038106199
 20
2875.395935314896
 30
0.0
 11
1118.462046680579
 21
2875.395935314896
 31
0.0
  0
LINE
  5
822D
330
8455
100
AcDbEntity
  8
0
  6
ByBlock
 62
     0
100
AcDbLine
 10
1864.690038106198
 20
5134.395935314897
 30
0.0
 11
1118.462046680579
 21
5134.395935314897
 31
0.0
  0
LINE
  5
822E
330
8455
100
AcDbEntity
  8
0
  6
ByBlock
 62
     0
100
AcDbLine
 10
1158.462046680579
 20
2955.395935314896
 30
0.0
 11
1158.462046680579
 21
5054.395935314897
 31
0.0
  0
INSERT
  5
822F
330
8455
100
AcDbEntity
  8
0
  6
ByBlock
 62
     0
100
AcDbBlockReference
  2
_OPEN
 10
1158.462046680579
 20
2875.395935314896
 30
0.0
 41
80.0
 42
80.0
 43
80.0
 50
270.0
  0
INSERT
  5
8230
330
8455
100
AcDbEntity
  8
0
  6
ByBlock
 62
     0
100
AcDbBlockReference
  2
_OPEN
 10
1158.462046680579
 20
5134.395935314897
 30
0.0
 41
80.0
 42
80.0
 43
80.0
 50
90.0
  0
TEXT
  5
8231
330
8455
100
AcDbEntity
  8
3
 62
     0
100
AcDbText
 10
1118.462046680579
 20
3796.324506743469
 30
0.0
 40
120.0
  1
2259
 50
90.0
100
AcDbText
  0
POINT
  5
8232
330
8455
100
AcDbEntity
  8
DEFPOINTS
  6
ByBlock
 62
     0
100
AcDbPoint
 10
1979.690038106198
 20
2875.395935314896
 30
0.0
  0
POINT
  5
8233
330
8455
100
AcDbEntity
  8
DEFPOINTS
  6
ByBlock
 62
     0
100
AcDbPoint
 10
1884.690038106199
 20
5134.395935314897
 30
0.0
  0
POINT
  5
8234
330
8455
100
AcDbEntity
  8
DEFPOINTS
  6
ByBlock
 62
     0
100
AcDbPoint
 10
1158.462046680579
 20
5134.395935314897
 30
0.0
  0
ENDBLK
  5
8235
330
8455
100
AcDbEntity
  8
0
100
AcDbBlockEnd
  0
BLOCK
  5
845A
330
8459
100
AcDbEntity
  8
0
100
AcDbBlockBegin
  2
*D26
 70
     1
 10
0.0
 20
0.0
 30
0.0
  3
*D26
  1

  0
LINE
  5
845C
330
8459
100
AcDbEntity
  8
3
 62
     0
370
    -2
100
AcDbLine
 10
5075.972951952932
 20
4200.395935314896
 30
0.0
 11
5075.972951952932
 21
6008.648701008493
 31
0.0
  0
LINE
  5
845D
330
8459
100
AcDbEntity
  8
3
 62
     0
370
    -2
100
AcDbLine
 10
6310.972951952932
 20
5154.395935314897
 30
0.0
 11
6310.972951952932
 21
6008.648701008493
 31
0.0
  0
LINE
  5
845E
330
8459
100
AcDbEntity
  8
3
 62
     0
370
    -2
100
AcDbLine
 10
5155.972951952932
 20
5968.648701008493
 30
0.0
 11
6230.972951952931
 21
5968.648701008493
 31
0.0
  0
INSERT
  5
845F
330
8459
100
AcDbEntity
  8
3
 62
     0
370
    -2
100
AcDbBlockReference
  2
_OPEN
 10
5075.972951952932
 20
5968.648701008493
 30
0.0
 41
80.0
 42
80.0
 43
80.0
 50
180.0
  0
INSERT
  5
8460
330
8459
100
AcDbEntity
  8
3
 62
     0
370
    -2
100
AcDbBlockReference
  2
_OPEN
 10
6310.972951952932
 20
5968.648701008493
 30
0.0
 41
80.0
 42
80.0
 43
80.0
  0
MTEXT
  5
8461
330
8459
100
AcDbEntity
  8
3
 62
     0
100
AcDbMText
 10
5693.472951952932
 20
6068.648701008493
 30
0.0
 40
120.0
 41
0.0
 71
     5
 72
     1
  1
\A1;1235
 73
     1
 44
1.0
1001
ACAD
1000
MTEXTBEGIN
1070
    73
1070
     1
1070
    44
1040
1.0
1070
    74
1070
     0
1000
MTEXTEND
  0
POINT
  5
8462
330
8459
100
AcDbEntity
  8
DEFPOINTS
 62
     0
100
AcDbPoint
 10
5075.972951952932
 20
4180.395935314897
 30
0.0
  0
POINT
  5
8463
330
8459
100
AcDbEntity
  8
DEFPOINTS
 62
     0
100
AcDbPoint
 10
6310.972951952932
 20
5134.395935314897
 30
0.0
  0
POINT
  5
8464
330
8459
100
AcDbEntity
  8
DEFPOINTS
 62
     0
100
AcDbPoint
 10
6310.972951952932
 20
5968.648701008493
 30
0.0
  0
ENDBLK
  5
845B
330
8459
100
AcDbEntity
  8
0
100
AcDbBlockEnd
  0
BLOCK
  5
84CD
330
84CC
100
AcDbEntity
  8
0
100
AcDbBlockBegin
  2
*D27
 70
     1
 10
0.0
 20
0.0
 30
0.0
  3
*D27
  1

  0
LINE
  5
855B
330
84CC
100
AcDbEntity
  8
3
 62
     0
370
    -2
100
AcDbLine
 10
5030.972951952932
 20
4200.395935314896
 30
0.0
 11
5030.972951952932
 21
5873.827008531883
 31
0.0
  0
LINE
  5
855C
330
84CC
100
AcDbEntity
  8
3
 62
     0
370
    -2
100
AcDbLine
 10
6310.972951952932
 20
5615.795721781462
 30
0.0
 11
6310.972951952932
 21
5873.827008531883
 31
0.0
  0
LINE
  5
855D
330
84CC
100
AcDbEntity
  8
3
 62
     0
370
    -2
100
AcDbLine
 10
5110.972951952931
 20
5833.827008531883
 30
0.0
 11
6230.972951952931
 21
5833.827008531883
 31
0.0
  0
INSERT
  5
855E
330
84CC
100
AcDbEntity
  8
3
 62
     0
370
    -2
100
AcDbBlockReference
  2
_OPEN
 10
5030.972951952932
 20
5833.827008531883
 30
0.0
 41
80.0
 42
80.0
 43
80.0
 50
180.0
  0
INSERT
  5
855F
330
84CC
100
AcDbEntity
  8
3
 62
     0
370
    -2
100
AcDbBlockReference
  2
_OPEN
 10
6310.972951952932
 20
5833.827008531883
 30
0.0
 41
80.0
 42
80.0
 43
80.0
  0
MTEXT
  5
8560
330
84CC
100
AcDbEntity
  8
3
 62
     0
100
AcDbMText
 10
5670.972951952932
 20
5965.255579960455
 30
0.0
 40
120.0
 41
0.0
 71
     5
 72
     1
  1
\A1;(1280)
 73
     1
 44
1.0
1001
ACAD
1000
MTEXTBEGIN
1070
    73
1070
     1
1070
    44
1040
1.0
1070
    74
1070
     0
1000
MTEXTEND
  0
POINT
  5
8561
330
84CC
100
AcDbEntity
  8
DEFPOINTS
 62
     0
100
AcDbPoint
 10
5030.972951952932
 20
4180.395935314897
 30
0.0
  0
POINT
  5
8562
330
84CC
100
AcDbEntity
  8
DEFPOINTS
 62
     0
100
AcDbPoint
 10
6310.972951952932
 20
5595.795721781462
 30
0.0
  0
POINT
  5
8563
330
84CC
100
AcDbEntity
  8
DEFPOINTS
 62
     0
100
AcDbPoint
 10
6310.972951952932
 20
5833.827008531883
 30
0.0
  0
ENDBLK
  5
84CE
330
84CC
100
AcDbEntity
  8
0
100
AcDbBlockEnd
  0
BLOCK
  5
84DA
330
84D9
100
AcDbEntity
  8
0
100
AcDbBlockBegin
  2
*D28
 70
     1
 10
0.0
 20
0.0
 30
0.0
  3
*D28
  1

  0
LINE
  5
856D
330
84D9
100
AcDbEntity
  8
3
 62
     0
370
    -2
100
AcDbLine
 10
6310.972951952932
 20
5615.795721781462
 30
0.0
 11
6310.972951952932
 21
5873.827008531883
 31
0.0
  0
LINE
  5
856E
330
84D9
100
AcDbEntity
  8
3
 62
     0
370
    -2
100
AcDbLine
 10
7330.972951952934
 20
3744.395935314897
 30
0.0
 11
7330.972951952934
 21
5873.827008531883
 31
0.0
  0
LINE
  5
856F
330
84D9
100
AcDbEntity
  8
3
 62
     0
370
    -2
100
AcDbLine
 10
6390.972951952932
 20
5833.827008531883
 30
0.0
 11
7250.972951952935
 21
5833.827008531883
 31
0.0
  0
INSERT
  5
8570
330
84D9
100
AcDbEntity
  8
3
 62
     0
370
    -2
100
AcDbBlockReference
  2
_OPEN
 10
6310.972951952932
 20
5833.827008531883
 30
0.0
 41
80.0
 42
80.0
 43
80.0
 50
180.0
  0
INSERT
  5
8571
330
84D9
100
AcDbEntity
  8
3
 62
     0
370
    -2
100
AcDbBlockReference
  2
_OPEN
 10
7330.972951952934
 20
5833.827008531883
 30
0.0
 41
80.0
 42
80.0
 43
80.0
  0
MTEXT
  5
8572
330
84D9
100
AcDbEntity
  8
3
 62
     0
100
AcDbMText
 10
6820.972951952933
 20
5965.255579960455
 30
0.0
 40
120.0
 41
0.0
 71
     5
 72
     1
  1
\A1;(1020)
 73
     1
 44
1.0
1001
ACAD
1000
MTEXTBEGIN
1070
    73
1070
     1
1070
    44
1040
1.0
1070
    74
1070
     0
1000
MTEXTEND
  0
POINT
  5
8573
330
84D9
100
AcDbEntity
  8
DEFPOINTS
 62
     0
100
AcDbPoint
 10
6310.972951952932
 20
5595.795721781462
 30
0.0
  0
POINT
  5
8574
330
84D9
100
AcDbEntity
  8
DEFPOINTS
 62
     0
100
AcDbPoint
 10
7330.972951952934
 20
3724.395935314896
 30
0.0
  0
POINT
  5
8575
330
84D9
100
AcDbEntity
  8
DEFPOINTS
 62
     0
100
AcDbPoint
 10
7330.972951952934
 20
5833.827008531883
 30
0.0
  0
ENDBLK
  5
84DB
330
84D9
100
AcDbEntity
  8
0
100
AcDbBlockEnd
  0
BLOCK
  5
84E7
330
84E6
100
AcDbEntity
  8
0
100
AcDbBlockBegin
  2
*D29
 70
     1
 10
0.0
 20
0.0
 30
0.0
  3
*D29
  1

  0
LINE
  5
84E9
330
84E6
100
AcDbEntity
  8
3
 62
     0
370
    -2
100
AcDbLine
 10
5460.972951952932
 20
5154.395935314897
 30
0.0
 11
5460.972951952932
 21
5475.795721781462
 31
0.0
  0
LINE
  5
84EA
330
84E6
100
AcDbEntity
  8
3
 62
     0
370
    -2
100
AcDbLine
 10
7160.972951952931
 20
5154.395935314897
 30
0.0
 11
7160.972951952931
 21
5475.795721781462
 31
0.0
  0
LINE
  5
84EB
330
84E6
100
AcDbEntity
  8
3
 62
     0
370
    -2
100
AcDbLine
 10
5540.972951952932
 20
5435.795721781462
 30
0.0
 11
7080.972951952931
 21
5435.795721781462
 31
0.0
  0
INSERT
  5
84EC
330
84E6
100
AcDbEntity
  8
3
 62
     0
370
    -2
100
AcDbBlockReference
  2
_OPEN
 10
5460.972951952932
 20
5435.795721781462
 30
0.0
 41
80.0
 42
80.0
 43
80.0
 50
180.0
  0
INSERT
  5
84ED
330
84E6
100
AcDbEntity
  8
3
 62
     0
370
    -2
100
AcDbBlockReference
  2
_OPEN
 10
7160.972951952931
 20
5435.795721781462
 30
0.0
 41
80.0
 42
80.0
 43
80.0
  0
MTEXT
  5
84EE
330
84E6
100
AcDbEntity
  8
3
 62
     0
100
AcDbMText
 10
6310.972951952932
 20
5535.795721781462
 30
0.0
 40
120.0
 41
0.0
 71
     5
 72
     1
  1
\A1;1700
 73
     1
 44
1.0
1001
ACAD
1000
MTEXTBEGIN
1070
    73
1070
     1
1070
    44
1040
1.0
1070
    74
1070
     0
1000
MTEXTEND
  0
POINT
  5
84EF
330
84E6
100
AcDbEntity
  8
DEFPOINTS
 62
     0
100
AcDbPoint
 10
5460.972951952932
 20
5134.395935314897
 30
0.0
  0
POINT
  5
84F0
330
84E6
100
AcDbEntity
  8
DEFPOINTS
 62
     0
100
AcDbPoint
 10
7160.972951952931
 20
5134.395935314897
 30
0.0
  0
POINT
  5
84F1
330
84E6
100
AcDbEntity
  8
DEFPOINTS
 62
     0
100
AcDbPoint
 10
7160.972951952931
 20
5435.795721781462
 30
0.0
  0
ENDBLK
  5
84E8
330
84E6
100
AcDbEntity
  8
0
100
AcDbBlockEnd
  0
BLOCK
  5
8506
330
8505
100
AcDbEntity
  8
0
100
AcDbBlockBegin
  2
*D30
 70
     1
 10
0.0
 20
0.0
 30
0.0
  3
*D30
  1

  0
LINE
  5
8576
330
8505
100
AcDbEntity
  8
3
 62
     0
370
    -2
100
AcDbLine
 10
1733.862917384478
 20
7726.822268021344
 30
0.0
 11
373.1567119065732
 21
7726.822268021344
 31
0.0
  0
LINE
  5
8577
330
8505
100
AcDbEntity
  8
3
 62
     0
370
    -2
100
AcDbLine
 10
2329.690038106198
 20
6446.822268021342
 30
0.0
 11
373.1567119065729
 21
6446.822268021344
 31
0.0
  0
LINE
  5
8578
330
8505
100
AcDbEntity
  8
3
 62
     0
370
    -2
100
AcDbLine
 10
413.1567119065731
 20
7646.822268021344
 30
0.0
 11
413.1567119065729
 21
6526.822268021344
 31
0.0
  0
INSERT
  5
8579
330
8505
100
AcDbEntity
  8
3
 62
     0
370
    -2
100
AcDbBlockReference
  2
_OPEN
 10
413.1567119065731
 20
7726.822268021344
 30
0.0
 41
80.0
 42
80.0
 43
80.0
 50
90.0
  0
INSERT
  5
857A
330
8505
100
AcDbEntity
  8
3
 62
     0
370
    -2
100
AcDbBlockReference
  2
_OPEN
 10
413.1567119065729
 20
6446.822268021344
 30
0.0
 41
80.0
 42
80.0
 43
80.0
 50
270.0
  0
MTEXT
  5
857B
330
8505
100
AcDbEntity
  8
3
 62
     0
100
AcDbMText
 10
313.1567119065719
 20
7086.822268021343
 30
0.0
 40
120.0
 41
0.0
 71
     5
 72
     1
  1
\A1;1280
 11
0.0000000000000001
 21
1.0
 31
0.0
 73
     1
 44
1.0
1001
ACAD
1000
MTEXTBEGIN
1070
    73
1070
     1
1070
    44
1040
1.0
1070
    74
1070
     0
1000
MTEXTEND
  0
POINT
  5
857C
330
8505
100
AcDbEntity
  8
DEFPOINTS
 62
     0
100
AcDbPoint
 10
1753.862917384478
 20
7726.822268021344
 30
0.0
  0
POINT
  5
857D
330
8505
100
AcDbEntity
  8
DEFPOINTS
 62
     0
100
AcDbPoint
 10
2349.690038106198
 20
6446.822268021342
 30
0.0
  0
POINT
  5
857E
330
8505
100
AcDbEntity
  8
DEFPOINTS
 62
     0
100
AcDbPoint
 10
413.1567119065729
 20
6446.822268021344
 30
0.0
  0
ENDBLK
  5
8507
330
8505
100
AcDbEntity
  8
0
100
AcDbBlockEnd
  0
BLOCK
  5
8517
330
8516
100
AcDbEntity
  8
0
100
AcDbBlockBegin
  2
*D31
 70
     1
 10
0.0
 20
0.0
 30
0.0
  3
*D31
  1

  0
LINE
  5
852E
330
8516
100
AcDbEntity
  8
3
 62
     0
370
    -2
100
AcDbLine
 10
7180.972951952933
 20
4425.395935314896
 30
0.0
 11
7705.884051569738
 21
4425.395935314896
 31
0.0
  0
LINE
  5
852F
330
8516
100
AcDbEntity
  8
3
 62
     0
370
    -2
100
AcDbLine
 10
7180.972951952933
 20
3175.395935314896
 30
0.0
 11
7705.884051569738
 21
3175.395935314896
 31
0.0
  0
LINE
  5
8530
330
8516
100
AcDbEntity
  8
3
 62
     0
370
    -2
100
AcDbLine
 10
7665.884051569737
 20
4345.395935314896
 30
0.0
 11
7665.884051569737
 21
3255.395935314896
 31
0.0
  0
INSERT
  5
8531
330
8516
100
AcDbEntity
  8
3
 62
     0
370
    -2
100
AcDbBlockReference
  2
_OPEN
 10
7665.884051569737
 20
4425.395935314896
 30
0.0
 41
80.0
 42
80.0
 43
80.0
 50
90.0
  0
INSERT
  5
8532
330
8516
100
AcDbEntity
  8
3
 62
     0
370
    -2
100
AcDbBlockReference
  2
_OPEN
 10
7665.884051569737
 20
3175.395935314896
 30
0.0
 41
80.0
 42
80.0
 43
80.0
 50
270.0
  0
MTEXT
  5
8533
330
8516
100
AcDbEntity
  8
3
 62
     0
100
AcDbMText
 10
7565.884051569736
 20
3800.395935314898
 30
0.0
 40
120.0
 41
0.0
 71
     5
 72
     1
  1
\A1;\U+03C61250
 11
0.0000000000000001
 21
1.0
 31
0.0
 73
     1
 44
1.0
1001
ACAD
1000
MTEXTBEGIN
1070
    73
1070
     1
1070
    44
1040
1.0
1070
    74
1070
     0
1000
MTEXTEND
  0
POINT
  5
8534
330
8516
100
AcDbEntity
  8
DEFPOINTS
 62
     0
100
AcDbPoint
 10
7160.972951952932
 20
4425.395935314896
 30
0.0
  0
POINT
  5
8535
330
8516
100
AcDbEntity
  8
DEFPOINTS
 62
     0
100
AcDbPoint
 10
7160.972951952932
 20
3175.395935314896
 30
0.0
  0
POINT
  5
8536
330
8516
100
AcDbEntity
  8
DEFPOINTS
 62
     0
100
AcDbPoint
 10
7665.884051569737
 20
3175.395935314896
 30
0.0
  0
ENDBLK
  5
8518
330
8516
100
AcDbEntity
  8
0
100
AcDbBlockEnd
  0
BLOCK
  5
858A
330
8589
100
AcDbEntity
  8
0
100
AcDbBlockBegin
  2
*D32
 70
     1
 10
0.0
 20
0.0
 30
0.0
  3
*D32
  1

  0
LINE
  5
858C
330
8589
100
AcDbEntity
  8
3
 62
     0
370
    -2
100
AcDbLine
 10
1959.690038106198
 20
8644.822268021341
 30
0.0
 11
1490.673896870364
 21
8644.822268021341
 31
0.0
  0
LINE
  5
858D
330
8589
100
AcDbEntity
  8
3
 62
     0
370
    -2
100
AcDbLine
 10
1959.690038106198
 20
6524.82226802134
 30
0.0
 11
1490.673896870364
 21
6524.82226802134
 31
0.0
  0
LINE
  5
858E
330
8589
100
AcDbEntity
  8
3
 62
     0
370
    -2
100
AcDbLine
 10
1530.673896870364
 20
8564.822268021343
 30
0.0
 11
1530.673896870364
 21
6604.82226802134
 31
0.0
  0
INSERT
  5
858F
330
8589
100
AcDbEntity
  8
3
 62
     0
370
    -2
100
AcDbBlockReference
  2
_OPEN
 10
1530.673896870364
 20
8644.822268021341
 30
0.0
 41
80.0
 42
80.0
 43
80.0
 50
90.0
  0
INSERT
  5
8590
330
8589
100
AcDbEntity
  8
3
 62
     0
370
    -2
100
AcDbBlockReference
  2
_OPEN
 10
1530.673896870364
 20
6524.82226802134
 30
0.0
 41
80.0
 42
80.0
 43
80.0
 50
270.0
  0
MTEXT
  5
8591
330
8589
100
AcDbEntity
  8
3
 62
     0
100
AcDbMText
 10
1430.673896870363
 20
7584.822268021341
 30
0.0
 40
120.0
 41
0.0
 71
     5
 72
     1
  1
\A1;2120
 11
0.0000000000000001
 21
1.0
 31
0.0
 73
     1
 44
1.0
1001
ACAD
1000
MTEXTBEGIN
1070
    73
1070
     1
1070
    44
1040
1.0
1070
    74
1070
     0
1000
MTEXTEND
  0
POINT
  5
8592
330
8589
100
AcDbEntity
  8
DEFPOINTS
 62
     0
100
AcDbPoint
 10
1979.690038106198
 20
8644.822268021341
 30
0.0
  0
POINT
  5
8593
330
8589
100
AcDbEntity
  8
DEFPOINTS
 62
     0
100
AcDbPoint
 10
1979.690038106198
 20
6524.82226802134
 30
0.0
  0
POINT
  5
8594
330
8589
100
AcDbEntity
  8
DEFPOINTS
 62
     0
100
AcDbPoint
 10
1530.673896870364
 20
6524.82226802134
 30
0.0
  0
ENDBLK
  5
858B
330
8589
100
AcDbEntity
  8
0
100
AcDbBlockEnd
  0
BLOCK
  5
8597
330
8596
100
AcDbEntity
  8
0
100
AcDbBlockBegin
  2
*D33
 70
     1
 10
0.0
 20
0.0
 30
0.0
  3
*D33
  1

  0
LINE
  5
8599
330
8596
100
AcDbEntity
  8
3
 62
     0
370
    -2
100
AcDbLine
 10
1979.690038106198
 20
6504.82226802134
 30
0.0
 11
1979.690038106198
 21
6120.06838983169
 31
0.0
  0
LINE
  5
859A
330
8596
100
AcDbEntity
  8
3
 62
     0
370
    -2
100
AcDbLine
 10
4429.690038106198
 20
6504.822268021341
 30
0.0
 11
4429.690038106198
 21
6120.06838983169
 31
0.0
  0
LINE
  5
859B
330
8596
100
AcDbEntity
  8
3
 62
     0
370
    -2
100
AcDbLine
 10
2059.690038106198
 20
6160.068389831689
 30
0.0
 11
4349.690038106198
 21
6160.068389831689
 31
0.0
  0
INSERT
  5
859C
330
8596
100
AcDbEntity
  8
3
 62
     0
370
    -2
100
AcDbBlockReference
  2
_OPEN
 10
1979.690038106198
 20
6160.068389831689
 30
0.0
 41
80.0
 42
80.0
 43
80.0
 50
180.0
  0
INSERT
  5
859D
330
8596
100
AcDbEntity
  8
3
 62
     0
370
    -2
100
AcDbBlockReference
  2
_OPEN
 10
4429.690038106198
 20
6160.068389831689
 30
0.0
 41
80.0
 42
80.0
 43
80.0
  0
MTEXT
  5
859E
330
8596
100
AcDbEntity
  8
3
 62
     0
100
AcDbMText
 10
3204.690038106198
 20
6260.06838983169
 30
0.0
 40
120.0
 41
0.0
 71
     5
 72
     1
  1
\A1;2450
 73
     1
 44
1.0
1001
ACAD
1000
MTEXTBEGIN
1070
    73
1070
     1
1070
    44
1040
1.0
1070
    74
1070
     0
1000
MTEXTEND
  0
POINT
  5
859F
330
8596
100
AcDbEntity
  8
DEFPOINTS
 62
     0
100
AcDbPoint
 10
1979.690038106198
 20
6524.82226802134
 30
0.0
  0
POINT
  5
85A0
330
8596
100
AcDbEntity
  8
DEFPOINTS
 62
     0
100
AcDbPoint
 10
4429.690038106198
 20
6524.822268021342
 30
0.0
  0
POINT
  5
85A1
330
8596
100
AcDbEntity
  8
DEFPOINTS
 62
     0
100
AcDbPoint
 10
4429.690038106198
 20
6160.068389831689
 30
0.0
  0
ENDBLK
  5
8598
330
8596
100
AcDbEntity
  8
0
100
AcDbBlockEnd
  0
BLOCK
  5
85A4
330
85A3
100
AcDbEntity
  8
0
100
AcDbBlockBegin
  2
*D34
 70
     1
 10
0.0
 20
0.0
 30
0.0
  3
*D34
  1

  0
LINE
  5
85A6
330
85A3
100
AcDbEntity
  8
3
 62
     0
370
    -2
100
AcDbLine
 10
1979.690038106198
 20
8664.822268021342
 30
0.0
 11
1979.690038106198
 21
8889.458406526527
 31
0.0
  0
LINE
  5
85A7
330
85A3
100
AcDbEntity
  8
3
 62
     0
370
    -2
100
AcDbLine
 10
3479.690038106197
 20
8664.822268021342
 30
0.0
 11
3479.690038106197
 21
8889.458406526527
 31
0.0
  0
LINE
  5
85A8
330
85A3
100
AcDbEntity
  8
3
 62
     0
370
    -2
100
AcDbLine
 10
2059.690038106198
 20
8849.458406526526
 30
0.0
 11
3399.690038106198
 21
8849.458406526526
 31
0.0
  0
INSERT
  5
85A9
330
85A3
100
AcDbEntity
  8
3
 62
     0
370
    -2
100
AcDbBlockReference
  2
_OPEN
 10
1979.690038106198
 20
8849.458406526526
 30
0.0
 41
80.0
 42
80.0
 43
80.0
 50
180.0
  0
INSERT
  5
85AA
330
85A3
100
AcDbEntity
  8
3
 62
     0
370
    -2
100
AcDbBlockReference
  2
_OPEN
 10
3479.690038106197
 20
8849.458406526526
 30
0.0
 41
80.0
 42
80.0
 43
80.0
  0
MTEXT
  5
85AB
330
85A3
100
AcDbEntity
  8
3
 62
     0
100
AcDbMText
 10
2729.690038106198
 20
8949.458406526526
 30
0.0
 40
120.0
 41
0.0
 71
     5
 72
     1
  1
\A1;1500
 73
     1
 44
1.0
1001
ACAD
1000
MTEXTBEGIN
1070
    73
1070
     1
1070
    44
1040
1.0
1070
    74
1070
     0
1000
MTEXTEND
  0
POINT
  5
85AC
330
85A3
100
AcDbEntity
  8
DEFPOINTS
 62
     0
100
AcDbPoint
 10
1979.690038106198
 20
8644.822268021341
 30
0.0
  0
POINT
  5
85AD
330
85A3
100
AcDbEntity
  8
DEFPOINTS
 62
     0
100
AcDbPoint
 10
3479.690038106197
 20
8644.822268021341
 30
0.0
  0
POINT
  5
85AE
330
85A3
100
AcDbEntity
  8
DEFPOINTS
 62
     0
100
AcDbPoint
 10
3479.690038106197
 20
8849.458406526526
 30
0.0
  0
ENDBLK
  5
85A5
330
85A3
100
AcDbEntity
  8
0
100
AcDbBlockEnd
  0
BLOCK
  5
85B1
330
85B0
100
AcDbEntity
  8
0
100
AcDbBlockBegin
  2
*D35
 70
     1
 10
0.0
 20
0.0
 30
0.0
  3
*D35
  1

  0
LINE
  5
85B3
330
85B0
100
AcDbEntity
  8
3
 62
     0
370
    -2
100
AcDbLine
 10
3479.690038106197
 20
8664.822268021342
 30
0.0
 11
3479.690038106197
 21
8889.458406526527
 31
0.0
  0
LINE
  5
85B4
330
85B0
100
AcDbEntity
  8
3
 62
     0
370
    -2
100
AcDbLine
 10
4429.690038106198
 20
7544.822268021341
 30
0.0
 11
4429.690038106198
 21
8889.458406526527
 31
0.0
  0
LINE
  5
85B5
330
85B0
100
AcDbEntity
  8
3
 62
     0
370
    -2
100
AcDbLine
 10
3559.690038106197
 20
8849.458406526526
 30
0.0
 11
4349.690038106198
 21
8849.458406526526
 31
0.0
  0
INSERT
  5
85B6
330
85B0
100
AcDbEntity
  8
3
 62
     0
370
    -2
100
AcDbBlockReference
  2
_OPEN
 10
3479.690038106197
 20
8849.458406526526
 30
0.0
 41
80.0
 42
80.0
 43
80.0
 50
180.0
  0
INSERT
  5
85B7
330
85B0
100
AcDbEntity
  8
3
 62
     0
370
    -2
100
AcDbBlockReference
  2
_OPEN
 10
4429.690038106198
 20
8849.458406526526
 30
0.0
 41
80.0
 42
80.0
 43
80.0
  0
MTEXT
  5
85B8
330
85B0
100
AcDbEntity
  8
3
 62
     0
100
AcDbMText
 10
3954.690038106198
 20
8949.458406526526
 30
0.0
 40
120.0
 41
0.0
 71
     5
 72
     1
  1
\A1;950
 73
     1
 44
1.0
1001
ACAD
1000
MTEXTBEGIN
1070
    73
1070
     1
1070
    44
1040
1.0
1070
    74
1070
     0
1000
MTEXTEND
  0
POINT
  5
85B9
330
85B0
100
AcDbEntity
  8
DEFPOINTS
 62
     0
100
AcDbPoint
 10
3479.690038106197
 20
8644.822268021341
 30
0.0
  0
POINT
  5
85BA
330
85B0
100
AcDbEntity
  8
DEFPOINTS
 62
     0
100
AcDbPoint
 10
4429.690038106198
 20
7524.822268021342
 30
0.0
  0
POINT
  5
85BB
330
85B0
100
AcDbEntity
  8
DEFPOINTS
 62
     0
100
AcDbPoint
 10
4429.690038106198
 20
8849.458406526526
 30
0.0
  0
ENDBLK
  5
85B2
330
85B0
100
AcDbEntity
  8
0
100
AcDbBlockEnd
  0
BLOCK
  5
85BE
330
85BD
100
AcDbEntity
  8
0
100
AcDbBlockBegin
  2
*D36
 70
     1
 10
0.0
 20
0.0
 30
0.0
  3
*D36
  1

  0
LINE
  5
85C0
330
85BD
100
AcDbEntity
  8
3
 62
     0
370
    -2
100
AcDbLine
 10
4449.690038106197
 20
6524.822268021342
 30
0.0
 11
4736.016439213776
 21
6524.822268021342
 31
0.0
  0
LINE
  5
85C1
330
85BD
100
AcDbEntity
  8
3
 62
     0
370
    -2
100
AcDbLine
 10
4449.690038106197
 20
7524.822268021342
 30
0.0
 11
4736.016439213776
 21
7524.822268021342
 31
0.0
  0
LINE
  5
85C2
330
85BD
100
AcDbEntity
  8
3
 62
     0
370
    -2
100
AcDbLine
 10
4696.016439213777
 20
6604.822268021341
 30
0.0
 11
4696.016439213777
 21
7444.822268021342
 31
0.0
  0
INSERT
  5
85C3
330
85BD
100
AcDbEntity
  8
3
 62
     0
370
    -2
100
AcDbBlockReference
  2
_OPEN
 10
4696.016439213777
 20
6524.822268021342
 30
0.0
 41
80.0
 42
80.0
 43
80.0
 50
270.0
  0
INSERT
  5
85C4
330
85BD
100
AcDbEntity
  8
3
 62
     0
370
    -2
100
AcDbBlockReference
  2
_OPEN
 10
4696.016439213777
 20
7524.822268021342
 30
0.0
 41
80.0
 42
80.0
 43
80.0
 50
90.0
  0
MTEXT
  5
85C5
330
85BD
100
AcDbEntity
  8
3
 62
     0
100
AcDbMText
 10
4596.016439213775
 20
7024.822268021342
 30
0.0
 40
120.0
 41
0.0
 71
     5
 72
     1
  1
\A1;1000
 11
0.0000000000000001
 21
1.0
 31
0.0
 73
     1
 44
1.0
1001
ACAD
1000
MTEXTBEGIN
1070
    73
1070
     1
1070
    44
1040
1.0
1070
    74
1070
     0
1000
MTEXTEND
  0
POINT
  5
85C6
330
85BD
100
AcDbEntity
  8
DEFPOINTS
 62
     0
100
AcDbPoint
 10
4429.690038106198
 20
6524.822268021342
 30
0.0
  0
POINT
  5
85C7
330
85BD
100
AcDbEntity
  8
DEFPOINTS
 62
     0
100
AcDbPoint
 10
4429.690038106198
 20
7524.822268021342
 30
0.0
  0
POINT
  5
85C8
330
85BD
100
AcDbEntity
  8
DEFPOINTS
 62
     0
100
AcDbPoint
 10
4696.016439213777
 20
7524.822268021342
 30
0.0
  0
ENDBLK
  5
85BF
330
85BD
100
AcDbEntity
  8
0
100
AcDbBlockEnd
  0
BLOCK
  5
85CB
330
85CA
100
AcDbEntity
  8
0
100
AcDbBlockBegin
  2
*D37
 70
     1
 10
0.0
 20
0.0
 30
0.0
  3
*D37
  1

  0
LINE
  5
85CD
330
85CA
100
AcDbEntity
  8
3
 62
     0
370
    -2
100
AcDbLine
 10
1959.690038106198
 20
2875.395935314896
 30
0.0
 11
1365.268771363862
 21
2875.395935314896
 31
0.0
  0
LINE
  5
85CE
330
85CA
100
AcDbEntity
  8
3
 62
     0
370
    -2
100
AcDbLine
 10
1806.253499857346
 20
3800.395935314897
 30
0.0
 11
1365.268771363862
 21
3800.395935314897
 31
0.0
  0
LINE
  5
85CF
330
85CA
100
AcDbEntity
  8
3
 62
     0
370
    -2
100
AcDbLine
 10
1405.268771363862
 20
2955.395935314896
 30
0.0
 11
1405.268771363862
 21
3720.395935314896
 31
0.0
  0
INSERT
  5
85D0
330
85CA
100
AcDbEntity
  8
3
 62
     0
370
    -2
100
AcDbBlockReference
  2
_OPEN
 10
1405.268771363862
 20
2875.395935314896
 30
0.0
 41
80.0
 42
80.0
 43
80.0
 50
270.0
  0
INSERT
  5
85D1
330
85CA
100
AcDbEntity
  8
3
 62
     0
370
    -2
100
AcDbBlockReference
  2
_OPEN
 10
1405.268771363862
 20
3800.395935314897
 30
0.0
 41
80.0
 42
80.0
 43
80.0
 50
90.0
  0
MTEXT
  5
85D2
330
85CA
100
AcDbEntity
  8
3
 62
     0
100
AcDbMText
 10
1305.268771363861
 20
3337.895935314897
 30
0.0
 40
120.0
 41
0.0
 71
     5
 72
     1
  1
\A1;925
 11
0.0000000000000001
 21
1.0
 31
0.0
 73
     1
 44
1.0
1001
ACAD
1000
MTEXTBEGIN
1070
    73
1070
     1
1070
    44
1040
1.0
1070
    74
1070
     0
1000
MTEXTEND
  0
POINT
  5
85D3
330
85CA
100
AcDbEntity
  8
DEFPOINTS
 62
     0
100
AcDbPoint
 10
1979.690038106198
 20
2875.395935314896
 30
0.0
  0
POINT
  5
85D4
330
85CA
100
AcDbEntity
  8
DEFPOINTS
 62
     0
100
AcDbPoint
 10
1826.253499857346
 20
3800.395935314897
 30
0.0
  0
POINT
  5
85D5
330
85CA
100
AcDbEntity
  8
DEFPOINTS
 62
     0
100
AcDbPoint
 10
1405.268771363862
 20
3800.395935314897
 30
0.0
  0
ENDBLK
  5
85CC
330
85CA
100
AcDbEntity
  8
0
100
AcDbBlockEnd
  0
BLOCK
  5
85D8
330
85D7
100
AcDbEntity
  8
0
100
AcDbBlockBegin
  2
*D38
 70
     1
 10
0.0
 20
0.0
 30
0.0
  3
*D38
  1

  0
LINE
  5
85DA
330
85D7
100
AcDbEntity
  8
3
 62
     0
370
    -2
100
AcDbLine
 10
1806.253499857346
 20
3800.395935314897
 30
0.0
 11
1365.268771363862
 21
3800.395935314897
 31
0.0
  0
LINE
  5
85DB
330
85D7
100
AcDbEntity
  8
3
 62
     0
370
    -2
100
AcDbLine
 10
1884.690038106198
 20
5134.395935314897
 30
0.0
 11
1365.268771363862
 21
5134.395935314897
 31
0.0
  0
LINE
  5
85DC
330
85D7
100
AcDbEntity
  8
3
 62
     0
370
    -2
100
AcDbLine
 10
1405.268771363862
 20
3880.395935314896
 30
0.0
 11
1405.268771363862
 21
5054.395935314897
 31
0.0
  0
INSERT
  5
85DD
330
85D7
100
AcDbEntity
  8
3
 62
     0
370
    -2
100
AcDbBlockReference
  2
_OPEN
 10
1405.268771363862
 20
3800.395935314897
 30
0.0
 41
80.0
 42
80.0
 43
80.0
 50
270.0
  0
INSERT
  5
85DE
330
85D7
100
AcDbEntity
  8
3
 62
     0
370
    -2
100
AcDbBlockReference
  2
_OPEN
 10
1405.268771363862
 20
5134.395935314897
 30
0.0
 41
80.0
 42
80.0
 43
80.0
 50
90.0
  0
MTEXT
  5
85DF
330
85D7
100
AcDbEntity
  8
3
 62
     0
100
AcDbMText
 10
1305.268771363861
 20
4467.395935314896
 30
0.0
 40
120.0
 41
0.0
 71
     5
 72
     1
  1
\A1;1334
 11
0.0000000000000001
 21
1.0
 31
0.0
 73
     1
 44
1.0
1001
ACAD
1000
MTEXTBEGIN
1070
    73
1070
     1
1070
    44
1040
1.0
1070
    74
1070
     0
1000
MTEXTEND
  0
POINT
  5
85E0
330
85D7
100
AcDbEntity
  8
DEFPOINTS
 62
     0
100
AcDbPoint
 10
1826.253499857346
 20
3800.395935314897
 30
0.0
  0
POINT
  5
85E1
330
85D7
100
AcDbEntity
  8
DEFPOINTS
 62
     0
100
AcDbPoint
 10
1904.690038106198
 20
5134.395935314897
 30
0.0
  0
POINT
  5
85E2
330
85D7
100
AcDbEntity
  8
DEFPOINTS
 62
     0
100
AcDbPoint
 10
1405.268771363862
 20
5134.395935314897
 30
0.0
  0
ENDBLK
  5
85D9
330
85D7
100
AcDbEntity
  8
0
100
AcDbBlockEnd
  0
BLOCK
  5
85E5
330
85E4
100
AcDbEntity
  8
0
100
AcDbBlockBegin
  2
*D39
 70
     1
 10
0.0
 20
0.0
 30
0.0
  3
*D39
  1

  0
LINE
  5
85E7
330
85E4
100
AcDbEntity
  8
3
 62
     0
370
    -2
100
AcDbLine
 10
1884.690038106198
 20
5134.395935314897
 30
0.0
 11
1611.679005416241
 21
5134.395935314897
 31
0.0
  0
LINE
  5
85E8
330
85E4
100
AcDbEntity
  8
3
 62
     0
370
    -2
100
AcDbLine
 10
1884.690038106198
 20
3854.395935314897
 30
0.0
 11
1611.679005416241
 21
3854.395935314897
 31
0.0
  0
LINE
  5
85E9
330
85E4
100
AcDbEntity
  8
3
 62
     0
370
    -2
100
AcDbLine
 10
1651.679005416241
 20
5054.395935314897
 30
0.0
 11
1651.679005416241
 21
3934.395935314897
 31
0.0
  0
INSERT
  5
85EA
330
85E4
100
AcDbEntity
  8
3
 62
     0
370
    -2
100
AcDbBlockReference
  2
_OPEN
 10
1651.679005416241
 20
5134.395935314897
 30
0.0
 41
80.0
 42
80.0
 43
80.0
 50
90.0
  0
INSERT
  5
85EB
330
85E4
100
AcDbEntity
  8
3
 62
     0
370
    -2
100
AcDbBlockReference
  2
_OPEN
 10
1651.679005416241
 20
3854.395935314897
 30
0.0
 41
80.0
 42
80.0
 43
80.0
 50
270.0
  0
MTEXT
  5
85EC
330
85E4
100
AcDbEntity
  8
3
 62
     0
100
AcDbMText
 10
1551.67900541624
 20
4494.395935314897
 30
0.0
 40
120.0
 41
0.0
 71
     5
 72
     1
  1
\A1;1280
 11
0.0000000000000001
 21
1.0
 31
0.0
 73
     1
 44
1.0
1001
ACAD
1000
MTEXTBEGIN
1070
    73
1070
     1
1070
    44
1040
1.0
1070
    74
1070
     0
1000
MTEXTEND
  0
POINT
  5
85ED
330
85E4
100
AcDbEntity
  8
DEFPOINTS
 62
     0
100
AcDbPoint
 10
1904.690038106198
 20
5134.395935314897
 30
0.0
  0
POINT
  5
85EE
330
85E4
100
AcDbEntity
  8
DEFPOINTS
 62
     0
100
AcDbPoint
 10
1904.690038106198
 20
3854.395935314897
 30
0.0
  0
POINT
  5
85EF
330
85E4
100
AcDbEntity
  8
DEFPOINTS
 62
     0
100
AcDbPoint
 10
1651.679005416241
 20
3854.395935314897
 30
0.0
  0
ENDBLK
  5
85E6
330
85E4
100
AcDbEntity
  8
0
100
AcDbBlockEnd
  0
BLOCK
  5
85F2
330
85F1
100
AcDbEntity
  8
0
100
AcDbBlockBegin
  2
*D40
 70
     1
 10
0.0
 20
0.0
 30
0.0
  3
*D40
  1

  0
LINE
  5
85F4
330
85F1
100
AcDbEntity
  8
3
 62
     0
370
    -2
100
AcDbLine
 10
1904.690038106198
 20
5207.395935314896
 30
0.0
 11
1904.690038106198
 21
5476.91888063242
 31
0.0
  0
LINE
  5
85F5
330
85F1
100
AcDbEntity
  8
3
 62
     0
370
    -2
100
AcDbLine
 10
2729.690038106197
 20
5175.681654420208
 30
0.0
 11
2729.690038106197
 21
5476.91888063242
 31
0.0
  0
LINE
  5
85F6
330
85F1
100
AcDbEntity
  8
3
 62
     0
370
    -2
100
AcDbLine
 10
1984.690038106198
 20
5436.91888063242
 30
0.0
 11
2649.690038106197
 21
5436.91888063242
 31
0.0
  0
INSERT
  5
85F7
330
85F1
100
AcDbEntity
  8
3
 62
     0
370
    -2
100
AcDbBlockReference
  2
_OPEN
 10
1904.690038106198
 20
5436.91888063242
 30
0.0
 41
80.0
 42
80.0
 43
80.0
 50
180.0
  0
INSERT
  5
85F8
330
85F1
100
AcDbEntity
  8
3
 62
     0
370
    -2
100
AcDbBlockReference
  2
_OPEN
 10
2729.690038106197
 20
5436.91888063242
 30
0.0
 41
80.0
 42
80.0
 43
80.0
  0
MTEXT
  5
85F9
330
85F1
100
AcDbEntity
  8
3
 62
     0
100
AcDbMText
 10
2317.190038106198
 20
5536.91888063242
 30
0.0
 40
120.0
 41
0.0
 71
     5
 72
     1
  1
\A1;825
 73
     1
 44
1.0
1001
ACAD
1000
MTEXTBEGIN
1070
    73
1070
     1
1070
    44
1040
1.0
1070
    74
1070
     0
1000
MTEXTEND
  0
POINT
  5
85FA
330
85F1
100
AcDbEntity
  8
DEFPOINTS
 62
     0
100
AcDbPoint
 10
1904.690038106198
 20
5187.395935314897
 30
0.0
  0
POINT
  5
85FB
330
85F1
100
AcDbEntity
  8
DEFPOINTS
 62
     0
100
AcDbPoint
 10
2729.690038106197
 20
5155.681654420209
 30
0.0
  0
POINT
  5
85FC
330
85F1
100
AcDbEntity
  8
DEFPOINTS
 62
     0
100
AcDbPoint
 10
2729.690038106197
 20
5436.91888063242
 30
0.0
  0
ENDBLK
  5
85F3
330
85F1
100
AcDbEntity
  8
0
100
AcDbBlockEnd
  0
BLOCK
  5
85FF
330
85FE
100
AcDbEntity
  8
0
100
AcDbBlockBegin
  2
*D41
 70
     1
 10
0.0
 20
0.0
 30
0.0
  3
*D41
  1

  0
LINE
  5
8601
330
85FE
100
AcDbEntity
  8
3
 62
     0
370
    -2
100
AcDbLine
 10
2729.690038106197
 20
5175.681654420208
 30
0.0
 11
2729.690038106197
 21
5476.91888063242
 31
0.0
  0
LINE
  5
8602
330
85FE
100
AcDbEntity
  8
3
 62
     0
370
    -2
100
AcDbLine
 10
3808.690038106199
 20
3911.395935314896
 30
0.0
 11
3808.690038106199
 21
5476.91888063242
 31
0.0
  0
LINE
  5
8603
330
85FE
100
AcDbEntity
  8
3
 62
     0
370
    -2
100
AcDbLine
 10
2809.690038106197
 20
5436.91888063242
 30
0.0
 11
3728.690038106199
 21
5436.91888063242
 31
0.0
  0
INSERT
  5
8604
330
85FE
100
AcDbEntity
  8
3
 62
     0
370
    -2
100
AcDbBlockReference
  2
_OPEN
 10
2729.690038106197
 20
5436.91888063242
 30
0.0
 41
80.0
 42
80.0
 43
80.0
 50
180.0
  0
INSERT
  5
8605
330
85FE
100
AcDbEntity
  8
3
 62
     0
370
    -2
100
AcDbBlockReference
  2
_OPEN
 10
3808.690038106199
 20
5436.91888063242
 30
0.0
 41
80.0
 42
80.0
 43
80.0
  0
MTEXT
  5
8606
330
85FE
100
AcDbEntity
  8
3
 62
     0
100
AcDbMText
 10
3269.190038106199
 20
5536.91888063242
 30
0.0
 40
120.0
 41
0.0
 71
     5
 72
     1
  1
\A1;1079
 73
     1
 44
1.0
1001
ACAD
1000
MTEXTBEGIN
1070
    73
1070
     1
1070
    44
1040
1.0
1070
    74
1070
     0
1000
MTEXTEND
  0
POINT
  5
8607
330
85FE
100
AcDbEntity
  8
DEFPOINTS
 62
     0
100
AcDbPoint
 10
2729.690038106197
 20
5155.681654420209
 30
0.0
  0
POINT
  5
8608
330
85FE
100
AcDbEntity
  8
DEFPOINTS
 62
     0
100
AcDbPoint
 10
3808.690038106199
 20
3891.395935314896
 30
0.0
  0
POINT
  5
8609
330
85FE
100
AcDbEntity
  8
DEFPOINTS
 62
     0
100
AcDbPoint
 10
3808.690038106199
 20
5436.91888063242
 30
0.0
  0
ENDBLK
  5
8600
330
85FE
100
AcDbEntity
  8
0
100
AcDbBlockEnd
  0
BLOCK
  5
860C
330
860B
100
AcDbEntity
  8
0
100
AcDbBlockBegin
  2
*D42
 70
     1
 10
0.0
 20
0.0
 30
0.0
  3
*D42
  1

  0
LINE
  5
860E
330
860B
100
AcDbEntity
  8
3
 62
     0
370
    -2
100
AcDbLine
 10
1904.690038106198
 20
5207.395935314896
 30
0.0
 11
1904.690038106198
 21
5701.37209794053
 31
0.0
  0
LINE
  5
860F
330
860B
100
AcDbEntity
  8
3
 62
     0
370
    -2
100
AcDbLine
 10
4429.690038106198
 20
3020.395935314896
 30
0.0
 11
4429.690038106198
 21
5701.37209794053
 31
0.0
  0
LINE
  5
8610
330
860B
100
AcDbEntity
  8
3
 62
     0
370
    -2
100
AcDbLine
 10
1984.690038106198
 20
5661.37209794053
 30
0.0
 11
4349.690038106198
 21
5661.37209794053
 31
0.0
  0
INSERT
  5
8611
330
860B
100
AcDbEntity
  8
3
 62
     0
370
    -2
100
AcDbBlockReference
  2
_OPEN
 10
1904.690038106198
 20
5661.37209794053
 30
0.0
 41
80.0
 42
80.0
 43
80.0
 50
180.0
  0
INSERT
  5
8612
330
860B
100
AcDbEntity
  8
3
 62
     0
370
    -2
100
AcDbBlockReference
  2
_OPEN
 10
4429.690038106198
 20
5661.37209794053
 30
0.0
 41
80.0
 42
80.0
 43
80.0
  0
MTEXT
  5
8613
330
860B
100
AcDbEntity
  8
3
 62
     0
100
AcDbMText
 10
3167.190038106198
 20
5761.37209794053
 30
0.0
 40
120.0
 41
0.0
 71
     5
 72
     1
  1
\A1;2525
 73
     1
 44
1.0
1001
ACAD
1000
MTEXTBEGIN
1070
    73
1070
     1
1070
    44
1040
1.0
1070
    74
1070
     0
1000
MTEXTEND
  0
POINT
  5
8614
330
860B
100
AcDbEntity
  8
DEFPOINTS
 62
     0
100
AcDbPoint
 10
1904.690038106198
 20
5187.395935314897
 30
0.0
  0
POINT
  5
8615
330
860B
100
AcDbEntity
  8
DEFPOINTS
 62
     0
100
AcDbPoint
 10
4429.690038106198
 20
3000.395935314896
 30
0.0
  0
POINT
  5
8616
330
860B
100
AcDbEntity
  8
DEFPOINTS
 62
     0
100
AcDbPoint
 10
4429.690038106198
 20
5661.37209794053
 30
0.0
  0
ENDBLK
  5
860D
330
860B
100
AcDbEntity
  8
0
100
AcDbBlockEnd
  0
ENDSEC
  0
SECTION
  2
ENTITIES
  0
INSERT
  5
7C26
330
8414
100
AcDbEntity
  8
1
100
AcDbBlockReference
  2
YA_N
 10
6.0
 20
5.0
 30
0.0
  0
LINE
  5
7C27
330
8414
100
AcDbEntity
  8
2
100
AcDbLine
 10
2729.690038106197
 20
5155.681654420209
 30
0.0
 11
2729.690038106197
 21
2875.395935314897
 31
0.0
  0
ARC
  5
7C28
330
8414
100
AcDbEntity
  8
1
100
AcDbCircle
 10
2638.690038106199
 20
3891.395935314896
 30
0.0
 40
1170.0
100
AcDbArc
 50
355.539156302126
 51
85.53915630212602
  0
ARC
  5
7C29
330
8414
100
AcDbEntity
  8
1
100
AcDbCircle
 10
2820.690038106199
 20
3891.395935314896
 30
0.0
 40
988.0
100
AcDbArc
 50
295.6014140473746
 51
354.7152670454654
  0
ARC
  5
7C2A
330
8414
100
AcDbEntity
  8
1
100
AcDbCircle
 10
2806.690038106197
 20
3723.395935314897
 30
0.0
 40
820.0
100
AcDbArc
 50
177.2424852442078
 51
241.8490068704817
  0
LINE
  5
7C2B
330
8414
100
AcDbEntity
  8
1
100
AcDbLine
 10
2729.690038106197
 20
5057.851678153003
 30
0.0
 11
1904.690038106198
 21
5134.395935314897
 31
0.0
  0
LINE
  5
7C2C
330
8414
100
AcDbEntity
  8
1
100
AcDbLine
 10
1979.690038106198
 20
2875.395935314896
 30
0.0
 11
4429.690038106198
 21
2875.395935314896
 31
0.0
1001
ACAD
1000
ASC_BOUNDS
1002
{
1070
    19
1002
}
  0
LINE
  5
7C2D
330
8414
100
AcDbEntity
  8
1
100
AcDbLine
 10
1979.690038106198
 20
3000.395935314896
 30
0.0
 11
4429.690038106198
 21
3000.395935314896
 31
0.0
  0
LINE
  5
7C2E
330
8414
100
AcDbEntity
  8
1
100
AcDbLine
 10
1979.690038106198
 20
3000.395935314896
 30
0.0
 11
1979.690038106198
 21
2875.395935314896
 31
0.0
  0
LINE
  5
7C2F
330
8414
100
AcDbEntity
  8
1
100
AcDbLine
 10
4429.690038106198
 20
3000.395935314896
 30
0.0
 11
4429.690038106198
 21
2875.395935314896
 31
0.0
  0
LINE
  5
7C30
330
8414
100
AcDbEntity
  8
2
100
AcDbLine
 10
4149.690038106199
 20
3551.250451920608
 30
0.0
 11
4149.690038106199
 21
2875.395935314897
 31
0.0
  0
LINE
  5
7C31
330
8414
100
AcDbEntity
  8
2
100
AcDbLine
 10
3869.375821348047
 20
3260.395935314897
 30
0.0
 11
4556.854516400913
 21
3260.395935314897
 31
0.0
  0
LINE
  5
7C32
330
8414
100
AcDbEntity
  8
1
100
AcDbLine
 10
1904.690038106198
 20
3854.395935314897
 30
0.0
 11
1988.654951217595
 21
3854.395935314897
 31
0.0
  0
LINE
  5
7C33
330
8414
100
AcDbEntity
  8
1
100
AcDbLine
 10
1954.690038106199
 20
5129.756889426296
 30
0.0
 11
1954.690038106199
 21
3854.395935314897
 31
0.0
  0
LINE
  5
7C34
330
8414
100
AcDbEntity
  8
1
100
AcDbLine
 10
1904.690038106198
 20
5187.395935314897
 30
0.0
 11
1904.690038106198
 21
3801.395935314896
 31
0.0
  0
LINE
  5
7C35
330
8414
100
AcDbEntity
  8
1
100
AcDbLine
 10
5108.972951952932
 20
2875.395935314896
 30
0.0
 11
7228.972951952934
 21
2875.395935314896
 31
0.0
1001
ACAD
1000
ASC_BOUNDS
1002
{
1070
    19
1005
0
1005
0
1002
}
  0
LINE
  5
7C36
330
8414
100
AcDbEntity
  8
1
100
AcDbLine
 10
5108.972951952932
 20
3000.395935314896
 30
0.0
 11
7228.972951952932
 21
3000.395935314896
 31
0.0
  0
LINE
  5
7C37
330
8414
100
AcDbEntity
  8
1
100
AcDbLine
 10
7160.972951952931
 20
5134.395935314897
 30
0.0
 11
7160.972951952935
 21
3854.395935314897
 31
0.0
  0
LINE
  5
7C38
330
8414
100
AcDbEntity
  8
1
100
AcDbLine
 10
5460.972951952932
 20
5134.395935314897
 30
0.0
 11
5460.972951952932
 21
3854.395935314897
 31
0.0
  0
LINE
  5
7C3C
330
8414
100
AcDbEntity
  8
2
100
AcDbLine
 10
1826.253499857346
 20
3800.395935314897
 30
0.0
 11
3889.845276024247
 21
3800.395935314897
 31
0.0
  0
LINE
  5
7C3D
330
8414
100
AcDbEntity
  8
2
100
AcDbLine
 10
5095.672951952932
 20
3800.395935314897
 30
0.0
 11
7344.483438192168
 21
3800.395935314897
 31
0.0
  0
LINE
  5
7C3E
330
8414
100
AcDbEntity
  8
2
100
AcDbLine
 10
5084.470225356556
 20
3260.395935314897
 30
0.0
 11
6063.214786424338
 21
3260.395935314897
 31
0.0
  0
LINE
  5
7C3F
330
8414
100
AcDbEntity
  8
1
100
AcDbLine
 10
5115.972951952933
 20
3366.395935314896
 30
0.0
 11
5193.872951952933
 21
3366.395935314896
 31
0.0
  0
LINE
  5
7C40
330
8414
100
AcDbEntity
  8
1
100
AcDbLine
 10
5115.972951952933
 20
3154.395935314897
 30
0.0
 11
5193.872951952933
 21
3154.395935314897
 31
0.0
  0
LINE
  5
7C41
330
8414
100
AcDbEntity
  8
1
100
AcDbLine
 10
5213.972951952933
 20
3870.395935314896
 30
0.0
 11
5213.972951952933
 21
3730.395935314897
 31
0.0
  0
LINE
  5
7C42
330
8414
100
AcDbEntity
  8
1
100
AcDbLine
 10
5193.872951952933
 20
4054.395935314897
 30
0.0
 11
5193.872951952933
 21
3870.395935314896
 31
0.0
  0
LINE
  5
7C43
330
8414
100
AcDbEntity
  8
1
100
AcDbLine
 10
5193.872951952933
 20
3870.395935314896
 30
0.0
 11
5213.972951952933
 21
3870.395935314896
 31
0.0
  0
LINE
  5
7C44
330
8414
100
AcDbEntity
  8
1
100
AcDbLine
 10
5193.872951952933
 20
3730.395935314897
 30
0.0
 11
5213.972951952933
 21
3730.395935314897
 31
0.0
  0
LINE
  5
7C45
330
8414
100
AcDbEntity
  8
1
100
AcDbLine
 10
5193.872951952933
 20
3730.395935314897
 30
0.0
 11
5193.872951952933
 21
3320.395935314897
 31
0.0
  0
LINE
  5
7C46
330
8414
100
AcDbEntity
  8
1
100
AcDbLine
 10
5115.972951952933
 20
4054.395935314897
 30
0.0
 11
5115.972951952933
 21
3154.395935314897
 31
0.0
  0
LINE
  5
7C47
330
8414
100
AcDbEntity
  8
1
100
AcDbLine
 10
5208.972951952933
 20
3320.395935314897
 30
0.0
 11
5208.972951952933
 21
3200.395935314896
 31
0.0
  0
LINE
  5
7C48
330
8414
100
AcDbEntity
  8
1
100
AcDbLine
 10
5193.872951952933
 20
3320.395935314897
 30
0.0
 11
5208.972951952933
 21
3320.395935314897
 31
0.0
  0
LINE
  5
7C49
330
8414
100
AcDbEntity
  8
1
100
AcDbLine
 10
5193.872951952933
 20
3200.395935314896
 30
0.0
 11
5208.972951952933
 21
3200.395935314896
 31
0.0
  0
LINE
  5
7C4A
330
8414
100
AcDbEntity
  8
1
100
AcDbLine
 10
5193.872951952933
 20
3200.395935314896
 30
0.0
 11
5193.872951952933
 21
3154.395935314897
 31
0.0
  0
LINE
  5
7C4B
330
8414
100
AcDbEntity
  8
1
100
AcDbLine
 10
5030.972951952932
 20
3040.395935314896
 30
0.0
 11
5275.972951952933
 21
3040.395935314896
 31
0.0
  0
LINE
  5
7C4C
330
8414
100
AcDbEntity
  8
1
100
AcDbLine
 10
5030.972951952932
 20
4180.395935314897
 30
0.0
 11
5030.972951952932
 21
3040.395935314896
 31
0.0
  0
LINE
  5
7C4D
330
8414
100
AcDbEntity
  8
1
100
AcDbLine
 10
5275.972951952932
 20
4180.395935314897
 30
0.0
 11
5275.972951952933
 21
4160.395935314896
 31
0.0
  0
LINE
  5
7C4E
330
8414
100
AcDbEntity
  8
2
100
AcDbLine
 10
2729.690038106197
 20
8744.506610747107
 30
0.0
 11
2729.690038106197
 21
6409.328933478803
 31
0.0
  0
LINE
  5
7C4F
330
8414
100
AcDbEntity
  8
2
100
AcDbLine
 10
4149.690038106199
 20
7399.639487144667
 30
0.0
 11
4149.690038106199
 21
6396.209954910519
 31
0.0
  0
LINE
  5
7C50
330
8414
100
AcDbEntity
  8
2
100
AcDbLine
 10
6310.972951952932
 20
5370.752349861481
 30
0.0
 11
6310.972951952931
 21
2875.395935314896
 31
0.0
  0
POINT
  5
7C51
330
8414
100
AcDbEntity
  8
1
100
AcDbPoint
 10
2729.690038106197
 20
5155.681654420209
 30
0.0
  0
POINT
  5
7C52
330
8414
100
AcDbEntity
  8
1
100
AcDbPoint
 10
3804.49032271685
 20
3800.395935314897
 30
0.0
  0
INSERT
  5
7C53
330
8414
100
AcDbEntity
  8
1
100
AcDbBlockReference
  2
YA_N
 10
-1757.227407310314
 20
-1218.78641745778
 30
0.0
 41
30.0
 42
30.0
 43
30.0
  0
ARC
  5
7C58
330
8414
100
AcDbEntity
  8
1
100
AcDbCircle
 10
4149.690038106199
 20
3260.395935314897
 30
0.0
 40
203.5
100
AcDbArc
 50
285.60376
 51
254.396301
  0
LINE
  5
7C59
330
8414
100
AcDbEntity
  8
1
100
AcDbLine
 10
4204.428075106199
 20
3064.395935314896
 30
0.0
 11
4094.952001106198
 21
3064.395935314896
 31
0.0
  0
ARC
  5
7C5A
330
8414
100
AcDbEntity
  8
1
100
AcDbCircle
 10
3963.690038106198
 20
3077.395935314897
 30
0.0
 40
3.0
100
AcDbArc
 50
90.0
 51
180.0
  0
ARC
  5
7C5B
330
8414
100
AcDbEntity
  8
1
100
AcDbCircle
 10
3965.690038106199
 20
3134.722596314897
 30
0.0
 40
5.000066999999999
100
AcDbArc
 50
124.943665
 51
180.0
  0
LINE
  5
7C5C
330
8414
100
AcDbEntity
  8
1
100
AcDbLine
 10
3960.690038106199
 20
3134.722596314897
 30
0.0
 11
3960.690038106199
 21
3060.395935314896
 31
0.0
  0
LINE
  5
7C60
330
8414
100
AcDbEntity
  8
1
100
AcDbLine
 10
4045.587468106197
 20
3085.539124314897
 30
0.0
 11
4040.190038106199
 21
3065.395935314896
 31
0.0
  0
LINE
  5
7C61
330
8414
100
AcDbEntity
  8
1
100
AcDbLine
 10
4040.190038106199
 20
3077.395935314897
 30
0.0
 11
4040.190038106199
 21
3060.395935314896
 31
0.0
  0
LINE
  5
7C62
330
8414
100
AcDbEntity
  8
1
100
AcDbLine
 10
4037.190038106198
 20
3080.395935314896
 30
0.0
 11
3963.690038106198
 21
3080.395935314896
 31
0.0
  0
ARC
  5
7C63
330
8414
100
AcDbEntity
  8
1
100
AcDbCircle
 10
4037.190038106198
 20
3077.395935314897
 30
0.0
 40
3.0
100
AcDbArc
 50
0.0
 51
90.0
  0
LINE
  5
7C64
330
8414
100
AcDbEntity
  8
1
100
AcDbLine
 10
3962.826268106199
 20
3138.821228314897
 30
0.0
 11
3978.764134106199
 21
3149.957703314897
 31
0.0
  0
LINE
  5
7C65
330
8414
100
AcDbEntity
  8
1
100
AcDbLine
 10
4338.690038106197
 20
3134.722596314897
 30
0.0
 11
4338.690038106197
 21
3060.395935314896
 31
0.0
  0
LINE
  5
7C69
330
8414
100
AcDbEntity
  8
1
100
AcDbLine
 10
4253.792821106198
 20
3085.539246314897
 30
0.0
 11
4259.190038106199
 21
3065.395935314896
 31
0.0
  0
LINE
  5
7C6A
330
8414
100
AcDbEntity
  8
1
100
AcDbLine
 10
4259.190038106199
 20
3077.395935314897
 30
0.0
 11
4259.190038106199
 21
3060.395935314896
 31
0.0
  0
LINE
  5
7C6B
330
8414
100
AcDbEntity
  8
1
100
AcDbLine
 10
4262.190038106199
 20
3080.395935314896
 30
0.0
 11
4335.690038106199
 21
3080.395935314896
 31
0.0
  0
ARC
  5
7C6C
330
8414
100
AcDbEntity
  8
1
100
AcDbCircle
 10
4262.190038106199
 20
3077.395935314897
 30
0.0
 40
3.0
100
AcDbArc
 50
90.0
 51
180.0
  0
ARC
  5
7C6D
330
8414
100
AcDbEntity
  8
1
100
AcDbCircle
 10
4335.690038106199
 20
3077.395935314897
 30
0.0
 40
3.0
100
AcDbArc
 50
0.0
 51
90.0
  0
LINE
  5
7C6E
330
8414
100
AcDbEntity
  8
1
100
AcDbLine
 10
4336.553929106197
 20
3138.821228314897
 30
0.0
 11
4320.616063106198
 21
3149.957703314897
 31
0.0
  0
ARC
  5
7C6F
330
8414
100
AcDbEntity
  8
1
100
AcDbCircle
 10
4333.690038106198
 20
3134.722596314897
 30
0.0
 40
5.0
100
AcDbArc
 50
0.0
 51
55.05633899999998
  0
LINE
  5
7C70
330
8414
100
AcDbEntity
  8
1
100
AcDbLine
 10
3906.267013063589
 20
3060.395935314896
 30
0.0
 11
4079.690038106199
 21
3060.395935314896
 31
0.0
  0
LINE
  5
7C71
330
8414
100
AcDbEntity
  8
1
100
AcDbLine
 10
3889.690038106198
 20
3000.395935314896
 30
0.0
 11
3906.267013063589
 21
3060.395935314896
 31
0.0
  0
LINE
  5
7C72
330
8414
100
AcDbEntity
  8
1
100
AcDbLine
 10
4409.690038106197
 20
3000.395935314896
 30
0.0
 11
4393.50908156108
 21
3060.395935314896
 31
0.0
  0
LINE
  5
7C73
330
8414
100
AcDbEntity
  8
1
100
AcDbLine
 10
4079.690038106199
 20
3050.395935314897
 30
0.0
 11
4219.690038106199
 21
3050.395935314897
 31
0.0
  0
LINE
  5
7C75
330
8414
100
AcDbEntity
  8
1
100
AcDbLine
 10
4219.690038106199
 20
3060.395935314896
 30
0.0
 11
4219.690038106199
 21
3050.395935314897
 31
0.0
  0
LINE
  5
7C76
330
8414
100
AcDbEntity
  8
1
100
AcDbLine
 10
4079.690038106199
 20
3060.395935314896
 30
0.0
 11
4079.690038106199
 21
3050.395935314897
 31
0.0
  0
LINE
  5
7C79
330
8414
100
AcDbEntity
  8
1
100
AcDbLine
 10
4219.690038106199
 20
3060.395935314896
 30
0.0
 11
4393.50908156108
 21
3060.395935314896
 31
0.0
  0
INSERT
  5
7C7A
330
8414
100
AcDbEntity
  8
1
100
AcDbBlockReference
  2
YA_N
 10
-755.2436758818473
 20
-538.554984833856
 30
0.0
 41
30.0
 42
30.0
 43
30.0
  0
CIRCLE
  5
7C84
330
8414
100
AcDbEntity
  8
1
100
AcDbCircle
 10
4149.690038106199
 20
3260.395935314897
 30
0.0
 40
107.0
  0
POINT
  5
7C86
330
8414
100
AcDbEntity
  8
1
100
AcDbPoint
 10
1979.690038106198
 20
2875.395935314896
 30
0.0
  0
LINE
  5
7C8A
330
8414
100
AcDbEntity
  8
1
100
AcDbLine
 10
5460.972951952932
 20
5134.395935314897
 30
0.0
 11
7160.972951952932
 21
5134.395935314897
 31
0.0
  0
LINE
  5
7C8B
330
8414
100
AcDbEntity
  8
1
100
AcDbLine
 10
7160.972951952931
 20
3854.395935314897
 30
0.0
 11
7160.972951952932
 21
3000.395935314896
 31
0.0
  0
LINE
  5
7C8C
330
8414
100
AcDbEntity
  8
1
100
AcDbLine
 10
5460.972951952932
 20
3854.395935314897
 30
0.0
 11
5460.972951952932
 21
3470.3959353149
 31
0.0
  0
ARC
  5
7C8D
330
8414
100
AcDbEntity
  8
1
100
AcDbCircle
 10
2729.690038106197
 20
3800.395935314897
 30
0.0
 40
625.0
100
AcDbArc
 50
0.0
 51
180.0
  0
ARC
  5
7C8E
330
8414
100
AcDbEntity
  8
1
100
AcDbCircle
 10
2729.690038106197
 20
3800.395935314897
 30
0.0
 40
675.0
100
AcDbArc
 50
0.0
 51
180.0
  0
LINE
  5
7C8F
330
8414
100
AcDbEntity
  8
1
100
AcDbLine
 10
3064.690038106198
 20
3002.395935314897
 30
0.0
 11
3064.690038106198
 21
3000.395935314896
 31
0.0
  0
ARC
  5
7C90
330
8414
100
AcDbEntity
  8
1
100
AcDbCircle
 10
2729.690038106197
 20
3800.395935314897
 30
0.0
 40
625.0
100
AcDbArc
 50
270.0
 51
0.0
  0
ARC
  5
7C91
330
8414
100
AcDbEntity
  8
1
100
AcDbCircle
 10
2729.690038106197
 20
3800.395935314897
 30
0.0
 40
675.0
100
AcDbArc
 50
270.0
 51
0.0
  0
LINE
  5
7C92
330
8414
100
AcDbEntity
  8
1
100
AcDbLine
 10
1979.690038106198
 20
8644.822268021341
 30
0.0
 11
3479.690038106197
 21
8644.822268021341
 31
0.0
  0
LINE
  5
7C93
330
8414
100
AcDbEntity
  8
1
100
AcDbLine
 10
1979.690038106198
 20
6524.822268021342
 30
0.0
 11
4429.690038106198
 21
6524.822268021342
 31
0.0
  0
LINE
  5
7C94
330
8414
100
AcDbEntity
  8
1
100
AcDbLine
 10
1979.690038106198
 20
8644.822268021341
 30
0.0
 11
1979.690038106198
 21
8576.822268021343
 31
0.0
  0
LINE
  5
7C95
330
8414
100
AcDbEntity
  8
1
100
AcDbLine
 10
4429.690038106198
 20
7524.822268021342
 30
0.0
 11
4429.690038106198
 21
6524.822268021342
 31
0.0
  0
LINE
  5
7C96
330
8414
100
AcDbEntity
  8
1
100
AcDbLine
 10
3479.690038106197
 20
8644.822268021341
 30
0.0
 11
3479.690038106197
 21
8576.822268021343
 31
0.0
  0
LINE
  5
7C97
330
8414
100
AcDbEntity
  8
1
100
AcDbLine
 10
3808.690038106199
 20
7524.822268021342
 30
0.0
 11
4429.690038106198
 21
7524.822268021342
 31
0.0
  0
LINE
  5
7C99
330
8414
100
AcDbEntity
  8
1
100
AcDbLine
 10
5303.472951952932
 20
3724.395935314896
 30
0.0
 11
5303.472951952932
 21
3594.395935314897
 31
0.0
  0
LINE
  5
7C9A
330
8414
100
AcDbEntity
  8
1
100
AcDbLine
 10
5443.472951952932
 20
3734.395935314896
 30
0.0
 11
5443.472951952932
 21
3584.395935314896
 31
0.0
  0
LINE
  5
7C9B
330
8414
100
AcDbEntity
  8
1
100
AcDbLine
 10
5313.472951952933
 20
3734.395935314896
 30
0.0
 11
5383.672951952935
 21
3734.395935314896
 31
0.0
  0
LINE
  5
7C9C
330
8414
100
AcDbEntity
  8
1
100
AcDbLine
 10
5313.472951952933
 20
3584.395935314896
 30
0.0
 11
5383.672951952935
 21
3584.395935314896
 31
0.0
  0
ARC
  5
7C9D
330
8414
100
AcDbEntity
  8
1
100
AcDbCircle
 10
5313.472951952933
 20
3724.395935314896
 30
0.0
 40
10.0
100
AcDbArc
 50
90.0
 51
180.0
  0
ARC
  5
7C9E
330
8414
100
AcDbEntity
  8
1
100
AcDbCircle
 10
5313.472951952933
 20
3594.395935314897
 30
0.0
 40
10.0
100
AcDbArc
 50
180.0
 51
270.0
  0
LINE
  5
7C9F
330
8414
100
AcDbEntity
  8
1
100
AcDbLine
 10
5383.672951952933
 20
3584.395935314896
 30
0.0
 11
5443.472951952932
 21
3584.395935314896
 31
0.0
  0
LINE
  5
7CA0
330
8414
100
AcDbEntity
  8
1
100
AcDbLine
 10
5383.672951952933
 20
3734.395935314896
 30
0.0
 11
5443.472951952932
 21
3734.395935314896
 31
0.0
  0
LINE
  5
7CA1
330
8414
100
AcDbEntity
  8
1
100
AcDbLine
 10
7330.972951952931
 20
3724.395935314896
 30
0.0
 11
7330.972951952931
 21
3594.395935314897
 31
0.0
  0
LINE
  5
7CA2
330
8414
100
AcDbEntity
  8
1
100
AcDbLine
 10
7178.472951952932
 20
3734.395935314896
 30
0.0
 11
7178.472951952932
 21
3584.395935314896
 31
0.0
  0
LINE
  5
7CA3
330
8414
100
AcDbEntity
  8
1
100
AcDbLine
 10
7320.972951952933
 20
3584.395935314896
 30
0.0
 11
7239.272951952931
 21
3584.395935314896
 31
0.0
  0
ARC
  5
7CA4
330
8414
100
AcDbEntity
  8
1
100
AcDbCircle
 10
7320.972951952933
 20
3594.395935314897
 30
0.0
 40
10.0
100
AcDbArc
 50
270.0
 51
0.0
  0
LINE
  5
7CA5
330
8414
100
AcDbEntity
  8
1
100
AcDbLine
 10
7239.272951952931
 20
3584.395935314896
 30
0.0
 11
7178.472951952932
 21
3584.395935314896
 31
0.0
  0
LINE
  5
7CA6
330
8414
100
AcDbEntity
  8
1
100
AcDbLine
 10
7320.972951952933
 20
3734.395935314896
 30
0.0
 11
7239.272951952931
 21
3734.395935314896
 31
0.0
  0
ARC
  5
7CA7
330
8414
100
AcDbEntity
  8
1
100
AcDbCircle
 10
7320.972951952933
 20
3724.395935314896
 30
0.0
 40
10.0
100
AcDbArc
 50
0.0
 51
90.0
  0
LINE
  5
7CA8
330
8414
100
AcDbEntity
  8
1
100
AcDbLine
 10
7239.272951952931
 20
3734.395935314896
 30
0.0
 11
7178.472951952932
 21
3734.395935314896
 31
0.0
  0
ARC
  5
7CAC
330
8414
100
AcDbEntity
  8
1
100
AcDbCircle
 10
2729.690038106197
 20
3800.395935314897
 30
0.0
 40
675.0
100
AcDbArc
 50
180.0
 51
270.0
  0
ARC
  5
7CAD
330
8414
100
AcDbEntity
  8
1
100
AcDbCircle
 10
2729.690038106197
 20
3800.395935314897
 30
0.0
 40
625.0
100
AcDbArc
 50
180.0
 51
270.0
  0
CIRCLE
  5
7CB1
330
8414
100
AcDbEntity
  8
1
100
AcDbCircle
 10
2729.690038106197
 20
3800.395935314897
 30
0.0
 40
254.0
  0
ARC
  5
7CB2
330
8414
100
AcDbEntity
  8
1
100
AcDbCircle
 10
2729.690038106197
 20
3800.395935314897
 30
0.0
 40
380.0
100
AcDbArc
 50
63.13362624742479
 51
255.2245880459536
  0
ARC
  5
7CB3
330
8414
100
AcDbEntity
  8
1
100
AcDbCircle
 10
4149.690038106199
 20
3260.395935314897
 30
0.0
 40
220.0
100
AcDbArc
 50
255.2245880459536
 51
63.13362624742479
  0
LINE
  5
7CB4
330
8414
100
AcDbEntity
  8
1
100
AcDbLine
 10
2901.416311396942
 20
4139.379839153519
 30
0.0
 11
4249.110512116629
 21
3456.649774379362
 31
0.0
  0
LINE
  5
7CB5
330
8414
100
AcDbEntity
  8
1
100
AcDbLine
 10
2842.52239638683
 20
4027.958803386186
 30
0.0
 11
4197.221779586622
 21
3356.259033281936
 31
0.0
  0
LINE
  5
7CB6
330
8414
100
AcDbEntity
  8
1
100
AcDbLine
 10
2662.802185891425
 20
3555.361212824197
 30
0.0
 11
4121.512872015722
 21
3157.172646706609
 31
0.0
  0
LINE
  5
7CB7
330
8414
100
AcDbEntity
  8
1
100
AcDbLine
 10
2632.778322874381
 20
3432.961424890486
 30
0.0
 11
4093.583255603568
 21
3047.670692437606
 31
0.0
  0
POINT
  5
7CC8
330
8414
100
AcDbEntity
  8
1
100
AcDbPoint
 10
1979.690038106198
 20
2875.395935314896
 30
0.0
  0
ARC
  5
7CCC
330
8414
100
AcDbEntity
  8
1
100
AcDbCircle
 10
2729.690038106197
 20
3800.395935314897
 30
0.0
 40
743.0
100
AcDbArc
 50
175.8321636778381
 51
182.8969080410259
  0
LINE
  5
7CCD
330
8414
100
AcDbEntity
  8
1
100
AcDbLine
 10
5115.972951952933
 20
4054.395935314897
 30
0.0
 11
5193.872951952933
 21
4054.395935314897
 31
0.0
  0
LINE
  5
7CCE
330
8414
100
AcDbEntity
  8
1
100
AcDbLine
 10
5115.972951952933
 20
3546.395935314897
 30
0.0
 11
5193.872951952933
 21
3546.395935314897
 31
0.0
  0
LINE
  5
7CCF
330
8414
100
AcDbEntity
  8
1
100
AcDbLine
 10
5030.972951952932
 20
4180.395935314897
 30
0.0
 11
5275.972951952931
 21
4180.395935314897
 31
0.0
  0
LINE
  5
7CD0
330
8414
100
AcDbEntity
  8
1
100
AcDbLine
 10
5275.972951952933
 20
3060.395935314896
 30
0.0
 11
5275.972951952933
 21
3040.395935314896
 31
0.0
  0
INSERT
  5
7CD1
330
8414
100
AcDbEntity
  8
1
100
AcDbBlockReference
  2
YA_N
 10
4767.943419715615
 20
-1494.695868425496
 30
0.0
  0
LINE
  5
7CD2
330
8414
100
AcDbEntity
  8
1
100
AcDbLine
 10
7228.972951952934
 20
3000.395935314896
 30
0.0
 11
7228.972951952934
 21
2875.395935314896
 31
0.0
  0
LINE
  5
7CD4
330
8414
100
AcDbEntity
  8
1
100
AcDbLine
 10
5108.972951952932
 20
3000.395935314896
 30
0.0
 11
5108.972951952932
 21
2875.395935314896
 31
0.0
  0
LINE
  5
7CD8
330
8414
100
AcDbEntity
  8
1
100
AcDbLine
 10
5213.972951952933
 20
3837.895935314897
 30
0.0
 11
5460.972951952932
 21
3837.895935314897
 31
0.0
  0
LINE
  5
7CD9
330
8414
100
AcDbEntity
  8
1
100
AcDbLine
 10
5213.972951952933
 20
3762.895935314896
 30
0.0
 11
5460.972951952931
 21
3762.895935314896
 31
0.0
  0
LINE
  5
7CDC
330
8414
100
AcDbEntity
  8
1
100
AcDbLine
 10
5304.922951952932
 20
3060.395935314896
 30
0.0
 11
5304.922951952931
 21
3260.395935314897
 31
0.0
  0
LINE
  5
7CDD
330
8414
100
AcDbEntity
  8
1
100
AcDbLine
 10
5304.922951952935
 20
3060.395935314897
 30
0.0
 11
5954.422951952931
 21
3060.3959353149
 31
0.0
  0
LINE
  5
7CDE
330
8414
100
AcDbEntity
  8
1
100
AcDbLine
 10
5954.422951952935
 20
3470.395935314901
 30
0.0
 11
5304.92295195293
 21
3470.395935314897
 31
0.0
  0
LINE
  5
7CDF
330
8414
100
AcDbEntity
  8
1
100
AcDbLine
 10
5294.922951952933
 20
3230.395935314897
 30
0.0
 11
5208.972951952933
 21
3230.395935314897
 31
0.0
  0
LINE
  5
7CE0
330
8414
100
AcDbEntity
  8
1
100
AcDbLine
 10
5294.922951952933
 20
3290.395935314897
 30
0.0
 11
5208.972951952933
 21
3290.395935314897
 31
0.0
  0
LINE
  5
7CE1
330
8414
100
AcDbEntity
  8
1
100
AcDbLine
 10
5304.922951952931
 20
3470.395935314897
 30
0.0
 11
5304.922951952931
 21
3260.395935314897
 31
0.0
  0
LINE
  5
7CE2
330
8414
100
AcDbEntity
  8
1
100
AcDbLine
 10
5294.922951952933
 20
3227.895935314897
 30
0.0
 11
5294.922951952933
 21
3292.895935314897
 31
0.0
  0
LINE
  5
7CE3
330
8414
100
AcDbEntity
  8
1
100
AcDbLine
 10
5294.922951952933
 20
3227.895935314897
 30
0.0
 11
5304.922951952931
 21
3227.895935314897
 31
0.0
  0
LINE
  5
7CE4
330
8414
100
AcDbEntity
  8
1
100
AcDbLine
 10
5294.922951952933
 20
3292.895935314897
 30
0.0
 11
5304.922951952931
 21
3292.895935314897
 31
0.0
  0
LINE
  5
7CF3
330
8414
100
AcDbEntity
  8
2
100
AcDbLine
 10
1753.862917384478
 20
7726.822268021344
 30
0.0
 11
3738.690038106198
 21
7726.822268021343
 31
0.0
  0
LINE
  5
7CF4
330
8414
100
AcDbEntity
  8
1
100
AcDbLine
 10
2349.690038106198
 20
6446.822268021344
 30
0.0
 11
4369.690038106198
 21
6446.822268021344
 31
0.0
  0
LINE
  5
7CF5
330
8414
100
AcDbEntity
  8
1
100
AcDbLine
 10
2475.690038106199
 20
6531.822268021343
 30
0.0
 11
2983.690038106198
 21
6531.822268021343
 31
0.0
  0
LINE
  5
7CF6
330
8414
100
AcDbEntity
  8
1
100
AcDbLine
 10
2799.690038106199
 20
6609.722268021343
 30
0.0
 11
2983.690038106198
 21
6609.722268021343
 31
0.0
  0
LINE
  5
7CF7
330
8414
100
AcDbEntity
  8
1
100
AcDbLine
 10
4179.690038106198
 20
6710.772268021344
 30
0.0
 11
4179.690038106198
 21
6624.822268021344
 31
0.0
  0
LINE
  5
7CF8
330
8414
100
AcDbEntity
  8
1
100
AcDbLine
 10
4119.690038106198
 20
6710.772268021344
 30
0.0
 11
4119.690038106198
 21
6624.822268021344
 31
0.0
  0
LINE
  5
7CF9
330
8414
100
AcDbEntity
  8
1
100
AcDbLine
 10
4369.690038106198
 20
6446.822268021344
 30
0.0
 11
4369.690038106198
 21
6691.822268021344
 31
0.0
  0
LINE
  5
7CFA
330
8414
100
AcDbEntity
  8
1
100
AcDbLine
 10
3529.690038106199
 20
6524.822268021343
 30
0.0
 11
3654.690038106199
 21
6524.822268021343
 31
0.0
  0
LINE
  5
7CFB
330
8414
100
AcDbEntity
  8
1
100
AcDbLine
 10
3673.690038106197
 20
6524.822268021342
 30
0.0
 11
3738.690038106198
 21
6524.822268021345
 31
0.0
  0
LINE
  5
7CFC
330
8414
100
AcDbEntity
  8
1
100
AcDbLine
 10
4089.690038106199
 20
6624.822268021344
 30
0.0
 11
4209.690038106198
 21
6624.822268021344
 31
0.0
  0
LINE
  5
7CFD
330
8414
100
AcDbEntity
  8
1
100
AcDbLine
 10
4209.690038106198
 20
6609.722268021343
 30
0.0
 11
4255.690038106197
 21
6609.722268021343
 31
0.0
  0
LINE
  5
7CFE
330
8414
100
AcDbEntity
  8
1
100
AcDbLine
 10
4255.690038106197
 20
6531.822268021343
 30
0.0
 11
4255.690038106197
 21
6609.722268021343
 31
0.0
  0
LINE
  5
7CFF
330
8414
100
AcDbEntity
  8
1
100
AcDbLine
 10
4209.690038106198
 20
6609.722268021343
 30
0.0
 11
4209.690038106198
 21
6624.822268021344
 31
0.0
  0
LINE
  5
7D00
330
8414
100
AcDbEntity
  8
1
100
AcDbLine
 10
4043.690038106197
 20
6531.822268021343
 30
0.0
 11
4043.690038106197
 21
6609.722268021343
 31
0.0
  0
LINE
  5
7D01
330
8414
100
AcDbEntity
  8
1
100
AcDbLine
 10
4089.690038106199
 20
6609.722268021343
 30
0.0
 11
4089.690038106199
 21
6624.822268021344
 31
0.0
  0
LINE
  5
7D02
330
8414
100
AcDbEntity
  8
1
100
AcDbLine
 10
2983.690038106198
 20
6531.822268021343
 30
0.0
 11
2983.690038106198
 21
6609.722268021343
 31
0.0
  0
LINE
  5
7D03
330
8414
100
AcDbEntity
  8
1
100
AcDbLine
 10
3939.690038106199
 20
6720.772268021343
 30
0.0
 11
4149.690038106199
 21
6720.772268021343
 31
0.0
  0
LINE
  5
7D04
330
8414
100
AcDbEntity
  8
1
100
AcDbLine
 10
4182.190038106198
 20
6710.772268021344
 30
0.0
 11
4117.190038106198
 21
6710.772268021344
 31
0.0
  0
LINE
  5
7D05
330
8414
100
AcDbEntity
  8
1
100
AcDbLine
 10
4349.690038106198
 20
6720.772268021345
 30
0.0
 11
4349.690038106192
 21
7370.272268021344
 31
0.0
  0
LINE
  5
7D06
330
8414
100
AcDbEntity
  8
1
100
AcDbLine
 10
4349.690038106198
 20
6720.772268021345
 30
0.0
 11
4149.690038106199
 21
6720.772268021343
 31
0.0
  0
LINE
  5
7D07
330
8414
100
AcDbEntity
  8
1
100
AcDbLine
 10
4182.190038106198
 20
6710.772268021344
 30
0.0
 11
4182.190038106198
 21
6720.772268021343
 31
0.0
  0
LINE
  5
7D08
330
8414
100
AcDbEntity
  8
1
100
AcDbLine
 10
4349.690038106197
 20
6896.272268021346
 30
0.0
 11
4348.690038106197
 21
6896.272268021346
 31
0.0
  0
LINE
  5
7D09
330
8414
100
AcDbEntity
  8
1
100
AcDbLine
 10
3939.690038106192
 20
7370.272268021342
 30
0.0
 11
3939.690038106199
 21
6720.772268021343
 31
0.0
  0
LINE
  5
7D0A
330
8414
100
AcDbEntity
  8
1
100
AcDbLine
 10
4117.190038106198
 20
6710.772268021344
 30
0.0
 11
4117.190038106198
 21
6720.772268021343
 31
0.0
  0
LINE
  5
7D0B
330
8414
100
AcDbEntity
  8
1
100
AcDbLine
 10
2767.190038106198
 20
6629.822268021344
 30
0.0
 11
2767.190038106198
 21
6876.822268021341
 31
0.0
  0
LINE
  5
7D0C
330
8414
100
AcDbEntity
  8
1
100
AcDbLine
 10
2692.190038106199
 20
6629.822268021344
 30
0.0
 11
2692.190038106199
 21
6876.822268021341
 31
0.0
  0
LINE
  5
7D0D
330
8414
100
AcDbEntity
  8
1
100
AcDbLine
 10
2349.690038106198
 20
6446.822268021342
 30
0.0
 11
2349.690038106198
 21
6691.822268021342
 31
0.0
  0
LINE
  5
7D0E
330
8414
100
AcDbEntity
  8
1
100
AcDbLine
 10
2659.690038106198
 20
6629.822268021344
 30
0.0
 11
2799.690038106199
 21
6629.822268021344
 31
0.0
  0
LINE
  5
7D0F
330
8414
100
AcDbEntity
  8
1
100
AcDbLine
 10
2799.690038106199
 20
6609.722268021343
 30
0.0
 11
2799.690038106199
 21
6629.822268021344
 31
0.0
  0
LINE
  5
7D10
330
8414
100
AcDbEntity
  8
1
100
AcDbLine
 10
2475.690038106199
 20
6609.722268021343
 30
0.0
 11
2659.690038106198
 21
6609.722268021343
 31
0.0
  0
LINE
  5
7D11
330
8414
100
AcDbEntity
  8
1
100
AcDbLine
 10
2659.690038106198
 20
6609.722268021343
 30
0.0
 11
2659.690038106198
 21
6629.822268021344
 31
0.0
  0
LINE
  5
7D12
330
8414
100
AcDbEntity
  8
1
100
AcDbLine
 10
2475.690038106199
 20
6531.822268021343
 30
0.0
 11
2475.690038106199
 21
6609.722268021343
 31
0.0
  0
LINE
  5
7D13
330
8414
100
AcDbEntity
  8
1
100
AcDbLine
 10
2349.690038106198
 20
6691.822268021343
 30
0.0
 11
4369.690038106198
 21
6691.822268021436
 31
0.0
  0
LINE
  5
7D15
330
8414
100
AcDbEntity
  8
1
100
AcDbLine
 10
4349.690038106196
 20
7370.272268021344
 30
0.0
 11
3939.690038106192
 21
7370.272268021342
 31
0.0
  0
LINE
  5
7D16
330
8414
100
AcDbEntity
  8
1
100
AcDbLine
 10
1904.690038106198
 20
8576.822268021343
 30
0.0
 11
3808.690038106198
 21
8576.822268021343
 31
0.0
  0
LINE
  5
7D17
330
8414
100
AcDbEntity
  8
1
100
AcDbLine
 10
1904.690038106198
 20
6876.822268021341
 30
0.0
 11
3808.690038106199
 21
6876.822268021341
 31
0.0
  0
LINE
  5
7D18
330
8414
100
AcDbEntity
  8
1
100
AcDbLine
 10
1904.690038106198
 20
8626.822268021344
 30
0.0
 11
1904.690038106198
 21
6826.822268021341
 31
0.0
  0
LINE
  5
7D19
330
8414
100
AcDbEntity
  8
1
100
AcDbLine
 10
3808.690038106199
 20
8576.822268021343
 30
0.0
 11
3808.690038106199
 21
6876.822268021341
 31
0.0
  0
LINE
  5
7D1A
330
8414
100
AcDbEntity
  8
1
100
AcDbLine
 10
1979.690038106198
 20
6876.822268021341
 30
0.0
 11
1979.690038106198
 21
6524.82226802134
 31
0.0
  0
LINE
  5
7D1B
330
8414
100
AcDbEntity
  8
1
100
AcDbLine
 10
4043.690038106197
 20
6609.722268021343
 30
0.0
 11
4089.690038106199
 21
6609.722268021343
 31
0.0
  0
LINE
  5
7D1C
330
8414
100
AcDbEntity
  8
1
100
AcDbLine
 10
4043.690038106197
 20
6531.822268021343
 30
0.0
 11
4255.690038106197
 21
6531.822268021343
 31
0.0
  0
LINE
  5
7D24
330
8414
100
AcDbEntity
  8
1
100
AcDbLine
 10
7160.972951952932
 20
3801.395935314896
 30
0.0
 11
7213.972951952934
 21
3801.395935314896
 31
0.0
  0
LINE
  5
7D25
330
8414
100
AcDbEntity
  8
1
100
AcDbLine
 10
5954.422951952931
 20
3470.395935314897
 30
0.0
 11
5954.422951952935
 21
3060.3959353149
 31
0.0
  0
LINE
  5
7D26
330
8414
100
AcDbEntity
  8
1
100
AcDbLine
 10
5460.972951952932
 20
3060.395935314898
 30
0.0
 11
5460.972951952932
 21
3000.395935314896
 31
0.0
  0
LINE
  5
7D27
330
8414
100
AcDbEntity
  8
1
100
AcDbLine
 10
5858.981987928985
 20
3060.395935314899
 30
0.0
 11
5858.981987928985
 21
3000.395935314896
 31
0.0
  0
LINE
  5
80A8
330
8414
100
AcDbEntity
  8
4
100
AcDbLine
 10
7400.0
 20
2000.0
 30
0.0
 11
7400.0
 21
1200.0
 31
0.0
  0
LINE
  5
80A9
330
8414
100
AcDbEntity
  8
4
100
AcDbLine
 10
4600.0
 20
2000.0
 30
0.0
 11
4600.0
 21
1200.0
 31
0.0
  0
LINE
  5
80AA
330
8414
100
AcDbEntity
  8
4
100
AcDbLine
 10
2600.0
 20
2000.0
 30
0.0
 11
2600.0
 21
1200.0
 31
0.0
  0
LINE
  5
80AD
330
8414
100
AcDbEntity
  8
4
100
AcDbLine
 10
2600.0
 20
1200.0
 30
0.0
 11
7400.0
 21
1200.0
 31
0.0
  0
LINE
  5
80AE
330
8414
100
AcDbEntity
  8
4
100
AcDbLine
 10
2600.0
 20
1600.0
 30
0.0
 11
7400.0
 21
1600.0
 31
0.0
  0
TEXT
  5
80AF
330
8414
100
AcDbEntity
  8
4
100
AcDbText
 10
2754.008323387607
 20
1726.172103466451
 30
0.0
 40
200.0
  1
機器名称
100
AcDbText
  0
TEXT
  5
80B0
330
8414
100
AcDbEntity
  8
4
100
AcDbText
 10
2745.03242409919
 20
1286.580626928043
 30
0.0
 40
200.0
  1
機器型番
100
AcDbText
  0
TEXT
  5
80B1
330
8414
100
AcDbEntity
  8
4
100
AcDbText
 10
4710.714981950659
 20
1690.287075830274
 30
0.0
 40
200.0
  1
ミツヤ多翼送風機
100
AcDbText
  0
TEXT
  5
80B2
330
8414
100
AcDbEntity
  8
4
100
AcDbText
 10
4746.617982341923
 20
1268.638337119773
 30
0.0
 40
200.0
  1
MF#8-5
100
AcDbText
  0
TEXT
  5
80B4
330
8414
100
AcDbEntity
  8
4
100
AcDbText
 10
3239.654031888807
 20
9533.715365330063
 30
0.0
 40
215.9999999999999
  1
床置ベット
100
AcDbText
  0
TEXT
  5
80B5
330
8414
100
AcDbEntity
  8
4
100
AcDbText
 10
1264.670373317785
 20
10135.52390479719
 30
0.0
 40
288.0
  1
遠心式両吸込両持多翼ファン
100
AcDbText
  0
LINE
  5
80B6
330
8414
100
AcDbEntity
  8
4
100
AcDbLine
 10
1000.0
 20
9877.635017059219
 30
0.0
 11
7400.0
 21
9877.635017059219
 31
0.0
  0
LINE
  5
80B7
330
8414
100
AcDbEntity
  8
4
100
AcDbLine
 10
1000.0
 20
10677.63501705921
 30
0.0
 11
7400.0
 21
10677.63501705921
 31
0.0
  0
LINE
  5
80B8
330
8414
100
AcDbEntity
  8
4
100
AcDbLine
 10
2600.0
 20
2000.0
 30
0.0
 11
7400.0
 21
2000.0
 31
0.0
  0
LINE
  5
80B9
330
8414
100
AcDbEntity
  8
4
100
AcDbLine
 10
1000.0
 20
10677.63501705921
 30
0.0
 11
1000.0
 21
9877.635017059219
 31
0.0
  0
TEXT
  5
80BA
330
8414
100
AcDbEntity
  8
4
100
AcDbText
 10
1496.218702917998
 20
9529.277910185374
 30
0.0
 40
215.9999999999999
  1
左回転左横向
100
AcDbText
  0
TEXT
  5
80BB
330
8414
100
AcDbEntity
  8
4
100
AcDbText
 10
5875.878236997159
 20
10824.24432598123
 30
0.0
 40
224.0
  1
No.
100
AcDbText
  0
TEXT
  5
80BC
330
8414
100
AcDbEntity
  8
4
100
AcDbText
 10
5245.184250400053
 20
9533.715365330063
 30
0.0
 40
215.9999999999999
  1
縮尺：1/40
100
AcDbText
  0
LINE
  5
80BD
330
8414
100
AcDbEntity
  8
4
100
AcDbLine
 10
7400.0
 20
10677.63501705921
 30
0.0
 11
7400.0
 21
9877.635017059219
 31
0.0
  0
LINE
  5
80BE
330
8414
100
AcDbEntity
  8
4
100
AcDbLine
 10
8400.0
 20
11800.0
 30
0.0
 11
8400.0
 21
11800.0
 31
0.0
  0
LINE
  5
80BF
330
8414
100
AcDbEntity
  8
4
100
AcDbLine
 10
5762.469689439458
 20
10725.0543325016
 30
0.0
 11
5762.469689439458
 21
11146.609046199
 31
0.0
  0
LINE
  5
80C0
330
8414
100
AcDbEntity
  8
4
100
AcDbLine
 10
5762.469689439458
 20
11146.609046199
 30
0.0
 11
7400.0
 21
11146.609046199
 31
0.0
  0
LINE
  5
80C1
330
8414
100
AcDbEntity
  8
4
100
AcDbLine
 10
7400.0
 20
11146.609046199
 30
0.0
 11
7400.0
 21
10725.0543325016
 31
0.0
  0
LINE
  5
80C2
330
8414
100
AcDbEntity
  8
4
100
AcDbLine
 10
7400.0
 20
10725.0543325016
 30
0.0
 11
5762.469689439458
 21
10725.0543325016
 31
0.0
  0
LINE
  5
80C3
330
8414
100
AcDbEntity
  8
4
100
AcDbLine
 10
0.0
 20
0.0
 30
0.0
 11
0.0
 21
11800.0
 31
0.0
  0
LINE
  5
80C4
330
8414
100
AcDbEntity
  8
4
100
AcDbLine
 10
0.0
 20
11800.0
 30
0.0
 11
8400.0
 21
11800.0
 31
0.0
  0
LINE
  5
80C5
330
8414
100
AcDbEntity
  8
4
100
AcDbLine
 10
8400.0
 20
11800.0
 30
0.0
 11
8400.0
 21
0.0
 31
0.0
  0
LINE
  5
80C6
330
8414
100
AcDbEntity
  8
4
100
AcDbLine
 10
8400.0
 20
0.0
 30
0.0
 11
0.0
 21
0.0
 31
0.0
  0
DIMENSION
  5
8202
330
8414
100
AcDbEntity
  8
3
100
AcDbDimension
  2
*D21
 10
2729.690038106197
 20
2631.294568144975
 30
0.0
 11
2354.690038106197
 21
2731.294568144975
 31
0.0
 71
     5
 42
-1.0
  3
Standard
100
AcDbAlignedDimension
 13
1979.690038106198
 23
2875.395935314896
 33
0.0
 14
2729.690038106197
 24
2875.395935314897
 34
0.0
100
AcDbRotatedDimension
1001
ACAD
1000
DSTYLE
1002
{
1070
   172
1070
     1
1070
    40
1040
40.0
1070
   271
1070
     0
1070
   143
1040
0.039
1002
}
  0
DIMENSION
  5
820F
330
8414
100
AcDbEntity
  8
3
100
AcDbDimension
  2
*D22
 10
4429.690038106198
 20
2631.294568144975
 30
0.0
 11
3579.690038106198
 21
2731.294568144975
 31
0.0
 71
     5
 42
-1.0
  3
Standard
100
AcDbAlignedDimension
 13
2729.690038106197
 23
2875.395935314897
 33
0.0
 14
4429.690038106198
 24
2875.395935314896
 34
0.0
100
AcDbRotatedDimension
1001
ACAD
1000
DSTYLE
1002
{
1070
   172
1070
     1
1070
    40
1040
40.0
1070
   271
1070
     0
1070
   143
1040
0.039
1002
}
  0
DIMENSION
  5
821C
330
8414
100
AcDbEntity
  8
3
100
AcDbDimension
  2
*D23
 10
6310.972951952931
 20
2631.294568144975
 30
0.0
 11
5709.972951952932
 21
2731.294568144975
 31
0.0
 71
     5
 42
-1.0
  3
Standard
100
AcDbAlignedDimension
 13
5108.972951952932
 23
2875.395935314896
 33
0.0
 14
6310.972951952931
 24
2875.395935314896
 34
0.0
100
AcDbRotatedDimension
1001
ACAD
1000
DSTYLE
1002
{
1070
   172
1070
     1
1070
    40
1040
40.0
1070
   271
1070
     0
1070
   143
1040
0.039
1002
}
  0
DIMENSION
  5
8229
330
8414
100
AcDbEntity
  8
3
100
AcDbDimension
  2
*D24
 10
7228.972951952934
 20
2631.294568144975
 30
0.0
 11
6769.972951952931
 21
2731.294568144975
 31
0.0
 71
     5
 42
-1.0
  3
Standard
100
AcDbAlignedDimension
 13
6310.972951952931
 23
2875.395935314896
 33
0.0
 14
7228.972951952934
 24
2875.395935314896
 34
0.0
100
AcDbRotatedDimension
1001
ACAD
1000
DSTYLE
1002
{
1070
   172
1070
     1
1070
    40
1040
40.0
1070
   271
1070
     0
1070
   143
1040
0.039
1002
}
  0
DIMENSION
  5
8236
330
8414
100
AcDbEntity
  8
3
100
AcDbDimension
  2
*D25
 10
1158.462046680579
 20
5134.395935314897
 30
0.0
 11
1058.462046680579
 21
4004.895935314896
 31
0.0
 71
     5
 42
-1.0
  3
Standard
100
AcDbAlignedDimension
 13
1979.690038106198
 23
2875.395935314896
 33
0.0
 14
1884.690038106199
 24
5134.395935314897
 34
0.0
 50
90.0
100
AcDbRotatedDimension
1001
ACAD
1000
DSTYLE
1002
{
1070
   172
1070
     1
1070
    40
1040
40.0
1070
   271
1070
     0
1070
   143
1040
0.039
1002
}
  0
DIMENSION
  5
84CB
330
8414
100
AcDbEntity
  8
3
100
AcDbDimension
  2
*D27
 10
6310.972951952932
 20
5833.827008531883
 30
0.0
 11
5670.972951952932
 21
5965.255579960455
 31
0.0
 70
    32
  1
(<>)
 71
     5
 42
1280.0
  3
IGA
100
AcDbAlignedDimension
 13
5030.972951952932
 23
4180.395935314897
 33
0.0
 14
6310.972951952932
 24
5595.795721781462
 34
0.0
100
AcDbRotatedDimension
1001
ACAD
1000
DSTYLE
1002
{
1070
    40
1040
40.0
1070
   143
1040
0.039
1070
   172
1070
     1
1070
   271
1070
     4
1070
   272
1070
     4
1070
   279
1070
     0
1070
   284
1070
     0
1070
   285
1070
     0
1070
   286
1070
     0
1070
   341
1005
842B
1070
   343
1005
842B
1070
   344
1005
842B
1002
}
  0
DIMENSION
  5
84D8
330
8414
100
AcDbEntity
  8
3
100
AcDbDimension
  2
*D28
 10
7330.972951952934
 20
5833.827008531883
 30
0.0
 11
6820.972951952933
 21
5965.255579960455
 31
0.0
 70
    32
  1
(<>)
 71
     5
 42
1020.000000000002
  3
IGA
100
AcDbAlignedDimension
 13
6310.972951952932
 23
5595.795721781462
 33
0.0
 14
7330.972951952934
 24
3724.395935314896
 34
0.0
100
AcDbRotatedDimension
1001
ACAD
1000
DSTYLE
1002
{
1070
    40
1040
40.0
1070
   143
1040
0.039
1070
   172
1070
     1
1070
   271
1070
     4
1070
   272
1070
     4
1070
   279
1070
     1
1070
   284
1070
     0
1070
   285
1070
     0
1070
   286
1070
     0
1070
   341
1005
842B
1070
   343
1005
842B
1070
   344
1005
842B
1002
}
  0
DIMENSION
  5
84E5
330
8414
100
AcDbEntity
  8
3
100
AcDbDimension
  2
*D29
 10
7160.972951952931
 20
5435.795721781462
 30
0.0
 11
6310.972951952932
 21
5535.795721781462
 31
0.0
 70
    32
 71
     5
 42
1699.999999999999
  3
IGA
100
AcDbAlignedDimension
 13
5460.972951952932
 23
5134.395935314897
 33
0.0
 14
7160.972951952931
 24
5134.395935314897
 34
0.0
100
AcDbRotatedDimension
1001
ACAD
1000
DSTYLE
1002
{
1070
    40
1040
40.0
1070
   143
1040
0.039
1070
   172
1070
     1
1070
   271
1070
     4
1070
   272
1070
     4
1070
   279
1070
     0
1070
   284
1070
     0
1070
   285
1070
     0
1070
   286
1070
     0
1070
   341
1005
842B
1070
   343
1005
842B
1070
   344
1005
842B
1002
}
  0
DIMENSION
  5
8515
330
8414
100
AcDbEntity
  8
3
100
AcDbDimension
  2
*D31
 10
7665.884051569737
 20
3175.395935314896
 30
0.0
 11
7565.884051569736
 21
3800.395935314898
 31
0.0
 70
    32
  1
\U+03C6<>
 71
     5
 42
1250.000000000001
  3
IGA
100
AcDbAlignedDimension
 13
7160.972951952932
 23
4425.395935314896
 33
0.0
 14
7160.972951952932
 24
3175.395935314896
 34
0.0
 50
90.0
100
AcDbRotatedDimension
1001
ACAD
1000
DSTYLE
1002
{
1070
    40
1040
40.0
1070
   143
1040
0.039
1070
   172
1070
     1
1070
   271
1070
     4
1070
   272
1070
     4
1070
   279
1070
     0
1070
   284
1070
     0
1070
   285
1070
     0
1070
   286
1070
     0
1070
   341
1005
842B
1070
   343
1005
842B
1070
   344
1005
842B
1002
}
  0
DIMENSION
  5
8588
330
8414
100
AcDbEntity
  8
3
100
AcDbDimension
  2
*D32
 10
1530.673896870364
 20
6524.82226802134
 30
0.0
 11
1430.673896870363
 21
7584.822268021341
 31
0.0
 70
    32
 71
     5
 42
2120.000000000002
  3
IGA
100
AcDbAlignedDimension
 13
1979.690038106198
 23
8644.822268021341
 33
0.0
 14
1979.690038106198
 24
6524.82226802134
 34
0.0
 50
90.0
100
AcDbRotatedDimension
1001
ACAD
1000
DSTYLE
1002
{
1070
    40
1040
40.0
1070
   143
1040
0.039
1070
   172
1070
     1
1070
   271
1070
     4
1070
   272
1070
     4
1070
   279
1070
     0
1070
   284
1070
     0
1070
   285
1070
     0
1070
   286
1070
     0
1070
   341
1005
842B
1070
   343
1005
842B
1070
   344
1005
842B
1002
}
  0
DIMENSION
  5
8595
330
8414
100
AcDbEntity
  8
3
100
AcDbDimension
  2
*D33
 10
4429.690038106198
 20
6160.068389831689
 30
0.0
 11
3204.690038106198
 21
6260.06838983169
 31
0.0
 70
    32
 71
     5
 42
2450.0
  3
IGA
100
AcDbAlignedDimension
 13
1979.690038106198
 23
6524.82226802134
 33
0.0
 14
4429.690038106198
 24
6524.822268021342
 34
0.0
100
AcDbRotatedDimension
1001
ACAD
1000
DSTYLE
1002
{
1070
    40
1040
40.0
1070
   143
1040
0.039
1070
   172
1070
     1
1070
   271
1070
     4
1070
   272
1070
     4
1070
   279
1070
     0
1070
   284
1070
     0
1070
   285
1070
     0
1070
   286
1070
     0
1070
   341
1005
842B
1070
   343
1005
842B
1070
   344
1005
842B
1002
}
  0
DIMENSION
  5
85A2
330
8414
100
AcDbEntity
  8
3
100
AcDbDimension
  2
*D34
 10
3479.690038106197
 20
8849.458406526526
 30
0.0
 11
2729.690038106198
 21
8949.458406526526
 31
0.0
 70
    32
 71
     5
 42
1499.999999999999
  3
IGA
100
AcDbAlignedDimension
 13
1979.690038106198
 23
8644.822268021341
 33
0.0
 14
3479.690038106197
 24
8644.822268021341
 34
0.0
100
AcDbRotatedDimension
1001
ACAD
1000
DSTYLE
1002
{
1070
    40
1040
40.0
1070
   143
1040
0.039
1070
   172
1070
     1
1070
   271
1070
     4
1070
   272
1070
     4
1070
   279
1070
     0
1070
   284
1070
     0
1070
   285
1070
     0
1070
   286
1070
     0
1070
   341
1005
842B
1070
   343
1005
842B
1070
   344
1005
842B
1002
}
  0
DIMENSION
  5
85AF
330
8414
100
AcDbEntity
  8
3
100
AcDbDimension
  2
*D35
 10
4429.690038106198
 20
8849.458406526526
 30
0.0
 11
3954.690038106198
 21
8949.458406526526
 31
0.0
 70
    32
 71
     5
 42
950.0000000000005
  3
IGA
100
AcDbAlignedDimension
 13
3479.690038106197
 23
8644.822268021341
 33
0.0
 14
4429.690038106198
 24
7524.822268021342
 34
0.0
100
AcDbRotatedDimension
1001
ACAD
1000
DSTYLE
1002
{
1070
    40
1040
40.0
1070
   143
1040
0.039
1070
   172
1070
     1
1070
   271
1070
     4
1070
   272
1070
     4
1070
   279
1070
     1
1070
   284
1070
     0
1070
   285
1070
     0
1070
   286
1070
     0
1070
   341
1005
842B
1070
   343
1005
842B
1070
   344
1005
842B
1002
}
  0
DIMENSION
  5
85BC
330
8414
100
AcDbEntity
  8
3
100
AcDbDimension
  2
*D36
 10
4696.016439213777
 20
7524.822268021342
 30
0.0
 11
4596.016439213775
 21
7024.822268021342
 31
0.0
 70
    32
 71
     5
 42
1000.0
  3
IGA
100
AcDbAlignedDimension
 13
4429.690038106198
 23
6524.822268021342
 33
0.0
 14
4429.690038106198
 24
7524.822268021342
 34
0.0
 50
90.0
100
AcDbRotatedDimension
1001
ACAD
1000
DSTYLE
1002
{
1070
    40
1040
40.0
1070
   143
1040
0.039
1070
   172
1070
     1
1070
   271
1070
     4
1070
   272
1070
     4
1070
   279
1070
     0
1070
   284
1070
     0
1070
   285
1070
     0
1070
   286
1070
     0
1070
   341
1005
842B
1070
   343
1005
842B
1070
   344
1005
842B
1002
}
  0
DIMENSION
  5
85C9
330
8414
100
AcDbEntity
  8
3
100
AcDbDimension
  2
*D37
 10
1405.268771363862
 20
3800.395935314897
 30
0.0
 11
1305.268771363861
 21
3337.895935314897
 31
0.0
 70
    32
 71
     5
 42
925.0
  3
IGA
100
AcDbAlignedDimension
 13
1979.690038106198
 23
2875.395935314896
 33
0.0
 14
1826.253499857346
 24
3800.395935314897
 34
0.0
 50
90.0
100
AcDbRotatedDimension
1001
ACAD
1000
DSTYLE
1002
{
1070
    40
1040
40.0
1070
   143
1040
0.039
1070
   172
1070
     1
1070
   271
1070
     4
1070
   272
1070
     4
1070
   279
1070
     0
1070
   284
1070
     0
1070
   285
1070
     0
1070
   286
1070
     0
1070
   341
1005
842B
1070
   343
1005
842B
1070
   344
1005
842B
1002
}
  0
DIMENSION
  5
85D6
330
8414
100
AcDbEntity
  8
3
100
AcDbDimension
  2
*D38
 10
1405.268771363862
 20
5134.395935314897
 30
0.0
 11
1305.268771363861
 21
4467.395935314896
 31
0.0
 70
    32
 71
     5
 42
1334.0
  3
IGA
100
AcDbAlignedDimension
 13
1826.253499857346
 23
3800.395935314897
 33
0.0
 14
1904.690038106198
 24
5134.395935314897
 34
0.0
 50
90.0
100
AcDbRotatedDimension
1001
ACAD
1000
DSTYLE
1002
{
1070
    40
1040
40.0
1070
   143
1040
0.039
1070
   172
1070
     1
1070
   271
1070
     4
1070
   272
1070
     4
1070
   279
1070
     1
1070
   284
1070
     0
1070
   285
1070
     0
1070
   286
1070
     0
1070
   341
1005
842B
1070
   343
1005
842B
1070
   344
1005
842B
1002
}
  0
DIMENSION
  5
85E3
330
8414
100
AcDbEntity
  8
3
100
AcDbDimension
  2
*D39
 10
1651.679005416241
 20
3854.395935314897
 30
0.0
 11
1551.67900541624
 21
4494.395935314897
 31
0.0
 70
    32
 71
     5
 42
1279.999999999999
  3
IGA
100
AcDbAlignedDimension
 13
1904.690038106198
 23
5134.395935314897
 33
0.0
 14
1904.690038106198
 24
3854.395935314897
 34
0.0
 50
90.0
100
AcDbRotatedDimension
1001
ACAD
1000
DSTYLE
1002
{
1070
    40
1040
40.0
1070
   143
1040
0.039
1070
   172
1070
     1
1070
   271
1070
     4
1070
   272
1070
     4
1070
   279
1070
     0
1070
   284
1070
     0
1070
   285
1070
     0
1070
   286
1070
     0
1070
   341
1005
842B
1070
   343
1005
842B
1070
   344
1005
842B
1002
}
  0
DIMENSION
  5
85F0
330
8414
100
AcDbEntity
  8
3
100
AcDbDimension
  2
*D40
 10
2729.690038106197
 20
5436.91888063242
 30
0.0
 11
2317.190038106198
 21
5536.91888063242
 31
0.0
 70
    32
 71
     5
 42
824.9999999999992
  3
IGA
100
AcDbAlignedDimension
 13
1904.690038106198
 23
5187.395935314897
 33
0.0
 14
2729.690038106197
 24
5155.681654420209
 34
0.0
100
AcDbRotatedDimension
1001
ACAD
1000
DSTYLE
1002
{
1070
    40
1040
40.0
1070
   143
1040
0.039
1070
   172
1070
     1
1070
   271
1070
     4
1070
   272
1070
     4
1070
   279
1070
     0
1070
   284
1070
     0
1070
   285
1070
     0
1070
   286
1070
     0
1070
   341
1005
842B
1070
   343
1005
842B
1070
   344
1005
842B
1002
}
  0
DIMENSION
  5
85FD
330
8414
100
AcDbEntity
  8
3
100
AcDbDimension
  2
*D41
 10
3808.690038106199
 20
5436.91888063242
 30
0.0
 11
3269.190038106199
 21
5536.91888063242
 31
0.0
 70
    32
 71
     5
 42
1079.000000000002
  3
IGA
100
AcDbAlignedDimension
 13
2729.690038106197
 23
5155.681654420209
 33
0.0
 14
3808.690038106199
 24
3891.395935314896
 34
0.0
100
AcDbRotatedDimension
1001
ACAD
1000
DSTYLE
1002
{
1070
    40
1040
40.0
1070
   143
1040
0.039
1070
   172
1070
     1
1070
   271
1070
     4
1070
   272
1070
     4
1070
   279
1070
     1
1070
   284
1070
     0
1070
   285
1070
     0
1070
   286
1070
     0
1070
   341
1005
842B
1070
   343
1005
842B
1070
   344
1005
842B
1002
}
  0
DIMENSION
  5
860A
330
8414
100
AcDbEntity
  8
3
100
AcDbDimension
  2
*D42
 10
4429.690038106198
 20
5661.37209794053
 30
0.0
 11
3167.190038106198
 21
5761.37209794053
 31
0.0
 70
    32
 71
     5
 42
2525.0
  3
IGA
100
AcDbAlignedDimension
 13
1904.690038106198
 23
5187.395935314897
 33
0.0
 14
4429.690038106198
 24
3000.395935314896
 34
0.0
100
AcDbRotatedDimension
1001
ACAD
1000
DSTYLE
1002
{
1070
    40
1040
40.0
1070
   143
1040
0.039
1070
   172
1070
     1
1070
   271
1070
     4
1070
   272
1070
     4
1070
   279
1070
     0
1070
   284
1070
     0
1070
   285
1070
     0
1070
   286
1070
     0
1070
   341
1005
842B
1070
   343
1005
842B
1070
   344
1005
842B
1002
}
  0
ENDSEC
  0
SECTION
  2
OBJECTS
  0
DICTIONARY
  5
83B1
330
0
100
AcDbDictionary
281
     1
  3
ACAD_CIP_PREVIOUS_PRODUCT_INFO
350
8457
  3
ACAD_COLOR
350
8407
  3
ACAD_DETAILVIEWSTYLE
350
840E
  3
ACAD_GROUP
350
83B2
  3
ACAD_LAYOUT
350
8406
  3
ACAD_MATERIAL
350
83B5
  3
ACAD_MLEADERSTYLE
350
840A
  3
ACAD_MLINESTYLE
350
8403
  3
ACAD_PLOTSETTINGS
350
8405
  3
ACAD_PLOTSTYLENAME
350
83B3
  3
ACAD_SCALELIST
350
83E7
  3
ACAD_SECTIONVIEWSTYLE
350
840C
  3
ACAD_TABLESTYLE
350
8408
  3
ACAD_VISUALSTYLE
350
83CE
  3
ACDB_RECOMPOSE_DATA
350
869B
  3
AcDbVariableDictionary
350
846F
  3
DWGPROPS
350
869C
  0
DICTIONARY
  5
8465
330
83F9
100
AcDbDictionary
280
     1
281
     1
  3
ADSK_XREC_LAYER_RECONCILED
360
8466
  0
DICTIONARY
  5
8467
330
8418
100
AcDbDictionary
280
     1
281
     1
  3
ADSK_XREC_LAYER_RECONCILED
360
8468
  0
DICTIONARY
  5
8469
330
841B
100
AcDbDictionary
280
     1
281
     1
  3
ADSK_XREC_LAYER_RECONCILED
360
846A
  0
DICTIONARY
  5
846B
330
841C
100
AcDbDictionary
280
     1
281
     1
  3
ADSK_XREC_LAYER_RECONCILED
360
846C
  0
DICTIONARY
  5
846D
330
841D
100
AcDbDictionary
280
     1
281
     1
  3
ADSK_XREC_LAYER_RECONCILED
360
846E
  0
DICTIONARY
  5
8512
330
8414
100
AcDbDictionary
280
     1
281
     1
  3
ACAD_SORTENTS
360
8513
  0
XRECORD
  5
8457
102
{ACAD_REACTORS
330
83B1
102
}
330
83B1
100
AcDbXrecord
280
     1
300
ACDLT
300
2015
300
INVLTS_F_S
  0
DICTIONARY
  5
8407
102
{ACAD_REACTORS
330
83B1
102
}
330
83B1
100
AcDbDictionary
281
     1
  0
DICTIONARY
  5
840E
102
{ACAD_REACTORS
330
83B1
102
}
330
83B1
100
AcDbDictionary
281
     1
  3
Imperial24
350
840F
  0
DICTIONARY
  5
83B2
102
{ACAD_REACTORS
330
83B1
102
}
330
83B1
100
AcDbDictionary
281
     1
  0
DICTIONARY
  5
8406
102
{ACAD_REACTORS
330
83B1
102
}
330
83B1
100
AcDbDictionary
281
     1
  3
Model
350
8417
  3
レイアウト1
350
8413
  0
DICTIONARY
  5
83B5
102
{ACAD_REACTORS
330
83B1
102
}
330
83B1
100
AcDbDictionary
281
     1
  3
ByBlock
350
83BE
  3
ByLayer
350
83B6
  3
Global
350
83C6
  0
DICTIONARY
  5
840A
102
{ACAD_REACTORS
330
83B1
102
}
330
83B1
100
AcDbDictionary
281
     1
  3
Standard
350
840B
  0
DICTIONARY
  5
8403
102
{ACAD_REACTORS
330
83B1
102
}
330
83B1
100
AcDbDictionary
281
     1
  3
Standard
350
8404
  0
DICTIONARY
  5
8405
102
{ACAD_REACTORS
330
83B1
102
}
330
83B1
100
AcDbDictionary
281
     1
  0
ACDBDICTIONARYWDFLT
  5
83B3
102
{ACAD_REACTORS
330
83B1
102
}
330
83B1
100
AcDbDictionary
281
     1
  3
Normal
350
83B4
100
AcDbDictionaryWithDefault
340
83B4
  0
DICTIONARY
  5
83E7
102
{ACAD_REACTORS
330
83B1
102
}
330
83B1
100
AcDbDictionary
281
     1
  3
A0
350
83E8
  3
A1
350
83E9
  3
A2
350
83EA
  3
A3
350
83EB
  3
A4
350
83EC
  3
A5
350
83ED
  3
A6
350
83EE
  3
A7
350
83EF
  3
A8
350
83F0
  3
A9
350
83F1
  3
B0
350
83F2
  3
B1
350
83F3
  3
B2
350
83F4
  3
B3
350
83F5
  3
B4
350
83F6
  3
B5
350
83F7
  3
B6
350
83F8
  0
DICTIONARY
  5
840C
102
{ACAD_REACTORS
330
83B1
102
}
330
83B1
100
AcDbDictionary
281
     1
  3
Imperial24
350
840D
  0
DICTIONARY
  5
8408
102
{ACAD_REACTORS
330
83B1
102
}
330
83B1
100
AcDbDictionary
281
     1
  3
Standard
350
8409
  0
DICTIONARY
  5
83CE
102
{ACAD_REACTORS
330
83B1
102
}
330
83B1
100
AcDbDictionary
281
     1
  3
2dWireframe
350
83D4
  3
Basic
350
83D3
  3
Brighten
350
83DA
  3
ColorChange
350
83DE
  3
Conceptual
350
83D7
  3
Dim
350
83D9
  3
EdgeColorOff
350
83E6
  3
Facepattern
350
83DD
  3
Flat
350
83CF
  3
FlatWithEdges
350
83D0
  3
Gouraud
350
83D1
  3
GouraudWithEdges
350
83D2
  3
Hidden
350
83D6
  3
JitterOff
350
83E4
  3
Linepattern
350
83DC
  3
OverhangOff
350
83E5
  3
Realistic
350
83D8
  3
Shaded
350
83E3
  3
Shaded with edges
350
83E2
  3
Shades of Gray
350
83DF
  3
Sketchy
350
83E0
  3
Thicken
350
83DB
  3
Wireframe
350
83D5
  3
X-Ray
350
83E1
  0
XRECORD
  5
869B
102
{ACAD_REACTORS
330
83B1
102
}
330
83B1
100
AcDbXrecord
280
     1
 90
        1
330
8409
  0
DICTIONARY
  5
846F
102
{ACAD_REACTORS
330
83B1
102
}
330
83B1
100
AcDbDictionary
281
     1
  3
CANNOSCALE
350
8474
  3
CMLEADERSTYLE
350
8471
  3
CTABLESTYLE
350
8470
  3
CVIEWDETAILSTYLE
350
8472
  3
CVIEWSECTIONSTYLE
350
8473
  3
DIMASSOC
350
8477
  3
INDEXCTL
350
8476
  3
SORTENTS
350
8475
  3
XCLIPFRAME
350
8478
  0
XRECORD
  5
869C
102
{ACAD_REACTORS
330
83B1
102
}
330
83B1
100
AcDbXrecord
280
     1
  1
DWGPROPS COOKIE
  2

  3

  4

  6

  7

  8
yasukiyo.ogawa
  9

300
=
301
=
302
=
303
=
304
=
305
=
306
=
307
=
308
=
309
=
 40
0.0749277314814815
 41
2451898.488112731
 42
2460280.696101331
  1

 90
        0
  0
XRECORD
  5
8466
102
{ACAD_REACTORS
330
8465
102
}
330
8465
100
AcDbXrecord
280
     1
290
     1
  0
XRECORD
  5
8468
102
{ACAD_REACTORS
330
8467
102
}
330
8467
100
AcDbXrecord
280
     1
290
     1
  0
XRECORD
  5
846A
102
{ACAD_REACTORS
330
8469
102
}
330
8469
100
AcDbXrecord
280
     1
290
     1
  0
XRECORD
  5
846C
102
{ACAD_REACTORS
330
846B
102
}
330
846B
100
AcDbXrecord
280
     1
290
     1
  0
XRECORD
  5
846E
102
{ACAD_REACTORS
330
846D
102
}
330
846D
100
AcDbXrecord
280
     1
290
     1
  0
SORTENTSTABLE
  5
8513
102
{ACAD_REACTORS
330
8512
102
}
330
8512
100
AcDbSortentsTable
330
8414
331
7C9E
  5
7CA0
331
7CD9
  5
7CDD
331
7CC8
  5
7CCD
331
7C46
  5
7C48
331
80BF
  5
80C1
331
80AE
  5
80B0
331
7D03
  5
7D05
331
7C8A
  5
7C8C
331
7C79
  5
7C7F
331
7C35
  5
7C35
331
80C0
  5
80C2
331
7C9F
  5
7CA1
331
7CF3
  5
7CF5
331
7C7A
  5
7C80
331
7C69
  5
7C6B
331
7C58
  5
7C5A
331
7C47
  5
7C49
331
7D04
  5
7D06
331
7C8B
  5
7C8D
331
80AF
  5
80B1
331
7D15
  5
7D17
331
7C36
  5
7C36
331
80C1
  5
80C3
331
80B0
  5
80B2
331
7CA0
  5
7CA2
331
7CB1
  5
7CB3
331
7C48
  5
7C4A
331
7CF4
  5
7CF6
331
7C6A
  5
7C6C
331
7C59
  5
7C5B
331
7D16
  5
7D18
331
7D05
  5
7D07
331
7C8C
  5
7C8E
331
7C37
  5
7C37
331
7C26
  5
7C26
331
80C2
  5
80C4
331
80B1
  5
80B4
331
7CA1
  5
7CA3
331
7CB2
  5
7CB4
331
7C49
  5
7C4B
331
7CF5
  5
7CF7
331
7CDC
  5
7CDE
331
7C6B
  5
7C6D
331
7C5A
  5
7C5C
331
7D17
  5
7D19
331
7D06
  5
7D08
331
7C8D
  5
7C8F
331
7C38
  5
7C38
331
7C27
  5
7C27
331
8236
  5
84D8
331
80C3
  5
80C5
331
80B2
  5
80B5
331
7D18
  5
7D1A
331
7CA2
  5
7CA4
331
7CB3
  5
7CB5
331
7C4A
  5
7C4C
331
7CCC
  5
7CCE
331
7C5B
  5
7C60
331
7CF6
  5
7CF8
331
7CDD
  5
7CDF
331
7D07
  5
7D09
331
7C8E
  5
7C90
331
7C6C
  5
7C6E
331
7C28
  5
7C28
331
80C4
  5
80C6
331
7D19
  5
7D1B
331
7D08
  5
7D0A
331
7CA3
  5
7CA5
331
7CB4
  5
7CB6
331
7C4B
  5
7C4D
331
84E5
  5
8511
331
7CCD
  5
7CCF
331
7C5C
  5
7C61
331
7CF7
  5
7CF9
331
7CDE
  5
7CE0
331
7C8F
  5
7C91
331
7C6D
  5
7C6F
331
7C29
  5
7C29
331
7CF8
  5
7CFA
331
80C5
  5
8202
331
80B4
  5
80B6
331
7D1A
  5
7D1C
331
7D09
  5
7D0B
331
7C90
  5
7C92
331
7CA4
  5
7CA6
331
7CCE
  5
7CD0
331
7CB5
  5
7CB7
331
7C4C
  5
7C4E
331
7CDF
  5
7CE1
331
7C6E
  5
7C70
331
7C2A
  5
7C2A
331
7CE0
  5
7CE2
331
7CF9
  5
7CFB
331
80C6
  5
820F
331
80B5
  5
80B7
331
7D24
  5
7D26
331
7D1B
  5
7D1D
331
7D0A
  5
7D0C
331
7C91
  5
7C93
331
7CA5
  5
7CA7
331
7CCF
  5
7CD1
331
7CB6
  5
7CB8
331
7C4D
  5
7C4F
331
7C6F
  5
7C71
331
7C3C
  5
7C3C
331
7C2B
  5
7C2B
331
7CD0
  5
7CD2
331
7CFA
  5
7CFC
331
7CE1
  5
7CE3
331
7C70
  5
7C72
331
8229
  5
84CB
331
80B6
  5
80B8
331
7D25
  5
7D27
331
7D1C
  5
7D1E
331
7D0B
  5
7D0D
331
7C92
  5
7C94
331
7CA6
  5
7CA8
331
7CB7
  5
7CC8
331
7C4E
  5
7C50
331
7C3D
  5
7C3D
331
7C2C
  5
7C2C
331
84D8
  5
8504
331
7CD1
  5
7CD4
331
7C60
  5
7C62
331
7CE2
  5
7CE4
331
7C71
  5
7C73
331
7CFB
  5
7CFD
331
80B7
  5
80B9
331
7D26
  5
80A8
331
7D0C
  5
7D0E
331
7C93
  5
7C95
331
7CA7
  5
7CAC
331
7C3E
  5
7C40
331
7C4F
  5
7C51
331
7C2D
  5
7C2D
331
7CA8
  5
7CAD
331
7CD2
  5
7CD8
331
7C61
  5
7C63
331
7C50
  5
7C52
331
7CE3
  5
7CF3
331
7C72
  5
7C75
331
7CFC
  5
7CFE
331
80B8
  5
80BA
331
7D27
  5
80A9
331
7D0D
  5
7D0F
331
7C94
  5
7C96
331
7C3F
  5
7C41
331
7C2E
  5
7C2E
331
7CE4
  5
7CF4
331
7C73
  5
7C76
331
7C62
  5
7C64
331
7C51
  5
7C53
331
7C40
  5
7C42
331
7CFD
  5
7CFF
331
7C84
  5
7C8A
331
80B9
  5
80BB
331
80A8
  5
80AA
331
7D0E
  5
7D10
331
7C95
  5
7C97
331
7C2F
  5
7C2F
331
7C99
  5
7C9B
331
7CFE
  5
7D00
331
7CD4
  5
7CD9
331
7C63
  5
7C65
331
7C52
  5
7C58
331
7C41
  5
7C43
331
821C
  5
8236
331
8202
  5
821C
331
80BA
  5
80BC
331
80A9
  5
80AD
331
7D0F
  5
7D11
331
7C96
  5
7C99
331
7C30
  5
7C30
331
7C9A
  5
7C9C
331
84CB
  5
84E5
331
7C42
  5
7C44
331
7CFF
  5
7D01
331
7C86
  5
7C8B
331
7C75
  5
7C79
331
7C64
  5
7C69
331
7C53
  5
7C59
331
80BB
  5
80BD
331
80AA
  5
80AE
331
7D10
  5
7D12
331
7C97
  5
7C9A
331
7C31
  5
7C31
331
7C9B
  5
7C9D
331
7CAC
  5
7CAE
331
7C43
  5
7C45
331
80BC
  5
80BE
331
7D11
  5
7D13
331
7D00
  5
7D02
331
7C76
  5
7C7A
331
7C65
  5
7C6A
331
7C32
  5
7C32
331
7C9C
  5
7C9E
331
7D01
  5
7D03
331
7CAD
  5
7CB1
331
7C44
  5
7C46
331
80BD
  5
80BF
331
7D12
  5
7D15
331
7C33
  5
7C33
331
7C9D
  5
7C9F
331
820F
  5
8229
331
80BE
  5
80C0
331
80AD
  5
80AF
331
7D13
  5
7D16
331
7D02
  5
7D04
331
7CD8
  5
7CDC
331
7C45
  5
7C47
331
7C34
  5
7C34
  0
ACDBDETAILVIEWSTYLE
  5
840F
102
{ACAD_XDICTIONARY
360
86D4
102
}
102
{ACAD_REACTORS
330
840E
102
}
330
840E
100
AcDbModelDocViewStyle
 70
     0
  3
Imperial24
290
     0
100
AcDbDetailViewStyle
 70
     0
 71
     0
 90
        3
 71
     1
340
83FA
 40
0.24
340
0
 40
0.24
300

 40
0.36
280
     3
 71
     2
340
8401
 90
       25
 71
     3
340
83FA
 40
0.24
 90
        1
 40
0.75
 90
        1
300
%<\AcVar ViewType \f "%tc1">% %<\AcVar ViewDetailId>%\PSCALE %<\AcVar ViewScale \f "%sn">%
 71
     4
340
8401
 90
       25
340
8401
 90
       25
280
     0
  0
LAYOUT
  5
8417
102
{ACAD_XDICTIONARY
360
86D8
102
}
102
{ACAD_REACTORS
330
8406
102
}
330
8406
100
AcDbPlotSettings
  1

  2
RICOH imagio MP W3600 RPCS
  4

  6

 40
0.0
 41
0.0
 42
0.0
 43
0.0
 44
0.0
 45
0.0
 46
0.0
 47
0.0
 48
0.0
 49
0.0
140
0.0
141
0.0
142
1.0
143
1.0
 70
  1712
 72
     0
 73
     0
 74
     0
  7

 75
     0
147
1.0
148
0.0
149
0.0
100
AcDbLayout
  1
Model
 70
     1
 71
     0
 10
0.0
 20
0.0
 11
12.0
 21
9.0
 12
0.0
 22
0.0
 32
0.0
 14
0.0
 24
0.0
 34
0.0
 15
0.0
 25
0.0
 35
0.0
146
0.0
 13
0.0
 23
0.0
 33
0.0
 16
1.0
 26
0.0
 36
0.0
 17
0.0
 27
1.0
 37
0.0
 76
     0
330
8414
331
8419
  0
LAYOUT
  5
8413
102
{ACAD_XDICTIONARY
360
86D6
102
}
102
{ACAD_REACTORS
330
8406
102
}
330
8406
100
AcDbPlotSettings
  1

  2
RICOH imagio MP W3600 RPCS
  4

  6

 40
0.0
 41
0.0
 42
0.0
 43
0.0
 44
0.0
 45
0.0
 46
0.0
 47
0.0
 48
0.0
 49
0.0
140
0.0
141
0.0
142
1.0
143
1.0
 70
   688
 72
     0
 73
     0
 74
     5
  7

 75
    16
147
1.0
148
0.0
149
0.0
100
AcDbLayout
  1
レイアウト1
 70
     1
 71
     1
 10
0.0
 20
0.0
 11
12.0
 21
9.0
 12
0.0
 22
0.0
 32
0.0
 14
1.000000000000000E+20
 24
1.000000000000000E+20
 34
1.000000000000000E+20
 15
-1.000000000000000E+20
 25
-1.000000000000000E+20
 35
-1.000000000000000E+20
146
0.0
 13
0.0
 23
0.0
 33
0.0
 16
1.0
 26
0.0
 36
0.0
 17
0.0
 27
1.0
 37
0.0
 76
     0
330
8410
  0
MATERIAL
  5
83BE
102
{ACAD_XDICTIONARY
360
83BF
102
}
102
{ACAD_REACTORS
330
83B5
102
}
330
83B5
100
AcDbMaterial
  1
ByBlock
 72
     0
 43
0.0208333333333333
 43
0.0
 43
0.0
 43
0.0
 43
0.0
 43
0.0208333333333333
 43
0.0
 43
0.0
 43
0.0
 43
0.0
 43
1.0
 43
0.0
 43
0.0
 43
0.0
 43
0.0
 43
1.0
 77
     0
 47
0.0208333333333333
 47
0.0
 47
0.0
 47
0.0
 47
0.0
 47
0.0208333333333333
 47
0.0
 47
0.0
 47
0.0
 47
0.0
 47
1.0
 47
0.0
 47
0.0
 47
0.0
 47
0.0
 47
1.0
171
     0
 49
0.0208333333333333
 49
0.0
 49
0.0
 49
0.0
 49
0.0
 49
0.0208333333333333
 49
0.0
 49
0.0
 49
0.0
 49
0.0
 49
1.0
 49
0.0
 49
0.0
 49
0.0
 49
0.0
 49
1.0
175
     0
142
0.0208333333333333
142
0.0
142
0.0
142
0.0
142
0.0
142
0.0208333333333333
142
0.0
142
0.0
142
0.0
142
0.0
142
1.0
142
0.0
142
0.0
142
0.0
142
0.0
142
1.0
179
     0
144
0.0208333333333333
144
0.0
144
0.0
144
0.0
144
0.0
144
0.0208333333333333
144
0.0
144
0.0
144
0.0
144
0.0
144
1.0
144
0.0
144
0.0
144
0.0
144
0.0
144
1.0
147
0.0208333333333333
147
0.0
147
0.0
147
0.0
147
0.0
147
0.0208333333333333
147
0.0
147
0.0
147
0.0
147
0.0
147
1.0
147
0.0
147
0.0
147
0.0
147
0.0
147
1.0
  0
MATERIAL
  5
83B6
102
{ACAD_XDICTIONARY
360
83B7
102
}
102
{ACAD_REACTORS
330
83B5
102
}
330
83B5
100
AcDbMaterial
  1
ByLayer
 72
     0
 43
0.0208333333333333
 43
0.0
 43
0.0
 43
0.0
 43
0.0
 43
0.0208333333333333
 43
0.0
 43
0.0
 43
0.0
 43
0.0
 43
1.0
 43
0.0
 43
0.0
 43
0.0
 43
0.0
 43
1.0
 77
     0
 47
0.0208333333333333
 47
0.0
 47
0.0
 47
0.0
 47
0.0
 47
0.0208333333333333
 47
0.0
 47
0.0
 47
0.0
 47
0.0
 47
1.0
 47
0.0
 47
0.0
 47
0.0
 47
0.0
 47
1.0
171
     0
 49
0.0208333333333333
 49
0.0
 49
0.0
 49
0.0
 49
0.0
 49
0.0208333333333333
 49
0.0
 49
0.0
 49
0.0
 49
0.0
 49
1.0
 49
0.0
 49
0.0
 49
0.0
 49
0.0
 49
1.0
175
     0
142
0.0208333333333333
142
0.0
142
0.0
142
0.0
142
0.0
142
0.0208333333333333
142
0.0
142
0.0
142
0.0
142
0.0
142
1.0
142
0.0
142
0.0
142
0.0
142
0.0
142
1.0
179
     0
144
0.0208333333333333
144
0.0
144
0.0
144
0.0
144
0.0
144
0.0208333333333333
144
0.0
144
0.0
144
0.0
144
0.0
144
1.0
144
0.0
144
0.0
144
0.0
144
0.0
144
1.0
147
0.0208333333333333
147
0.0
147
0.0
147
0.0
147
0.0
147
0.0208333333333333
147
0.0
147
0.0
147
0.0
147
0.0
147
1.0
147
0.0
147
0.0
147
0.0
147
0.0
147
1.0
  0
MATERIAL
  5
83C6
102
{ACAD_XDICTIONARY
360
83C7
102
}
102
{ACAD_REACTORS
330
83B5
102
}
330
83B5
100
AcDbMaterial
  1
Global
 72
     0
 43
0.0208333333333333
 43
0.0
 43
0.0
 43
0.0
 43
0.0
 43
0.0208333333333333
 43
0.0
 43
0.0
 43
0.0
 43
0.0
 43
1.0
 43
0.0
 43
0.0
 43
0.0
 43
0.0
 43
1.0
 77
     0
 47
0.0208333333333333
 47
0.0
 47
0.0
 47
0.0
 47
0.0
 47
0.0208333333333333
 47
0.0
 47
0.0
 47
0.0
 47
0.0
 47
1.0
 47
0.0
 47
0.0
 47
0.0
 47
0.0
 47
1.0
171
     0
 49
0.0208333333333333
 49
0.0
 49
0.0
 49
0.0
 49
0.0
 49
0.0208333333333333
 49
0.0
 49
0.0
 49
0.0
 49
0.0
 49
1.0
 49
0.0
 49
0.0
 49
0.0
 49
0.0
 49
1.0
175
     0
142
0.0208333333333333
142
0.0
142
0.0
142
0.0
142
0.0
142
0.0208333333333333
142
0.0
142
0.0
142
0.0
142
0.0
142
1.0
142
0.0
142
0.0
142
0.0
142
0.0
142
1.0
179
     0
144
0.0208333333333333
144
0.0
144
0.0
144
0.0
144
0.0
144
0.0208333333333333
144
0.0
144
0.0
144
0.0
144
0.0
144
1.0
144
0.0
144
0.0
144
0.0
144
0.0
144
1.0
147
0.0208333333333333
147
0.0
147
0.0
147
0.0
147
0.0
147
0.0208333333333333
147
0.0
147
0.0
147
0.0
147
0.0
147
1.0
147
0.0
147
0.0
147
0.0
147
0.0
147
1.0
  0
MLEADERSTYLE
  5
840B
102
{ACAD_REACTORS
330
840A
102
}
330
840A
100
AcDbMLeaderStyle
170
     2
171
     1
172
     0
 90
        2
 40
0.0
 41
0.0
173
     1
 91
-1056964608
340
83FF
 92
       -2
290
     1
 42
0.09
291
     1
 43
0.36
  3
Standard
 44
0.18
300

342
83FA
174
     1
178
     6
175
     1
176
     0
 93
-1056964608
 45
0.18
292
     0
297
     0
 46
0.18
 94
-1056964608
 47
1.0
 49
1.0
140
1.0
293
     1
141
0.0
294
     1
177
     0
142
1.0
295
     0
296
     0
143
0.125
1001
ACAD_MLEADERVER
1070
     2
  0
MLINESTYLE
  5
8404
102
{ACAD_REACTORS
330
8403
102
}
330
8403
100
AcDbMlineStyle
  2
STANDARD
 70
     0
  3

 62
   256
 51
90.0
 52
90.0
 71
     2
 49
0.5
 62
   256
  6
BYLAYER
 49
-0.5
 62
   256
  6
BYLAYER
  0
ACDBPLACEHOLDER
  5
83B4
102
{ACAD_REACTORS
330
83B3
102
}
330
83B3
  0
SCALE
  5
83E8
102
{ACAD_REACTORS
330
83E7
102
}
330
83E7
100
AcDbScale
 70
     0
300
1:1
140
1.0
141
1.0
290
     1
  0
SCALE
  5
83E9
102
{ACAD_REACTORS
330
83E7
102
}
330
83E7
100
AcDbScale
 70
     0
300
1/128" = 1'-0"
140
0.0078125
141
12.0
290
     0
  0
SCALE
  5
83EA
102
{ACAD_REACTORS
330
83E7
102
}
330
83E7
100
AcDbScale
 70
     0
300
1/64" = 1'-0"
140
0.015625
141
12.0
290
     0
  0
SCALE
  5
83EB
102
{ACAD_REACTORS
330
83E7
102
}
330
83E7
100
AcDbScale
 70
     0
300
1/32" = 1'-0"
140
0.03125
141
12.0
290
     0
  0
SCALE
  5
83EC
102
{ACAD_REACTORS
330
83E7
102
}
330
83E7
100
AcDbScale
 70
     0
300
1/16" = 1'-0"
140
0.0625
141
12.0
290
     0
  0
SCALE
  5
83ED
102
{ACAD_REACTORS
330
83E7
102
}
330
83E7
100
AcDbScale
 70
     0
300
3/32" = 1'-0"
140
0.09375
141
12.0
290
     0
  0
SCALE
  5
83EE
102
{ACAD_REACTORS
330
83E7
102
}
330
83E7
100
AcDbScale
 70
     0
300
1/8" = 1'-0"
140
0.125
141
12.0
290
     0
  0
SCALE
  5
83EF
102
{ACAD_REACTORS
330
83E7
102
}
330
83E7
100
AcDbScale
 70
     0
300
3/16" = 1'-0"
140
0.1875
141
12.0
290
     0
  0
SCALE
  5
83F0
102
{ACAD_REACTORS
330
83E7
102
}
330
83E7
100
AcDbScale
 70
     0
300
1/4" = 1'-0"
140
0.25
141
12.0
290
     0
  0
SCALE
  5
83F1
102
{ACAD_REACTORS
330
83E7
102
}
330
83E7
100
AcDbScale
 70
     0
300
3/8" = 1'-0"
140
0.375
141
12.0
290
     0
  0
SCALE
  5
83F2
102
{ACAD_REACTORS
330
83E7
102
}
330
83E7
100
AcDbScale
 70
     0
300
1/2" = 1'-0"
140
0.5
141
12.0
290
     0
  0
SCALE
  5
83F3
102
{ACAD_REACTORS
330
83E7
102
}
330
83E7
100
AcDbScale
 70
     0
300
3/4" = 1'-0"
140
0.75
141
12.0
290
     0
  0
SCALE
  5
83F4
102
{ACAD_REACTORS
330
83E7
102
}
330
83E7
100
AcDbScale
 70
     0
300
1" = 1'-0"
140
1.0
141
12.0
290
     0
  0
SCALE
  5
83F5
102
{ACAD_REACTORS
330
83E7
102
}
330
83E7
100
AcDbScale
 70
     0
300
1-1/2" = 1'-0"
140
1.5
141
12.0
290
     0
  0
SCALE
  5
83F6
102
{ACAD_REACTORS
330
83E7
102
}
330
83E7
100
AcDbScale
 70
     0
300
3" = 1'-0"
140
3.0
141
12.0
290
     0
  0
SCALE
  5
83F7
102
{ACAD_REACTORS
330
83E7
102
}
330
83E7
100
AcDbScale
 70
     0
300
6" = 1'-0"
140
6.0
141
12.0
290
     0
  0
SCALE
  5
83F8
102
{ACAD_REACTORS
330
83E7
102
}
330
83E7
100
AcDbScale
 70
     0
300
1'-0" = 1'-0"
140
12.0
141
12.0
290
     0
  0
ACDBSECTIONVIEWSTYLE
  5
840D
102
{ACAD_XDICTIONARY
360
86D2
102
}
102
{ACAD_REACTORS
330
840C
102
}
330
840C
100
AcDbModelDocViewStyle
 70
     0
  3
Imperial24
290
     0
100
AcDbSectionViewStyle
 70
     0
 71
     0
 90
       78
 71
     1
340
83FA
 40
0.24
340
0
340
0
 40
0.24
300
I, O, Q, S, X, Z
 40
0.48
 90
        3
 40
0.18
 90
        1
 71
     2
340
8401
 90
       25
340
8401
 90
       50
 40
0.24
 40
0.0
 40
0.24
 71
     3
340
83FA
 40
0.24
 90
        1
 40
0.75
 90
        1
300
%<\AcVar ViewType \f "%tc1">% %<\AcVar ViewSectionStartId>%-%<\AcVar ViewSectionEndId>%\PSCALE %<\AcVar ViewScale \f "%sn">%
 71
     4
300
ANSI31
 40
1.0
 90
        0
290
     0
290
     0
 90
        6
 40
0.0
 40
1.570796326794896
 40
0.2617993877991494
 40
1.308996938995747
 40
-0.2617993877991494
 40
1.832595714594046
  0
TABLESTYLE
  5
8409
102
{ACAD_XDICTIONARY
360
8699
102
}
102
{ACAD_REACTORS
330
8408
102
}
330
8408
100
AcDbTableStyle
  3
Standard
 70
     0
 71
     0
 40
0.06
 41
0.06
280
     0
281
     0
  7
STANDARD
140
0.18
170
     2
 62
     0
 63
     7
283
     0
274
    -2
284
     1
 64
     0
275
    -2
285
     1
 65
     0
276
    -2
286
     1
 66
     0
277
    -2
287
     1
 67
     0
278
    -2
288
     1
 68
     0
279
    -2
289
     1
 69
     0
  7
STANDARD
140
0.25
170
     5
 62
     0
 63
     7
283
     0
274
    -2
284
     1
 64
     0
275
    -2
285
     1
 65
     0
276
    -2
286
     1
 66
     0
277
    -2
287
     1
 67
     0
278
    -2
288
     1
 68
     0
279
    -2
289
     1
 69
     0
  7
STANDARD
140
0.18
170
     5
 62
     0
 63
     7
283
     0
274
    -2
284
     1
 64
     0
275
    -2
285
     1
 65
     0
276
    -2
286
     1
 66
     0
277
    -2
287
     1
 67
     0
278
    -2
288
     1
 68
     0
279
    -2
289
     1
 69
     0
  0
VISUALSTYLE
  5
83D4
102
{ACAD_XDICTIONARY
360
86AA
102
}
102
{ACAD_REACTORS
330
83CE
102
}
330
83CE
100
AcDbVisualStyle
  2
2dWireframe
 70
     4
 71
     0
 72
     2
 73
     0
 90
        0
 40
-0.6
 41
-30.0
 62
     5
 63
     7
 74
     1
 91
        4
 64
     7
 65
   257
 75
     1
175
     1
 42
1.0
 92
        0
 66
   257
 43
1.0
 76
     1
 77
     6
 78
     2
 67
     7
 79
     5
170
     0
171
     0
290
     0
174
     0
 93
        1
 44
0.0
173
     0
291
     0
 45
0.0
1001
ACAD
1000
AcDbSavedByObjectVersion
1070
     0
  0
VISUALSTYLE
  5
83D3
102
{ACAD_XDICTIONARY
360
86A8
102
}
102
{ACAD_REACTORS
330
83CE
102
}
330
83CE
100
AcDbVisualStyle
  2
Basic
 70
     7
 71
     1
 72
     0
 73
     1
 90
        0
 40
-0.6
 41
-30.0
 62
     5
 63
     7
 74
     0
 91
        4
 64
     7
 65
   257
 75
     1
175
     1
 42
1.0
 92
        8
 66
     7
 43
1.0
 76
     1
 77
     6
 78
     2
 67
     7
 79
     5
170
     0
171
     0
290
     0
174
     0
 93
        1
 44
0.0
173
     0
291
     1
 45
0.0
1001
ACAD
1000
AcDbSavedByObjectVersion
1070
     0
  0
VISUALSTYLE
  5
83DA
102
{ACAD_XDICTIONARY
360
86B6
102
}
102
{ACAD_REACTORS
330
83CE
102
}
330
83CE
100
AcDbVisualStyle
  2
Brighten
 70
    12
 71
     2
 72
     2
 73
     0
 90
        0
 40
-0.6
 41
-30.0
 62
     5
 63
     7
 74
     1
 91
        4
 64
     7
 65
   257
 75
     1
175
     1
 42
1.0
 92
        8
 66
     7
 43
1.0
 76
     1
 77
     6
 78
     2
 67
     7
 79
     5
170
     0
171
     0
290
     0
174
     0
 93
        1
 44
50.0
173
     0
291
     1
 45
0.0
1001
ACAD
1000
AcDbSavedByObjectVersion
1070
     0
  0
VISUALSTYLE
  5
83DE
102
{ACAD_XDICTIONARY
360
86BE
102
}
102
{ACAD_REACTORS
330
83CE
102
}
330
83CE
100
AcDbVisualStyle
  2
ColorChange
 70
    16
 71
     2
 72
     2
 73
     3
 90
        0
 40
-0.6
 41
-30.0
 62
     5
 63
     8
 74
     1
 91
        4
 64
     7
 65
   257
 75
     1
175
     1
 42
1.0
 92
        8
 66
     8
 43
1.0
 76
     1
 77
     6
 78
     2
 67
     7
 79
     5
170
     0
171
     0
290
     0
174
     0
 93
        1
 44
0.0
173
     0
291
     1
 45
0.0
1001
ACAD
1000
AcDbSavedByObjectVersion
1070
     0
  0
VISUALSTYLE
  5
83D7
102
{ACAD_XDICTIONARY
360
86B0
102
}
102
{ACAD_REACTORS
330
83CE
102
}
330
83CE
100
AcDbVisualStyle
  2
Conceptual
 70
     9
 71
     3
 72
     2
 73
     0
 90
        0
 40
-0.6
 41
-30.0
 62
     5
 63
     7
 74
     2
 91
        2
 64
     7
 65
   257
 75
     1
175
     1
 42
179.0
 92
        8
 66
     7
 43
1.0
 76
     1
 77
     6
 78
     2
 67
     7
 79
     3
170
     0
171
     0
290
     0
174
     0
 93
        1
 44
0.0
173
     0
291
     0
 45
0.0
1001
ACAD
1000
AcDbSavedByObjectVersion
1070
     0
  0
VISUALSTYLE
  5
83D9
102
{ACAD_XDICTIONARY
360
86B4
102
}
102
{ACAD_REACTORS
330
83CE
102
}
330
83CE
100
AcDbVisualStyle
  2
Dim
 70
    11
 71
     2
 72
     2
 73
     0
 90
        0
 40
-0.6
 41
-30.0
 62
     5
 63
     7
 74
     1
 91
        4
 64
     7
 65
   257
 75
     1
175
     1
 42
1.0
 92
        8
 66
     7
 43
1.0
 76
     1
 77
     6
 78
     2
 67
     7
 79
     5
170
     0
171
     0
290
     0
174
     0
 93
        1
 44
-50.0
173
     0
291
     1
 45
0.0
1001
ACAD
1000
AcDbSavedByObjectVersion
1070
     0
  0
VISUALSTYLE
  5
83E6
102
{ACAD_XDICTIONARY
360
86CE
102
}
102
{ACAD_REACTORS
330
83CE
102
}
330
83CE
100
AcDbVisualStyle
  2
EdgeColorOff
 70
    22
 71
     2
 72
     2
 73
     0
 90
        0
 40
-0.6
 41
-30.0
 62
     5
 63
     7
 74
     1
 91
        4
 64
     7
 65
   257
 75
     1
175
     1
 42
1.0
 92
        8
 66
     7
 43
1.0
 76
     1
 77
     6
 78
     2
 67
     7
 79
     5
170
     0
171
     0
290
     0
174
     0
 93
        1
 44
0.0
173
     0
291
     1
 45
0.0
1001
ACAD
1000
AcDbSavedByObjectVersion
1070
     0
  0
VISUALSTYLE
  5
83DD
102
{ACAD_XDICTIONARY
360
86BC
102
}
102
{ACAD_REACTORS
330
83CE
102
}
330
83CE
100
AcDbVisualStyle
  2
Facepattern
 70
    15
 71
     2
 72
     2
 73
     0
 90
        0
 40
-0.6
 41
-30.0
 62
     5
 63
     7
 74
     1
 91
        4
 64
     7
 65
   257
 75
     1
175
     1
 42
1.0
 92
        8
 66
     7
 43
1.0
 76
     1
 77
     6
 78
     2
 67
     7
 79
     5
170
     0
171
     0
290
     0
174
     0
 93
        1
 44
0.0
173
     0
291
     1
 45
0.0
1001
ACAD
1000
AcDbSavedByObjectVersion
1070
     0
  0
VISUALSTYLE
  5
83CF
102
{ACAD_XDICTIONARY
360
86A0
102
}
102
{ACAD_REACTORS
330
83CE
102
}
330
83CE
100
AcDbVisualStyle
  2
Flat
 70
     0
 71
     2
 72
     1
 73
     1
 90
        2
 40
-0.6
 41
30.0
 62
     5
 63
     7
 74
     0
 91
        0
 64
     7
 65
   257
 75
     1
175
     1
 42
1.0
 92
        8
 66
     7
 43
1.0
 76
     1
 77
     6
 78
     2
 67
     7
 79
     5
170
     0
171
     0
290
     0
174
     0
 93
       13
 44
0.0
173
     0
291
     1
 45
0.0
1001
ACAD
1000
AcDbSavedByObjectVersion
1070
     0
  0
VISUALSTYLE
  5
83D0
102
{ACAD_XDICTIONARY
360
86A2
102
}
102
{ACAD_REACTORS
330
83CE
102
}
330
83CE
100
AcDbVisualStyle
  2
FlatWithEdges
 70
     1
 71
     2
 72
     1
 73
     1
 90
        2
 40
-0.6
 41
30.0
 62
     5
 63
     7
 74
     1
 91
        0
 64
     7
 65
   257
 75
     1
175
     1
 42
1.0
 92
        0
 66
   257
 43
1.0
 76
     1
 77
     6
 78
     2
 67
     7
 79
     5
170
     0
171
     0
290
     0
174
     0
 93
       13
 44
0.0
173
     0
291
     1
 45
0.0
1001
ACAD
1000
AcDbSavedByObjectVersion
1070
     0
  0
VISUALSTYLE
  5
83D1
102
{ACAD_XDICTIONARY
360
86A4
102
}
102
{ACAD_REACTORS
330
83CE
102
}
330
83CE
100
AcDbVisualStyle
  2
Gouraud
 70
     2
 71
     2
 72
     2
 73
     1
 90
        2
 40
-0.6
 41
30.0
 62
     5
 63
     7
 74
     0
 91
        0
 64
     7
 65
   257
 75
     1
175
     1
 42
1.0
 92
        0
 66
     7
 43
1.0
 76
     1
 77
     6
 78
     2
 67
     7
 79
     5
170
     0
171
     0
290
     0
174
     0
 93
       13
 44
0.0
173
     0
291
     1
 45
0.0
1001
ACAD
1000
AcDbSavedByObjectVersion
1070
     0
  0
VISUALSTYLE
  5
83D2
102
{ACAD_XDICTIONARY
360
86A6
102
}
102
{ACAD_REACTORS
330
83CE
102
}
330
83CE
100
AcDbVisualStyle
  2
GouraudWithEdges
 70
     3
 71
     2
 72
     2
 73
     1
 90
        2
 40
-0.6
 41
30.0
 62
     5
 63
     7
 74
     1
 91
        0
 64
     7
 65
   257
 75
     1
175
     1
 42
1.0
 92
        0
 66
   257
 43
1.0
 76
     1
 77
     6
 78
     2
 67
     7
 79
     5
170
     0
171
     0
290
     0
174
     0
 93
       13
 44
0.0
173
     0
291
     1
 45
0.0
1001
ACAD
1000
AcDbSavedByObjectVersion
1070
     0
  0
VISUALSTYLE
  5
83D6
102
{ACAD_XDICTIONARY
360
86AE
102
}
102
{ACAD_REACTORS
330
83CE
102
}
330
83CE
100
AcDbVisualStyle
  2
Hidden
 70
     6
 71
     1
 72
     2
 73
     2
 90
        0
 40
-0.6
 41
-30.0
 62
     5
 63
     7
 74
     2
 91
        2
 64
     7
 65
   257
 75
     2
175
     1
 42
40.0
 92
        0
 66
   257
 43
1.0
 76
     1
 77
     6
 78
     2
 67
     7
 79
     3
170
     0
171
     0
290
     0
174
     0
 93
        1
 44
0.0
173
     0
291
     0
 45
0.0
1001
ACAD
1000
AcDbSavedByObjectVersion
1070
     0
  0
VISUALSTYLE
  5
83E4
102
{ACAD_XDICTIONARY
360
86CA
102
}
102
{ACAD_REACTORS
330
83CE
102
}
330
83CE
100
AcDbVisualStyle
  2
JitterOff
 70
    20
 71
     2
 72
     2
 73
     0
 90
        0
 40
-0.6
 41
-30.0
 62
     5
 63
     7
 74
     1
 91
        4
 64
     7
 65
   257
 75
     1
175
     1
 42
1.0
 92
       10
 66
     7
 43
1.0
 76
     1
 77
     6
 78
     2
 67
     7
 79
     5
170
     0
171
     0
290
     0
174
     0
 93
        1
 44
0.0
173
     0
291
     1
 45
0.0
1001
ACAD
1000
AcDbSavedByObjectVersion
1070
     0
  0
VISUALSTYLE
  5
83DC
102
{ACAD_XDICTIONARY
360
86BA
102
}
102
{ACAD_REACTORS
330
83CE
102
}
330
83CE
100
AcDbVisualStyle
  2
Linepattern
 70
    14
 71
     2
 72
     2
 73
     0
 90
        0
 40
-0.6
 41
-30.0
 62
     5
 63
     7
 74
     1
 91
        4
 64
     7
 65
   257
 75
     7
175
     7
 42
1.0
 92
        8
 66
     7
 43
1.0
 76
     1
 77
     6
 78
     2
 67
     7
 79
     5
170
     0
171
     0
290
     0
174
     0
 93
        1
 44
0.0
173
     0
291
     1
 45
0.0
1001
ACAD
1000
AcDbSavedByObjectVersion
1070
     0
  0
VISUALSTYLE
  5
83E5
102
{ACAD_XDICTIONARY
360
86CC
102
}
102
{ACAD_REACTORS
330
83CE
102
}
330
83CE
100
AcDbVisualStyle
  2
OverhangOff
 70
    21
 71
     2
 72
     2
 73
     0
 90
        0
 40
-0.6
 41
-30.0
 62
     5
 63
     7
 74
     1
 91
        4
 64
     7
 65
   257
 75
     1
175
     1
 42
1.0
 92
        9
 66
     7
 43
1.0
 76
     1
 77
     6
 78
     2
 67
     7
 79
     5
170
     0
171
     0
290
     0
174
     0
 93
        1
 44
0.0
173
     0
291
     1
 45
0.0
1001
ACAD
1000
AcDbSavedByObjectVersion
1070
     0
  0
VISUALSTYLE
  5
83D8
102
{ACAD_XDICTIONARY
360
86B2
102
}
102
{ACAD_REACTORS
330
83CE
102
}
330
83CE
100
AcDbVisualStyle
  2
Realistic
 70
     8
 71
     2
 72
     3
 73
     0
 90
        2
 40
-0.6
 41
30.0
 62
     5
 63
     7
 74
     0
 91
        0
 64
     7
 65
   257
 75
     1
175
     1
 42
1.0
 92
        8
 66
   257
 43
1.0
 76
     1
 77
     6
 78
     2
 67
     7
 79
     3
170
     0
171
     0
290
     0
174
     0
 93
       13
 44
0.0
173
     0
291
     0
 45
0.0
1001
ACAD
1000
AcDbSavedByObjectVersion
1070
     0
  0
VISUALSTYLE
  5
83E3
102
{ACAD_XDICTIONARY
360
86C8
102
}
102
{ACAD_REACTORS
330
83CE
102
}
330
83CE
100
AcDbVisualStyle
  2
Shaded
 70
    27
 71
     2
 72
     2
 73
     1
 90
        2
 40
-0.6
 41
30.0
 62
     5
 63
     7
 74
     0
 91
        4
 64
     7
 65
   257
 75
     1
175
     1
 42
1.0
 92
        8
 66
   257
 43
1.0
 76
     1
 77
     6
 78
     2
 67
     8
 79
     3
170
     0
171
     0
290
     0
174
     0
 93
        5
 44
0.0
173
     0
291
     0
 45
0.0
1001
ACAD
1000
AcDbSavedByObjectVersion
1070
     0
  0
VISUALSTYLE
  5
83E2
102
{ACAD_XDICTIONARY
360
86C6
102
}
102
{ACAD_REACTORS
330
83CE
102
}
330
83CE
100
AcDbVisualStyle
  2
Shaded with edges
 70
    26
 71
     2
 72
     2
 73
     1
 90
        2
 40
-0.6
 41
30.0
 62
     5
 63
     7
 74
     1
 91
       10
 64
     7
 65
   257
 75
     2
175
     1
 42
1.0
 92
        8
 66
   257
 43
1.0
 76
     1
 77
     6
 78
     2
 67
     7
 79
     3
170
     0
171
     0
290
     0
174
     0
 93
        5
 44
0.0
173
     0
291
     0
 45
0.0
1001
ACAD
1000
AcDbSavedByObjectVersion
1070
     0
  0
VISUALSTYLE
  5
83DF
102
{ACAD_XDICTIONARY
360
86C0
102
}
102
{ACAD_REACTORS
330
83CE
102
}
330
83CE
100
AcDbVisualStyle
  2
Shades of Gray
 70
    23
 71
     2
 72
     2
 73
     3
 90
        0
 40
-0.6
 41
-30.0
 62
     5
 63
     7
 74
     2
 91
        2
 64
     7
 65
     7
 75
     1
175
     1
 42
40.0
 92
        8
 66
     7
 43
1.0
 76
     1
 77
     6
 78
     2
 67
     7
 79
     3
170
     0
171
     0
290
     0
174
     0
 93
        1
 44
0.0
173
     0
291
     0
 45
0.0
1001
ACAD
1000
AcDbSavedByObjectVersion
1070
     0
  0
VISUALSTYLE
  5
83E0
102
{ACAD_XDICTIONARY
360
86C2
102
}
102
{ACAD_REACTORS
330
83CE
102
}
330
83CE
100
AcDbVisualStyle
  2
Sketchy
 70
    24
 71
     1
 72
     2
 73
     2
 90
        0
 40
-0.6
 41
-30.0
 62
     5
 63
     7
 74
     2
 91
        2
 64
     7
 65
     7
 75
     1
175
     1
 42
40.0
 92
       11
 66
     7
 43
1.0
 76
     1
 77
     6
 78
     2
 67
     7
 79
     6
170
     0
171
     0
290
     0
174
     0
 93
        1
 44
0.0
173
     0
291
     0
 45
0.0
1001
ACAD
1000
AcDbSavedByObjectVersion
1070
     0
  0
VISUALSTYLE
  5
83DB
102
{ACAD_XDICTIONARY
360
86B8
102
}
102
{ACAD_REACTORS
330
83CE
102
}
330
83CE
100
AcDbVisualStyle
  2
Thicken
 70
    13
 71
     2
 72
     2
 73
     0
 90
        0
 40
-0.6
 41
-30.0
 62
     5
 63
     7
 74
     1
 91
        4
 64
     7
 65
   257
 75
     1
175
     1
 42
1.0
 92
       12
 66
     7
 43
1.0
 76
     1
 77
     6
 78
     2
 67
     7
 79
     5
170
     0
171
     0
290
     0
174
     0
 93
        1
 44
0.0
173
     0
291
     1
 45
0.0
1001
ACAD
1000
AcDbSavedByObjectVersion
1070
     0
  0
VISUALSTYLE
  5
83D5
102
{ACAD_XDICTIONARY
360
86AC
102
}
102
{ACAD_REACTORS
330
83CE
102
}
330
83CE
100
AcDbVisualStyle
  2
Wireframe
 70
     5
 71
     0
 72
     2
 73
     0
 90
        0
 40
-0.6
 41
-30.0
 62
     5
 63
     7
 74
     1
 91
        4
 64
     7
 65
   257
 75
     1
175
     1
 42
1.0
 92
        0
 66
   257
 43
1.0
 76
     1
 77
     6
 78
     2
 67
     7
 79
     3
170
     0
171
     0
290
     0
174
     0
 93
        1
 44
0.0
173
     0
291
     0
 45
0.0
1001
ACAD
1000
AcDbSavedByObjectVersion
1070
     0
  0
VISUALSTYLE
  5
83E1
102
{ACAD_XDICTIONARY
360
86C4
102
}
102
{ACAD_REACTORS
330
83CE
102
}
330
83CE
100
AcDbVisualStyle
  2
X-Ray
 70
    25
 71
     2
 72
     2
 73
     1
 90
        1
 40
0.5
 41
-30.0
 62
     5
 63
     7
 74
     1
 91
        0
 64
     7
 65
   257
 75
     1
175
     1
 42
1.0
 92
        8
 66
     7
 43
1.0
 76
     1
 77
     6
 78
     2
 67
     7
 79
     3
170
     0
171
     0
290
     0
174
     0
 93
       13
 44
0.0
173
     0
291
     0
 45
0.0
1001
ACAD
1000
AcDbSavedByObjectVersion
1070
     0
  0
DICTIONARYVAR
  5
8474
102
{ACAD_REACTORS
330
846F
102
}
330
846F
100
DictionaryVariables
280
     0
  1
1:1
  0
DICTIONARYVAR
  5
8471
102
{ACAD_REACTORS
330
846F
102
}
330
846F
100
DictionaryVariables
280
     0
  1
STANDARD
  0
DICTIONARYVAR
  5
8470
102
{ACAD_REACTORS
330
846F
102
}
330
846F
100
DictionaryVariables
280
     0
  1
STANDARD
  0
DICTIONARYVAR
  5
8472
102
{ACAD_REACTORS
330
846F
102
}
330
846F
100
DictionaryVariables
280
     0
  1
Imperial24
  0
DICTIONARYVAR
  5
8473
102
{ACAD_REACTORS
330
846F
102
}
330
846F
100
DictionaryVariables
280
     0
  1
Imperial24
  0
DICTIONARYVAR
  5
8477
102
{ACAD_REACTORS
330
846F
102
}
330
846F
100
DictionaryVariables
280
     0
  1
1
  0
DICTIONARYVAR
  5
8476
102
{ACAD_REACTORS
330
846F
102
}
330
846F
100
DictionaryVariables
280
     0
  1
0
  0
DICTIONARYVAR
  5
8475
102
{ACAD_REACTORS
330
846F
102
}
330
846F
100
DictionaryVariables
280
     0
  1
127
  0
DICTIONARYVAR
  5
8478
102
{ACAD_REACTORS
330
846F
102
}
330
846F
100
DictionaryVariables
280
     0
  1
2
  0
DICTIONARY
  5
86D4
330
840F
100
AcDbDictionary
280
     1
281
     1
  3
ACAD_XREC_ROUNDTRIP
360
86D5
  0
DICTIONARY
  5
86D8
330
8417
100
AcDbDictionary
280
     1
281
     1
  3
ACAD_XREC_ROUNDTRIP
360
86D9
  0
DICTIONARY
  5
86D6
330
8413
100
AcDbDictionary
280
     1
281
     1
  3
ACAD_XREC_ROUNDTRIP
360
86D7
  0
DICTIONARY
  5
83BF
330
83BE
100
AcDbDictionary
280
     1
281
     1
  3
ACAD_XREC_ROUNDTRIP
360
869E
  3
BUMPTILE
360
83C1
  3
DIFFUSETILE
360
83C0
  3
OPACITYTILE
360
83C4
  3
REFLECTIONTILE
360
83C3
  3
REFRACTIONTILE
360
83C5
  3
SPECULARTILE
360
83C2
  0
DICTIONARY
  5
83B7
330
83B6
100
AcDbDictionary
280
     1
281
     1
  3
ACAD_XREC_ROUNDTRIP
360
869D
  3
BUMPTILE
360
83B9
  3
DIFFUSETILE
360
83B8
  3
OPACITYTILE
360
83BC
  3
REFLECTIONTILE
360
83BB
  3
REFRACTIONTILE
360
83BD
  3
SPECULARTILE
360
83BA
  0
DICTIONARY
  5
83C7
330
83C6
100
AcDbDictionary
280
     1
281
     1
  3
ACAD_XREC_ROUNDTRIP
360
869F
  3
BUMPTILE
360
83C9
  3
DIFFUSETILE
360
83C8
  3
OPACITYTILE
360
83CC
  3
REFLECTIONTILE
360
83CB
  3
REFRACTIONTILE
360
83CD
  3
SPECULARTILE
360
83CA
  0
DICTIONARY
  5
86D2
330
840D
100
AcDbDictionary
280
     1
281
     1
  3
ACAD_XREC_ROUNDTRIP
360
86D3
  0
DICTIONARY
  5
8699
330
8409
100
AcDbDictionary
280
     1
281
     1
  3
ACAD_ROUNDTRIP_2008_TABLESTYLE_CELLSTYLEMAP
360
869A
  3
ACAD_XREC_ROUNDTRIP
360
86D0
  0
DICTIONARY
  5
86AA
330
83D4
100
AcDbDictionary
280
     1
281
     1
  3
ACAD_XREC_ROUNDTRIP
360
86AB
  0
DICTIONARY
  5
86A8
330
83D3
100
AcDbDictionary
280
     1
281
     1
  3
ACAD_XREC_ROUNDTRIP
360
86A9
  0
DICTIONARY
  5
86B6
330
83DA
100
AcDbDictionary
280
     1
281
     1
  3
ACAD_XREC_ROUNDTRIP
360
86B7
  0
DICTIONARY
  5
86BE
330
83DE
100
AcDbDictionary
280
     1
281
     1
  3
ACAD_XREC_ROUNDTRIP
360
86BF
  0
DICTIONARY
  5
86B0
330
83D7
100
AcDbDictionary
280
     1
281
     1
  3
ACAD_XREC_ROUNDTRIP
360
86B1
  0
DICTIONARY
  5
86B4
330
83D9
100
AcDbDictionary
280
     1
281
     1
  3
ACAD_XREC_ROUNDTRIP
360
86B5
  0
DICTIONARY
  5
86CE
330
83E6
100
AcDbDictionary
280
     1
281
     1
  3
ACAD_XREC_ROUNDTRIP
360
86CF
  0
DICTIONARY
  5
86BC
330
83DD
100
AcDbDictionary
280
     1
281
     1
  3
ACAD_XREC_ROUNDTRIP
360
86BD
  0
DICTIONARY
  5
86A0
330
83CF
100
AcDbDictionary
280
     1
281
     1
  3
ACAD_XREC_ROUNDTRIP
360
86A1
  0
DICTIONARY
  5
86A2
330
83D0
100
AcDbDictionary
280
     1
281
     1
  3
ACAD_XREC_ROUNDTRIP
360
86A3
  0
DICTIONARY
  5
86A4
330
83D1
100
AcDbDictionary
280
     1
281
     1
  3
ACAD_XREC_ROUNDTRIP
360
86A5
  0
DICTIONARY
  5
86A6
330
83D2
100
AcDbDictionary
280
     1
281
     1
  3
ACAD_XREC_ROUNDTRIP
360
86A7
  0
DICTIONARY
  5
86AE
330
83D6
100
AcDbDictionary
280
     1
281
     1
  3
ACAD_XREC_ROUNDTRIP
360
86AF
  0
DICTIONARY
  5
86CA
330
83E4
100
AcDbDictionary
280
     1
281
     1
  3
ACAD_XREC_ROUNDTRIP
360
86CB
  0
DICTIONARY
  5
86BA
330
83DC
100
AcDbDictionary
280
     1
281
     1
  3
ACAD_XREC_ROUNDTRIP
360
86BB
  0
DICTIONARY
  5
86CC
330
83E5
100
AcDbDictionary
280
     1
281
     1
  3
ACAD_XREC_ROUNDTRIP
360
86CD
  0
DICTIONARY
  5
86B2
330
83D8
100
AcDbDictionary
280
     1
281
     1
  3
ACAD_XREC_ROUNDTRIP
360
86B3
  0
DICTIONARY
  5
86C8
330
83E3
100
AcDbDictionary
280
     1
281
     1
  3
ACAD_XREC_ROUNDTRIP
360
86C9
  0
DICTIONARY
  5
86C6
330
83E2
100
AcDbDictionary
280
     1
281
     1
  3
ACAD_XREC_ROUNDTRIP
360
86C7
  0
DICTIONARY
  5
86C0
330
83DF
100
AcDbDictionary
280
     1
281
     1
  3
ACAD_XREC_ROUNDTRIP
360
86C1
  0
DICTIONARY
  5
86C2
330
83E0
100
AcDbDictionary
280
     1
281
     1
  3
ACAD_XREC_ROUNDTRIP
360
86C3
  0
DICTIONARY
  5
86B8
330
83DB
100
AcDbDictionary
280
     1
281
     1
  3
ACAD_XREC_ROUNDTRIP
360
86B9
  0
DICTIONARY
  5
86AC
330
83D5
100
AcDbDictionary
280
     1
281
     1
  3
ACAD_XREC_ROUNDTRIP
360
86AD
  0
DICTIONARY
  5
86C4
330
83E1
100
AcDbDictionary
280
     1
281
     1
  3
ACAD_XREC_ROUNDTRIP
360
86C5
  0
XRECORD
  5
86D5
102
{ACAD_REACTORS
330
86D4
102
}
330
86D4
100
AcDbXrecord
280
     1
102
DISPLAYNAME
  1
Imperial24
102
FLAGS
 90
        0
  0
XRECORD
  5
86D9
102
{ACAD_REACTORS
330
86D8
102
}
330
86D8
100
AcDbXrecord
280
     1
102
SHADEPLOT
 70
     0
102
SHADEPLOTRESLEVEL
 70
     2
102
SHADEPLOTCUSTOMDPI
 70
   300
  0
XRECORD
  5
86D7
102
{ACAD_REACTORS
330
86D6
102
}
330
86D6
100
AcDbXrecord
280
     1
102
SHADEPLOT
 70
     0
102
SHADEPLOTRESLEVEL
 70
     2
102
SHADEPLOTCUSTOMDPI
 70
   300
  0
XRECORD
  5
869E
102
{ACAD_REACTORS
330
83BF
102
}
330
83BF
100
AcDbXrecord
280
     1
102
MATERIAL
148
0.0
149
0.0
149
0.0
 93
        0
 94
      127
282
     0
 72
     0
 77
     0
171
     0
175
     0
179
     0
273
     0
  0
XRECORD
  5
83C1
102
{ACAD_REACTORS
330
83BF
102
}
330
83BF
100
AcDbXrecord
280
     1
270
     1
271
     1
  0
XRECORD
  5
83C0
102
{ACAD_REACTORS
330
83BF
102
}
330
83BF
100
AcDbXrecord
280
     1
270
     1
271
     1
  0
XRECORD
  5
83C4
102
{ACAD_REACTORS
330
83BF
102
}
330
83BF
100
AcDbXrecord
280
     1
270
     1
271
     1
  0
XRECORD
  5
83C3
102
{ACAD_REACTORS
330
83BF
102
}
330
83BF
100
AcDbXrecord
280
     1
270
     1
271
     1
  0
XRECORD
  5
83C5
102
{ACAD_REACTORS
330
83BF
102
}
330
83BF
100
AcDbXrecord
280
     1
270
     1
271
     1
  0
XRECORD
  5
83C2
102
{ACAD_REACTORS
330
83BF
102
}
330
83BF
100
AcDbXrecord
280
     1
270
     1
271
     1
  0
XRECORD
  5
869D
102
{ACAD_REACTORS
330
83B7
102
}
330
83B7
100
AcDbXrecord
280
     1
102
MATERIAL
148
0.0
149
0.0
149
0.0
 93
        0
 94
      127
282
     0
 72
     0
 77
     0
171
     0
175
     0
179
     0
273
     0
  0
XRECORD
  5
83B9
102
{ACAD_REACTORS
330
83B7
102
}
330
83B7
100
AcDbXrecord
280
     1
270
     1
271
     1
  0
XRECORD
  5
83B8
102
{ACAD_REACTORS
330
83B7
102
}
330
83B7
100
AcDbXrecord
280
     1
270
     1
271
     1
  0
XRECORD
  5
83BC
102
{ACAD_REACTORS
330
83B7
102
}
330
83B7
100
AcDbXrecord
280
     1
270
     1
271
     1
  0
XRECORD
  5
83BB
102
{ACAD_REACTORS
330
83B7
102
}
330
83B7
100
AcDbXrecord
280
     1
270
     1
271
     1
  0
XRECORD
  5
83BD
102
{ACAD_REACTORS
330
83B7
102
}
330
83B7
100
AcDbXrecord
280
     1
270
     1
271
     1
  0
XRECORD
  5
83BA
102
{ACAD_REACTORS
330
83B7
102
}
330
83B7
100
AcDbXrecord
280
     1
270
     1
271
     1
  0
XRECORD
  5
869F
102
{ACAD_REACTORS
330
83C7
102
}
330
83C7
100
AcDbXrecord
280
     1
102
MATERIAL
148
0.0
149
0.0
149
0.0
 93
        0
 94
      127
282
     0
 72
     0
 77
     0
171
     0
175
     0
179
     0
273
     0
  0
XRECORD
  5
83C9
102
{ACAD_REACTORS
330
83C7
102
}
330
83C7
100
AcDbXrecord
280
     1
270
     1
271
     1
  0
XRECORD
  5
83C8
102
{ACAD_REACTORS
330
83C7
102
}
330
83C7
100
AcDbXrecord
280
     1
270
     1
271
     1
  0
XRECORD
  5
83CC
102
{ACAD_REACTORS
330
83C7
102
}
330
83C7
100
AcDbXrecord
280
     1
270
     1
271
     1
  0
XRECORD
  5
83CB
102
{ACAD_REACTORS
330
83C7
102
}
330
83C7
100
AcDbXrecord
280
     1
270
     1
271
     1
  0
XRECORD
  5
83CD
102
{ACAD_REACTORS
330
83C7
102
}
330
83C7
100
AcDbXrecord
280
     1
270
     1
271
     1
  0
XRECORD
  5
83CA
102
{ACAD_REACTORS
330
83C7
102
}
330
83C7
100
AcDbXrecord
280
     1
270
     1
271
     1
  0
XRECORD
  5
86D3
102
{ACAD_REACTORS
330
86D2
102
}
330
86D2
100
AcDbXrecord
280
     1
102
DISPLAYNAME
  1
Imperial24
102
FLAGS
 90
        0
  0
CELLSTYLEMAP
  5
869A
102
{ACAD_REACTORS
330
8699
102
}
330
8699
100
AcDbCellStyleMap
 90
        3
300
CELLSTYLE
  1
TABLEFORMAT_BEGIN
 90
        5
170
     1
 91
        0
 92
    32768
 62
   257
 93
        1
300
CONTENTFORMAT
  1
CONTENTFORMAT_BEGIN
 90
        0
 91
        0
 92
      512
 93
        0
300

 40
0.0
140
1.0
 94
        5
 62
     0
340
83FA
144
0.25
309
CONTENTFORMAT_END
171
     0
 94
        0
309
TABLEFORMAT_END
  1
CELLSTYLE_BEGIN
 90
        1
 91
        1
300
_TITLE
309
CELLSTYLE_END
300
CELLSTYLE
  1
TABLEFORMAT_BEGIN
 90
        5
170
     1
 91
        0
 92
        0
 62
   257
 93
        1
300
CONTENTFORMAT
  1
CONTENTFORMAT_BEGIN
 90
        0
 91
        0
 92
      512
 93
        0
300

 40
0.0
140
1.0
 94
        5
 62
     0
340
83FA
144
0.18
309
CONTENTFORMAT_END
171
     0
 94
        0
309
TABLEFORMAT_END
  1
CELLSTYLE_BEGIN
 90
        2
 91
        1
300
_HEADER
309
CELLSTYLE_END
300
CELLSTYLE
  1
TABLEFORMAT_BEGIN
 90
        5
170
     1
 91
        0
 92
        0
 62
   257
 93
        1
300
CONTENTFORMAT
  1
CONTENTFORMAT_BEGIN
 90
        0
 91
        0
 92
      512
 93
        0
300

 40
0.0
140
1.0
 94
        2
 62
     0
340
83FA
144
0.18
309
CONTENTFORMAT_END
171
     0
 94
        0
309
TABLEFORMAT_END
  1
CELLSTYLE_BEGIN
 90
        3
 91
        2
300
_DATA
309
CELLSTYLE_END
  0
XRECORD
  5
86D0
102
{ACAD_REACTORS
330
8699
102
}
330
8699
100
AcDbXrecord
280
     1
102
ACAD_ROUNDTRIP_PRE2007_TABLESTYLE
 90
      512
 91
        0
  1

 92
      512
 93
        0
  2

 94
      512
 95
        0
  3

  0
XRECORD
  5
86AB
102
{ACAD_REACTORS
330
86AA
102
}
330
86AA
100
AcDbXrecord
280
     1
102
RTVSPost2010Prop28
280
     1
102
RTVSPost2010PropOp28
 70
     1
102
RTVSPost2010Prop29
280
     1
102
RTVSPost2010PropOp29
 70
     1
102
RTVSPost2010Prop30
280
     0
102
RTVSPost2010PropOp30
 70
     1
102
RTVSPost2010Prop31
280
     0
102
RTVSPost2010PropOp31
 70
     1
102
RTVSPost2010Prop32
280
     0
102
RTVSPost2010PropOp32
 70
     1
102
RTVSPost2010Prop33
280
     0
102
RTVSPost2010PropOp33
 70
     1
102
RTVSPost2010Prop34
280
     0
102
RTVSPost2010PropOp34
 70
     1
102
RTVSPost2010Prop35
280
     0
102
RTVSPost2010PropOp35
 70
     1
102
RTVSPost2010Prop36
280
     0
102
RTVSPost2010PropOp36
 70
     1
102
RTVSPost2010Prop37
 90
       50
102
RTVSPost2010PropOp37
 70
     1
102
RTVSPost2010Prop38
140
0.0
102
RTVSPost2010PropOp38
 70
     1
102
RTVSPost2010Prop39
140
1.0
102
RTVSPost2010PropOp39
 70
     1
102
RTVSPost2010Prop40
 90
        0
102
RTVSPost2010PropOp40
 70
     1
102
RTVSPost2010Prop41ColorIndex
 90
       18
102
RTVSPost2010Prop41ColorRGB
 90
        0
102
RTVSPost2010PropOp41
 70
     1
102
RTVSPost2010Prop42
 90
       50
102
RTVSPost2010PropOp42
 70
     1
102
RTVSPost2010Prop43
 90
        3
102
RTVSPost2010PropOp43
 70
     1
102
RTVSPost2010Prop44ColorIndex
 90
        5
102
RTVSPost2010Prop44ColorRGB
 90
      255
102
RTVSPost2010PropOp44
 70
     1
102
RTVSPost2010Prop45
280
     0
102
RTVSPost2010PropOp45
 70
     1
102
RTVSPost2010Prop46
 90
       50
102
RTVSPost2010PropOp46
 70
     1
102
RTVSPost2010Prop47
 90
       50
102
RTVSPost2010PropOp47
 70
     1
102
RTVSPost2010Prop48
 90
       50
102
RTVSPost2010PropOp48
 70
     1
102
RTVSPost2010Prop49
280
     0
102
RTVSPost2010PropOp49
 70
     1
102
RTVSPost2010Prop50
 90
       50
102
RTVSPost2010PropOp50
 70
     1
102
RTVSPost2010Prop51ColorIndex
 90
      256
102
RTVSPost2010Prop51ColorRGB
 90
-16777216
102
RTVSPost2010PropOp51
 70
     0
102
RTVSPost2010Prop52
140
1.0
102
RTVSPost2010PropOp52
 70
     0
102
RTVSPost2010Prop53
 90
        2
102
RTVSPost2010PropOp53
 70
     1
102
RTVSPost2010Prop54
  1
strokes_ogs.tif
102
RTVSPost2010PropOp54
 70
     1
102
RTVSPost2010Prop55
280
     0
102
RTVSPost2010PropOp55
 70
     1
102
RTVSPost2010Prop56
140
1.0
102
RTVSPost2010PropOp56
 70
     1
102
RTVSPost2010Prop57
140
1.0
102
RTVSPost2010PropOp57
 70
     1
102
RTVSPropertyOp0
 70
     1
102
RTVSPropertyOp1
 70
     1
102
RTVSPropertyOp2
 70
     1
102
RTVSPropertyOp3
 70
     1
102
RTVSPropertyOp4
 70
     1
102
RTVSPropertyOp5
 70
     1
102
RTVSPropertyOp6
 70
     1
102
RTVSPropertyOp7
 70
     1
102
RTVSPropertyOp8
 70
     1
102
RTVSPropertyOp9
 70
     1
102
RTVSPropertyOp10
 70
     1
102
RTVSPropertyOp11
 70
     1
102
RTVSPropertyOp12
 70
     1
102
RTVSPropertyOp13
 70
     1
102
RTVSPropertyOp14
 70
     1
102
RTVSPropertyOp15
 70
     1
102
RTVSPropertyOp16
 70
     1
102
RTVSPropertyOp17
 70
     1
102
RTVSPropertyOp18
 70
     1
102
RTVSPropertyOp19
 70
     1
102
RTVSPropertyOp20
 70
     1
102
RTVSPropertyOp21
 70
     1
102
RTVSPropertyOp22
 70
     1
102
RTVSPropertyOp23
 70
     1
102
RTVSPropertyOp24
 70
     1
102
RTVSPropertyOp25
 70
     1
102
RTVSPropertyOp26
 70
     1
102
RTVSPropertyOp27
 70
     1
102
RTVSPropertyOp28
 70
     1
102
RTVSPropertyOp29
 70
     1
102
RTVSPropertyOp30
 70
     1
102
RTVSPropertyOp31
 70
     1
102
RTVSPropertyOp32
 70
     1
102
RTVSPropertyOp33
 70
     1
102
RTVSPropertyOp34
 70
     1
102
RTVSPropertyOp35
 70
     1
102
RTVSPropertyOp36
 70
     1
102
RTVSPropertyOp37
 70
     1
102
RTVSPropertyOp38
 70
     1
102
RTVSPropertyOp39
 70
     1
102
RTVSPropertyOp40
 70
     1
102
RTVSPropertyOp41
 70
     1
102
RTVSPropertyOp42
 70
     1
102
RTVSPropertyOp43
 70
     1
102
RTVSPropertyOp44
 70
     1
102
RTVSPropertyOp45
 70
     1
102
RTVSPropertyOp46
 70
     1
102
RTVSPropertyOp47
 70
     1
102
RTVSPropertyOp48
 70
     1
102
RTVSPropertyOp49
 70
     1
102
RTVSPropertyOp50
 70
     1
102
RTVSPropertyOp51
 70
     0
102
RTVSPropertyOp52
 70
     0
102
RTVSPropertyOp53
 70
     1
102
RTVSPropertyOp54
 70
     1
102
RTVSPropertyOp55
 70
     1
102
RTVSPropertyOp56
 70
     1
102
RTVSPropertyOp57
 70
     1
102
RTVSPropertyOp58
 70
     1
102
RTVSPropertyOp59
 70
     1
102
RTVSPropertyOp60
 70
     1
102
RTVSPropertyOp61
 70
     1
102
RTVSPropertyOp62
 70
     1
  0
XRECORD
  5
86A9
102
{ACAD_REACTORS
330
86A8
102
}
330
86A8
100
AcDbXrecord
280
     1
102
RTVSPost2010Prop28
280
     0
102
RTVSPost2010PropOp28
 70
     1
102
RTVSPost2010Prop29
280
     1
102
RTVSPost2010PropOp29
 70
     1
102
RTVSPost2010Prop30
280
     1
102
RTVSPost2010PropOp30
 70
     1
102
RTVSPost2010Prop31
280
     0
102
RTVSPost2010PropOp31
 70
     1
102
RTVSPost2010Prop32
280
     0
102
RTVSPost2010PropOp32
 70
     1
102
RTVSPost2010Prop33
280
     0
102
RTVSPost2010PropOp33
 70
     1
102
RTVSPost2010Prop34
280
     0
102
RTVSPost2010PropOp34
 70
     1
102
RTVSPost2010Prop35
280
     0
102
RTVSPost2010PropOp35
 70
     1
102
RTVSPost2010Prop36
280
     0
102
RTVSPost2010PropOp36
 70
     1
102
RTVSPost2010Prop37
 90
       50
102
RTVSPost2010PropOp37
 70
     1
102
RTVSPost2010Prop38
140
0.0
102
RTVSPost2010PropOp38
 70
     1
102
RTVSPost2010Prop39
140
1.0
102
RTVSPost2010PropOp39
 70
     1
102
RTVSPost2010Prop40
 90
        0
102
RTVSPost2010PropOp40
 70
     1
102
RTVSPost2010Prop41ColorIndex
 90
       18
102
RTVSPost2010Prop41ColorRGB
 90
        0
102
RTVSPost2010PropOp41
 70
     1
102
RTVSPost2010Prop42
 90
       50
102
RTVSPost2010PropOp42
 70
     1
102
RTVSPost2010Prop43
 90
        3
102
RTVSPost2010PropOp43
 70
     1
102
RTVSPost2010Prop44ColorIndex
 90
        5
102
RTVSPost2010Prop44ColorRGB
 90
      255
102
RTVSPost2010PropOp44
 70
     1
102
RTVSPost2010Prop45
280
     0
102
RTVSPost2010PropOp45
 70
     1
102
RTVSPost2010Prop46
 90
       50
102
RTVSPost2010PropOp46
 70
     1
102
RTVSPost2010Prop47
 90
       50
102
RTVSPost2010PropOp47
 70
     1
102
RTVSPost2010Prop48
 90
       50
102
RTVSPost2010PropOp48
 70
     1
102
RTVSPost2010Prop49
280
     0
102
RTVSPost2010PropOp49
 70
     1
102
RTVSPost2010Prop50
 90
       50
102
RTVSPost2010PropOp50
 70
     1
102
RTVSPost2010Prop51ColorIndex
 90
      256
102
RTVSPost2010Prop51ColorRGB
 90
-16777216
102
RTVSPost2010PropOp51
 70
     0
102
RTVSPost2010Prop52
140
1.0
102
RTVSPost2010PropOp52
 70
     0
102
RTVSPost2010Prop53
 90
        2
102
RTVSPost2010PropOp53
 70
     1
102
RTVSPost2010Prop54
  1
strokes_ogs.tif
102
RTVSPost2010PropOp54
 70
     1
102
RTVSPost2010Prop55
280
     0
102
RTVSPost2010PropOp55
 70
     1
102
RTVSPost2010Prop56
140
1.0
102
RTVSPost2010PropOp56
 70
     1
102
RTVSPost2010Prop57
140
1.0
102
RTVSPost2010PropOp57
 70
     1
102
RTVSPropertyOp0
 70
     1
102
RTVSPropertyOp1
 70
     1
102
RTVSPropertyOp2
 70
     1
102
RTVSPropertyOp3
 70
     1
102
RTVSPropertyOp4
 70
     1
102
RTVSPropertyOp5
 70
     1
102
RTVSPropertyOp6
 70
     1
102
RTVSPropertyOp7
 70
     1
102
RTVSPropertyOp8
 70
     1
102
RTVSPropertyOp9
 70
     1
102
RTVSPropertyOp10
 70
     1
102
RTVSPropertyOp11
 70
     1
102
RTVSPropertyOp12
 70
     1
102
RTVSPropertyOp13
 70
     1
102
RTVSPropertyOp14
 70
     1
102
RTVSPropertyOp15
 70
     1
102
RTVSPropertyOp16
 70
     1
102
RTVSPropertyOp17
 70
     1
102
RTVSPropertyOp18
 70
     1
102
RTVSPropertyOp19
 70
     1
102
RTVSPropertyOp20
 70
     1
102
RTVSPropertyOp21
 70
     1
102
RTVSPropertyOp22
 70
     1
102
RTVSPropertyOp23
 70
     1
102
RTVSPropertyOp24
 70
     1
102
RTVSPropertyOp25
 70
     1
102
RTVSPropertyOp26
 70
     1
102
RTVSPropertyOp27
 70
     1
102
RTVSPropertyOp28
 70
     1
102
RTVSPropertyOp29
 70
     1
102
RTVSPropertyOp30
 70
     1
102
RTVSPropertyOp31
 70
     1
102
RTVSPropertyOp32
 70
     1
102
RTVSPropertyOp33
 70
     1
102
RTVSPropertyOp34
 70
     1
102
RTVSPropertyOp35
 70
     1
102
RTVSPropertyOp36
 70
     1
102
RTVSPropertyOp37
 70
     1
102
RTVSPropertyOp38
 70
     1
102
RTVSPropertyOp39
 70
     1
102
RTVSPropertyOp40
 70
     1
102
RTVSPropertyOp41
 70
     1
102
RTVSPropertyOp42
 70
     1
102
RTVSPropertyOp43
 70
     1
102
RTVSPropertyOp44
 70
     1
102
RTVSPropertyOp45
 70
     1
102
RTVSPropertyOp46
 70
     1
102
RTVSPropertyOp47
 70
     1
102
RTVSPropertyOp48
 70
     1
102
RTVSPropertyOp49
 70
     1
102
RTVSPropertyOp50
 70
     1
102
RTVSPropertyOp51
 70
     0
102
RTVSPropertyOp52
 70
     0
102
RTVSPropertyOp53
 70
     1
102
RTVSPropertyOp54
 70
     1
102
RTVSPropertyOp55
 70
     1
102
RTVSPropertyOp56
 70
     1
102
RTVSPropertyOp57
 70
     1
102
RTVSPropertyOp58
 70
     1
102
RTVSPropertyOp59
 70
     1
102
RTVSPropertyOp60
 70
     1
102
RTVSPropertyOp61
 70
     1
102
RTVSPropertyOp62
 70
     1
  0
XRECORD
  5
86B7
102
{ACAD_REACTORS
330
86B6
102
}
330
86B6
100
AcDbXrecord
280
     1
102
RTVSPost2010Prop28
280
     0
102
RTVSPost2010PropOp28
 70
     1
102
RTVSPost2010Prop29
280
     1
102
RTVSPost2010PropOp29
 70
     1
102
RTVSPost2010Prop30
280
     1
102
RTVSPost2010PropOp30
 70
     1
102
RTVSPost2010Prop31
280
     0
102
RTVSPost2010PropOp31
 70
     1
102
RTVSPost2010Prop32
280
     0
102
RTVSPost2010PropOp32
 70
     1
102
RTVSPost2010Prop33
280
     0
102
RTVSPost2010PropOp33
 70
     1
102
RTVSPost2010Prop34
280
     0
102
RTVSPost2010PropOp34
 70
     1
102
RTVSPost2010Prop35
280
     0
102
RTVSPost2010PropOp35
 70
     1
102
RTVSPost2010Prop36
280
     0
102
RTVSPost2010PropOp36
 70
     1
102
RTVSPost2010Prop37
 90
       50
102
RTVSPost2010PropOp37
 70
     1
102
RTVSPost2010Prop38
140
0.0
102
RTVSPost2010PropOp38
 70
     1
102
RTVSPost2010Prop39
140
1.0
102
RTVSPost2010PropOp39
 70
     1
102
RTVSPost2010Prop40
 90
        0
102
RTVSPost2010PropOp40
 70
     1
102
RTVSPost2010Prop41ColorIndex
 90
       18
102
RTVSPost2010Prop41ColorRGB
 90
        0
102
RTVSPost2010PropOp41
 70
     1
102
RTVSPost2010Prop42
 90
       50
102
RTVSPost2010PropOp42
 70
     1
102
RTVSPost2010Prop43
 90
        3
102
RTVSPost2010PropOp43
 70
     1
102
RTVSPost2010Prop44ColorIndex
 90
        5
102
RTVSPost2010Prop44ColorRGB
 90
      255
102
RTVSPost2010PropOp44
 70
     1
102
RTVSPost2010Prop45
280
     0
102
RTVSPost2010PropOp45
 70
     1
102
RTVSPost2010Prop46
 90
       50
102
RTVSPost2010PropOp46
 70
     1
102
RTVSPost2010Prop47
 90
       50
102
RTVSPost2010PropOp47
 70
     1
102
RTVSPost2010Prop48
 90
       50
102
RTVSPost2010PropOp48
 70
     1
102
RTVSPost2010Prop49
280
     0
102
RTVSPost2010PropOp49
 70
     1
102
RTVSPost2010Prop50
 90
       50
102
RTVSPost2010PropOp50
 70
     1
102
RTVSPost2010Prop51ColorIndex
 90
      256
102
RTVSPost2010Prop51ColorRGB
 90
-16777216
102
RTVSPost2010PropOp51
 70
     0
102
RTVSPost2010Prop52
140
1.0
102
RTVSPost2010PropOp52
 70
     0
102
RTVSPost2010Prop53
 90
        2
102
RTVSPost2010PropOp53
 70
     1
102
RTVSPost2010Prop54
  1
strokes_ogs.tif
102
RTVSPost2010PropOp54
 70
     1
102
RTVSPost2010Prop55
280
     0
102
RTVSPost2010PropOp55
 70
     1
102
RTVSPost2010Prop56
140
1.0
102
RTVSPost2010PropOp56
 70
     1
102
RTVSPost2010Prop57
140
1.0
102
RTVSPost2010PropOp57
 70
     1
102
RTVSPropertyOp0
 70
     1
102
RTVSPropertyOp1
 70
     1
102
RTVSPropertyOp2
 70
     1
102
RTVSPropertyOp3
 70
     1
102
RTVSPropertyOp4
 70
     1
102
RTVSPropertyOp5
 70
     1
102
RTVSPropertyOp6
 70
     1
102
RTVSPropertyOp7
 70
     1
102
RTVSPropertyOp8
 70
     1
102
RTVSPropertyOp9
 70
     1
102
RTVSPropertyOp10
 70
     1
102
RTVSPropertyOp11
 70
     1
102
RTVSPropertyOp12
 70
     1
102
RTVSPropertyOp13
 70
     1
102
RTVSPropertyOp14
 70
     1
102
RTVSPropertyOp15
 70
     1
102
RTVSPropertyOp16
 70
     1
102
RTVSPropertyOp17
 70
     1
102
RTVSPropertyOp18
 70
     1
102
RTVSPropertyOp19
 70
     1
102
RTVSPropertyOp20
 70
     1
102
RTVSPropertyOp21
 70
     1
102
RTVSPropertyOp22
 70
     1
102
RTVSPropertyOp23
 70
     1
102
RTVSPropertyOp24
 70
     1
102
RTVSPropertyOp25
 70
     1
102
RTVSPropertyOp26
 70
     1
102
RTVSPropertyOp27
 70
     1
102
RTVSPropertyOp28
 70
     1
102
RTVSPropertyOp29
 70
     1
102
RTVSPropertyOp30
 70
     1
102
RTVSPropertyOp31
 70
     1
102
RTVSPropertyOp32
 70
     1
102
RTVSPropertyOp33
 70
     1
102
RTVSPropertyOp34
 70
     1
102
RTVSPropertyOp35
 70
     1
102
RTVSPropertyOp36
 70
     1
102
RTVSPropertyOp37
 70
     1
102
RTVSPropertyOp38
 70
     1
102
RTVSPropertyOp39
 70
     1
102
RTVSPropertyOp40
 70
     1
102
RTVSPropertyOp41
 70
     1
102
RTVSPropertyOp42
 70
     1
102
RTVSPropertyOp43
 70
     1
102
RTVSPropertyOp44
 70
     1
102
RTVSPropertyOp45
 70
     1
102
RTVSPropertyOp46
 70
     1
102
RTVSPropertyOp47
 70
     1
102
RTVSPropertyOp48
 70
     1
102
RTVSPropertyOp49
 70
     1
102
RTVSPropertyOp50
 70
     1
102
RTVSPropertyOp51
 70
     0
102
RTVSPropertyOp52
 70
     0
102
RTVSPropertyOp53
 70
     1
102
RTVSPropertyOp54
 70
     1
102
RTVSPropertyOp55
 70
     1
102
RTVSPropertyOp56
 70
     1
102
RTVSPropertyOp57
 70
     1
102
RTVSPropertyOp58
 70
     1
102
RTVSPropertyOp59
 70
     1
102
RTVSPropertyOp60
 70
     1
102
RTVSPropertyOp61
 70
     1
102
RTVSPropertyOp62
 70
     1
  0
XRECORD
  5
86BF
102
{ACAD_REACTORS
330
86BE
102
}
330
86BE
100
AcDbXrecord
280
     1
102
RTVSPost2010Prop28
280
     0
102
RTVSPost2010PropOp28
 70
     1
102
RTVSPost2010Prop29
280
     1
102
RTVSPost2010PropOp29
 70
     1
102
RTVSPost2010Prop30
280
     1
102
RTVSPost2010PropOp30
 70
     1
102
RTVSPost2010Prop31
280
     0
102
RTVSPost2010PropOp31
 70
     1
102
RTVSPost2010Prop32
280
     0
102
RTVSPost2010PropOp32
 70
     1
102
RTVSPost2010Prop33
280
     0
102
RTVSPost2010PropOp33
 70
     1
102
RTVSPost2010Prop34
280
     0
102
RTVSPost2010PropOp34
 70
     1
102
RTVSPost2010Prop35
280
     0
102
RTVSPost2010PropOp35
 70
     1
102
RTVSPost2010Prop36
280
     0
102
RTVSPost2010PropOp36
 70
     1
102
RTVSPost2010Prop37
 90
       50
102
RTVSPost2010PropOp37
 70
     1
102
RTVSPost2010Prop38
140
0.0
102
RTVSPost2010PropOp38
 70
     1
102
RTVSPost2010Prop39
140
1.0
102
RTVSPost2010PropOp39
 70
     1
102
RTVSPost2010Prop40
 90
        0
102
RTVSPost2010PropOp40
 70
     1
102
RTVSPost2010Prop41ColorIndex
 90
       18
102
RTVSPost2010Prop41ColorRGB
 90
        0
102
RTVSPost2010PropOp41
 70
     1
102
RTVSPost2010Prop42
 90
       50
102
RTVSPost2010PropOp42
 70
     1
102
RTVSPost2010Prop43
 90
        3
102
RTVSPost2010PropOp43
 70
     1
102
RTVSPost2010Prop44ColorIndex
 90
        5
102
RTVSPost2010Prop44ColorRGB
 90
      255
102
RTVSPost2010PropOp44
 70
     1
102
RTVSPost2010Prop45
280
     0
102
RTVSPost2010PropOp45
 70
     1
102
RTVSPost2010Prop46
 90
       50
102
RTVSPost2010PropOp46
 70
     1
102
RTVSPost2010Prop47
 90
       50
102
RTVSPost2010PropOp47
 70
     1
102
RTVSPost2010Prop48
 90
       50
102
RTVSPost2010PropOp48
 70
     1
102
RTVSPost2010Prop49
280
     0
102
RTVSPost2010PropOp49
 70
     1
102
RTVSPost2010Prop50
 90
       50
102
RTVSPost2010PropOp50
 70
     1
102
RTVSPost2010Prop51ColorIndex
 90
      256
102
RTVSPost2010Prop51ColorRGB
 90
-16777216
102
RTVSPost2010PropOp51
 70
     0
102
RTVSPost2010Prop52
140
1.0
102
RTVSPost2010PropOp52
 70
     0
102
RTVSPost2010Prop53
 90
        2
102
RTVSPost2010PropOp53
 70
     1
102
RTVSPost2010Prop54
  1
strokes_ogs.tif
102
RTVSPost2010PropOp54
 70
     1
102
RTVSPost2010Prop55
280
     0
102
RTVSPost2010PropOp55
 70
     1
102
RTVSPost2010Prop56
140
1.0
102
RTVSPost2010PropOp56
 70
     1
102
RTVSPost2010Prop57
140
1.0
102
RTVSPost2010PropOp57
 70
     1
102
RTVSPropertyOp0
 70
     1
102
RTVSPropertyOp1
 70
     1
102
RTVSPropertyOp2
 70
     1
102
RTVSPropertyOp3
 70
     1
102
RTVSPropertyOp4
 70
     1
102
RTVSPropertyOp5
 70
     1
102
RTVSPropertyOp6
 70
     1
102
RTVSPropertyOp7
 70
     1
102
RTVSPropertyOp8
 70
     1
102
RTVSPropertyOp9
 70
     1
102
RTVSPropertyOp10
 70
     1
102
RTVSPropertyOp11
 70
     1
102
RTVSPropertyOp12
 70
     1
102
RTVSPropertyOp13
 70
     1
102
RTVSPropertyOp14
 70
     1
102
RTVSPropertyOp15
 70
     1
102
RTVSPropertyOp16
 70
     1
102
RTVSPropertyOp17
 70
     1
102
RTVSPropertyOp18
 70
     1
102
RTVSPropertyOp19
 70
     1
102
RTVSPropertyOp20
 70
     1
102
RTVSPropertyOp21
 70
     1
102
RTVSPropertyOp22
 70
     1
102
RTVSPropertyOp23
 70
     1
102
RTVSPropertyOp24
 70
     1
102
RTVSPropertyOp25
 70
     1
102
RTVSPropertyOp26
 70
     1
102
RTVSPropertyOp27
 70
     1
102
RTVSPropertyOp28
 70
     1
102
RTVSPropertyOp29
 70
     1
102
RTVSPropertyOp30
 70
     1
102
RTVSPropertyOp31
 70
     1
102
RTVSPropertyOp32
 70
     1
102
RTVSPropertyOp33
 70
     1
102
RTVSPropertyOp34
 70
     1
102
RTVSPropertyOp35
 70
     1
102
RTVSPropertyOp36
 70
     1
102
RTVSPropertyOp37
 70
     1
102
RTVSPropertyOp38
 70
     1
102
RTVSPropertyOp39
 70
     1
102
RTVSPropertyOp40
 70
     1
102
RTVSPropertyOp41
 70
     1
102
RTVSPropertyOp42
 70
     1
102
RTVSPropertyOp43
 70
     1
102
RTVSPropertyOp44
 70
     1
102
RTVSPropertyOp45
 70
     1
102
RTVSPropertyOp46
 70
     1
102
RTVSPropertyOp47
 70
     1
102
RTVSPropertyOp48
 70
     1
102
RTVSPropertyOp49
 70
     1
102
RTVSPropertyOp50
 70
     1
102
RTVSPropertyOp51
 70
     0
102
RTVSPropertyOp52
 70
     0
102
RTVSPropertyOp53
 70
     1
102
RTVSPropertyOp54
 70
     1
102
RTVSPropertyOp55
 70
     1
102
RTVSPropertyOp56
 70
     1
102
RTVSPropertyOp57
 70
     1
102
RTVSPropertyOp58
 70
     1
102
RTVSPropertyOp59
 70
     1
102
RTVSPropertyOp60
 70
     1
102
RTVSPropertyOp61
 70
     1
102
RTVSPropertyOp62
 70
     1
  0
XRECORD
  5
86B1
102
{ACAD_REACTORS
330
86B0
102
}
330
86B0
100
AcDbXrecord
280
     1
102
RTVSPost2010Prop28
280
     0
102
RTVSPost2010PropOp28
 70
     1
102
RTVSPost2010Prop29
280
     1
102
RTVSPost2010PropOp29
 70
     1
102
RTVSPost2010Prop30
280
     1
102
RTVSPost2010PropOp30
 70
     1
102
RTVSPost2010Prop31
280
     0
102
RTVSPost2010PropOp31
 70
     1
102
RTVSPost2010Prop32
280
     0
102
RTVSPost2010PropOp32
 70
     1
102
RTVSPost2010Prop33
280
     0
102
RTVSPost2010PropOp33
 70
     1
102
RTVSPost2010Prop34
280
     0
102
RTVSPost2010PropOp34
 70
     1
102
RTVSPost2010Prop35
280
     0
102
RTVSPost2010PropOp35
 70
     1
102
RTVSPost2010Prop36
280
     0
102
RTVSPost2010PropOp36
 70
     1
102
RTVSPost2010Prop37
 90
       50
102
RTVSPost2010PropOp37
 70
     1
102
RTVSPost2010Prop38
140
0.0
102
RTVSPost2010PropOp38
 70
     1
102
RTVSPost2010Prop39
140
1.0
102
RTVSPost2010PropOp39
 70
     1
102
RTVSPost2010Prop40
 90
        0
102
RTVSPost2010PropOp40
 70
     1
102
RTVSPost2010Prop41ColorIndex
 90
       18
102
RTVSPost2010Prop41ColorRGB
 90
        0
102
RTVSPost2010PropOp41
 70
     1
102
RTVSPost2010Prop42
 90
       50
102
RTVSPost2010PropOp42
 70
     1
102
RTVSPost2010Prop43
 90
        3
102
RTVSPost2010PropOp43
 70
     1
102
RTVSPost2010Prop44ColorIndex
 90
        5
102
RTVSPost2010Prop44ColorRGB
 90
      255
102
RTVSPost2010PropOp44
 70
     1
102
RTVSPost2010Prop45
280
     0
102
RTVSPost2010PropOp45
 70
     1
102
RTVSPost2010Prop46
 90
       50
102
RTVSPost2010PropOp46
 70
     1
102
RTVSPost2010Prop47
 90
       50
102
RTVSPost2010PropOp47
 70
     1
102
RTVSPost2010Prop48
 90
       50
102
RTVSPost2010PropOp48
 70
     1
102
RTVSPost2010Prop49
280
     0
102
RTVSPost2010PropOp49
 70
     1
102
RTVSPost2010Prop50
 90
       50
102
RTVSPost2010PropOp50
 70
     1
102
RTVSPost2010Prop51ColorIndex
 90
      256
102
RTVSPost2010Prop51ColorRGB
 90
-16777216
102
RTVSPost2010PropOp51
 70
     0
102
RTVSPost2010Prop52
140
1.0
102
RTVSPost2010PropOp52
 70
     0
102
RTVSPost2010Prop53
 90
        2
102
RTVSPost2010PropOp53
 70
     1
102
RTVSPost2010Prop54
  1
strokes_ogs.tif
102
RTVSPost2010PropOp54
 70
     1
102
RTVSPost2010Prop55
280
     0
102
RTVSPost2010PropOp55
 70
     1
102
RTVSPost2010Prop56
140
1.0
102
RTVSPost2010PropOp56
 70
     1
102
RTVSPost2010Prop57
140
1.0
102
RTVSPost2010PropOp57
 70
     1
102
RTVSPropertyOp0
 70
     1
102
RTVSPropertyOp1
 70
     1
102
RTVSPropertyOp2
 70
     1
102
RTVSPropertyOp3
 70
     1
102
RTVSPropertyOp4
 70
     1
102
RTVSPropertyOp5
 70
     1
102
RTVSPropertyOp6
 70
     1
102
RTVSPropertyOp7
 70
     1
102
RTVSPropertyOp8
 70
     1
102
RTVSPropertyOp9
 70
     1
102
RTVSPropertyOp10
 70
     1
102
RTVSPropertyOp11
 70
     1
102
RTVSPropertyOp12
 70
     1
102
RTVSPropertyOp13
 70
     1
102
RTVSPropertyOp14
 70
     1
102
RTVSPropertyOp15
 70
     1
102
RTVSPropertyOp16
 70
     1
102
RTVSPropertyOp17
 70
     1
102
RTVSPropertyOp18
 70
     1
102
RTVSPropertyOp19
 70
     1
102
RTVSPropertyOp20
 70
     1
102
RTVSPropertyOp21
 70
     1
102
RTVSPropertyOp22
 70
     1
102
RTVSPropertyOp23
 70
     1
102
RTVSPropertyOp24
 70
     1
102
RTVSPropertyOp25
 70
     1
102
RTVSPropertyOp26
 70
     1
102
RTVSPropertyOp27
 70
     1
102
RTVSPropertyOp28
 70
     1
102
RTVSPropertyOp29
 70
     1
102
RTVSPropertyOp30
 70
     1
102
RTVSPropertyOp31
 70
     1
102
RTVSPropertyOp32
 70
     1
102
RTVSPropertyOp33
 70
     1
102
RTVSPropertyOp34
 70
     1
102
RTVSPropertyOp35
 70
     1
102
RTVSPropertyOp36
 70
     1
102
RTVSPropertyOp37
 70
     1
102
RTVSPropertyOp38
 70
     1
102
RTVSPropertyOp39
 70
     1
102
RTVSPropertyOp40
 70
     1
102
RTVSPropertyOp41
 70
     1
102
RTVSPropertyOp42
 70
     1
102
RTVSPropertyOp43
 70
     1
102
RTVSPropertyOp44
 70
     1
102
RTVSPropertyOp45
 70
     1
102
RTVSPropertyOp46
 70
     1
102
RTVSPropertyOp47
 70
     1
102
RTVSPropertyOp48
 70
     1
102
RTVSPropertyOp49
 70
     1
102
RTVSPropertyOp50
 70
     1
102
RTVSPropertyOp51
 70
     0
102
RTVSPropertyOp52
 70
     0
102
RTVSPropertyOp53
 70
     1
102
RTVSPropertyOp54
 70
     1
102
RTVSPropertyOp55
 70
     1
102
RTVSPropertyOp56
 70
     1
102
RTVSPropertyOp57
 70
     1
102
RTVSPropertyOp58
 70
     1
102
RTVSPropertyOp59
 70
     1
102
RTVSPropertyOp60
 70
     1
102
RTVSPropertyOp61
 70
     1
102
RTVSPropertyOp62
 70
     1
  0
XRECORD
  5
86B5
102
{ACAD_REACTORS
330
86B4
102
}
330
86B4
100
AcDbXrecord
280
     1
102
RTVSPost2010Prop28
280
     0
102
RTVSPost2010PropOp28
 70
     1
102
RTVSPost2010Prop29
280
     1
102
RTVSPost2010PropOp29
 70
     1
102
RTVSPost2010Prop30
280
     1
102
RTVSPost2010PropOp30
 70
     1
102
RTVSPost2010Prop31
280
     0
102
RTVSPost2010PropOp31
 70
     1
102
RTVSPost2010Prop32
280
     0
102
RTVSPost2010PropOp32
 70
     1
102
RTVSPost2010Prop33
280
     0
102
RTVSPost2010PropOp33
 70
     1
102
RTVSPost2010Prop34
280
     0
102
RTVSPost2010PropOp34
 70
     1
102
RTVSPost2010Prop35
280
     0
102
RTVSPost2010PropOp35
 70
     1
102
RTVSPost2010Prop36
280
     0
102
RTVSPost2010PropOp36
 70
     1
102
RTVSPost2010Prop37
 90
       50
102
RTVSPost2010PropOp37
 70
     1
102
RTVSPost2010Prop38
140
0.0
102
RTVSPost2010PropOp38
 70
     1
102
RTVSPost2010Prop39
140
1.0
102
RTVSPost2010PropOp39
 70
     1
102
RTVSPost2010Prop40
 90
        0
102
RTVSPost2010PropOp40
 70
     1
102
RTVSPost2010Prop41ColorIndex
 90
       18
102
RTVSPost2010Prop41ColorRGB
 90
        0
102
RTVSPost2010PropOp41
 70
     1
102
RTVSPost2010Prop42
 90
       50
102
RTVSPost2010PropOp42
 70
     1
102
RTVSPost2010Prop43
 90
        3
102
RTVSPost2010PropOp43
 70
     1
102
RTVSPost2010Prop44ColorIndex
 90
        5
102
RTVSPost2010Prop44ColorRGB
 90
      255
102
RTVSPost2010PropOp44
 70
     1
102
RTVSPost2010Prop45
280
     0
102
RTVSPost2010PropOp45
 70
     1
102
RTVSPost2010Prop46
 90
       50
102
RTVSPost2010PropOp46
 70
     1
102
RTVSPost2010Prop47
 90
       50
102
RTVSPost2010PropOp47
 70
     1
102
RTVSPost2010Prop48
 90
       50
102
RTVSPost2010PropOp48
 70
     1
102
RTVSPost2010Prop49
280
     0
102
RTVSPost2010PropOp49
 70
     1
102
RTVSPost2010Prop50
 90
       50
102
RTVSPost2010PropOp50
 70
     1
102
RTVSPost2010Prop51ColorIndex
 90
      256
102
RTVSPost2010Prop51ColorRGB
 90
-16777216
102
RTVSPost2010PropOp51
 70
     0
102
RTVSPost2010Prop52
140
1.0
102
RTVSPost2010PropOp52
 70
     0
102
RTVSPost2010Prop53
 90
        2
102
RTVSPost2010PropOp53
 70
     1
102
RTVSPost2010Prop54
  1
strokes_ogs.tif
102
RTVSPost2010PropOp54
 70
     1
102
RTVSPost2010Prop55
280
     0
102
RTVSPost2010PropOp55
 70
     1
102
RTVSPost2010Prop56
140
1.0
102
RTVSPost2010PropOp56
 70
     1
102
RTVSPost2010Prop57
140
1.0
102
RTVSPost2010PropOp57
 70
     1
102
RTVSPropertyOp0
 70
     1
102
RTVSPropertyOp1
 70
     1
102
RTVSPropertyOp2
 70
     1
102
RTVSPropertyOp3
 70
     1
102
RTVSPropertyOp4
 70
     1
102
RTVSPropertyOp5
 70
     1
102
RTVSPropertyOp6
 70
     1
102
RTVSPropertyOp7
 70
     1
102
RTVSPropertyOp8
 70
     1
102
RTVSPropertyOp9
 70
     1
102
RTVSPropertyOp10
 70
     1
102
RTVSPropertyOp11
 70
     1
102
RTVSPropertyOp12
 70
     1
102
RTVSPropertyOp13
 70
     1
102
RTVSPropertyOp14
 70
     1
102
RTVSPropertyOp15
 70
     1
102
RTVSPropertyOp16
 70
     1
102
RTVSPropertyOp17
 70
     1
102
RTVSPropertyOp18
 70
     1
102
RTVSPropertyOp19
 70
     1
102
RTVSPropertyOp20
 70
     1
102
RTVSPropertyOp21
 70
     1
102
RTVSPropertyOp22
 70
     1
102
RTVSPropertyOp23
 70
     1
102
RTVSPropertyOp24
 70
     1
102
RTVSPropertyOp25
 70
     1
102
RTVSPropertyOp26
 70
     1
102
RTVSPropertyOp27
 70
     1
102
RTVSPropertyOp28
 70
     1
102
RTVSPropertyOp29
 70
     1
102
RTVSPropertyOp30
 70
     1
102
RTVSPropertyOp31
 70
     1
102
RTVSPropertyOp32
 70
     1
102
RTVSPropertyOp33
 70
     1
102
RTVSPropertyOp34
 70
     1
102
RTVSPropertyOp35
 70
     1
102
RTVSPropertyOp36
 70
     1
102
RTVSPropertyOp37
 70
     1
102
RTVSPropertyOp38
 70
     1
102
RTVSPropertyOp39
 70
     1
102
RTVSPropertyOp40
 70
     1
102
RTVSPropertyOp41
 70
     1
102
RTVSPropertyOp42
 70
     1
102
RTVSPropertyOp43
 70
     1
102
RTVSPropertyOp44
 70
     1
102
RTVSPropertyOp45
 70
     1
102
RTVSPropertyOp46
 70
     1
102
RTVSPropertyOp47
 70
     1
102
RTVSPropertyOp48
 70
     1
102
RTVSPropertyOp49
 70
     1
102
RTVSPropertyOp50
 70
     1
102
RTVSPropertyOp51
 70
     0
102
RTVSPropertyOp52
 70
     0
102
RTVSPropertyOp53
 70
     1
102
RTVSPropertyOp54
 70
     1
102
RTVSPropertyOp55
 70
     1
102
RTVSPropertyOp56
 70
     1
102
RTVSPropertyOp57
 70
     1
102
RTVSPropertyOp58
 70
     1
102
RTVSPropertyOp59
 70
     1
102
RTVSPropertyOp60
 70
     1
102
RTVSPropertyOp61
 70
     1
102
RTVSPropertyOp62
 70
     1
  0
XRECORD
  5
86CF
102
{ACAD_REACTORS
330
86CE
102
}
330
86CE
100
AcDbXrecord
280
     1
102
RTVSPost2010Prop28
280
     0
102
RTVSPost2010PropOp28
 70
     1
102
RTVSPost2010Prop29
280
     1
102
RTVSPost2010PropOp29
 70
     1
102
RTVSPost2010Prop30
280
     1
102
RTVSPost2010PropOp30
 70
     1
102
RTVSPost2010Prop31
280
     0
102
RTVSPost2010PropOp31
 70
     1
102
RTVSPost2010Prop32
280
     0
102
RTVSPost2010PropOp32
 70
     1
102
RTVSPost2010Prop33
280
     0
102
RTVSPost2010PropOp33
 70
     1
102
RTVSPost2010Prop34
280
     0
102
RTVSPost2010PropOp34
 70
     1
102
RTVSPost2010Prop35
280
     0
102
RTVSPost2010PropOp35
 70
     1
102
RTVSPost2010Prop36
280
     0
102
RTVSPost2010PropOp36
 70
     1
102
RTVSPost2010Prop37
 90
       50
102
RTVSPost2010PropOp37
 70
     0
102
RTVSPost2010Prop38
140
0.0
102
RTVSPost2010PropOp38
 70
     0
102
RTVSPost2010Prop39
140
1.0
102
RTVSPost2010PropOp39
 70
     0
102
RTVSPost2010Prop40
 90
        0
102
RTVSPost2010PropOp40
 70
     0
102
RTVSPost2010Prop41ColorIndex
 90
       18
102
RTVSPost2010Prop41ColorRGB
 90
        0
102
RTVSPost2010PropOp41
 70
     0
102
RTVSPost2010Prop42
 90
       50
102
RTVSPost2010PropOp42
 70
     0
102
RTVSPost2010Prop43
 90
        3
102
RTVSPost2010PropOp43
 70
     0
102
RTVSPost2010Prop44ColorIndex
 90
        5
102
RTVSPost2010Prop44ColorRGB
 90
      255
102
RTVSPost2010PropOp44
 70
     0
102
RTVSPost2010Prop45
280
     0
102
RTVSPost2010PropOp45
 70
     1
102
RTVSPost2010Prop46
 90
       50
102
RTVSPost2010PropOp46
 70
     0
102
RTVSPost2010Prop47
 90
       50
102
RTVSPost2010PropOp47
 70
     0
102
RTVSPost2010Prop48
 90
       50
102
RTVSPost2010PropOp48
 70
     0
102
RTVSPost2010Prop49
280
     0
102
RTVSPost2010PropOp49
 70
     1
102
RTVSPost2010Prop50
 90
       50
102
RTVSPost2010PropOp50
 70
     0
102
RTVSPost2010Prop51ColorIndex
 90
      256
102
RTVSPost2010Prop51ColorRGB
 90
-16777216
102
RTVSPost2010PropOp51
 70
     0
102
RTVSPost2010Prop52
140
1.0
102
RTVSPost2010PropOp52
 70
     0
102
RTVSPost2010Prop53
 90
        2
102
RTVSPost2010PropOp53
 70
     0
102
RTVSPost2010Prop54
  1
strokes_ogs.tif
102
RTVSPost2010PropOp54
 70
     0
102
RTVSPost2010Prop55
280
     0
102
RTVSPost2010PropOp55
 70
     1
102
RTVSPost2010Prop56
140
1.0
102
RTVSPost2010PropOp56
 70
     0
102
RTVSPost2010Prop57
140
1.0
102
RTVSPost2010PropOp57
 70
     0
102
RTVSPropertyOp0
 70
     0
102
RTVSPropertyOp1
 70
     0
102
RTVSPropertyOp2
 70
     0
102
RTVSPropertyOp3
 70
     0
102
RTVSPropertyOp4
 70
     0
102
RTVSPropertyOp5
 70
     0
102
RTVSPropertyOp6
 70
     0
102
RTVSPropertyOp7
 70
     0
102
RTVSPropertyOp8
 70
     0
102
RTVSPropertyOp9
 70
     0
102
RTVSPropertyOp10
 70
     0
102
RTVSPropertyOp11
 70
     0
102
RTVSPropertyOp12
 70
     0
102
RTVSPropertyOp13
 70
     0
102
RTVSPropertyOp14
 70
     2
102
RTVSPropertyOp15
 70
     0
102
RTVSPropertyOp16
 70
     0
102
RTVSPropertyOp17
 70
     0
102
RTVSPropertyOp18
 70
     0
102
RTVSPropertyOp19
 70
     0
102
RTVSPropertyOp20
 70
     0
102
RTVSPropertyOp21
 70
     0
102
RTVSPropertyOp22
 70
     0
102
RTVSPropertyOp23
 70
     0
102
RTVSPropertyOp24
 70
     0
102
RTVSPropertyOp25
 70
     0
102
RTVSPropertyOp26
 70
     0
102
RTVSPropertyOp27
 70
     0
102
RTVSPropertyOp28
 70
     1
102
RTVSPropertyOp29
 70
     1
102
RTVSPropertyOp30
 70
     1
102
RTVSPropertyOp31
 70
     1
102
RTVSPropertyOp32
 70
     1
102
RTVSPropertyOp33
 70
     1
102
RTVSPropertyOp34
 70
     1
102
RTVSPropertyOp35
 70
     1
102
RTVSPropertyOp36
 70
     1
102
RTVSPropertyOp37
 70
     0
102
RTVSPropertyOp38
 70
     0
102
RTVSPropertyOp39
 70
     0
102
RTVSPropertyOp40
 70
     0
102
RTVSPropertyOp41
 70
     0
102
RTVSPropertyOp42
 70
     0
102
RTVSPropertyOp43
 70
     0
102
RTVSPropertyOp44
 70
     0
102
RTVSPropertyOp45
 70
     1
102
RTVSPropertyOp46
 70
     0
102
RTVSPropertyOp47
 70
     0
102
RTVSPropertyOp48
 70
     0
102
RTVSPropertyOp49
 70
     1
102
RTVSPropertyOp50
 70
     0
102
RTVSPropertyOp51
 70
     0
102
RTVSPropertyOp52
 70
     0
102
RTVSPropertyOp53
 70
     0
102
RTVSPropertyOp54
 70
     0
102
RTVSPropertyOp55
 70
     1
102
RTVSPropertyOp56
 70
     0
102
RTVSPropertyOp57
 70
     0
102
RTVSPropertyOp58
 70
     0
102
RTVSPropertyOp59
 70
     0
102
RTVSPropertyOp60
 70
     0
102
RTVSPropertyOp61
 70
     0
102
RTVSPropertyOp62
 70
     0
  0
XRECORD
  5
86BD
102
{ACAD_REACTORS
330
86BC
102
}
330
86BC
100
AcDbXrecord
280
     1
102
RTVSPost2010Prop28
280
     0
102
RTVSPost2010PropOp28
 70
     1
102
RTVSPost2010Prop29
280
     1
102
RTVSPost2010PropOp29
 70
     1
102
RTVSPost2010Prop30
280
     1
102
RTVSPost2010PropOp30
 70
     1
102
RTVSPost2010Prop31
280
     0
102
RTVSPost2010PropOp31
 70
     1
102
RTVSPost2010Prop32
280
     0
102
RTVSPost2010PropOp32
 70
     1
102
RTVSPost2010Prop33
280
     0
102
RTVSPost2010PropOp33
 70
     1
102
RTVSPost2010Prop34
280
     0
102
RTVSPost2010PropOp34
 70
     1
102
RTVSPost2010Prop35
280
     0
102
RTVSPost2010PropOp35
 70
     1
102
RTVSPost2010Prop36
280
     0
102
RTVSPost2010PropOp36
 70
     1
102
RTVSPost2010Prop37
 90
       50
102
RTVSPost2010PropOp37
 70
     1
102
RTVSPost2010Prop38
140
0.0
102
RTVSPost2010PropOp38
 70
     1
102
RTVSPost2010Prop39
140
1.0
102
RTVSPost2010PropOp39
 70
     1
102
RTVSPost2010Prop40
 90
        0
102
RTVSPost2010PropOp40
 70
     1
102
RTVSPost2010Prop41ColorIndex
 90
       18
102
RTVSPost2010Prop41ColorRGB
 90
        0
102
RTVSPost2010PropOp41
 70
     1
102
RTVSPost2010Prop42
 90
       50
102
RTVSPost2010PropOp42
 70
     1
102
RTVSPost2010Prop43
 90
        3
102
RTVSPost2010PropOp43
 70
     1
102
RTVSPost2010Prop44ColorIndex
 90
        5
102
RTVSPost2010Prop44ColorRGB
 90
      255
102
RTVSPost2010PropOp44
 70
     1
102
RTVSPost2010Prop45
280
     0
102
RTVSPost2010PropOp45
 70
     1
102
RTVSPost2010Prop46
 90
       50
102
RTVSPost2010PropOp46
 70
     1
102
RTVSPost2010Prop47
 90
       50
102
RTVSPost2010PropOp47
 70
     1
102
RTVSPost2010Prop48
 90
       50
102
RTVSPost2010PropOp48
 70
     1
102
RTVSPost2010Prop49
280
     0
102
RTVSPost2010PropOp49
 70
     1
102
RTVSPost2010Prop50
 90
       50
102
RTVSPost2010PropOp50
 70
     1
102
RTVSPost2010Prop51ColorIndex
 90
      256
102
RTVSPost2010Prop51ColorRGB
 90
-16777216
102
RTVSPost2010PropOp51
 70
     0
102
RTVSPost2010Prop52
140
1.0
102
RTVSPost2010PropOp52
 70
     0
102
RTVSPost2010Prop53
 90
        2
102
RTVSPost2010PropOp53
 70
     1
102
RTVSPost2010Prop54
  1
strokes_ogs.tif
102
RTVSPost2010PropOp54
 70
     1
102
RTVSPost2010Prop55
280
     0
102
RTVSPost2010PropOp55
 70
     1
102
RTVSPost2010Prop56
140
1.0
102
RTVSPost2010PropOp56
 70
     1
102
RTVSPost2010Prop57
140
1.0
102
RTVSPost2010PropOp57
 70
     1
102
RTVSPropertyOp0
 70
     1
102
RTVSPropertyOp1
 70
     1
102
RTVSPropertyOp2
 70
     1
102
RTVSPropertyOp3
 70
     1
102
RTVSPropertyOp4
 70
     1
102
RTVSPropertyOp5
 70
     1
102
RTVSPropertyOp6
 70
     1
102
RTVSPropertyOp7
 70
     1
102
RTVSPropertyOp8
 70
     1
102
RTVSPropertyOp9
 70
     1
102
RTVSPropertyOp10
 70
     1
102
RTVSPropertyOp11
 70
     1
102
RTVSPropertyOp12
 70
     1
102
RTVSPropertyOp13
 70
     1
102
RTVSPropertyOp14
 70
     1
102
RTVSPropertyOp15
 70
     1
102
RTVSPropertyOp16
 70
     1
102
RTVSPropertyOp17
 70
     1
102
RTVSPropertyOp18
 70
     1
102
RTVSPropertyOp19
 70
     1
102
RTVSPropertyOp20
 70
     1
102
RTVSPropertyOp21
 70
     1
102
RTVSPropertyOp22
 70
     1
102
RTVSPropertyOp23
 70
     1
102
RTVSPropertyOp24
 70
     1
102
RTVSPropertyOp25
 70
     1
102
RTVSPropertyOp26
 70
     1
102
RTVSPropertyOp27
 70
     1
102
RTVSPropertyOp28
 70
     1
102
RTVSPropertyOp29
 70
     1
102
RTVSPropertyOp30
 70
     1
102
RTVSPropertyOp31
 70
     1
102
RTVSPropertyOp32
 70
     1
102
RTVSPropertyOp33
 70
     1
102
RTVSPropertyOp34
 70
     1
102
RTVSPropertyOp35
 70
     1
102
RTVSPropertyOp36
 70
     1
102
RTVSPropertyOp37
 70
     1
102
RTVSPropertyOp38
 70
     1
102
RTVSPropertyOp39
 70
     1
102
RTVSPropertyOp40
 70
     1
102
RTVSPropertyOp41
 70
     1
102
RTVSPropertyOp42
 70
     1
102
RTVSPropertyOp43
 70
     1
102
RTVSPropertyOp44
 70
     1
102
RTVSPropertyOp45
 70
     1
102
RTVSPropertyOp46
 70
     1
102
RTVSPropertyOp47
 70
     1
102
RTVSPropertyOp48
 70
     1
102
RTVSPropertyOp49
 70
     1
102
RTVSPropertyOp50
 70
     1
102
RTVSPropertyOp51
 70
     0
102
RTVSPropertyOp52
 70
     0
102
RTVSPropertyOp53
 70
     1
102
RTVSPropertyOp54
 70
     1
102
RTVSPropertyOp55
 70
     1
102
RTVSPropertyOp56
 70
     1
102
RTVSPropertyOp57
 70
     1
102
RTVSPropertyOp58
 70
     1
102
RTVSPropertyOp59
 70
     1
102
RTVSPropertyOp60
 70
     1
102
RTVSPropertyOp61
 70
     1
102
RTVSPropertyOp62
 70
     1
  0
XRECORD
  5
86A1
102
{ACAD_REACTORS
330
86A0
102
}
330
86A0
100
AcDbXrecord
280
     1
102
RTVSPost2010Prop28
280
     0
102
RTVSPost2010PropOp28
 70
     1
102
RTVSPost2010Prop29
280
     1
102
RTVSPost2010PropOp29
 70
     1
102
RTVSPost2010Prop30
280
     1
102
RTVSPost2010PropOp30
 70
     1
102
RTVSPost2010Prop31
280
     0
102
RTVSPost2010PropOp31
 70
     1
102
RTVSPost2010Prop32
280
     0
102
RTVSPost2010PropOp32
 70
     1
102
RTVSPost2010Prop33
280
     0
102
RTVSPost2010PropOp33
 70
     1
102
RTVSPost2010Prop34
280
     0
102
RTVSPost2010PropOp34
 70
     1
102
RTVSPost2010Prop35
280
     0
102
RTVSPost2010PropOp35
 70
     1
102
RTVSPost2010Prop36
280
     0
102
RTVSPost2010PropOp36
 70
     1
102
RTVSPost2010Prop37
 90
       50
102
RTVSPost2010PropOp37
 70
     1
102
RTVSPost2010Prop38
140
0.0
102
RTVSPost2010PropOp38
 70
     1
102
RTVSPost2010Prop39
140
1.0
102
RTVSPost2010PropOp39
 70
     1
102
RTVSPost2010Prop40
 90
        0
102
RTVSPost2010PropOp40
 70
     1
102
RTVSPost2010Prop41ColorIndex
 90
       18
102
RTVSPost2010Prop41ColorRGB
 90
        0
102
RTVSPost2010PropOp41
 70
     1
102
RTVSPost2010Prop42
 90
       50
102
RTVSPost2010PropOp42
 70
     1
102
RTVSPost2010Prop43
 90
        3
102
RTVSPost2010PropOp43
 70
     1
102
RTVSPost2010Prop44ColorIndex
 90
        5
102
RTVSPost2010Prop44ColorRGB
 90
      255
102
RTVSPost2010PropOp44
 70
     1
102
RTVSPost2010Prop45
280
     0
102
RTVSPost2010PropOp45
 70
     1
102
RTVSPost2010Prop46
 90
       50
102
RTVSPost2010PropOp46
 70
     1
102
RTVSPost2010Prop47
 90
       50
102
RTVSPost2010PropOp47
 70
     1
102
RTVSPost2010Prop48
 90
       50
102
RTVSPost2010PropOp48
 70
     1
102
RTVSPost2010Prop49
280
     0
102
RTVSPost2010PropOp49
 70
     1
102
RTVSPost2010Prop50
 90
       50
102
RTVSPost2010PropOp50
 70
     1
102
RTVSPost2010Prop51ColorIndex
 90
      256
102
RTVSPost2010Prop51ColorRGB
 90
-16777216
102
RTVSPost2010PropOp51
 70
     0
102
RTVSPost2010Prop52
140
1.0
102
RTVSPost2010PropOp52
 70
     0
102
RTVSPost2010Prop53
 90
        2
102
RTVSPost2010PropOp53
 70
     1
102
RTVSPost2010Prop54
  1
strokes_ogs.tif
102
RTVSPost2010PropOp54
 70
     1
102
RTVSPost2010Prop55
280
     0
102
RTVSPost2010PropOp55
 70
     1
102
RTVSPost2010Prop56
140
1.0
102
RTVSPost2010PropOp56
 70
     1
102
RTVSPost2010Prop57
140
1.0
102
RTVSPost2010PropOp57
 70
     1
102
RTVSPropertyOp0
 70
     1
102
RTVSPropertyOp1
 70
     1
102
RTVSPropertyOp2
 70
     1
102
RTVSPropertyOp3
 70
     1
102
RTVSPropertyOp4
 70
     1
102
RTVSPropertyOp5
 70
     1
102
RTVSPropertyOp6
 70
     1
102
RTVSPropertyOp7
 70
     1
102
RTVSPropertyOp8
 70
     1
102
RTVSPropertyOp9
 70
     1
102
RTVSPropertyOp10
 70
     1
102
RTVSPropertyOp11
 70
     1
102
RTVSPropertyOp12
 70
     1
102
RTVSPropertyOp13
 70
     1
102
RTVSPropertyOp14
 70
     1
102
RTVSPropertyOp15
 70
     1
102
RTVSPropertyOp16
 70
     1
102
RTVSPropertyOp17
 70
     1
102
RTVSPropertyOp18
 70
     1
102
RTVSPropertyOp19
 70
     1
102
RTVSPropertyOp20
 70
     1
102
RTVSPropertyOp21
 70
     1
102
RTVSPropertyOp22
 70
     1
102
RTVSPropertyOp23
 70
     1
102
RTVSPropertyOp24
 70
     1
102
RTVSPropertyOp25
 70
     1
102
RTVSPropertyOp26
 70
     1
102
RTVSPropertyOp27
 70
     1
102
RTVSPropertyOp28
 70
     1
102
RTVSPropertyOp29
 70
     1
102
RTVSPropertyOp30
 70
     1
102
RTVSPropertyOp31
 70
     1
102
RTVSPropertyOp32
 70
     1
102
RTVSPropertyOp33
 70
     1
102
RTVSPropertyOp34
 70
     1
102
RTVSPropertyOp35
 70
     1
102
RTVSPropertyOp36
 70
     1
102
RTVSPropertyOp37
 70
     1
102
RTVSPropertyOp38
 70
     1
102
RTVSPropertyOp39
 70
     1
102
RTVSPropertyOp40
 70
     1
102
RTVSPropertyOp41
 70
     1
102
RTVSPropertyOp42
 70
     1
102
RTVSPropertyOp43
 70
     1
102
RTVSPropertyOp44
 70
     1
102
RTVSPropertyOp45
 70
     1
102
RTVSPropertyOp46
 70
     1
102
RTVSPropertyOp47
 70
     1
102
RTVSPropertyOp48
 70
     1
102
RTVSPropertyOp49
 70
     1
102
RTVSPropertyOp50
 70
     1
102
RTVSPropertyOp51
 70
     0
102
RTVSPropertyOp52
 70
     0
102
RTVSPropertyOp53
 70
     1
102
RTVSPropertyOp54
 70
     1
102
RTVSPropertyOp55
 70
     1
102
RTVSPropertyOp56
 70
     1
102
RTVSPropertyOp57
 70
     1
102
RTVSPropertyOp58
 70
     1
102
RTVSPropertyOp59
 70
     1
102
RTVSPropertyOp60
 70
     1
102
RTVSPropertyOp61
 70
     1
102
RTVSPropertyOp62
 70
     1
  0
XRECORD
  5
86A3
102
{ACAD_REACTORS
330
86A2
102
}
330
86A2
100
AcDbXrecord
280
     1
102
RTVSPost2010Prop28
280
     0
102
RTVSPost2010PropOp28
 70
     1
102
RTVSPost2010Prop29
280
     1
102
RTVSPost2010PropOp29
 70
     1
102
RTVSPost2010Prop30
280
     1
102
RTVSPost2010PropOp30
 70
     1
102
RTVSPost2010Prop31
280
     0
102
RTVSPost2010PropOp31
 70
     1
102
RTVSPost2010Prop32
280
     0
102
RTVSPost2010PropOp32
 70
     1
102
RTVSPost2010Prop33
280
     0
102
RTVSPost2010PropOp33
 70
     1
102
RTVSPost2010Prop34
280
     0
102
RTVSPost2010PropOp34
 70
     1
102
RTVSPost2010Prop35
280
     0
102
RTVSPost2010PropOp35
 70
     1
102
RTVSPost2010Prop36
280
     0
102
RTVSPost2010PropOp36
 70
     1
102
RTVSPost2010Prop37
 90
       50
102
RTVSPost2010PropOp37
 70
     1
102
RTVSPost2010Prop38
140
0.0
102
RTVSPost2010PropOp38
 70
     1
102
RTVSPost2010Prop39
140
1.0
102
RTVSPost2010PropOp39
 70
     1
102
RTVSPost2010Prop40
 90
        0
102
RTVSPost2010PropOp40
 70
     1
102
RTVSPost2010Prop41ColorIndex
 90
       18
102
RTVSPost2010Prop41ColorRGB
 90
        0
102
RTVSPost2010PropOp41
 70
     1
102
RTVSPost2010Prop42
 90
       50
102
RTVSPost2010PropOp42
 70
     1
102
RTVSPost2010Prop43
 90
        3
102
RTVSPost2010PropOp43
 70
     1
102
RTVSPost2010Prop44ColorIndex
 90
        5
102
RTVSPost2010Prop44ColorRGB
 90
      255
102
RTVSPost2010PropOp44
 70
     1
102
RTVSPost2010Prop45
280
     0
102
RTVSPost2010PropOp45
 70
     1
102
RTVSPost2010Prop46
 90
       50
102
RTVSPost2010PropOp46
 70
     1
102
RTVSPost2010Prop47
 90
       50
102
RTVSPost2010PropOp47
 70
     1
102
RTVSPost2010Prop48
 90
       50
102
RTVSPost2010PropOp48
 70
     1
102
RTVSPost2010Prop49
280
     0
102
RTVSPost2010PropOp49
 70
     1
102
RTVSPost2010Prop50
 90
       50
102
RTVSPost2010PropOp50
 70
     1
102
RTVSPost2010Prop51ColorIndex
 90
      256
102
RTVSPost2010Prop51ColorRGB
 90
-16777216
102
RTVSPost2010PropOp51
 70
     0
102
RTVSPost2010Prop52
140
1.0
102
RTVSPost2010PropOp52
 70
     0
102
RTVSPost2010Prop53
 90
        2
102
RTVSPost2010PropOp53
 70
     1
102
RTVSPost2010Prop54
  1
strokes_ogs.tif
102
RTVSPost2010PropOp54
 70
     1
102
RTVSPost2010Prop55
280
     0
102
RTVSPost2010PropOp55
 70
     1
102
RTVSPost2010Prop56
140
1.0
102
RTVSPost2010PropOp56
 70
     1
102
RTVSPost2010Prop57
140
1.0
102
RTVSPost2010PropOp57
 70
     1
102
RTVSPropertyOp0
 70
     1
102
RTVSPropertyOp1
 70
     1
102
RTVSPropertyOp2
 70
     1
102
RTVSPropertyOp3
 70
     1
102
RTVSPropertyOp4
 70
     1
102
RTVSPropertyOp5
 70
     1
102
RTVSPropertyOp6
 70
     1
102
RTVSPropertyOp7
 70
     1
102
RTVSPropertyOp8
 70
     1
102
RTVSPropertyOp9
 70
     1
102
RTVSPropertyOp10
 70
     1
102
RTVSPropertyOp11
 70
     1
102
RTVSPropertyOp12
 70
     1
102
RTVSPropertyOp13
 70
     1
102
RTVSPropertyOp14
 70
     1
102
RTVSPropertyOp15
 70
     1
102
RTVSPropertyOp16
 70
     1
102
RTVSPropertyOp17
 70
     1
102
RTVSPropertyOp18
 70
     1
102
RTVSPropertyOp19
 70
     1
102
RTVSPropertyOp20
 70
     1
102
RTVSPropertyOp21
 70
     1
102
RTVSPropertyOp22
 70
     1
102
RTVSPropertyOp23
 70
     1
102
RTVSPropertyOp24
 70
     1
102
RTVSPropertyOp25
 70
     1
102
RTVSPropertyOp26
 70
     1
102
RTVSPropertyOp27
 70
     1
102
RTVSPropertyOp28
 70
     1
102
RTVSPropertyOp29
 70
     1
102
RTVSPropertyOp30
 70
     1
102
RTVSPropertyOp31
 70
     1
102
RTVSPropertyOp32
 70
     1
102
RTVSPropertyOp33
 70
     1
102
RTVSPropertyOp34
 70
     1
102
RTVSPropertyOp35
 70
     1
102
RTVSPropertyOp36
 70
     1
102
RTVSPropertyOp37
 70
     1
102
RTVSPropertyOp38
 70
     1
102
RTVSPropertyOp39
 70
     1
102
RTVSPropertyOp40
 70
     1
102
RTVSPropertyOp41
 70
     1
102
RTVSPropertyOp42
 70
     1
102
RTVSPropertyOp43
 70
     1
102
RTVSPropertyOp44
 70
     1
102
RTVSPropertyOp45
 70
     1
102
RTVSPropertyOp46
 70
     1
102
RTVSPropertyOp47
 70
     1
102
RTVSPropertyOp48
 70
     1
102
RTVSPropertyOp49
 70
     1
102
RTVSPropertyOp50
 70
     1
102
RTVSPropertyOp51
 70
     0
102
RTVSPropertyOp52
 70
     0
102
RTVSPropertyOp53
 70
     1
102
RTVSPropertyOp54
 70
     1
102
RTVSPropertyOp55
 70
     1
102
RTVSPropertyOp56
 70
     1
102
RTVSPropertyOp57
 70
     1
102
RTVSPropertyOp58
 70
     1
102
RTVSPropertyOp59
 70
     1
102
RTVSPropertyOp60
 70
     1
102
RTVSPropertyOp61
 70
     1
102
RTVSPropertyOp62
 70
     1
  0
XRECORD
  5
86A5
102
{ACAD_REACTORS
330
86A4
102
}
330
86A4
100
AcDbXrecord
280
     1
102
RTVSPost2010Prop28
280
     0
102
RTVSPost2010PropOp28
 70
     1
102
RTVSPost2010Prop29
280
     1
102
RTVSPost2010PropOp29
 70
     1
102
RTVSPost2010Prop30
280
     1
102
RTVSPost2010PropOp30
 70
     1
102
RTVSPost2010Prop31
280
     0
102
RTVSPost2010PropOp31
 70
     1
102
RTVSPost2010Prop32
280
     0
102
RTVSPost2010PropOp32
 70
     1
102
RTVSPost2010Prop33
280
     0
102
RTVSPost2010PropOp33
 70
     1
102
RTVSPost2010Prop34
280
     0
102
RTVSPost2010PropOp34
 70
     1
102
RTVSPost2010Prop35
280
     0
102
RTVSPost2010PropOp35
 70
     1
102
RTVSPost2010Prop36
280
     0
102
RTVSPost2010PropOp36
 70
     1
102
RTVSPost2010Prop37
 90
       50
102
RTVSPost2010PropOp37
 70
     1
102
RTVSPost2010Prop38
140
0.0
102
RTVSPost2010PropOp38
 70
     1
102
RTVSPost2010Prop39
140
1.0
102
RTVSPost2010PropOp39
 70
     1
102
RTVSPost2010Prop40
 90
        0
102
RTVSPost2010PropOp40
 70
     1
102
RTVSPost2010Prop41ColorIndex
 90
       18
102
RTVSPost2010Prop41ColorRGB
 90
        0
102
RTVSPost2010PropOp41
 70
     1
102
RTVSPost2010Prop42
 90
       50
102
RTVSPost2010PropOp42
 70
     1
102
RTVSPost2010Prop43
 90
        3
102
RTVSPost2010PropOp43
 70
     1
102
RTVSPost2010Prop44ColorIndex
 90
        5
102
RTVSPost2010Prop44ColorRGB
 90
      255
102
RTVSPost2010PropOp44
 70
     1
102
RTVSPost2010Prop45
280
     0
102
RTVSPost2010PropOp45
 70
     1
102
RTVSPost2010Prop46
 90
       50
102
RTVSPost2010PropOp46
 70
     1
102
RTVSPost2010Prop47
 90
       50
102
RTVSPost2010PropOp47
 70
     1
102
RTVSPost2010Prop48
 90
       50
102
RTVSPost2010PropOp48
 70
     1
102
RTVSPost2010Prop49
280
     0
102
RTVSPost2010PropOp49
 70
     1
102
RTVSPost2010Prop50
 90
       50
102
RTVSPost2010PropOp50
 70
     1
102
RTVSPost2010Prop51ColorIndex
 90
      256
102
RTVSPost2010Prop51ColorRGB
 90
-16777216
102
RTVSPost2010PropOp51
 70
     0
102
RTVSPost2010Prop52
140
1.0
102
RTVSPost2010PropOp52
 70
     0
102
RTVSPost2010Prop53
 90
        2
102
RTVSPost2010PropOp53
 70
     1
102
RTVSPost2010Prop54
  1
strokes_ogs.tif
102
RTVSPost2010PropOp54
 70
     1
102
RTVSPost2010Prop55
280
     0
102
RTVSPost2010PropOp55
 70
     1
102
RTVSPost2010Prop56
140
1.0
102
RTVSPost2010PropOp56
 70
     1
102
RTVSPost2010Prop57
140
1.0
102
RTVSPost2010PropOp57
 70
     1
102
RTVSPropertyOp0
 70
     1
102
RTVSPropertyOp1
 70
     1
102
RTVSPropertyOp2
 70
     1
102
RTVSPropertyOp3
 70
     1
102
RTVSPropertyOp4
 70
     1
102
RTVSPropertyOp5
 70
     1
102
RTVSPropertyOp6
 70
     1
102
RTVSPropertyOp7
 70
     1
102
RTVSPropertyOp8
 70
     1
102
RTVSPropertyOp9
 70
     1
102
RTVSPropertyOp10
 70
     1
102
RTVSPropertyOp11
 70
     1
102
RTVSPropertyOp12
 70
     1
102
RTVSPropertyOp13
 70
     1
102
RTVSPropertyOp14
 70
     1
102
RTVSPropertyOp15
 70
     1
102
RTVSPropertyOp16
 70
     1
102
RTVSPropertyOp17
 70
     1
102
RTVSPropertyOp18
 70
     1
102
RTVSPropertyOp19
 70
     1
102
RTVSPropertyOp20
 70
     1
102
RTVSPropertyOp21
 70
     1
102
RTVSPropertyOp22
 70
     1
102
RTVSPropertyOp23
 70
     1
102
RTVSPropertyOp24
 70
     1
102
RTVSPropertyOp25
 70
     1
102
RTVSPropertyOp26
 70
     1
102
RTVSPropertyOp27
 70
     1
102
RTVSPropertyOp28
 70
     1
102
RTVSPropertyOp29
 70
     1
102
RTVSPropertyOp30
 70
     1
102
RTVSPropertyOp31
 70
     1
102
RTVSPropertyOp32
 70
     1
102
RTVSPropertyOp33
 70
     1
102
RTVSPropertyOp34
 70
     1
102
RTVSPropertyOp35
 70
     1
102
RTVSPropertyOp36
 70
     1
102
RTVSPropertyOp37
 70
     1
102
RTVSPropertyOp38
 70
     1
102
RTVSPropertyOp39
 70
     1
102
RTVSPropertyOp40
 70
     1
102
RTVSPropertyOp41
 70
     1
102
RTVSPropertyOp42
 70
     1
102
RTVSPropertyOp43
 70
     1
102
RTVSPropertyOp44
 70
     1
102
RTVSPropertyOp45
 70
     1
102
RTVSPropertyOp46
 70
     1
102
RTVSPropertyOp47
 70
     1
102
RTVSPropertyOp48
 70
     1
102
RTVSPropertyOp49
 70
     1
102
RTVSPropertyOp50
 70
     1
102
RTVSPropertyOp51
 70
     0
102
RTVSPropertyOp52
 70
     0
102
RTVSPropertyOp53
 70
     1
102
RTVSPropertyOp54
 70
     1
102
RTVSPropertyOp55
 70
     1
102
RTVSPropertyOp56
 70
     1
102
RTVSPropertyOp57
 70
     1
102
RTVSPropertyOp58
 70
     1
102
RTVSPropertyOp59
 70
     1
102
RTVSPropertyOp60
 70
     1
102
RTVSPropertyOp61
 70
     1
102
RTVSPropertyOp62
 70
     1
  0
XRECORD
  5
86A7
102
{ACAD_REACTORS
330
86A6
102
}
330
86A6
100
AcDbXrecord
280
     1
102
RTVSPost2010Prop28
280
     0
102
RTVSPost2010PropOp28
 70
     1
102
RTVSPost2010Prop29
280
     1
102
RTVSPost2010PropOp29
 70
     1
102
RTVSPost2010Prop30
280
     1
102
RTVSPost2010PropOp30
 70
     1
102
RTVSPost2010Prop31
280
     0
102
RTVSPost2010PropOp31
 70
     1
102
RTVSPost2010Prop32
280
     0
102
RTVSPost2010PropOp32
 70
     1
102
RTVSPost2010Prop33
280
     0
102
RTVSPost2010PropOp33
 70
     1
102
RTVSPost2010Prop34
280
     0
102
RTVSPost2010PropOp34
 70
     1
102
RTVSPost2010Prop35
280
     0
102
RTVSPost2010PropOp35
 70
     1
102
RTVSPost2010Prop36
280
     0
102
RTVSPost2010PropOp36
 70
     1
102
RTVSPost2010Prop37
 90
       50
102
RTVSPost2010PropOp37
 70
     1
102
RTVSPost2010Prop38
140
0.0
102
RTVSPost2010PropOp38
 70
     1
102
RTVSPost2010Prop39
140
1.0
102
RTVSPost2010PropOp39
 70
     1
102
RTVSPost2010Prop40
 90
        0
102
RTVSPost2010PropOp40
 70
     1
102
RTVSPost2010Prop41ColorIndex
 90
       18
102
RTVSPost2010Prop41ColorRGB
 90
        0
102
RTVSPost2010PropOp41
 70
     1
102
RTVSPost2010Prop42
 90
       50
102
RTVSPost2010PropOp42
 70
     1
102
RTVSPost2010Prop43
 90
        3
102
RTVSPost2010PropOp43
 70
     1
102
RTVSPost2010Prop44ColorIndex
 90
        5
102
RTVSPost2010Prop44ColorRGB
 90
      255
102
RTVSPost2010PropOp44
 70
     1
102
RTVSPost2010Prop45
280
     0
102
RTVSPost2010PropOp45
 70
     1
102
RTVSPost2010Prop46
 90
       50
102
RTVSPost2010PropOp46
 70
     1
102
RTVSPost2010Prop47
 90
       50
102
RTVSPost2010PropOp47
 70
     1
102
RTVSPost2010Prop48
 90
       50
102
RTVSPost2010PropOp48
 70
     1
102
RTVSPost2010Prop49
280
     0
102
RTVSPost2010PropOp49
 70
     1
102
RTVSPost2010Prop50
 90
       50
102
RTVSPost2010PropOp50
 70
     1
102
RTVSPost2010Prop51ColorIndex
 90
      256
102
RTVSPost2010Prop51ColorRGB
 90
-16777216
102
RTVSPost2010PropOp51
 70
     0
102
RTVSPost2010Prop52
140
1.0
102
RTVSPost2010PropOp52
 70
     0
102
RTVSPost2010Prop53
 90
        2
102
RTVSPost2010PropOp53
 70
     1
102
RTVSPost2010Prop54
  1
strokes_ogs.tif
102
RTVSPost2010PropOp54
 70
     1
102
RTVSPost2010Prop55
280
     0
102
RTVSPost2010PropOp55
 70
     1
102
RTVSPost2010Prop56
140
1.0
102
RTVSPost2010PropOp56
 70
     1
102
RTVSPost2010Prop57
140
1.0
102
RTVSPost2010PropOp57
 70
     1
102
RTVSPropertyOp0
 70
     1
102
RTVSPropertyOp1
 70
     1
102
RTVSPropertyOp2
 70
     1
102
RTVSPropertyOp3
 70
     1
102
RTVSPropertyOp4
 70
     1
102
RTVSPropertyOp5
 70
     1
102
RTVSPropertyOp6
 70
     1
102
RTVSPropertyOp7
 70
     1
102
RTVSPropertyOp8
 70
     1
102
RTVSPropertyOp9
 70
     1
102
RTVSPropertyOp10
 70
     1
102
RTVSPropertyOp11
 70
     1
102
RTVSPropertyOp12
 70
     1
102
RTVSPropertyOp13
 70
     1
102
RTVSPropertyOp14
 70
     1
102
RTVSPropertyOp15
 70
     1
102
RTVSPropertyOp16
 70
     1
102
RTVSPropertyOp17
 70
     1
102
RTVSPropertyOp18
 70
     1
102
RTVSPropertyOp19
 70
     1
102
RTVSPropertyOp20
 70
     1
102
RTVSPropertyOp21
 70
     1
102
RTVSPropertyOp22
 70
     1
102
RTVSPropertyOp23
 70
     1
102
RTVSPropertyOp24
 70
     1
102
RTVSPropertyOp25
 70
     1
102
RTVSPropertyOp26
 70
     1
102
RTVSPropertyOp27
 70
     1
102
RTVSPropertyOp28
 70
     1
102
RTVSPropertyOp29
 70
     1
102
RTVSPropertyOp30
 70
     1
102
RTVSPropertyOp31
 70
     1
102
RTVSPropertyOp32
 70
     1
102
RTVSPropertyOp33
 70
     1
102
RTVSPropertyOp34
 70
     1
102
RTVSPropertyOp35
 70
     1
102
RTVSPropertyOp36
 70
     1
102
RTVSPropertyOp37
 70
     1
102
RTVSPropertyOp38
 70
     1
102
RTVSPropertyOp39
 70
     1
102
RTVSPropertyOp40
 70
     1
102
RTVSPropertyOp41
 70
     1
102
RTVSPropertyOp42
 70
     1
102
RTVSPropertyOp43
 70
     1
102
RTVSPropertyOp44
 70
     1
102
RTVSPropertyOp45
 70
     1
102
RTVSPropertyOp46
 70
     1
102
RTVSPropertyOp47
 70
     1
102
RTVSPropertyOp48
 70
     1
102
RTVSPropertyOp49
 70
     1
102
RTVSPropertyOp50
 70
     1
102
RTVSPropertyOp51
 70
     0
102
RTVSPropertyOp52
 70
     0
102
RTVSPropertyOp53
 70
     1
102
RTVSPropertyOp54
 70
     1
102
RTVSPropertyOp55
 70
     1
102
RTVSPropertyOp56
 70
     1
102
RTVSPropertyOp57
 70
     1
102
RTVSPropertyOp58
 70
     1
102
RTVSPropertyOp59
 70
     1
102
RTVSPropertyOp60
 70
     1
102
RTVSPropertyOp61
 70
     1
102
RTVSPropertyOp62
 70
     1
  0
XRECORD
  5
86AF
102
{ACAD_REACTORS
330
86AE
102
}
330
86AE
100
AcDbXrecord
280
     1
102
RTVSPost2010Prop28
280
     0
102
RTVSPost2010PropOp28
 70
     1
102
RTVSPost2010Prop29
280
     1
102
RTVSPost2010PropOp29
 70
     1
102
RTVSPost2010Prop30
280
     1
102
RTVSPost2010PropOp30
 70
     1
102
RTVSPost2010Prop31
280
     0
102
RTVSPost2010PropOp31
 70
     1
102
RTVSPost2010Prop32
280
     0
102
RTVSPost2010PropOp32
 70
     1
102
RTVSPost2010Prop33
280
     0
102
RTVSPost2010PropOp33
 70
     1
102
RTVSPost2010Prop34
280
     0
102
RTVSPost2010PropOp34
 70
     1
102
RTVSPost2010Prop35
280
     0
102
RTVSPost2010PropOp35
 70
     1
102
RTVSPost2010Prop36
280
     0
102
RTVSPost2010PropOp36
 70
     1
102
RTVSPost2010Prop37
 90
       50
102
RTVSPost2010PropOp37
 70
     1
102
RTVSPost2010Prop38
140
0.0
102
RTVSPost2010PropOp38
 70
     1
102
RTVSPost2010Prop39
140
1.0
102
RTVSPost2010PropOp39
 70
     1
102
RTVSPost2010Prop40
 90
        0
102
RTVSPost2010PropOp40
 70
     1
102
RTVSPost2010Prop41ColorIndex
 90
       18
102
RTVSPost2010Prop41ColorRGB
 90
        0
102
RTVSPost2010PropOp41
 70
     1
102
RTVSPost2010Prop42
 90
       50
102
RTVSPost2010PropOp42
 70
     1
102
RTVSPost2010Prop43
 90
        3
102
RTVSPost2010PropOp43
 70
     1
102
RTVSPost2010Prop44ColorIndex
 90
        5
102
RTVSPost2010Prop44ColorRGB
 90
      255
102
RTVSPost2010PropOp44
 70
     1
102
RTVSPost2010Prop45
280
     0
102
RTVSPost2010PropOp45
 70
     1
102
RTVSPost2010Prop46
 90
       50
102
RTVSPost2010PropOp46
 70
     1
102
RTVSPost2010Prop47
 90
       50
102
RTVSPost2010PropOp47
 70
     1
102
RTVSPost2010Prop48
 90
       50
102
RTVSPost2010PropOp48
 70
     1
102
RTVSPost2010Prop49
280
     0
102
RTVSPost2010PropOp49
 70
     1
102
RTVSPost2010Prop50
 90
       50
102
RTVSPost2010PropOp50
 70
     1
102
RTVSPost2010Prop51ColorIndex
 90
      256
102
RTVSPost2010Prop51ColorRGB
 90
-16777216
102
RTVSPost2010PropOp51
 70
     0
102
RTVSPost2010Prop52
140
1.0
102
RTVSPost2010PropOp52
 70
     0
102
RTVSPost2010Prop53
 90
        2
102
RTVSPost2010PropOp53
 70
     1
102
RTVSPost2010Prop54
  1
strokes_ogs.tif
102
RTVSPost2010PropOp54
 70
     1
102
RTVSPost2010Prop55
280
     0
102
RTVSPost2010PropOp55
 70
     1
102
RTVSPost2010Prop56
140
1.0
102
RTVSPost2010PropOp56
 70
     1
102
RTVSPost2010Prop57
140
1.0
102
RTVSPost2010PropOp57
 70
     1
102
RTVSPropertyOp0
 70
     1
102
RTVSPropertyOp1
 70
     1
102
RTVSPropertyOp2
 70
     1
102
RTVSPropertyOp3
 70
     1
102
RTVSPropertyOp4
 70
     1
102
RTVSPropertyOp5
 70
     1
102
RTVSPropertyOp6
 70
     1
102
RTVSPropertyOp7
 70
     1
102
RTVSPropertyOp8
 70
     1
102
RTVSPropertyOp9
 70
     1
102
RTVSPropertyOp10
 70
     1
102
RTVSPropertyOp11
 70
     1
102
RTVSPropertyOp12
 70
     1
102
RTVSPropertyOp13
 70
     1
102
RTVSPropertyOp14
 70
     1
102
RTVSPropertyOp15
 70
     1
102
RTVSPropertyOp16
 70
     1
102
RTVSPropertyOp17
 70
     1
102
RTVSPropertyOp18
 70
     1
102
RTVSPropertyOp19
 70
     1
102
RTVSPropertyOp20
 70
     1
102
RTVSPropertyOp21
 70
     1
102
RTVSPropertyOp22
 70
     1
102
RTVSPropertyOp23
 70
     1
102
RTVSPropertyOp24
 70
     1
102
RTVSPropertyOp25
 70
     1
102
RTVSPropertyOp26
 70
     1
102
RTVSPropertyOp27
 70
     1
102
RTVSPropertyOp28
 70
     1
102
RTVSPropertyOp29
 70
     1
102
RTVSPropertyOp30
 70
     1
102
RTVSPropertyOp31
 70
     1
102
RTVSPropertyOp32
 70
     1
102
RTVSPropertyOp33
 70
     1
102
RTVSPropertyOp34
 70
     1
102
RTVSPropertyOp35
 70
     1
102
RTVSPropertyOp36
 70
     1
102
RTVSPropertyOp37
 70
     1
102
RTVSPropertyOp38
 70
     1
102
RTVSPropertyOp39
 70
     1
102
RTVSPropertyOp40
 70
     1
102
RTVSPropertyOp41
 70
     1
102
RTVSPropertyOp42
 70
     1
102
RTVSPropertyOp43
 70
     1
102
RTVSPropertyOp44
 70
     1
102
RTVSPropertyOp45
 70
     1
102
RTVSPropertyOp46
 70
     1
102
RTVSPropertyOp47
 70
     1
102
RTVSPropertyOp48
 70
     1
102
RTVSPropertyOp49
 70
     1
102
RTVSPropertyOp50
 70
     1
102
RTVSPropertyOp51
 70
     0
102
RTVSPropertyOp52
 70
     0
102
RTVSPropertyOp53
 70
     1
102
RTVSPropertyOp54
 70
     1
102
RTVSPropertyOp55
 70
     1
102
RTVSPropertyOp56
 70
     1
102
RTVSPropertyOp57
 70
     1
102
RTVSPropertyOp58
 70
     1
102
RTVSPropertyOp59
 70
     1
102
RTVSPropertyOp60
 70
     1
102
RTVSPropertyOp61
 70
     1
102
RTVSPropertyOp62
 70
     1
  0
XRECORD
  5
86CB
102
{ACAD_REACTORS
330
86CA
102
}
330
86CA
100
AcDbXrecord
280
     1
102
RTVSPost2010Prop28
280
     0
102
RTVSPost2010PropOp28
 70
     1
102
RTVSPost2010Prop29
280
     1
102
RTVSPost2010PropOp29
 70
     1
102
RTVSPost2010Prop30
280
     1
102
RTVSPost2010PropOp30
 70
     1
102
RTVSPost2010Prop31
280
     0
102
RTVSPost2010PropOp31
 70
     1
102
RTVSPost2010Prop32
280
     0
102
RTVSPost2010PropOp32
 70
     1
102
RTVSPost2010Prop33
280
     0
102
RTVSPost2010PropOp33
 70
     1
102
RTVSPost2010Prop34
280
     0
102
RTVSPost2010PropOp34
 70
     1
102
RTVSPost2010Prop35
280
     0
102
RTVSPost2010PropOp35
 70
     1
102
RTVSPost2010Prop36
280
     0
102
RTVSPost2010PropOp36
 70
     1
102
RTVSPost2010Prop37
 90
       50
102
RTVSPost2010PropOp37
 70
     0
102
RTVSPost2010Prop38
140
0.0
102
RTVSPost2010PropOp38
 70
     0
102
RTVSPost2010Prop39
140
1.0
102
RTVSPost2010PropOp39
 70
     0
102
RTVSPost2010Prop40
 90
        0
102
RTVSPost2010PropOp40
 70
     0
102
RTVSPost2010Prop41ColorIndex
 90
       18
102
RTVSPost2010Prop41ColorRGB
 90
        0
102
RTVSPost2010PropOp41
 70
     0
102
RTVSPost2010Prop42
 90
       50
102
RTVSPost2010PropOp42
 70
     0
102
RTVSPost2010Prop43
 90
        3
102
RTVSPost2010PropOp43
 70
     0
102
RTVSPost2010Prop44ColorIndex
 90
        5
102
RTVSPost2010Prop44ColorRGB
 90
      255
102
RTVSPost2010PropOp44
 70
     0
102
RTVSPost2010Prop45
280
     0
102
RTVSPost2010PropOp45
 70
     1
102
RTVSPost2010Prop46
 90
       50
102
RTVSPost2010PropOp46
 70
     0
102
RTVSPost2010Prop47
 90
       50
102
RTVSPost2010PropOp47
 70
     0
102
RTVSPost2010Prop48
 90
       50
102
RTVSPost2010PropOp48
 70
     0
102
RTVSPost2010Prop49
280
     0
102
RTVSPost2010PropOp49
 70
     1
102
RTVSPost2010Prop50
 90
       50
102
RTVSPost2010PropOp50
 70
     0
102
RTVSPost2010Prop51ColorIndex
 90
      256
102
RTVSPost2010Prop51ColorRGB
 90
-16777216
102
RTVSPost2010PropOp51
 70
     0
102
RTVSPost2010Prop52
140
1.0
102
RTVSPost2010PropOp52
 70
     0
102
RTVSPost2010Prop53
 90
        2
102
RTVSPost2010PropOp53
 70
     0
102
RTVSPost2010Prop54
  1
strokes_ogs.tif
102
RTVSPost2010PropOp54
 70
     0
102
RTVSPost2010Prop55
280
     0
102
RTVSPost2010PropOp55
 70
     1
102
RTVSPost2010Prop56
140
1.0
102
RTVSPost2010PropOp56
 70
     0
102
RTVSPost2010Prop57
140
1.0
102
RTVSPost2010PropOp57
 70
     0
102
RTVSPropertyOp0
 70
     0
102
RTVSPropertyOp1
 70
     0
102
RTVSPropertyOp2
 70
     0
102
RTVSPropertyOp3
 70
     0
102
RTVSPropertyOp4
 70
     0
102
RTVSPropertyOp5
 70
     0
102
RTVSPropertyOp6
 70
     0
102
RTVSPropertyOp7
 70
     0
102
RTVSPropertyOp8
 70
     0
102
RTVSPropertyOp9
 70
     0
102
RTVSPropertyOp10
 70
     0
102
RTVSPropertyOp11
 70
     0
102
RTVSPropertyOp12
 70
     0
102
RTVSPropertyOp13
 70
     0
102
RTVSPropertyOp14
 70
     2
102
RTVSPropertyOp15
 70
     0
102
RTVSPropertyOp16
 70
     0
102
RTVSPropertyOp17
 70
     0
102
RTVSPropertyOp18
 70
     0
102
RTVSPropertyOp19
 70
     0
102
RTVSPropertyOp20
 70
     0
102
RTVSPropertyOp21
 70
     0
102
RTVSPropertyOp22
 70
     0
102
RTVSPropertyOp23
 70
     0
102
RTVSPropertyOp24
 70
     0
102
RTVSPropertyOp25
 70
     0
102
RTVSPropertyOp26
 70
     0
102
RTVSPropertyOp27
 70
     0
102
RTVSPropertyOp28
 70
     1
102
RTVSPropertyOp29
 70
     1
102
RTVSPropertyOp30
 70
     1
102
RTVSPropertyOp31
 70
     1
102
RTVSPropertyOp32
 70
     1
102
RTVSPropertyOp33
 70
     1
102
RTVSPropertyOp34
 70
     1
102
RTVSPropertyOp35
 70
     1
102
RTVSPropertyOp36
 70
     1
102
RTVSPropertyOp37
 70
     0
102
RTVSPropertyOp38
 70
     0
102
RTVSPropertyOp39
 70
     0
102
RTVSPropertyOp40
 70
     0
102
RTVSPropertyOp41
 70
     0
102
RTVSPropertyOp42
 70
     0
102
RTVSPropertyOp43
 70
     0
102
RTVSPropertyOp44
 70
     0
102
RTVSPropertyOp45
 70
     1
102
RTVSPropertyOp46
 70
     0
102
RTVSPropertyOp47
 70
     0
102
RTVSPropertyOp48
 70
     0
102
RTVSPropertyOp49
 70
     1
102
RTVSPropertyOp50
 70
     0
102
RTVSPropertyOp51
 70
     0
102
RTVSPropertyOp52
 70
     0
102
RTVSPropertyOp53
 70
     0
102
RTVSPropertyOp54
 70
     0
102
RTVSPropertyOp55
 70
     1
102
RTVSPropertyOp56
 70
     0
102
RTVSPropertyOp57
 70
     0
102
RTVSPropertyOp58
 70
     0
102
RTVSPropertyOp59
 70
     0
102
RTVSPropertyOp60
 70
     0
102
RTVSPropertyOp61
 70
     0
102
RTVSPropertyOp62
 70
     0
  0
XRECORD
  5
86BB
102
{ACAD_REACTORS
330
86BA
102
}
330
86BA
100
AcDbXrecord
280
     1
102
RTVSPost2010Prop28
280
     0
102
RTVSPost2010PropOp28
 70
     1
102
RTVSPost2010Prop29
280
     1
102
RTVSPost2010PropOp29
 70
     1
102
RTVSPost2010Prop30
280
     1
102
RTVSPost2010PropOp30
 70
     1
102
RTVSPost2010Prop31
280
     0
102
RTVSPost2010PropOp31
 70
     1
102
RTVSPost2010Prop32
280
     0
102
RTVSPost2010PropOp32
 70
     1
102
RTVSPost2010Prop33
280
     0
102
RTVSPost2010PropOp33
 70
     1
102
RTVSPost2010Prop34
280
     0
102
RTVSPost2010PropOp34
 70
     1
102
RTVSPost2010Prop35
280
     0
102
RTVSPost2010PropOp35
 70
     1
102
RTVSPost2010Prop36
280
     0
102
RTVSPost2010PropOp36
 70
     1
102
RTVSPost2010Prop37
 90
       50
102
RTVSPost2010PropOp37
 70
     1
102
RTVSPost2010Prop38
140
0.0
102
RTVSPost2010PropOp38
 70
     1
102
RTVSPost2010Prop39
140
1.0
102
RTVSPost2010PropOp39
 70
     1
102
RTVSPost2010Prop40
 90
        0
102
RTVSPost2010PropOp40
 70
     1
102
RTVSPost2010Prop41ColorIndex
 90
       18
102
RTVSPost2010Prop41ColorRGB
 90
        0
102
RTVSPost2010PropOp41
 70
     1
102
RTVSPost2010Prop42
 90
       50
102
RTVSPost2010PropOp42
 70
     1
102
RTVSPost2010Prop43
 90
        3
102
RTVSPost2010PropOp43
 70
     1
102
RTVSPost2010Prop44ColorIndex
 90
        5
102
RTVSPost2010Prop44ColorRGB
 90
      255
102
RTVSPost2010PropOp44
 70
     1
102
RTVSPost2010Prop45
280
     0
102
RTVSPost2010PropOp45
 70
     1
102
RTVSPost2010Prop46
 90
       50
102
RTVSPost2010PropOp46
 70
     1
102
RTVSPost2010Prop47
 90
       50
102
RTVSPost2010PropOp47
 70
     1
102
RTVSPost2010Prop48
 90
       50
102
RTVSPost2010PropOp48
 70
     1
102
RTVSPost2010Prop49
280
     0
102
RTVSPost2010PropOp49
 70
     1
102
RTVSPost2010Prop50
 90
       50
102
RTVSPost2010PropOp50
 70
     1
102
RTVSPost2010Prop51ColorIndex
 90
      256
102
RTVSPost2010Prop51ColorRGB
 90
-16777216
102
RTVSPost2010PropOp51
 70
     0
102
RTVSPost2010Prop52
140
1.0
102
RTVSPost2010PropOp52
 70
     0
102
RTVSPost2010Prop53
 90
        2
102
RTVSPost2010PropOp53
 70
     1
102
RTVSPost2010Prop54
  1
strokes_ogs.tif
102
RTVSPost2010PropOp54
 70
     1
102
RTVSPost2010Prop55
280
     0
102
RTVSPost2010PropOp55
 70
     1
102
RTVSPost2010Prop56
140
1.0
102
RTVSPost2010PropOp56
 70
     1
102
RTVSPost2010Prop57
140
1.0
102
RTVSPost2010PropOp57
 70
     1
102
RTVSPropertyOp0
 70
     1
102
RTVSPropertyOp1
 70
     1
102
RTVSPropertyOp2
 70
     1
102
RTVSPropertyOp3
 70
     1
102
RTVSPropertyOp4
 70
     1
102
RTVSPropertyOp5
 70
     1
102
RTVSPropertyOp6
 70
     1
102
RTVSPropertyOp7
 70
     1
102
RTVSPropertyOp8
 70
     1
102
RTVSPropertyOp9
 70
     1
102
RTVSPropertyOp10
 70
     1
102
RTVSPropertyOp11
 70
     1
102
RTVSPropertyOp12
 70
     1
102
RTVSPropertyOp13
 70
     1
102
RTVSPropertyOp14
 70
     1
102
RTVSPropertyOp15
 70
     1
102
RTVSPropertyOp16
 70
     1
102
RTVSPropertyOp17
 70
     1
102
RTVSPropertyOp18
 70
     1
102
RTVSPropertyOp19
 70
     1
102
RTVSPropertyOp20
 70
     1
102
RTVSPropertyOp21
 70
     1
102
RTVSPropertyOp22
 70
     1
102
RTVSPropertyOp23
 70
     1
102
RTVSPropertyOp24
 70
     1
102
RTVSPropertyOp25
 70
     1
102
RTVSPropertyOp26
 70
     1
102
RTVSPropertyOp27
 70
     1
102
RTVSPropertyOp28
 70
     1
102
RTVSPropertyOp29
 70
     1
102
RTVSPropertyOp30
 70
     1
102
RTVSPropertyOp31
 70
     1
102
RTVSPropertyOp32
 70
     1
102
RTVSPropertyOp33
 70
     1
102
RTVSPropertyOp34
 70
     1
102
RTVSPropertyOp35
 70
     1
102
RTVSPropertyOp36
 70
     1
102
RTVSPropertyOp37
 70
     1
102
RTVSPropertyOp38
 70
     1
102
RTVSPropertyOp39
 70
     1
102
RTVSPropertyOp40
 70
     1
102
RTVSPropertyOp41
 70
     1
102
RTVSPropertyOp42
 70
     1
102
RTVSPropertyOp43
 70
     1
102
RTVSPropertyOp44
 70
     1
102
RTVSPropertyOp45
 70
     1
102
RTVSPropertyOp46
 70
     1
102
RTVSPropertyOp47
 70
     1
102
RTVSPropertyOp48
 70
     1
102
RTVSPropertyOp49
 70
     1
102
RTVSPropertyOp50
 70
     1
102
RTVSPropertyOp51
 70
     0
102
RTVSPropertyOp52
 70
     0
102
RTVSPropertyOp53
 70
     1
102
RTVSPropertyOp54
 70
     1
102
RTVSPropertyOp55
 70
     1
102
RTVSPropertyOp56
 70
     1
102
RTVSPropertyOp57
 70
     1
102
RTVSPropertyOp58
 70
     1
102
RTVSPropertyOp59
 70
     1
102
RTVSPropertyOp60
 70
     1
102
RTVSPropertyOp61
 70
     1
102
RTVSPropertyOp62
 70
     1
  0
XRECORD
  5
86CD
102
{ACAD_REACTORS
330
86CC
102
}
330
86CC
100
AcDbXrecord
280
     1
102
RTVSPost2010Prop28
280
     0
102
RTVSPost2010PropOp28
 70
     1
102
RTVSPost2010Prop29
280
     1
102
RTVSPost2010PropOp29
 70
     1
102
RTVSPost2010Prop30
280
     1
102
RTVSPost2010PropOp30
 70
     1
102
RTVSPost2010Prop31
280
     0
102
RTVSPost2010PropOp31
 70
     1
102
RTVSPost2010Prop32
280
     0
102
RTVSPost2010PropOp32
 70
     1
102
RTVSPost2010Prop33
280
     0
102
RTVSPost2010PropOp33
 70
     1
102
RTVSPost2010Prop34
280
     0
102
RTVSPost2010PropOp34
 70
     1
102
RTVSPost2010Prop35
280
     0
102
RTVSPost2010PropOp35
 70
     1
102
RTVSPost2010Prop36
280
     0
102
RTVSPost2010PropOp36
 70
     1
102
RTVSPost2010Prop37
 90
       50
102
RTVSPost2010PropOp37
 70
     0
102
RTVSPost2010Prop38
140
0.0
102
RTVSPost2010PropOp38
 70
     0
102
RTVSPost2010Prop39
140
1.0
102
RTVSPost2010PropOp39
 70
     0
102
RTVSPost2010Prop40
 90
        0
102
RTVSPost2010PropOp40
 70
     0
102
RTVSPost2010Prop41ColorIndex
 90
       18
102
RTVSPost2010Prop41ColorRGB
 90
        0
102
RTVSPost2010PropOp41
 70
     0
102
RTVSPost2010Prop42
 90
       50
102
RTVSPost2010PropOp42
 70
     0
102
RTVSPost2010Prop43
 90
        3
102
RTVSPost2010PropOp43
 70
     0
102
RTVSPost2010Prop44ColorIndex
 90
        5
102
RTVSPost2010Prop44ColorRGB
 90
      255
102
RTVSPost2010PropOp44
 70
     0
102
RTVSPost2010Prop45
280
     0
102
RTVSPost2010PropOp45
 70
     1
102
RTVSPost2010Prop46
 90
       50
102
RTVSPost2010PropOp46
 70
     0
102
RTVSPost2010Prop47
 90
       50
102
RTVSPost2010PropOp47
 70
     0
102
RTVSPost2010Prop48
 90
       50
102
RTVSPost2010PropOp48
 70
     0
102
RTVSPost2010Prop49
280
     0
102
RTVSPost2010PropOp49
 70
     1
102
RTVSPost2010Prop50
 90
       50
102
RTVSPost2010PropOp50
 70
     0
102
RTVSPost2010Prop51ColorIndex
 90
      256
102
RTVSPost2010Prop51ColorRGB
 90
-16777216
102
RTVSPost2010PropOp51
 70
     0
102
RTVSPost2010Prop52
140
1.0
102
RTVSPost2010PropOp52
 70
     0
102
RTVSPost2010Prop53
 90
        2
102
RTVSPost2010PropOp53
 70
     0
102
RTVSPost2010Prop54
  1
strokes_ogs.tif
102
RTVSPost2010PropOp54
 70
     0
102
RTVSPost2010Prop55
280
     0
102
RTVSPost2010PropOp55
 70
     1
102
RTVSPost2010Prop56
140
1.0
102
RTVSPost2010PropOp56
 70
     0
102
RTVSPost2010Prop57
140
1.0
102
RTVSPost2010PropOp57
 70
     0
102
RTVSPropertyOp0
 70
     0
102
RTVSPropertyOp1
 70
     0
102
RTVSPropertyOp2
 70
     0
102
RTVSPropertyOp3
 70
     0
102
RTVSPropertyOp4
 70
     0
102
RTVSPropertyOp5
 70
     0
102
RTVSPropertyOp6
 70
     0
102
RTVSPropertyOp7
 70
     0
102
RTVSPropertyOp8
 70
     0
102
RTVSPropertyOp9
 70
     0
102
RTVSPropertyOp10
 70
     0
102
RTVSPropertyOp11
 70
     0
102
RTVSPropertyOp12
 70
     0
102
RTVSPropertyOp13
 70
     0
102
RTVSPropertyOp14
 70
     2
102
RTVSPropertyOp15
 70
     0
102
RTVSPropertyOp16
 70
     0
102
RTVSPropertyOp17
 70
     0
102
RTVSPropertyOp18
 70
     0
102
RTVSPropertyOp19
 70
     0
102
RTVSPropertyOp20
 70
     0
102
RTVSPropertyOp21
 70
     0
102
RTVSPropertyOp22
 70
     0
102
RTVSPropertyOp23
 70
     0
102
RTVSPropertyOp24
 70
     0
102
RTVSPropertyOp25
 70
     0
102
RTVSPropertyOp26
 70
     0
102
RTVSPropertyOp27
 70
     0
102
RTVSPropertyOp28
 70
     1
102
RTVSPropertyOp29
 70
     1
102
RTVSPropertyOp30
 70
     1
102
RTVSPropertyOp31
 70
     1
102
RTVSPropertyOp32
 70
     1
102
RTVSPropertyOp33
 70
     1
102
RTVSPropertyOp34
 70
     1
102
RTVSPropertyOp35
 70
     1
102
RTVSPropertyOp36
 70
     1
102
RTVSPropertyOp37
 70
     0
102
RTVSPropertyOp38
 70
     0
102
RTVSPropertyOp39
 70
     0
102
RTVSPropertyOp40
 70
     0
102
RTVSPropertyOp41
 70
     0
102
RTVSPropertyOp42
 70
     0
102
RTVSPropertyOp43
 70
     0
102
RTVSPropertyOp44
 70
     0
102
RTVSPropertyOp45
 70
     1
102
RTVSPropertyOp46
 70
     0
102
RTVSPropertyOp47
 70
     0
102
RTVSPropertyOp48
 70
     0
102
RTVSPropertyOp49
 70
     1
102
RTVSPropertyOp50
 70
     0
102
RTVSPropertyOp51
 70
     0
102
RTVSPropertyOp52
 70
     0
102
RTVSPropertyOp53
 70
     0
102
RTVSPropertyOp54
 70
     0
102
RTVSPropertyOp55
 70
     1
102
RTVSPropertyOp56
 70
     0
102
RTVSPropertyOp57
 70
     0
102
RTVSPropertyOp58
 70
     0
102
RTVSPropertyOp59
 70
     0
102
RTVSPropertyOp60
 70
     0
102
RTVSPropertyOp61
 70
     0
102
RTVSPropertyOp62
 70
     0
  0
XRECORD
  5
86B3
102
{ACAD_REACTORS
330
86B2
102
}
330
86B2
100
AcDbXrecord
280
     1
102
RTVSPost2010Prop28
280
     0
102
RTVSPost2010PropOp28
 70
     1
102
RTVSPost2010Prop29
280
     1
102
RTVSPost2010PropOp29
 70
     1
102
RTVSPost2010Prop30
280
     1
102
RTVSPost2010PropOp30
 70
     1
102
RTVSPost2010Prop31
280
     0
102
RTVSPost2010PropOp31
 70
     1
102
RTVSPost2010Prop32
280
     0
102
RTVSPost2010PropOp32
 70
     1
102
RTVSPost2010Prop33
280
     0
102
RTVSPost2010PropOp33
 70
     1
102
RTVSPost2010Prop34
280
     0
102
RTVSPost2010PropOp34
 70
     1
102
RTVSPost2010Prop35
280
     0
102
RTVSPost2010PropOp35
 70
     1
102
RTVSPost2010Prop36
280
     0
102
RTVSPost2010PropOp36
 70
     1
102
RTVSPost2010Prop37
 90
       50
102
RTVSPost2010PropOp37
 70
     1
102
RTVSPost2010Prop38
140
0.0
102
RTVSPost2010PropOp38
 70
     1
102
RTVSPost2010Prop39
140
1.0
102
RTVSPost2010PropOp39
 70
     1
102
RTVSPost2010Prop40
 90
        0
102
RTVSPost2010PropOp40
 70
     1
102
RTVSPost2010Prop41ColorIndex
 90
       18
102
RTVSPost2010Prop41ColorRGB
 90
        0
102
RTVSPost2010PropOp41
 70
     1
102
RTVSPost2010Prop42
 90
       50
102
RTVSPost2010PropOp42
 70
     1
102
RTVSPost2010Prop43
 90
        3
102
RTVSPost2010PropOp43
 70
     1
102
RTVSPost2010Prop44ColorIndex
 90
        5
102
RTVSPost2010Prop44ColorRGB
 90
      255
102
RTVSPost2010PropOp44
 70
     1
102
RTVSPost2010Prop45
280
     0
102
RTVSPost2010PropOp45
 70
     1
102
RTVSPost2010Prop46
 90
       50
102
RTVSPost2010PropOp46
 70
     1
102
RTVSPost2010Prop47
 90
       50
102
RTVSPost2010PropOp47
 70
     1
102
RTVSPost2010Prop48
 90
       50
102
RTVSPost2010PropOp48
 70
     1
102
RTVSPost2010Prop49
280
     0
102
RTVSPost2010PropOp49
 70
     1
102
RTVSPost2010Prop50
 90
       50
102
RTVSPost2010PropOp50
 70
     1
102
RTVSPost2010Prop51ColorIndex
 90
      256
102
RTVSPost2010Prop51ColorRGB
 90
-16777216
102
RTVSPost2010PropOp51
 70
     0
102
RTVSPost2010Prop52
140
1.0
102
RTVSPost2010PropOp52
 70
     0
102
RTVSPost2010Prop53
 90
        2
102
RTVSPost2010PropOp53
 70
     1
102
RTVSPost2010Prop54
  1
strokes_ogs.tif
102
RTVSPost2010PropOp54
 70
     1
102
RTVSPost2010Prop55
280
     0
102
RTVSPost2010PropOp55
 70
     1
102
RTVSPost2010Prop56
140
1.0
102
RTVSPost2010PropOp56
 70
     1
102
RTVSPost2010Prop57
140
1.0
102
RTVSPost2010PropOp57
 70
     1
102
RTVSPropertyOp0
 70
     1
102
RTVSPropertyOp1
 70
     1
102
RTVSPropertyOp2
 70
     1
102
RTVSPropertyOp3
 70
     1
102
RTVSPropertyOp4
 70
     1
102
RTVSPropertyOp5
 70
     1
102
RTVSPropertyOp6
 70
     1
102
RTVSPropertyOp7
 70
     1
102
RTVSPropertyOp8
 70
     1
102
RTVSPropertyOp9
 70
     1
102
RTVSPropertyOp10
 70
     1
102
RTVSPropertyOp11
 70
     1
102
RTVSPropertyOp12
 70
     1
102
RTVSPropertyOp13
 70
     1
102
RTVSPropertyOp14
 70
     1
102
RTVSPropertyOp15
 70
     1
102
RTVSPropertyOp16
 70
     1
102
RTVSPropertyOp17
 70
     1
102
RTVSPropertyOp18
 70
     1
102
RTVSPropertyOp19
 70
     1
102
RTVSPropertyOp20
 70
     1
102
RTVSPropertyOp21
 70
     1
102
RTVSPropertyOp22
 70
     1
102
RTVSPropertyOp23
 70
     1
102
RTVSPropertyOp24
 70
     1
102
RTVSPropertyOp25
 70
     1
102
RTVSPropertyOp26
 70
     1
102
RTVSPropertyOp27
 70
     1
102
RTVSPropertyOp28
 70
     1
102
RTVSPropertyOp29
 70
     1
102
RTVSPropertyOp30
 70
     1
102
RTVSPropertyOp31
 70
     1
102
RTVSPropertyOp32
 70
     1
102
RTVSPropertyOp33
 70
     1
102
RTVSPropertyOp34
 70
     1
102
RTVSPropertyOp35
 70
     1
102
RTVSPropertyOp36
 70
     1
102
RTVSPropertyOp37
 70
     1
102
RTVSPropertyOp38
 70
     1
102
RTVSPropertyOp39
 70
     1
102
RTVSPropertyOp40
 70
     1
102
RTVSPropertyOp41
 70
     1
102
RTVSPropertyOp42
 70
     1
102
RTVSPropertyOp43
 70
     1
102
RTVSPropertyOp44
 70
     1
102
RTVSPropertyOp45
 70
     1
102
RTVSPropertyOp46
 70
     1
102
RTVSPropertyOp47
 70
     1
102
RTVSPropertyOp48
 70
     1
102
RTVSPropertyOp49
 70
     1
102
RTVSPropertyOp50
 70
     1
102
RTVSPropertyOp51
 70
     0
102
RTVSPropertyOp52
 70
     0
102
RTVSPropertyOp53
 70
     1
102
RTVSPropertyOp54
 70
     1
102
RTVSPropertyOp55
 70
     1
102
RTVSPropertyOp56
 70
     1
102
RTVSPropertyOp57
 70
     1
102
RTVSPropertyOp58
 70
     1
102
RTVSPropertyOp59
 70
     1
102
RTVSPropertyOp60
 70
     1
102
RTVSPropertyOp61
 70
     1
102
RTVSPropertyOp62
 70
     1
  0
XRECORD
  5
86C9
102
{ACAD_REACTORS
330
86C8
102
}
330
86C8
100
AcDbXrecord
280
     1
102
RTVSPost2010Prop28
280
     0
102
RTVSPost2010PropOp28
 70
     1
102
RTVSPost2010Prop29
280
     1
102
RTVSPost2010PropOp29
 70
     1
102
RTVSPost2010Prop30
280
     1
102
RTVSPost2010PropOp30
 70
     1
102
RTVSPost2010Prop31
280
     0
102
RTVSPost2010PropOp31
 70
     1
102
RTVSPost2010Prop32
280
     0
102
RTVSPost2010PropOp32
 70
     1
102
RTVSPost2010Prop33
280
     0
102
RTVSPost2010PropOp33
 70
     1
102
RTVSPost2010Prop34
280
     0
102
RTVSPost2010PropOp34
 70
     1
102
RTVSPost2010Prop35
280
     0
102
RTVSPost2010PropOp35
 70
     1
102
RTVSPost2010Prop36
280
     0
102
RTVSPost2010PropOp36
 70
     1
102
RTVSPost2010Prop37
 90
       50
102
RTVSPost2010PropOp37
 70
     1
102
RTVSPost2010Prop38
140
0.0
102
RTVSPost2010PropOp38
 70
     1
102
RTVSPost2010Prop39
140
1.0
102
RTVSPost2010PropOp39
 70
     1
102
RTVSPost2010Prop40
 90
        0
102
RTVSPost2010PropOp40
 70
     1
102
RTVSPost2010Prop41ColorIndex
 90
       18
102
RTVSPost2010Prop41ColorRGB
 90
        0
102
RTVSPost2010PropOp41
 70
     1
102
RTVSPost2010Prop42
 90
       50
102
RTVSPost2010PropOp42
 70
     1
102
RTVSPost2010Prop43
 90
        3
102
RTVSPost2010PropOp43
 70
     1
102
RTVSPost2010Prop44ColorIndex
 90
        5
102
RTVSPost2010Prop44ColorRGB
 90
      255
102
RTVSPost2010PropOp44
 70
     1
102
RTVSPost2010Prop45
280
     0
102
RTVSPost2010PropOp45
 70
     1
102
RTVSPost2010Prop46
 90
       50
102
RTVSPost2010PropOp46
 70
     1
102
RTVSPost2010Prop47
 90
       50
102
RTVSPost2010PropOp47
 70
     1
102
RTVSPost2010Prop48
 90
       50
102
RTVSPost2010PropOp48
 70
     1
102
RTVSPost2010Prop49
280
     0
102
RTVSPost2010PropOp49
 70
     1
102
RTVSPost2010Prop50
 90
       50
102
RTVSPost2010PropOp50
 70
     1
102
RTVSPost2010Prop51ColorIndex
 90
      256
102
RTVSPost2010Prop51ColorRGB
 90
-16777216
102
RTVSPost2010PropOp51
 70
     0
102
RTVSPost2010Prop52
140
1.0
102
RTVSPost2010PropOp52
 70
     0
102
RTVSPost2010Prop53
 90
        2
102
RTVSPost2010PropOp53
 70
     1
102
RTVSPost2010Prop54
  1
strokes_ogs.tif
102
RTVSPost2010PropOp54
 70
     1
102
RTVSPost2010Prop55
280
     0
102
RTVSPost2010PropOp55
 70
     1
102
RTVSPost2010Prop56
140
1.0
102
RTVSPost2010PropOp56
 70
     1
102
RTVSPost2010Prop57
140
1.0
102
RTVSPost2010PropOp57
 70
     1
102
RTVSPropertyOp0
 70
     1
102
RTVSPropertyOp1
 70
     1
102
RTVSPropertyOp2
 70
     1
102
RTVSPropertyOp3
 70
     1
102
RTVSPropertyOp4
 70
     1
102
RTVSPropertyOp5
 70
     1
102
RTVSPropertyOp6
 70
     1
102
RTVSPropertyOp7
 70
     1
102
RTVSPropertyOp8
 70
     1
102
RTVSPropertyOp9
 70
     1
102
RTVSPropertyOp10
 70
     1
102
RTVSPropertyOp11
 70
     1
102
RTVSPropertyOp12
 70
     1
102
RTVSPropertyOp13
 70
     1
102
RTVSPropertyOp14
 70
     1
102
RTVSPropertyOp15
 70
     1
102
RTVSPropertyOp16
 70
     1
102
RTVSPropertyOp17
 70
     1
102
RTVSPropertyOp18
 70
     1
102
RTVSPropertyOp19
 70
     1
102
RTVSPropertyOp20
 70
     1
102
RTVSPropertyOp21
 70
     1
102
RTVSPropertyOp22
 70
     1
102
RTVSPropertyOp23
 70
     1
102
RTVSPropertyOp24
 70
     1
102
RTVSPropertyOp25
 70
     1
102
RTVSPropertyOp26
 70
     1
102
RTVSPropertyOp27
 70
     1
102
RTVSPropertyOp28
 70
     1
102
RTVSPropertyOp29
 70
     1
102
RTVSPropertyOp30
 70
     1
102
RTVSPropertyOp31
 70
     1
102
RTVSPropertyOp32
 70
     1
102
RTVSPropertyOp33
 70
     1
102
RTVSPropertyOp34
 70
     1
102
RTVSPropertyOp35
 70
     1
102
RTVSPropertyOp36
 70
     1
102
RTVSPropertyOp37
 70
     1
102
RTVSPropertyOp38
 70
     1
102
RTVSPropertyOp39
 70
     1
102
RTVSPropertyOp40
 70
     1
102
RTVSPropertyOp41
 70
     1
102
RTVSPropertyOp42
 70
     1
102
RTVSPropertyOp43
 70
     1
102
RTVSPropertyOp44
 70
     1
102
RTVSPropertyOp45
 70
     1
102
RTVSPropertyOp46
 70
     1
102
RTVSPropertyOp47
 70
     1
102
RTVSPropertyOp48
 70
     1
102
RTVSPropertyOp49
 70
     1
102
RTVSPropertyOp50
 70
     1
102
RTVSPropertyOp51
 70
     0
102
RTVSPropertyOp52
 70
     0
102
RTVSPropertyOp53
 70
     1
102
RTVSPropertyOp54
 70
     1
102
RTVSPropertyOp55
 70
     1
102
RTVSPropertyOp56
 70
     1
102
RTVSPropertyOp57
 70
     1
102
RTVSPropertyOp58
 70
     1
102
RTVSPropertyOp59
 70
     1
102
RTVSPropertyOp60
 70
     1
102
RTVSPropertyOp61
 70
     1
102
RTVSPropertyOp62
 70
     1
  0
XRECORD
  5
86C7
102
{ACAD_REACTORS
330
86C6
102
}
330
86C6
100
AcDbXrecord
280
     1
102
RTVSPost2010Prop28
280
     0
102
RTVSPost2010PropOp28
 70
     1
102
RTVSPost2010Prop29
280
     1
102
RTVSPost2010PropOp29
 70
     1
102
RTVSPost2010Prop30
280
     1
102
RTVSPost2010PropOp30
 70
     1
102
RTVSPost2010Prop31
280
     0
102
RTVSPost2010PropOp31
 70
     1
102
RTVSPost2010Prop32
280
     0
102
RTVSPost2010PropOp32
 70
     1
102
RTVSPost2010Prop33
280
     0
102
RTVSPost2010PropOp33
 70
     1
102
RTVSPost2010Prop34
280
     0
102
RTVSPost2010PropOp34
 70
     1
102
RTVSPost2010Prop35
280
     0
102
RTVSPost2010PropOp35
 70
     1
102
RTVSPost2010Prop36
280
     0
102
RTVSPost2010PropOp36
 70
     1
102
RTVSPost2010Prop37
 90
       50
102
RTVSPost2010PropOp37
 70
     1
102
RTVSPost2010Prop38
140
0.0
102
RTVSPost2010PropOp38
 70
     1
102
RTVSPost2010Prop39
140
1.0
102
RTVSPost2010PropOp39
 70
     1
102
RTVSPost2010Prop40
 90
        0
102
RTVSPost2010PropOp40
 70
     1
102
RTVSPost2010Prop41ColorIndex
 90
       18
102
RTVSPost2010Prop41ColorRGB
 90
        0
102
RTVSPost2010PropOp41
 70
     1
102
RTVSPost2010Prop42
 90
       50
102
RTVSPost2010PropOp42
 70
     1
102
RTVSPost2010Prop43
 90
        3
102
RTVSPost2010PropOp43
 70
     1
102
RTVSPost2010Prop44ColorIndex
 90
        5
102
RTVSPost2010Prop44ColorRGB
 90
      255
102
RTVSPost2010PropOp44
 70
     1
102
RTVSPost2010Prop45
280
     0
102
RTVSPost2010PropOp45
 70
     1
102
RTVSPost2010Prop46
 90
       50
102
RTVSPost2010PropOp46
 70
     1
102
RTVSPost2010Prop47
 90
       50
102
RTVSPost2010PropOp47
 70
     1
102
RTVSPost2010Prop48
 90
       50
102
RTVSPost2010PropOp48
 70
     1
102
RTVSPost2010Prop49
280
     0
102
RTVSPost2010PropOp49
 70
     1
102
RTVSPost2010Prop50
 90
       50
102
RTVSPost2010PropOp50
 70
     1
102
RTVSPost2010Prop51ColorIndex
 90
      256
102
RTVSPost2010Prop51ColorRGB
 90
-16777216
102
RTVSPost2010PropOp51
 70
     0
102
RTVSPost2010Prop52
140
1.0
102
RTVSPost2010PropOp52
 70
     0
102
RTVSPost2010Prop53
 90
        2
102
RTVSPost2010PropOp53
 70
     1
102
RTVSPost2010Prop54
  1
strokes_ogs.tif
102
RTVSPost2010PropOp54
 70
     1
102
RTVSPost2010Prop55
280
     0
102
RTVSPost2010PropOp55
 70
     1
102
RTVSPost2010Prop56
140
1.0
102
RTVSPost2010PropOp56
 70
     1
102
RTVSPost2010Prop57
140
1.0
102
RTVSPost2010PropOp57
 70
     1
102
RTVSPropertyOp0
 70
     1
102
RTVSPropertyOp1
 70
     1
102
RTVSPropertyOp2
 70
     1
102
RTVSPropertyOp3
 70
     1
102
RTVSPropertyOp4
 70
     1
102
RTVSPropertyOp5
 70
     1
102
RTVSPropertyOp6
 70
     1
102
RTVSPropertyOp7
 70
     1
102
RTVSPropertyOp8
 70
     1
102
RTVSPropertyOp9
 70
     1
102
RTVSPropertyOp10
 70
     1
102
RTVSPropertyOp11
 70
     1
102
RTVSPropertyOp12
 70
     1
102
RTVSPropertyOp13
 70
     1
102
RTVSPropertyOp14
 70
     1
102
RTVSPropertyOp15
 70
     1
102
RTVSPropertyOp16
 70
     1
102
RTVSPropertyOp17
 70
     1
102
RTVSPropertyOp18
 70
     1
102
RTVSPropertyOp19
 70
     1
102
RTVSPropertyOp20
 70
     1
102
RTVSPropertyOp21
 70
     1
102
RTVSPropertyOp22
 70
     1
102
RTVSPropertyOp23
 70
     1
102
RTVSPropertyOp24
 70
     1
102
RTVSPropertyOp25
 70
     1
102
RTVSPropertyOp26
 70
     1
102
RTVSPropertyOp27
 70
     1
102
RTVSPropertyOp28
 70
     1
102
RTVSPropertyOp29
 70
     1
102
RTVSPropertyOp30
 70
     1
102
RTVSPropertyOp31
 70
     1
102
RTVSPropertyOp32
 70
     1
102
RTVSPropertyOp33
 70
     1
102
RTVSPropertyOp34
 70
     1
102
RTVSPropertyOp35
 70
     1
102
RTVSPropertyOp36
 70
     1
102
RTVSPropertyOp37
 70
     1
102
RTVSPropertyOp38
 70
     1
102
RTVSPropertyOp39
 70
     1
102
RTVSPropertyOp40
 70
     1
102
RTVSPropertyOp41
 70
     1
102
RTVSPropertyOp42
 70
     1
102
RTVSPropertyOp43
 70
     1
102
RTVSPropertyOp44
 70
     1
102
RTVSPropertyOp45
 70
     1
102
RTVSPropertyOp46
 70
     1
102
RTVSPropertyOp47
 70
     1
102
RTVSPropertyOp48
 70
     1
102
RTVSPropertyOp49
 70
     1
102
RTVSPropertyOp50
 70
     1
102
RTVSPropertyOp51
 70
     0
102
RTVSPropertyOp52
 70
     0
102
RTVSPropertyOp53
 70
     1
102
RTVSPropertyOp54
 70
     1
102
RTVSPropertyOp55
 70
     1
102
RTVSPropertyOp56
 70
     1
102
RTVSPropertyOp57
 70
     1
102
RTVSPropertyOp58
 70
     1
102
RTVSPropertyOp59
 70
     1
102
RTVSPropertyOp60
 70
     1
102
RTVSPropertyOp61
 70
     1
102
RTVSPropertyOp62
 70
     1
  0
XRECORD
  5
86C1
102
{ACAD_REACTORS
330
86C0
102
}
330
86C0
100
AcDbXrecord
280
     1
102
RTVSPost2010Prop28
280
     0
102
RTVSPost2010PropOp28
 70
     1
102
RTVSPost2010Prop29
280
     1
102
RTVSPost2010PropOp29
 70
     1
102
RTVSPost2010Prop30
280
     1
102
RTVSPost2010PropOp30
 70
     1
102
RTVSPost2010Prop31
280
     0
102
RTVSPost2010PropOp31
 70
     1
102
RTVSPost2010Prop32
280
     0
102
RTVSPost2010PropOp32
 70
     1
102
RTVSPost2010Prop33
280
     0
102
RTVSPost2010PropOp33
 70
     1
102
RTVSPost2010Prop34
280
     0
102
RTVSPost2010PropOp34
 70
     1
102
RTVSPost2010Prop35
280
     0
102
RTVSPost2010PropOp35
 70
     1
102
RTVSPost2010Prop36
280
     0
102
RTVSPost2010PropOp36
 70
     1
102
RTVSPost2010Prop37
 90
       50
102
RTVSPost2010PropOp37
 70
     1
102
RTVSPost2010Prop38
140
0.0
102
RTVSPost2010PropOp38
 70
     1
102
RTVSPost2010Prop39
140
1.0
102
RTVSPost2010PropOp39
 70
     1
102
RTVSPost2010Prop40
 90
        0
102
RTVSPost2010PropOp40
 70
     1
102
RTVSPost2010Prop41ColorIndex
 90
       18
102
RTVSPost2010Prop41ColorRGB
 90
        0
102
RTVSPost2010PropOp41
 70
     1
102
RTVSPost2010Prop42
 90
       50
102
RTVSPost2010PropOp42
 70
     1
102
RTVSPost2010Prop43
 90
        3
102
RTVSPost2010PropOp43
 70
     1
102
RTVSPost2010Prop44ColorIndex
 90
        5
102
RTVSPost2010Prop44ColorRGB
 90
      255
102
RTVSPost2010PropOp44
 70
     1
102
RTVSPost2010Prop45
280
     0
102
RTVSPost2010PropOp45
 70
     1
102
RTVSPost2010Prop46
 90
       50
102
RTVSPost2010PropOp46
 70
     1
102
RTVSPost2010Prop47
 90
       50
102
RTVSPost2010PropOp47
 70
     1
102
RTVSPost2010Prop48
 90
       50
102
RTVSPost2010PropOp48
 70
     1
102
RTVSPost2010Prop49
280
     0
102
RTVSPost2010PropOp49
 70
     1
102
RTVSPost2010Prop50
 90
       50
102
RTVSPost2010PropOp50
 70
     1
102
RTVSPost2010Prop51ColorIndex
 90
      256
102
RTVSPost2010Prop51ColorRGB
 90
-16777216
102
RTVSPost2010PropOp51
 70
     0
102
RTVSPost2010Prop52
140
1.0
102
RTVSPost2010PropOp52
 70
     0
102
RTVSPost2010Prop53
 90
        2
102
RTVSPost2010PropOp53
 70
     1
102
RTVSPost2010Prop54
  1
strokes_ogs.tif
102
RTVSPost2010PropOp54
 70
     1
102
RTVSPost2010Prop55
280
     0
102
RTVSPost2010PropOp55
 70
     1
102
RTVSPost2010Prop56
140
1.0
102
RTVSPost2010PropOp56
 70
     1
102
RTVSPost2010Prop57
140
1.0
102
RTVSPost2010PropOp57
 70
     1
102
RTVSPropertyOp0
 70
     1
102
RTVSPropertyOp1
 70
     1
102
RTVSPropertyOp2
 70
     1
102
RTVSPropertyOp3
 70
     1
102
RTVSPropertyOp4
 70
     1
102
RTVSPropertyOp5
 70
     1
102
RTVSPropertyOp6
 70
     1
102
RTVSPropertyOp7
 70
     1
102
RTVSPropertyOp8
 70
     1
102
RTVSPropertyOp9
 70
     1
102
RTVSPropertyOp10
 70
     1
102
RTVSPropertyOp11
 70
     1
102
RTVSPropertyOp12
 70
     1
102
RTVSPropertyOp13
 70
     1
102
RTVSPropertyOp14
 70
     1
102
RTVSPropertyOp15
 70
     1
102
RTVSPropertyOp16
 70
     1
102
RTVSPropertyOp17
 70
     1
102
RTVSPropertyOp18
 70
     1
102
RTVSPropertyOp19
 70
     1
102
RTVSPropertyOp20
 70
     1
102
RTVSPropertyOp21
 70
     1
102
RTVSPropertyOp22
 70
     1
102
RTVSPropertyOp23
 70
     1
102
RTVSPropertyOp24
 70
     1
102
RTVSPropertyOp25
 70
     1
102
RTVSPropertyOp26
 70
     1
102
RTVSPropertyOp27
 70
     1
102
RTVSPropertyOp28
 70
     1
102
RTVSPropertyOp29
 70
     1
102
RTVSPropertyOp30
 70
     1
102
RTVSPropertyOp31
 70
     1
102
RTVSPropertyOp32
 70
     1
102
RTVSPropertyOp33
 70
     1
102
RTVSPropertyOp34
 70
     1
102
RTVSPropertyOp35
 70
     1
102
RTVSPropertyOp36
 70
     1
102
RTVSPropertyOp37
 70
     1
102
RTVSPropertyOp38
 70
     1
102
RTVSPropertyOp39
 70
     1
102
RTVSPropertyOp40
 70
     1
102
RTVSPropertyOp41
 70
     1
102
RTVSPropertyOp42
 70
     1
102
RTVSPropertyOp43
 70
     1
102
RTVSPropertyOp44
 70
     1
102
RTVSPropertyOp45
 70
     1
102
RTVSPropertyOp46
 70
     1
102
RTVSPropertyOp47
 70
     1
102
RTVSPropertyOp48
 70
     1
102
RTVSPropertyOp49
 70
     1
102
RTVSPropertyOp50
 70
     1
102
RTVSPropertyOp51
 70
     0
102
RTVSPropertyOp52
 70
     0
102
RTVSPropertyOp53
 70
     1
102
RTVSPropertyOp54
 70
     1
102
RTVSPropertyOp55
 70
     1
102
RTVSPropertyOp56
 70
     1
102
RTVSPropertyOp57
 70
     1
102
RTVSPropertyOp58
 70
     1
102
RTVSPropertyOp59
 70
     1
102
RTVSPropertyOp60
 70
     1
102
RTVSPropertyOp61
 70
     1
102
RTVSPropertyOp62
 70
     1
  0
XRECORD
  5
86C3
102
{ACAD_REACTORS
330
86C2
102
}
330
86C2
100
AcDbXrecord
280
     1
102
RTVSPost2010Prop28
280
     0
102
RTVSPost2010PropOp28
 70
     1
102
RTVSPost2010Prop29
280
     1
102
RTVSPost2010PropOp29
 70
     1
102
RTVSPost2010Prop30
280
     1
102
RTVSPost2010PropOp30
 70
     1
102
RTVSPost2010Prop31
280
     0
102
RTVSPost2010PropOp31
 70
     1
102
RTVSPost2010Prop32
280
     0
102
RTVSPost2010PropOp32
 70
     1
102
RTVSPost2010Prop33
280
     0
102
RTVSPost2010PropOp33
 70
     1
102
RTVSPost2010Prop34
280
     0
102
RTVSPost2010PropOp34
 70
     1
102
RTVSPost2010Prop35
280
     0
102
RTVSPost2010PropOp35
 70
     1
102
RTVSPost2010Prop36
280
     0
102
RTVSPost2010PropOp36
 70
     1
102
RTVSPost2010Prop37
 90
       50
102
RTVSPost2010PropOp37
 70
     1
102
RTVSPost2010Prop38
140
0.0
102
RTVSPost2010PropOp38
 70
     1
102
RTVSPost2010Prop39
140
1.0
102
RTVSPost2010PropOp39
 70
     1
102
RTVSPost2010Prop40
 90
        0
102
RTVSPost2010PropOp40
 70
     1
102
RTVSPost2010Prop41ColorIndex
 90
       18
102
RTVSPost2010Prop41ColorRGB
 90
        0
102
RTVSPost2010PropOp41
 70
     1
102
RTVSPost2010Prop42
 90
       50
102
RTVSPost2010PropOp42
 70
     1
102
RTVSPost2010Prop43
 90
        3
102
RTVSPost2010PropOp43
 70
     1
102
RTVSPost2010Prop44ColorIndex
 90
        5
102
RTVSPost2010Prop44ColorRGB
 90
      255
102
RTVSPost2010PropOp44
 70
     1
102
RTVSPost2010Prop45
280
     0
102
RTVSPost2010PropOp45
 70
     1
102
RTVSPost2010Prop46
 90
       50
102
RTVSPost2010PropOp46
 70
     1
102
RTVSPost2010Prop47
 90
       50
102
RTVSPost2010PropOp47
 70
     1
102
RTVSPost2010Prop48
 90
       50
102
RTVSPost2010PropOp48
 70
     1
102
RTVSPost2010Prop49
280
     0
102
RTVSPost2010PropOp49
 70
     1
102
RTVSPost2010Prop50
 90
       50
102
RTVSPost2010PropOp50
 70
     1
102
RTVSPost2010Prop51ColorIndex
 90
      256
102
RTVSPost2010Prop51ColorRGB
 90
-16777216
102
RTVSPost2010PropOp51
 70
     0
102
RTVSPost2010Prop52
140
1.0
102
RTVSPost2010PropOp52
 70
     0
102
RTVSPost2010Prop53
 90
        2
102
RTVSPost2010PropOp53
 70
     1
102
RTVSPost2010Prop54
  1
strokes_ogs.tif
102
RTVSPost2010PropOp54
 70
     1
102
RTVSPost2010Prop55
280
     0
102
RTVSPost2010PropOp55
 70
     1
102
RTVSPost2010Prop56
140
1.0
102
RTVSPost2010PropOp56
 70
     1
102
RTVSPost2010Prop57
140
1.0
102
RTVSPost2010PropOp57
 70
     1
102
RTVSPropertyOp0
 70
     1
102
RTVSPropertyOp1
 70
     1
102
RTVSPropertyOp2
 70
     1
102
RTVSPropertyOp3
 70
     1
102
RTVSPropertyOp4
 70
     1
102
RTVSPropertyOp5
 70
     1
102
RTVSPropertyOp6
 70
     1
102
RTVSPropertyOp7
 70
     1
102
RTVSPropertyOp8
 70
     1
102
RTVSPropertyOp9
 70
     1
102
RTVSPropertyOp10
 70
     1
102
RTVSPropertyOp11
 70
     1
102
RTVSPropertyOp12
 70
     1
102
RTVSPropertyOp13
 70
     1
102
RTVSPropertyOp14
 70
     1
102
RTVSPropertyOp15
 70
     1
102
RTVSPropertyOp16
 70
     1
102
RTVSPropertyOp17
 70
     1
102
RTVSPropertyOp18
 70
     1
102
RTVSPropertyOp19
 70
     1
102
RTVSPropertyOp20
 70
     1
102
RTVSPropertyOp21
 70
     1
102
RTVSPropertyOp22
 70
     1
102
RTVSPropertyOp23
 70
     1
102
RTVSPropertyOp24
 70
     1
102
RTVSPropertyOp25
 70
     1
102
RTVSPropertyOp26
 70
     1
102
RTVSPropertyOp27
 70
     1
102
RTVSPropertyOp28
 70
     1
102
RTVSPropertyOp29
 70
     1
102
RTVSPropertyOp30
 70
     1
102
RTVSPropertyOp31
 70
     1
102
RTVSPropertyOp32
 70
     1
102
RTVSPropertyOp33
 70
     1
102
RTVSPropertyOp34
 70
     1
102
RTVSPropertyOp35
 70
     1
102
RTVSPropertyOp36
 70
     1
102
RTVSPropertyOp37
 70
     1
102
RTVSPropertyOp38
 70
     1
102
RTVSPropertyOp39
 70
     1
102
RTVSPropertyOp40
 70
     1
102
RTVSPropertyOp41
 70
     1
102
RTVSPropertyOp42
 70
     1
102
RTVSPropertyOp43
 70
     1
102
RTVSPropertyOp44
 70
     1
102
RTVSPropertyOp45
 70
     1
102
RTVSPropertyOp46
 70
     1
102
RTVSPropertyOp47
 70
     1
102
RTVSPropertyOp48
 70
     1
102
RTVSPropertyOp49
 70
     1
102
RTVSPropertyOp50
 70
     1
102
RTVSPropertyOp51
 70
     0
102
RTVSPropertyOp52
 70
     0
102
RTVSPropertyOp53
 70
     1
102
RTVSPropertyOp54
 70
     1
102
RTVSPropertyOp55
 70
     1
102
RTVSPropertyOp56
 70
     1
102
RTVSPropertyOp57
 70
     1
102
RTVSPropertyOp58
 70
     1
102
RTVSPropertyOp59
 70
     1
102
RTVSPropertyOp60
 70
     1
102
RTVSPropertyOp61
 70
     1
102
RTVSPropertyOp62
 70
     1
  0
XRECORD
  5
86B9
102
{ACAD_REACTORS
330
86B8
102
}
330
86B8
100
AcDbXrecord
280
     1
102
RTVSPost2010Prop28
280
     0
102
RTVSPost2010PropOp28
 70
     1
102
RTVSPost2010Prop29
280
     1
102
RTVSPost2010PropOp29
 70
     1
102
RTVSPost2010Prop30
280
     1
102
RTVSPost2010PropOp30
 70
     1
102
RTVSPost2010Prop31
280
     0
102
RTVSPost2010PropOp31
 70
     1
102
RTVSPost2010Prop32
280
     0
102
RTVSPost2010PropOp32
 70
     1
102
RTVSPost2010Prop33
280
     0
102
RTVSPost2010PropOp33
 70
     1
102
RTVSPost2010Prop34
280
     0
102
RTVSPost2010PropOp34
 70
     1
102
RTVSPost2010Prop35
280
     0
102
RTVSPost2010PropOp35
 70
     1
102
RTVSPost2010Prop36
280
     0
102
RTVSPost2010PropOp36
 70
     1
102
RTVSPost2010Prop37
 90
       50
102
RTVSPost2010PropOp37
 70
     1
102
RTVSPost2010Prop38
140
0.0
102
RTVSPost2010PropOp38
 70
     1
102
RTVSPost2010Prop39
140
1.0
102
RTVSPost2010PropOp39
 70
     1
102
RTVSPost2010Prop40
 90
        0
102
RTVSPost2010PropOp40
 70
     1
102
RTVSPost2010Prop41ColorIndex
 90
       18
102
RTVSPost2010Prop41ColorRGB
 90
        0
102
RTVSPost2010PropOp41
 70
     1
102
RTVSPost2010Prop42
 90
       50
102
RTVSPost2010PropOp42
 70
     1
102
RTVSPost2010Prop43
 90
        3
102
RTVSPost2010PropOp43
 70
     1
102
RTVSPost2010Prop44ColorIndex
 90
        5
102
RTVSPost2010Prop44ColorRGB
 90
      255
102
RTVSPost2010PropOp44
 70
     1
102
RTVSPost2010Prop45
280
     0
102
RTVSPost2010PropOp45
 70
     1
102
RTVSPost2010Prop46
 90
       50
102
RTVSPost2010PropOp46
 70
     1
102
RTVSPost2010Prop47
 90
       50
102
RTVSPost2010PropOp47
 70
     1
102
RTVSPost2010Prop48
 90
       50
102
RTVSPost2010PropOp48
 70
     1
102
RTVSPost2010Prop49
280
     0
102
RTVSPost2010PropOp49
 70
     1
102
RTVSPost2010Prop50
 90
       50
102
RTVSPost2010PropOp50
 70
     1
102
RTVSPost2010Prop51ColorIndex
 90
      256
102
RTVSPost2010Prop51ColorRGB
 90
-16777216
102
RTVSPost2010PropOp51
 70
     0
102
RTVSPost2010Prop52
140
1.0
102
RTVSPost2010PropOp52
 70
     0
102
RTVSPost2010Prop53
 90
        2
102
RTVSPost2010PropOp53
 70
     1
102
RTVSPost2010Prop54
  1
strokes_ogs.tif
102
RTVSPost2010PropOp54
 70
     1
102
RTVSPost2010Prop55
280
     0
102
RTVSPost2010PropOp55
 70
     1
102
RTVSPost2010Prop56
140
1.0
102
RTVSPost2010PropOp56
 70
     1
102
RTVSPost2010Prop57
140
1.0
102
RTVSPost2010PropOp57
 70
     1
102
RTVSPropertyOp0
 70
     1
102
RTVSPropertyOp1
 70
     1
102
RTVSPropertyOp2
 70
     1
102
RTVSPropertyOp3
 70
     1
102
RTVSPropertyOp4
 70
     1
102
RTVSPropertyOp5
 70
     1
102
RTVSPropertyOp6
 70
     1
102
RTVSPropertyOp7
 70
     1
102
RTVSPropertyOp8
 70
     1
102
RTVSPropertyOp9
 70
     1
102
RTVSPropertyOp10
 70
     1
102
RTVSPropertyOp11
 70
     1
102
RTVSPropertyOp12
 70
     1
102
RTVSPropertyOp13
 70
     1
102
RTVSPropertyOp14
 70
     1
102
RTVSPropertyOp15
 70
     1
102
RTVSPropertyOp16
 70
     1
102
RTVSPropertyOp17
 70
     1
102
RTVSPropertyOp18
 70
     1
102
RTVSPropertyOp19
 70
     1
102
RTVSPropertyOp20
 70
     1
102
RTVSPropertyOp21
 70
     1
102
RTVSPropertyOp22
 70
     1
102
RTVSPropertyOp23
 70
     1
102
RTVSPropertyOp24
 70
     1
102
RTVSPropertyOp25
 70
     1
102
RTVSPropertyOp26
 70
     1
102
RTVSPropertyOp27
 70
     1
102
RTVSPropertyOp28
 70
     1
102
RTVSPropertyOp29
 70
     1
102
RTVSPropertyOp30
 70
     1
102
RTVSPropertyOp31
 70
     1
102
RTVSPropertyOp32
 70
     1
102
RTVSPropertyOp33
 70
     1
102
RTVSPropertyOp34
 70
     1
102
RTVSPropertyOp35
 70
     1
102
RTVSPropertyOp36
 70
     1
102
RTVSPropertyOp37
 70
     1
102
RTVSPropertyOp38
 70
     1
102
RTVSPropertyOp39
 70
     1
102
RTVSPropertyOp40
 70
     1
102
RTVSPropertyOp41
 70
     1
102
RTVSPropertyOp42
 70
     1
102
RTVSPropertyOp43
 70
     1
102
RTVSPropertyOp44
 70
     1
102
RTVSPropertyOp45
 70
     1
102
RTVSPropertyOp46
 70
     1
102
RTVSPropertyOp47
 70
     1
102
RTVSPropertyOp48
 70
     1
102
RTVSPropertyOp49
 70
     1
102
RTVSPropertyOp50
 70
     1
102
RTVSPropertyOp51
 70
     0
102
RTVSPropertyOp52
 70
     0
102
RTVSPropertyOp53
 70
     1
102
RTVSPropertyOp54
 70
     1
102
RTVSPropertyOp55
 70
     1
102
RTVSPropertyOp56
 70
     1
102
RTVSPropertyOp57
 70
     1
102
RTVSPropertyOp58
 70
     1
102
RTVSPropertyOp59
 70
     1
102
RTVSPropertyOp60
 70
     1
102
RTVSPropertyOp61
 70
     1
102
RTVSPropertyOp62
 70
     1
  0
XRECORD
  5
86AD
102
{ACAD_REACTORS
330
86AC
102
}
330
86AC
100
AcDbXrecord
280
     1
102
RTVSPost2010Prop28
280
     0
102
RTVSPost2010PropOp28
 70
     1
102
RTVSPost2010Prop29
280
     1
102
RTVSPost2010PropOp29
 70
     1
102
RTVSPost2010Prop30
280
     1
102
RTVSPost2010PropOp30
 70
     1
102
RTVSPost2010Prop31
280
     0
102
RTVSPost2010PropOp31
 70
     1
102
RTVSPost2010Prop32
280
     0
102
RTVSPost2010PropOp32
 70
     1
102
RTVSPost2010Prop33
280
     0
102
RTVSPost2010PropOp33
 70
     1
102
RTVSPost2010Prop34
280
     0
102
RTVSPost2010PropOp34
 70
     1
102
RTVSPost2010Prop35
280
     0
102
RTVSPost2010PropOp35
 70
     1
102
RTVSPost2010Prop36
280
     0
102
RTVSPost2010PropOp36
 70
     1
102
RTVSPost2010Prop37
 90
       50
102
RTVSPost2010PropOp37
 70
     1
102
RTVSPost2010Prop38
140
0.0
102
RTVSPost2010PropOp38
 70
     1
102
RTVSPost2010Prop39
140
1.0
102
RTVSPost2010PropOp39
 70
     1
102
RTVSPost2010Prop40
 90
        0
102
RTVSPost2010PropOp40
 70
     1
102
RTVSPost2010Prop41ColorIndex
 90
       18
102
RTVSPost2010Prop41ColorRGB
 90
        0
102
RTVSPost2010PropOp41
 70
     1
102
RTVSPost2010Prop42
 90
       50
102
RTVSPost2010PropOp42
 70
     1
102
RTVSPost2010Prop43
 90
        3
102
RTVSPost2010PropOp43
 70
     1
102
RTVSPost2010Prop44ColorIndex
 90
        5
102
RTVSPost2010Prop44ColorRGB
 90
      255
102
RTVSPost2010PropOp44
 70
     1
102
RTVSPost2010Prop45
280
     0
102
RTVSPost2010PropOp45
 70
     1
102
RTVSPost2010Prop46
 90
       50
102
RTVSPost2010PropOp46
 70
     1
102
RTVSPost2010Prop47
 90
       50
102
RTVSPost2010PropOp47
 70
     1
102
RTVSPost2010Prop48
 90
       50
102
RTVSPost2010PropOp48
 70
     1
102
RTVSPost2010Prop49
280
     0
102
RTVSPost2010PropOp49
 70
     1
102
RTVSPost2010Prop50
 90
       50
102
RTVSPost2010PropOp50
 70
     1
102
RTVSPost2010Prop51ColorIndex
 90
      256
102
RTVSPost2010Prop51ColorRGB
 90
-16777216
102
RTVSPost2010PropOp51
 70
     0
102
RTVSPost2010Prop52
140
1.0
102
RTVSPost2010PropOp52
 70
     0
102
RTVSPost2010Prop53
 90
        2
102
RTVSPost2010PropOp53
 70
     1
102
RTVSPost2010Prop54
  1
strokes_ogs.tif
102
RTVSPost2010PropOp54
 70
     1
102
RTVSPost2010Prop55
280
     0
102
RTVSPost2010PropOp55
 70
     1
102
RTVSPost2010Prop56
140
1.0
102
RTVSPost2010PropOp56
 70
     1
102
RTVSPost2010Prop57
140
1.0
102
RTVSPost2010PropOp57
 70
     1
102
RTVSPropertyOp0
 70
     1
102
RTVSPropertyOp1
 70
     1
102
RTVSPropertyOp2
 70
     1
102
RTVSPropertyOp3
 70
     1
102
RTVSPropertyOp4
 70
     1
102
RTVSPropertyOp5
 70
     1
102
RTVSPropertyOp6
 70
     1
102
RTVSPropertyOp7
 70
     1
102
RTVSPropertyOp8
 70
     1
102
RTVSPropertyOp9
 70
     1
102
RTVSPropertyOp10
 70
     1
102
RTVSPropertyOp11
 70
     1
102
RTVSPropertyOp12
 70
     1
102
RTVSPropertyOp13
 70
     1
102
RTVSPropertyOp14
 70
     1
102
RTVSPropertyOp15
 70
     1
102
RTVSPropertyOp16
 70
     1
102
RTVSPropertyOp17
 70
     1
102
RTVSPropertyOp18
 70
     1
102
RTVSPropertyOp19
 70
     1
102
RTVSPropertyOp20
 70
     1
102
RTVSPropertyOp21
 70
     1
102
RTVSPropertyOp22
 70
     1
102
RTVSPropertyOp23
 70
     1
102
RTVSPropertyOp24
 70
     1
102
RTVSPropertyOp25
 70
     1
102
RTVSPropertyOp26
 70
     1
102
RTVSPropertyOp27
 70
     1
102
RTVSPropertyOp28
 70
     1
102
RTVSPropertyOp29
 70
     1
102
RTVSPropertyOp30
 70
     1
102
RTVSPropertyOp31
 70
     1
102
RTVSPropertyOp32
 70
     1
102
RTVSPropertyOp33
 70
     1
102
RTVSPropertyOp34
 70
     1
102
RTVSPropertyOp35
 70
     1
102
RTVSPropertyOp36
 70
     1
102
RTVSPropertyOp37
 70
     1
102
RTVSPropertyOp38
 70
     1
102
RTVSPropertyOp39
 70
     1
102
RTVSPropertyOp40
 70
     1
102
RTVSPropertyOp41
 70
     1
102
RTVSPropertyOp42
 70
     1
102
RTVSPropertyOp43
 70
     1
102
RTVSPropertyOp44
 70
     1
102
RTVSPropertyOp45
 70
     1
102
RTVSPropertyOp46
 70
     1
102
RTVSPropertyOp47
 70
     1
102
RTVSPropertyOp48
 70
     1
102
RTVSPropertyOp49
 70
     1
102
RTVSPropertyOp50
 70
     1
102
RTVSPropertyOp51
 70
     0
102
RTVSPropertyOp52
 70
     0
102
RTVSPropertyOp53
 70
     1
102
RTVSPropertyOp54
 70
     1
102
RTVSPropertyOp55
 70
     1
102
RTVSPropertyOp56
 70
     1
102
RTVSPropertyOp57
 70
     1
102
RTVSPropertyOp58
 70
     1
102
RTVSPropertyOp59
 70
     1
102
RTVSPropertyOp60
 70
     1
102
RTVSPropertyOp61
 70
     1
102
RTVSPropertyOp62
 70
     1
  0
XRECORD
  5
86C5
102
{ACAD_REACTORS
330
86C4
102
}
330
86C4
100
AcDbXrecord
280
     1
102
RTVSPost2010Prop28
280
     0
102
RTVSPost2010PropOp28
 70
     1
102
RTVSPost2010Prop29
280
     1
102
RTVSPost2010PropOp29
 70
     1
102
RTVSPost2010Prop30
280
     1
102
RTVSPost2010PropOp30
 70
     1
102
RTVSPost2010Prop31
280
     0
102
RTVSPost2010PropOp31
 70
     1
102
RTVSPost2010Prop32
280
     0
102
RTVSPost2010PropOp32
 70
     1
102
RTVSPost2010Prop33
280
     0
102
RTVSPost2010PropOp33
 70
     1
102
RTVSPost2010Prop34
280
     0
102
RTVSPost2010PropOp34
 70
     1
102
RTVSPost2010Prop35
280
     0
102
RTVSPost2010PropOp35
 70
     1
102
RTVSPost2010Prop36
280
     0
102
RTVSPost2010PropOp36
 70
     1
102
RTVSPost2010Prop37
 90
       50
102
RTVSPost2010PropOp37
 70
     1
102
RTVSPost2010Prop38
140
0.0
102
RTVSPost2010PropOp38
 70
     1
102
RTVSPost2010Prop39
140
1.0
102
RTVSPost2010PropOp39
 70
     1
102
RTVSPost2010Prop40
 90
        0
102
RTVSPost2010PropOp40
 70
     1
102
RTVSPost2010Prop41ColorIndex
 90
       18
102
RTVSPost2010Prop41ColorRGB
 90
        0
102
RTVSPost2010PropOp41
 70
     1
102
RTVSPost2010Prop42
 90
       50
102
RTVSPost2010PropOp42
 70
     1
102
RTVSPost2010Prop43
 90
        3
102
RTVSPost2010PropOp43
 70
     1
102
RTVSPost2010Prop44ColorIndex
 90
        5
102
RTVSPost2010Prop44ColorRGB
 90
      255
102
RTVSPost2010PropOp44
 70
     1
102
RTVSPost2010Prop45
280
     0
102
RTVSPost2010PropOp45
 70
     1
102
RTVSPost2010Prop46
 90
       50
102
RTVSPost2010PropOp46
 70
     1
102
RTVSPost2010Prop47
 90
       50
102
RTVSPost2010PropOp47
 70
     1
102
RTVSPost2010Prop48
 90
       50
102
RTVSPost2010PropOp48
 70
     1
102
RTVSPost2010Prop49
280
     0
102
RTVSPost2010PropOp49
 70
     1
102
RTVSPost2010Prop50
 90
       50
102
RTVSPost2010PropOp50
 70
     1
102
RTVSPost2010Prop51ColorIndex
 90
      256
102
RTVSPost2010Prop51ColorRGB
 90
-16777216
102
RTVSPost2010PropOp51
 70
     0
102
RTVSPost2010Prop52
140
1.0
102
RTVSPost2010PropOp52
 70
     0
102
RTVSPost2010Prop53
 90
        2
102
RTVSPost2010PropOp53
 70
     1
102
RTVSPost2010Prop54
  1
strokes_ogs.tif
102
RTVSPost2010PropOp54
 70
     1
102
RTVSPost2010Prop55
280
     0
102
RTVSPost2010PropOp55
 70
     1
102
RTVSPost2010Prop56
140
1.0
102
RTVSPost2010PropOp56
 70
     1
102
RTVSPost2010Prop57
140
1.0
102
RTVSPost2010PropOp57
 70
     1
102
RTVSPropertyOp0
 70
     1
102
RTVSPropertyOp1
 70
     1
102
RTVSPropertyOp2
 70
     1
102
RTVSPropertyOp3
 70
     1
102
RTVSPropertyOp4
 70
     1
102
RTVSPropertyOp5
 70
     1
102
RTVSPropertyOp6
 70
     1
102
RTVSPropertyOp7
 70
     1
102
RTVSPropertyOp8
 70
     1
102
RTVSPropertyOp9
 70
     1
102
RTVSPropertyOp10
 70
     1
102
RTVSPropertyOp11
 70
     1
102
RTVSPropertyOp12
 70
     1
102
RTVSPropertyOp13
 70
     1
102
RTVSPropertyOp14
 70
     1
102
RTVSPropertyOp15
 70
     1
102
RTVSPropertyOp16
 70
     1
102
RTVSPropertyOp17
 70
     1
102
RTVSPropertyOp18
 70
     1
102
RTVSPropertyOp19
 70
     1
102
RTVSPropertyOp20
 70
     1
102
RTVSPropertyOp21
 70
     1
102
RTVSPropertyOp22
 70
     1
102
RTVSPropertyOp23
 70
     1
102
RTVSPropertyOp24
 70
     1
102
RTVSPropertyOp25
 70
     1
102
RTVSPropertyOp26
 70
     1
102
RTVSPropertyOp27
 70
     1
102
RTVSPropertyOp28
 70
     1
102
RTVSPropertyOp29
 70
     1
102
RTVSPropertyOp30
 70
     1
102
RTVSPropertyOp31
 70
     1
102
RTVSPropertyOp32
 70
     1
102
RTVSPropertyOp33
 70
     1
102
RTVSPropertyOp34
 70
     1
102
RTVSPropertyOp35
 70
     1
102
RTVSPropertyOp36
 70
     1
102
RTVSPropertyOp37
 70
     1
102
RTVSPropertyOp38
 70
     1
102
RTVSPropertyOp39
 70
     1
102
RTVSPropertyOp40
 70
     1
102
RTVSPropertyOp41
 70
     1
102
RTVSPropertyOp42
 70
     1
102
RTVSPropertyOp43
 70
     1
102
RTVSPropertyOp44
 70
     1
102
RTVSPropertyOp45
 70
     1
102
RTVSPropertyOp46
 70
     1
102
RTVSPropertyOp47
 70
     1
102
RTVSPropertyOp48
 70
     1
102
RTVSPropertyOp49
 70
     1
102
RTVSPropertyOp50
 70
     1
102
RTVSPropertyOp51
 70
     0
102
RTVSPropertyOp52
 70
     0
102
RTVSPropertyOp53
 70
     1
102
RTVSPropertyOp54
 70
     1
102
RTVSPropertyOp55
 70
     1
102
RTVSPropertyOp56
 70
     1
102
RTVSPropertyOp57
 70
     1
102
RTVSPropertyOp58
 70
     1
102
RTVSPropertyOp59
 70
     1
102
RTVSPropertyOp60
 70
     1
102
RTVSPropertyOp61
 70
     1
102
RTVSPropertyOp62
 70
     1
  0
ENDSEC
  0
EOF
