  0
SECTION
  2
HEADER
  9
$ACADVER
  1
AC1009
  9
$INSBASE
 10
0.0
 20
0.0
 30
0.0
  9
$EXTMIN
 10
1000.0
 20
1200.0
 30
0.0
  9
$EXTMAX
 10
7400.0
 20
11146.609046
 30
0.0
  9
$LIMMIN
 10
0.0
 20
0.0
  9
$LIMMAX
 10
297.0
 20
210.0
  9
$ORTHOMODE
 70
     0
  9
$REGENMODE
 70
     1
  9
$FILLMODE
 70
     0
  9
$QTEXTMODE
 70
     0
  9
$MIRRTEXT
 70
     1
  9
$DRAGMODE
 70
     2
  9
$LTSCALE
 40
100.0
  9
$OSMODE
 70
   545
  9
$ATTMODE
 70
     1
  9
$TEXTSIZE
 40
180.0
  9
$TRACEWID
 40
0.05
  9
$TEXTSTYLE
  7
STANDARD
  9
$CLAYER
  8
3
  9
$CELTYPE
  6
BYLAYER
  9
$CECOLOR
 62
   256
  9
$DIMSCALE
 40
40.0
  9
$DIMASZ
 40
2.0
  9
$DIMEXO
 40
0.5
  9
$DIMDLI
 40
10.0
  9
$DIMRND
 40
0.0
  9
$DIMDLE
 40
0.0
  9
$DIMEXE
 40
1.0
  9
$DIMTP
 40
1.0
  9
$DIMTM
 40
1.0
  9
$DIMTXT
 40
3.0
  9
$DIMCEN
 40
0.0
  9
$DIMTSZ
 40
0.0
  9
$DIMTOL
 70
     0
  9
$DIMLIM
 70
     0
  9
$DIMTIH
 70
     0
  9
$DIMTOH
 70
     0
  9
$DIMSE1
 70
     0
  9
$DIMSE2
 70
     0
  9
$DIMTAD
 70
     1
  9
$DIMZIN
 70
     8
  9
$DIMBLK
  1

  9
$DIMASO
 70
     1
  9
$DIMSHO
 70
     1
  9
$DIMPOST
  1

  9
$DIMAPOST
  1

  9
$DIMALT
 70
     0
  9
$DIMALTD
 70
     2
  9
$DIMALTF
 40
0.039
  9
$DIMLFAC
 40
1.0
  9
$DIMTOFL
 70
     1
  9
$DIMTVP
 40
0.0
  9
$DIMTIX
 70
     0
  9
$DIMSOXD
 70
     0
  9
$DIMSAH
 70
     1
  9
$DIMBLK1
  1
OPEN
  9
$DIMBLK2
  1
OPEN
  9
$DIMSTYLE
  2
IGA
  9
$DIMCLRD
 70
     0
  9
$DIMCLRE
 70
     0
  9
$DIMCLRT
 70
     0
  9
$DIMTFAC
 40
10.0
  9
$DIMGAP
 40
1.0
  9
$LUNITS
 70
     2
  9
$LUPREC
 70
     3
  9
$SKETCHINC
 40
0.1
  9
$FILLETRAD
 40
50.0
  9
$AUNITS
 70
     0
  9
$AUPREC
 70
     0
  9
$MENU
  1
acad
  9
$ELEVATION
 40
0.0
  9
$PELEVATION
 40
0.0
  9
$THICKNESS
 40
0.0
  9
$LIMCHECK
 70
     0
  9
$BLIPMODE
 70
     0
  9
$CHAMFERA
 40
0.5
  9
$CHAMFERB
 40
0.5
  9
$SKPOLY
 70
     0
  9
$TDCREATE
 40
2450757.599014583
  9
$TDUPDATE
 40
2455013.729028136
  9
$TDINDWG
 40
0.1589184954
  9
$TDUSRTIMER
 40
0.1589184954
  9
$USRTIMER
 70
     1
  9
$ANGBASE
 50
0.0
  9
$ANGDIR
 70
     0
  9
$PDMODE
 70
     0
  9
$PDSIZE
 40
0.0
  9
$PLINEWID
 40
0.0
  9
$COORDS
 70
     2
  9
$SPLFRAME
 70
     0
  9
$SPLINETYPE
 70
     6
  9
$SPLINESEGS
 70
     8
  9
$ATTDIA
 70
     0
  9
$ATTREQ
 70
     1
  9
$HANDLING
 70
 22529
  9
$HANDSEED
  5
800C
  9
$SURFTAB1
 70
     6
  9
$SURFTAB2
 70
     6
  9
$SURFTYPE
 70
     6
  9
$SURFU
 70
     6
  9
$SURFV
 70
     6
  9
$UCSNAME
  2

  9
$UCSORG
 10
0.0
 20
0.0
 30
0.0
  9
$UCSXDIR
 10
1.0
 20
0.0
 30
0.0
  9
$UCSYDIR
 10
0.0
 20
1.0
 30
0.0
  9
$PUCSNAME
  2

  9
$PUCSORG
 10
0.0
 20
0.0
 30
0.0
  9
$PUCSXDIR
 10
1.0
 20
0.0
 30
0.0
  9
$PUCSYDIR
 10
0.0
 20
1.0
 30
0.0
  9
$USERI1
 70
     0
  9
$USERI2
 70
     0
  9
$USERI3
 70
     0
  9
$USERI4
 70
     0
  9
$USERI5
 70
     0
  9
$USERR1
 40
0.0
  9
$USERR2
 40
0.0
  9
$USERR3
 40
0.0
  9
$USERR4
 40
0.0
  9
$USERR5
 40
0.0
  9
$WORLDVIEW
 70
     1
  9
$SHADEDGE
 70
     3
  9
$SHADEDIF
 70
    70
  9
$TILEMODE
 70
     1
  9
$MAXACTVP
 70
    16
  9
$PLIMCHECK
 70
     0
  9
$PEXTMIN
 10
1.0000000000000000E+020
 20
1.0000000000000000E+020
 30
1.0000000000000000E+020
  9
$PEXTMAX
 10
-1.0000000000000000E+020
 20
-1.0000000000000000E+020
 30
-1.0000000000000000E+020
  9
$PLIMMIN
 10
0.0
 20
0.0
  9
$PLIMMAX
 10
12.0
 20
9.0
  9
$UNITMODE
 70
     0
  9
$VISRETAIN
 70
     0
  9
$PLINEGEN
 70
     0
  9
$PSLTSCALE
 70
     1
  0
ENDSEC
  0
SECTION
  2
TABLES
  0
TABLE
  2
VPORT
 70
     2
  0
VPORT
  2
*ACTIVE
 70
     0
 10
0.0
 20
0.0
 11
1.0
 21
1.0
 12
4887.1848210705248
 22
6173.2749996292814
 13
0.0
 23
0.0
 14
10.0
 24
10.0
 15
10.0
 25
10.0
 16
0.0
 26
0.0
 36
1.0
 17
0.0
 27
0.0
 37
0.0
 40
10022.99371525931
 41
1.6307901907356941
 42
50.0
 43
0.0
 44
0.0
 50
0.0
 51
0.0
 71
     0
 72
   100
 73
     1
 74
     0
 75
     0
 76
     0
 77
     0
 78
     0
  0
ENDTAB
  0
TABLE
  2
LTYPE
 70
     2
  0
LTYPE
  2
CONTINUOUS
 70
     0
  3
Solid line
 72
    65
 73
     0
 40
0.0
  0
LTYPE
  2
CENTER
 70
     0
  3
____ _ ____ _ ____ _ ____ _ ____ _ ____ _ ____ 
 72
    65
 73
     4
 40
2.0
 49
1.25
 49
-0.25
 49
0.25
 49
-0.25
  0
ENDTAB
  0
TABLE
  2
LAYER
 70
     6
  0
LAYER
  2
0
 70
     0
 62
     7
  6
CONTINUOUS
  0
LAYER
  2
3
 70
     0
 62
     2
  6
CONTINUOUS
  0
LAYER
  2
2
 70
     0
 62
     3
  6
CENTER
  0
LAYER
  2
1
 70
     0
 62
     4
  6
CONTINUOUS
  0
LAYER
  2
4
 70
     0
 62
     7
  6
CONTINUOUS
  0
LAYER
  2
DEFPOINTS
 70
     0
 62
     7
  6
CONTINUOUS
  0
ENDTAB
  0
TABLE
  2
STYLE
 70
     1
  0
STYLE
  2
STANDARD
 70
     0
 40
0.0
 41
1.0
 50
0.0
 71
     0
 42
180.0
  3
simplex.shx
  4
extfont.shx
  0
ENDTAB
  0
TABLE
  2
VIEW
 70
     0
  0
ENDTAB
  0
TABLE
  2
UCS
 70
     0
  0
ENDTAB
  0
TABLE
  2
APPID
 70
     1
  0
APPID
  2
ACAD
 70
     0
  0
ENDTAB
  0
TABLE
  2
DIMSTYLE
 70
     1
  0
DIMSTYLE
  2
IGA
 70
     0
  3

  4

  5

  6
OPEN
  7
OPEN
 40
2.0
 41
2.0
 42
0.5
 43
10.0
 44
1.0
 45
0.0
 46
0.0
 47
1.0
 48
1.0
140
3.0
141
0.0
142
0.0
143
0.03937
144
1.0
145
0.0
146
10.0
147
1.0
 71
     0
 72
     0
 73
     0
 74
     0
 75
     0
 76
     0
 77
     1
 78
     8
170
     0
171
     2
172
     0
173
     1
174
     0
175
     0
176
     0
177
     0
178
     0
  0
ENDTAB
  0
ENDSEC
  0
SECTION
  2
BLOCKS
  0
BLOCK
  8
0
  2
$MODEL_SPACE
 70
     0
 10
0.0
 20
0.0
 30
0.0
  3
$MODEL_SPACE
  1

  0
ENDBLK
  5
1B
  8
0
  0
BLOCK
 67
     1
  8
0
  2
$PAPER_SPACE
 70
     0
 10
0.0
 20
0.0
 30
0.0
  3
$PAPER_SPACE
  1

  0
ENDBLK
  5
18
 67
     1
  8
0
  0
BLOCK
  8
0
  2
_OPEN
 70
     0
 10
0.0
 20
0.0
 30
0.0
  3
_OPEN
  1

  0
LINE
  5
7B0F
  8
0
  6
BYBLOCK
 62
     0
 10
-1.0
 20
0.166667
 30
0.0
 11
0.0
 21
0.0
 31
0.0
  0
LINE
  5
7B10
  8
0
  6
BYBLOCK
 62
     0
 10
0.0
 20
0.0
 30
0.0
 11
-1.0
 21
-0.166667
 31
0.0
  0
LINE
  5
7B11
  8
0
  6
BYBLOCK
 62
     0
 10
0.0
 20
0.0
 30
0.0
 11
-1.0
 21
0.0
 31
0.0
  0
ENDBLK
  5
7B12
  8
0
  0
BLOCK
  8
0
  2
*D1
 70
     1
 10
0.0
 20
0.0
 30
0.0
  3
*D1
  1

  0
LINE
  5
7F4D
  8
3
  6
CONTINUOUS
 62
     0
 10
3762.1138109999988
 20
4339.0715069999987
 30
0.0
 11
4067.9244160000012
 21
4339.0715069999987
 31
0.0
  0
LINE
  5
7F4E
  8
3
  6
CONTINUOUS
 62
     0
 10
3762.1138109999988
 20
3059.0715070000001
 30
0.0
 11
4067.9244159999998
 21
3059.0715070000001
 31
0.0
  0
LINE
  5
7F4F
  8
3
  6
CONTINUOUS
 62
     0
 10
4027.9244160000012
 20
4259.0715069999987
 30
0.0
 11
4027.9244160000012
 21
3139.0715070000001
 31
0.0
  0
INSERT
  5
7F50
  8
3
  6
CONTINUOUS
 62
     0
  2
_OPEN
 10
4027.9244160000012
 20
4339.0715069999987
 30
0.0
 41
80.0
 42
80.0
 43
80.0
 50
90.0
  0
INSERT
  5
7F51
  8
3
  6
CONTINUOUS
 62
     0
  2
_OPEN
 10
4027.9244159999998
 20
3059.0715070000001
 30
0.0
 41
80.0
 42
80.0
 43
80.0
 50
270.0
  0
TEXT
  8
3
  40
120
  5
7FF8
  62
0
  72
0
  71
0
 10
3687.92
 20
3424.41
 30
0.000000
  1
1280
  0
POINT
  5
7F53
  8
DEFPOINTS
  6
CONTINUOUS
 62
     0
 10
3742.1138110000002
 20
4339.0715069999987
 30
0.0
  0
POINT
  5
7F54
  8
DEFPOINTS
  6
CONTINUOUS
 62
     0
 10
3742.1138110000002
 20
3059.0715070000001
 30
0.0
  0
POINT
  5
7F55
  8
DEFPOINTS
  6
CONTINUOUS
 62
     0
 10
4027.9244159999998
 20
3059.0715070000001
 30
0.0
  0
ENDBLK
  5
7B1F
  8
0
  0
BLOCK
  8
0
  2
*D2
 70
     1
 10
0.0
 20
0.0
 30
0.0
  3
*D2
  1

  0
LINE
  5
7F56
  8
3
  6
CONTINUOUS
 62
     0
 10
3910.917461
 20
4393.0715069999997
 30
0.0
 11
4332.3547080000008
 21
4393.0715069999997
 31
0.0
  0
LINE
  5
7F57
  8
3
  6
CONTINUOUS
 62
     0
 10
3762.1138109999988
 20
3059.0715070000001
 30
0.0
 11
4332.3547080000008
 21
3059.0715070000001
 31
0.0
  0
LINE
  5
7F58
  8
3
  6
CONTINUOUS
 62
     0
 10
4292.3547079999998
 20
4313.0715069999997
 30
0.0
 11
4292.3547079999998
 21
3139.0715070000001
 31
0.0
  0
INSERT
  5
7F59
  8
3
  6
CONTINUOUS
 62
     0
  2
_OPEN
 10
4292.3547079999998
 20
4393.0715069999997
 30
0.0
 41
80.0
 42
80.0
 43
80.0
 50
90.0
  0
INSERT
  5
7F5A
  8
3
  6
CONTINUOUS
 62
     0
  2
_OPEN
 10
4292.3547079999998
 20
3059.0715070000001
 30
0.0
 41
80.0
 42
80.0
 43
80.0
 50
270.0
  0
TEXT
  8
3
  40
120
  5
7FF9
  62
0
  72
0
  71
0
 10
3952.35
 20
3432.19
 30
0.000000
  1
1334
  0
POINT
  5
7F5C
  8
DEFPOINTS
  6
CONTINUOUS
 62
     0
 10
3890.917461
 20
4393.0715069999997
 30
0.0
  0
POINT
  5
7F5D
  8
DEFPOINTS
  6
CONTINUOUS
 62
     0
 10
3742.1138110000002
 20
3059.0715070000001
 30
0.0
  0
POINT
  5
7F5E
  8
DEFPOINTS
  6
CONTINUOUS
 62
     0
 10
4292.3547079999998
 20
3059.0715070000001
 30
0.0
  0
ENDBLK
  5
7B2C
  8
0
  0
BLOCK
  8
0
  2
*D3
 70
     1
 10
0.0
 20
0.0
 30
0.0
  3
*D3
  1

  0
LINE
  5
7F5F
  8
3
  6
CONTINUOUS
 62
     0
 10
2910.266310999999
 20
5290.3271649999997
 30
0.0
 11
4620.0208070000008
 21
5290.3271649999997
 31
0.0
  0
LINE
  5
7F60
  8
3
  6
CONTINUOUS
 62
     0
 10
3910.917461
 20
4393.0715069999997
 30
0.0
 11
4620.0208070000008
 21
4393.0715069999997
 31
0.0
  0
LINE
  5
7F61
  8
3
  6
CONTINUOUS
 62
     0
 10
4580.0208070000008
 20
5210.3271649999988
 30
0.0
 11
4580.0208070000008
 21
4473.0715069999987
 31
0.0
  0
INSERT
  5
7F62
  8
3
  6
CONTINUOUS
 62
     0
  2
_OPEN
 10
4580.0208070000008
 20
5290.3271649999997
 30
0.0
 41
80.0
 42
80.0
 43
80.0
 50
90.0
  0
INSERT
  5
7F63
  8
3
  6
CONTINUOUS
 62
     0
  2
_OPEN
 10
4580.0208070000008
 20
4393.0715069999997
 30
0.0
 41
80.0
 42
80.0
 43
80.0
 50
270.0
  0
TEXT
  8
3
  40
120
  5
7FFA
  62
0
  72
0
  71
0
 10
4240.02
 20
4573.01
 30
0.000000
  1
897
  0
POINT
  5
7F65
  8
DEFPOINTS
  6
CONTINUOUS
 62
     0
 10
2890.266310999999
 20
5290.3271649999997
 30
0.0
  0
POINT
  5
7F66
  8
DEFPOINTS
  6
CONTINUOUS
 62
     0
 10
3890.917461
 20
4393.0715069999997
 30
0.0
  0
POINT
  5
7F67
  8
DEFPOINTS
  6
CONTINUOUS
 62
     0
 10
4580.0208070000008
 20
4393.0715069999997
 30
0.0
  0
ENDBLK
  5
7B3A
  8
0
  0
BLOCK
  8
0
  2
*D4
 70
     1
 10
0.0
 20
0.0
 30
0.0
  3
*D4
  1

  0
LINE
  5
7F68
  8
3
  6
CONTINUOUS
 62
     0
 10
3687.1138109999988
 20
2843.0715070000001
 30
0.0
 11
4620.0208069999999
 21
2843.0715070000001
 31
0.0
  0
LINE
  5
7F69
  8
3
  6
CONTINUOUS
 62
     0
 10
4580.020806999999
 20
4313.0715069999997
 30
0.0
 11
4580.020806999999
 21
2923.0715070000001
 31
0.0
  0
INSERT
  5
7F6A
  8
3
  6
CONTINUOUS
 62
     0
  2
_OPEN
 10
4580.020806999999
 20
4393.0715069999997
 30
0.0
 41
80.0
 42
80.0
 43
80.0
 50
90.0
  0
INSERT
  5
7F6B
  8
3
  6
CONTINUOUS
 62
     0
  2
_OPEN
 10
4580.020806999999
 20
2843.0715070000001
 30
0.0
 41
80.0
 42
80.0
 43
80.0
 50
270.0
  0
TEXT
  8
3
  40
120
  5
7FFB
  62
0
  72
0
  71
0
 10
4240.02
 20
3405.67
 30
0.000000
  1
1550
  0
POINT
  5
7F6D
  8
DEFPOINTS
  6
CONTINUOUS
 62
     0
 10
3890.917461
 20
4393.0715069999997
 30
0.0
  0
POINT
  5
7F6E
  8
DEFPOINTS
  6
CONTINUOUS
 62
     0
 10
3667.1138110000002
 20
2843.0715070000001
 30
0.0
  0
POINT
  5
7F6F
  8
DEFPOINTS
  6
CONTINUOUS
 62
     0
 10
4580.020806999999
 20
2843.0715070000001
 30
0.0
  0
ENDBLK
  5
7C9A
  8
0
  0
BLOCK
  8
0
  2
*D5
 70
     1
 10
0.0
 20
0.0
 30
0.0
  3
*D5
  1

  0
LINE
  5
7F70
  8
3
  6
CONTINUOUS
 62
     0
 10
1117.1138109999999
 20
2633.0715070000001
 30
0.0
 11
1117.1138109999999
 21
2310.3629769999998
 31
0.0
  0
LINE
  5
7F71
  8
3
  6
CONTINUOUS
 62
     0
 10
2917.1138110000002
 20
2492.2593259999999
 30
0.0
 11
2917.1138110000002
 21
2310.3629769999998
 31
0.0
  0
LINE
  5
7F72
  8
3
  6
CONTINUOUS
 62
     0
 10
1197.1138109999999
 20
2350.3629769999998
 30
0.0
 11
2837.1138110000002
 21
2350.3629769999998
 31
0.0
  0
INSERT
  5
7F73
  8
3
  6
CONTINUOUS
 62
     0
  2
_OPEN
 10
1117.1138109999999
 20
2350.3629769999998
 30
0.0
 41
80.0
 42
80.0
 43
80.0
 50
180.0
  0
INSERT
  5
7F74
  8
3
  6
CONTINUOUS
 62
     0
  2
_OPEN
 10
2917.1138110000002
 20
2350.3629769999998
 30
0.0
 41
80.0
 42
80.0
 43
80.0
  0
TEXT
  8
3
  40
120
  5
7FFC
  62
0
  72
0
  71
0
 10
1866.58
 20
2237.96
 30
0.000000
  1
1800
  0
POINT
  5
7F76
  8
DEFPOINTS
  6
CONTINUOUS
 62
     0
 10
1117.1138109999999
 20
2653.0715070000001
 30
0.0
  0
POINT
  5
7F77
  8
DEFPOINTS
  6
CONTINUOUS
 62
     0
 10
2917.1138110000002
 20
2512.2593259999999
 30
0.0
  0
POINT
  5
7F78
  8
DEFPOINTS
  6
CONTINUOUS
 62
     0
 10
2917.1138110000002
 20
2350.3629769999998
 30
0.0
  0
ENDBLK
  5
7C6D
  8
0
  0
BLOCK
  8
0
  2
*D6
 70
     1
 10
0.0
 20
0.0
 30
0.0
  3
*D6
  1

  0
LINE
  5
7F79
  8
3
  6
CONTINUOUS
 62
     0
 10
3667.1138110000002
 20
2633.0715070000001
 30
0.0
 11
3667.1138110000002
 21
2310.3629769999998
 31
0.0
  0
LINE
  5
7F7A
  8
3
  6
CONTINUOUS
 62
     0
 10
2997.1138110000002
 20
2350.3629769999998
 30
0.0
 11
3587.1138110000002
 21
2350.3629769999998
 31
0.0
  0
INSERT
  5
7F7B
  8
3
  6
CONTINUOUS
 62
     0
  2
_OPEN
 10
2917.1138110000002
 20
2350.3629769999998
 30
0.0
 41
80.0
 42
80.0
 43
80.0
 50
180.0
  0
INSERT
  5
7F7C
  8
3
  6
CONTINUOUS
 62
     0
  2
_OPEN
 10
3667.1138110000002
 20
2350.3629769999998
 30
0.0
 41
80.0
 42
80.0
 43
80.0
  0
TEXT
  8
3
  40
120
  5
7FFD
  62
0
  72
0
  71
0
 10
3052.11
 20
2237.96
 30
0.000000
  1
750
  0
POINT
  5
7F7E
  8
DEFPOINTS
  6
CONTINUOUS
 62
     0
 10
2917.1138110000002
 20
2512.2593259999999
 30
0.0
  0
POINT
  5
7F7F
  8
DEFPOINTS
  6
CONTINUOUS
 62
     0
 10
3667.1138110000002
 20
2653.0715070000001
 30
0.0
  0
POINT
  5
7F80
  8
DEFPOINTS
  6
CONTINUOUS
 62
     0
 10
3667.1138110000002
 20
2350.3629769999998
 30
0.0
  0
ENDBLK
  5
7B7C
  8
0
  0
BLOCK
  8
0
  2
*D7
 70
     1
 10
0.0
 20
0.0
 30
0.0
  3
*D7
  1

  0
LINE
  5
7F81
  8
3
  6
CONTINUOUS
 62
     0
 10
3742.1138110000002
 20
4409.0715069999987
 30
0.0
 11
3742.1138110000002
 21
5616.7622540000011
 31
0.0
  0
LINE
  5
7F82
  8
3
  6
CONTINUOUS
 62
     0
 10
2917.1138110000002
 20
5519.8619869999993
 30
0.0
 11
2917.1138110000002
 21
5616.7622540000011
 31
0.0
  0
LINE
  5
7F83
  8
3
  6
CONTINUOUS
 62
     0
 10
3662.1138109999988
 20
5576.7622540000011
 30
0.0
 11
2997.1138110000002
 21
5576.7622540000011
 31
0.0
  0
INSERT
  5
7F84
  8
3
  6
CONTINUOUS
 62
     0
  2
_OPEN
 10
3742.1138110000002
 20
5576.7622540000011
 30
0.0
 41
80.0
 42
80.0
 43
80.0
  0
INSERT
  5
7F85
  8
3
  6
CONTINUOUS
 62
     0
  2
_OPEN
 10
2917.1138110000002
 20
5576.7622540000011
 30
0.0
 41
80.0
 42
80.0
 43
80.0
 50
180.0
  0
TEXT
  8
3
  40
120
  5
7FFE
  62
0
  72
0
  71
0
 10
3107.38
 20
5464.36
 30
0.000000
  1
825
  0
POINT
  5
7F87
  8
DEFPOINTS
  6
CONTINUOUS
 62
     0
 10
3742.1138110000002
 20
4389.0715069999987
 30
0.0
  0
POINT
  5
7F88
  8
DEFPOINTS
  6
CONTINUOUS
 62
     0
 10
2917.1138110000002
 20
5499.8619869999993
 30
0.0
  0
POINT
  5
7F89
  8
DEFPOINTS
  6
CONTINUOUS
 62
     0
 10
2917.1138110000002
 20
5576.7622540000011
 30
0.0
  0
ENDBLK
  5
7B89
  8
0
  0
BLOCK
  8
0
  2
*D8
 70
     1
 10
0.0
 20
0.0
 30
0.0
  3
*D8
  1

  0
LINE
  5
7F8A
  8
3
  6
CONTINUOUS
 62
     0
 10
5811.2071239999996
 20
5242.0715069999997
 30
0.0
 11
5811.2071239999996
 21
5453.5969739999991
 31
0.0
  0
LINE
  5
7F8B
  8
3
  6
CONTINUOUS
 62
     0
 10
6761.2071239999987
 20
5242.0715069999997
 30
0.0
 11
6761.2071239999987
 21
5453.5969739999991
 31
0.0
  0
LINE
  5
7F8C
  8
3
  6
CONTINUOUS
 62
     0
 10
5891.2071240000014
 20
5413.596974
 30
0.0
 11
6681.2071239999996
 21
5413.596974
 31
0.0
  0
INSERT
  5
7F8D
  8
3
  6
CONTINUOUS
 62
     0
  2
_OPEN
 10
5811.2071239999996
 20
5413.596974
 30
0.0
 41
80.0
 42
80.0
 43
80.0
 50
180.0
  0
INSERT
  5
7F8E
  8
3
  6
CONTINUOUS
 62
     0
  2
_OPEN
 10
6761.2071239999987
 20
5413.596974
 30
0.0
 41
80.0
 42
80.0
 43
80.0
  0
TEXT
  8
3
  40
120
  5
7FFF
  62
0
  72
0
  71
0
 10
6048.06
 20
5301.20
 30
0.000000
  1
950
  0
POINT
  5
7F90
  8
DEFPOINTS
  6
CONTINUOUS
 62
     0
 10
5811.2071239999996
 20
5222.0715069999987
 30
0.0
  0
POINT
  5
7F91
  8
DEFPOINTS
  6
CONTINUOUS
 62
     0
 10
6761.2071239999987
 20
5222.0715069999987
 30
0.0
  0
POINT
  5
7F92
  8
DEFPOINTS
  6
CONTINUOUS
 62
     0
 10
6761.2071239999987
 20
5413.596974
 30
0.0
  0
ENDBLK
  5
7BA2
  8
0
  0
BLOCK
  8
0
  2
*D9
 70
     1
 10
0.0
 20
0.0
 30
0.0
  3
*D9
  1

  0
LINE
  5
7F93
  8
3
  6
CONTINUOUS
 62
     0
 10
6884.2071239999987
 20
5018.0715069999997
 30
0.0
 11
7209.6803520000012
 21
5018.0715069999997
 31
0.0
  0
LINE
  5
7F94
  8
3
  6
CONTINUOUS
 62
     0
 10
6884.2071239999987
 20
3768.0715070000001
 30
0.0
 11
7209.6803520000012
 21
3768.0715070000001
 31
0.0
  0
LINE
  5
7F95
  8
3
  6
CONTINUOUS
 62
     0
 10
7169.6803520000003
 20
4938.0715069999997
 30
0.0
 11
7169.6803520000003
 21
3848.0715069999992
 31
0.0
  0
INSERT
  5
7F96
  8
3
  6
CONTINUOUS
 62
     0
  2
_OPEN
 10
7169.6803520000003
 20
5018.0715069999997
 30
0.0
 41
80.0
 42
80.0
 43
80.0
 50
90.0
  0
INSERT
  5
7F97
  8
3
  6
CONTINUOUS
 62
     0
  2
_OPEN
 10
7169.6803520000003
 20
3768.0715070000001
 30
0.0
 41
80.0
 42
80.0
 43
80.0
 50
270.0
  0
TEXT
  8
3
  40
120
  5
8000
  62
0
  72
0
  71
0
 10
6829.68
 20
4181.41
 30
0.000000
  1
φ1250
  0
POINT
  5
7F99
  8
DEFPOINTS
  6
CONTINUOUS
 62
     0
 10
6864.2071239999987
 20
5018.0715069999997
 30
0.0
  0
POINT
  5
7F9A
  8
DEFPOINTS
  6
CONTINUOUS
 62
     0
 10
6864.2071239999987
 20
3768.0715070000001
 30
0.0
  0
POINT
  5
7F9B
  8
DEFPOINTS
  6
CONTINUOUS
 62
     0
 10
7169.6803520000003
 20
3768.0715070000001
 30
0.0
  0
ENDBLK
  5
7CD5
  8
0
  0
BLOCK
  8
0
  2
*D10
 70
     1
 10
0.0
 20
0.0
 30
0.0
  3
*D10
  1

  0
LINE
  5
7F9C
  8
3
  6
CONTINUOUS
 62
     0
 10
6864.2071239999987
 20
5088.0715069999997
 30
0.0
 11
6864.2071239999987
 21
5722.8196829999997
 31
0.0
  0
LINE
  5
7F9D
  8
3
  6
CONTINUOUS
 62
     0
 10
6286.2071239999996
 20
5625.423323
 30
0.0
 11
6286.2071239999996
 21
5722.8196829999997
 31
0.0
  0
LINE
  5
7F9E
  8
3
  6
CONTINUOUS
 62
     0
 10
6784.2071239999987
 20
5682.8196829999988
 30
0.0
 11
6366.2071239999996
 21
5682.8196829999988
 31
0.0
  0
INSERT
  5
7F9F
  8
3
  6
CONTINUOUS
 62
     0
  2
_OPEN
 10
6864.2071239999987
 20
5682.8196829999988
 30
0.0
 41
80.0
 42
80.0
 43
80.0
  0
INSERT
  5
7FA0
  8
3
  6
CONTINUOUS
 62
     0
  2
_OPEN
 10
6286.2071239999996
 20
5682.8196829999988
 30
0.0
 41
80.0
 42
80.0
 43
80.0
 50
180.0
  0
TEXT
  8
3
  40
120
  5
8001
  62
0
  72
0
  71
0
 10
6349.92
 20
5570.42
 30
0.000000
  1
578
  0
POINT
  5
7FA2
  8
DEFPOINTS
  6
CONTINUOUS
 62
     0
 10
6864.2071239999987
 20
5068.0715069999987
 30
0.0
  0
POINT
  5
7FA3
  8
DEFPOINTS
  6
CONTINUOUS
 62
     0
 10
6286.2071239999996
 20
5605.423323
 30
0.0
  0
POINT
  5
7FA4
  8
DEFPOINTS
  6
CONTINUOUS
 62
     0
 10
6286.2071239999996
 20
5682.8196829999988
 30
0.0
  0
ENDBLK
  5
7BED
  8
0
  0
BLOCK
  8
0
  2
*D11
 70
     1
 10
0.0
 20
0.0
 30
0.0
  3
*D11
  1

  0
LINE
  5
7FA5
  8
3
  6
CONTINUOUS
 62
     0
 10
5446.2071239999996
 20
4791.0715069999987
 30
0.0
 11
5446.2071239999996
 21
5722.8196829999997
 31
0.0
  0
LINE
  5
7FA6
  8
3
  6
CONTINUOUS
 62
     0
 10
6206.2071240000014
 20
5682.8196829999988
 30
0.0
 11
5526.2071239999996
 21
5682.8196829999988
 31
0.0
  0
INSERT
  5
7FA7
  8
3
  6
CONTINUOUS
 62
     0
  2
_OPEN
 10
6286.2071239999996
 20
5682.8196829999988
 30
0.0
 41
80.0
 42
80.0
 43
80.0
  0
INSERT
  5
7FA8
  8
3
  6
CONTINUOUS
 62
     0
  2
_OPEN
 10
5446.2071239999996
 20
5682.8196829999988
 30
0.0
 41
80.0
 42
80.0
 43
80.0
 50
180.0
  0
TEXT
  8
3
  40
120
  5
8002
  62
0
  72
0
  71
0
 10
5626.21
 20
5670.42
 30
0.000000
  1
MAX
  0
TEXT
  8
3
  40
120
  5
8003
  62
0
  72
0
  71
0
 10
5626.21
 20
5514.42
 30
0.000000
  1
890
  0
POINT
  5
7FAA
  8
DEFPOINTS
  6
CONTINUOUS
 62
     0
 10
6286.2071239999996
 20
5605.423323
 30
0.0
  0
POINT
  5
7FAB
  8
DEFPOINTS
  6
CONTINUOUS
 62
     0
 10
5446.2071239999996
 20
4771.0715069999997
 30
0.0
  0
POINT
  5
7FAC
  8
DEFPOINTS
  6
CONTINUOUS
 62
     0
 10
5446.2071239999996
 20
5682.8196829999988
 30
0.0
  0
ENDBLK
  5
7CCA
  8
0
  0
BLOCK
  8
0
  2
*D12
 70
     1
 10
0.0
 20
0.0
 30
0.0
  3
*D12
  1

  0
LINE
  5
7FAD
  8
3
  6
CONTINUOUS
 62
     0
 10
5559.2071239999996
 20
2633.0715070000001
 30
0.0
 11
5559.2071239999996
 21
2342.9960379999989
 31
0.0
  0
LINE
  5
7FAE
  8
3
  6
CONTINUOUS
 62
     0
 10
6286.2071239999996
 20
2469.5389359999999
 30
0.0
 11
6286.2071239999996
 21
2342.9960379999989
 31
0.0
  0
LINE
  5
7FAF
  8
3
  6
CONTINUOUS
 62
     0
 10
5639.2071240000014
 20
2382.9960379999989
 30
0.0
 11
6206.2071240000014
 21
2382.9960379999989
 31
0.0
  0
INSERT
  5
7FB0
  8
3
  6
CONTINUOUS
 62
     0
  2
_OPEN
 10
5559.2071239999996
 20
2382.9960379999989
 30
0.0
 41
80.0
 42
80.0
 43
80.0
 50
180.0
  0
INSERT
  5
7FB1
  8
3
  6
CONTINUOUS
 62
     0
  2
_OPEN
 10
6286.2071239999996
 20
2382.9960379999989
 30
0.0
 41
80.0
 42
80.0
 43
80.0
  0
TEXT
  8
3
  40
120
  5
8004
  62
0
  72
0
  71
0
 10
5688.88
 20
2270.60
 30
0.000000
  1
727
  0
POINT
  5
7FB3
  8
DEFPOINTS
  6
CONTINUOUS
 62
     0
 10
5559.2071239999996
 20
2653.0715070000001
 30
0.0
  0
POINT
  5
7FB4
  8
DEFPOINTS
  6
CONTINUOUS
 62
     0
 10
6286.2071239999996
 20
2489.5389359999999
 30
0.0
  0
POINT
  5
7FB5
  8
DEFPOINTS
  6
CONTINUOUS
 62
     0
 10
6286.2071239999996
 20
2382.9960379999989
 30
0.0
  0
ENDBLK
  5
7BD5
  8
0
  0
BLOCK
  8
0
  2
*D13
 70
     1
 10
0.0
 20
0.0
 30
0.0
  3
*D13
  1

  0
LINE
  5
7FB6
  8
3
  6
CONTINUOUS
 62
     0
 10
6839.2071239999987
 20
2633.0715070000001
 30
0.0
 11
6839.2071239999987
 21
2342.9960379999989
 31
0.0
  0
LINE
  5
7FB7
  8
3
  6
CONTINUOUS
 62
     0
 10
6366.2071239999996
 20
2382.9960379999989
 30
0.0
 11
6759.2071239999987
 21
2382.9960379999989
 31
0.0
  0
INSERT
  5
7FB8
  8
3
  6
CONTINUOUS
 62
     0
  2
_OPEN
 10
6286.2071239999996
 20
2382.9960379999989
 30
0.0
 41
80.0
 42
80.0
 43
80.0
 50
180.0
  0
INSERT
  5
7FB9
  8
3
  6
CONTINUOUS
 62
     0
  2
_OPEN
 10
6839.2071239999987
 20
2382.9960379999989
 30
0.0
 41
80.0
 42
80.0
 43
80.0
  0
TEXT
  8
3
  40
120
  5
8005
  62
0
  72
0
  71
0
 10
6322.71
 20
2270.60
 30
0.000000
  1
553
  0
POINT
  5
7FBB
  8
DEFPOINTS
  6
CONTINUOUS
 62
     0
 10
6286.2071239999996
 20
2489.5389359999999
 30
0.0
  0
POINT
  5
7FBC
  8
DEFPOINTS
  6
CONTINUOUS
 62
     0
 10
6839.2071239999987
 20
2653.0715070000001
 30
0.0
  0
POINT
  5
7FBD
  8
DEFPOINTS
  6
CONTINUOUS
 62
     0
 10
6839.2071239999987
 20
2382.9960379999989
 30
0.0
  0
ENDBLK
  5
7BE1
  8
0
  0
BLOCK
  8
0
  2
*D14
 70
     1
 10
0.0
 20
0.0
 30
0.0
  3
*D14
  1

  0
LINE
  5
7FBE
  8
3
  6
CONTINUOUS
 62
     0
 10
1117.1138109999999
 20
7172.2626869999986
 30
0.0
 11
1117.1138109999999
 21
6755.2843040000007
 31
0.0
  0
LINE
  5
7FBF
  8
3
  6
CONTINUOUS
 62
     0
 10
3667.1138110000002
 20
7172.2626869999986
 30
0.0
 11
3667.1138110000002
 21
6755.2843040000007
 31
0.0
  0
LINE
  5
7FC0
  8
3
  6
CONTINUOUS
 62
     0
 10
1197.1138109999999
 20
6795.2843039999998
 30
0.0
 11
3587.1138110000002
 21
6795.2843039999998
 31
0.0
  0
INSERT
  5
7FC1
  8
3
  6
CONTINUOUS
 62
     0
  2
_OPEN
 10
1117.1138109999999
 20
6795.2843039999998
 30
0.0
 41
80.0
 42
80.0
 43
80.0
 50
180.0
  0
INSERT
  5
7FC2
  8
3
  6
CONTINUOUS
 62
     0
  2
_OPEN
 10
3667.1138110000002
 20
6795.2843039999998
 30
0.0
 41
80.0
 42
80.0
 43
80.0
  0
TEXT
  8
3
  40
120
  5
8006
  62
0
  72
0
  71
0
 10
2124.05
 20
6682.88
 30
0.000000
  1
2550
  0
POINT
  5
7FC4
  8
DEFPOINTS
  6
CONTINUOUS
 62
     0
 10
1117.1138109999999
 20
7192.2626870000004
 30
0.0
  0
POINT
  5
7FC5
  8
DEFPOINTS
  6
CONTINUOUS
 62
     0
 10
3667.1138110000002
 20
7192.2626870000004
 30
0.0
  0
POINT
  5
7FC6
  8
DEFPOINTS
  6
CONTINUOUS
 62
     0
 10
3667.1138110000002
 20
6795.2843039999998
 30
0.0
  0
ENDBLK
  5
7C62
  8
0
  0
BLOCK
  8
0
  2
*D15
 70
     1
 10
0.0
 20
0.0
 30
0.0
  3
*D15
  1

  0
LINE
  5
7FC7
  8
3
  6
CONTINUOUS
 62
     0
 10
3687.1138109999988
 20
8472.2626870000004
 30
0.0
 11
4087.1597810000021
 21
8472.2626870000004
 31
0.0
  0
LINE
  5
7FC8
  8
3
  6
CONTINUOUS
 62
     0
 10
3687.1138109999988
 20
7192.2626870000004
 30
0.0
 11
4087.1597810000021
 21
7192.2626870000004
 31
0.0
  0
LINE
  5
7FC9
  8
3
  6
CONTINUOUS
 62
     0
 10
4047.1597810000021
 20
8392.2626870000004
 30
0.0
 11
4047.1597810000021
 21
7272.2626870000004
 31
0.0
  0
INSERT
  5
7FCA
  8
3
  6
CONTINUOUS
 62
     0
  2
_OPEN
 10
4047.1597810000021
 20
8472.2626870000004
 30
0.0
 41
80.0
 42
80.0
 43
80.0
 50
90.0
  0
INSERT
  5
7FCB
  8
3
  6
CONTINUOUS
 62
     0
  2
_OPEN
 10
4047.1597810000021
 20
7192.2626870000004
 30
0.0
 41
80.0
 42
80.0
 43
80.0
 50
270.0
  0
TEXT
  8
3
  40
120
  5
8007
  62
0
  72
0
  71
0
 10
3707.16
 20
7564.78
 30
0.000000
  1
1280
  0
POINT
  5
7FCD
  8
DEFPOINTS
  6
CONTINUOUS
 62
     0
 10
3667.1138110000002
 20
8472.2626870000004
 30
0.0
  0
POINT
  5
7FCE
  8
DEFPOINTS
  6
CONTINUOUS
 62
     0
 10
3667.1138110000002
 20
7192.2626870000004
 30
0.0
  0
POINT
  5
7FCF
  8
DEFPOINTS
  6
CONTINUOUS
 62
     0
 10
4047.1597810000021
 20
7192.2626870000004
 30
0.0
  0
ENDBLK
  5
7C10
  8
0
  0
BLOCK
  8
0
  2
*D16
 70
     1
 10
0.0
 20
0.0
 30
0.0
  3
*D16
  1

  0
LINE
  5
7FD0
  8
3
  6
CONTINUOUS
 62
     0
 10
1838.113810999999
 20
4413.0715069999997
 30
0.0
 11
1838.113810999999
 21
5616.7622540000011
 31
0.0
  0
LINE
  5
7FD1
  8
3
  6
CONTINUOUS
 62
     0
 10
2837.1138110000002
 20
5576.7622540000011
 30
0.0
 11
1918.113810999999
 21
5576.7622540000011
 31
0.0
  0
INSERT
  5
7FD2
  8
3
  6
CONTINUOUS
 62
     0
  2
_OPEN
 10
2917.1138110000002
 20
5576.7622540000011
 30
0.0
 41
80.0
 42
80.0
 43
80.0
  0
INSERT
  5
7FD3
  8
3
  6
CONTINUOUS
 62
     0
  2
_OPEN
 10
1838.113810999999
 20
5576.7622540000011
 30
0.0
 41
80.0
 42
80.0
 43
80.0
 50
180.0
  0
TEXT
  8
3
  40
120
  5
8008
  62
0
  72
0
  71
0
 10
2137.61
 20
5464.36
 30
0.000000
  1
1079
  0
POINT
  5
7FD5
  8
DEFPOINTS
  6
CONTINUOUS
 62
     0
 10
2917.1138110000002
 20
5499.8619869999993
 30
0.0
  0
POINT
  5
7FD6
  8
DEFPOINTS
  6
CONTINUOUS
 62
     0
 10
1838.113810999999
 20
4393.0715069999997
 30
0.0
  0
POINT
  5
7FD7
  8
DEFPOINTS
  6
CONTINUOUS
 62
     0
 10
1838.113810999999
 20
5576.7622540000011
 30
0.0
  0
ENDBLK
  5
7CB3
  8
0
  0
BLOCK
  8
0
  2
*D17
 70
     1
 10
0.0
 20
0.0
 30
0.0
  3
*D17
  1

  0
LINE
  5
7FD8
  8
3
 62
     0
 10
3742.1138110000002
 20
4409.0715069999987
 30
0.0
 11
3742.1138110000002
 21
5872.0861037181103
 31
0.0
  0
LINE
  5
7FD9
  8
3
 62
     0
 10
1117.113810999999
 20
3013.0715070000001
 30
0.0
 11
1117.1138109999999
 21
5872.0861037181103
 31
0.0
  0
LINE
  5
7FDA
  8
3
 62
     0
 10
3662.1138109999988
 20
5832.0861037181094
 30
0.0
 11
1197.1138109999999
 21
5832.0861037181094
 31
0.0
  0
INSERT
  5
7FDB
  8
3
 62
     0
  2
_OPEN
 10
3742.1138110000002
 20
5832.0861037181094
 30
0.0
 41
80.0
 42
80.0
 43
80.0
  0
INSERT
  5
7FDC
  8
3
 62
     0
  2
_OPEN
 10
1117.1138109999999
 20
5832.0861037181094
 30
0.0
 41
80.0
 42
80.0
 43
80.0
 50
180.0
  0
TEXT
  8
3
  40
120
  5
8009
  62
0
  72
0
  71
0
 10
2235.17
 20
5719.69
 30
0.000000
  1
2625
  0
POINT
  5
7FDE
  8
DEFPOINTS
 62
     0
 10
3742.1138110000002
 20
4389.0715069999987
 30
0.0
  0
POINT
  5
7FDF
  8
DEFPOINTS
 62
     0
 10
1117.113810999999
 20
2993.0715070000001
 30
0.0
  0
POINT
  5
7FE0
  8
DEFPOINTS
 62
     0
 10
1117.1138109999999
 20
5832.0861037181094
 30
0.0
  0
ENDBLK
  5
7CBF
  8
0
  0
BLOCK
  8
0
  2
*D18
 70
     1
 10
0.0
 20
0.0
 30
0.0
  3
*D18
  1

  0
LINE
  5
7FE1
  8
3
 62
     0
 10
3687.1138109999988
 20
2843.0715070000001
 30
0.0
 11
4620.0208069999999
 21
2843.0715070000001
 31
0.0
  0
LINE
  5
7FE2
  8
3
 62
     0
 10
3687.1138109999988
 20
2728.0715070000001
 30
0.0
 11
4620.0208069999999
 21
2728.0715070000001
 31
0.0
  0
LINE
  5
7FE3
  8
3
 62
     0
 10
4580.020806999999
 20
2843.0715070000001
 30
0.0
 11
4580.020806999999
 21
2728.0715070000001
 31
0.0
  0
LINE
  5
7FE4
  8
3
 62
     0
 10
4580.020806999999
 20
2785.5715070000001
 30
0.0
 11
4954.3065212857136
 21
2897.8572212857139
 31
0.0
  0
LINE
  5
7FE5
  8
3
 62
     0
 10
4954.3065212857136
 20
2897.8572212857139
 30
0.0
 11
4954.3065212857136
 21
3395.0000784285721
 31
0.0
  0
TEXT
  8
3
  40
120
  5
800A
  62
0
  72
0
  71
0
 10
4582.88
 20
2934.03
 30
0.000000
  1
(115)
  0
POINT
  5
7FE7
  8
DEFPOINTS
 62
     0
 10
3667.1138110000002
 20
2843.0715070000001
 30
0.0
  0
POINT
  5
7FE8
  8
DEFPOINTS
 62
     0
 10
3667.1138110000002
 20
2728.0715070000001
 30
0.0
  0
POINT
  5
7FE9
  8
DEFPOINTS
 62
     0
 10
4580.020806999999
 20
2728.0715070000001
 30
0.0
  0
ENDBLK
  5
7DF7
  8
0
  0
BLOCK
  8
0
  2
*D19
 70
     1
 10
0.0
 20
0.0
 30
0.0
  3
*D19
  1

  0
LINE
  5
7FEA
  8
3
 62
     0
 10
3687.1138109999988
 20
2728.0715070000001
 30
0.0
 11
4620.0208069999999
 21
2728.0715070000001
 31
0.0
  0
LINE
  5
7FEB
  8
3
 62
     0
 10
3687.1138109999988
 20
2653.0715070000001
 30
0.0
 11
4620.0208069999999
 21
2653.0715070000001
 31
0.0
  0
LINE
  5
7FEC
  8
3
 62
     0
 10
4580.020806999999
 20
2728.0715070000001
 30
0.0
 11
4580.020806999999
 21
2808.0715070000001
 31
0.0
  0
LINE
  5
7FED
  8
3
 62
     0
 10
4580.020806999999
 20
2573.0715070000001
 30
0.0
 11
4580.020806999999
 21
2493.0715070000001
 31
0.0
  0
TEXT
  8
3
  40
120
  5
800B
  62
0
  72
0
  71
0
 10
4248.32
 20
2214.70
 30
0.000000
  1
75
  0
LINE
  5
7FEF
  8
3
 62
     0
 10
4580.020806999999
 20
2728.0715070000001
 30
0.0
 11
4580.020806999999
 21
2653.0715070000001
 31
0.0
  0
INSERT
  5
7FF0
  8
3
 62
     0
  2
_DOTSMALL
 10
4580.020806999999
 20
2728.0715070000001
 30
0.0
 41
80.0
 42
80.0
 43
80.0
 50
270.0
  0
INSERT
  5
7FF1
  8
3
 62
     0
  2
_OPEN
 10
4580.020806999999
 20
2653.0715070000001
 30
0.0
 41
80.0
 42
80.0
 43
80.0
 50
90.0
  0
POINT
  5
7FF2
  8
DEFPOINTS
 62
     0
 10
3667.1138110000002
 20
2728.0715070000001
 30
0.0
  0
POINT
  5
7FF3
  8
DEFPOINTS
 62
     0
 10
3667.1138110000002
 20
2653.0715070000001
 30
0.0
  0
POINT
  5
7FF4
  8
DEFPOINTS
 62
     0
 10
4580.020806999999
 20
2653.0715070000001
 30
0.0
  0
ENDBLK
  5
7E09
  8
0
  0
BLOCK
  8
0
  2
_DOTSMALL
 70
     0
 10
0.0
 20
0.0
 30
0.0
  3
_DOTSMALL
  1

  0
POLYLINE
  5
7E24
  8
3
 62
     0
 66
     1
 10
0.0
 20
0.0
 30
0.0
 70
     1
 40
0.5
 41
0.5
  0
VERTEX
  5
7FF5
  8
3
 62
     0
 10
-0.0625
 20
0.0
 30
0.0
 42
1.0
  0
VERTEX
  5
7FF6
  8
3
 62
     0
 10
0.0625
 20
0.0
 30
0.0
 42
1.0
  0
SEQEND
  5
7FF7
  8
3
 62
     0
  0
ENDBLK
  5
7E26
  8
0
  0
BLOCK
  8
0
  2
_NONE
 70
     0
 10
0.0
 20
0.0
 30
0.0
  3
_NONE
  1

  0
ENDBLK
  5
7E34
  8
0
  0
ENDSEC
  0
SECTION
  2
ENTITIES
  0
LINE
  5
7A76
  8
1
  6
CONTINUOUS
 10
6839.2071239999987
 20
2653.0715070000001
 30
0.0
 11
5559.2071239999996
 21
2653.0715070000001
 31
0.0
  0
LINE
  5
7A77
  8
1
  6
CONTINUOUS
 10
6839.2071239999987
 20
2728.0715070000001
 30
0.0
 11
5559.2071239999996
 21
2728.0715070000001
 31
0.0
  0
LINE
  5
7A78
  8
1
  6
CONTINUOUS
 10
5811.2071239999996
 20
4339.0715069999987
 30
0.0
 11
6761.2071239999987
 21
4339.0715069999987
 31
0.0
  0
LINE
  5
7A79
  8
1
  6
CONTINUOUS
 10
6839.2071239999987
 20
2843.0715070000001
 30
0.0
 11
5559.2071239999996
 21
2843.0715070000001
 31
0.0
  0
LINE
  5
7A7A
  8
1
  6
CONTINUOUS
 10
5811.2071239999996
 20
5222.0715069999987
 30
0.0
 11
6761.2071239999987
 21
5222.0715069999987
 31
0.0
  0
LINE
  5
7A7B
  8
1
  6
CONTINUOUS
 10
5811.2071239999996
 20
3059.0715070000001
 30
0.0
 11
6761.2071239999987
 21
3059.0715070000001
 31
0.0
  0
LINE
  5
7A7C
  8
1
  6
CONTINUOUS
 10
5811.2071239999996
 20
3059.0715070000001
 30
0.0
 11
6761.2071239999987
 21
4339.0715069999987
 31
0.0
  0
LINE
  5
7A7D
  8
1
  6
CONTINUOUS
 10
5811.2071239999996
 20
4339.0715069999987
 30
0.0
 11
6761.2071239999987
 21
3059.0715070000001
 31
0.0
  0
LINE
  5
7A7E
  8
1
  6
CONTINUOUS
 10
3667.1138110000002
 20
2653.0715070000001
 30
0.0
 11
1117.1138109999999
 21
2653.0715070000001
 31
0.0
  0
LINE
  5
7A7F
  8
1
  6
CONTINUOUS
 10
3667.1138110000002
 20
2728.0715070000001
 30
0.0
 11
1117.1138109999999
 21
2728.0715070000001
 31
0.0
  0
ARC
  5
7A80
  8
1
  6
CONTINUOUS
 10
2917.1138110000002
 20
4393.0715069999997
 30
0.0
 40
378.0
 50
302.0
 51
132.49999999999989
  0
POLYLINE
  5
7A81
  8
1
  6
CONTINUOUS
 66
     1
 10
0.0
 20
0.0
 30
0.0
  0
VERTEX
  5
7F46
  8
1
  6
CONTINUOUS
 10
3742.1138110000002
 20
3059.0715070000001
 30
0.0
  0
VERTEX
  5
7F47
  8
1
  6
CONTINUOUS
 10
2917.1138110000002
 20
3132.0715070000001
 30
0.0
 42
-0.4
  0
VERTEX
  5
7F48
  8
1
  6
CONTINUOUS
 10
1834.613810999999
 20
4302.0715069999987
 30
0.0
 42
-0.4
  0
VERTEX
  5
7F49
  8
1
  6
CONTINUOUS
 10
2908.413810999999
 20
5290.171507
 30
0.0
 42
-0.4
  0
VERTEX
  5
7F4A
  8
1
  6
CONTINUOUS
 10
3663.1138109999988
 20
4470.0715069999987
 30
0.0
  0
VERTEX
  5
7F4B
  8
1
  6
CONTINUOUS
 10
3650.1138110000002
 20
4339.0715069999987
 30
0.0
 42
-0.4
  0
SEQEND
  5
7F4C
  8
1
  6
CONTINUOUS
  0
LINE
  5
7A89
  8
1
  6
CONTINUOUS
 10
3667.1138110000002
 20
2843.0715070000001
 30
0.0
 11
1117.1138109999999
 21
2843.0715070000001
 31
0.0
  0
LINE
  5
7A8A
  8
1
  6
CONTINUOUS
 10
3667.1138110000002
 20
2993.0715070000001
 30
0.0
 11
1117.1138109999999
 21
2993.0715070000001
 31
0.0
  0
CIRCLE
  5
7A8B
  8
1
  6
CONTINUOUS
 10
2917.1138110000002
 20
4393.0715069999997
 30
0.0
 40
625.0
  0
CIRCLE
  5
7A8C
  8
1
  6
CONTINUOUS
 10
2917.1138110000002
 20
4393.0715069999997
 30
0.0
 40
675.0
  0
LINE
  5
7A8D
  8
1
  6
CONTINUOUS
 10
1658.6138109999999
 20
3041.4715070000002
 30
0.0
 11
3117.313811
 21
4072.4715070000002
 31
0.0
  0
LINE
  5
7A8E
  8
1
  6
CONTINUOUS
 10
1605.7138110000001
 20
3126.2715069999999
 30
0.0
 11
3064.4138109999999
 21
4157.2715070000004
 31
0.0
  0
LINE
  5
7A8F
  8
1
  6
CONTINUOUS
 10
1393.513811
 20
3390.2715069999999
 30
0.0
 11
2661.813811
 21
4671.8715069999998
 31
0.0
  0
LINE
  5
7A90
  8
1
  6
CONTINUOUS
 10
1461.113810999999
 20
3316.5715070000001
 30
0.0
 11
2729.313811
 21
4598.0715069999987
 31
0.0
  0
ARC
  5
7A91
  8
1
  6
CONTINUOUS
 10
1542.1138109999999
 20
3228.0715070000001
 30
0.0
 40
220.0
 50
132.49999999999989
 51
302.0
  0
ARC
  5
7A92
  8
1
  6
CONTINUOUS
 10
1542.1138109999999
 20
3228.0715070000001
 30
0.0
 40
199.0
 50
320.10000000000002
 51
219.90000000000001
  0
LINE
  5
7A93
  8
1
  6
CONTINUOUS
 10
1767.1138109999999
 20
3048.0715070000001
 30
0.0
 11
1317.1138109999999
 21
3048.0715070000001
 31
0.0
  0
LINE
  5
7A94
  8
1
  6
CONTINUOUS
 10
1380.1138109999999
 20
3048.0715070000001
 30
0.0
 11
1440.113810999999
 21
3048.0715070000001
 31
0.0
  0
LINE
  5
7A95
  8
1
  6
CONTINUOUS
 10
1117.1138109999999
 20
2728.0715070000001
 30
0.0
 11
1117.1138109999999
 21
2653.0715070000001
 31
0.0
  0
LINE
  5
7A96
  8
1
  6
CONTINUOUS
 10
1117.1138109999999
 20
2993.0715070000001
 30
0.0
 11
1117.1138109999999
 21
2843.0715070000001
 31
0.0
  0
LINE
  5
7A97
  8
1
  6
CONTINUOUS
 10
1380.1138109999999
 20
3090.5715070000001
 30
0.0
 11
1389.4138109999999
 21
3100.4715070000002
 31
0.0
  0
LINE
  5
7A98
  8
1
  6
CONTINUOUS
 10
1380.1138109999999
 20
3048.0715070000001
 30
0.0
 11
1380.1138109999999
 21
3090.5715070000001
 31
0.0
  0
LINE
  5
7A99
  8
1
  6
CONTINUOUS
 10
1317.1138109999999
 20
2993.0715070000001
 30
0.0
 11
1317.1138109999999
 21
3048.0715070000001
 31
0.0
  0
CIRCLE
  5
7A9A
  8
1
  6
CONTINUOUS
 10
1542.1138109999999
 20
3228.0715070000001
 30
0.0
 40
120.0
  0
LINE
  5
7A9B
  8
2
  6
CENTER
 10
1542.1138109999999
 20
3108.0715070000001
 30
0.0
 11
1542.1138109999999
 21
3348.0715070000001
 31
0.0
  0
LINE
  5
7A9C
  8
1
  6
CONTINUOUS
 10
1704.1138109999999
 20
3090.5715070000001
 30
0.0
 11
1694.8138109999991
 21
3100.4715070000002
 31
0.0
  0
LINE
  5
7A9D
  8
1
  6
CONTINUOUS
 10
1704.1138109999999
 20
3048.0715070000001
 30
0.0
 11
1704.1138109999999
 21
3090.5715070000001
 31
0.0
  0
LINE
  5
7A9E
  8
2
  6
CENTER
 10
1422.1138109999999
 20
3228.0715070000001
 30
0.0
 11
1662.1138109999999
 21
3228.0715070000001
 31
0.0
  0
LINE
  5
7A9F
  8
1
  6
CONTINUOUS
 10
1767.1138109999999
 20
2993.0715070000001
 30
0.0
 11
1767.1138109999999
 21
3048.0715070000001
 31
0.0
  0
CIRCLE
  5
7AA0
  8
1
  6
CONTINUOUS
 10
2917.1138110000002
 20
4393.0715069999997
 30
0.0
 40
278.0
  0
LINE
  5
7AA1
  8
2
  6
CENTER
 10
2917.1138110000002
 20
8677.5333180000016
 30
0.0
 11
2917.1138110000002
 21
6939.6863299999986
 31
0.0
  0
LINE
  5
7AA2
  8
2
  6
CENTER
 10
1571.2715069999999
 20
4393.0715069999997
 30
0.0
 11
3890.917461
 21
4393.0715069999997
 31
0.0
  0
LINE
  5
7AA6
  8
1
  6
CONTINUOUS
 10
3742.1138110000002
 20
4389.0715069999987
 30
0.0
 11
3742.1138110000002
 21
3003.0715070000001
 31
0.0
  0
LINE
  5
7AA7
  8
1
  6
CONTINUOUS
 10
3692.1138110000002
 20
4339.0715069999987
 30
0.0
 11
3692.1138110000002
 21
3059.0715070000001
 31
0.0
  0
LINE
  5
7AA8
  8
1
  6
CONTINUOUS
 10
3667.1138110000002
 20
2728.0715070000001
 30
0.0
 11
3667.1138110000002
 21
2653.0715070000001
 31
0.0
  0
LINE
  5
7AA9
  8
1
  6
CONTINUOUS
 10
3667.1138110000002
 20
2993.0715070000001
 30
0.0
 11
3667.1138110000002
 21
2843.0715070000001
 31
0.0
  0
LINE
  5
7AAA
  8
1
  6
CONTINUOUS
 10
3650.1138110000002
 20
4339.0715069999987
 30
0.0
 11
3742.1138110000002
 21
4339.0715069999987
 31
0.0
  0
LINE
  5
7AAB
  8
1
  6
CONTINUOUS
 10
5811.2071239999996
 20
3059.0715070000001
 30
0.0
 11
5811.2071239999996
 21
5222.0715069999987
 31
0.0
  0
LINE
  5
7AAC
  8
1
  6
CONTINUOUS
 10
5446.2071239999996
 20
3128.0715070000001
 30
0.0
 11
5446.2071239999996
 21
4771.0715069999997
 31
0.0
  0
LINE
  5
7AAD
  8
1
  6
CONTINUOUS
 10
5686.2071239999996
 20
3128.0715070000001
 30
0.0
 11
5686.2071239999996
 21
4771.0715069999997
 31
0.0
  0
LINE
  5
7AAE
  8
1
  6
CONTINUOUS
 10
5516.2071240000014
 20
4115.0715069999987
 30
0.0
 11
5516.2071240000014
 21
4671.0715069999987
 31
0.0
  0
LINE
  5
7AAF
  8
1
  6
CONTINUOUS
 10
5616.2071239999996
 20
4115.0715069999987
 30
0.0
 11
5616.2071239999996
 21
4671.0715069999987
 31
0.0
  0
LINE
  5
7AB0
  8
1
  6
CONTINUOUS
 10
5616.2071239999996
 20
3228.0715070000001
 30
0.0
 11
5616.2071239999996
 21
3468.0715070000001
 31
0.0
  0
LINE
  5
7AB1
  8
1
  6
CONTINUOUS
 10
5516.2071240000014
 20
3228.0715070000001
 30
0.0
 11
5516.2071240000014
 21
3468.0715070000001
 31
0.0
  0
LINE
  5
7AB2
  8
1
  6
CONTINUOUS
 10
6839.2071239999987
 20
2993.0715070000001
 30
0.0
 11
5559.2071239999996
 21
2993.0715070000001
 31
0.0
  0
LINE
  5
7AB3
  8
1
  6
CONTINUOUS
 10
5516.2071240000014
 20
3228.0715070000001
 30
0.0
 11
5616.2071239999996
 21
3228.0715070000001
 31
0.0
  0
LINE
  5
7AB4
  8
1
  6
CONTINUOUS
 10
5446.2071239999996
 20
3128.0715070000001
 30
0.0
 11
5686.2071239999996
 21
3128.0715070000001
 31
0.0
  0
LINE
  5
7AB5
  8
1
  6
CONTINUOUS
 10
5559.2071239999996
 20
2653.0715070000001
 30
0.0
 11
5559.2071239999996
 21
2728.0715070000001
 31
0.0
  0
LINE
  5
7AB6
  8
1
  6
CONTINUOUS
 10
5559.2071239999996
 20
2843.0715070000001
 30
0.0
 11
5559.2071239999996
 21
2993.0715070000001
 31
0.0
  0
LINE
  5
7AB7
  8
1
  6
CONTINUOUS
 10
5616.2071239999996
 20
3320.5715070000001
 30
0.0
 11
5811.2071239999996
 21
3320.5715070000001
 31
0.0
  0
LINE
  5
7AB8
  8
1
  6
CONTINUOUS
 10
5516.2071240000014
 20
3468.0715070000001
 30
0.0
 11
5616.2071239999996
 21
3468.0715070000001
 31
0.0
  0
LINE
  5
7AB9
  8
1
  6
CONTINUOUS
 10
5516.2071240000014
 20
4115.0715069999987
 30
0.0
 11
5616.2071239999996
 21
4115.0715069999987
 31
0.0
  0
LINE
  5
7ABA
  8
1
  6
CONTINUOUS
 10
5616.2071239999996
 20
3375.5715070000001
 30
0.0
 11
5811.2071239999996
 21
3375.5715070000001
 31
0.0
  0
LINE
  5
7ABB
  8
1
  6
CONTINUOUS
 10
5516.2071240000014
 20
4671.0715069999987
 30
0.0
 11
5616.2071239999996
 21
4671.0715069999987
 31
0.0
  0
LINE
  5
7ABC
  8
1
  6
CONTINUOUS
 10
5446.2071239999996
 20
4771.0715069999997
 30
0.0
 11
5686.2071239999996
 21
4771.0715069999997
 31
0.0
  0
LINE
  5
7ABD
  8
1
  6
CONTINUOUS
 10
5616.2071239999996
 20
4420.5715069999997
 30
0.0
 11
5811.2071239999996
 21
4420.5715069999997
 31
0.0
  0
LINE
  5
7ABE
  8
1
  6
CONTINUOUS
 10
5616.2071239999996
 20
4365.5715069999997
 30
0.0
 11
5811.2071239999996
 21
4365.5715069999997
 31
0.0
  0
LINE
  5
7ABF
  8
1
  6
CONTINUOUS
 10
3195.1138110000002
 20
7192.2626870000004
 30
0.0
 11
3667.1138110000002
 21
7192.2626870000004
 31
0.0
  0
LINE
  5
7AC0
  8
1
  6
CONTINUOUS
 10
3742.1138110000002
 20
8394.2626870000004
 30
0.0
 11
1834.613810999999
 21
8394.2626870000004
 31
0.0
  0
LINE
  5
7AC1
  8
1
  6
CONTINUOUS
 10
3742.1138110000002
 20
7444.2626870000013
 30
0.0
 11
1834.613810999999
 21
7444.2626870000013
 31
0.0
  0
LINE
  5
7AC2
  8
1
  6
CONTINUOUS
 10
3592.1138110000002
 20
8497.2626870000004
 30
0.0
 11
2242.1138109999988
 21
8497.2626870000004
 31
0.0
  0
LINE
  5
7AC3
  8
1
  6
CONTINUOUS
 10
3295.1138109999988
 20
7079.2626870000004
 30
0.0
 11
1222.1138109999999
 21
7079.2626870000004
 31
0.0
  0
LINE
  5
7AC4
  8
1
  6
CONTINUOUS
 10
3295.1138109999988
 20
7319.2626870000013
 30
0.0
 11
1222.1138109999999
 21
7319.2626870000013
 31
0.0
  0
LINE
  5
7AC5
  8
1
  6
CONTINUOUS
 10
2292.1138109999988
 20
8472.2626870000004
 30
0.0
 11
1117.1138109999999
 21
8472.2626870000004
 31
0.0
  0
LINE
  5
7AC6
  8
1
  6
CONTINUOUS
 10
1662.1138109999999
 20
7192.2626870000004
 30
0.0
 11
2639.1138109999988
 21
7192.2626870000004
 31
0.0
  0
LINE
  5
7AC7
  8
1
  6
CONTINUOUS
 10
1117.1138109999999
 20
8472.2626870000004
 30
0.0
 11
1117.1138109999999
 21
7192.2626870000004
 31
0.0
  0
LINE
  5
7AC8
  8
1
  6
CONTINUOUS
 10
1834.613810999999
 20
7444.2626870000013
 30
0.0
 11
1834.613810999999
 21
8394.2626870000004
 31
0.0
  0
LINE
  5
7AC9
  8
1
  6
CONTINUOUS
 10
1343.013811
 20
7963.2626870000013
 30
0.0
 11
1741.2138109999989
 21
7963.2626870000013
 31
0.0
  0
LINE
  5
7ACA
  8
1
  6
CONTINUOUS
 10
1343.013811
 20
7363.7626870000013
 30
0.0
 11
1741.2138109999989
 21
7363.7626870000013
 31
0.0
  0
LINE
  5
7ACB
  8
1
  6
CONTINUOUS
 10
1117.1138109999999
 20
7192.2626870000004
 30
0.0
 11
1422.1138109999999
 21
7192.2626870000004
 31
0.0
  0
LINE
  5
7ACC
  8
1
  6
CONTINUOUS
 10
1222.1138109999999
 20
7079.2626870000004
 30
0.0
 11
1222.1138109999999
 21
7319.2626870000013
 31
0.0
  0
LINE
  5
7ACD
  8
1
  6
CONTINUOUS
 10
1343.013811
 20
7363.7626870000013
 30
0.0
 11
1343.013811
 21
7963.2626870000013
 31
0.0
  0
LINE
  5
7ACE
  8
1
  6
CONTINUOUS
 10
1569.613810999999
 20
7249.2626870000013
 30
0.0
 11
1569.613810999999
 21
7363.7626870000013
 31
0.0
  0
LINE
  5
7ACF
  8
1
  6
CONTINUOUS
 10
1514.6138109999999
 20
7249.2626870000013
 30
0.0
 11
1514.6138109999999
 21
7363.7626870000013
 31
0.0
  0
LINE
  5
7AD0
  8
1
  6
CONTINUOUS
 10
1422.1138109999999
 20
7149.2626870000013
 30
0.0
 11
1422.1138109999999
 21
7249.2626870000013
 31
0.0
  0
LINE
  5
7AD1
  8
1
  6
CONTINUOUS
 10
1662.1138109999999
 20
7149.2626870000013
 30
0.0
 11
1662.1138109999999
 21
7249.2626870000013
 31
0.0
  0
LINE
  5
7AD2
  8
1
  6
CONTINUOUS
 10
1422.1138109999999
 20
7249.2626870000013
 30
0.0
 11
1662.1138109999999
 21
7249.2626870000013
 31
0.0
  0
LINE
  5
7AD3
  8
1
  6
CONTINUOUS
 10
1422.1138109999999
 20
7149.2626870000013
 30
0.0
 11
1662.1138109999999
 21
7149.2626870000013
 31
0.0
  0
LINE
  5
7AD4
  8
1
  6
CONTINUOUS
 10
1741.2138109999989
 20
7363.7626870000013
 30
0.0
 11
1741.2138109999989
 21
7963.2626870000013
 31
0.0
  0
LINE
  5
7AD5
  8
1
  6
CONTINUOUS
 10
2889.6138110000002
 20
7249.2626870000013
 30
0.0
 11
2889.6138110000002
 21
7444.2626870000013
 31
0.0
  0
LINE
  5
7AD6
  8
1
  6
CONTINUOUS
 10
2944.6138109999988
 20
7249.2626870000013
 30
0.0
 11
2944.6138109999988
 21
7444.2626870000013
 31
0.0
  0
LINE
  5
7AD7
  8
1
  6
CONTINUOUS
 10
2639.1138109999988
 20
7249.2626870000013
 30
0.0
 11
3195.1138110000002
 21
7249.2626870000013
 31
0.0
  0
LINE
  5
7AD8
  8
1
  6
CONTINUOUS
 10
2639.1138109999988
 20
7149.2626870000013
 30
0.0
 11
3195.1138110000002
 21
7149.2626870000013
 31
0.0
  0
LINE
  5
7AD9
  8
1
  6
CONTINUOUS
 10
2639.1138109999988
 20
7149.2626870000013
 30
0.0
 11
2639.1138109999988
 21
7249.2626870000013
 31
0.0
  0
LINE
  5
7ADA
  8
1
  6
CONTINUOUS
 10
3195.1138110000002
 20
7149.2626870000013
 30
0.0
 11
3195.1138110000002
 21
7249.2626870000013
 31
0.0
  0
LINE
  5
7ADB
  8
1
  6
CONTINUOUS
 10
2292.1138109999988
 20
8394.2626870000004
 30
0.0
 11
2292.1138109999988
 21
8497.2626870000004
 31
0.0
  0
LINE
  5
7ADC
  8
1
  6
CONTINUOUS
 10
3692.1138110000002
 20
7444.2626870000013
 30
0.0
 11
3692.1138110000002
 21
8394.2626870000004
 31
0.0
  0
LINE
  5
7ADD
  8
1
  6
CONTINUOUS
 10
3742.1138110000002
 20
7394.2626870000013
 30
0.0
 11
3742.1138110000002
 21
8444.2626870000004
 31
0.0
  0
LINE
  5
7ADE
  8
1
  6
CONTINUOUS
 10
3667.1138110000002
 20
7192.2626870000004
 30
0.0
 11
3667.1138110000002
 21
7444.2626870000013
 31
0.0
  0
LINE
  5
7ADF
  8
1
  6
CONTINUOUS
 10
3295.1138109999988
 20
7079.2626870000004
 30
0.0
 11
3295.1138109999988
 21
7319.2626870000013
 31
0.0
  0
LINE
  5
7AE0
  8
1
  6
CONTINUOUS
 10
3667.1138110000002
 20
8394.2626870000004
 30
0.0
 11
3667.1138110000002
 21
8472.2626870000004
 31
0.0
  0
LINE
  5
7AE1
  8
1
  6
CONTINUOUS
 10
3667.1138110000002
 20
8472.2626870000004
 30
0.0
 11
3542.1138110000002
 21
8472.2626870000004
 31
0.0
  0
LINE
  5
7AE2
  8
1
  6
CONTINUOUS
 10
3542.1138110000002
 20
8394.2626870000004
 30
0.0
 11
3542.1138110000002
 21
8497.2626870000004
 31
0.0
  0
LINE
  5
7AE3
  8
1
  6
CONTINUOUS
 10
6761.2071239999987
 20
3059.0715070000001
 30
0.0
 11
6761.2071239999987
 21
5222.0715069999987
 31
0.0
  0
LINE
  5
7AE4
  8
1
  6
CONTINUOUS
 10
6864.2071239999987
 20
3718.0715070000001
 30
0.0
 11
6864.2071239999987
 21
5068.0715069999987
 31
0.0
  0
LINE
  5
7AE5
  8
1
  6
CONTINUOUS
 10
6839.2071239999987
 20
2993.0715070000001
 30
0.0
 11
6761.2071239999987
 21
2993.0715070000001
 31
0.0
  0
LINE
  5
7AE6
  8
1
  6
CONTINUOUS
 10
6839.2071239999987
 20
2653.0715070000001
 30
0.0
 11
6839.2071239999987
 21
2728.0715070000001
 31
0.0
  0
LINE
  5
7AE7
  8
1
  6
CONTINUOUS
 10
6839.2071239999987
 20
2843.0715070000001
 30
0.0
 11
6839.2071239999987
 21
2993.0715070000001
 31
0.0
  0
LINE
  5
7AE8
  8
1
  6
CONTINUOUS
 10
6761.2071239999987
 20
3768.0715070000001
 30
0.0
 11
6864.2071239999987
 21
3768.0715070000001
 31
0.0
  0
LINE
  5
7AE9
  8
1
  6
CONTINUOUS
 10
6761.2071239999987
 20
5018.0715069999997
 30
0.0
 11
6864.2071239999987
 21
5018.0715069999997
 31
0.0
  0
LINE
  5
7AEA
  8
2
  6
CENTER
 10
6286.2071239999996
 20
5422.5283499999996
 30
0.0
 11
6286.2071239999996
 21
2489.5389359999999
 31
0.0
  0
LINE
  5
7AEB
  8
2
  6
CENTER
 10
1009.724449999999
 20
7919.2626870000013
 30
0.0
 11
3813.618449999999
 21
7919.2626870000013
 31
0.0
  0
LINE
  5
7AEC
  8
2
  6
CENTER
 10
2917.1138110000002
 20
5499.8619869999993
 30
0.0
 11
2917.1138110000002
 21
2512.2593259999999
 31
0.0
  0
LINE
  5
7AED
  8
2
  6
CENTER
 10
5293.8000069999998
 20
4393.0715069999997
 30
0.0
 11
6924.7854040000011
 21
4393.0715069999997
 31
0.0
  0
LINE
  5
7AEE
  8
4
  6
CONTINUOUS
 10
7400.0
 20
2000.0
 30
0.0
 11
7400.0
 21
1200.0
 31
0.0
  0
LINE
  5
7AEF
  8
4
  6
CONTINUOUS
 10
4600.0
 20
2000.0
 30
0.0
 11
4600.0
 21
1200.0
 31
0.0
  0
LINE
  5
7AF0
  8
4
  6
CONTINUOUS
 10
2600.0
 20
2000.0
 30
0.0
 11
2600.0
 21
1200.0
 31
0.0
  0
LINE
  5
7AF3
  8
4
  6
CONTINUOUS
 10
2600.0
 20
1200.0
 30
0.0
 11
7400.0
 21
1200.0
 31
0.0
  0
LINE
  5
7AF4
  8
4
  6
CONTINUOUS
 10
2600.0
 20
1600.0
 30
0.0
 11
7400.0
 21
1600.0
 31
0.0
  0
TEXT
  5
7AF5
  8
4
  6
CONTINUOUS
 10
2754.008323
 20
1726.1721030000001
 30
0.0
 40
200.0
  1
機器名称
  0
TEXT
  5
7AF6
  8
4
  6
CONTINUOUS
 10
2745.032424
 20
1286.580627
 30
0.0
 40
200.0
  1
機器型番
  0
TEXT
  5
7AF7
  8
4
  6
CONTINUOUS
 10
4710.7149820000004
 20
1690.2870760000001
 30
0.0
 40
200.0
  1
ミツヤ多翼送風機
  0
TEXT
  5
7AF8
  8
4
  6
CONTINUOUS
 10
4746.6179819999998
 20
1268.6383370000001
 30
0.0
 40
200.0
  1
MF#8-4
  0
TEXT
  5
7AFA
  8
4
  6
CONTINUOUS
 10
3081.298315
 20
9533.715365
 30
0.0
 40
216.0
  1
床置防振ベット
  0
TEXT
  5
7AFB
  8
4
  6
CONTINUOUS
 10
1264.6703729999999
 20
10135.523905
 30
0.0
 40
288.0
  1
ベルト駆動式片吸込両持多翼ファン
  0
LINE
  5
7AFC
  8
4
  6
CONTINUOUS
 10
1000.0
 20
9877.6350170000005
 30
0.0
 11
7400.0
 21
9877.6350170000005
 31
0.0
  0
LINE
  5
7AFD
  8
4
  6
CONTINUOUS
 10
1000.0
 20
10677.635017000001
 30
0.0
 11
7400.0
 21
10677.635017000001
 31
0.0
  0
LINE
  5
7AFE
  8
4
  6
CONTINUOUS
 10
2600.0
 20
2000.0
 30
0.0
 11
7400.0
 21
2000.0
 31
0.0
  0
LINE
  5
7AFF
  8
4
  6
CONTINUOUS
 10
1000.0
 20
10677.635017000001
 30
0.0
 11
1000.0
 21
9877.6350170000005
 31
0.0
  0
TEXT
  5
7B00
  8
4
  6
CONTINUOUS
 10
1337.862985999999
 20
9529.2779099999989
 30
0.0
 40
216.0
  1
左回転右横向
  0
TEXT
  5
7B01
  8
4
  6
CONTINUOUS
 10
5875.8782369999999
 20
10824.244326
 30
0.0
 40
224.0
  1
No.
  0
TEXT
  5
7B02
  8
4
  6
CONTINUOUS
 10
5245.1842500000012
 20
9533.715365
 30
0.0
 40
216.0
  1
縮尺：1/40
  0
LINE
  5
7B03
  8
4
  6
CONTINUOUS
 10
7400.0
 20
10677.635017000001
 30
0.0
 11
7400.0
 21
9877.6350170000005
 31
0.0
  0
LINE
  5
7B05
  8
4
  6
CONTINUOUS
 10
5762.4696889999996
 20
10725.054333
 30
0.0
 11
5762.4696889999996
 21
11146.609046
 31
0.0
  0
LINE
  5
7B06
  8
4
  6
CONTINUOUS
 10
5762.4696889999996
 20
11146.609046
 30
0.0
 11
7400.0
 21
11146.609046
 31
0.0
  0
LINE
  5
7B07
  8
4
  6
CONTINUOUS
 10
7400.0
 20
11146.609046
 30
0.0
 11
7400.0
 21
10725.054333
 31
0.0
  0
LINE
  5
7B08
  8
4
  6
CONTINUOUS
 10
7400.0
 20
10725.054333
 30
0.0
 11
5762.4696889999996
 21
10725.054333
 31
0.0
  0
DIMENSION
  5
7B20
  8
3
  6
CONTINUOUS
  2
*D1
 10
4027.9244159999998
 20
3059.0715070000001
 30
0.0
 11
4027.9244159999998
 21
3636.8145679999998
 31
0.0
 70
   128
 13
3742.1138110000002
 23
4339.0715069999987
 33
0.0
 14
3742.1138110000002
 24
3059.0715070000001
 34
0.0
 50
90.0
1001
ACAD
1000
DSTYLE
1002
{
1070
   287
1070
     3
1070
   287
1070
     3
1070
    40
1040
40.0
1070
   143
1040
0.039
1070
   172
1070
     1
1070
   271
1070
     0
1070
   279
1070
     0
1070
   288
1070
     1
1002
}
  0
DIMENSION
  5
7B2D
  8
3
  6
CONTINUOUS
  2
*D2
 10
4292.3547079999998
 20
3059.0715070000001
 30
0.0
 11
4292.3547079999998
 21
3644.5872689999992
 31
0.0
 70
   128
 13
3890.917461
 23
4393.0715069999997
 33
0.0
 14
3742.1138110000002
 24
3059.0715070000001
 34
0.0
 50
90.0
1001
ACAD
1000
DSTYLE
1002
{
1070
   287
1070
     3
1070
   287
1070
     3
1070
    40
1040
40.0
1070
   143
1040
0.039
1070
   172
1070
     1
1070
   271
1070
     0
1070
   279
1070
     0
1070
   288
1070
     1
1002
}
  0
DIMENSION
  5
7B3B
  8
3
  6
CONTINUOUS
  2
*D3
 10
4580.0208070000008
 20
4393.0715069999997
 30
0.0
 11
4580.020806999999
 21
4785.4106950000014
 31
0.0
 70
   128
 13
2890.266310999999
 23
5290.3271649999997
 33
0.0
 14
3890.917461
 24
4393.0715069999997
 34
0.0
 50
90.0
1001
ACAD
1000
DSTYLE
1002
{
1070
   287
1070
     3
1070
   287
1070
     3
1070
    40
1040
40.0
1070
   143
1040
0.039
1070
   172
1070
     1
1070
   271
1070
     0
1070
   279
1070
     0
1070
   288
1070
     1
1002
}
  0
DIMENSION
  5
7B47
  8
3
  6
CONTINUOUS
  2
*D4
 10
4580.020806999999
 20
2843.0715070000001
 30
0.0
 11
4480.0208069999981
 21
3618.0715070000001
 31
0.0
 70
     0
 13
3890.917461
 23
4393.0715069999997
 33
0.0
 14
3667.1138110000002
 24
2843.0715070000001
 34
0.0
 50
90.0
1001
ACAD
1000
DSTYLE
1002
{
1070
   287
1070
     4
1070
   287
1070
     4
1070
    40
1040
40.0
1070
    75
1070
     1
1070
   143
1040
0.039
1070
   172
1070
     1
1070
   271
1070
     0
1070
   279
1070
     1
1070
   288
1070
     1
1002
}
  0
DIMENSION
  5
7B71
  8
3
  6
CONTINUOUS
  2
*D5
 10
2917.1138110000002
 20
2350.3629769999998
 30
0.0
 11
2106.581858
 21
2350.3629769999998
 31
0.0
 70
   128
 13
1117.1138109999999
 23
2653.0715070000001
 33
0.0
 14
2917.1138110000002
 24
2512.2593259999999
 34
0.0
1001
ACAD
1000
DSTYLE
1002
{
1070
   287
1070
     3
1070
   287
1070
     3
1070
    40
1040
40.0
1070
   143
1040
0.039
1070
   172
1070
     1
1070
   271
1070
     0
1070
   279
1070
     0
1070
   288
1070
     1
1002
}
  0
DIMENSION
  5
7B7D
  8
3
  6
CONTINUOUS
  2
*D6
 10
3667.1138110000002
 20
2350.3629769999998
 30
0.0
 11
3292.1138110000002
 21
2450.3629769999998
 31
0.0
 70
     0
 13
2917.1138110000002
 23
2512.2593259999999
 33
0.0
 14
3667.1138110000002
 24
2653.0715070000001
 34
0.0
1001
ACAD
1000
DSTYLE
1002
{
1070
   287
1070
     4
1070
   287
1070
     4
1070
    40
1040
40.0
1070
    75
1070
     1
1070
   143
1040
0.039
1070
   172
1070
     1
1070
   271
1070
     0
1070
   279
1070
     1
1070
   288
1070
     1
1002
}
  0
DIMENSION
  5
7B8A
  8
3
  6
CONTINUOUS
  2
*D7
 10
2917.1138110000002
 20
5576.7622540000011
 30
0.0
 11
3347.382924
 21
5576.7622540000011
 31
0.0
 70
   128
 13
3742.1138110000002
 23
4389.0715069999987
 33
0.0
 14
2917.1138110000002
 24
5499.8619869999993
 34
0.0
1001
ACAD
1000
DSTYLE
1002
{
1070
   287
1070
     3
1070
   287
1070
     3
1070
    40
1040
40.0
1070
   143
1040
0.039
1070
   172
1070
     1
1070
   271
1070
     0
1070
   279
1070
     0
1070
   288
1070
     1
1002
}
  0
DIMENSION
  5
7BA3
  8
3
  6
CONTINUOUS
  2
*D8
 10
6761.2071239999987
 20
5413.596974
 30
0.0
 11
6288.0585629999996
 21
5413.596974
 31
0.0
 70
   128
 13
5811.2071239999996
 23
5222.0715069999987
 33
0.0
 14
6761.2071239999987
 24
5222.0715069999987
 34
0.0
1001
ACAD
1000
DSTYLE
1002
{
1070
   287
1070
     3
1070
   287
1070
     3
1070
    40
1040
40.0
1070
   143
1040
0.039
1070
   172
1070
     1
1070
   271
1070
     0
1070
   279
1070
     0
1070
   288
1070
     1
1002
}
  0
DIMENSION
  5
7BB0
  8
3
  6
CONTINUOUS
  2
*D9
 10
7169.6803520000003
 20
3768.0715070000001
 30
0.0
 11
7169.6803519999994
 21
4393.8140389999999
 31
0.0
 70
   128
 13
6864.2071239999987
 23
5018.0715069999997
 33
0.0
 14
6864.2071239999987
 24
3768.0715070000001
 34
0.0
 50
90.0
1001
ACAD
1000
DSTYLE
1002
{
1070
   287
1070
     3
1070
   287
1070
     3
1070
     3
1000
φ<>
1070
    40
1040
40.0
1070
   143
1040
0.039
1070
   172
1070
     1
1070
   271
1070
     0
1070
   279
1070
     0
1070
   288
1070
     1
1002
}
  0
DIMENSION
  5
7BBD
  8
3
  6
CONTINUOUS
  2
*D10
 10
6286.2071239999996
 20
5682.8196829999988
 30
0.0
 11
6589.9214089999996
 21
5682.8196829999988
 31
0.0
 70
   128
 13
6864.2071239999987
 23
5068.0715069999987
 33
0.0
 14
6286.2071239999996
 24
5605.423323
 34
0.0
1001
ACAD
1000
DSTYLE
1002
{
1070
   287
1070
     3
1070
   287
1070
     3
1070
    40
1040
40.0
1070
   143
1040
0.039
1070
   172
1070
     1
1070
   271
1070
     0
1070
   279
1070
     0
1070
   288
1070
     1
1002
}
  0
DIMENSION
  5
7BC9
  8
3
  6
CONTINUOUS
  2
*D11
 10
5446.2071239999996
 20
5682.8196829999988
 30
0.0
 11
5866.2071239999996
 21
5882.8196829999997
 31
0.0
 70
     0
  1
MAX\P890
 13
6286.2071239999996
 23
5605.423323
 33
0.0
 14
5446.2071239999996
 24
4771.0715069999997
 34
0.0
1001
ACAD
1000
DSTYLE
1002
{
1070
   287
1070
     4
1070
   287
1070
     4
1070
    40
1040
40.0
1070
    75
1070
     1
1070
   143
1040
0.039
1070
   172
1070
     1
1070
   271
1070
     0
1070
   279
1070
     1
1070
   288
1070
     1
1002
}
  0
DIMENSION
  5
7BD6
  8
3
  6
CONTINUOUS
  2
*D12
 10
6286.2071239999996
 20
2382.9960379999989
 30
0.0
 11
5928.8792860000003
 21
2382.9960379999989
 31
0.0
 70
   128
 13
5559.2071239999996
 23
2653.0715070000001
 33
0.0
 14
6286.2071239999996
 24
2489.5389359999999
 34
0.0
1001
ACAD
1000
DSTYLE
1002
{
1070
   287
1070
     3
1070
   287
1070
     3
1070
    40
1040
40.0
1070
   143
1040
0.039
1070
   172
1070
     1
1070
   271
1070
     0
1070
   279
1070
     0
1070
   288
1070
     1
1002
}
  0
DIMENSION
  5
7BE2
  8
3
  6
CONTINUOUS
  2
*D13
 10
6839.2071239999987
 20
2382.9960379999989
 30
0.0
 11
6562.7071240000014
 21
2482.9960380000002
 31
0.0
 70
     0
 13
6286.2071239999996
 23
2489.5389359999999
 33
0.0
 14
6839.2071239999987
 24
2653.0715070000001
 34
0.0
1001
ACAD
1000
DSTYLE
1002
{
1070
   287
1070
     4
1070
   287
1070
     4
1070
    40
1040
40.0
1070
    75
1070
     1
1070
   143
1040
0.039
1070
   172
1070
     1
1070
   271
1070
     0
1070
   279
1070
     1
1070
   288
1070
     1
1002
}
  0
DIMENSION
  5
7C04
  8
3
  6
CONTINUOUS
  2
*D14
 10
3667.1138110000002
 20
6795.2843039999998
 30
0.0
 11
2364.0515989999999
 21
6795.2843039999998
 31
0.0
 70
   128
 13
1117.1138109999999
 23
7192.2626870000004
 33
0.0
 14
3667.1138110000002
 24
7192.2626870000004
 34
0.0
1001
ACAD
1000
DSTYLE
1002
{
1070
   287
1070
     3
1070
   287
1070
     3
1070
    40
1040
40.0
1070
   143
1040
0.039
1070
   172
1070
     1
1070
   271
1070
     0
1070
   279
1070
     0
1070
   288
1070
     1
1002
}
  0
DIMENSION
  5
7C11
  8
3
  6
CONTINUOUS
  2
*D15
 10
4047.1597810000021
 20
7192.2626870000004
 30
0.0
 11
4047.1597809999998
 21
7777.1785969999992
 31
0.0
 70
   128
 13
3667.1138110000002
 23
8472.2626870000004
 33
0.0
 14
3667.1138110000002
 24
7192.2626870000004
 34
0.0
 50
90.0
1001
ACAD
1000
DSTYLE
1002
{
1070
   287
1070
     3
1070
   287
1070
     3
1070
    40
1040
40.0
1070
   143
1040
0.039
1070
   172
1070
     1
1070
   271
1070
     0
1070
   279
1070
     0
1070
   288
1070
     1
1002
}
  0
DIMENSION
  5
7C4D
  8
3
  6
CONTINUOUS
  2
*D16
 10
1838.113810999999
 20
5576.7622540000011
 30
0.0
 11
2377.6138109999988
 21
5676.7622540000002
 31
0.0
 70
     0
 13
2917.1138110000002
 23
5499.8619869999993
 33
0.0
 14
1838.113810999999
 24
4393.0715069999997
 34
0.0
1001
ACAD
1000
DSTYLE
1002
{
1070
   287
1070
     4
1070
   287
1070
     4
1070
    40
1040
40.0
1070
    75
1070
     1
1070
   143
1040
0.039
1070
   172
1070
     1
1070
   271
1070
     0
1070
   279
1070
     1
1070
   288
1070
     1
1002
}
  0
DIMENSION
  5
7CC0
  8
3
  2
*D17
 10
1117.1138109999999
 20
5832.0861037181094
 30
0.0
 11
2475.1695303623051
 21
5832.0861037181094
 31
0.0
 70
   128
 13
3742.1138110000002
 23
4389.0715069999987
 33
0.0
 14
1117.113810999999
 24
2993.0715070000001
 34
0.0
1001
ACAD
1000
DSTYLE
1002
{
1070
   287
1070
     3
1070
   287
1070
     3
1070
    40
1040
40.0
1070
   143
1040
0.039
1070
   172
1070
     1
1070
   271
1070
     0
1070
   279
1070
     0
1070
   288
1070
     1
1002
}
  0
DIMENSION
  5
7DE6
  8
3
  2
*D18
 10
4580.020806999999
 20
2728.0715070000001
 30
0.0
 11
4822.8779498571421
 21
2937.8572212857139
 31
0.0
 70
     0
  1
(<>)
 13
3667.1138110000002
 23
2843.0715070000001
 33
0.0
 14
3667.1138110000002
 24
2728.0715070000001
 34
0.0
 50
90.0
1001
ACAD
1000
DSTYLE
1002
{
1070
   287
1070
     4
1070
   287
1070
     4
1070
     7
1000
NONE
1070
     6
1000
NONE
1070
    40
1040
40.0
1070
   143
1040
0.039
1070
   172
1070
     1
1070
   271
1070
     0
1070
   279
1070
     1
1070
   288
1070
     1
1002
}
  0
DIMENSION
  5
7DF8
  8
3
  2
*D19
 10
4580.020806999999
 20
2653.0715070000001
 30
0.0
 11
4588.3189433919761
 21
2427.1040591092378
 31
0.0
 70
   128
 13
3667.1138110000002
 23
2728.0715070000001
 33
0.0
 14
3667.1138110000002
 24
2653.0715070000001
 34
0.0
 50
90.0
1001
ACAD
1000
DSTYLE
1002
{
1070
   287
1070
     4
1070
   287
1070
     4
1070
     6
1000
DOTSMALL
1070
    40
1040
40.0
1070
   143
1040
0.039
1070
   172
1070
     1
1070
   271
1070
     0
1070
   279
1070
     1
1070
   288
1070
     1
1002
}
  0
ENDSEC
  0
EOF
