  0
SECTION
  2
HEADER
  9
$ACADVER
  1
AC1009
  9
$INSBASE
 10
0.0
 20
0.0
 30
0.0
  9
$EXTMIN
 10
1000.0
 20
1200.0
 30
0.0
  9
$EXTMAX
 10
7400.0
 20
11146.609046
 30
0.0
  9
$LIMMIN
 10
0.0
 20
0.0
  9
$LIMMAX
 10
297.0
 20
210.0
  9
$ORTHOMODE
 70
     0
  9
$REGENMODE
 70
     1
  9
$FILLMODE
 70
     0
  9
$QTEXTMODE
 70
     0
  9
$MIRRTEXT
 70
     1
  9
$DRAGMODE
 70
     2
  9
$LTSCALE
 40
100.0
  9
$OSMODE
 70
   545
  9
$ATTMODE
 70
     1
  9
$TEXTSIZE
 40
180.0
  9
$TRACEWID
 40
0.05
  9
$TEXTSTYLE
  7
STANDARD
  9
$CLAYER
  8
3
  9
$CELTYPE
  6
BYLAYER
  9
$CECOLOR
 62
   256
  9
$DIMSCALE
 40
40.0
  9
$DIMASZ
 40
2.0
  9
$DIMEXO
 40
0.5
  9
$DIMDLI
 40
10.0
  9
$DIMRND
 40
0.0
  9
$DIMDLE
 40
0.0
  9
$DIMEXE
 40
1.0
  9
$DIMTP
 40
1.0
  9
$DIMTM
 40
1.0
  9
$DIMTXT
 40
3.0
  9
$DIMCEN
 40
0.0
  9
$DIMTSZ
 40
0.0
  9
$DIMTOL
 70
     0
  9
$DIMLIM
 70
     0
  9
$DIMTIH
 70
     0
  9
$DIMTOH
 70
     0
  9
$DIMSE1
 70
     0
  9
$DIMSE2
 70
     0
  9
$DIMTAD
 70
     1
  9
$DIMZIN
 70
     8
  9
$DIMBLK
  1

  9
$DIMASO
 70
     1
  9
$DIMSHO
 70
     1
  9
$DIMPOST
  1

  9
$DIMAPOST
  1

  9
$DIMALT
 70
     0
  9
$DIMALTD
 70
     2
  9
$DIMALTF
 40
0.039
  9
$DIMLFAC
 40
1.0
  9
$DIMTOFL
 70
     1
  9
$DIMTVP
 40
0.0
  9
$DIMTIX
 70
     0
  9
$DIMSOXD
 70
     0
  9
$DIMSAH
 70
     1
  9
$DIMBLK1
  1
OPEN
  9
$DIMBLK2
  1
OPEN
  9
$DIMSTYLE
  2
IGA
  9
$DIMCLRD
 70
     0
  9
$DIMCLRE
 70
     0
  9
$DIMCLRT
 70
     0
  9
$DIMTFAC
 40
10.0
  9
$DIMGAP
 40
1.0
  9
$LUNITS
 70
     2
  9
$LUPREC
 70
     3
  9
$SKETCHINC
 40
0.1
  9
$FILLETRAD
 40
50.0
  9
$AUNITS
 70
     0
  9
$AUPREC
 70
     0
  9
$MENU
  1
acad
  9
$ELEVATION
 40
0.0
  9
$PELEVATION
 40
0.0
  9
$THICKNESS
 40
0.0
  9
$LIMCHECK
 70
     0
  9
$BLIPMODE
 70
     0
  9
$CHAMFERA
 40
0.5
  9
$CHAMFERB
 40
0.5
  9
$SKPOLY
 70
     0
  9
$TDCREATE
 40
2450757.547965046
  9
$TDUPDATE
 40
2455013.7285508802
  9
$TDINDWG
 40
0.0045529398
  9
$TDUSRTIMER
 40
0.0045529398
  9
$USRTIMER
 70
     1
  9
$ANGBASE
 50
0.0
  9
$ANGDIR
 70
     0
  9
$PDMODE
 70
     0
  9
$PDSIZE
 40
0.0
  9
$PLINEWID
 40
0.0
  9
$COORDS
 70
     2
  9
$SPLFRAME
 70
     0
  9
$SPLINETYPE
 70
     6
  9
$SPLINESEGS
 70
     8
  9
$ATTDIA
 70
     0
  9
$ATTREQ
 70
     1
  9
$HANDLING
 70
 22529
  9
$HANDSEED
  5
7E4C
  9
$SURFTAB1
 70
     6
  9
$SURFTAB2
 70
     6
  9
$SURFTYPE
 70
     6
  9
$SURFU
 70
     6
  9
$SURFV
 70
     6
  9
$UCSNAME
  2

  9
$UCSORG
 10
0.0
 20
0.0
 30
0.0
  9
$UCSXDIR
 10
1.0
 20
0.0
 30
0.0
  9
$UCSYDIR
 10
0.0
 20
1.0
 30
0.0
  9
$PUCSNAME
  2

  9
$PUCSORG
 10
0.0
 20
0.0
 30
0.0
  9
$PUCSXDIR
 10
1.0
 20
0.0
 30
0.0
  9
$PUCSYDIR
 10
0.0
 20
1.0
 30
0.0
  9
$USERI1
 70
     0
  9
$USERI2
 70
     0
  9
$USERI3
 70
     0
  9
$USERI4
 70
     0
  9
$USERI5
 70
     0
  9
$USERR1
 40
0.0
  9
$USERR2
 40
0.0
  9
$USERR3
 40
0.0
  9
$USERR4
 40
0.0
  9
$USERR5
 40
0.0
  9
$WORLDVIEW
 70
     1
  9
$SHADEDGE
 70
     3
  9
$SHADEDIF
 70
    70
  9
$TILEMODE
 70
     1
  9
$MAXACTVP
 70
    16
  9
$PLIMCHECK
 70
     0
  9
$PEXTMIN
 10
1.0000000000000000E+020
 20
1.0000000000000000E+020
 30
1.0000000000000000E+020
  9
$PEXTMAX
 10
-1.0000000000000000E+020
 20
-1.0000000000000000E+020
 30
-1.0000000000000000E+020
  9
$PLIMMIN
 10
0.0
 20
0.0
  9
$PLIMMAX
 10
12.0
 20
9.0
  9
$UNITMODE
 70
     0
  9
$VISRETAIN
 70
     0
  9
$PLINEGEN
 70
     0
  9
$PSLTSCALE
 70
     1
  0
ENDSEC
  0
SECTION
  2
TABLES
  0
TABLE
  2
VPORT
 70
     2
  0
VPORT
  2
*ACTIVE
 70
     0
 10
0.0
 20
0.0
 11
1.0
 21
1.0
 12
4887.1848210705248
 22
6173.2749996292814
 13
0.0
 23
0.0
 14
10.0
 24
10.0
 15
10.0
 25
10.0
 16
0.0
 26
0.0
 36
1.0
 17
0.0
 27
0.0
 37
0.0
 40
10022.99371525931
 41
1.6307901907356941
 42
50.0
 43
0.0
 44
0.0
 50
0.0
 51
0.0
 71
     0
 72
   100
 73
     1
 74
     0
 75
     0
 76
     0
 77
     0
 78
     0
  0
ENDTAB
  0
TABLE
  2
LTYPE
 70
     2
  0
LTYPE
  2
CONTINUOUS
 70
     0
  3
Solid line
 72
    65
 73
     0
 40
0.0
  0
LTYPE
  2
CENTER
 70
     0
  3
____ _ ____ _ ____ _ ____ _ ____ _ ____ _ ____ 
 72
    65
 73
     4
 40
2.0
 49
1.25
 49
-0.25
 49
0.25
 49
-0.25
  0
ENDTAB
  0
TABLE
  2
LAYER
 70
     6
  0
LAYER
  2
0
 70
     0
 62
     7
  6
CONTINUOUS
  0
LAYER
  2
3
 70
     0
 62
     2
  6
CONTINUOUS
  0
LAYER
  2
2
 70
     0
 62
     3
  6
CENTER
  0
LAYER
  2
1
 70
     0
 62
     4
  6
CONTINUOUS
  0
LAYER
  2
4
 70
     0
 62
     7
  6
CONTINUOUS
  0
LAYER
  2
DEFPOINTS
 70
     0
 62
     7
  6
CONTINUOUS
  0
ENDTAB
  0
TABLE
  2
STYLE
 70
     1
  0
STYLE
  2
STANDARD
 70
     0
 40
0.0
 41
1.0
 50
0.0
 71
     0
 42
180.0
  3
simplex.shx
  4
extfont.shx
  0
ENDTAB
  0
TABLE
  2
VIEW
 70
     0
  0
ENDTAB
  0
TABLE
  2
UCS
 70
     0
  0
ENDTAB
  0
TABLE
  2
APPID
 70
     1
  0
APPID
  2
ACAD
 70
     0
  0
ENDTAB
  0
TABLE
  2
DIMSTYLE
 70
     1
  0
DIMSTYLE
  2
IGA
 70
     0
  3

  4

  5

  6
OPEN
  7
OPEN
 40
2.0
 41
2.0
 42
0.5
 43
10.0
 44
1.0
 45
0.0
 46
0.0
 47
1.0
 48
1.0
140
3.0
141
0.0
142
0.0
143
0.03937
144
1.0
145
0.0
146
10.0
147
1.0
 71
     0
 72
     0
 73
     0
 74
     0
 75
     0
 76
     0
 77
     1
 78
     8
170
     0
171
     2
172
     0
173
     1
174
     0
175
     0
176
     0
177
     0
178
     0
  0
ENDTAB
  0
ENDSEC
  0
SECTION
  2
BLOCKS
  0
BLOCK
  8
0
  2
$MODEL_SPACE
 70
     0
 10
0.0
 20
0.0
 30
0.0
  3
$MODEL_SPACE
  1

  0
ENDBLK
  5
1B
  8
0
  0
BLOCK
 67
     1
  8
0
  2
$PAPER_SPACE
 70
     0
 10
0.0
 20
0.0
 30
0.0
  3
$PAPER_SPACE
  1

  0
ENDBLK
  5
18
 67
     1
  8
0
  0
BLOCK
  8
0
  2
_OPEN
 70
     0
 10
0.0
 20
0.0
 30
0.0
  3
_OPEN
  1

  0
LINE
  5
7BA7
  8
0
  6
BYBLOCK
 62
     0
 10
-1.0
 20
0.166667
 30
0.0
 11
0.0
 21
0.0
 31
0.0
  0
LINE
  5
7BA8
  8
0
  6
BYBLOCK
 62
     0
 10
0.0
 20
0.0
 30
0.0
 11
-1.0
 21
-0.166667
 31
0.0
  0
LINE
  5
7BA9
  8
0
  6
BYBLOCK
 62
     0
 10
0.0
 20
0.0
 30
0.0
 11
-1.0
 21
0.0
 31
0.0
  0
ENDBLK
  5
7BAA
  8
0
  0
BLOCK
  8
0
  2
*D1
 70
     1
 10
0.0
 20
0.0
 30
0.0
  3
*D1
  1

  0
LINE
  5
7D9A
  8
3
  6
CONTINUOUS
 62
     0
 10
1982.446778999999
 20
5146.8965520000011
 30
0.0
 11
1777.81674
 21
5146.8965520000011
 31
0.0
  0
LINE
  5
7D9B
  8
3
  6
CONTINUOUS
 62
     0
 10
1982.446778999999
 20
3866.8965520000002
 30
0.0
 11
1777.81674
 21
3866.8965520000002
 31
0.0
  0
LINE
  5
7D9C
  8
3
  6
CONTINUOUS
 62
     0
 10
1817.81674
 20
5066.8965520000002
 30
0.0
 11
1817.81674
 21
3946.8965520000002
 31
0.0
  0
INSERT
  5
7D9D
  8
3
  6
CONTINUOUS
 62
     0
  2
_OPEN
 10
1817.81674
 20
5146.8965520000011
 30
0.0
 41
80.0
 42
80.0
 43
80.0
 50
90.0
  0
INSERT
  5
7D9E
  8
3
  6
CONTINUOUS
 62
     0
  2
_OPEN
 10
1817.81674
 20
3866.8965520000002
 30
0.0
 41
80.0
 42
80.0
 43
80.0
 50
270.0
  0
TEXT
  8
3
  40
120
  5
7E39
  62
0
  72
0
  71
0
 10
1477.82
 20
4321.23
 30
0.000000
  1
1280
  0
POINT
  5
7DA0
  8
DEFPOINTS
  6
CONTINUOUS
 62
     0
 10
2002.4467790000001
 20
5146.8965520000011
 30
0.0
  0
POINT
  5
7DA1
  8
DEFPOINTS
  6
CONTINUOUS
 62
     0
 10
2002.4467790000001
 20
3866.8965520000002
 30
0.0
  0
POINT
  5
7DA2
  8
DEFPOINTS
  6
CONTINUOUS
 62
     0
 10
1817.81674
 20
3866.8965520000002
 30
0.0
  0
ENDBLK
  5
7BB7
  8
0
  0
BLOCK
  8
0
  2
*D2
 70
     1
 10
0.0
 20
0.0
 30
0.0
  3
*D2
  1

  0
LINE
  5
7DA3
  8
3
  6
CONTINUOUS
 62
     0
 10
1982.446778999999
 20
5146.8965520000011
 30
0.0
 11
1512.4808849999999
 21
5146.8965520000011
 31
0.0
  0
LINE
  5
7DA4
  8
3
  6
CONTINUOUS
 62
     0
 10
1802.3902310000001
 20
3812.8965520000002
 30
0.0
 11
1512.4808849999999
 21
3812.8965520000002
 31
0.0
  0
LINE
  5
7DA5
  8
3
  6
CONTINUOUS
 62
     0
 10
1552.4808849999999
 20
5066.8965520000002
 30
0.0
 11
1552.4808849999999
 21
3892.8965520000002
 31
0.0
  0
INSERT
  5
7DA6
  8
3
  6
CONTINUOUS
 62
     0
  2
_OPEN
 10
1552.4808849999999
 20
5146.8965520000011
 30
0.0
 41
80.0
 42
80.0
 43
80.0
 50
90.0
  0
INSERT
  5
7DA7
  8
3
  6
CONTINUOUS
 62
     0
  2
_OPEN
 10
1552.4808849999999
 20
3812.8965520000002
 30
0.0
 41
80.0
 42
80.0
 43
80.0
 50
270.0
  0
TEXT
  8
3
  40
120
  5
7E3A
  62
0
  72
0
  71
0
 10
1212.48
 20
4321.23
 30
0.000000
  1
1334
  0
POINT
  5
7DA9
  8
DEFPOINTS
  6
CONTINUOUS
 62
     0
 10
2002.4467790000001
 20
5146.8965520000011
 30
0.0
  0
POINT
  5
7DAA
  8
DEFPOINTS
  6
CONTINUOUS
 62
     0
 10
1822.3902309999989
 20
3812.8965520000002
 30
0.0
  0
POINT
  5
7DAB
  8
DEFPOINTS
  6
CONTINUOUS
 62
     0
 10
1552.4808849999999
 20
3812.8965520000002
 30
0.0
  0
ENDBLK
  5
7BC4
  8
0
  0
BLOCK
  8
0
  2
*D3
 70
     1
 10
0.0
 20
0.0
 30
0.0
  3
*D3
  1

  0
LINE
  5
7DAC
  8
3
  6
CONTINUOUS
 62
     0
 10
2057.4467789999999
 20
2887.8965520000002
 30
0.0
 11
1512.480884999999
 21
2887.8965520000002
 31
0.0
  0
LINE
  5
7DAD
  8
3
  6
CONTINUOUS
 62
     0
 10
1552.4808849999999
 20
3732.8965520000002
 30
0.0
 11
1552.4808849999999
 21
2967.8965520000002
 31
0.0
  0
INSERT
  5
7DAE
  8
3
  6
CONTINUOUS
 62
     0
  2
_OPEN
 10
1552.4808849999999
 20
3812.8965520000002
 30
0.0
 41
80.0
 42
80.0
 43
80.0
 50
90.0
  0
INSERT
  5
7DAF
  8
3
  6
CONTINUOUS
 62
     0
  2
_OPEN
 10
1552.4808849999999
 20
2887.8965520000002
 30
0.0
 41
80.0
 42
80.0
 43
80.0
 50
270.0
  0
TEXT
  8
3
  40
120
  5
7E3B
  62
0
  72
0
  71
0
 10
1212.48
 20
3138.00
 30
0.000000
  1
925
  0
POINT
  5
7DB1
  8
DEFPOINTS
  6
CONTINUOUS
 62
     0
 10
1822.3902309999989
 20
3812.8965520000002
 30
0.0
  0
POINT
  5
7DB2
  8
DEFPOINTS
  6
CONTINUOUS
 62
     0
 10
2077.4467789999999
 20
2887.8965520000002
 30
0.0
  0
POINT
  5
7DB3
  8
DEFPOINTS
  6
CONTINUOUS
 62
     0
 10
1552.4808849999999
 20
2887.8965520000002
 30
0.0
  0
ENDBLK
  5
7BDE
  8
0
  0
BLOCK
  8
0
  2
*D4
 70
     1
 10
0.0
 20
0.0
 30
0.0
  3
*D4
  1

  0
LINE
  5
7DB4
  8
3
  6
CONTINUOUS
 62
     0
 10
2057.4467789999999
 20
2887.8965520000002
 30
0.0
 11
1509.1621299999999
 21
2887.8965520000002
 31
0.0
  0
LINE
  5
7DB5
  8
3
  6
CONTINUOUS
 62
     0
 10
2057.4467789999999
 20
2793.8965520000002
 30
0.0
 11
1509.1621299999999
 21
2793.8965520000002
 31
0.0
  0
LINE
  5
7DB6
  8
3
  6
CONTINUOUS
 62
     0
 10
1549.1621299999999
 20
2967.8965520000002
 30
0.0
 11
1549.1621299999999
 21
3047.8965520000002
 31
0.0
  0
LINE
  5
7DB7
  8
3
  6
CONTINUOUS
 62
     0
 10
1549.1621299999999
 20
2713.8965520000002
 30
0.0
 11
1549.1621299999999
 21
2353.8965520000002
 31
0.0
  0
LINE
  5
7DB8
  8
3
  6
CONTINUOUS
 62
     0
 10
1549.1621299999999
 20
2887.8965520000002
 30
0.0
 11
1549.1621299999999
 21
2793.8965520000002
 31
0.0
  0
INSERT
  5
7DB9
  8
3
  6
CONTINUOUS
 62
     0
  2
_OPEN
 10
1549.1621299999999
 20
2887.8965520000002
 30
0.0
 41
80.0
 42
80.0
 43
80.0
 50
270.0
  0
INSERT
  5
7DBA
  8
3
  6
CONTINUOUS
 62
     0
  2
_OPEN
 10
1549.1621299999999
 20
2793.8965520000002
 30
0.0
 41
80.0
 42
80.0
 43
80.0
 50
90.0
  0
TEXT
  8
3
  40
120
  5
7E3C
  62
0
  72
0
  71
0
 10
1209.16
 20
2281.50
 30
0.000000
  1
94
  0
POINT
  5
7DBC
  8
DEFPOINTS
  6
CONTINUOUS
 62
     0
 10
2077.4467789999999
 20
2887.8965520000002
 30
0.0
  0
POINT
  5
7DBD
  8
DEFPOINTS
  6
CONTINUOUS
 62
     0
 10
2077.4467789999999
 20
2793.8965520000002
 30
0.0
  0
POINT
  5
7DBE
  8
DEFPOINTS
  6
CONTINUOUS
 62
     0
 10
1549.1621299999999
 20
2793.8965520000002
 30
0.0
  0
ENDBLK
  5
7D40
  8
0
  0
BLOCK
  8
0
  2
*D5
 70
     1
 10
0.0
 20
0.0
 30
0.0
  3
*D5
  1

  0
LINE
  5
7DBF
  8
3
  6
CONTINUOUS
 62
     0
 10
1982.446778999999
 20
5202.8965520000002
 30
0.0
 11
1284.2269110000011
 21
5202.8965520000002
 31
0.0
  0
LINE
  5
7DC0
  8
3
  6
CONTINUOUS
 62
     0
 10
2057.4467789999999
 20
2793.8965520000002
 30
0.0
 11
1284.226911
 21
2793.8965520000002
 31
0.0
  0
LINE
  5
7DC1
  8
3
  6
CONTINUOUS
 62
     0
 10
1324.2269110000011
 20
5122.8965520000002
 30
0.0
 11
1324.226911
 21
2873.8965520000002
 31
0.0
  0
INSERT
  5
7DC2
  8
3
  6
CONTINUOUS
 62
     0
  2
_OPEN
 10
1324.2269110000011
 20
5202.8965520000002
 30
0.0
 41
80.0
 42
80.0
 43
80.0
 50
90.0
  0
INSERT
  5
7DC3
  8
3
  6
CONTINUOUS
 62
     0
  2
_OPEN
 10
1324.226911
 20
2793.8965520000002
 30
0.0
 41
80.0
 42
80.0
 43
80.0
 50
270.0
  0
TEXT
  8
3
  40
120
  5
7E3D
  62
0
  72
0
  71
0
 10
984.227
 20
3739.55
 30
0.000000
  1
2409
  0
POINT
  5
7DC5
  8
DEFPOINTS
  6
CONTINUOUS
 62
     0
 10
2002.4467790000001
 20
5202.8965520000002
 30
0.0
  0
POINT
  5
7DC6
  8
DEFPOINTS
  6
CONTINUOUS
 62
     0
 10
2077.4467789999999
 20
2793.8965520000002
 30
0.0
  0
POINT
  5
7DC7
  8
DEFPOINTS
  6
CONTINUOUS
 62
     0
 10
1324.226911
 20
2793.8965520000002
 30
0.0
  0
ENDBLK
  5
7CED
  8
0
  0
BLOCK
  8
0
  2
*D6
 70
     1
 10
0.0
 20
0.0
 30
0.0
  3
*D6
  1

  0
LINE
  5
7DC8
  8
3
  6
CONTINUOUS
 62
     0
 10
2077.4467789999999
 20
2773.8965520000002
 30
0.0
 11
2077.4467789999999
 21
2433.13861
 31
0.0
  0
LINE
  5
7DC9
  8
3
  6
CONTINUOUS
 62
     0
 10
2827.4467789999999
 20
2541.9878819999999
 30
0.0
 11
2827.4467789999999
 21
2433.13861
 31
0.0
  0
LINE
  5
7DCA
  8
3
  6
CONTINUOUS
 62
     0
 10
2157.4467789999999
 20
2473.13861
 30
0.0
 11
2747.4467789999999
 21
2473.13861
 31
0.0
  0
INSERT
  5
7DCB
  8
3
  6
CONTINUOUS
 62
     0
  2
_OPEN
 10
2077.4467789999999
 20
2473.13861
 30
0.0
 41
80.0
 42
80.0
 43
80.0
 50
180.0
  0
INSERT
  5
7DCC
  8
3
  6
CONTINUOUS
 62
     0
  2
_OPEN
 10
2827.4467789999999
 20
2473.13861
 30
0.0
 41
80.0
 42
80.0
 43
80.0
  0
TEXT
  8
3
  40
120
  5
7E3E
  62
0
  72
0
  71
0
 10
2176.96
 20
2360.74
 30
0.000000
  1
750
  0
POINT
  5
7DCE
  8
DEFPOINTS
  6
CONTINUOUS
 62
     0
 10
2077.4467789999999
 20
2793.8965520000002
 30
0.0
  0
POINT
  5
7DCF
  8
DEFPOINTS
  6
CONTINUOUS
 62
     0
 10
2827.4467789999999
 20
2561.9878819999999
 30
0.0
  0
POINT
  5
7DD0
  8
DEFPOINTS
  6
CONTINUOUS
 62
     0
 10
2827.4467789999999
 20
2473.13861
 30
0.0
  0
ENDBLK
  5
7CC8
  8
0
  0
BLOCK
  8
0
  2
*D7
 70
     1
 10
0.0
 20
0.0
 30
0.0
  3
*D7
  1

  0
LINE
  5
7DD1
  8
3
  6
CONTINUOUS
 62
     0
 10
4627.4467789999999
 20
2773.8965520000002
 30
0.0
 11
4627.4467789999999
 21
2433.13861
 31
0.0
  0
LINE
  5
7DD2
  8
3
  6
CONTINUOUS
 62
     0
 10
2907.4467789999999
 20
2473.13861
 30
0.0
 11
4547.4467789999999
 21
2473.13861
 31
0.0
  0
INSERT
  5
7DD3
  8
3
  6
CONTINUOUS
 62
     0
  2
_OPEN
 10
2827.4467789999999
 20
2473.13861
 30
0.0
 41
80.0
 42
80.0
 43
80.0
 50
180.0
  0
INSERT
  5
7DD4
  8
3
  6
CONTINUOUS
 62
     0
  2
_OPEN
 10
4627.4467789999999
 20
2473.13861
 30
0.0
 41
80.0
 42
80.0
 43
80.0
  0
TEXT
  8
3
  40
120
  5
7E3F
  62
0
  72
0
  71
0
 10
3487.45
 20
2360.74
 30
0.000000
  1
1800
  0
POINT
  5
7DD6
  8
DEFPOINTS
  6
CONTINUOUS
 62
     0
 10
2827.4467789999999
 20
2561.9878819999999
 30
0.0
  0
POINT
  5
7DD7
  8
DEFPOINTS
  6
CONTINUOUS
 62
     0
 10
4627.4467789999999
 20
2793.8965520000002
 30
0.0
  0
POINT
  5
7DD8
  8
DEFPOINTS
  6
CONTINUOUS
 62
     0
 10
4627.4467789999999
 20
2473.13861
 30
0.0
  0
ENDBLK
  5
7D2D
  8
0
  0
BLOCK
  8
0
  2
*D8
 70
     1
 10
0.0
 20
0.0
 30
0.0
  3
*D8
  1

  0
LINE
  5
7DD9
  8
3
  6
CONTINUOUS
 62
     0
 10
2002.4467790000001
 20
5222.8965520000002
 30
0.0
 11
2002.4467790000001
 21
5471.8046199999999
 31
0.0
  0
LINE
  5
7DDA
  8
3
  6
CONTINUOUS
 62
     0
 10
2827.4467789999999
 20
5336.1840460000003
 30
0.0
 11
2827.4467789999999
 21
5471.8046199999999
 31
0.0
  0
LINE
  5
7DDB
  8
3
  6
CONTINUOUS
 62
     0
 10
2082.4467789999999
 20
5431.8046199999999
 30
0.0
 11
2747.4467789999999
 21
5431.8046199999999
 31
0.0
  0
INSERT
  5
7DDC
  8
3
  6
CONTINUOUS
 62
     0
  2
_OPEN
 10
2002.4467790000001
 20
5431.8046199999999
 30
0.0
 41
80.0
 42
80.0
 43
80.0
 50
180.0
  0
INSERT
  5
7DDD
  8
3
  6
CONTINUOUS
 62
     0
  2
_OPEN
 10
2827.4467789999999
 20
5431.8046199999999
 30
0.0
 41
80.0
 42
80.0
 43
80.0
  0
TEXT
  8
3
  40
120
  5
7E40
  62
0
  72
0
  71
0
 10
2159.84
 20
5319.40
 30
0.000000
  1
825
  0
POINT
  5
7DDF
  8
DEFPOINTS
  6
CONTINUOUS
 62
     0
 10
2002.4467790000001
 20
5202.8965520000002
 30
0.0
  0
POINT
  5
7DE0
  8
DEFPOINTS
  6
CONTINUOUS
 62
     0
 10
2827.4467789999999
 20
5316.1840460000003
 30
0.0
  0
POINT
  5
7DE1
  8
DEFPOINTS
  6
CONTINUOUS
 62
     0
 10
2827.4467789999999
 20
5431.8046199999999
 30
0.0
  0
ENDBLK
  5
7C21
  8
0
  0
BLOCK
  8
0
  2
*D9
 70
     1
 10
0.0
 20
0.0
 30
0.0
  3
*D9
  1

  0
LINE
  5
7DE2
  8
3
  6
CONTINUOUS
 62
     0
 10
5887.9012229999998
 20
5166.8965520000002
 30
0.0
 11
5887.9012229999998
 21
5386.2638040000002
 31
0.0
  0
LINE
  5
7DE3
  8
3
  6
CONTINUOUS
 62
     0
 10
6837.9012230000017
 20
5166.8965520000002
 30
0.0
 11
6837.9012230000017
 21
5386.2638040000002
 31
0.0
  0
LINE
  5
7DE4
  8
3
  6
CONTINUOUS
 62
     0
 10
5967.9012229999998
 20
5346.2638040000002
 30
0.0
 11
6757.9012230000008
 21
5346.2638040000002
 31
0.0
  0
INSERT
  5
7DE5
  8
3
  6
CONTINUOUS
 62
     0
  2
_OPEN
 10
5887.9012229999998
 20
5346.2638040000002
 30
0.0
 41
80.0
 42
80.0
 43
80.0
 50
180.0
  0
INSERT
  5
7DE6
  8
3
  6
CONTINUOUS
 62
     0
  2
_OPEN
 10
6837.9012230000017
 20
5346.2638040000002
 30
0.0
 41
80.0
 42
80.0
 43
80.0
  0
TEXT
  8
3
  40
120
  5
7E41
  62
0
  72
0
  71
0
 10
6122.80
 20
5233.86
 30
0.000000
  1
950
  0
POINT
  5
7DE8
  8
DEFPOINTS
  6
CONTINUOUS
 62
     0
 10
5887.9012229999998
 20
5146.8965520000011
 30
0.0
  0
POINT
  5
7DE9
  8
DEFPOINTS
  6
CONTINUOUS
 62
     0
 10
6837.9012230000017
 20
5146.8965520000011
 30
0.0
  0
POINT
  5
7DEA
  8
DEFPOINTS
  6
CONTINUOUS
 62
     0
 10
6837.9012230000017
 20
5346.2638040000002
 30
0.0
  0
ENDBLK
  5
7C3A
  8
0
  0
BLOCK
  8
0
  2
*D10
 70
     1
 10
0.0
 20
0.0
 30
0.0
  3
*D10
  1

  0
LINE
  5
7DEB
  8
3
  6
CONTINUOUS
 62
     0
 10
6960.9012229999998
 20
4437.8965520000002
 30
0.0
 11
7292.9622200000013
 21
4437.8965520000002
 31
0.0
  0
LINE
  5
7DEC
  8
3
  6
CONTINUOUS
 62
     0
 10
6960.9012229999998
 20
3187.8965520000002
 30
0.0
 11
7292.9622200000013
 21
3187.8965519999988
 31
0.0
  0
LINE
  5
7DED
  8
3
  6
CONTINUOUS
 62
     0
 10
7252.9622200000022
 20
4357.8965520000002
 30
0.0
 11
7252.9622200000022
 21
3267.8965519999988
 31
0.0
  0
INSERT
  5
7DEE
  8
3
  6
CONTINUOUS
 62
     0
  2
_OPEN
 10
7252.9622200000022
 20
4437.8965520000002
 30
0.0
 41
80.0
 42
80.0
 43
80.0
 50
90.0
  0
INSERT
  5
7DEF
  8
3
  6
CONTINUOUS
 62
     0
  2
_OPEN
 10
7252.9622200000022
 20
3187.8965519999988
 30
0.0
 41
80.0
 42
80.0
 43
80.0
 50
270.0
  0
TEXT
  8
3
  40
120
  5
7E42
  62
0
  72
0
  71
0
 10
6912.96
 20
3602.68
 30
0.000000
  1
φ1250
  0
POINT
  5
7DF1
  8
DEFPOINTS
  6
CONTINUOUS
 62
     0
 10
6940.9012230000008
 20
4437.8965520000002
 30
0.0
  0
POINT
  5
7DF2
  8
DEFPOINTS
  6
CONTINUOUS
 62
     0
 10
6940.9012230000008
 20
3187.8965520000002
 30
0.0
  0
POINT
  5
7DF3
  8
DEFPOINTS
  6
CONTINUOUS
 62
     0
 10
7252.9622200000022
 20
3187.8965519999988
 30
0.0
  0
ENDBLK
  5
7D6D
  8
0
  0
BLOCK
  8
0
  2
*D11
 70
     1
 10
0.0
 20
0.0
 30
0.0
  3
*D11
  1

  0
LINE
  5
7DF4
  8
3
  6
CONTINUOUS
 62
     0
 10
6940.9012230000008
 20
4507.8965520000002
 30
0.0
 11
6940.9012230000008
 21
5634.3321889999997
 31
0.0
  0
LINE
  5
7DF5
  8
3
  6
CONTINUOUS
 62
     0
 10
6362.9012229999998
 20
5556.1058229999999
 30
0.0
 11
6362.9012229999998
 21
5634.3321889999997
 31
0.0
  0
LINE
  5
7DF6
  8
3
  6
CONTINUOUS
 62
     0
 10
6860.9012229999998
 20
5594.3321889999997
 30
0.0
 11
6442.9012229999989
 21
5594.3321889999997
 31
0.0
  0
INSERT
  5
7DF7
  8
3
  6
CONTINUOUS
 62
     0
  2
_OPEN
 10
6940.9012230000008
 20
5594.3321889999997
 30
0.0
 41
80.0
 42
80.0
 43
80.0
  0
INSERT
  5
7DF8
  8
3
  6
CONTINUOUS
 62
     0
  2
_OPEN
 10
6362.9012229999998
 20
5594.3321889999997
 30
0.0
 41
80.0
 42
80.0
 43
80.0
 50
180.0
  0
TEXT
  8
3
  40
120
  5
7E43
  62
0
  72
0
  71
0
 10
6397.19
 20
5481.93
 30
0.000000
  1
578
  0
POINT
  5
7DFA
  8
DEFPOINTS
  6
CONTINUOUS
 62
     0
 10
6940.9012230000008
 20
4487.8965520000002
 30
0.0
  0
POINT
  5
7DFB
  8
DEFPOINTS
  6
CONTINUOUS
 62
     0
 10
6362.9012229999998
 20
5536.105822999999
 30
0.0
  0
POINT
  5
7DFC
  8
DEFPOINTS
  6
CONTINUOUS
 62
     0
 10
6362.9012229999998
 20
5594.3321889999997
 30
0.0
  0
ENDBLK
  5
7C85
  8
0
  0
BLOCK
  8
0
  2
*D12
 70
     1
 10
0.0
 20
0.0
 30
0.0
  3
*D12
  1

  0
LINE
  5
7DFD
  8
3
  6
CONTINUOUS
 62
     0
 10
5522.9012229999998
 20
4210.8965520000002
 30
0.0
 11
5522.9012229999998
 21
5634.3321889999997
 31
0.0
  0
LINE
  5
7DFE
  8
3
  6
CONTINUOUS
 62
     0
 10
6282.9012229999989
 20
5594.3321889999997
 30
0.0
 11
5602.9012229999989
 21
5594.3321889999997
 31
0.0
  0
INSERT
  5
7DFF
  8
3
  6
CONTINUOUS
 62
     0
  2
_OPEN
 10
6362.9012229999998
 20
5594.3321889999997
 30
0.0
 41
80.0
 42
80.0
 43
80.0
  0
INSERT
  5
7E00
  8
3
  6
CONTINUOUS
 62
     0
  2
_OPEN
 10
5522.9012229999998
 20
5594.3321889999997
 30
0.0
 41
80.0
 42
80.0
 43
80.0
 50
180.0
  0
TEXT
  8
3
  40
120
  5
7E44
  62
0
  72
0
  71
0
 10
5702.90
 20
5581.93
 30
0.000000
  1
MAX
  0
TEXT
  8
3
  40
120
  5
7E45
  62
0
  72
0
  71
0
 10
5702.90
 20
5425.93
 30
0.000000
  1
890
  0
POINT
  5
7E02
  8
DEFPOINTS
  6
CONTINUOUS
 62
     0
 10
6362.9012229999998
 20
5536.105822999999
 30
0.0
  0
POINT
  5
7E03
  8
DEFPOINTS
  6
CONTINUOUS
 62
     0
 10
5522.9012229999998
 20
4190.8965520000002
 30
0.0
  0
POINT
  5
7E04
  8
DEFPOINTS
  6
CONTINUOUS
 62
     0
 10
5522.9012229999998
 20
5594.3321889999997
 30
0.0
  0
ENDBLK
  5
7D62
  8
0
  0
BLOCK
  8
0
  2
*D13
 70
     1
 10
0.0
 20
0.0
 30
0.0
  3
*D13
  1

  0
LINE
  5
7E05
  8
3
  6
CONTINUOUS
 62
     0
 10
5635.9012229999998
 20
2773.8965520000002
 30
0.0
 11
5635.9012229999998
 21
2380.5218850000001
 31
0.0
  0
LINE
  5
7E06
  8
3
  6
CONTINUOUS
 62
     0
 10
6362.9012229999998
 20
2505.8559519999999
 30
0.0
 11
6362.9012229999998
 21
2380.5218850000001
 31
0.0
  0
LINE
  5
7E07
  8
3
  6
CONTINUOUS
 62
     0
 10
5715.9012229999998
 20
2420.5218850000001
 30
0.0
 11
6282.9012229999989
 21
2420.5218850000001
 31
0.0
  0
INSERT
  5
7E08
  8
3
  6
CONTINUOUS
 62
     0
  2
_OPEN
 10
5635.9012229999998
 20
2420.5218850000001
 30
0.0
 41
80.0
 42
80.0
 43
80.0
 50
180.0
  0
INSERT
  5
7E09
  8
3
  6
CONTINUOUS
 62
     0
  2
_OPEN
 10
6362.9012229999998
 20
2420.5218850000001
 30
0.0
 41
80.0
 42
80.0
 43
80.0
  0
TEXT
  8
3
  40
120
  5
7E46
  62
0
  72
0
  71
0
 10
5780.43
 20
2308.12
 30
0.000000
  1
727
  0
POINT
  5
7E0B
  8
DEFPOINTS
  6
CONTINUOUS
 62
     0
 10
5635.9012229999998
 20
2793.8965520000002
 30
0.0
  0
POINT
  5
7E0C
  8
DEFPOINTS
  6
CONTINUOUS
 62
     0
 10
6362.9012229999998
 20
2525.8559519999999
 30
0.0
  0
POINT
  5
7E0D
  8
DEFPOINTS
  6
CONTINUOUS
 62
     0
 10
6362.9012229999998
 20
2420.5218850000001
 30
0.0
  0
ENDBLK
  5
7D0E
  8
0
  0
BLOCK
  8
0
  2
*D14
 70
     1
 10
0.0
 20
0.0
 30
0.0
  3
*D14
  1

  0
LINE
  5
7E0E
  8
3
  6
CONTINUOUS
 62
     0
 10
6915.9012230000017
 20
2773.8965520000002
 30
0.0
 11
6915.9012230000017
 21
2380.5218850000001
 31
0.0
  0
LINE
  5
7E0F
  8
3
  6
CONTINUOUS
 62
     0
 10
6442.9012229999989
 20
2420.5218850000001
 30
0.0
 11
6835.9012229999998
 21
2420.5218850000001
 31
0.0
  0
INSERT
  5
7E10
  8
3
  6
CONTINUOUS
 62
     0
  2
_OPEN
 10
6362.9012229999998
 20
2420.5218850000001
 30
0.0
 41
80.0
 42
80.0
 43
80.0
 50
180.0
  0
INSERT
  5
7E11
  8
3
  6
CONTINUOUS
 62
     0
  2
_OPEN
 10
6915.9012230000017
 20
2420.5218850000001
 30
0.0
 41
80.0
 42
80.0
 43
80.0
  0
TEXT
  8
3
  40
120
  5
7E47
  62
0
  72
0
  71
0
 10
6399.40
 20
2308.12
 30
0.000000
  1
553
  0
POINT
  5
7E13
  8
DEFPOINTS
  6
CONTINUOUS
 62
     0
 10
6362.9012229999998
 20
2525.8559519999999
 30
0.0
  0
POINT
  5
7E14
  8
DEFPOINTS
  6
CONTINUOUS
 62
     0
 10
6915.9012230000017
 20
2793.8965520000002
 30
0.0
  0
POINT
  5
7E15
  8
DEFPOINTS
  6
CONTINUOUS
 62
     0
 10
6915.9012230000017
 20
2420.5218850000001
 30
0.0
  0
ENDBLK
  5
7D03
  8
0
  0
BLOCK
  8
0
  2
*D15
 70
     1
 10
0.0
 20
0.0
 30
0.0
  3
*D15
  1

  0
LINE
  5
7E16
  8
3
  6
CONTINUOUS
 62
     0
 10
2077.4467789999999
 20
7420.6171499999991
 30
0.0
 11
2077.4467789999999
 21
6949.7890590000006
 31
0.0
  0
LINE
  5
7E17
  8
3
  6
CONTINUOUS
 62
     0
 10
4627.4467789999999
 20
7420.6171499999991
 30
0.0
 11
4627.4467789999999
 21
6949.7890590000006
 31
0.0
  0
LINE
  5
7E18
  8
3
  6
CONTINUOUS
 62
     0
 10
2157.4467789999999
 20
6989.7890589999997
 30
0.0
 11
4547.4467789999999
 21
6989.7890589999997
 31
0.0
  0
INSERT
  5
7E19
  8
3
  6
CONTINUOUS
 62
     0
  2
_OPEN
 10
2077.4467789999999
 20
6989.7890589999997
 30
0.0
 41
80.0
 42
80.0
 43
80.0
 50
180.0
  0
INSERT
  5
7E1A
  8
3
  6
CONTINUOUS
 62
     0
  2
_OPEN
 10
4627.4467789999999
 20
6989.7890589999997
 30
0.0
 41
80.0
 42
80.0
 43
80.0
  0
TEXT
  8
3
  40
120
  5
7E48
  62
0
  72
0
  71
0
 10
3084.24
 20
6877.39
 30
0.000000
  1
2550
  0
POINT
  5
7E1C
  8
DEFPOINTS
  6
CONTINUOUS
 62
     0
 10
2077.4467789999999
 20
7440.61715
 30
0.0
  0
POINT
  5
7E1D
  8
DEFPOINTS
  6
CONTINUOUS
 62
     0
 10
4627.4467789999999
 20
7440.61715
 30
0.0
  0
POINT
  5
7E1E
  8
DEFPOINTS
  6
CONTINUOUS
 62
     0
 10
4627.4467789999999
 20
6989.7890589999997
 30
0.0
  0
ENDBLK
  5
7D23
  8
0
  0
BLOCK
  8
0
  2
*D16
 70
     1
 10
0.0
 20
0.0
 30
0.0
  3
*D16
  1

  0
LINE
  5
7E1F
  8
3
  6
CONTINUOUS
 62
     0
 10
4647.4467789999999
 20
8720.61715
 30
0.0
 11
5030.5772070000012
 21
8720.61715
 31
0.0
  0
LINE
  5
7E20
  8
3
  6
CONTINUOUS
 62
     0
 10
4642.4467789999999
 20
7440.61715
 30
0.0
 11
5030.5772070000012
 21
7440.61715
 31
0.0
  0
LINE
  5
7E21
  8
3
  6
CONTINUOUS
 62
     0
 10
4990.5772070000012
 20
8640.61715
 30
0.0
 11
4990.5772070000012
 21
7520.6171499999991
 31
0.0
  0
INSERT
  5
7E22
  8
3
  6
CONTINUOUS
 62
     0
  2
_OPEN
 10
4990.5772070000012
 20
8720.61715
 30
0.0
 41
80.0
 42
80.0
 43
80.0
 50
90.0
  0
INSERT
  5
7E23
  8
3
  6
CONTINUOUS
 62
     0
  2
_OPEN
 10
4990.5772070000012
 20
7440.61715
 30
0.0
 41
80.0
 42
80.0
 43
80.0
 50
270.0
  0
TEXT
  8
3
  40
120
  5
7E49
  62
0
  72
0
  71
0
 10
4650.58
 20
7795.32
 30
0.000000
  1
1280
  0
POINT
  5
7E25
  8
DEFPOINTS
  6
CONTINUOUS
 62
     0
 10
4627.4467789999999
 20
8720.61715
 30
0.0
  0
POINT
  5
7E26
  8
DEFPOINTS
  6
CONTINUOUS
 62
     0
 10
4622.446778999999
 20
7440.61715
 30
0.0
  0
POINT
  5
7E27
  8
DEFPOINTS
  6
CONTINUOUS
 62
     0
 10
4990.5772070000012
 20
7440.61715
 30
0.0
  0
ENDBLK
  5
7CA8
  8
0
  0
BLOCK
  8
0
  2
*D17
 70
     1
 10
0.0
 20
0.0
 30
0.0
  3
*D17
  1

  0
LINE
  5
7E28
  8
3
  6
CONTINUOUS
 62
     0
 10
3906.4467789999999
 20
3832.8965520000002
 30
0.0
 11
3906.4467789999999
 21
5471.8046199999999
 31
0.0
  0
LINE
  5
7E29
  8
3
  6
CONTINUOUS
 62
     0
 10
2907.4467789999999
 20
5431.8046199999999
 30
0.0
 11
3826.446778999999
 21
5431.8046199999999
 31
0.0
  0
INSERT
  5
7E2A
  8
3
  6
CONTINUOUS
 62
     0
  2
_OPEN
 10
2827.4467789999999
 20
5431.8046199999999
 30
0.0
 41
80.0
 42
80.0
 43
80.0
 50
180.0
  0
INSERT
  5
7E2B
  8
3
  6
CONTINUOUS
 62
     0
  2
_OPEN
 10
3906.4467789999999
 20
5431.8046199999999
 30
0.0
 41
80.0
 42
80.0
 43
80.0
  0
TEXT
  8
3
  40
120
  5
7E4A
  62
0
  72
0
  71
0
 10
3126.95
 20
5319.40
 30
0.000000
  1
1079
  0
POINT
  5
7E2D
  8
DEFPOINTS
  6
CONTINUOUS
 62
     0
 10
2827.4467789999999
 20
5316.1840460000003
 30
0.0
  0
POINT
  5
7E2E
  8
DEFPOINTS
  6
CONTINUOUS
 62
     0
 10
3906.4467789999999
 20
3812.8965520000002
 30
0.0
  0
POINT
  5
7E2F
  8
DEFPOINTS
  6
CONTINUOUS
 62
     0
 10
3906.4467789999999
 20
5431.8046199999999
 30
0.0
  0
ENDBLK
  5
7D4B
  8
0
  0
BLOCK
  8
0
  2
*D18
 70
     1
 10
0.0
 20
0.0
 30
0.0
  3
*D18
  1

  0
LINE
  5
7E30
  8
3
 62
     0
 10
2002.4467790000001
 20
5222.8965520000002
 30
0.0
 11
2002.4467790000001
 21
5702.4824198726201
 31
0.0
  0
LINE
  5
7E31
  8
3
 62
     0
 10
4627.4467789999999
 20
3057.8965520000002
 30
0.0
 11
4627.4467789999999
 21
5702.4824198726201
 31
0.0
  0
LINE
  5
7E32
  8
3
 62
     0
 10
2082.4467789999999
 20
5662.4824198726201
 30
0.0
 11
4547.4467789999999
 21
5662.4824198726201
 31
0.0
  0
INSERT
  5
7E33
  8
3
 62
     0
  2
_OPEN
 10
2002.4467790000001
 20
5662.4824198726201
 30
0.0
 41
80.0
 42
80.0
 43
80.0
 50
180.0
  0
INSERT
  5
7E34
  8
3
 62
     0
  2
_OPEN
 10
4627.4467789999999
 20
5662.4824198726201
 30
0.0
 41
80.0
 42
80.0
 43
80.0
  0
TEXT
  8
3
  40
120
  5
7E4B
  62
0
  72
0
  71
0
 10
2959.81
 20
5550.08
 30
0.000000
  1
2625
  0
POINT
  5
7E36
  8
DEFPOINTS
 62
     0
 10
2002.4467790000001
 20
5202.8965520000002
 30
0.0
  0
POINT
  5
7E37
  8
DEFPOINTS
 62
     0
 10
4627.4467789999999
 20
3037.8965520000002
 30
0.0
  0
POINT
  5
7E38
  8
DEFPOINTS
 62
     0
 10
4627.4467789999999
 20
5662.4824198726201
 30
0.0
  0
ENDBLK
  5
7D57
  8
0
  0
ENDSEC
  0
SECTION
  2
ENTITIES
  0
POLYLINE
  5
7AC2
  8
1
  6
CONTINUOUS
 66
     1
 10
0.0
 20
0.0
 30
0.0
  0
VERTEX
  5
7D93
  8
1
  6
CONTINUOUS
 10
2002.4467790000001
 20
5146.8965520000011
 30
0.0
  0
VERTEX
  5
7D94
  8
1
  6
CONTINUOUS
 10
2827.4467789999999
 20
5073.8965520000002
 30
0.0
 42
-0.4
  0
VERTEX
  5
7D95
  8
1
  6
CONTINUOUS
 10
3909.9467789999999
 20
3903.8965520000002
 30
0.0
 42
-0.4
  0
VERTEX
  5
7D96
  8
1
  6
CONTINUOUS
 10
2836.1467789999988
 20
2915.7965519999989
 30
0.0
 42
-0.4
  0
VERTEX
  5
7D97
  8
1
  6
CONTINUOUS
 10
2081.446778999999
 20
3735.8965520000002
 30
0.0
  0
VERTEX
  5
7D98
  8
1
  6
CONTINUOUS
 10
2094.4467789999999
 20
3866.8965520000002
 30
0.0
 42
-0.4
  0
SEQEND
  5
7D99
  8
1
  6
CONTINUOUS
  0
LINE
  5
7ACA
  8
1
  6
CONTINUOUS
 10
2077.4467789999999
 20
2887.8965520000002
 30
0.0
 11
4627.4467789999999
 21
2887.8965520000002
 31
0.0
  0
LINE
  5
7ACB
  8
1
  6
CONTINUOUS
 10
2077.4467789999999
 20
3037.8965520000002
 30
0.0
 11
4627.4467789999999
 21
3037.8965520000002
 31
0.0
  0
CIRCLE
  5
7ACC
  8
1
  6
CONTINUOUS
 10
2827.4467789999999
 20
3812.8965520000002
 30
0.0
 40
625.0
  0
CIRCLE
  5
7ACD
  8
1
  6
CONTINUOUS
 10
2827.4467789999999
 20
3812.8965520000002
 30
0.0
 40
675.0
  0
LINE
  5
7ACE
  8
1
  6
CONTINUOUS
 10
2002.4467790000001
 20
8642.6171499999982
 30
0.0
 11
3909.9467789999999
 21
8642.6171499999982
 31
0.0
  0
LINE
  5
7ACF
  8
1
  6
CONTINUOUS
 10
2002.4467790000001
 20
7692.61715
 30
0.0
 11
3909.9467789999999
 21
7692.61715
 31
0.0
  0
LINE
  5
7AD0
  8
1
  6
CONTINUOUS
 10
2152.446778999999
 20
8745.6171499999982
 30
0.0
 11
3502.4467789999999
 21
8745.6171499999982
 31
0.0
  0
LINE
  5
7AD1
  8
1
  6
CONTINUOUS
 10
2449.4467789999999
 20
7327.61715
 30
0.0
 11
4522.4467789999999
 21
7327.61715
 31
0.0
  0
LINE
  5
7AD2
  8
1
  6
CONTINUOUS
 10
2449.4467789999999
 20
7567.61715
 30
0.0
 11
4522.4467789999999
 21
7567.61715
 31
0.0
  0
LINE
  5
7AD3
  8
1
  6
CONTINUOUS
 10
4082.4467789999999
 20
7440.61715
 30
0.0
 11
3105.4467789999999
 21
7440.61715
 31
0.0
  0
LINE
  5
7AD4
  8
1
  6
CONTINUOUS
 10
2956.1467790000002
 20
4059.2965519999998
 30
0.0
 11
4258.0467789999993
 21
3379.2965519999998
 31
0.0
  0
LINE
  5
7AD5
  8
1
  6
CONTINUOUS
 10
3002.4467789999999
 20
4147.8965520000002
 30
0.0
 11
4304.3467789999986
 21
3467.8965520000002
 31
0.0
  0
LINE
  5
7AD6
  8
1
  6
CONTINUOUS
 10
2754.0467789999989
 20
3544.7965519999998
 30
0.0
 11
4170.7467790000001
 21
3157.1965519999999
 31
0.0
  0
LINE
  5
7AD7
  8
1
  6
CONTINUOUS
 10
2727.6467790000002
 20
3448.2965519999998
 30
0.0
 11
4144.3467789999986
 21
3060.6965519999999
 31
0.0
  0
LINE
  5
7AD8
  8
1
  6
CONTINUOUS
 10
2077.4467789999999
 20
2793.8965520000002
 30
0.0
 11
4627.4467789999999
 21
2793.8965520000002
 31
0.0
  0
LINE
  5
7AD9
  8
1
  6
CONTINUOUS
 10
2077.4467789999999
 20
2868.8965520000002
 30
0.0
 11
4627.4467789999999
 21
2868.8965520000002
 31
0.0
  0
LINE
  5
7ADA
  8
1
  6
CONTINUOUS
 10
2002.4467790000001
 20
3816.8965520000002
 30
0.0
 11
2002.4467790000001
 21
5202.8965520000002
 31
0.0
  0
LINE
  5
7ADB
  8
1
  6
CONTINUOUS
 10
2052.446778999999
 20
3866.8965520000002
 30
0.0
 11
2052.446778999999
 21
5146.8965520000011
 31
0.0
  0
LINE
  5
7ADC
  8
1
  6
CONTINUOUS
 10
2077.4467789999999
 20
3037.8965520000002
 30
0.0
 11
2077.4467789999999
 21
2887.8965520000002
 31
0.0
  0
LINE
  5
7ADD
  8
1
  6
CONTINUOUS
 10
2077.4467789999999
 20
2868.8965520000002
 30
0.0
 11
2077.4467789999999
 21
2793.8965520000002
 31
0.0
  0
LINE
  5
7ADE
  8
1
  6
CONTINUOUS
 10
2094.4467789999999
 20
3866.8965520000002
 30
0.0
 11
2002.4467790000001
 21
3866.8965520000002
 31
0.0
  0
ARC
  5
7ADF
  8
1
  6
CONTINUOUS
 10
2827.4467789999999
 20
3812.8965520000002
 30
0.0
 40
378.0
 50
62.399999999999999
 51
254.69999999999999
  0
CIRCLE
  5
7AE0
  8
1
  6
CONTINUOUS
 10
2827.4467789999999
 20
3812.8965520000002
 30
0.0
 40
278.0
  0
LINE
  5
7AE1
  8
2
  6
CENTER
 10
7030.4224290000011
 20
3812.8965520000002
 30
0.0
 11
5442.7193029999999
 21
3812.8965520000002
 31
0.0
  0
LINE
  5
7AE2
  8
2
  6
CENTER
 10
2827.4467789999999
 20
2561.9878819999999
 30
0.0
 11
2827.4467789999999
 21
5316.1840460000003
 31
0.0
  0
LINE
  5
7AE3
  8
1
  6
CONTINUOUS
 10
2077.4467789999999
 20
8720.61715
 30
0.0
 11
2202.4467789999999
 21
8720.61715
 31
0.0
  0
LINE
  5
7AE4
  8
1
  6
CONTINUOUS
 10
2549.4467789999999
 20
7440.61715
 30
0.0
 11
2077.4467789999999
 21
7440.61715
 31
0.0
  0
LINE
  5
7AE5
  8
1
  6
CONTINUOUS
 10
2052.446778999999
 20
7692.61715
 30
0.0
 11
2052.446778999999
 21
8642.6171499999982
 31
0.0
  0
LINE
  5
7AE6
  8
1
  6
CONTINUOUS
 10
2002.4467790000001
 20
7642.6171499999991
 30
0.0
 11
2002.4467790000001
 21
8692.61715
 31
0.0
  0
LINE
  5
7AE7
  8
1
  6
CONTINUOUS
 10
2077.4467789999999
 20
7440.61715
 30
0.0
 11
2077.4467789999999
 21
7692.61715
 31
0.0
  0
LINE
  5
7AE8
  8
1
  6
CONTINUOUS
 10
2077.4467789999999
 20
8642.6171499999982
 30
0.0
 11
2077.4467789999999
 21
8720.61715
 31
0.0
  0
LINE
  5
7AE9
  8
1
  6
CONTINUOUS
 10
3105.4467789999999
 20
7497.61715
 30
0.0
 11
2549.4467789999999
 21
7497.61715
 31
0.0
  0
LINE
  5
7AEA
  8
1
  6
CONTINUOUS
 10
3105.4467789999999
 20
7397.6171500000009
 30
0.0
 11
2549.4467789999999
 21
7397.6171500000009
 31
0.0
  0
LINE
  5
7AEB
  8
1
  6
CONTINUOUS
 10
2549.4467789999999
 20
7397.6171500000009
 30
0.0
 11
2549.4467789999999
 21
7497.61715
 31
0.0
  0
LINE
  5
7AEC
  8
1
  6
CONTINUOUS
 10
2449.4467789999999
 20
7327.61715
 30
0.0
 11
2449.4467789999999
 21
7567.61715
 31
0.0
  0
LINE
  5
7AED
  8
1
  6
CONTINUOUS
 10
2854.9467789999999
 20
7497.61715
 30
0.0
 11
2854.9467789999999
 21
7692.61715
 31
0.0
  0
LINE
  5
7AEE
  8
1
  6
CONTINUOUS
 10
2799.9467789999999
 20
7497.61715
 30
0.0
 11
2799.9467789999999
 21
7692.61715
 31
0.0
  0
LINE
  5
7AEF
  8
1
  6
CONTINUOUS
 10
3105.4467789999999
 20
7397.6171500000009
 30
0.0
 11
3105.4467789999999
 21
7497.61715
 31
0.0
  0
LINE
  5
7AF0
  8
1
  6
CONTINUOUS
 10
2202.4467789999999
 20
8642.6171499999982
 30
0.0
 11
2202.4467789999999
 21
8745.6171499999982
 31
0.0
  0
ARC
  5
7B01
  8
1
  6
CONTINUOUS
 10
4202.4467789999999
 20
3272.8965520000002
 30
0.0
 40
199.0
 50
320.10000000000002
 51
219.90000000000001
  0
CIRCLE
  5
7B02
  8
1
  6
CONTINUOUS
 10
4202.4467789999999
 20
3272.8965520000002
 30
0.0
 40
120.0
  0
LINE
  5
7B03
  8
2
  6
CENTER
 10
4202.4467789999999
 20
3152.8965520000002
 30
0.0
 11
4202.4467789999999
 21
3392.8965520000002
 31
0.0
  0
ARC
  5
7B04
  8
1
  6
CONTINUOUS
 10
4202.4467789999999
 20
3272.8965520000002
 30
0.0
 40
220.0
 50
254.69999999999999
 51
62.399999999999999
  0
LINE
  5
7B05
  8
1
  6
CONTINUOUS
 10
3977.4467789999999
 20
3092.8965520000002
 30
0.0
 11
4427.4467789999999
 21
3092.8965520000002
 31
0.0
  0
LINE
  5
7B06
  8
2
  6
CENTER
 10
4322.446778999999
 20
3272.8965520000002
 30
0.0
 11
4082.4467789999999
 21
3272.8965520000002
 31
0.0
  0
LINE
  5
7B07
  8
1
  6
CONTINUOUS
 10
4040.446778999999
 20
3135.3965520000002
 30
0.0
 11
4049.7467790000001
 21
3145.2965519999998
 31
0.0
  0
LINE
  5
7B08
  8
1
  6
CONTINUOUS
 10
4040.446778999999
 20
3092.8965520000002
 30
0.0
 11
4040.446778999999
 21
3135.3965520000002
 31
0.0
  0
LINE
  5
7B09
  8
1
  6
CONTINUOUS
 10
3977.4467789999999
 20
3037.8965520000002
 30
0.0
 11
3977.4467789999999
 21
3092.8965520000002
 31
0.0
  0
LINE
  5
7B0A
  8
1
  6
CONTINUOUS
 10
4627.4467789999999
 20
3037.8965520000002
 30
0.0
 11
4627.4467789999999
 21
2887.8965520000002
 31
0.0
  0
LINE
  5
7B0B
  8
1
  6
CONTINUOUS
 10
4364.4467789999999
 20
3135.3965520000002
 30
0.0
 11
4355.1467789999997
 21
3145.2965519999998
 31
0.0
  0
LINE
  5
7B0C
  8
1
  6
CONTINUOUS
 10
4364.4467789999999
 20
3092.8965520000002
 30
0.0
 11
4304.4467789999999
 21
3092.8965520000002
 31
0.0
  0
LINE
  5
7B0D
  8
1
  6
CONTINUOUS
 10
4364.4467789999999
 20
3092.8965520000002
 30
0.0
 11
4364.4467789999999
 21
3135.3965520000002
 31
0.0
  0
LINE
  5
7B0E
  8
1
  6
CONTINUOUS
 10
4427.4467789999999
 20
3037.8965520000002
 30
0.0
 11
4427.4467789999999
 21
3092.8965520000002
 31
0.0
  0
LINE
  5
7B0F
  8
1
  6
CONTINUOUS
 10
4627.4467789999999
 20
2868.8965520000002
 30
0.0
 11
4627.4467789999999
 21
2793.8965520000002
 31
0.0
  0
LINE
  5
7B30
  8
1
  6
CONTINUOUS
 10
4627.4467789999999
 20
8720.61715
 30
0.0
 11
4627.4467789999999
 21
7440.61715
 31
0.0
  0
LINE
  5
7B31
  8
1
  6
CONTINUOUS
 10
3909.9467789999999
 20
7692.61715
 30
0.0
 11
3909.9467789999999
 21
8642.6171499999982
 31
0.0
  0
LINE
  5
7B32
  8
1
  6
CONTINUOUS
 10
4174.946778999999
 20
7497.61715
 30
0.0
 11
4174.946778999999
 21
7612.11715
 31
0.0
  0
LINE
  5
7B33
  8
1
  6
CONTINUOUS
 10
4229.9467789999999
 20
7497.61715
 30
0.0
 11
4229.9467789999999
 21
7612.11715
 31
0.0
  0
LINE
  5
7B34
  8
1
  6
CONTINUOUS
 10
4322.446778999999
 20
7497.61715
 30
0.0
 11
4082.4467789999999
 21
7497.61715
 31
0.0
  0
LINE
  5
7B35
  8
1
  6
CONTINUOUS
 10
4322.446778999999
 20
7397.6171500000009
 30
0.0
 11
4082.4467789999999
 21
7397.6171500000009
 31
0.0
  0
LINE
  5
7B36
  8
1
  6
CONTINUOUS
 10
4082.4467789999999
 20
7397.6171500000009
 30
0.0
 11
4082.4467789999999
 21
7497.61715
 31
0.0
  0
LINE
  5
7B37
  8
1
  6
CONTINUOUS
 10
4627.4467789999999
 20
7440.61715
 30
0.0
 11
4322.446778999999
 21
7440.61715
 31
0.0
  0
LINE
  5
7B38
  8
1
  6
CONTINUOUS
 10
4322.446778999999
 20
7397.6171500000009
 30
0.0
 11
4322.446778999999
 21
7497.61715
 31
0.0
  0
LINE
  5
7B39
  8
1
  6
CONTINUOUS
 10
4522.4467789999999
 20
7327.61715
 30
0.0
 11
4522.4467789999999
 21
7567.61715
 31
0.0
  0
LINE
  5
7B3A
  8
1
  6
CONTINUOUS
 10
4401.5467790000002
 20
8211.61715
 30
0.0
 11
4003.346779
 21
8211.61715
 31
0.0
  0
LINE
  5
7B3B
  8
1
  6
CONTINUOUS
 10
4401.5467790000002
 20
7612.11715
 30
0.0
 11
4003.346779
 21
7612.11715
 31
0.0
  0
LINE
  5
7B3C
  8
1
  6
CONTINUOUS
 10
4003.346779
 20
7612.11715
 30
0.0
 11
4003.346779
 21
8211.61715
 31
0.0
  0
LINE
  5
7B3D
  8
1
  6
CONTINUOUS
 10
4401.5467790000002
 20
7612.11715
 30
0.0
 11
4401.5467790000002
 21
8211.61715
 31
0.0
  0
LINE
  5
7B3E
  8
1
  6
CONTINUOUS
 10
3452.4467789999999
 20
8720.61715
 30
0.0
 11
4627.4467789999999
 21
8720.61715
 31
0.0
  0
LINE
  5
7B3F
  8
1
  6
CONTINUOUS
 10
3452.4467789999999
 20
8642.6171499999982
 30
0.0
 11
3452.4467789999999
 21
8745.6171499999982
 31
0.0
  0
LINE
  5
7B5F
  8
1
  6
CONTINUOUS
 10
6915.9012230000017
 20
2868.8965520000002
 30
0.0
 11
5635.9012229999998
 21
2868.8965520000002
 31
0.0
  0
LINE
  5
7B60
  8
1
  6
CONTINUOUS
 10
6915.9012230000017
 20
2793.8965520000002
 30
0.0
 11
5635.9012229999998
 21
2793.8965520000002
 31
0.0
  0
LINE
  5
7B61
  8
1
  6
CONTINUOUS
 10
5887.9012229999998
 20
5146.8965520000011
 30
0.0
 11
6837.9012230000017
 21
3866.8965520000002
 31
0.0
  0
LINE
  5
7B62
  8
1
  6
CONTINUOUS
 10
5887.9012229999998
 20
3866.8965520000002
 30
0.0
 11
6837.9012230000017
 21
5146.8965520000011
 31
0.0
  0
LINE
  5
7B63
  8
1
  6
CONTINUOUS
 10
5887.9012229999998
 20
3866.8965520000002
 30
0.0
 11
6837.9012230000017
 21
3866.8965520000002
 31
0.0
  0
LINE
  5
7B64
  8
1
  6
CONTINUOUS
 10
5887.9012229999998
 20
5146.8965520000011
 30
0.0
 11
6837.9012230000017
 21
5146.8965520000011
 31
0.0
  0
LINE
  5
7B65
  8
1
  6
CONTINUOUS
 10
6915.9012230000017
 20
3037.8965520000002
 30
0.0
 11
5635.9012229999998
 21
3037.8965520000002
 31
0.0
  0
LINE
  5
7B66
  8
1
  6
CONTINUOUS
 10
6915.9012230000017
 20
2887.8965520000002
 30
0.0
 11
5635.9012229999998
 21
2887.8965520000002
 31
0.0
  0
LINE
  5
7B67
  8
1
  6
CONTINUOUS
 10
5762.9012229999998
 20
3052.8965520000002
 30
0.0
 11
5762.9012229999998
 21
4190.8965520000002
 31
0.0
  0
LINE
  5
7B68
  8
1
  6
CONTINUOUS
 10
5522.9012229999998
 20
3052.8965520000002
 30
0.0
 11
5522.9012229999998
 21
4190.8965520000002
 31
0.0
  0
LINE
  5
7B69
  8
1
  6
CONTINUOUS
 10
5887.9012229999998
 20
3037.8965520000002
 30
0.0
 11
5887.9012229999998
 21
5146.8965520000011
 31
0.0
  0
LINE
  5
7B6A
  8
1
  6
CONTINUOUS
 10
5692.9012229999989
 20
3300.3965520000002
 30
0.0
 11
5887.9012229999998
 21
3300.3965520000002
 31
0.0
  0
LINE
  5
7B6B
  8
1
  6
CONTINUOUS
 10
5692.9012229999989
 20
3245.3965520000002
 30
0.0
 11
5887.9012229999998
 21
3245.3965520000002
 31
0.0
  0
LINE
  5
7B6C
  8
1
  6
CONTINUOUS
 10
5692.9012229999989
 20
3785.3965520000002
 30
0.0
 11
5887.9012229999998
 21
3785.3965520000002
 31
0.0
  0
LINE
  5
7B6D
  8
1
  6
CONTINUOUS
 10
5692.9012229999989
 20
3840.3965519999988
 30
0.0
 11
5887.9012229999998
 21
3840.3965519999988
 31
0.0
  0
LINE
  5
7B6E
  8
1
  6
CONTINUOUS
 10
5592.9012229999998
 20
3152.8965520000002
 30
0.0
 11
5592.9012229999998
 21
3392.8965520000002
 31
0.0
  0
LINE
  5
7B6F
  8
1
  6
CONTINUOUS
 10
5692.9012229999989
 20
3152.8965520000002
 30
0.0
 11
5692.9012229999989
 21
3392.8965520000002
 31
0.0
  0
LINE
  5
7B72
  8
1
  6
CONTINUOUS
 10
5635.9012229999998
 20
2793.8965520000002
 30
0.0
 11
5635.9012229999998
 21
2868.8965520000002
 31
0.0
  0
LINE
  5
7B73
  8
1
  6
CONTINUOUS
 10
5522.9012229999998
 20
3052.8965520000002
 30
0.0
 11
5762.9012229999998
 21
3052.8965520000002
 31
0.0
  0
LINE
  5
7B74
  8
1
  6
CONTINUOUS
 10
5592.9012229999998
 20
3152.8965520000002
 30
0.0
 11
5692.9012229999989
 21
3152.8965520000002
 31
0.0
  0
LINE
  5
7B75
  8
1
  6
CONTINUOUS
 10
5635.9012229999998
 20
2887.8965520000002
 30
0.0
 11
5635.9012229999998
 21
3037.8965520000002
 31
0.0
  0
LINE
  5
7B76
  8
1
  6
CONTINUOUS
 10
5692.9012229999989
 20
3534.8965520000002
 30
0.0
 11
5692.9012229999989
 21
4090.8965520000002
 31
0.0
  0
LINE
  5
7B77
  8
1
  6
CONTINUOUS
 10
5592.9012229999998
 20
3534.8965520000002
 30
0.0
 11
5592.9012229999998
 21
4090.8965520000002
 31
0.0
  0
LINE
  5
7B78
  8
1
  6
CONTINUOUS
 10
5592.9012229999998
 20
3534.8965520000002
 30
0.0
 11
5692.9012229999989
 21
3534.8965520000002
 31
0.0
  0
LINE
  5
7B79
  8
1
  6
CONTINUOUS
 10
5592.9012229999998
 20
4090.8965520000002
 30
0.0
 11
5692.9012229999989
 21
4090.8965520000002
 31
0.0
  0
LINE
  5
7B7A
  8
1
  6
CONTINUOUS
 10
5592.9012229999998
 20
3392.8965520000002
 30
0.0
 11
5692.9012229999989
 21
3392.8965520000002
 31
0.0
  0
LINE
  5
7B7B
  8
1
  6
CONTINUOUS
 10
5522.9012229999998
 20
4190.8965520000002
 30
0.0
 11
5762.9012229999998
 21
4190.8965520000002
 31
0.0
  0
LINE
  5
7B7C
  8
1
  6
CONTINUOUS
 10
6940.9012230000008
 20
3137.8965520000002
 30
0.0
 11
6940.9012230000008
 21
4487.8965520000002
 31
0.0
  0
LINE
  5
7B7D
  8
1
  6
CONTINUOUS
 10
6837.9012230000017
 20
3037.8965520000002
 30
0.0
 11
6837.9012230000017
 21
5146.8965520000011
 31
0.0
  0
LINE
  5
7B7E
  8
1
  6
CONTINUOUS
 10
6915.9012230000017
 20
2793.8965520000002
 30
0.0
 11
6915.9012230000017
 21
2868.8965520000002
 31
0.0
  0
LINE
  5
7B7F
  8
1
  6
CONTINUOUS
 10
6837.9012230000017
 20
3187.8965520000002
 30
0.0
 11
6940.9012230000008
 21
3187.8965520000002
 31
0.0
  0
LINE
  5
7B80
  8
1
  6
CONTINUOUS
 10
6915.9012230000017
 20
2887.8965520000002
 30
0.0
 11
6915.9012230000017
 21
3037.8965520000002
 31
0.0
  0
LINE
  5
7B81
  8
1
  6
CONTINUOUS
 10
6837.9012230000017
 20
4437.8965520000002
 30
0.0
 11
6940.9012230000008
 21
4437.8965520000002
 31
0.0
  0
LINE
  5
7B82
  8
2
  6
CENTER
 10
4751.2739309999997
 20
8167.6171499999991
 30
0.0
 11
1781.2053840000001
 21
8167.6171499999991
 31
0.0
  0
LINE
  5
7B83
  8
2
  6
CENTER
 10
6362.9012229999998
 20
5360.4235550000003
 30
0.0
 11
6362.9012229999998
 21
2525.8559519999999
 31
0.0
  0
LINE
  5
7B84
  8
2
  6
CENTER
 10
2827.4467789999999
 20
7155.8077769999991
 30
0.0
 11
2827.4467789999999
 21
8946.2727040000009
 31
0.0
  0
LINE
  5
7B85
  8
2
  6
CENTER
 10
4211.1110349999999
 20
3812.8965520000002
 30
0.0
 11
1822.3902309999989
 21
3812.8965520000002
 31
0.0
  0
LINE
  5
7B86
  8
4
  6
CONTINUOUS
 10
7400.0
 20
2000.0
 30
0.0
 11
7400.0
 21
1200.0
 31
0.0
  0
LINE
  5
7B87
  8
4
  6
CONTINUOUS
 10
4600.0
 20
2000.0
 30
0.0
 11
4600.0
 21
1200.0
 31
0.0
  0
LINE
  5
7B88
  8
4
  6
CONTINUOUS
 10
2600.0
 20
2000.0
 30
0.0
 11
2600.0
 21
1200.0
 31
0.0
  0
LINE
  5
7B8B
  8
4
  6
CONTINUOUS
 10
2600.0
 20
1200.0
 30
0.0
 11
7400.0
 21
1200.0
 31
0.0
  0
LINE
  5
7B8C
  8
4
  6
CONTINUOUS
 10
2600.0
 20
1600.0
 30
0.0
 11
7400.0
 21
1600.0
 31
0.0
  0
TEXT
  5
7B8D
  8
4
  6
CONTINUOUS
 10
2754.008323
 20
1726.1721030000001
 30
0.0
 40
200.0
  1
機器名称
  0
TEXT
  5
7B8E
  8
4
  6
CONTINUOUS
 10
2745.032424
 20
1286.580627
 30
0.0
 40
200.0
  1
機器型番
  0
TEXT
  5
7B8F
  8
4
  6
CONTINUOUS
 10
4710.7149820000004
 20
1690.2870760000001
 30
0.0
 40
200.0
  1
ミツヤ多翼送風機
  0
TEXT
  5
7B90
  8
4
  6
CONTINUOUS
 10
4746.6179819999998
 20
1268.6383370000001
 30
0.0
 40
200.0
  1
MF#8-4
  0
TEXT
  5
7B92
  8
4
  6
CONTINUOUS
 10
3138.9245460000002
 20
9533.715365
 30
0.0
 40
216.0
  1
床置防振ベット
  0
TEXT
  5
7B93
  8
4
  6
CONTINUOUS
 10
1264.6703729999999
 20
10135.523905
 30
0.0
 40
288.0
  1
ベルト駆動式片吸込両持多翼ファン
  0
LINE
  5
7B94
  8
4
  6
CONTINUOUS
 10
1000.0
 20
9877.6350170000005
 30
0.0
 11
7400.0
 21
9877.6350170000005
 31
0.0
  0
LINE
  5
7B95
  8
4
  6
CONTINUOUS
 10
1000.0
 20
10677.635017000001
 30
0.0
 11
7400.0
 21
10677.635017000001
 31
0.0
  0
LINE
  5
7B96
  8
4
  6
CONTINUOUS
 10
2600.0
 20
2000.0
 30
0.0
 11
7400.0
 21
2000.0
 31
0.0
  0
LINE
  5
7B97
  8
4
  6
CONTINUOUS
 10
1000.0
 20
10677.635017000001
 30
0.0
 11
1000.0
 21
9877.6350170000005
 31
0.0
  0
TEXT
  5
7B98
  8
4
  6
CONTINUOUS
 10
1395.4892170000001
 20
9529.2779099999989
 30
0.0
 40
216.0
  1
左回転左横向
  0
TEXT
  5
7B99
  8
4
  6
CONTINUOUS
 10
5875.8782369999999
 20
10824.244326
 30
0.0
 40
224.0
  1
No.
  0
TEXT
  5
7B9A
  8
4
  6
CONTINUOUS
 10
5245.1842500000012
 20
9533.715365
 30
0.0
 40
216.0
  1
縮尺：1/40
  0
LINE
  5
7B9B
  8
4
  6
CONTINUOUS
 10
7400.0
 20
10677.635017000001
 30
0.0
 11
7400.0
 21
9877.6350170000005
 31
0.0
  0
LINE
  5
7B9D
  8
4
  6
CONTINUOUS
 10
5762.4696889999996
 20
10725.054333
 30
0.0
 11
5762.4696889999996
 21
11146.609046
 31
0.0
  0
LINE
  5
7B9E
  8
4
  6
CONTINUOUS
 10
5762.4696889999996
 20
11146.609046
 30
0.0
 11
7400.0
 21
11146.609046
 31
0.0
  0
LINE
  5
7B9F
  8
4
  6
CONTINUOUS
 10
7400.0
 20
11146.609046
 30
0.0
 11
7400.0
 21
10725.054333
 31
0.0
  0
LINE
  5
7BA0
  8
4
  6
CONTINUOUS
 10
7400.0
 20
10725.054333
 30
0.0
 11
5762.4696889999996
 21
10725.054333
 31
0.0
  0
DIMENSION
  5
7BB8
  8
3
  6
CONTINUOUS
  2
*D1
 10
1817.81674
 20
3866.8965520000002
 30
0.0
 11
1817.8167399999991
 21
4533.6259849999997
 31
0.0
 70
   128
 13
2002.4467790000001
 23
5146.8965520000011
 33
0.0
 14
2002.4467790000001
 24
3866.8965520000002
 34
0.0
 50
90.0
1001
ACAD
1000
DSTYLE
1002
{
1070
   287
1070
     3
1070
    40
1040
40.0
1070
   143
1040
0.039
1070
   172
1070
     1
1070
   271
1070
     0
1070
   279
1070
     0
1070
   288
1070
     1
1002
}
  0
DIMENSION
  5
7BC5
  8
3
  6
CONTINUOUS
  2
*D2
 10
1552.4808849999999
 20
3812.8965520000002
 30
0.0
 11
1552.4808849999999
 21
4533.6259849999997
 31
0.0
 70
   128
 13
2002.4467790000001
 23
5146.8965520000011
 33
0.0
 14
1822.3902309999989
 24
3812.8965520000002
 34
0.0
 50
90.0
1001
ACAD
1000
DSTYLE
1002
{
1070
   287
1070
     3
1070
    40
1040
40.0
1070
   143
1040
0.039
1070
   172
1070
     1
1070
   271
1070
     0
1070
   279
1070
     0
1070
   288
1070
     1
1002
}
  0
DIMENSION
  5
7BDF
  8
3
  6
CONTINUOUS
  2
*D3
 10
1552.4808849999999
 20
2887.8965520000002
 30
0.0
 11
1452.480884999999
 21
3350.3965520000011
 31
0.0
 70
     0
 13
1822.3902309999989
 23
3812.8965520000002
 33
0.0
 14
2077.4467789999999
 24
2887.8965520000002
 34
0.0
 50
90.0
1001
ACAD
1000
DSTYLE
1002
{
1070
   287
1070
     4
1070
    40
1040
40.0
1070
    75
1070
     1
1070
   143
1040
0.039
1070
   172
1070
     1
1070
   271
1070
     0
1070
   279
1070
     1
1070
   288
1070
     1
1002
}
  0
DIMENSION
  5
7BEF
  8
3
  6
CONTINUOUS
  2
*D4
 10
1549.1621299999999
 20
2793.8965520000002
 30
0.0
 11
1549.1621299999999
 21
2493.8965520000002
 31
0.0
 70
   128
 13
2077.4467789999999
 23
2887.8965520000002
 33
0.0
 14
2077.4467789999999
 24
2793.8965520000002
 34
0.0
 50
90.0
1001
ACAD
1000
DSTYLE
1002
{
1070
   287
1070
     3
1070
    40
1040
40.0
1070
   143
1040
0.039
1070
   172
1070
     1
1070
   271
1070
     0
1070
   279
1070
     0
1070
   288
1070
     1
1002
}
  0
DIMENSION
  5
7BFC
  8
3
  6
CONTINUOUS
  2
*D5
 10
1324.226911
 20
2793.8965520000002
 30
0.0
 11
1324.226911
 21
3951.9483719999998
 31
0.0
 70
   128
 13
2002.4467790000001
 23
5202.8965520000002
 33
0.0
 14
2077.4467789999999
 24
2793.8965520000002
 34
0.0
 50
90.0
1001
ACAD
1000
DSTYLE
1002
{
1070
   287
1070
     3
1070
    40
1040
40.0
1070
   143
1040
0.039
1070
   172
1070
     1
1070
   271
1070
     0
1070
   279
1070
     0
1070
   288
1070
     1
1002
}
  0
DIMENSION
  5
7C09
  8
3
  6
CONTINUOUS
  2
*D6
 10
2827.4467789999999
 20
2473.13861
 30
0.0
 11
2416.9622180000001
 21
2473.13861
 31
0.0
 70
   128
 13
2077.4467789999999
 23
2793.8965520000002
 33
0.0
 14
2827.4467789999999
 24
2561.9878819999999
 34
0.0
1001
ACAD
1000
DSTYLE
1002
{
1070
   287
1070
     3
1070
    40
1040
40.0
1070
   143
1040
0.039
1070
   172
1070
     1
1070
   271
1070
     0
1070
   279
1070
     0
1070
   288
1070
     1
1002
}
  0
DIMENSION
  5
7C15
  8
3
  6
CONTINUOUS
  2
*D7
 10
4627.4467789999999
 20
2473.13861
 30
0.0
 11
3727.4467789999999
 21
2573.13861
 31
0.0
 70
     0
 13
2827.4467789999999
 23
2561.9878819999999
 33
0.0
 14
4627.4467789999999
 24
2793.8965520000002
 34
0.0
1001
ACAD
1000
DSTYLE
1002
{
1070
   287
1070
     4
1070
    40
1040
40.0
1070
    75
1070
     1
1070
   143
1040
0.039
1070
   172
1070
     1
1070
   271
1070
     0
1070
   279
1070
     1
1070
   288
1070
     1
1002
}
  0
DIMENSION
  5
7C22
  8
3
  6
CONTINUOUS
  2
*D8
 10
2827.4467789999999
 20
5431.8046199999999
 30
0.0
 11
2399.8437760000002
 21
5431.8046199999999
 31
0.0
 70
   128
 13
2002.4467790000001
 23
5202.8965520000002
 33
0.0
 14
2827.4467789999999
 24
5316.1840460000003
 34
0.0
1001
ACAD
1000
DSTYLE
1002
{
1070
   287
1070
     3
1070
    40
1040
40.0
1070
   143
1040
0.039
1070
   172
1070
     1
1070
   271
1070
     0
1070
   279
1070
     0
1070
   288
1070
     1
1002
}
  0
DIMENSION
  5
7C3B
  8
3
  6
CONTINUOUS
  2
*D9
 10
6837.9012230000017
 20
5346.2638040000002
 30
0.0
 11
6362.8031819999997
 21
5346.2638040000002
 31
0.0
 70
   128
 13
5887.9012229999998
 23
5146.8965520000011
 33
0.0
 14
6837.9012230000017
 24
5146.8965520000011
 34
0.0
1001
ACAD
1000
DSTYLE
1002
{
1070
   287
1070
     3
1070
    40
1040
40.0
1070
   143
1040
0.039
1070
   172
1070
     1
1070
   271
1070
     0
1070
   279
1070
     0
1070
   288
1070
     1
1002
}
  0
DIMENSION
  5
7C48
  8
3
  6
CONTINUOUS
  2
*D10
 10
7252.9622200000022
 20
3187.8965519999988
 30
0.0
 11
7252.9622200000003
 21
3815.0830719999999
 31
0.0
 70
   128
 13
6940.9012230000008
 23
4437.8965520000002
 33
0.0
 14
6940.9012230000008
 24
3187.8965520000002
 34
0.0
 50
90.0
1001
ACAD
1000
DSTYLE
1002
{
1070
   287
1070
     3
1070
     3
1000
φ<>
1070
    40
1040
40.0
1070
   143
1040
0.039
1070
   172
1070
     1
1070
   271
1070
     0
1070
   279
1070
     0
1070
   288
1070
     1
1002
}
  0
DIMENSION
  5
7C55
  8
3
  6
CONTINUOUS
  2
*D11
 10
6362.9012229999998
 20
5594.3321889999997
 30
0.0
 11
6637.1869370000004
 21
5594.3321889999997
 31
0.0
 70
   128
 13
6940.9012230000008
 23
4487.8965520000002
 33
0.0
 14
6362.9012229999998
 24
5536.105822999999
 34
0.0
1001
ACAD
1000
DSTYLE
1002
{
1070
   287
1070
     3
1070
    40
1040
40.0
1070
   143
1040
0.039
1070
   172
1070
     1
1070
   271
1070
     0
1070
   279
1070
     0
1070
   288
1070
     1
1002
}
  0
DIMENSION
  5
7C61
  8
3
  6
CONTINUOUS
  2
*D12
 10
5522.9012229999998
 20
5594.3321889999997
 30
0.0
 11
5942.9012229999989
 21
5794.3321889999997
 31
0.0
 70
     0
  1
MAX\P890
 13
6362.9012229999998
 23
5536.105822999999
 33
0.0
 14
5522.9012229999998
 24
4190.8965520000002
 34
0.0
1001
ACAD
1000
DSTYLE
1002
{
1070
   287
1070
     4
1070
    40
1040
40.0
1070
    75
1070
     1
1070
   143
1040
0.039
1070
   172
1070
     1
1070
   271
1070
     0
1070
   279
1070
     1
1070
   288
1070
     1
1002
}
  0
DIMENSION
  5
7C6E
  8
3
  6
CONTINUOUS
  2
*D13
 10
6362.9012229999998
 20
2420.5218850000001
 30
0.0
 11
6020.4343369999997
 21
2420.5218850000001
 31
0.0
 70
   128
 13
5635.9012229999998
 23
2793.8965520000002
 33
0.0
 14
6362.9012229999998
 24
2525.8559519999999
 34
0.0
1001
ACAD
1000
DSTYLE
1002
{
1070
   287
1070
     3
1070
    40
1040
40.0
1070
   143
1040
0.039
1070
   172
1070
     1
1070
   271
1070
     0
1070
   279
1070
     0
1070
   288
1070
     1
1002
}
  0
DIMENSION
  5
7C7A
  8
3
  6
CONTINUOUS
  2
*D14
 10
6915.9012230000017
 20
2420.5218850000001
 30
0.0
 11
6639.4012230000008
 21
2520.5218850000001
 31
0.0
 70
     0
 13
6362.9012229999998
 23
2525.8559519999999
 33
0.0
 14
6915.9012230000017
 24
2793.8965520000002
 34
0.0
1001
ACAD
1000
DSTYLE
1002
{
1070
   287
1070
     4
1070
    40
1040
40.0
1070
    75
1070
     1
1070
   143
1040
0.039
1070
   172
1070
     1
1070
   271
1070
     0
1070
   279
1070
     1
1070
   288
1070
     1
1002
}
  0
DIMENSION
  5
7C9C
  8
3
  6
CONTINUOUS
  2
*D15
 10
4627.4467789999999
 20
6989.7890589999997
 30
0.0
 11
3324.2396989999988
 21
6989.7890589999997
 31
0.0
 70
   128
 13
2077.4467789999999
 23
7440.61715
 33
0.0
 14
4627.4467789999999
 24
7440.61715
 34
0.0
1001
ACAD
1000
DSTYLE
1002
{
1070
   287
1070
     3
1070
    40
1040
40.0
1070
   143
1040
0.039
1070
   172
1070
     1
1070
   271
1070
     0
1070
   279
1070
     0
1070
   288
1070
     1
1002
}
  0
DIMENSION
  5
7CA9
  8
3
  6
CONTINUOUS
  2
*D16
 10
4990.5772070000012
 20
7440.61715
 30
0.0
 11
4990.5772070000012
 21
8007.7248689999997
 31
0.0
 70
   128
 13
4627.4467789999999
 23
8720.61715
 33
0.0
 14
4622.446778999999
 24
7440.61715
 34
0.0
 50
90.0
1001
ACAD
1000
DSTYLE
1002
{
1070
   287
1070
     3
1070
    40
1040
40.0
1070
   143
1040
0.039
1070
   172
1070
     1
1070
   271
1070
     0
1070
   279
1070
     0
1070
   288
1070
     1
1002
}
  0
DIMENSION
  5
7CF9
  8
3
  6
CONTINUOUS
  2
*D17
 10
3906.4467789999999
 20
5431.8046199999999
 30
0.0
 11
3366.9467789999999
 21
5531.804619999999
 31
0.0
 70
     0
 13
2827.4467789999999
 23
5316.1840460000003
 33
0.0
 14
3906.4467789999999
 24
3812.8965520000002
 34
0.0
1001
ACAD
1000
DSTYLE
1002
{
1070
   287
1070
     4
1070
    40
1040
40.0
1070
    75
1070
     1
1070
   143
1040
0.039
1070
   172
1070
     1
1070
   271
1070
     0
1070
   279
1070
     1
1070
   288
1070
     1
1002
}
  0
DIMENSION
  5
7D58
  8
3
  2
*D18
 10
4627.4467789999999
 20
5662.4824198726201
 30
0.0
 11
3199.809124376814
 21
5662.4824198726201
 31
0.0
 70
   128
 13
2002.4467790000001
 23
5202.8965520000002
 33
0.0
 14
4627.4467789999999
 24
3037.8965520000002
 34
0.0
1001
ACAD
1000
DSTYLE
1002
{
1070
   287
1070
     3
1070
    40
1040
40.0
1070
   143
1040
0.039
1070
   172
1070
     1
1070
   271
1070
     0
1070
   279
1070
     0
1070
   288
1070
     1
1002
}
  0
ENDSEC
  0
EOF
