  0
SECTION
  2
HEADER
  9
$ACADVER
  1
AC1009
  9
$INSBASE
 10
0.0
 20
0.0
 30
0.0
  9
$EXTMIN
 10
0.0
 20
0.0
 30
0.0
  9
$EXTMAX
 10
10500.0
 20
14750.0
 30
0.0
  9
$LIMMIN
 10
0.0
 20
0.0
  9
$LIMMAX
 10
297.0
 20
210.0
  9
$ORTHOMODE
 70
     0
  9
$REGENMODE
 70
     1
  9
$FILLMODE
 70
     0
  9
$QTEXTMODE
 70
     0
  9
$MIRRTEXT
 70
     1
  9
$DRAGMODE
 70
     2
  9
$LTSCALE
 40
100.0
  9
$OSMODE
 70
    37
  9
$ATTMODE
 70
     1
  9
$TEXTSIZE
 40
180.0
  9
$TRACEWID
 40
0.05
  9
$TEXTSTYLE
  7
STANDARD
  9
$CLAYER
  8
3
  9
$CELTYPE
  6
BYLAYER
  9
$CECOLOR
 62
   256
  9
$DIMSCALE
 40
50.0
  9
$DIMASZ
 40
2.0
  9
$DIMEXO
 40
0.5
  9
$DIMDLI
 40
10.0
  9
$DIMRND
 40
0.0
  9
$DIMDLE
 40
0.0
  9
$DIMEXE
 40
1.0
  9
$DIMTP
 40
1.0
  9
$DIMTM
 40
1.0
  9
$DIMTXT
 40
3.0
  9
$DIMCEN
 40
0.0
  9
$DIMTSZ
 40
0.0
  9
$DIMTOL
 70
     0
  9
$DIMLIM
 70
     0
  9
$DIMTIH
 70
     0
  9
$DIMTOH
 70
     0
  9
$DIMSE1
 70
     0
  9
$DIMSE2
 70
     0
  9
$DIMTAD
 70
     1
  9
$DIMZIN
 70
     8
  9
$DIMBLK
  1

  9
$DIMASO
 70
     1
  9
$DIMSHO
 70
     1
  9
$DIMPOST
  1
(<>)
  9
$DIMAPOST
  1

  9
$DIMALT
 70
     0
  9
$DIMALTD
 70
     2
  9
$DIMALTF
 40
0.039
  9
$DIMLFAC
 40
1.0
  9
$DIMTOFL
 70
     1
  9
$DIMTVP
 40
0.0
  9
$DIMTIX
 70
     0
  9
$DIMSOXD
 70
     0
  9
$DIMSAH
 70
     1
  9
$DIMBLK1
  1
OPEN
  9
$DIMBLK2
  1
OPEN
  9
$DIMSTYLE
  2
IGA
  9
$DIMCLRD
 70
     0
  9
$DIMCLRE
 70
     0
  9
$DIMCLRT
 70
     0
  9
$DIMTFAC
 40
10.0
  9
$DIMGAP
 40
1.0
  9
$LUNITS
 70
     2
  9
$LUPREC
 70
     3
  9
$SKETCHINC
 40
0.1
  9
$FILLETRAD
 40
50.0
  9
$AUNITS
 70
     0
  9
$AUPREC
 70
     0
  9
$MENU
  1
acad
  9
$ELEVATION
 40
0.0
  9
$PELEVATION
 40
0.0
  9
$THICKNESS
 40
0.0
  9
$LIMCHECK
 70
     0
  9
$BLIPMODE
 70
     0
  9
$CHAMFERA
 40
0.5
  9
$CHAMFERB
 40
0.5
  9
$SKPOLY
 70
     0
  9
$TDCREATE
 40
2452321.3884343752
  9
$TDUPDATE
 40
2454953.7491330202
  9
$TDINDWG
 40
0.0335865278
  9
$TDUSRTIMER
 40
0.0335865278
  9
$USRTIMER
 70
     1
  9
$ANGBASE
 50
0.0
  9
$ANGDIR
 70
     0
  9
$PDMODE
 70
     0
  9
$PDSIZE
 40
0.0
  9
$PLINEWID
 40
0.0
  9
$COORDS
 70
     1
  9
$SPLFRAME
 70
     0
  9
$SPLINETYPE
 70
     6
  9
$SPLINESEGS
 70
     8
  9
$ATTDIA
 70
     0
  9
$ATTREQ
 70
     1
  9
$HANDLING
 70
 10241
  9
$HANDSEED
  5
8AFD
  9
$SURFTAB1
 70
     6
  9
$SURFTAB2
 70
     6
  9
$SURFTYPE
 70
     6
  9
$SURFU
 70
     6
  9
$SURFV
 70
     6
  9
$UCSNAME
  2

  9
$UCSORG
 10
0.0
 20
0.0
 30
0.0
  9
$UCSXDIR
 10
1.0
 20
0.0
 30
0.0
  9
$UCSYDIR
 10
0.0
 20
1.0
 30
0.0
  9
$PUCSNAME
  2

  9
$PUCSORG
 10
0.0
 20
0.0
 30
0.0
  9
$PUCSXDIR
 10
1.0
 20
0.0
 30
0.0
  9
$PUCSYDIR
 10
0.0
 20
1.0
 30
0.0
  9
$USERI1
 70
     0
  9
$USERI2
 70
     0
  9
$USERI3
 70
     0
  9
$USERI4
 70
     0
  9
$USERI5
 70
     0
  9
$USERR1
 40
0.0
  9
$USERR2
 40
0.0
  9
$USERR3
 40
0.0
  9
$USERR4
 40
0.0
  9
$USERR5
 40
0.0
  9
$WORLDVIEW
 70
     1
  9
$SHADEDGE
 70
     3
  9
$SHADEDIF
 70
    70
  9
$TILEMODE
 70
     1
  9
$MAXACTVP
 70
    16
  9
$PLIMCHECK
 70
     0
  9
$PEXTMIN
 10
1.0000000000000000E+020
 20
1.0000000000000000E+020
 30
1.0000000000000000E+020
  9
$PEXTMAX
 10
-1.0000000000000000E+020
 20
-1.0000000000000000E+020
 30
-1.0000000000000000E+020
  9
$PLIMMIN
 10
0.0
 20
0.0
  9
$PLIMMAX
 10
12.0
 20
9.0
  9
$UNITMODE
 70
     0
  9
$VISRETAIN
 70
     0
  9
$PLINEGEN
 70
     0
  9
$PSLTSCALE
 70
     1
  0
ENDSEC
  0
SECTION
  2
TABLES
  0
TABLE
  2
VPORT
 70
     2
  0
VPORT
  2
*ACTIVE
 70
     0
 10
0.0
 20
0.0
 11
1.0
 21
1.0
 12
17683.04979425684
 22
7375.000034342519
 13
0.0
 23
0.0
 14
10.0
 24
10.0
 15
10.0
 25
10.0
 16
0.0
 26
0.0
 36
1.0
 17
0.0
 27
0.0
 37
0.0
 40
14863.074415084669
 41
3.1666666666666661
 42
50.0
 43
0.0
 44
0.0
 50
0.0
 51
0.0
 71
     0
 72
   100
 73
     1
 74
     0
 75
     0
 76
     0
 77
     0
 78
     0
  0
ENDTAB
  0
TABLE
  2
LTYPE
 70
     2
  0
LTYPE
  2
CONTINUOUS
 70
     0
  3
Solid line
 72
    65
 73
     0
 40
0.0
  0
LTYPE
  2
CENTER
 70
     0
  3
____ _ ____ _ ____ _ ____ _ ____ _ ____ _ ____ 
 72
    65
 73
     4
 40
2.0
 49
1.25
 49
-0.25
 49
0.25
 49
-0.25
  0
ENDTAB
  0
TABLE
  2
LAYER
 70
     6
  0
LAYER
  2
0
 70
     0
 62
     7
  6
CONTINUOUS
  0
LAYER
  2
3
 70
     0
 62
     2
  6
CONTINUOUS
  0
LAYER
  2
2
 70
     0
 62
     3
  6
CENTER
  0
LAYER
  2
1
 70
     0
 62
     4
  6
CONTINUOUS
  0
LAYER
  2
4
 70
     0
 62
     7
  6
CONTINUOUS
  0
LAYER
  2
DEFPOINTS
 70
     0
 62
     7
  6
CONTINUOUS
  0
ENDTAB
  0
TABLE
  2
STYLE
 70
     1
  0
STYLE
  2
STANDARD
 70
     0
 40
0.0
 41
1.0
 50
0.0
 71
     0
 42
180.0
  3
simplex.shx
  4
extfont.shx
  0
ENDTAB
  0
TABLE
  2
VIEW
 70
     0
  0
ENDTAB
  0
TABLE
  2
UCS
 70
     0
  0
ENDTAB
  0
TABLE
  2
APPID
 70
     1
  0
APPID
  2
ACAD
 70
     0
  0
ENDTAB
  0
TABLE
  2
DIMSTYLE
 70
     1
  0
DIMSTYLE
  2
IGA
 70
     0
  3

  4

  5

  6
OPEN
  7
OPEN
 40
2.0
 41
2.0
 42
0.5
 43
10.0
 44
1.0
 45
0.0
 46
0.0
 47
1.0
 48
1.0
140
3.0
141
0.0
142
0.0
143
0.03937
144
1.0
145
0.0
146
10.0
147
1.0
 71
     0
 72
     0
 73
     0
 74
     0
 75
     0
 76
     0
 77
     1
 78
     8
170
     0
171
     2
172
     0
173
     1
174
     0
175
     0
176
     0
177
     0
178
     0
  0
ENDTAB
  0
ENDSEC
  0
SECTION
  2
BLOCKS
  0
BLOCK
  8
0
  2
$MODEL_SPACE
 70
     0
 10
0.0
 20
0.0
 30
0.0
  3
$MODEL_SPACE
  1

  0
ENDBLK
  5
1B
  8
0
  0
BLOCK
 67
     1
  8
0
  2
$PAPER_SPACE
 70
     0
 10
0.0
 20
0.0
 30
0.0
  3
$PAPER_SPACE
  1

  0
ENDBLK
  5
18
 67
     1
  8
0
  0
BLOCK
  8
0
  2
_OPEN
 70
     0
 10
0.0
 20
0.0
 30
0.0
  3
_OPEN
  1

  0
LINE
  5
79FD
  8
0
  6
BYBLOCK
 62
     0
 10
-1.0
 20
0.1666666666666666
 30
0.0
 11
0.0
 21
0.0
 31
0.0
  0
LINE
  5
79FE
  8
0
  6
BYBLOCK
 62
     0
 10
0.0
 20
0.0
 30
0.0
 11
-1.0
 21
-0.1666666666666666
 31
0.0
  0
LINE
  5
79FF
  8
0
  6
BYBLOCK
 62
     0
 10
0.0
 20
0.0
 30
0.0
 11
-1.0
 21
0.0
 31
0.0
  0
ENDBLK
  5
7A01
  8
0
  0
BLOCK
  8
0
  2
YA_N
 70
     0
 10
0.0
 20
0.0
 30
0.0
  3
YA_N
  1

  0
ENDBLK
  5
7EF0
  8
0
  0
BLOCK
  8
0
  2
*D2
 70
     1
 10
0.0
 20
0.0
 30
0.0
  3
*D2
  1

  0
LINE
  5
8A2F
  8
3
 62
     0
 10
2905.081816123567
 20
10701.006088529921
 30
0.0
 11
2905.081816123567
 21
10962.3455461579
 31
0.0
  0
LINE
  5
8A30
  8
3
 62
     0
 10
4405.0818161235666
 20
10701.006088529921
 30
0.0
 11
4405.0818161235666
 21
10962.3455461579
 31
0.0
  0
LINE
  5
8A31
  8
3
 62
     0
 10
3005.081816123567
 20
10912.345546157891
 30
0.0
 11
4305.0818161235666
 21
10912.345546157891
 31
0.0
  0
INSERT
  5
8A32
  8
3
 62
     0
  2
_OPEN
 10
2905.081816123567
 20
10912.345546157891
 30
0.0
 41
100.0
 42
100.0
 43
100.0
 50
180.0
  0
INSERT
  5
8A33
  8
3
 62
     0
  2
_OPEN
 10
4405.0818161235666
 20
10912.345546157891
 30
0.0
 41
100.0
 42
100.0
 43
100.0
  0
TEXT
  8
3
  40
150
  5
8AE8
  62
0
  72
0
  71
0
 10
3279.46
 20
10771.8
 30
0.000000
  1
1500
  0
POINT
  5
8A35
  8
DEFPOINTS
 62
     0
 10
2905.081816123567
 20
10676.006088529921
 30
0.0
  0
POINT
  5
8A36
  8
DEFPOINTS
 62
     0
 10
4405.0818161235666
 20
10676.006088529921
 30
0.0
  0
POINT
  5
8A37
  8
DEFPOINTS
 62
     0
 10
4405.0818161235666
 20
10912.345546157891
 30
0.0
  0
ENDBLK
  5
86A4
  8
0
  0
BLOCK
  8
0
  2
*D3
 70
     1
 10
0.0
 20
0.0
 30
0.0
  3
*D3
  1

  0
LINE
  5
8A38
  8
3
 62
     0
 10
4430.0818161235666
 20
10676.006088529921
 30
0.0
 11
4910.2542064469253
 21
10676.006088529921
 31
0.0
  0
LINE
  5
8A39
  8
3
 62
     0
 10
4430.0818161235666
 20
9566.0060885299245
 30
0.0
 11
4910.2542064469253
 21
9566.0060885299245
 31
0.0
  0
LINE
  5
8A3A
  8
3
 62
     0
 10
4860.2542064469253
 20
10576.006088529921
 30
0.0
 11
4860.2542064469244
 21
9666.0060885299245
 31
0.0
  0
INSERT
  5
8A3B
  8
3
 62
     0
  2
_OPEN
 10
4860.2542064469253
 20
10676.006088529921
 30
0.0
 41
100.0
 42
100.0
 43
100.0
 50
90.0
  0
INSERT
  5
8A3C
  8
3
 62
     0
  2
_OPEN
 10
4860.2542064469244
 20
9566.0060885299245
 30
0.0
 41
100.0
 42
100.0
 43
100.0
 50
270.0
  0
TEXT
  8
3
  40
150
  5
8AE9
  62
0
  72
0
  71
0
 10
4435.25
 20
9833.45
 30
0.000000
  1
1110
  0
POINT
  5
8A3E
  8
DEFPOINTS
 62
     0
 10
4405.0818161235666
 20
10676.006088529921
 30
0.0
  0
POINT
  5
8A3F
  8
DEFPOINTS
 62
     0
 10
4405.0818161235666
 20
9566.0060885299245
 30
0.0
  0
POINT
  5
8A40
  8
DEFPOINTS
 62
     0
 10
4860.2542064469244
 20
9566.0060885299245
 30
0.0
  0
ENDBLK
  5
86B0
  8
0
  0
BLOCK
  8
0
  2
*D4
 70
     1
 10
0.0
 20
0.0
 30
0.0
  3
*D4
  1

  0
LINE
  5
8A41
  8
3
 62
     0
 10
4130.0818161235666
 20
8621.0060885299245
 30
0.0
 11
4910.2542064469226
 21
8621.0060885299245
 31
0.0
  0
LINE
  5
8A42
  8
3
 62
     0
 10
4860.2542064469226
 20
9466.0060885299245
 30
0.0
 11
4860.2542064469226
 21
8721.0060885299226
 31
0.0
  0
INSERT
  5
8A43
  8
3
 62
     0
  2
_OPEN
 10
4860.2542064469226
 20
9566.0060885299245
 30
0.0
 41
100.0
 42
100.0
 43
100.0
 50
90.0
  0
INSERT
  5
8A44
  8
3
 62
     0
  2
_OPEN
 10
4860.2542064469226
 20
8621.0060885299245
 30
0.0
 41
100.0
 42
100.0
 43
100.0
 50
270.0
  0
TEXT
  8
3
  40
150
  5
8AEA
  62
0
  72
0
  71
0
 10
4435.25
 20
8828.01
 30
0.000000
  1
945
  0
POINT
  5
8A46
  8
DEFPOINTS
 62
     0
 10
4405.0818161235666
 20
9566.0060885299245
 30
0.0
  0
POINT
  5
8A47
  8
DEFPOINTS
 62
     0
 10
4105.0818161235684
 20
8621.0060885299245
 30
0.0
  0
POINT
  5
8A48
  8
DEFPOINTS
 62
     0
 10
4860.2542064469226
 20
8621.0060885299245
 30
0.0
  0
ENDBLK
  5
86BC
  8
0
  0
BLOCK
  8
0
  2
*D5
 70
     1
 10
0.0
 20
0.0
 30
0.0
  3
*D5
  1

  0
LINE
  5
8A49
  8
3
 62
     0
 10
4105.0818161235684
 20
8596.0060885299226
 30
0.0
 11
4105.0818161235684
 21
8031.7460686846171
 31
0.0
  0
LINE
  5
8A4A
  8
3
 62
     0
 10
2505.081816123567
 20
8596.0060885299226
 30
0.0
 11
2505.081816123567
 21
8031.7460686846171
 31
0.0
  0
LINE
  5
8A4B
  8
3
 62
     0
 10
4005.081816123567
 20
8081.7460686846171
 30
0.0
 11
2605.081816123567
 21
8081.7460686846171
 31
0.0
  0
INSERT
  5
8A4C
  8
3
 62
     0
  2
_OPEN
 10
4105.0818161235684
 20
8081.7460686846171
 30
0.0
 41
100.0
 42
100.0
 43
100.0
  0
INSERT
  5
8A4D
  8
3
 62
     0
  2
_OPEN
 10
2505.081816123567
 20
8081.7460686846171
 30
0.0
 41
100.0
 42
100.0
 43
100.0
 50
180.0
  0
TEXT
  8
3
  40
150
  5
8AEB
  62
0
  72
0
  71
0
 10
2986.40
 20
7941.25
 30
0.000000
  1
1600
  0
POINT
  5
8A4F
  8
DEFPOINTS
 62
     0
 10
4105.0818161235684
 20
8621.0060885299245
 30
0.0
  0
POINT
  5
8A50
  8
DEFPOINTS
 62
     0
 10
2505.081816123567
 20
8621.0060885299245
 30
0.0
  0
POINT
  5
8A51
  8
DEFPOINTS
 62
     0
 10
2505.081816123567
 20
8081.7460686846171
 30
0.0
  0
ENDBLK
  5
86C9
  8
0
  0
BLOCK
  8
0
  2
*D6
 70
     1
 10
0.0
 20
0.0
 30
0.0
  3
*D6
  1

  0
LINE
  5
8A52
  8
3
 62
     0
 10
2480.081816123567
 20
8621.0060885299245
 30
0.0
 11
2053.296117097635
 21
8621.0060885299245
 31
0.0
  0
LINE
  5
8A53
  8
3
 62
     0
 10
2480.081816123567
 20
9641.0060885299245
 30
0.0
 11
2053.2961170976359
 21
9641.0060885299245
 31
0.0
  0
LINE
  5
8A54
  8
3
 62
     0
 10
2103.296117097635
 20
8721.0060885299226
 30
0.0
 11
2103.2961170976359
 21
9541.0060885299245
 31
0.0
  0
INSERT
  5
8A55
  8
3
 62
     0
  2
_OPEN
 10
2103.296117097635
 20
8621.0060885299245
 30
0.0
 41
100.0
 42
100.0
 43
100.0
 50
270.0
  0
INSERT
  5
8A56
  8
3
 62
     0
  2
_OPEN
 10
2103.2961170976359
 20
9641.0060885299245
 30
0.0
 41
100.0
 42
100.0
 43
100.0
 50
90.0
  0
TEXT
  8
3
  40
150
  5
8AEC
  62
0
  72
0
  71
0
 10
1678.30
 20
8857.39
 30
0.000000
  1
1020
  0
POINT
  5
8A58
  8
DEFPOINTS
 62
     0
 10
2505.081816123567
 20
8621.0060885299245
 30
0.0
  0
POINT
  5
8A59
  8
DEFPOINTS
 62
     0
 10
2505.081816123567
 20
9641.0060885299245
 30
0.0
  0
POINT
  5
8A5A
  8
DEFPOINTS
 62
     0
 10
2103.2961170976359
 20
9641.0060885299245
 30
0.0
  0
ENDBLK
  5
86D6
  8
0
  0
BLOCK
  8
0
  2
*D7
 70
     1
 10
0.0
 20
0.0
 30
0.0
  3
*D7
  1

  0
LINE
  5
8A5B
  8
3
 62
     0
 10
4480.0818161235684
 20
6711.627991408147
 30
0.0
 11
4480.0818161235684
 21
6998.7661070993781
 31
0.0
  0
LINE
  5
8A5C
  8
3
 62
     0
 10
3655.081816123567
 20
6679.9137105134623
 30
0.0
 11
3655.081816123567
 21
6998.7661070993781
 31
0.0
  0
LINE
  5
8A5D
  8
3
 62
     0
 10
4380.0818161235666
 20
6948.7661070993781
 30
0.0
 11
3755.081816123567
 21
6948.7661070993781
 31
0.0
  0
INSERT
  5
8A5E
  8
3
 62
     0
  2
_OPEN
 10
4480.0818161235684
 20
6948.7661070993781
 30
0.0
 41
100.0
 42
100.0
 43
100.0
  0
INSERT
  5
8A5F
  8
3
 62
     0
  2
_OPEN
 10
3655.081816123567
 20
6948.7661070993781
 30
0.0
 41
100.0
 42
100.0
 43
100.0
 50
180.0
  0
TEXT
  8
3
  40
150
  5
8AED
  62
0
  72
0
  71
0
 10
3769.36
 20
6808.27
 30
0.000000
  1
825
  0
POINT
  5
8A61
  8
DEFPOINTS
 62
     0
 10
4480.0818161235684
 20
6686.6279914081479
 30
0.0
  0
POINT
  5
8A62
  8
DEFPOINTS
 62
     0
 10
3655.081816123567
 20
6654.9137105134614
 30
0.0
  0
POINT
  5
8A63
  8
DEFPOINTS
 62
     0
 10
3655.081816123567
 20
6948.7661070993781
 30
0.0
  0
ENDBLK
  5
86EF
  8
0
  0
BLOCK
  8
0
  2
*D8
 70
     1
 10
0.0
 20
0.0
 30
0.0
  3
*D8
  1

  0
LINE
  5
8A64
  8
3
 62
     0
 10
2576.081816123567
 20
5415.6279914081479
 30
0.0
 11
2576.081816123567
 21
6998.7661070993781
 31
0.0
  0
LINE
  5
8A65
  8
3
 62
     0
 10
3555.081816123567
 20
6948.7661070993781
 30
0.0
 11
2676.081816123567
 21
6948.7661070993781
 31
0.0
  0
INSERT
  5
8A66
  8
3
 62
     0
  2
_OPEN
 10
3655.081816123567
 20
6948.7661070993781
 30
0.0
 41
100.0
 42
100.0
 43
100.0
  0
INSERT
  5
8A67
  8
3
 62
     0
  2
_OPEN
 10
2576.081816123567
 20
6948.7661070993781
 30
0.0
 41
100.0
 42
100.0
 43
100.0
 50
180.0
  0
TEXT
  8
3
  40
150
  5
8AEE
  62
0
  72
0
  71
0
 10
2815.58
 20
6808.27
 30
0.000000
  1
1079
  0
POINT
  5
8A69
  8
DEFPOINTS
 62
     0
 10
3655.081816123567
 20
6654.9137105134614
 30
0.0
  0
POINT
  5
8A6A
  8
DEFPOINTS
 62
     0
 10
2576.081816123567
 20
5390.6279914081479
 30
0.0
  0
POINT
  5
8A6B
  8
DEFPOINTS
 62
     0
 10
2576.081816123567
 20
6948.7661070993781
 30
0.0
  0
ENDBLK
  5
86FB
  8
0
  0
BLOCK
  8
0
  2
*D9
 70
     1
 10
0.0
 20
0.0
 30
0.0
  3
*D9
  1

  0
LINE
  5
8A6C
  8
3
 62
     0
 10
4480.0818161235684
 20
6711.627991408147
 30
0.0
 11
4480.0818161235684
 21
7274.1999857702322
 31
0.0
  0
LINE
  5
8A6D
  8
3
 62
     0
 10
2505.081816123567
 20
4549.627991408147
 30
0.0
 11
2505.081816123567
 21
7274.1999857702322
 31
0.0
  0
LINE
  5
8A6E
  8
3
 62
     0
 10
4380.0818161235666
 20
7224.1999857702331
 30
0.0
 11
2605.081816123567
 21
7224.1999857702331
 31
0.0
  0
INSERT
  5
8A6F
  8
3
 62
     0
  2
_OPEN
 10
4480.0818161235684
 20
7224.1999857702331
 30
0.0
 41
100.0
 42
100.0
 43
100.0
  0
INSERT
  5
8A70
  8
3
 62
     0
  2
_OPEN
 10
2505.081816123567
 20
7224.1999857702331
 30
0.0
 41
100.0
 42
100.0
 43
100.0
 50
180.0
  0
TEXT
  8
3
  40
150
  5
8AEF
  62
0
  72
0
  71
0
 10
3062.98
 20
7083.70
 30
0.000000
  1
1975
  0
POINT
  5
8A72
  8
DEFPOINTS
 62
     0
 10
4480.0818161235684
 20
6686.6279914081479
 30
0.0
  0
POINT
  5
8A73
  8
DEFPOINTS
 62
     0
 10
2505.081816123567
 20
4524.6279914081479
 30
0.0
  0
POINT
  5
8A74
  8
DEFPOINTS
 62
     0
 10
2505.081816123567
 20
7224.1999857702331
 30
0.0
  0
ENDBLK
  5
8709
  8
0
  0
BLOCK
  8
0
  2
*D10
 70
     1
 10
0.0
 20
0.0
 30
0.0
  3
*D10
  1

  0
LINE
  5
8A75
  8
3
 62
     0
 10
4505.0818161235666
 20
6633.627991408147
 30
0.0
 11
5222.0099769495882
 21
6633.627991408147
 31
0.0
  0
LINE
  5
8A76
  8
3
 62
     0
 10
4583.5183543724197
 20
5299.627991408147
 30
0.0
 11
5222.0099769495873
 21
5299.627991408147
 31
0.0
  0
LINE
  5
8A77
  8
3
 62
     0
 10
5172.0099769495882
 20
6533.627991408147
 30
0.0
 11
5172.0099769495873
 21
5399.6279914081479
 31
0.0
  0
INSERT
  5
8A78
  8
3
 62
     0
  2
_OPEN
 10
5172.0099769495882
 20
6633.627991408147
 30
0.0
 41
100.0
 42
100.0
 43
100.0
 50
90.0
  0
INSERT
  5
8A79
  8
3
 62
     0
  2
_OPEN
 10
5172.0099769495873
 20
5299.627991408147
 30
0.0
 41
100.0
 42
100.0
 43
100.0
 50
270.0
  0
TEXT
  8
3
  40
150
  5
8AF0
  62
0
  72
0
  71
0
 10
4747.01
 20
5727.85
 30
0.000000
  1
1334
  0
POINT
  5
8A7B
  8
DEFPOINTS
 62
     0
 10
4480.0818161235684
 20
6633.627991408147
 30
0.0
  0
POINT
  5
8A7C
  8
DEFPOINTS
 62
     0
 10
4558.5183543724188
 20
5299.627991408147
 30
0.0
  0
POINT
  5
8A7D
  8
DEFPOINTS
 62
     0
 10
5172.0099769495873
 20
5299.627991408147
 30
0.0
  0
ENDBLK
  5
872F
  8
0
  0
BLOCK
  8
0
  2
*D11
 70
     1
 10
0.0
 20
0.0
 30
0.0
  3
*D11
  1

  0
LINE
  5
8A7E
  8
3
 62
     0
 10
4505.0818161235666
 20
6633.627991408147
 30
0.0
 11
4929.1197967349226
 21
6633.627991408147
 31
0.0
  0
LINE
  5
8A7F
  8
3
 62
     0
 10
4505.0818161235666
 20
5353.6279914081479
 30
0.0
 11
4929.1197967349226
 21
5353.6279914081479
 31
0.0
  0
LINE
  5
8A80
  8
3
 62
     0
 10
4879.1197967349226
 20
6533.627991408147
 30
0.0
 11
4879.1197967349217
 21
5453.6279914081479
 31
0.0
  0
INSERT
  5
8A81
  8
3
 62
     0
  2
_OPEN
 10
4879.1197967349226
 20
6633.627991408147
 30
0.0
 41
100.0
 42
100.0
 43
100.0
 50
90.0
  0
INSERT
  5
8A82
  8
3
 62
     0
  2
_OPEN
 10
4879.1197967349217
 20
5353.6279914081479
 30
0.0
 41
100.0
 42
100.0
 43
100.0
 50
270.0
  0
TEXT
  8
3
  40
150
  5
8AF1
  62
0
  72
0
  71
0
 10
4454.12
 20
5702.03
 30
0.000000
  1
1280
  0
POINT
  5
8A84
  8
DEFPOINTS
 62
     0
 10
4480.0818161235684
 20
6633.627991408147
 30
0.0
  0
POINT
  5
8A85
  8
DEFPOINTS
 62
     0
 10
4480.0818161235684
 20
5353.6279914081479
 30
0.0
  0
POINT
  5
8A86
  8
DEFPOINTS
 62
     0
 10
4879.1197967349217
 20
5353.6279914081479
 30
0.0
  0
ENDBLK
  5
8723
  8
0
  0
BLOCK
  8
0
  2
*D12
 70
     1
 10
0.0
 20
0.0
 30
0.0
  3
*D12
  1

  0
LINE
  5
8A87
  8
3
 62
     0
 10
4430.0818161235666
 20
4374.627991408147
 30
0.0
 11
5222.0099769495864
 21
4374.627991408147
 31
0.0
  0
LINE
  5
8A88
  8
3
 62
     0
 10
5172.0099769495873
 20
5199.6279914081479
 30
0.0
 11
5172.0099769495873
 21
4474.627991408147
 31
0.0
  0
INSERT
  5
8A89
  8
3
 62
     0
  2
_OPEN
 10
5172.0099769495873
 20
5299.627991408147
 30
0.0
 41
100.0
 42
100.0
 43
100.0
 50
90.0
  0
INSERT
  5
8A8A
  8
3
 62
     0
  2
_OPEN
 10
5172.0099769495873
 20
4374.627991408147
 30
0.0
 41
100.0
 42
100.0
 43
100.0
 50
270.0
  0
TEXT
  8
3
  40
150
  5
8AF2
  62
0
  72
0
  71
0
 10
4747.01
 20
4571.63
 30
0.000000
  1
925
  0
POINT
  5
8A8C
  8
DEFPOINTS
 62
     0
 10
4558.5183543724188
 20
5299.627991408147
 30
0.0
  0
POINT
  5
8A8D
  8
DEFPOINTS
 62
     0
 10
4405.0818161235666
 20
4374.627991408147
 30
0.0
  0
POINT
  5
8A8E
  8
DEFPOINTS
 62
     0
 10
5172.0099769495873
 20
4374.627991408147
 30
0.0
  0
ENDBLK
  5
873A
  8
0
  0
BLOCK
  8
0
  2
*D13
 70
     1
 10
0.0
 20
0.0
 30
0.0
  3
*D13
  1

  0
LINE
  5
8A8F
  8
3
 62
     0
 10
4430.0818161235666
 20
4259.627991408147
 30
0.0
 11
5222.0099769495864
 21
4259.627991408147
 31
0.0
  0
LINE
  5
8A90
  8
3
 62
     0
 10
4430.0818161235666
 20
4109.6279914081479
 30
0.0
 11
5222.0099769495864
 21
4109.6279914081479
 31
0.0
  0
LINE
  5
8A91
  8
3
 62
     0
 10
5172.0099769495873
 20
4359.6279914081479
 30
0.0
 11
5172.0099769495873
 21
4459.627991408147
 31
0.0
  0
LINE
  5
8A92
  8
3
 62
     0
 10
5172.0099769495873
 20
4009.627991408147
 30
0.0
 11
5172.0099769495873
 21
3452.4851342652901
 31
0.0
  0
LINE
  5
8A93
  8
3
 62
     0
 10
5172.0099769495873
 20
4259.627991408147
 30
0.0
 11
5172.0099769495873
 21
4109.6279914081479
 31
0.0
  0
INSERT
  5
8A94
  8
3
 62
     0
  2
_DOT
 10
5172.0099769495873
 20
4259.627991408147
 30
0.0
 41
100.0
 42
100.0
 43
100.0
 50
270.0
  0
INSERT
  5
8A95
  8
3
 62
     0
  2
_OPEN
 10
5172.0099769495873
 20
4109.6279914081479
 30
0.0
 41
100.0
 42
100.0
 43
100.0
 50
90.0
  0
TEXT
  8
3
  40
150
  5
8AF3
  62
0
  72
0
  71
0
 10
4747.01
 20
3415.56
 30
0.000000
  1
150
  0
POINT
  5
8A97
  8
DEFPOINTS
 62
     0
 10
4405.0818161235666
 20
4259.627991408147
 30
0.0
  0
POINT
  5
8A98
  8
DEFPOINTS
 62
     0
 10
4405.0818161235666
 20
4109.6279914081479
 30
0.0
  0
POINT
  5
8A99
  8
DEFPOINTS
 62
     0
 10
5172.0099769495873
 20
4109.6279914081479
 30
0.0
  0
ENDBLK
  5
8926
  8
0
  0
BLOCK
  8
0
  2
*D14
 70
     1
 10
0.0
 20
0.0
 30
0.0
  3
*D14
  1

  0
LINE
  5
8A9A
  8
3
 62
     0
 10
2505.081816123567
 20
4084.627991408147
 30
0.0
 11
2505.081816123567
 21
3720.638338032295
 31
0.0
  0
LINE
  5
8A9B
  8
3
 62
     0
 10
3655.081816123567
 20
4084.627991408147
 30
0.0
 11
3655.081816123567
 21
3720.638338032295
 31
0.0
  0
LINE
  5
8A9C
  8
3
 62
     0
 10
2605.081816123567
 20
3770.638338032295
 30
0.0
 11
3555.081816123567
 21
3770.638338032295
 31
0.0
  0
INSERT
  5
8A9D
  8
3
 62
     0
  2
_OPEN
 10
2505.081816123567
 20
3770.638338032295
 30
0.0
 41
100.0
 42
100.0
 43
100.0
 50
180.0
  0
INSERT
  5
8A9E
  8
3
 62
     0
  2
_OPEN
 10
3655.081816123567
 20
3770.638338032295
 30
0.0
 41
100.0
 42
100.0
 43
100.0
  0
TEXT
  8
3
  40
150
  5
8AF4
  62
0
  72
0
  71
0
 10
2778.16
 20
3630.14
 30
0.000000
  1
1150
  0
POINT
  5
8AA0
  8
DEFPOINTS
 62
     0
 10
2505.081816123567
 20
4109.6279914081479
 30
0.0
  0
POINT
  5
8AA1
  8
DEFPOINTS
 62
     0
 10
3655.081816123567
 20
4109.6279914081479
 30
0.0
  0
POINT
  5
8AA2
  8
DEFPOINTS
 62
     0
 10
3655.081816123567
 20
3770.638338032295
 30
0.0
  0
ENDBLK
  5
87CA
  8
0
  0
BLOCK
  8
0
  2
*D15
 70
     1
 10
0.0
 20
0.0
 30
0.0
  3
*D15
  1

  0
LINE
  5
8AA3
  8
3
 62
     0
 10
4405.0818161235666
 20
4084.627991408147
 30
0.0
 11
4405.0818161235666
 21
3720.638338032295
 31
0.0
  0
LINE
  5
8AA4
  8
3
 62
     0
 10
3755.081816123567
 20
3770.638338032295
 30
0.0
 11
4305.0818161235666
 21
3770.638338032295
 31
0.0
  0
INSERT
  5
8AA5
  8
3
 62
     0
  2
_OPEN
 10
3655.081816123567
 20
3770.638338032295
 30
0.0
 41
100.0
 42
100.0
 43
100.0
 50
180.0
  0
INSERT
  5
8AA6
  8
3
 62
     0
  2
_OPEN
 10
4405.0818161235666
 20
3770.638338032295
 30
0.0
 41
100.0
 42
100.0
 43
100.0
  0
TEXT
  8
3
  40
150
  5
8AF5
  62
0
  72
0
  71
0
 10
3730.08
 20
3630.14
 30
0.000000
  1
750
  0
POINT
  5
8AA8
  8
DEFPOINTS
 62
     0
 10
3655.081816123567
 20
4109.6279914081479
 30
0.0
  0
POINT
  5
8AA9
  8
DEFPOINTS
 62
     0
 10
4405.0818161235666
 20
4109.6279914081479
 30
0.0
  0
POINT
  5
8AAA
  8
DEFPOINTS
 62
     0
 10
4405.0818161235666
 20
3770.638338032295
 30
0.0
  0
ENDBLK
  5
87D6
  8
0
  0
BLOCK
  8
0
  2
*D16
 70
     1
 10
0.0
 20
0.0
 30
0.0
  3
*D16
  1

  0
LINE
  5
8AAB
  8
3
 62
     0
 10
6249.0697441729999
 20
4084.627991408147
 30
0.0
 11
6249.0697441729999
 21
3720.638338032295
 31
0.0
  0
LINE
  5
8AAC
  8
3
 62
     0
 10
7749.0697441730017
 20
4084.627991408147
 30
0.0
 11
7749.0697441730017
 21
3720.638338032295
 31
0.0
  0
LINE
  5
8AAD
  8
3
 62
     0
 10
6349.0697441729999
 20
3770.638338032295
 30
0.0
 11
7649.0697441730017
 21
3770.638338032295
 31
0.0
  0
INSERT
  5
8AAE
  8
3
 62
     0
  2
_OPEN
 10
6249.0697441729999
 20
3770.638338032295
 30
0.0
 41
100.0
 42
100.0
 43
100.0
 50
180.0
  0
INSERT
  5
8AAF
  8
3
 62
     0
  2
_OPEN
 10
7749.0697441730017
 20
3770.638338032295
 30
0.0
 41
100.0
 42
100.0
 43
100.0
  0
TEXT
  8
3
  40
150
  5
8AF6
  62
0
  72
0
  71
0
 10
6772.90
 20
3630.14
 30
0.000000
  1
1500
  0
POINT
  5
8AB1
  8
DEFPOINTS
 62
     0
 10
6249.0697441729999
 20
4109.6279914081479
 30
0.0
  0
POINT
  5
8AB2
  8
DEFPOINTS
 62
     0
 10
7749.0697441730017
 20
4109.6279914081479
 30
0.0
  0
POINT
  5
8AB3
  8
DEFPOINTS
 62
     0
 10
7749.0697441730017
 20
3770.638338032295
 30
0.0
  0
ENDBLK
  5
87E3
  8
0
  0
BLOCK
  8
0
  2
*D17
 70
     1
 10
0.0
 20
0.0
 30
0.0
  3
*D17
  1

  0
LINE
  5
87FE
  8
0
  6
BYBLOCK
 62
     0
 10
8304.0697441730008
 20
4154.6279914081479
 30
0.0
 11
8304.0697441730008
 21
3790.6383380322941
 31
0.0
  0
LINE
  5
87FF
  8
0
  6
BYBLOCK
 62
     0
 10
7849.0697441730017
 20
3840.638338032295
 30
0.0
 11
8204.0697441730008
 21
3840.638338032295
 31
0.0
  0
TEXT
  5
8800
  8
3
 62
     0
 10
7850.0796396438191
 20
3887.747357576372
 30
0.0
 40
150.0
  1
555
  0
INSERT
  5
8801
  8
0
  6
BYBLOCK
 62
     0
  2
_OPEN
 10
7749.0697441730017
 20
3840.638338032295
 30
0.0
 41
100.0
 42
100.0
 43
100.0
 50
180.0
  0
INSERT
  5
8802
  8
0
  6
BYBLOCK
 62
     0
  2
_OPEN
 10
8304.0697441730008
 20
3840.638338032295
 30
0.0
 41
100.0
 42
100.0
 43
100.0
  0
POINT
  5
8803
  8
DEFPOINTS
  6
BYBLOCK
 62
     0
 10
7749.0697441730017
 20
4179.6279914081479
 30
0.0
  0
POINT
  5
8804
  8
DEFPOINTS
  6
BYBLOCK
 62
     0
 10
8304.0697441730008
 20
4179.6279914081479
 30
0.0
  0
POINT
  5
8805
  8
DEFPOINTS
  6
BYBLOCK
 62
     0
 10
8304.0697441730008
 20
3840.638338032295
 30
0.0
  0
ENDBLK
  5
8806
  8
0
  0
BLOCK
  8
0
  2
*D18
 70
     1
 10
0.0
 20
0.0
 30
0.0
  3
*D18
  1

  0
LINE
  5
8AB4
  8
3
 62
     0
 10
8259.0697441730026
 20
5924.627991408147
 30
0.0
 11
8716.1480083497318
 21
5924.627991408147
 31
0.0
  0
LINE
  5
8AB5
  8
3
 62
     0
 10
8259.0697441730026
 20
4674.627991408147
 30
0.0
 11
8716.1480083497318
 21
4674.627991408147
 31
0.0
  0
LINE
  5
8AB6
  8
3
 62
     0
 10
8666.1480083497336
 20
5824.6279914081479
 30
0.0
 11
8666.1480083497336
 21
4774.6279914081479
 31
0.0
  0
INSERT
  5
8AB7
  8
3
 62
     0
  2
_OPEN
 10
8666.1480083497336
 20
5924.627991408147
 30
0.0
 41
100.0
 42
100.0
 43
100.0
 50
90.0
  0
INSERT
  5
8AB8
  8
3
 62
     0
  2
_OPEN
 10
8666.1480083497336
 20
4674.627991408147
 30
0.0
 41
100.0
 42
100.0
 43
100.0
 50
270.0
  0
TEXT
  8
3
  40
150
  5
8AF7
  62
0
  72
0
  71
0
 10
8241.15
 20
5054.13
 30
0.000000
  1
φ1250
  0
POINT
  5
8ABA
  8
DEFPOINTS
 62
     0
 10
8234.0697441730026
 20
5924.627991408147
 30
0.0
  0
POINT
  5
8ABB
  8
DEFPOINTS
 62
     0
 10
8234.0697441730026
 20
4674.627991408147
 30
0.0
  0
POINT
  5
8ABC
  8
DEFPOINTS
 62
     0
 10
8666.1480083497336
 20
4674.627991408147
 30
0.0
  0
ENDBLK
  5
882D
  8
0
  0
BLOCK
  8
0
  2
*D19
 70
     1
 10
0.0
 20
0.0
 30
0.0
  3
*D19
  1

  0
LINE
  5
8ABD
  8
3
 62
     0
 10
7274.0697441730008
 20
6711.627991408147
 30
0.0
 11
7274.0697441730008
 21
6939.0218674917933
 31
0.0
  0
LINE
  5
8ABE
  8
3
 62
     0
 10
8224.0697441730008
 20
6711.627991408147
 30
0.0
 11
8224.0697441730008
 21
6939.0218674917933
 31
0.0
  0
LINE
  5
8ABF
  8
3
 62
     0
 10
7374.0697441729999
 20
6889.0218674917933
 30
0.0
 11
8124.0697441729999
 21
6889.0218674917933
 31
0.0
  0
INSERT
  5
8AC0
  8
3
 62
     0
  2
_OPEN
 10
7274.0697441730008
 20
6889.0218674917933
 30
0.0
 41
100.0
 42
100.0
 43
100.0
 50
180.0
  0
INSERT
  5
8AC1
  8
3
 62
     0
  2
_OPEN
 10
8224.0697441730008
 20
6889.0218674917933
 30
0.0
 41
100.0
 42
100.0
 43
100.0
  0
TEXT
  8
3
  40
150
  5
8AF8
  62
0
  72
0
  71
0
 10
7448.85
 20
6748.52
 30
0.000000
  1
950
  0
POINT
  5
8AC3
  8
DEFPOINTS
 62
     0
 10
7274.0697441730008
 20
6686.6279914081479
 30
0.0
  0
POINT
  5
8AC4
  8
DEFPOINTS
 62
     0
 10
8224.0697441730008
 20
6686.6279914081479
 30
0.0
  0
POINT
  5
8AC5
  8
DEFPOINTS
 62
     0
 10
8224.0697441730008
 20
6889.0218674917933
 30
0.0
  0
ENDBLK
  5
8839
  8
0
  0
BLOCK
  8
0
  2
*D20
 70
     1
 10
0.0
 20
0.0
 30
0.0
  3
*D20
  1

  0
LINE
  5
88A4
  8
0
  6
BYBLOCK
 62
     0
 10
8234.0697441730026
 20
5999.627991408147
 30
0.0
 11
8234.0697441730026
 21
7225.6834492442949
 31
0.0
  0
LINE
  5
88A5
  8
0
  6
BYBLOCK
 62
     0
 10
7749.0697441729999
 20
7130.4151504467372
 30
0.0
 11
7749.0697441729999
 21
7225.6834492442949
 31
0.0
  0
LINE
  5
88A6
  8
0
  6
BYBLOCK
 62
     0
 10
8134.0697441730017
 20
7175.6834492442949
 30
0.0
 11
7849.0697441729999
 21
7175.6834492442949
 31
0.0
  0
TEXT
  5
88A7
  8
3
 62
     0
 10
7808.960141209247
 20
7244.8271790820436
 30
0.0
 40
150.0
  1
485
  0
INSERT
  5
88A8
  8
0
  6
BYBLOCK
 62
     0
  2
_OPEN
 10
8234.0697441730026
 20
7175.6834492442949
 30
0.0
 41
100.0
 42
100.0
 43
100.0
  0
INSERT
  5
88A9
  8
0
  6
BYBLOCK
 62
     0
  2
_OPEN
 10
7749.0697441729999
 20
7175.6834492442949
 30
0.0
 41
100.0
 42
100.0
 43
100.0
 50
180.0
  0
POINT
  5
88AA
  8
DEFPOINTS
  6
BYBLOCK
 62
     0
 10
8234.0697441730026
 20
5974.6279914081479
 30
0.0
  0
POINT
  5
88AB
  8
DEFPOINTS
  6
BYBLOCK
 62
     0
 10
7749.0697441729999
 20
7105.4151504467372
 30
0.0
  0
POINT
  5
88AC
  8
DEFPOINTS
  6
BYBLOCK
 62
     0
 10
7749.0697441729999
 20
7175.6834492442949
 30
0.0
  0
ENDBLK
  5
88AD
  8
0
  0
BLOCK
  8
0
  2
*D21
 70
     1
 10
0.0
 20
0.0
 30
0.0
  3
*D21
  1

  0
LINE
  5
8AC6
  8
3
 62
     0
 10
6102.0697441729999
 20
5604.6279914081479
 30
0.0
 11
6102.0697441729999
 21
7225.6834492442949
 31
0.0
  0
LINE
  5
8AC7
  8
3
 62
     0
 10
7649.0697441730008
 20
7175.6834492442949
 30
0.0
 11
6202.0697441730008
 21
7175.6834492442949
 31
0.0
  0
INSERT
  5
8AC8
  8
3
 62
     0
  2
_OPEN
 10
7749.0697441729999
 20
7175.6834492442949
 30
0.0
 41
100.0
 42
100.0
 43
100.0
  0
INSERT
  5
8AC9
  8
3
 62
     0
  2
_OPEN
 10
6102.0697441729999
 20
7175.6834492442949
 30
0.0
 41
100.0
 42
100.0
 43
100.0
 50
180.0
  0
TEXT
  8
3
  40
150
  5
8AF9
  62
0
  72
0
  71
0
 10
6625.57
 20
7160.18
 30
0.000000
  1
MAX
  0
TEXT
  8
3
  40
150
  5
8AFA
  62
0
  72
0
  71
0
 10
6625.57
 20
6965.18
 30
0.000000
  1
1680
  0
POINT
  5
8ACB
  8
DEFPOINTS
 62
     0
 10
7749.0697441729999
 20
7105.4151504467372
 30
0.0
  0
POINT
  5
8ACC
  8
DEFPOINTS
 62
     0
 10
6102.0697441729999
 20
5579.6279914081479
 30
0.0
  0
POINT
  5
8ACD
  8
DEFPOINTS
 62
     0
 10
6102.0697441729999
 20
7175.6834492442949
 30
0.0
  0
ENDBLK
  5
88A2
  8
0
  0
BLOCK
  8
0
  2
_DOT
 70
     0
 10
0.0
 20
0.0
 30
0.0
  3
_DOT
  1

  0
LINE
  5
8927
  8
0
  6
BYBLOCK
 62
     0
 10
0.0
 20
0.0
 30
0.0
 11
-1.0
 21
-0.0000000000000284
 31
0.0
  0
POLYLINE
  5
8928
  8
0
  6
BYBLOCK
 62
     0
 66
     1
 10
0.0
 20
0.0
 30
0.0
 70
     1
 40
0.1666666666666666
 41
0.1666666666666666
  0
VERTEX
  5
8ACE
  8
0
  6
BYBLOCK
 62
     0
 10
-0.0833333333333286
 20
-0.0000000000000284
 30
0.0
 42
1.0
  0
VERTEX
  5
8ACF
  8
0
  6
BYBLOCK
 62
     0
 10
0.0833333333333286
 20
-0.0000000000000284
 30
0.0
 42
1.0
  0
SEQEND
  5
8AD0
  8
0
  6
BYBLOCK
 62
     0
  0
ENDBLK
  5
890C
  8
0
  0
BLOCK
  8
0
  2
*D23
 70
     1
 10
0.0
 20
0.0
 30
0.0
  3
*D23
  1

  0
LINE
  5
89D4
  8
0
  6
BYBLOCK
 62
     0
 10
2505.081816123567
 20
9666.0060885299245
 30
0.0
 11
2505.081816123567
 21
10962.3455461579
 31
0.0
  0
LINE
  5
89D5
  8
0
  6
BYBLOCK
 62
     0
 10
2805.081816123567
 20
10912.345546157891
 30
0.0
 11
2605.081816123567
 21
10912.345546157891
 31
0.0
  0
TEXT
  5
89D6
  8
3
 62
     0
 10
2512.2246732664248
 20
10965.910032208471
 30
0.0
 40
150.0
  1
400
  0
INSERT
  5
89D7
  8
0
  6
BYBLOCK
 62
     0
  2
_OPEN
 10
2905.081816123567
 20
10912.345546157891
 30
0.0
 41
100.0
 42
100.0
 43
100.0
  0
INSERT
  5
89D8
  8
0
  6
BYBLOCK
 62
     0
  2
_OPEN
 10
2505.081816123567
 20
10912.345546157891
 30
0.0
 41
100.0
 42
100.0
 43
100.0
 50
180.0
  0
POINT
  5
89D9
  8
DEFPOINTS
  6
BYBLOCK
 62
     0
 10
2905.081816123567
 20
10676.006088529921
 30
0.0
  0
POINT
  5
89DA
  8
DEFPOINTS
  6
BYBLOCK
 62
     0
 10
2505.081816123567
 20
9641.0060885299245
 30
0.0
  0
POINT
  5
89DB
  8
DEFPOINTS
  6
BYBLOCK
 62
     0
 10
2505.081816123567
 20
10912.345546157891
 30
0.0
  0
ENDBLK
  5
89DC
  8
0
  0
BLOCK
  8
0
  2
*D24
 70
     1
 10
0.0
 20
0.0
 30
0.0
  3
*D24
  1

  0
LINE
  5
8AD1
  8
3
 62
     0
 10
4430.0818161235666
 20
4259.627991408147
 30
0.0
 11
5225.9579063723804
 21
4259.627991408147
 31
0.0
  0
LINE
  5
8AD2
  8
3
 62
     0
 10
4430.0818161235666
 20
4374.627991408147
 30
0.0
 11
5225.9579063723804
 21
4374.627991408147
 31
0.0
  0
LINE
  5
8AD3
  8
3
 62
     0
 10
5175.9579063723804
 20
4159.627991408147
 30
0.0
 11
5175.9579063723804
 21
4059.6279914081479
 31
0.0
  0
LINE
  5
8AD4
  8
3
 62
     0
 10
5175.9579063723804
 20
4474.627991408147
 30
0.0
 11
5175.9579063723804
 21
4574.6279914081479
 31
0.0
  0
LINE
  5
8AD5
  8
3
 62
     0
 10
5175.9579063723804
 20
4317.1279914081479
 30
0.0
 11
5643.8150492295226
 21
4457.485134265291
 31
0.0
  0
LINE
  5
8AD6
  8
3
 62
     0
 10
5643.8150492295226
 20
4457.485134265291
 30
0.0
 11
5643.8150492295226
 21
5078.9137056938634
 31
0.0
  0
TEXT
  8
3
  40
150
  5
8AFB
  62
0
  72
0
  71
0
 10
5179.53
 20
4502.70
 30
0.000000
  1
(115)
  0
LINE
  5
8AD8
  8
3
 62
     0
 10
5175.9579063723804
 20
4259.627991408147
 30
0.0
 11
5175.9579063723804
 21
4374.627991408147
 31
0.0
  0
LINE
  5
8AD9
  8
3
 62
     0
 10
5175.9579063723804
 20
4259.627991408147
 30
0.0
 11
5175.9579063723804
 21
4374.627991408147
 31
0.0
  0
INSERT
  5
8ADA
  8
3
 62
     0
  2
_DOT
 10
5175.9579063723804
 20
4259.627991408147
 30
0.0
 41
100.0
 42
100.0
 43
100.0
 50
90.0
  0
INSERT
  5
8ADB
  8
3
 62
     0
  2
_OPEN
 10
5175.9579063723804
 20
4374.627991408147
 30
0.0
 41
100.0
 42
100.0
 43
100.0
 50
270.0
  0
POINT
  5
8ADC
  8
DEFPOINTS
 62
     0
 10
4405.0818161235666
 20
4259.627991408147
 30
0.0
  0
POINT
  5
8ADD
  8
DEFPOINTS
 62
     0
 10
4405.0818161235666
 20
4374.627991408147
 30
0.0
  0
POINT
  5
8ADE
  8
DEFPOINTS
 62
     0
 10
5175.9579063723804
 20
4374.627991408147
 30
0.0
  0
ENDBLK
  5
89F8
  8
0
  0
BLOCK
  8
0
  2
*D25
 70
     1
 10
0.0
 20
0.0
 30
0.0
  3
*D25
  1

  0
LINE
  5
8ADF
  8
3
 62
     0
 10
4505.0818161235666
 20
6686.6279914081479
 30
0.0
 11
5775.8195121077888
 21
6686.6279914081479
 31
0.0
  0
LINE
  5
8AE0
  8
3
 62
     0
 10
4430.0818161235666
 20
4109.6279914081479
 30
0.0
 11
5775.8195121077879
 21
4109.6279914081479
 31
0.0
  0
LINE
  5
8AE1
  8
3
 62
     0
 10
5725.8195121077888
 20
6586.627991408147
 30
0.0
 11
5725.8195121077879
 21
4209.627991408147
 31
0.0
  0
INSERT
  5
8AE2
  8
3
 62
     0
  2
_OPEN
 10
5725.8195121077888
 20
6686.6279914081479
 30
0.0
 41
100.0
 42
100.0
 43
100.0
 50
90.0
  0
INSERT
  5
8AE3
  8
3
 62
     0
  2
_OPEN
 10
5725.8195121077879
 20
4109.6279914081479
 30
0.0
 41
100.0
 42
100.0
 43
100.0
 50
270.0
  0
TEXT
  8
3
  40
150
  5
8AFC
  62
0
  72
0
  71
0
 10
5261.53
 20
5132.63
 30
0.000000
  1
(2577)
  0
POINT
  5
8AE5
  8
DEFPOINTS
 62
     0
 10
4480.0818161235684
 20
6686.6279914081479
 30
0.0
  0
POINT
  5
8AE6
  8
DEFPOINTS
 62
     0
 10
4405.0818161235666
 20
4109.6279914081479
 30
0.0
  0
POINT
  5
8AE7
  8
DEFPOINTS
 62
     0
 10
5725.8195121077879
 20
4109.6279914081479
 30
0.0
  0
ENDBLK
  5
8A05
  8
0
  0
ENDSEC
  0
SECTION
  2
ENTITIES
  0
INSERT
  5
85D5
  8
0
  2
YA_N
 10
6.0
 20
5.0
 30
0.0
  0
LINE
  5
85D7
  8
2
 10
3655.081816123567
 20
6654.9137105134614
 30
0.0
 11
3655.081816123567
 21
4109.6279914081479
 31
0.0
  0
ARC
  5
85D8
  8
1
 10
3746.0818161235679
 20
5390.6279914081479
 30
0.0
 40
1170.0
 50
94.460843697873969
 51
184.46084369787391
  0
ARC
  5
85D9
  8
1
 10
3564.0818161235679
 20
5390.6279914081479
 30
0.0
 40
988.0
 50
185.28473295453449
 51
205.22202793140491
  0
ARC
  5
85DA
  8
1
 10
3578.081816123567
 20
5222.6279914081479
 30
0.0
 40
820.0
 50
308.495689861855
 51
5.3881518043274568
  0
ARC
  5
85DB
  8
1
 10
3732.081816123567
 20
5222.6279914081479
 30
0.0
 40
666.0
 50
6.639134077904945
 51
11.34385696331598
  0
LINE
  5
85DC
  8
1
 10
3655.081816123567
 20
6557.0837342462546
 30
0.0
 11
4480.0818161235684
 21
6633.627991408147
 31
0.0
  0
LINE
  5
85DD
  8
1
 10
4405.0818161235666
 20
4374.627991408147
 30
0.0
 11
2505.081816123567
 21
4374.627991408147
 31
0.0
1001
ACAD
1000
ASC_BOUNDS
1002
{
1070
    19
1005
0
1002
}
  0
LINE
  5
85DE
  8
1
 10
4405.0818161235666
 20
4524.6279914081479
 30
0.0
 11
2495.081816123567
 21
4524.6279914081479
 31
0.0
  0
LINE
  5
85DF
  8
1
 10
4405.0818161235666
 20
4524.6279914081479
 30
0.0
 11
4405.0818161235666
 21
4374.627991408147
 31
0.0
  0
LINE
  5
85E1
  8
2
 10
2755.081816123567
 20
5050.482508013858
 30
0.0
 11
2755.081816123567
 21
4109.6279914081479
 31
0.0
  0
LINE
  5
85E2
  8
2
 10
3035.3960328817188
 20
4784.627991408147
 30
0.0
 11
2458.468507650191
 21
4784.627991408147
 31
0.0
  0
LINE
  5
85E3
  8
1
 10
4480.0818161235684
 20
6686.6279914081479
 30
0.0
 11
4430.0818161235666
 21
6686.6279914081479
 31
0.0
  0
LINE
  5
85E4
  8
1
 10
4480.0818161235684
 20
5300.6279914081479
 30
0.0
 11
4430.0818161235666
 21
5300.6279914081479
 31
0.0
  0
LINE
  5
85E5
  8
1
 10
4480.0818161235684
 20
5353.6279914081479
 30
0.0
 11
4385.0710962805997
 21
5353.6279914081479
 31
0.0
  0
LINE
  5
85E6
  8
1
 10
4430.0818161235666
 20
6686.6279914081479
 30
0.0
 11
4430.0818161235666
 21
5300.6279914081479
 31
0.0
  0
LINE
  5
85E7
  8
1
 10
4480.0818161235684
 20
6686.6279914081479
 30
0.0
 11
4480.0818161235684
 21
5300.6279914081479
 31
0.0
  0
LINE
  5
85E8
  8
1
 10
4477.0818161235666
 20
6686.6279914081479
 30
0.0
 11
4477.0818161235666
 21
5300.6279914081479
 31
0.0
  0
LINE
  5
85E9
  8
1
 10
6249.0697441729999
 20
4524.6279914081479
 30
0.0
 11
6249.0697441729999
 21
4374.627991408147
 31
0.0
  0
LINE
  5
85EA
  8
1
 10
6249.0697441729999
 20
4374.627991408147
 30
0.0
 11
8304.0697441730008
 21
4374.627991408147
 31
0.0
1001
ACAD
1000
ASC_BOUNDS
1002
{
1070
    19
1005
0
1005
0
1002
}
  0
LINE
  5
85EB
  8
1
 10
6249.0697441729999
 20
4524.6279914081479
 30
0.0
 11
7269.0697441730017
 21
4524.6279914081479
 31
0.0
  0
LINE
  5
85EC
  8
1
 10
8304.0697441730008
 20
4524.6279914081479
 30
0.0
 11
8304.0697441730008
 21
4374.627991408147
 31
0.0
  0
LINE
  5
85ED
  8
1
 10
8224.0697441730008
 20
6686.6279914081479
 30
0.0
 11
8224.0697441730044
 21
5353.6279914081479
 31
0.0
  0
LINE
  5
85EE
  8
1
 10
7274.0697441730008
 20
6686.6279914081479
 30
0.0
 11
7274.0697441730008
 21
5353.6279914081479
 31
0.0
  0
LINE
  5
85EF
  8
1
 10
7221.0697441729999
 20
6686.6279914081479
 30
0.0
 11
8277.0697441730008
 21
6686.6279914081479
 31
0.0
  0
LINE
  5
85F0
  8
1
 10
8277.0697441730008
 20
6686.6279914081479
 30
0.0
 11
8277.0697441730008
 21
5300.6279914081479
 31
0.0
  0
LINE
  5
85F1
  8
1
 10
7221.0697441729999
 20
6686.6279914081479
 30
0.0
 11
7221.0697441729999
 21
5300.6279914081479
 31
0.0
  0
LINE
  5
85F2
  8
2
 10
4558.5183543724188
 20
5299.627991408147
 30
0.0
 11
2494.926578205519
 21
5299.627991408147
 31
0.0
  0
LINE
  5
85F3
  8
2
 10
6122.8755837907383
 20
5299.627991408147
 30
0.0
 11
8373.1395046730522
 21
5299.627991408147
 31
0.0
  0
LINE
  5
85F4
  8
1
 10
8226.3697441730019
 20
5974.6279914081479
 30
0.0
 11
8234.0697441730026
 21
5974.6279914081479
 31
0.0
  0
LINE
  5
85F5
  8
1
 10
8203.0537140084707
 20
5957.1279914081479
 30
0.0
 11
8252.5287034668218
 21
5957.1279914081479
 31
0.0
  0
LINE
  5
85F6
  8
1
 10
8203.0537140084707
 20
4642.127991408147
 30
0.0
 11
8252.5287034668218
 21
4642.127991408147
 31
0.0
  0
LINE
  5
85F7
  8
1
 10
8226.3697441730019
 20
4624.627991408146
 30
0.0
 11
8234.0697441730026
 21
4624.627991408146
 31
0.0
  0
LINE
  5
85F8
  8
2
 10
6122.8755837907383
 20
4784.627991408147
 30
0.0
 11
6299.3035850370661
 21
4784.627991408147
 31
0.0
  0
LINE
  5
85F9
  8
2
 10
3655.081816123567
 20
10550.62853774078
 30
0.0
 11
3655.081816123567
 21
8489.9572871205801
 31
0.0
  0
LINE
  5
85FA
  8
2
 10
4259.1710100405871
 20
10121.006088529921
 30
0.0
 11
3043.6049908894338
 21
10121.006088529921
 31
0.0
  0
LINE
  5
85FB
  8
2
 10
7749.0697441729999
 20
6905.9559236918149
 30
0.0
 11
7749.0697441730017
 21
4109.6279914081479
 31
0.0
  0
POINT
  5
85FC
  8
1
 10
3655.081816123567
 20
6654.9137105134614
 30
0.0
  0
POINT
  5
85FD
  8
1
 10
2580.2815315129151
 20
5299.627991408147
 30
0.0
  0
INSERT
  5
85FE
  8
0
  2
YA_N
 10
-1757.227407310314
 20
-1218.7864174577801
 30
0.0
 41
30.0
 42
30.0
 43
30.0
  0
ARC
  5
8600
  8
1
 10
2755.081816123567
 20
4784.627991408147
 30
0.0
 40
203.5
 50
285.60369900000001
 51
254.39624000000001
  0
LINE
  5
8601
  8
1
 10
2700.3437791235669
 20
4588.6279914081479
 30
0.0
 11
2809.8198531235671
 21
4588.6279914081479
 31
0.0
  0
ARC
  5
8602
  8
1
 10
2939.081816123567
 20
4658.954652408147
 30
0.0
 40
5.0000669999999987
 50
0.0
 51
55.056334999999997
  0
LINE
  5
8603
  8
1
 10
2944.081816123567
 20
4658.954652408147
 30
0.0
 11
2944.081816123567
 21
4584.627991408147
 31
0.0
  0
LINE
  5
8604
  8
1
 10
2941.945586123567
 20
4663.0532844081481
 30
0.0
 11
2926.0077201235672
 21
4674.1897594081474
 31
0.0
  0
LINE
  5
8605
  8
1
 10
2566.081816123567
 20
4658.954652408147
 30
0.0
 11
2566.081816123567
 21
4584.627991408147
 31
0.0
  0
LINE
  5
8606
  8
1
 10
2568.2179251235671
 20
4663.0532844081481
 30
0.0
 11
2584.1557911235668
 21
4674.1897594081474
 31
0.0
  0
ARC
  5
8607
  8
1
 10
2571.081816123567
 20
4658.954652408147
 30
0.0
 40
5.0
 50
124.94366100000001
 51
180.0
  0
LINE
  5
8608
  8
1
 10
2998.5048411661769
 20
4584.627991408147
 30
0.0
 11
2825.081816123567
 21
4584.627991408147
 31
0.0
  0
LINE
  5
8609
  8
1
 10
3015.081816123567
 20
4524.6279914081479
 30
0.0
 11
2998.5048411661769
 21
4584.627991408147
 31
0.0
  0
LINE
  5
860A
  8
1
 10
2495.081816123567
 20
4524.6279914081479
 30
0.0
 11
2511.262772668686
 21
4584.627991408147
 31
0.0
  0
LINE
  5
860B
  8
1
 10
2825.081816123567
 20
4574.6279914081479
 30
0.0
 11
2685.081816123567
 21
4574.6279914081479
 31
0.0
  0
LINE
  5
860C
  8
1
 10
2825.081816123567
 20
4534.627991408147
 30
0.0
 11
2685.081816123567
 21
4534.627991408147
 31
0.0
  0
LINE
  5
860D
  8
1
 10
2685.081816123567
 20
4584.627991408147
 30
0.0
 11
2685.081816123567
 21
4574.6279914081479
 31
0.0
  0
LINE
  5
860E
  8
1
 10
2825.081816123567
 20
4584.627991408147
 30
0.0
 11
2825.081816123567
 21
4574.6279914081479
 31
0.0
  0
LINE
  5
860F
  8
1
 10
2825.081816123567
 20
4534.627991408147
 30
0.0
 11
2825.081816123567
 21
4524.6279914081479
 31
0.0
  0
LINE
  5
8610
  8
1
 10
2685.081816123567
 20
4534.627991408147
 30
0.0
 11
2685.081816123567
 21
4524.6279914081479
 31
0.0
  0
LINE
  5
8611
  8
1
 10
2685.081816123567
 20
4584.627991408147
 30
0.0
 11
2511.262772668686
 21
4584.627991408147
 31
0.0
  0
INSERT
  5
8612
  8
0
  2
YA_N
 10
-755.24367588184748
 20
-538.554984833856
 30
0.0
 41
30.0
 42
30.0
 43
30.0
  0
CIRCLE
  5
8614
  8
1
 10
3655.081816123567
 20
5299.627991408147
 30
0.0
 40
190.5
  0
LINE
  5
8615
  8
1
 10
7221.0697441729999
 20
5300.6279914081479
 30
0.0
 11
8277.0697441730008
 21
5300.6279914081479
 31
0.0
  0
LINE
  5
8616
  8
1
 10
7274.0697441730008
 20
5353.6279914081479
 30
0.0
 11
8224.0697441730008
 21
5353.6279914081479
 31
0.0
  0
LINE
  5
8617
  8
1
 10
7274.0697441730008
 20
6633.627991408147
 30
0.0
 11
8224.0697441730008
 21
6633.627991408147
 31
0.0
  0
LINE
  5
8618
  8
1
 10
8224.0697441730008
 20
5300.6279914081479
 30
0.0
 11
8224.0697441730008
 21
4524.6279914081479
 31
0.0
  0
LINE
  5
8619
  8
1
 10
7274.0697441730008
 20
5300.6279914081479
 30
0.0
 11
7274.0697441730008
 21
4524.6279914081488
 31
0.0
  0
LINE
  5
861A
  8
1
 10
2505.081816123567
 20
4524.6279914081479
 30
0.0
 11
2505.081816123567
 21
4374.627991408147
 31
0.0
  0
LINE
  5
861B
  8
1
 10
4405.0818161235666
 20
4259.627991408147
 30
0.0
 11
4405.0818161235666
 21
4109.6279914081479
 31
0.0
  0
LINE
  5
861C
  8
1
 10
4405.0818161235666
 20
4109.6279914081479
 30
0.0
 11
2505.081816123567
 21
4109.6279914081479
 31
0.0
1001
ACAD
1000
ASC_BOUNDS
1002
{
1070
    19
1005
0
1002
}
  0
LINE
  5
861D
  8
1
 10
4405.0818161235666
 20
4259.627991408147
 30
0.0
 11
2505.081816123567
 21
4259.627991408147
 31
0.0
  0
LINE
  5
861E
  8
1
 10
2505.081816123567
 20
4259.627991408147
 30
0.0
 11
2505.081816123567
 21
4109.6279914081479
 31
0.0
  0
LINE
  5
861F
  8
1
 10
4105.0818161235684
 20
4524.6279914081479
 30
0.0
 11
4105.0818161235684
 21
4374.627991408147
 31
0.0
  0
LINE
  5
8620
  8
1
 10
4105.0818161235684
 20
4259.627991408147
 30
0.0
 11
4105.0818161235684
 21
4109.6279914081479
 31
0.0
  0
POINT
  5
8621
  8
1
 10
4405.0818161235666
 20
4109.6279914081479
 30
0.0
  0
LINE
  5
862D
  8
1
 10
4405.0818161235666
 20
10676.006088529921
 30
0.0
 11
2905.081816123567
 21
10676.006088529921
 31
0.0
  0
LINE
  5
862E
  8
1
 10
4405.0818161235666
 20
9566.0060885299245
 30
0.0
 11
4105.0818161235684
 21
9566.0060885299245
 31
0.0
  0
LINE
  5
862F
  8
1
 10
4105.0818161235684
 20
8621.0060885299245
 30
0.0
 11
2505.081816123567
 21
8621.0060885299245
 31
0.0
  0
LINE
  5
8630
  8
1
 10
4405.0818161235666
 20
10676.006088529921
 30
0.0
 11
4405.0818161235666
 21
9566.0060885299245
 31
0.0
  0
LINE
  5
8631
  8
1
 10
2905.081816123567
 20
10676.006088529921
 30
0.0
 11
2905.081816123567
 21
9641.0060885299245
 31
0.0
  0
LINE
  5
8632
  8
1
 10
2505.081816123567
 20
9641.0060885299245
 30
0.0
 11
2505.081816123567
 21
8621.0060885299226
 31
0.0
  0
LINE
  5
8633
  8
1
 10
2905.081816123567
 20
9641.0060885299245
 30
0.0
 11
2505.081816123567
 21
9641.0060885299245
 31
0.0
  0
LINE
  5
8634
  8
1
 10
4105.0818161235684
 20
9566.0060885299245
 30
0.0
 11
4105.0818161235684
 21
8621.0060885299245
 31
0.0
  0
POINT
  5
8635
  8
1
 10
2905.081816123567
 20
10676.006088529921
 30
0.0
  0
POINT
  5
8636
  8
1
 10
2505.081816123567
 20
9641.0060885299245
 30
0.0
  0
POINT
  5
8637
  8
1
 10
4105.0818161235684
 20
8621.0060885299245
 30
0.0
  0
POINT
  5
8638
  8
1
 10
4405.0818161235666
 20
9566.0060885299245
 30
0.0
  0
LINE
  5
863A
  8
1
 10
6249.0697441729999
 20
4259.627991408147
 30
0.0
 11
8304.0697441730008
 21
4259.627991408147
 31
0.0
  0
LINE
  5
863B
  8
1
 10
6249.0697441729999
 20
4109.6279914081479
 30
0.0
 11
8304.0697441730008
 21
4109.6279914081479
 31
0.0
1001
ACAD
1000
ASC_BOUNDS
1002
{
1070
    19
1005
0
1005
0
1002
}
  0
LINE
  5
863C
  8
1
 10
6249.0697441729999
 20
4259.627991408147
 30
0.0
 11
6249.0697441729999
 21
4109.6279914081479
 31
0.0
  0
LINE
  5
863D
  8
1
 10
8304.0697441730008
 20
4259.627991408147
 30
0.0
 11
8304.0697441730008
 21
4109.6279914081479
 31
0.0
  0
LINE
  5
863F
  8
1
 10
7194.0697441730026
 20
4259.627991408147
 30
0.0
 11
7194.0697441730026
 21
4109.6279914081479
 31
0.0
  0
LINE
  5
8640
  8
1
 10
7194.0697441730026
 20
4524.6279914081479
 30
0.0
 11
7194.0697441730026
 21
4374.627991408147
 31
0.0
  0
LINE
  5
8642
  8
1
 10
7269.0697441730017
 20
4524.6279914081488
 30
0.0
 11
8304.0697441730008
 21
4524.6279914081479
 31
0.0
  0
LINE
  5
8643
  8
1
 10
6322.0697441729999
 20
5184.6279914081479
 30
0.0
 11
6322.0697441730008
 21
4524.6279914081479
 31
0.0
  0
LINE
  5
8644
  8
1
 10
6322.0697441730008
 20
5184.6279914081479
 30
0.0
 11
7166.069744172999
 21
5184.6279914081479
 31
0.0
  0
LINE
  5
8645
  8
1
 10
7166.069744172999
 20
5184.6279914081479
 30
0.0
 11
7166.0697441730017
 21
4524.6279914081479
 31
0.0
  0
LINE
  5
8646
  8
1
 10
6284.0697441730008
 20
5337.1279914081479
 30
0.0
 11
6284.0697441729999
 21
5262.1279914081479
 31
0.0
  0
LINE
  5
8647
  8
1
 10
6264.0697441730008
 20
5332.1279914081479
 30
0.0
 11
6284.0697441730008
 21
5332.1279914081479
 31
0.0
  0
LINE
  5
8648
  8
1
 10
6264.0697441730008
 20
5267.1279914081479
 30
0.0
 11
6284.0697441729999
 21
5267.1279914081479
 31
0.0
  0
CIRCLE
  5
8649
  8
1
 10
2755.081816123567
 20
4784.627991408147
 30
0.0
 40
127.0
  0
LINE
  5
864A
  8
1
 10
6154.0697441730008
 20
5490.127991408147
 30
0.0
 11
6154.0697441730008
 21
4657.6279914081479
 31
0.0
  0
LINE
  5
864B
  8
1
 10
6154.0697441730008
 20
5490.127991408147
 30
0.0
 11
6264.0697441730008
 21
5490.127991408147
 31
0.0
  0
LINE
  5
864C
  8
1
 10
6154.0697441730008
 20
5109.1279914081479
 30
0.0
 11
6264.0697441730008
 21
5109.1279914081479
 31
0.0
  0
LINE
  5
864D
  8
1
 10
6154.0697441730008
 20
4911.6279914081479
 30
0.0
 11
6264.0697441730017
 21
4911.6279914081479
 31
0.0
  0
LINE
  5
864E
  8
1
 10
6154.0697441730008
 20
4657.6279914081479
 30
0.0
 11
6264.0697441730017
 21
4657.6279914081479
 31
0.0
  0
LINE
  5
864F
  8
1
 10
6264.0697441730008
 20
5490.127991408147
 30
0.0
 11
6264.0697441730008
 21
4657.6279914081479
 31
0.0
  0
LINE
  5
8650
  8
1
 10
6302.0697441729999
 20
5579.6279914081479
 30
0.0
 11
6302.0697441730017
 21
4564.6279914081479
 31
0.0
  0
LINE
  5
8651
  8
1
 10
6102.0697441729999
 20
5579.6279914081479
 30
0.0
 11
6102.0697441729999
 21
4564.6279914081479
 31
0.0
  0
LINE
  5
8652
  8
1
 10
6102.0697441729999
 20
5579.6279914081479
 30
0.0
 11
6302.0697441729999
 21
5579.6279914081479
 31
0.0
  0
LINE
  5
8653
  8
1
 10
6102.0697441729999
 20
4564.6279914081479
 30
0.0
 11
6302.0697441729999
 21
4564.6279914081479
 31
0.0
  0
LINE
  5
8654
  8
1
 10
8234.0697441730026
 20
5974.6279914081479
 30
0.0
 11
8234.0697441730026
 21
4624.627991408146
 31
0.0
  0
POINT
  5
8655
  8
1
 10
6102.0697441729999
 20
5579.6279914081479
 30
0.0
  0
POINT
  5
8656
  8
1
 10
8234.0697441730026
 20
5974.6279914081479
 30
0.0
  0
ARC
  5
865C
  8
1
 10
3655.081816123567
 20
5299.627991408147
 30
0.0
 40
280.0
 50
296.46198581565909
 51
123.0963123914805
  0
ARC
  5
865D
  8
1
 10
2755.081816123567
 20
4784.627991408147
 30
0.0
 40
220.0
 50
123.0963123914805
 51
296.46198581565909
  0
LINE
  5
865E
  8
1
 10
3502.1883639311591
 20
5534.1990729094441
 30
0.0
 11
2634.9512465438179
 21
4968.9338411591671
 31
0.0
  0
LINE
  5
865F
  8
1
 10
3550.5206228830052
 20
5458.8674553236933
 30
0.0
 11
2685.3743539631928
 21
4890.7876340185112
 31
0.0
  0
LINE
  5
8660
  8
1
 10
3739.3922246446518
 20
5128.8005784586803
 30
0.0
 11
2811.288755137623
 21
4670.7430494418359
 31
0.0
  0
LINE
  5
8661
  8
1
 10
3779.8509222488742
 20
5048.9635341017874
 30
0.0
 11
2853.1146852220222
 21
4587.6773463817208
 31
0.0
  0
LINE
  5
8662
  8
1
 10
6284.0697441730008
 20
5337.1279914081479
 30
0.0
 11
7221.0697441729999
 21
5337.1279914081533
 31
0.0
  0
LINE
  5
8663
  8
1
 10
6284.069744172999
 20
5262.1279914081479
 30
0.0
 11
7274.0697441730008
 21
5262.1279914081479
 31
0.0
  0
LINE
  5
8664
  8
1
 10
3617.581816123567
 20
8656.0060885299226
 30
0.0
 11
3617.581816123567
 21
9646.0060885299245
 31
0.0
  0
LINE
  5
8665
  8
1
 10
3692.581816123567
 20
8656.0060885299263
 30
0.0
 11
3692.5818161235729
 21
9646.0060885299245
 31
0.0
  0
LINE
  5
8666
  8
1
 10
3935.081816123567
 20
8474.0060885299226
 30
0.0
 11
2535.081816123567
 21
8474.0060885299226
 31
0.0
  0
LINE
  5
8667
  8
1
 10
3935.081816123567
 20
8674.0060885299245
 30
0.0
 11
2535.081816123567
 21
8674.0060885299245
 31
0.0
  0
LINE
  5
8668
  8
1
 10
3845.581816123567
 20
8636.0060885299245
 30
0.0
 11
2628.081816123567
 21
8636.0060885299245
 31
0.0
  0
LINE
  5
8669
  8
1
 10
3845.581816123567
 20
8526.0060885299226
 30
0.0
 11
2628.081816123567
 21
8526.0060885299226
 31
0.0
  0
LINE
  5
866A
  8
1
 10
3910.081816123567
 20
8694.0060885299226
 30
0.0
 11
3692.5818161235679
 21
8694.0060885299245
 31
0.0
  0
LINE
  5
866B
  8
1
 10
2535.081816123567
 20
8474.0060885299226
 30
0.0
 11
2535.081816123567
 21
8674.0060885299245
 31
0.0
  0
LINE
  5
866C
  8
1
 10
2628.081816123567
 20
8526.0060885299226
 30
0.0
 11
2628.081816123567
 21
8636.0060885299245
 31
0.0
  0
LINE
  5
866D
  8
1
 10
2882.081816123567
 20
8526.0060885299226
 30
0.0
 11
2882.081816123567
 21
8636.0060885299245
 31
0.0
  0
LINE
  5
866E
  8
1
 10
3464.581816123567
 20
8526.0060885299226
 30
0.0
 11
3464.581816123567
 21
8636.0060885299245
 31
0.0
  0
LINE
  5
866F
  8
1
 10
3935.081816123567
 20
8474.0060885299226
 30
0.0
 11
3935.081816123567
 21
8674.0060885299245
 31
0.0
  0
POINT
  5
8670
  8
1
 10
3935.081816123567
 20
8474.0060885299226
 30
0.0
  0
LINE
  5
8671
  8
1
 10
3622.581816123567
 20
8636.0060885299245
 30
0.0
 11
3622.581816123567
 21
8656.0060885299263
 31
0.0
  0
LINE
  5
8672
  8
1
 10
3687.5818161235679
 20
8636.0060885299245
 30
0.0
 11
3687.5818161235679
 21
8656.0060885299263
 31
0.0
  0
LINE
  5
8673
  8
1
 10
3692.581816123567
 20
8656.0060885299263
 30
0.0
 11
3617.581816123567
 21
8656.0060885299263
 31
0.0
  0
LINE
  5
8674
  8
1
 10
3845.581816123567
 20
8526.0060885299226
 30
0.0
 11
3845.581816123567
 21
8636.0060885299245
 31
0.0
  0
LINE
  5
8675
  8
1
 10
3910.081816123567
 20
9538.0060885299226
 30
0.0
 11
3692.581816123572
 21
9538.0060885299245
 31
0.0
  0
LINE
  5
8676
  8
1
 10
4480.0818161235684
 20
9593.0060885299226
 30
0.0
 11
4430.0818161235666
 21
9593.0060885299226
 31
0.0
  0
LINE
  5
8677
  8
1
 10
4430.0818161235666
 20
9646.0060885299245
 30
0.0
 11
2576.081816123567
 21
9646.0060885299245
 31
0.0
  0
LINE
  5
8678
  8
1
 10
4480.0818161235684
 20
10649.006088529921
 30
0.0
 11
4430.0818161235666
 21
10649.006088529921
 31
0.0
  0
LINE
  5
8679
  8
1
 10
4430.0818161235666
 20
10596.006088529921
 30
0.0
 11
2576.081816123567
 21
10596.006088529921
 31
0.0
  0
LINE
  5
867A
  8
1
 10
4480.0818161235684
 20
10649.006088529921
 30
0.0
 11
4480.0818161235684
 21
9593.0060885299226
 31
0.0
  0
LINE
  5
867B
  8
1
 10
2576.081816123567
 20
10596.006088529921
 30
0.0
 11
2576.081816123567
 21
9646.0060885299245
 31
0.0
  0
LINE
  5
867C
  8
1
 10
4430.0818161235666
 20
10649.006088529921
 30
0.0
 11
4430.0818161235666
 21
9593.0060885299226
 31
0.0
  0
LINE
  5
867F
  8
2
 10
2755.081816123567
 20
8488.3483566485902
 30
0.0
 11
2755.081816123567
 21
9473.7156867083668
 31
0.0
  0
LINE
  5
8680
  8
1
 10
2958.581816123567
 20
9380.5060885299245
 30
0.0
 11
2551.581816123567
 21
9380.5060885299245
 31
0.0
  0
LINE
  5
8681
  8
1
 10
2551.581816123567
 20
8731.0060885299245
 30
0.0
 11
2755.081816123567
 21
8731.0060885299245
 31
0.0
  0
LINE
  5
8683
  8
1
 10
2725.081816123567
 20
8721.0060885299226
 30
0.0
 11
2725.081816123567
 21
8581.0060885299245
 31
0.0
  0
LINE
  5
8684
  8
1
 10
2785.081816123567
 20
8721.0060885299226
 30
0.0
 11
2785.081816123567
 21
8581.0060885299245
 31
0.0
  0
LINE
  5
8685
  8
1
 10
2958.581816123567
 20
8731.0060885299245
 30
0.0
 11
2755.081816123567
 21
8731.0060885299245
 31
0.0
  0
LINE
  5
8686
  8
1
 10
2722.581816123567
 20
8721.0060885299226
 30
0.0
 11
2787.581816123567
 21
8721.0060885299226
 31
0.0
  0
LINE
  5
8687
  8
1
 10
2722.581816123567
 20
8721.0060885299226
 30
0.0
 11
2722.581816123567
 21
8731.0060885299245
 31
0.0
  0
LINE
  5
8688
  8
1
 10
2787.581816123567
 20
8721.0060885299226
 30
0.0
 11
2787.581816123567
 21
8731.0060885299245
 31
0.0
  0
LINE
  5
868A
  8
1
 10
2785.081816123567
 20
8581.0060885299245
 30
0.0
 11
2725.081816123567
 21
8581.0060885299245
 31
0.0
  0
LINE
  5
868B
  8
1
 10
2958.581816123567
 20
8731.0060885299245
 30
0.0
 11
2958.581816123567
 21
9380.5060885299245
 31
0.0
  0
LINE
  5
868C
  8
1
 10
2551.581816123567
 20
8731.0060885299245
 30
0.0
 11
2551.581816123567
 21
9380.5060885299245
 31
0.0
  0
DIMENSION
  5
8699
  8
3
  2
*D2
 10
4405.0818161235666
 20
10912.345546157891
 30
0.0
 11
3579.4626159319519
 21
10912.345546157891
 31
0.0
 70
   128
 13
2905.081816123567
 23
10676.006088529921
 33
0.0
 14
4405.0818161235666
 24
10676.006088529921
 34
0.0
1001
ACAD
1000
DSTYLE
1002
{
1070
   287
1070
     3
1070
    40
1040
50.0
1070
   143
1040
0.039
1070
   172
1070
     1
1070
   271
1070
     0
1070
   279
1070
     0
1070
   288
1070
     1
1002
}
  0
DIMENSION
  5
86B1
  8
3
  2
*D3
 10
4860.2542064469244
 20
9566.0060885299245
 30
0.0
 11
4860.2542064469226
 21
10098.95487750085
 31
0.0
 70
   128
 13
4405.0818161235666
 23
10676.006088529921
 33
0.0
 14
4405.0818161235666
 24
9566.0060885299245
 34
0.0
 50
90.0
1001
ACAD
1000
DSTYLE
1002
{
1070
   287
1070
     3
1070
    40
1040
50.0
1070
   143
1040
0.039
1070
   172
1070
     1
1070
   271
1070
     0
1070
   279
1070
     0
1070
   288
1070
     1
1002
}
  0
DIMENSION
  5
86BD
  8
3
  2
*D4
 10
4860.2542064469226
 20
8621.0060885299245
 30
0.0
 11
4735.2542064469217
 21
9093.5060885299263
 31
0.0
 70
     0
 13
4405.0818161235666
 23
9566.0060885299245
 33
0.0
 14
4105.0818161235684
 24
8621.0060885299245
 34
0.0
 50
90.0
1001
ACAD
1000
DSTYLE
1002
{
1070
   287
1070
     4
1070
    40
1040
50.0
1070
    75
1070
     1
1070
   143
1040
0.039
1070
   172
1070
     1
1070
   271
1070
     0
1070
   279
1070
     1
1070
   288
1070
     1
1002
}
  0
DIMENSION
  5
86CA
  8
3
  2
*D5
 10
2505.081816123567
 20
8081.7460686846171
 30
0.0
 11
3286.400135358097
 21
8081.7460686846171
 31
0.0
 70
   128
 13
4105.0818161235684
 23
8621.0060885299245
 33
0.0
 14
2505.081816123567
 24
8621.0060885299245
 34
0.0
1001
ACAD
1000
DSTYLE
1002
{
1070
   287
1070
     3
1070
    40
1040
50.0
1070
   143
1040
0.039
1070
   172
1070
     1
1070
   271
1070
     0
1070
   279
1070
     0
1070
   288
1070
     1
1002
}
  0
DIMENSION
  5
86D7
  8
3
  2
*D6
 10
2103.2961170976359
 20
9641.0060885299245
 30
0.0
 11
2103.2961170976341
 21
9122.8860957179131
 31
0.0
 70
   128
 13
2505.081816123567
 23
8621.0060885299245
 33
0.0
 14
2505.081816123567
 24
9641.0060885299245
 34
0.0
 50
90.0
1001
ACAD
1000
DSTYLE
1002
{
1070
   287
1070
     3
1070
    40
1040
50.0
1070
   143
1040
0.039
1070
   172
1070
     1
1070
   271
1070
     0
1070
   279
1070
     0
1070
   288
1070
     1
1002
}
  0
DIMENSION
  5
86F0
  8
3
  2
*D7
 10
3655.081816123567
 20
6948.7661070993781
 30
0.0
 11
4069.364557878253
 21
6948.7661070993781
 31
0.0
 70
   128
 13
4480.0818161235684
 23
6686.6279914081479
 33
0.0
 14
3655.081816123567
 24
6654.9137105134614
 34
0.0
1001
ACAD
1000
DSTYLE
1002
{
1070
   287
1070
     3
1070
    40
1040
50.0
1070
   143
1040
0.039
1070
   172
1070
     1
1070
   271
1070
     0
1070
   279
1070
     0
1070
   288
1070
     1
1002
}
  0
DIMENSION
  5
86FC
  8
3
  2
*D8
 10
2576.081816123567
 20
6948.7661070993781
 30
0.0
 11
3115.581816123567
 21
7073.7661070993781
 31
0.0
 70
     0
 13
3655.081816123567
 23
6654.9137105134614
 33
0.0
 14
2576.081816123567
 24
5390.6279914081479
 34
0.0
1001
ACAD
1000
DSTYLE
1002
{
1070
   287
1070
     4
1070
    40
1040
50.0
1070
    75
1070
     1
1070
   143
1040
0.039
1070
   172
1070
     1
1070
   271
1070
     0
1070
   279
1070
     1
1070
   288
1070
     1
1002
}
  0
DIMENSION
  5
870A
  8
3
  2
*D9
 10
2505.081816123567
 20
7224.1999857702331
 30
0.0
 11
3362.9823307499901
 21
7224.1999857702331
 31
0.0
 70
   128
 13
4480.0818161235684
 23
6686.6279914081479
 33
0.0
 14
2505.081816123567
 24
4524.6279914081479
 34
0.0
1001
ACAD
1000
DSTYLE
1002
{
1070
   287
1070
     3
1070
    40
1040
50.0
1070
   143
1040
0.039
1070
   172
1070
     1
1070
   271
1070
     0
1070
   279
1070
     0
1070
   288
1070
     1
1002
}
  0
DIMENSION
  5
8717
  8
3
  2
*D10
 10
5172.0099769495873
 20
5299.627991408147
 30
0.0
 11
5172.0099769495873
 21
5993.3548662167523
 31
0.0
 70
   128
 13
4480.0818161235684
 23
6633.627991408147
 33
0.0
 14
4558.5183543724188
 24
5299.627991408147
 34
0.0
 50
90.0
1001
ACAD
1000
DSTYLE
1002
{
1070
   287
1070
     3
1070
    40
1040
50.0
1070
   143
1040
0.039
1070
   172
1070
     1
1070
   271
1070
     0
1070
   279
1070
     0
1070
   288
1070
     1
1002
}
  0
DIMENSION
  5
8724
  8
3
  2
*D11
 10
4879.1197967349217
 20
5353.6279914081479
 30
0.0
 11
4879.1197967349217
 21
5967.5329315057324
 31
0.0
 70
   128
 13
4480.0818161235684
 23
6633.627991408147
 33
0.0
 14
4480.0818161235684
 24
5353.6279914081479
 34
0.0
 50
90.0
1001
ACAD
1000
DSTYLE
1002
{
1070
   287
1070
     3
1070
    40
1040
50.0
1070
   143
1040
0.039
1070
   172
1070
     1
1070
   271
1070
     0
1070
   279
1070
     0
1070
   288
1070
     1
1002
}
  0
DIMENSION
  5
873B
  8
3
  2
*D12
 10
5172.0099769495873
 20
4374.627991408147
 30
0.0
 11
5047.0099769495846
 21
4837.1279914081488
 31
0.0
 70
     0
 13
4558.5183543724188
 23
5299.627991408147
 33
0.0
 14
4405.0818161235666
 24
4374.627991408147
 34
0.0
 50
90.0
1001
ACAD
1000
DSTYLE
1002
{
1070
   287
1070
     4
1070
    40
1040
50.0
1070
    75
1070
     1
1070
   143
1040
0.039
1070
   172
1070
     1
1070
   271
1070
     0
1070
   279
1070
     1
1070
   288
1070
     1
1002
}
  0
DIMENSION
  5
875B
  8
3
  2
*D13
 10
5172.0099769495873
 20
4109.6279914081479
 30
0.0
 11
5047.0099769495846
 21
3681.0565628367199
 31
0.0
 70
     0
 13
4405.0818161235666
 23
4259.627991408147
 33
0.0
 14
4405.0818161235666
 24
4109.6279914081479
 34
0.0
 50
90.0
1001
ACAD
1000
DSTYLE
1002
{
1070
   287
1070
     3
1070
    40
1040
50.0
1070
   143
1040
0.039
1070
   172
1070
     1
1070
   271
1070
     0
1070
   279
1070
     0
1070
   288
1070
     1
1070
     6
1000
DOT
1002
}
  0
DIMENSION
  5
87CB
  8
3
  2
*D14
 10
3655.081816123567
 20
3770.638338032295
 30
0.0
 11
3078.1609798989662
 21
3770.638338032295
 31
0.0
 70
   128
 13
2505.081816123567
 23
4109.6279914081479
 33
0.0
 14
3655.081816123567
 24
4109.6279914081479
 34
0.0
1001
ACAD
1000
DSTYLE
1002
{
1070
   287
1070
     3
1070
    40
1040
50.0
1070
   143
1040
0.039
1070
   172
1070
     1
1070
   271
1070
     0
1070
   279
1070
     0
1070
   288
1070
     1
1002
}
  0
DIMENSION
  5
87D7
  8
3
  2
*D15
 10
4405.0818161235666
 20
3770.638338032295
 30
0.0
 11
4030.081816123567
 21
3895.638338032295
 31
0.0
 70
     0
 13
3655.081816123567
 23
4109.6279914081479
 33
0.0
 14
4405.0818161235666
 24
4109.6279914081479
 34
0.0
1001
ACAD
1000
DSTYLE
1002
{
1070
   287
1070
     4
1070
    40
1040
50.0
1070
    75
1070
     1
1070
   143
1040
0.039
1070
   172
1070
     1
1070
   271
1070
     0
1070
   279
1070
     1
1070
   288
1070
     1
1002
}
  0
DIMENSION
  5
87E4
  8
3
  2
*D16
 10
7749.0697441730017
 20
3770.638338032295
 30
0.0
 11
7072.8959754724119
 21
3770.638338032295
 31
0.0
 70
   128
 13
6249.0697441729999
 23
4109.6279914081479
 33
0.0
 14
7749.0697441730017
 24
4109.6279914081479
 34
0.0
1001
ACAD
1000
DSTYLE
1002
{
1070
   287
1070
     3
1070
    40
1040
50.0
1070
   143
1040
0.039
1070
   172
1070
     1
1070
   271
1070
     0
1070
   279
1070
     0
1070
   288
1070
     1
1002
}
  0
DIMENSION
  5
87F2
  8
3
  2
*D17
 10
8304.0697441730008
 20
3770.638338032295
 30
0.0
 11
8042.9367825009622
 21
3892.747357576372
 31
0.0
 12
0.0
 22
-70.0
 32
0.0
 70
   128
 13
7749.0697441730017
 23
4109.6279914081479
 33
0.0
 14
8304.0697441730008
 24
4109.6279914081479
 34
0.0
1001
ACAD
1000
DSTYLE
1002
{
1070
   288
1070
     1
1070
   172
1070
     1
1070
    75
1070
     1
1070
    40
1040
50.0
1070
   271
1070
     0
1070
   143
1040
0.039
1002
}
  0
DIMENSION
  5
8822
  8
3
  2
*D18
 10
8666.1480083497336
 20
4674.627991408147
 30
0.0
 11
8666.1480083497281
 21
5319.6254043207673
 31
0.0
 70
   128
 13
8234.0697441730026
 23
5924.627991408147
 33
0.0
 14
8234.0697441730026
 24
4674.627991408147
 34
0.0
 50
90.0
1001
ACAD
1000
DSTYLE
1002
{
1070
   287
1070
     3
1070
     3
1000
φ<>
1070
    40
1040
50.0
1070
   143
1040
0.039
1070
   172
1070
     1
1070
   271
1070
     0
1070
   279
1070
     0
1070
   288
1070
     1
1002
}
  0
DIMENSION
  5
883A
  8
3
  2
*D19
 10
8224.0697441730008
 20
6889.0218674917933
 30
0.0
 11
7748.850537832659
 21
6889.0218674917933
 31
0.0
 70
   128
 13
7274.0697441730008
 23
6686.6279914081479
 33
0.0
 14
8224.0697441730008
 24
6686.6279914081479
 34
0.0
1001
ACAD
1000
DSTYLE
1002
{
1070
   287
1070
     3
1070
    40
1040
50.0
1070
   143
1040
0.039
1070
   172
1070
     1
1070
   271
1070
     0
1070
   279
1070
     0
1070
   288
1070
     1
1002
}
  0
DIMENSION
  5
8857
  8
3
  2
*D20
 10
7749.0697441729999
 20
7175.6834492442949
 30
0.0
 11
8001.8172840663901
 21
7319.8271790820436
 31
0.0
 70
   128
 13
8234.0697441730026
 23
5974.6279914081479
 33
0.0
 14
7749.0697441729999
 24
7105.4151504467372
 34
0.0
1001
ACAD
1000
DSTYLE
1002
{
1070
   288
1070
     1
1070
   172
1070
     1
1070
    40
1040
50.0
1070
   271
1070
     0
1070
   143
1040
0.039
1002
}
  0
DIMENSION
  5
8879
  8
3
  2
*D21
 10
6102.0697441729999
 20
7175.6834492442949
 30
0.0
 11
6925.5697441729999
 21
7425.6834492442949
 31
0.0
 70
     0
  1
MAX\P1680
 13
7749.0697441729999
 23
7105.4151504467372
 33
0.0
 14
6102.0697441729999
 24
5579.6279914081479
 34
0.0
1001
ACAD
1000
DSTYLE
1002
{
1070
   287
1070
     4
1070
    40
1040
50.0
1070
    75
1070
     1
1070
   143
1040
0.039
1070
   172
1070
     1
1070
   271
1070
     0
1070
   279
1070
     1
1070
   288
1070
     1
1002
}
  0
LINE
  5
892C
  8
4
 10
9250.0
 20
2500.0
 30
0.0
 11
9250.0
 21
1500.0
 31
0.0
  0
LINE
  5
892D
  8
4
 10
5750.0
 20
2500.0
 30
0.0
 11
5750.0
 21
1500.0
 31
0.0
  0
LINE
  5
892E
  8
4
 10
3250.0
 20
2500.0
 30
0.0
 11
3250.0
 21
1500.0
 31
0.0
  0
LINE
  5
8931
  8
4
 10
3250.0
 20
1500.0
 30
0.0
 11
9250.0
 21
1500.0
 31
0.0
  0
LINE
  5
8932
  8
4
 10
3250.0
 20
2000.0
 30
0.0
 11
9250.0
 21
2000.0
 31
0.0
  0
TEXT
  5
8933
  8
4
 10
3442.5104042345079
 20
2157.7151293330639
 30
0.0
 40
250.0
  1
機器名称
  0
TEXT
  5
8934
  8
4
 10
3431.2905301239871
 20
1608.225783660054
 30
0.0
 40
250.0
  1
機器型番
  0
TEXT
  5
8935
  8
4
 10
5891.5410279524913
 20
2109.1617211884191
 30
0.0
 40
212.5
  1
ミツヤ多翼送風機
  0
TEXT
  5
8936
  8
4
 10
5933.2724779274031
 20
1585.797921399716
 30
0.0
 40
250.0
  1
MF#8-1
  0
TEXT
  5
8938
  8
4
 10
4087.177885253594
 20
11917.14420666257
 30
0.0
 40
270.0
  1
床置防振ベット
  0
TEXT
  5
8939
  8
4
 10
1464.3710723791439
 20
12669.40488099649
 30
0.0
 40
360.0
  1
遠心式片吸込片持多翼ファン
  0
LINE
  5
893A
  8
4
 10
1250.0
 20
12347.043771324021
 30
0.0
 11
9250.0
 21
12347.043771324021
 31
0.0
  0
LINE
  5
893B
  8
4
 10
1250.0
 20
13347.043771324021
 30
0.0
 11
9250.0
 21
13347.043771324021
 31
0.0
  0
LINE
  5
893C
  8
4
 10
3250.0
 20
2500.0
 30
0.0
 11
9250.0
 21
2500.0
 31
0.0
  0
LINE
  5
893D
  8
4
 10
1250.0
 20
13347.043771324021
 30
0.0
 11
1250.0
 21
12347.043771324021
 31
0.0
  0
TEXT
  5
893E
  8
4
 10
1907.8837240400819
 20
11911.59738773171
 30
0.0
 40
270.0
  1
右回転右横向
  0
TEXT
  5
893F
  8
4
 10
7344.8477962464494
 20
13530.30540747654
 30
0.0
 40
280.0
  1
No.
  0
TEXT
  5
8940
  8
4
 10
6556.4803130000646
 20
11917.14420666257
 30
0.0
 40
270.0
  1
縮尺：1/50
  0
LINE
  5
8941
  8
4
 10
9250.0
 20
13347.043771324021
 30
0.0
 11
9250.0
 21
12347.043771324021
 31
0.0
  0
LINE
  5
8942
  8
4
 10
10500.0
 20
14750.0
 30
0.0
 11
10500.0
 21
14750.0
 31
0.0
  0
LINE
  5
8943
  8
4
 10
7203.0871117993229
 20
13406.317915627
 30
0.0
 11
7203.0871117993229
 21
13933.26130774876
 31
0.0
  0
LINE
  5
8944
  8
4
 10
7203.0871117993229
 20
13933.26130774876
 30
0.0
 11
9250.0
 21
13933.26130774876
 31
0.0
  0
LINE
  5
8945
  8
4
 10
9250.0
 20
13933.26130774876
 30
0.0
 11
9250.0
 21
13406.317915627
 31
0.0
  0
LINE
  5
8946
  8
4
 10
9250.0
 20
13406.317915627
 30
0.0
 11
7203.0871117993229
 21
13406.317915627
 31
0.0
  0
LINE
  5
8947
  8
4
 10
0.0
 20
0.0
 30
0.0
 11
0.0
 21
14750.0
 31
0.0
  0
LINE
  5
8948
  8
4
 10
0.0
 20
14750.0
 30
0.0
 11
10500.0
 21
14750.0
 31
0.0
  0
LINE
  5
8949
  8
4
 10
10500.0
 20
14750.0
 30
0.0
 11
10500.0
 21
0.0
 31
0.0
  0
LINE
  5
894A
  8
4
 10
10500.0
 20
0.0
 30
0.0
 11
0.0
 21
0.0
 31
0.0
  0
LINE
  5
897A
  8
1
 10
6209.0697441729999
 20
4750.6279914081479
 30
0.0
 11
6209.0697441729999
 21
4814.6279914081479
 31
0.0
  0
LINE
  5
897B
  8
1
 10
6319.0697441730008
 20
4750.6279914081479
 30
0.0
 11
6319.0697441730008
 21
4754.6279914081479
 31
0.0
  0
LINE
  5
8988
  8
1
 10
6322.0697441730008
 20
4754.6279914081479
 30
0.0
 11
6209.0697441729999
 21
4754.6279914081479
 31
0.0
  0
LINE
  5
8989
  8
1
 10
6322.0697441730008
 20
4814.6279914081479
 30
0.0
 11
6209.0697441729999
 21
4814.6279914081479
 31
0.0
  0
LINE
  5
898D
  8
1
 10
6319.0697441730008
 20
4750.6279914081479
 30
0.0
 11
6209.0697441729999
 21
4750.6279914081479
 31
0.0
  0
DIMENSION
  5
89BC
  8
3
  2
*D23
 10
2505.081816123567
 20
10912.345546157891
 30
0.0
 11
2705.081816123567
 21
11040.910032208471
 31
0.0
 70
   128
 13
2905.081816123567
 23
10676.006088529921
 33
0.0
 14
2505.081816123567
 24
9641.0060885299245
 34
0.0
1001
ACAD
1000
DSTYLE
1002
{
1070
   288
1070
     1
1070
   172
1070
     1
1070
    75
1070
     1
1070
    40
1040
50.0
1070
   271
1070
     0
1070
   143
1040
0.039
1002
}
  0
LINE
  5
89E5
  8
1
 10
3399.7878678991729
 20
5184.6279914081488
 30
0.0
 11
3910.3757643479621
 21
5184.6279914081479
 31
0.0
  0
LINE
  5
89E7
  8
1
 10
3910.3757643479621
 20
5184.6279914081488
 30
0.0
 11
4105.0818161235684
 21
4524.6279914081479
 31
0.0
  0
LINE
  5
89E8
  8
1
 10
3399.7878678991719
 20
5184.6279914081488
 30
0.0
 11
3205.081816123567
 21
4524.6279914081479
 31
0.0
  0
DIMENSION
  5
89F9
  8
3
  2
*D24
 10
5175.9579063723804
 20
4374.627991408147
 30
0.0
 11
5479.529334943807
 21
4507.4851342652919
 31
0.0
 70
     0
 13
4405.0818161235666
 23
4259.627991408147
 33
0.0
 14
4405.0818161235666
 24
4374.627991408147
 34
0.0
 50
90.0
1001
ACAD
1000
DSTYLE
1002
{
1070
   287
1070
     4
1070
     3
1000
(<>)
1070
    40
1040
50.0
1070
   143
1040
0.039
1070
   172
1070
     1
1070
   271
1070
     0
1070
   279
1070
     1
1070
     6
1000
DOT
1002
}
  0
DIMENSION
  5
8A06
  8
3
  2
*D25
 10
5725.8195121077879
 20
4109.6279914081479
 30
0.0
 11
5561.5337978220723
 21
5398.1279914081488
 31
0.0
 70
     0
 13
4480.0818161235684
 23
6686.6279914081479
 33
0.0
 14
4405.0818161235666
 24
4109.6279914081479
 34
0.0
 50
90.0
1001
ACAD
1000
DSTYLE
1002
{
1070
   287
1070
     4
1070
     3
1000
(<>)
1070
    40
1040
50.0
1070
   143
1040
0.039
1070
   172
1070
     1
1070
   271
1070
     0
1070
   279
1070
     1
1002
}
  0
LINE
  5
8A08
  8
1
 10
3910.081816123567
 20
9538.0060885299226
 30
0.0
 11
3910.081816123567
 21
8694.0060885299226
 31
0.0
  0
LINE
  5
8A09
  8
1
 10
3400.081816123567
 20
9538.0060885299245
 30
0.0
 11
3400.081816123567
 21
8694.0060885299226
 31
0.0
  0
LINE
  5
8A0A
  8
1
 10
3617.581816123567
 20
9538.0060885299226
 30
0.0
 11
3400.081816123567
 21
9538.0060885299245
 31
0.0
  0
LINE
  5
8A0B
  8
1
 10
3617.581816123567
 20
8694.0060885299245
 30
0.0
 11
3400.081816123567
 21
8694.0060885299245
 31
0.0
  0
ARC
  5
8A10
  8
1
 10
3564.0818161235679
 20
5390.6279914081479
 30
0.0
 40
988.0
 50
231.1318485827463
 51
241.22516869738709
  0
ENDSEC
  0
EOF
